0
SECTION
2
HEADER
9
$ACADVER
1
AC1015
9
$DWGCODEPAGE
3
ANSI_1252
9
$HANDSEED
5
203
9
$ANGBASE
50
0
9
$ANGDIR
70
0
9
$ATTMODE
70
1
9
$AUNITS
70
0
9
$AUPREC
70
0
9
$CECOLOR
62
256
9
$CELTSCALE
40
1
9
$CELTYPE
6
ByLayer
9
$CELWEIGHT
370
18
9
$CLAYER
8
0
9
$CMLJUST
70
0
9
$CMLSCALE
40
1
9
$CMLSTYLE
2
Standard
9
$DIMSTYLE
2
Standard
9
$TEXTSIZE
40
0.2
9
$TEXTSTYLE
7
Standard
9
$LUNITS
70
2
9
$LUPREC
70
4
9
$EXTNAMES
290
1
9
$INSUNITS
70
4
9
$LTSCALE
40
1
9
$LWDISPLAY
290
1
9
$PDMODE
70
0
9
$PDSIZE
40
0
9
$PLINEGEN
70
0
0
ENDSEC
0
SECTION
2
CLASSES
0
CLASS
1
RASTERVARIABLES
2
AcDbRasterVariables
3
ISM
90
0
280
0
281
0
0
ENDSEC
0
SECTION
2
TABLES
0
TABLE
2
VPORT
5
1f9
100
AcDbSymbolTable
0
VPORT
5
1
100
AcDbSymbolTableRecord
100
AcDbViewportTableRecord
2
*Active
70
0
10
0
20
0
11
1
21
1
12
-1
22
1
13
0
23
0
14
0.5
24
0.5
15
10
25
10
16
0
26
0
36
1
17
0
27
0
37
0
0
ENDTAB
0
TABLE
2
LTYPE
5
1fa
100
AcDbSymbolTable
0
LTYPE
5
14
100
AcDbSymbolTableRecord
100
AcDbLinetypeTableRecord
70
0
2
ByBlock
3

72
65
73
0
40
0
0
LTYPE
5
15
100
AcDbSymbolTableRecord
100
AcDbLinetypeTableRecord
70
0
2
ByLayer
3

72
65
73
0
40
0
0
LTYPE
5
16
100
AcDbSymbolTableRecord
100
AcDbLinetypeTableRecord
70
0
2
Continuous
3
Solid line
72
65
73
0
40
0
0
LTYPE
5
6E
100
AcDbSymbolTableRecord
100
AcDbLinetypeTableRecord
70
0
2
CENTER
3
____ _ ____ _ ____ _ ____
72
65
73
4
40
47.5
49
22
74
0
49
-8.5
74
0
49
8.5
74
0
49
-8.5
74
0
0
LTYPE
5
6F
100
AcDbSymbolTableRecord
100
AcDbLinetypeTableRecord
70
0
2
DASHED
3
__ __ __ __ __ __ __ __ __
72
65
73
2
40
25.72
49
12.86
74
0
49
-12.86
74
0
0
ENDTAB
0
TABLE
2
LAYER
5
1fb
100
AcDbSymbolTable
0
LAYER
5
10
100
AcDbSymbolTableRecord
100
AcDbLayerTableRecord
2
0
70
0
62
7
6
Continuous
290
1
370
-3
390
0
0
LAYER
5
71
100
AcDbSymbolTableRecord
100
AcDbLayerTableRecord
2
80
70
0
62
-6
6
Continuous
290
1
370
-3
390
0
0
LAYER
5
73
100
AcDbSymbolTableRecord
100
AcDbLayerTableRecord
2
81
70
0
62
-3
6
Continuous
290
1
370
-3
390
0
0
LAYER
5
75
100
AcDbSymbolTableRecord
100
AcDbLayerTableRecord
2
1
70
0
62
4
6
Continuous
290
1
370
-3
390
0
0
LAYER
5
8D
100
AcDbSymbolTableRecord
100
AcDbLayerTableRecord
2
4
70
0
62
-2
6
CENTER
290
1
370
-3
390
0
0
LAYER
5
A6
100
AcDbSymbolTableRecord
100
AcDbLayerTableRecord
2
2
70
0
62
7
6
Continuous
290
1
370
-3
390
0
0
LAYER
5
10E
100
AcDbSymbolTableRecord
100
AcDbLayerTableRecord
2
Defpoints
70
0
62
7
6
Continuous
290
0
370
-3
390
0
0
LAYER
5
1e5
100
AcDbSymbolTableRecord
100
AcDbLayerTableRecord
2
SK1
70
0
62
4
6
Continuous
290
1
370
-3
390
0
0
LAYER
5
1e6
100
AcDbSymbolTableRecord
100
AcDbLayerTableRecord
2
SK4
70
0
62
2
6
CENTER
290
1
370
-3
390
0
0
LAYER
5
1e7
100
AcDbSymbolTableRecord
100
AcDbLayerTableRecord
2
SK2
70
0
62
7
6
Continuous
290
1
370
-3
390
0
0
LAYER
5
1e8
100
AcDbSymbolTableRecord
100
AcDbLayerTableRecord
2
SK6
70
0
62
5
6
Continuous
290
1
370
-3
390
0
0
ENDTAB
0
TABLE
2
STYLE
5
1fc
100
AcDbSymbolTable
0
STYLE
5
11
100
AcDbSymbolTableRecord
100
AcDbTextStyleTableRecord
2
Standard
3
txt
70
0
71
0
40
0
41
1
42
0
50
0
0
STYLE
5
F3
100
AcDbSymbolTableRecord
100
AcDbTextStyleTableRecord
2
iso_b_vert
3
simplex.shx
70
0
71
0
40
0
41
1
42
0
50
0
0
STYLE
5
F4
100
AcDbSymbolTableRecord
100
AcDbTextStyleTableRecord
2
DWGDirectTextStyle
3
simplex
70
0
71
0
40
0
41
1
42
0
50
0
0
ENDTAB
0
TABLE
2
DIMSTYLE
5
1fd
100
AcDbSymbolTable
100
AcDbDimStyleTable
0
DIMSTYLE
105
27
100
AcDbSymbolTableRecord
100
AcDbDimStyleTableRecord
2
Standard
70
0
3
<>
41
0.18
42
0.0625
44
0.18
140
0.18
147
0.09
73
0
74
0
77
1
271
2
275
0
278
52
280
0
340
11
0
ENDTAB
0
TABLE
2
VIEW
5
1fe
100
AcDbSymbolTable
0
ENDTAB
0
TABLE
2
UCS
5
1ff
100
AcDbSymbolTable
0
ENDTAB
0
TABLE
2
APPID
5
200
100
AcDbSymbolTable
0
APPID
5
12
100
AcDbSymbolTableRecord
100
AcDbRegAppTableRecord
2
ACAD
70
0
0
APPID
5
10A
100
AcDbSymbolTableRecord
100
AcDbRegAppTableRecord
2
ACAD_DSTYLE_DIMBREAK
70
0
0
APPID
5
1A4
100
AcDbSymbolTableRecord
100
AcDbRegAppTableRecord
2
ACAD_DSTYLE_DIM_LINETYPE
70
0
0
APPID
5
1A5
100
AcDbSymbolTableRecord
100
AcDbRegAppTableRecord
2
ACAD_DSTYLE_DIM_EXT1_LINETYPE
70
0
0
APPID
5
1A6
100
AcDbSymbolTableRecord
100
AcDbRegAppTableRecord
2
ACAD_DSTYLE_DIM_EXT2_LINETYPE
70
0
0
APPID
5
1E1
100
AcDbSymbolTableRecord
100
AcDbRegAppTableRecord
2
ACAD_MLEADERVER
70
0
0
ENDTAB
0
TABLE
2
BLOCK_RECORD
5
201
100
AcDbSymbolTable
0
BLOCK_RECORD
5
1F
100
AcDbSymbolTableRecord
100
AcDbBlockTableRecord
2
*Model_Space
340
0
70
0
0
BLOCK_RECORD
5
1B
100
AcDbSymbolTableRecord
100
AcDbBlockTableRecord
2
*Paper_Space
340
0
70
0
0
BLOCK_RECORD
5
23
100
AcDbSymbolTableRecord
100
AcDbBlockTableRecord
2
*Paper_Space0
340
0
70
0
0
BLOCK_RECORD
5
10F
100
AcDbSymbolTableRecord
100
AcDbBlockTableRecord
2
*D1
340
0
70
0
0
BLOCK_RECORD
5
11B
100
AcDbSymbolTableRecord
100
AcDbBlockTableRecord
2
_U0
340
0
70
0
0
BLOCK_RECORD
5
127
100
AcDbSymbolTableRecord
100
AcDbBlockTableRecord
2
*D3
340
0
70
0
0
BLOCK_RECORD
5
133
100
AcDbSymbolTableRecord
100
AcDbBlockTableRecord
2
_U1
340
0
70
0
0
BLOCK_RECORD
5
13F
100
AcDbSymbolTableRecord
100
AcDbBlockTableRecord
2
*D5
340
0
70
0
0
BLOCK_RECORD
5
14B
100
AcDbSymbolTableRecord
100
AcDbBlockTableRecord
2
_U2
340
0
70
0
0
BLOCK_RECORD
5
157
100
AcDbSymbolTableRecord
100
AcDbBlockTableRecord
2
*D7
340
0
70
0
0
BLOCK_RECORD
5
165
100
AcDbSymbolTableRecord
100
AcDbBlockTableRecord
2
_U3
340
0
70
0
0
BLOCK_RECORD
5
171
100
AcDbSymbolTableRecord
100
AcDbBlockTableRecord
2
*D9
340
0
70
0
0
BLOCK_RECORD
5
17D
100
AcDbSymbolTableRecord
100
AcDbBlockTableRecord
2
_U4
340
0
70
0
0
ENDTAB
0
ENDSEC
0
SECTION
2
BLOCKS
0
BLOCK
5
20
100
AcDbEntity
8
0
100
AcDbBlockBegin
2
*Model_Space
70
0
10
0
20
0
30
0
3
*Model_Space
0
ENDBLK
5
21
100
AcDbEntity
8
0
100
AcDbBlockEnd
0
BLOCK
5
1C
100
AcDbEntity
8
0
100
AcDbBlockBegin
2
*Paper_Space
70
0
10
0
20
0
30
0
3
*Paper_Space
0
ENDBLK
5
1D
100
AcDbEntity
8
0
100
AcDbBlockEnd
0
BLOCK
5
24
100
AcDbEntity
8
0
100
AcDbBlockBegin
2
*Paper_Space0
70
0
10
0
20
0
30
0
3
*Paper_Space0
0
ENDBLK
5
25
100
AcDbEntity
8
0
100
AcDbBlockEnd
0
BLOCK
5
110
100
AcDbEntity
8
0
100
AcDbBlockBegin
2
*D1
70
1
10
0
20
0
30
0
3
*D1
0
LINE
5
112
100
AcDbEntity
8
0
62
256
6
ByLayer
370
-2
48
1
60
0
100
AcDbLine
10
0
20
-1.5875
30
0
11
0
21
-17.988398
31
0
39
0
210
0
220
0
230
1
0
LINE
5
113
100
AcDbEntity
8
0
62
256
6
ByLayer
370
-2
48
1
60
0
100
AcDbLine
10
55.2824
20
-7.3625
30
0
11
55.2824
21
-17.988398
31
0
39
0
210
0
220
0
230
1
0
LINE
5
114
100
AcDbEntity
8
0
62
256
6
ByLayer
370
-2
48
1
60
0
100
AcDbLine
10
3.5
20
-15.988398
30
0
11
51.7824
21
-15.988398
31
0
39
0
210
0
220
0
230
1
0
SOLID
5
115
100
AcDbEntity
8
0
62
256
6
ByLayer
370
-1
48
1
60
0
100
AcDbTrace
10
3.5
20
-15.405065
30
0
11
3.5
21
-16.571732
31
0
12
0
22
-15.988398
32
0
13
0
23
-15.988398
33
0
39
0
210
0
220
0
230
1
0
SOLID
5
116
100
AcDbEntity
8
0
62
256
6
ByLayer
370
-1
48
1
60
0
100
AcDbTrace
10
51.7824
20
-16.571732
30
0
11
51.7824
21
-15.405065
31
0
12
55.2824
22
-15.988398
32
0
13
55.2824
23
-15.988398
33
0
39
0
210
0
220
0
230
1
0
MTEXT
5
117
100
AcDbEntity
8
0
62
256
6
ByLayer
370
18
48
1
60
0
100
AcDbMText
10
27.6412
20
-8.988398
30
0
210
0
220
0
230
1
1
\A1;55.28
40
3.5
41
0
44
1
50
0
71
5
72
5
7
iso_b_vert
0
POINT
5
118
100
AcDbEntity
8
Defpoints
62
0
6
ByLayer
370
-1
48
1
60
0
100
AcDbPoint
10
0
20
0
30
0
39
0
210
0
220
0
230
1
50
360
0
POINT
5
119
100
AcDbEntity
8
Defpoints
62
0
6
ByLayer
370
-1
48
1
60
0
100
AcDbPoint
10
55.2824
20
-5.775
30
0
39
0
210
0
220
0
230
1
50
360
0
POINT
5
11A
100
AcDbEntity
8
Defpoints
62
0
6
ByLayer
370
-1
48
1
60
0
100
AcDbPoint
10
55.2824
20
-15.988398
30
0
39
0
210
0
220
0
230
1
50
360
0
ENDBLK
5
111
100
AcDbEntity
8
0
100
AcDbBlockEnd
0
BLOCK
5
122
100
AcDbEntity
8
0
100
AcDbBlockBegin
2
_U0
70
0
10
0
20
0
30
0
3
_U0
0
MTEXT
5
11C
100
AcDbEntity
8
SK2
62
256
6
ByLayer
370
13
48
1
60
0
100
AcDbMText
10
22.503901
20
-14.955765
30
0
210
0
220
0
230
1
1
\W0.7317;55,28
40
3.5
41
0
44
1.084337
50
0
71
7
72
5
7
iso_b_vert
0
LINE
5
11D
100
AcDbEntity
8
SK2
62
256
6
ByLayer
370
13
48
1
60
0
100
AcDbLine
10
0
20
-1.5875
30
0
11
0
21
-17.988398
31
0
39
0
210
0
220
0
230
1
0
LINE
5
11E
100
AcDbEntity
8
SK2
62
256
6
ByLayer
370
13
48
1
60
0
100
AcDbLine
10
55.2824
20
-7.3625
30
0
11
55.2824
21
-17.988398
31
0
39
0
210
0
220
0
230
1
0
LINE
5
11F
100
AcDbEntity
8
SK2
62
256
6
ByLayer
370
13
48
1
60
0
100
AcDbLine
10
0
20
-15.988398
30
0
11
55.2824
21
-15.988398
31
0
39
0
210
0
220
0
230
1
0
SOLID
5
120
100
AcDbEntity
8
SK2
62
256
6
ByLayer
370
18
48
1
60
0
100
AcDbTrace
10
0
20
-15.988398
30
0
11
3.499998
21
-15.527615
31
0
12
3.500002
22
-16.449182
32
0
13
3.500002
23
-16.449182
33
0
39
0
210
0
220
0
230
1
0
SOLID
5
121
100
AcDbEntity
8
SK2
62
256
6
ByLayer
370
18
48
1
60
0
100
AcDbTrace
10
55.2824
20
-15.988398
30
0
11
51.782402
21
-16.449182
31
0
12
51.782398
22
-15.527615
32
0
13
51.782398
23
-15.527615
33
0
39
0
210
0
220
0
230
1
0
ENDBLK
5
123
100
AcDbEntity
8
0
100
AcDbBlockEnd
0
BLOCK
5
128
100
AcDbEntity
8
0
100
AcDbBlockBegin
2
*D3
70
1
10
0
20
0
30
0
3
*D3
0
LINE
5
12A
100
AcDbEntity
8
0
62
256
6
ByLayer
370
-2
48
1
60
0
100
AcDbLine
10
-45
20
-7.5875
30
0
11
-45
21
-36.692985
31
0
39
0
210
0
220
0
230
1
0
LINE
5
12B
100
AcDbEntity
8
0
62
256
6
ByLayer
370
-2
48
1
60
0
100
AcDbLine
10
57
20
-1.5875
30
0
11
57
21
-36.692985
31
0
39
0
210
0
220
0
230
1
0
LINE
5
12C
100
AcDbEntity
8
0
62
256
6
ByLayer
370
-2
48
1
60
0
100
AcDbLine
10
-41.5
20
-34.692985
30
0
11
53.5
21
-34.692985
31
0
39
0
210
0
220
0
230
1
0
SOLID
5
12D
100
AcDbEntity
8
0
62
256
6
ByLayer
370
-1
48
1
60
0
100
AcDbTrace
10
-41.5
20
-34.109652
30
0
11
-41.5
21
-35.276319
31
0
12
-45
22
-34.692985
32
0
13
-45
23
-34.692985
33
0
39
0
210
0
220
0
230
1
0
SOLID
5
12E
100
AcDbEntity
8
0
62
256
6
ByLayer
370
-1
48
1
60
0
100
AcDbTrace
10
53.5
20
-35.276319
30
0
11
53.5
21
-34.109652
31
0
12
57
22
-34.692985
32
0
13
57
23
-34.692985
33
0
39
0
210
0
220
0
230
1
0
MTEXT
5
12F
100
AcDbEntity
8
0
62
256
6
ByLayer
370
18
48
1
60
0
100
AcDbMText
10
6
20
-27.692985
30
0
210
0
220
0
230
1
1
\A1;102.00
40
3.5
41
0
44
1
50
0
71
5
72
5
7
iso_b_vert
0
POINT
5
130
100
AcDbEntity
8
Defpoints
62
0
6
ByLayer
370
-1
48
1
60
0
100
AcDbPoint
10
-45
20
-6
30
0
39
0
210
0
220
0
230
1
50
360
0
POINT
5
131
100
AcDbEntity
8
Defpoints
62
0
6
ByLayer
370
-1
48
1
60
0
100
AcDbPoint
10
57
20
0
30
0
39
0
210
0
220
0
230
1
50
360
0
POINT
5
132
100
AcDbEntity
8
Defpoints
62
0
6
ByLayer
370
-1
48
1
60
0
100
AcDbPoint
10
57
20
-34.692985
30
0
39
0
210
0
220
0
230
1
50
360
0
ENDBLK
5
129
100
AcDbEntity
8
0
100
AcDbBlockEnd
0
BLOCK
5
13A
100
AcDbEntity
8
0
100
AcDbBlockBegin
2
_U1
70
0
10
0
20
0
30
0
3
_U1
0
MTEXT
5
134
100
AcDbEntity
8
SK2
62
256
6
ByLayer
370
13
48
1
60
0
100
AcDbMText
10
-0.007599
20
-33.660352
30
0
210
0
220
0
230
1
1
\W0.6930;102,00
40
3.5
41
0
44
1.084337
50
0
71
7
72
5
7
iso_b_vert
0
LINE
5
135
100
AcDbEntity
8
SK2
62
256
6
ByLayer
370
13
48
1
60
0
100
AcDbLine
10
-45
20
-7.5875
30
0
11
-45
21
-36.692985
31
0
39
0
210
0
220
0
230
1
0
LINE
5
136
100
AcDbEntity
8
SK2
62
256
6
ByLayer
370
13
48
1
60
0
100
AcDbLine
10
57
20
-1.5875
30
0
11
57
21
-36.692985
31
0
39
0
210
0
220
0
230
1
0
LINE
5
137
100
AcDbEntity
8
SK2
62
256
6
ByLayer
370
13
48
1
60
0
100
AcDbLine
10
-45
20
-34.692985
30
0
11
57
21
-34.692985
31
0
39
0
210
0
220
0
230
1
0
SOLID
5
138
100
AcDbEntity
8
SK2
62
256
6
ByLayer
370
18
48
1
60
0
100
AcDbTrace
10
-45
20
-34.692985
30
0
11
-41.500002
21
-34.232202
31
0
12
-41.499998
22
-35.153769
32
0
13
-41.499998
23
-35.153769
33
0
39
0
210
0
220
0
230
1
0
SOLID
5
139
100
AcDbEntity
8
SK2
62
256
6
ByLayer
370
18
48
1
60
0
100
AcDbTrace
10
57
20
-34.692985
30
0
11
53.500002
21
-35.153769
31
0
12
53.499998
22
-34.232202
32
0
13
53.499998
23
-34.232202
33
0
39
0
210
0
220
0
230
1
0
ENDBLK
5
13B
100
AcDbEntity
8
0
100
AcDbBlockEnd
0
BLOCK
5
140
100
AcDbEntity
8
0
100
AcDbBlockBegin
2
*D5
70
1
10
0
20
0
30
0
3
*D5
0
LINE
5
142
100
AcDbEntity
8
0
62
256
6
ByLayer
370
-2
48
1
60
0
100
AcDbLine
10
20.63
20
7.3625
30
0
11
20.63
21
19.384119
31
0
39
0
210
0
220
0
230
1
0
LINE
5
143
100
AcDbEntity
8
0
62
256
6
ByLayer
370
-2
48
1
60
0
100
AcDbLine
10
57
20
1.5875
30
0
11
57
21
19.384119
31
0
39
0
210
0
220
0
230
1
0
LINE
5
144
100
AcDbEntity
8
0
62
256
6
ByLayer
370
-2
48
1
60
0
100
AcDbLine
10
24.13
20
17.384119
30
0
11
53.5
21
17.384119
31
0
39
0
210
0
220
0
230
1
0
SOLID
5
145
100
AcDbEntity
8
0
62
256
6
ByLayer
370
-1
48
1
60
0
100
AcDbTrace
10
24.13
20
17.967453
30
0
11
24.13
21
16.800786
31
0
12
20.63
22
17.384119
32
0
13
20.63
23
17.384119
33
0
39
0
210
0
220
0
230
1
0
SOLID
5
146
100
AcDbEntity
8
0
62
256
6
ByLayer
370
-1
48
1
60
0
100
AcDbTrace
10
53.5
20
16.800786
30
0
11
53.5
21
17.967453
31
0
12
57
22
17.384119
32
0
13
57
23
17.384119
33
0
39
0
210
0
220
0
230
1
0
MTEXT
5
147
100
AcDbEntity
8
0
62
256
6
ByLayer
370
18
48
1
60
0
100
AcDbMText
10
38.815
20
24.384119
30
0
210
0
220
0
230
1
1
\A1;36.37
40
3.5
41
0
44
1
50
0
71
5
72
5
7
iso_b_vert
0
POINT
5
148
100
AcDbEntity
8
Defpoints
62
0
6
ByLayer
370
-1
48
1
60
0
100
AcDbPoint
10
20.63
20
5.775
30
0
39
0
210
0
220
0
230
1
50
360
0
POINT
5
149
100
AcDbEntity
8
Defpoints
62
0
6
ByLayer
370
-1
48
1
60
0
100
AcDbPoint
10
57
20
0
30
0
39
0
210
0
220
0
230
1
50
360
0
POINT
5
14A
100
AcDbEntity
8
Defpoints
62
0
6
ByLayer
370
-1
48
1
60
0
100
AcDbPoint
10
57
20
17.384119
30
0
39
0
210
0
220
0
230
1
50
360
0
ENDBLK
5
141
100
AcDbEntity
8
0
100
AcDbBlockEnd
0
BLOCK
5
152
100
AcDbEntity
8
0
100
AcDbBlockBegin
2
_U2
70
0
10
0
20
0
30
0
3
_U2
0
MTEXT
5
14C
100
AcDbEntity
8
SK2
62
256
6
ByLayer
370
13
48
1
60
0
100
AcDbMText
10
33.677701
20
18.416753
30
0
210
0
220
0
230
1
1
\W0.7317;36,37
40
3.5
41
0
44
1.084337
50
0
71
7
72
5
7
iso_b_vert
0
LINE
5
14D
100
AcDbEntity
8
SK2
62
256
6
ByLayer
370
13
48
1
60
0
100
AcDbLine
10
20.63
20
7.3625
30
0
11
20.63
21
19.384119
31
0
39
0
210
0
220
0
230
1
0
LINE
5
14E
100
AcDbEntity
8
SK2
62
256
6
ByLayer
370
13
48
1
60
0
100
AcDbLine
10
57
20
1.5875
30
0
11
57
21
19.384119
31
0
39
0
210
0
220
0
230
1
0
LINE
5
14F
100
AcDbEntity
8
SK2
62
256
6
ByLayer
370
13
48
1
60
0
100
AcDbLine
10
20.63
20
17.384119
30
0
11
57
21
17.384119
31
0
39
0
210
0
220
0
230
1
0
SOLID
5
150
100
AcDbEntity
8
SK2
62
256
6
ByLayer
370
18
48
1
60
0
100
AcDbTrace
10
20.63
20
17.384119
30
0
11
24.129998
21
17.844903
31
0
12
24.130002
22
16.923335
32
0
13
24.130002
23
16.923335
33
0
39
0
210
0
220
0
230
1
0
SOLID
5
151
100
AcDbEntity
8
SK2
62
256
6
ByLayer
370
18
48
1
60
0
100
AcDbTrace
10
57
20
17.384119
30
0
11
53.500002
21
16.923335
31
0
12
53.499998
22
17.844903
32
0
13
53.499998
23
17.844903
33
0
39
0
210
0
220
0
230
1
0
ENDBLK
5
153
100
AcDbEntity
8
0
100
AcDbBlockEnd
0
BLOCK
5
158
100
AcDbEntity
8
0
100
AcDbBlockBegin
2
*D7
70
1
10
0
20
0
30
0
3
*D7
0
LINE
5
15A
100
AcDbEntity
8
0
62
256
6
ByLayer
370
-2
48
1
60
0
100
AcDbLine
10
57
20
-1.5875
30
0
11
57
21
-20.577503
31
0
39
0
210
0
220
0
230
1
0
LINE
5
15B
100
AcDbEntity
8
0
62
256
6
ByLayer
370
-2
48
1
60
0
100
AcDbLine
10
55.2824
20
-7.3625
30
0
11
55.2824
21
-20.577503
31
0
39
0
210
0
220
0
230
1
0
LINE
5
15C
100
AcDbEntity
8
0
62
256
6
ByLayer
370
-2
48
1
60
0
100
AcDbLine
10
57
20
-18.577503
30
0
11
84.666667
21
-18.577503
31
0
39
0
210
0
220
0
230
1
0
LINE
5
15D
100
AcDbEntity
8
0
62
256
6
ByLayer
370
-2
48
1
60
0
100
AcDbLine
10
60.5
20
-18.577503
30
0
11
64
21
-18.577503
31
0
39
0
210
0
220
0
230
1
0
LINE
5
15E
100
AcDbEntity
8
0
62
256
6
ByLayer
370
-2
48
1
60
0
100
AcDbLine
10
51.7824
20
-18.577503
30
0
11
48.2824
21
-18.577503
31
0
39
0
210
0
220
0
230
1
0
SOLID
5
15F
100
AcDbEntity
8
0
62
256
6
ByLayer
370
-1
48
1
60
0
100
AcDbTrace
10
60.5
20
-17.99417
30
0
11
60.5
21
-19.160837
31
0
12
57
22
-18.577503
32
0
13
57
23
-18.577503
33
0
39
0
210
0
220
0
230
1
0
SOLID
5
160
100
AcDbEntity
8
0
62
256
6
ByLayer
370
-1
48
1
60
0
100
AcDbTrace
10
51.7824
20
-19.160837
30
0
11
51.7824
21
-17.99417
31
0
12
55.2824
22
-18.577503
32
0
13
55.2824
23
-18.577503
33
0
39
0
210
0
220
0
230
1
0
MTEXT
5
161
100
AcDbEntity
8
0
62
256
6
ByLayer
370
18
48
1
60
0
100
AcDbMText
10
74.333333
20
-11.577503
30
0
210
0
220
0
230
1
1
\A1;1.72
40
3.5
41
0
44
1
50
0
71
5
72
5
7
iso_b_vert
0
POINT
5
162
100
AcDbEntity
8
Defpoints
62
0
6
ByLayer
370
-1
48
1
60
0
100
AcDbPoint
10
57
20
0
30
0
39
0
210
0
220
0
230
1
50
360
0
POINT
5
163
100
AcDbEntity
8
Defpoints
62
0
6
ByLayer
370
-1
48
1
60
0
100
AcDbPoint
10
55.2824
20
-5.775
30
0
39
0
210
0
220
0
230
1
50
360
0
POINT
5
164
100
AcDbEntity
8
Defpoints
62
0
6
ByLayer
370
-1
48
1
60
0
100
AcDbPoint
10
55.2824
20
-18.577503
30
0
39
0
210
0
220
0
230
1
50
360
0
ENDBLK
5
159
100
AcDbEntity
8
0
100
AcDbBlockEnd
0
BLOCK
5
16C
100
AcDbEntity
8
0
100
AcDbBlockBegin
2
_U3
70
0
10
0
20
0
30
0
3
_U3
0
MTEXT
5
166
100
AcDbEntity
8
SK2
62
256
6
ByLayer
370
13
48
1
60
0
100
AcDbMText
10
63.589293
20
-17.54487
30
0
210
0
220
0
230
1
1
\W0.6367;1,72
40
3.5
41
0
44
1.084337
50
0
71
7
72
5
7
iso_b_vert
0
LINE
5
167
100
AcDbEntity
8
SK2
62
256
6
ByLayer
370
13
48
1
60
0
100
AcDbLine
10
57
20
-1.5875
30
0
11
57
21
-20.577503
31
0
39
0
210
0
220
0
230
1
0
LINE
5
168
100
AcDbEntity
8
SK2
62
256
6
ByLayer
370
13
48
1
60
0
100
AcDbLine
10
55.2824
20
-7.3625
30
0
11
55.2824
21
-20.577503
31
0
39
0
210
0
220
0
230
1
0
LINE
5
169
100
AcDbEntity
8
SK2
62
256
6
ByLayer
370
13
48
1
60
0
100
AcDbLine
10
46.5324
20
-18.577503
30
0
11
70.559058
21
-18.577503
31
0
39
0
210
0
220
0
230
1
0
SOLID
5
16A
100
AcDbEntity
8
SK2
62
256
6
ByLayer
370
18
48
1
60
0
100
AcDbTrace
10
57
20
-18.577503
30
0
11
60.499998
21
-18.116719
31
0
12
60.500002
22
-19.038287
32
0
13
60.500002
23
-19.038287
33
0
39
0
210
0
220
0
230
1
0
SOLID
5
16B
100
AcDbEntity
8
SK2
62
256
6
ByLayer
370
18
48
1
60
0
100
AcDbTrace
10
55.2824
20
-18.577503
30
0
11
51.782402
21
-19.038287
31
0
12
51.782398
22
-18.116719
32
0
13
51.782398
23
-18.116719
33
0
39
0
210
0
220
0
230
1
0
ENDBLK
5
16D
100
AcDbEntity
8
0
100
AcDbBlockEnd
0
BLOCK
5
172
100
AcDbEntity
8
0
100
AcDbBlockBegin
2
*D9
70
1
10
0
20
0
30
0
3
*D9
0
LINE
5
174
100
AcDbEntity
8
0
62
256
6
ByLayer
370
-2
48
1
60
0
100
AcDbLine
10
-45
20
-7.5875
30
0
11
-45
21
-26.343428
31
0
39
0
210
0
220
0
230
1
0
LINE
5
175
100
AcDbEntity
8
0
62
256
6
ByLayer
370
-2
48
1
60
0
100
AcDbLine
10
55.2824
20
-7.3625
30
0
11
55.2824
21
-26.343428
31
0
39
0
210
0
220
0
230
1
0
LINE
5
176
100
AcDbEntity
8
0
62
256
6
ByLayer
370
-2
48
1
60
0
100
AcDbLine
10
-41.5
20
-24.343428
30
0
11
51.7824
21
-24.343428
31
0
39
0
210
0
220
0
230
1
0
SOLID
5
177
100
AcDbEntity
8
0
62
256
6
ByLayer
370
-1
48
1
60
0
100
AcDbTrace
10
-41.5
20
-23.760095
30
0
11
-41.5
21
-24.926762
31
0
12
-45
22
-24.343428
32
0
13
-45
23
-24.343428
33
0
39
0
210
0
220
0
230
1
0
SOLID
5
178
100
AcDbEntity
8
0
62
256
6
ByLayer
370
-1
48
1
60
0
100
AcDbTrace
10
51.7824
20
-24.926762
30
0
11
51.7824
21
-23.760095
31
0
12
55.2824
22
-24.343428
32
0
13
55.2824
23
-24.343428
33
0
39
0
210
0
220
0
230
1
0
MTEXT
5
179
100
AcDbEntity
8
0
62
256
6
ByLayer
370
18
48
1
60
0
100
AcDbMText
10
5.1412
20
-17.343428
30
0
210
0
220
0
230
1
1
\A1;100.28
40
3.5
41
0
44
1
50
0
71
5
72
5
7
iso_b_vert
0
POINT
5
17A
100
AcDbEntity
8
Defpoints
62
0
6
ByLayer
370
-1
48
1
60
0
100
AcDbPoint
10
-45
20
-6
30
0
39
0
210
0
220
0
230
1
50
360
0
POINT
5
17B
100
AcDbEntity
8
Defpoints
62
0
6
ByLayer
370
-1
48
1
60
0
100
AcDbPoint
10
55.2824
20
-5.775
30
0
39
0
210
0
220
0
230
1
50
360
0
POINT
5
17C
100
AcDbEntity
8
Defpoints
62
0
6
ByLayer
370
-1
48
1
60
0
100
AcDbPoint
10
55.2824
20
-24.343428
30
0
39
0
210
0
220
0
230
1
50
360
0
ENDBLK
5
173
100
AcDbEntity
8
0
100
AcDbBlockEnd
0
BLOCK
5
184
100
AcDbEntity
8
0
100
AcDbBlockBegin
2
_U4
70
0
10
0
20
0
30
0
3
_U4
0
MTEXT
5
17E
100
AcDbEntity
8
SK2
62
256
6
ByLayer
370
13
48
1
60
0
100
AcDbMText
10
-0.866399
20
-23.310795
30
0
210
0
220
0
230
1
1
\W0.6930;100,28
40
3.5
41
0
44
1.084337
50
0
71
7
72
5
7
iso_b_vert
0
LINE
5
17F
100
AcDbEntity
8
SK2
62
256
6
ByLayer
370
13
48
1
60
0
100
AcDbLine
10
-45
20
-7.5875
30
0
11
-45
21
-26.343428
31
0
39
0
210
0
220
0
230
1
0
LINE
5
180
100
AcDbEntity
8
SK2
62
256
6
ByLayer
370
13
48
1
60
0
100
AcDbLine
10
55.2824
20
-7.3625
30
0
11
55.2824
21
-26.343428
31
0
39
0
210
0
220
0
230
1
0
LINE
5
181
100
AcDbEntity
8
SK2
62
256
6
ByLayer
370
13
48
1
60
0
100
AcDbLine
10
-45
20
-24.343428
30
0
11
55.2824
21
-24.343428
31
0
39
0
210
0
220
0
230
1
0
SOLID
5
182
100
AcDbEntity
8
SK2
62
256
6
ByLayer
370
18
48
1
60
0
100
AcDbTrace
10
-45
20
-24.343428
30
0
11
-41.500002
21
-23.882645
31
0
12
-41.499998
22
-24.804212
32
0
13
-41.499998
23
-24.804212
33
0
39
0
210
0
220
0
230
1
0
SOLID
5
183
100
AcDbEntity
8
SK2
62
256
6
ByLayer
370
18
48
1
60
0
100
AcDbTrace
10
55.2824
20
-24.343428
30
0
11
51.782402
21
-24.804212
31
0
12
51.782398
22
-23.882645
32
0
13
51.782398
23
-23.882645
33
0
39
0
210
0
220
0
230
1
0
ENDBLK
5
185
100
AcDbEntity
8
0
100
AcDbBlockEnd
0
ENDSEC
0
SECTION
2
ENTITIES
0
ARC
5
AF
100
AcDbEntity
8
1
62
256
6
ByLayer
370
18
48
1
60
0
100
AcDbCircle
39
0
10
0
20
-5.2
30
0
40
0.799999999999999
210
0
220
0
230
1
100
AcDbArc
50
270
51
303.056923
0
ARC
5
B0
100
AcDbEntity
8
1
62
256
6
ByLayer
370
18
48
1
60
0
100
AcDbCircle
39
0
10
0.872755
20
-6.541006
30
0
40
0.799999999999999
210
0
220
0
230
1
100
AcDbArc
50
89.96419
51
123.056923
0
ARC
5
B1
100
AcDbEntity
8
1
62
256
6
ByLayer
370
18
48
1
60
0
100
AcDbCircle
39
0
10
0.872755
20
6.541006
30
0
40
0.799999999999999
210
0
220
0
230
1
100
AcDbArc
50
236.943077
51
270.03581
0
ARC
5
B2
100
AcDbEntity
8
1
62
256
6
ByLayer
370
18
48
1
60
0
100
AcDbCircle
39
0
10
0
20
5.2
30
0
40
0.799999999999999
210
0
220
0
230
1
100
AcDbArc
50
56.943077
51
90
0
ELLIPSE
5
B3
100
AcDbEntity
8
1
62
256
6
ByLayer
370
13
48
1
60
0
100
AcDbEllipse
10
4.250147
20
0.785897
30
0
11
0.0467418534814686
21
0.0884036149324049
31
0
210
0
220
0
230
1
40
0.067495
41
3.03037464225389
42
-1.69567475260985
0
ELLIPSE
5
B4
100
AcDbEntity
8
1
62
256
6
ByLayer
370
13
48
1
60
0
100
AcDbEllipse
10
4.179149
20
0.825782
30
0
11
-0.0515125601297789
21
-0.0857114703460156
31
0
210
0
220
0
230
1
40
0.361149
41
-1.20765123658586
42
-0.642319617060922
0
ELLIPSE
5
B5
100
AcDbEntity
8
1
62
256
6
ByLayer
370
18
48
1
60
0
100
AcDbEllipse
10
4.25
20
5.704802
30
0
11
0.25
21
0
31
0
210
0
220
0
230
1
40
0.999999
41
-3.12760962290349
42
-1.56138853779132
0
ELLIPSE
5
B6
100
AcDbEntity
8
1
62
256
6
ByLayer
370
18
48
1
60
0
100
AcDbEllipse
10
4.25
20
-5.704802
30
0
11
0.25
21
0
31
0
210
0
220
0
230
1
40
0.999999
41
1.57614567945245
42
3.12760962290343
0
POINT
5
70
100
AcDbEntity
8
80
62
256
6
ByLayer
370
18
48
1
60
0
100
AcDbPoint
10
0
20
0
30
0
39
0
210
0
220
0
230
1
50
360
0
POINT
5
72
100
AcDbEntity
8
81
62
256
6
ByLayer
370
18
48
1
60
0
100
AcDbPoint
10
57
20
0
30
0
39
0
210
0
220
0
230
1
50
360
0
POINT
5
74
100
AcDbEntity
8
1
62
256
6
ByLayer
370
18
48
1
60
1
100
AcDbPoint
10
55.2824
20
-5.775
30
0
39
0
210
0
220
0
230
1
50
360
0
POINT
5
76
100
AcDbEntity
8
1
62
256
6
ByLayer
370
18
48
1
60
1
100
AcDbPoint
10
-45
20
-6
30
0
39
0
210
0
220
0
230
1
50
360
0
POINT
5
77
100
AcDbEntity
8
1
62
256
6
ByLayer
370
18
48
1
60
1
100
AcDbPoint
10
20.63
20
5.775
30
0
39
0
210
0
220
0
230
1
50
360
0
POINT
5
78
100
AcDbEntity
8
1
62
256
6
ByLayer
370
18
48
1
60
1
100
AcDbPoint
10
55.2824
20
-5.775
30
0
39
0
210
0
220
0
230
1
50
360
0
POINT
5
79
100
AcDbEntity
8
1
62
256
6
ByLayer
370
18
48
1
60
1
100
AcDbPoint
10
-45
20
-6
30
0
39
0
210
0
220
0
230
1
50
360
0
POINT
5
7A
100
AcDbEntity
8
1
62
256
6
ByLayer
370
18
48
1
60
1
100
AcDbPoint
10
55.2824
20
-5.775
30
0
39
0
210
0
220
0
230
1
50
360
0
SPLINE
5
B7
100
AcDbEntity
8
SK1
62
256
6
ByLayer
370
18
48
1
60
0
100
AcDbSpline
70
4
71
3
72
12
73
8
40
0
40
0
40
0
40
0
40
0.5
40
0.5
40
0.75
40
0.75
40
1
40
1
40
1
40
1
41
1
10
-44.25
20
-3.69452739735942
30
0
41
1
10
-44.2265754814923
20
-3.70859627667528
30
0
41
1
10
-44.2038494963526
20
-3.71680248398795
30
0
41
1
10
-44.175680621431
20
-3.71702878413066
30
0
41
1
10
-44.1670810890644
20
-3.71499887138933
30
0
41
1
10
-44.1542487488419
20
-3.70489199595553
30
0
41
1
10
-44.15
20
-3.69650524701291
30
0
41
1
10
-44.15
20
-3.6848600198129
30
0
0
SPLINE
5
B8
100
AcDbEntity
8
SK1
62
256
6
ByLayer
370
18
48
1
60
0
100
AcDbSpline
70
4
71
3
72
8
73
4
40
0
40
0
40
0
40
0
40
1
40
1
40
1
40
1
41
1
10
-44.25
20
-2.0775251684415
30
0
41
1
10
-44.5004746867957
20
-1.92708885791316
30
0
41
1
10
-44.7505605371241
20
-1.77643188369001
30
0
41
1
10
-45
20
-1.6254080862503
30
0
0
SPLINE
5
B9
100
AcDbEntity
8
SK1
62
256
6
ByLayer
370
18
48
1
60
0
100
AcDbSpline
70
4
71
3
72
12
73
8
40
0
40
0
40
0
40
0
40
0.249999999999999
40
0.249999999999999
40
0.499999999999998
40
0.499999999999998
40
1
40
1
40
1
40
1
41
1
10
-44.15
20
-2.2295580137868
30
0
41
1
10
-44.15
20
-2.21439457511258
30
0
41
1
10
-44.1541964903379
20
-2.19770801454257
30
0
41
1
10
-44.1670510016405
20
-2.16645567612994
30
0
41
1
10
-44.1755314964661
20
-2.15193330459019
30
0
41
1
10
-44.2039103264456
20
-2.1124814964729
30
0
41
1
10
-44.2265803533263
20
-2.09159112171022
30
0
41
1
10
-44.25
20
-2.07752516844147
30
0
0
SPLINE
5
BA
100
AcDbEntity
8
SK1
62
256
6
ByLayer
370
18
48
1
60
0
100
AcDbSpline
70
4
71
3
72
8
73
4
40
0
40
0
40
0
40
0
40
1
40
1
40
1
40
1
41
1
10
-45
20
-3.2424103151682
30
0
41
1
10
-44.7505567139236
20
-3.39343642737504
30
0
41
1
10
-44.5004714358011
20
-3.54409303939411
30
0
41
1
10
-44.25
20
-3.69452739735937
30
0
0
SPLINE
5
BB
100
AcDbEntity
8
1
62
256
6
ByLayer
370
18
48
1
60
0
100
AcDbSpline
70
4
71
3
72
14
73
10
40
0
40
0
40
0
40
0
40
0.25
40
0.25
40
0.5
40
0.5
40
0.75
40
0.75
40
1
40
1
40
1
40
1
41
1
10
54.9205510383124
20
1.25288264867484
30
0
41
1
10
54.9197962015417
20
1.26818207671963
30
0
41
1
10
54.923192808923
20
1.28364720288476
30
0
41
1
10
54.9387971321285
20
1.31040307497852
30
0
41
1
10
54.9509680771336
20
1.32154536191447
30
0
41
1
10
54.9782541776076
20
1.33735508651188
30
0
41
1
10
54.9936006138496
20
1.34246089958154
30
0
41
1
10
55.0244621786664
20
1.3484430667489
30
0
41
1
10
55.0402859543084
20
1.34942163885358
30
0
41
1
10
55.0560810559629
20
1.34890167916501
30
0
0
SPLINE
5
BC
100
AcDbEntity
8
1
62
256
6
ByLayer
370
18
48
1
60
0
100
AcDbSpline
70
4
71
3
72
16
73
12
40
0
40
0
40
0
40
0
40
0.304280848883343
40
0.304280848883343
40
0.431120938590527
40
0.431120938590527
40
0.557961028297712
40
0.557961028297712
40
0.811641207712087
40
0.811641207712087
40
1
40
1
40
1
40
1
41
1
10
22.0313801108083
20
-5.46554388886145
30
0
41
1
10
21.3983984122144
20
-5.46455629637961
30
0
41
1
10
20.7634377955696
20
-5.43315475944928
30
0
41
1
10
19.8577284420569
20
-5.34478559601442
30
0
41
1
10
19.590827745814
20
-5.31339368452791
30
0
41
1
10
19.0593593966561
20
-5.2405771402461
30
0
41
1
10
18.7943028756871
20
-5.19908854725222
30
0
41
1
10
18.0005080579821
20
-5.0599194149797
30
0
41
1
10
17.4731362021568
20
-4.94755166014349
30
0
41
1
10
16.5552498687325
20
-4.7195967499394
30
0
41
1
10
16.1644868719106
20
-4.61226903955344
30
0
41
1
10
15.7735292264314
20
-4.49535096973653
30
0
0
SPLINE
5
BD
100
AcDbEntity
8
1
62
256
6
ByLayer
370
13
48
1
60
0
100
AcDbSpline
70
4
71
3
72
20
73
16
40
0
40
0
40
0
40
0
40
0.173268466648522
40
0.173268466648522
40
0.242162761094479
40
0.242162761094479
40
0.311057055540437
40
0.311057055540437
40
0.448845644432349
40
0.448845644432349
40
0.724422822216175
40
0.724422822216175
40
0.862211411108088
40
0.862211411108088
40
1
40
1
40
1
40
1
41
1
10
15.7735292263536
20
-4.49535096971323
30
0
41
1
10
15.1114093441903
20
-4.29734031688179
30
0
41
1
10
14.4487311650848
20
-4.07182231608476
30
0
41
1
10
13.5180103625457
20
-3.72228166709979
30
0
41
1
10
13.2526977768613
20
-3.61893623974234
30
0
41
1
10
12.72082124964
20
-3.4047303414884
30
0
41
1
10
12.4537502714972
20
-3.29363800384328
30
0
41
1
10
11.6548797890389
20
-2.95203682636597
30
0
41
1
10
11.1250961302832
20
-2.71317793416409
30
0
41
1
10
9.5401802675577
20
-1.97046034435129
30
0
41
1
10
8.49000569715474
20
-1.43960227099962
30
0
41
1
10
6.90793491206227
20
-0.620423296986814
30
0
41
1
10
6.37955940312685
20
-0.343335076744836
30
0
41
1
10
5.31822557667792
20
0.214042363706085
30
0
41
1
10
4.78403471002389
20
0.494608199014493
30
0
41
1
10
4.25024556340503
20
0.771755905900704
30
0
0
SPLINE
5
BE
100
AcDbEntity
8
1
62
256
6
ByLayer
370
18
48
1
60
0
100
AcDbSpline
70
4
71
3
72
8
73
4
40
0
40
0
40
0
40
0
40
1
40
1
40
1
40
1
41
1
10
3.99999951119449
20
-5.63748665603077
30
0
41
1
10
3.99999951119449
20
-5.62298003704171
30
0
41
1
10
3.99999951119449
20
-5.60850902677581
30
0
41
1
10
3.99999951119449
20
-5.59407352630024
30
0
0
SPLINE
5
BF
100
AcDbEntity
8
1
62
256
6
ByLayer
370
13
48
1
60
0
100
AcDbSpline
70
4
71
3
72
12
73
8
40
0
40
0
40
0
40
0
40
0.338572448634555
40
0.338572448634555
40
0.669286224317277
40
0.669286224317277
40
1
40
1
40
1
40
1
41
1
10
4.00813066582742
20
0.927512244140331
30
0
41
1
10
4.01377825576276
20
0.911557204622937
30
0
41
1
10
4.02232878878752
20
0.896087519325505
30
0
41
1
10
4.04472809105641
20
0.867844009940484
30
0
41
1
10
4.05868087188682
20
0.854613996669087
30
0
41
1
10
4.09172005665619
20
0.831150755680511
30
0
41
1
10
4.11050170241791
20
0.821021466084005
30
0
41
1
10
4.13191464572111
20
0.812726128553152
30
0
0
SPLINE
5
C0
100
AcDbEntity
8
1
62
256
6
ByLayer
370
18
48
1
60
0
100
AcDbSpline
70
4
71
3
72
10
73
6
40
0
40
0
40
0
40
0
40
0.659619727659181
40
0.659619727659181
40
1
40
1
40
1
40
1
41
1
10
13.6348018587031
20
4.64668029601
30
0
41
1
10
13.6348018587031
20
4.40645302295607
30
0
41
1
10
13.6348018587031
20
4.17547399749955
30
0
41
1
10
13.6348018587032
20
3.83874501242346
30
0
41
1
10
13.6348018587031
20
3.72650318520684
30
0
41
1
10
13.6348018587031
20
3.61663829600943
30
0
0
SPLINE
5
C1
100
AcDbEntity
8
1
62
256
6
ByLayer
370
18
48
1
60
0
100
AcDbSpline
70
4
71
3
72
8
73
4
40
0
40
0
40
0
40
0
40
1
40
1
40
1
40
1
41
1
10
56.9999621180588
20
0.0481990131108034
30
0
41
1
10
57.0000126296726
20
0.0160648367426575
30
0
41
1
10
57.0000126242662
20
-0.01606827612747
30
0
41
1
10
56.9999621180588
20
-0.0481990131068528
30
0
0
SPLINE
5
C2
100
AcDbEntity
8
1
62
256
6
ByLayer
370
18
48
1
60
0
100
AcDbSpline
70
4
71
3
72
52
73
48
40
0
40
0
40
0
40
0
40
0.0479489802804046
40
0.0479489802804046
40
0.0958979605608092
40
0.0958979605608092
40
0.143846940841214
40
0.143846940841214
40
0.167821430981416
40
0.167821430981416
40
0.191795921121618
40
0.191795921121618
40
0.239744901402023
40
0.239744901402023
40
0.287693881682428
40
0.287693881682428
40
0.335642861962832
40
0.335642861962832
40
0.359617352103035
40
0.359617352103035
40
0.383591842243238
40
0.383591842243238
40
0.479489802804051
40
0.479489802804051
40
0.575387763364864
40
0.575387763364864
40
0.599362253505067
40
0.599362253505067
40
0.62333674364527
40
0.62333674364527
40
0.671285723925676
40
0.671285723925676
40
0.719234704206082
40
0.719234704206082
40
0.767183684486488
40
0.767183684486488
40
0.791158174626692
40
0.791158174626692
40
0.815132664766895
40
0.815132664766895
40
0.863081645047303
40
0.863081645047303
40
0.911030625327711
40
0.911030625327711
40
0.958979605608119
40
0.958979605608119
40
1
40
1
40
1
40
1
41
1
10
54.9594405340609
20
-5.76889215686816
30
0
41
1
10
54.4295371004033
20
-5.78190860104891
30
0
41
1
10
53.8999054584931
20
-5.7723422549704
30
0
41
1
10
52.8385278405635
20
-5.70826022006199
30
0
41
1
10
52.3091694353681
20
-5.65386977280266
30
0
41
1
10
51.2512847433799
20
-5.50181706616402
30
0
41
1
10
50.7225467145439
20
-5.40416952953746
30
0
41
1
10
49.9276065662084
20
-5.22637175977013
30
0
41
1
10
49.6620689212567
20
-5.1618211778881
30
0
41
1
10
49.1319543163694
20
-5.02300335265485
30
0
41
1
10
48.8672310518576
20
-4.94870976374261
30
0
41
1
10
48.0735451025659
20
-4.71171200411959
30
0
41
1
10
47.5449647686571
20
-4.53498509922915
30
0
41
1
10
46.48595407293
20
-4.14726622497875
30
0
41
1
10
45.9546811513522
20
-3.93579154955364
30
0
41
1
10
44.8955241048508
20
-3.48513062828036
30
0
41
1
10
44.3668255275426
20
-3.2458496035438
30
0
41
1
10
43.573021574848
20
-2.86912164555528
30
0
41
1
10
43.3082993607863
20
-2.74056896758353
30
0
41
1
10
42.7782128536386
20
-2.47811602072537
30
0
41
1
10
42.5126167176468
20
-2.34408817665485
30
0
41
1
10
41.1870764149352
20
-1.66444204354943
30
0
41
1
10
40.1320117289042
20
-1.08868909419971
30
0
41
1
10
38.0084282808635
20
0.0844315548214354
30
0
41
1
10
36.9529435035591
20
0.675552223449017
30
0
41
1
10
35.6274391632161
20
1.39280678362601
30
0
41
1
10
35.3618058013295
20
1.53532607286021
30
0
41
1
10
34.8315301322265
20
1.81651722500209
30
0
41
1
10
34.5667203759092
20
1.9553110389401
30
0
41
1
10
33.7727341851633
20
2.36538887718379
30
0
41
1
10
33.2439397482773
20
2.6302655901558
30
0
41
1
10
32.1845482455234
20
3.13830511105792
30
0
41
1
10
31.6530444477928
20
3.38170708983415
30
0
41
1
10
30.5934326301009
20
3.83871844816198
30
0
41
1
10
30.064663537643
20
4.05290284110555
30
0
41
1
10
29.2706174661042
20
4.34948606332782
30
0
41
1
10
29.00578100467
20
4.44422814532547
30
0
41
1
10
28.4754484604017
20
4.62503255316412
30
0
41
1
10
28.2097367659599
20
4.71115192375063
30
0
41
1
10
27.4141257171711
20
4.95494581603887
30
0
41
1
10
26.8851277245004
20
5.098481924022
30
0
41
1
10
25.8266231800633
20
5.34481608807505
30
0
41
1
10
25.2971202667658
20
5.44764108881142
30
0
41
1
10
24.2348581358699
20
5.61049310541944
30
0
41
1
10
23.7054637106488
20
5.67006302478697
30
0
41
1
10
22.7233662946068
20
5.73926062889416
30
0
41
1
10
22.2706493208638
20
5.75488762551237
30
0
41
1
10
21.8171494917452
20
5.75408436488965
30
0
0
SPLINE
5
C3
100
AcDbEntity
8
1
62
256
6
ByLayer
370
18
48
1
60
0
100
AcDbSpline
70
4
71
3
72
102
73
98
40
0
40
0
40
0
40
0
40
0.0331966764820036
40
0.0331966764820036
40
0.0663933529640072
40
0.0663933529640072
40
0.0995900294460108
40
0.0995900294460108
40
0.116188367687012
40
0.116188367687012
40
0.132786705928014
40
0.132786705928014
40
0.149385044169015
40
0.149385044169015
40
0.165983382410016
40
0.165983382410016
40
0.182581720651018
40
0.182581720651018
40
0.199180058892019
40
0.199180058892019
40
0.21577839713302
40
0.21577839713302
40
0.232376735374022
40
0.232376735374022
40
0.248975073615023
40
0.248975073615023
40
0.265573411856025
40
0.265573411856025
40
0.298770088338027
40
0.298770088338027
40
0.315368426579028
40
0.315368426579028
40
0.331966764820029
40
0.331966764820029
40
0.34856510306103
40
0.34856510306103
40
0.36516344130203
40
0.36516344130203
40
0.381761779543031
40
0.381761779543031
40
0.398360117784033
40
0.398360117784033
40
0.431556794266035
40
0.431556794266035
40
0.464753470748038
40
0.464753470748038
40
0.497950147230041
40
0.497950147230041
40
0.514548485471042
40
0.514548485471042
40
0.531146823712044
40
0.531146823712044
40
0.547745161953045
40
0.547745161953045
40
0.564343500194046
40
0.564343500194046
40
0.580941838435048
40
0.580941838435048
40
0.597540176676049
40
0.597540176676049
40
0.614138514917051
40
0.614138514917051
40
0.630736853158052
40
0.630736853158052
40
0.663933529640055
40
0.663933529640055
40
0.680531867881057
40
0.680531867881057
40
0.697130206122059
40
0.697130206122059
40
0.71372854436306
40
0.71372854436306
40
0.730326882604062
40
0.730326882604062
40
0.763523559086066
40
0.763523559086066
40
0.796720235568069
40
0.796720235568069
40
0.829916912050073
40
0.829916912050073
40
0.863113588532076
40
0.863113588532076
40
0.879711926773078
40
0.879711926773078
40
0.89631026501408
40
0.89631026501408
40
0.929506941496084
40
0.929506941496084
40
0.946105279737086
40
0.946105279737086
40
0.962703617978088
40
0.962703617978088
40
0.97930195621909
40
0.97930195621909
40
0.995900294460092
40
0.995900294460092
40
1
40
1
40
1
40
1
41
1
10
13.6348018587031
20
4.64668029601472
30
0
41
1
10
14.0719123127381
20
4.79060479770138
30
0
41
1
10
14.5082395536421
20
4.91969189160849
30
0
41
1
10
15.3776950153495
20
5.15153367348245
30
0
41
1
10
15.8098482151838
20
5.25488347531052
30
0
41
1
10
16.6747023870875
20
5.43210777554197
30
0
41
1
10
17.1071626252855
20
5.50643153219926
30
0
41
1
10
17.7544384457441
20
5.59716172535954
30
0
41
1
10
17.9701378847226
20
5.62381826589839
30
0
41
1
10
18.4023631440903
20
5.66961313276451
30
0
41
1
10
18.6187781590397
20
5.68881084501714
30
0
41
1
10
19.052057065221
20
5.71986766819435
30
0
41
1
10
19.26893576433
20
5.73172753734059
30
0
41
1
10
19.7028097678482
20
5.74802531096404
30
0
41
1
10
19.9198537229792
20
5.7524256030255
30
0
41
1
10
20.3554027429935
20
5.7535896095838
30
0
41
1
10
20.5737934602029
20
5.7503816621504
30
0
41
1
10
21.0116692199751
20
5.73634696506693
30
0
41
1
10
21.2306768494439
20
5.72552972212264
30
0
41
1
10
21.6667548628096
20
5.69632517392469
30
0
41
1
10
21.8840051724163
20
5.67787690912422
30
0
41
1
10
22.3183257525668
20
5.63376940924005
30
0
41
1
10
22.535314656765
20
5.60811043401745
30
0
41
1
10
22.9688220707716
20
5.54966856260836
30
0
41
1
10
23.1853441614126
20
5.51688913335562
30
0
41
1
10
23.6176739388268
20
5.44407892010835
30
0
41
1
10
23.8333148761687
20
5.40392620019273
30
0
41
1
10
24.4806201409294
20
5.27340014350838
30
0
41
1
10
24.9127748271753
20
5.17321062270315
30
0
41
1
10
25.5609084687422
20
5.00252332845318
30
0
41
1
10
25.7767504934865
20
4.94202375438505
30
0
41
1
10
26.2090176391634
20
4.81462977486399
30
0
41
1
10
26.4255812003131
20
4.74789044813494
30
0
41
1
10
26.8595228486349
20
4.60832752762337
30
0
41
1
10
27.076890685745
20
4.53549582664002
30
0
41
1
10
27.512221348653
20
4.38342021124529
30
0
41
1
10
27.7300480840247
20
4.30399667400124
30
0
41
1
10
28.166650905178
20
4.13897319244359
30
0
41
1
10
28.3857422377807
20
4.0536218302166
30
0
41
1
10
28.822469872348
20
3.87871962006361
30
0
41
1
10
29.0404413105461
20
3.78899217110379
30
0
41
1
10
29.6928985284976
20
3.51264402633029
30
0
41
1
10
30.1252556395906
20
3.31779411777896
30
0
41
1
10
30.9903290281795
20
2.9154852690213
30
0
41
1
10
31.4225743040005
20
2.70741120576528
30
0
41
1
10
32.2849094235798
20
2.27478198106007
30
0
41
1
10
32.71663256637
20
2.05290180516573
30
0
41
1
10
33.3656140693851
20
1.71280548441828
30
0
41
1
10
33.5821006245478
20
1.59809938198489
30
0
41
1
10
34.0150703227752
20
1.36535759444698
30
0
41
1
10
34.2317452477172
20
1.24765834658422
30
0
41
1
10
34.6664292728253
20
1.0113522605038
30
0
41
1
10
34.8843267274054
20
0.892546982406827
30
0
41
1
10
35.3210832204167
20
0.65333259599845
30
0
41
1
10
35.540324708194
20
0.532748604989365
30
0
41
1
10
35.9770275481549
20
0.290617039131177
30
0
41
1
10
36.1946424023059
20
0.169152364675881
30
0
41
1
10
36.6296209115
20
-0.072260747605327
30
0
41
1
10
36.8468718307721
20
-0.192431110785094
30
0
41
1
10
37.2807628004049
20
-0.431990290155625
30
0
41
1
10
37.4974114610624
20
-0.551363711403525
30
0
41
1
10
37.9298066784802
20
-0.789866913930013
30
0
41
1
10
38.1454653587849
20
-0.909150417356784
30
0
41
1
10
38.7929256568694
20
-1.26326008453037
30
0
41
1
10
39.2249392713985
20
-1.49489240305613
30
0
41
1
10
39.872399080205
20
-1.8377135934528
30
0
41
1
10
40.0879412400723
20
-1.95152757327054
30
0
41
1
10
40.5197498278376
20
-2.17598480992871
30
0
41
1
10
40.7360457663372
20
-2.28658390955033
30
0
41
1
10
41.1692919492106
20
-2.50475719507474
30
0
41
1
10
41.3862429276334
20
-2.61233060766588
30
0
41
1
10
41.8205938505132
20
-2.82477458709374
30
0
41
1
10
42.0378216594432
20
-2.9299263235875
30
0
41
1
10
42.6911310521128
20
-3.23967332338981
30
0
41
1
10
43.1302238051546
20
-3.43781324151351
30
0
41
1
10
44.00134882275
20
-3.81352667145643
30
0
41
1
10
44.4341531554963
20
-3.99245874705511
30
0
41
1
10
45.2998482602645
20
-4.3251887593205
30
0
41
1
10
45.7320155414774
20
-4.48012714841107
30
0
41
1
10
46.5940732959984
20
-4.76806099720906
30
0
41
1
10
47.0256718866019
20
-4.89915066351784
30
0
41
1
10
47.6738907952677
20
-5.07675251940839
30
0
41
1
10
47.8900176732832
20
-5.13284973128404
30
0
41
1
10
48.3222500508317
20
-5.23881482304773
30
0
41
1
10
48.5386172196531
20
-5.28845603769656
30
0
41
1
10
49.1894662326921
20
-5.42662061695373
30
0
41
1
10
49.6253916492973
20
-5.50475113943878
30
0
41
1
10
50.2809535175168
20
-5.60114448788528
30
0
41
1
10
50.499212327371
20
-5.62956335384374
30
0
41
1
10
50.9350301692863
20
-5.67854966485879
30
0
41
1
10
51.1526596676697
20
-5.69920912241213
30
0
41
1
10
51.5872149518555
20
-5.73304632621392
30
0
41
1
10
51.8041561976412
20
-5.74622410016087
30
0
41
1
10
52.2369892629845
20
-5.76513656680402
30
0
41
1
10
52.452940435085
20
-5.77083146414901
30
0
41
1
10
52.7224226064573
20
-5.77321883430972
30
0
41
1
10
52.775803031468
20
-5.77346432938438
30
0
41
1
10
52.8291853852948
20
-5.77348236678847
30
0
0
SPLINE
5
C4
100
AcDbEntity
8
1
62
256
6
ByLayer
370
18
48
1
60
0
100
AcDbSpline
70
4
71
3
72
8
73
4
40
0
40
0
40
0
40
0
40
1
40
1
40
1
40
1
41
1
10
56.9893597193723
20
-0.125089977551284
30
0
41
1
10
56.9900136563285
20
-0.103177564053283
30
0
41
1
10
56.9940468380788
20
-0.0763935993768428
30
0
41
1
10
56.9999621180589
20
-0.0481990131072507
30
0
0
SPLINE
5
C5
100
AcDbEntity
8
1
62
256
6
ByLayer
370
18
48
1
60
0
100
AcDbSpline
70
4
71
3
72
56
73
52
40
0
40
0
40
0
40
0
40
0.0624999999999935
40
0.0624999999999935
40
0.0937499999999907
40
0.0937499999999907
40
0.124999999999988
40
0.124999999999988
40
0.156249999999985
40
0.156249999999985
40
0.187499999999982
40
0.187499999999982
40
0.203124999999981
40
0.203124999999981
40
0.218749999999979
40
0.218749999999979
40
0.234374999999978
40
0.234374999999978
40
0.249999999999976
40
0.249999999999976
40
0.265624999999975
40
0.265624999999975
40
0.281249999999973
40
0.281249999999973
40
0.296874999999972
40
0.296874999999972
40
0.312499999999971
40
0.312499999999971
40
0.343749999999968
40
0.343749999999968
40
0.374999999999965
40
0.374999999999965
40
0.378906249999965
40
0.378906249999965
40
0.382812499999964
40
0.382812499999964
40
0.390624999999964
40
0.390624999999964
40
0.406249999999964
40
0.406249999999964
40
0.437499999999967
40
0.437499999999967
40
0.499999999999971
40
0.499999999999971
40
0.624999999999978
40
0.624999999999978
40
0.749999999999985
40
0.749999999999985
40
0.874999999999993
40
0.874999999999993
40
1
40
1
40
1
40
1
41
1
10
3.9999995111931
20
-5.6374866560312
30
0
41
1
10
3.72730539424049
20
-5.59595978739961
30
0
41
1
10
3.46210922502021
20
-5.54099074142334
30
0
41
1
10
3.08343476982131
20
-5.42901236974231
30
0
41
1
10
2.96004244658786
20
-5.38648325845236
30
0
41
1
10
2.72654661591858
20
-5.29006199722741
30
0
41
1
10
2.61600365700409
20
-5.23612483611612
30
0
41
1
10
2.41219766084635
20
-5.11319987196683
30
0
41
1
10
2.31859389642193
20
-5.0440930409153
30
0
41
1
10
2.15851121291499
20
-4.88503762853048
30
0
41
1
10
2.09413720058285
20
-4.79720415271146
30
0
41
1
10
2.03097319897239
20
-4.64878517990951
30
0
41
1
10
2.01578990112358
20
-4.59672843011506
30
0
41
1
10
1.99925731861992
20
-4.49002777552354
30
0
41
1
10
1.99770414311865
20
-4.43501557871951
30
0
41
1
10
2.00902660046086
20
-4.32160662377592
30
0
41
1
10
2.02218329907782
20
-4.26260984104877
30
0
41
1
10
2.06234218136677
20
-4.14547075294385
30
0
41
1
10
2.08919959629742
20
-4.08708075697143
30
0
41
1
10
2.15530794511594
20
-3.97079771085163
30
0
41
1
10
2.19492962671848
20
-3.91247604763987
30
0
41
1
10
2.28339690183569
20
-3.79915231160103
30
0
41
1
10
2.33218135243075
20
-3.74404607413072
30
0
41
1
10
2.43728828347571
20
-3.63652515496545
30
0
41
1
10
2.49361749496583
20
-3.58411222157821
30
0
41
1
10
2.61270259051588
20
-3.48167922093182
30
0
41
1
10
2.67563281232293
20
-3.43155187387225
30
0
41
1
10
2.87018339281778
20
-3.28637356907555
30
0
41
1
10
3.0081840506424
20
-3.19578438875524
30
0
41
1
10
3.29626842965405
20
-3.02413945545456
30
0
41
1
10
3.44616412416187
20
-2.94327751946537
30
0
41
1
10
3.61872103945524
20
-2.8574426192485
30
0
41
1
10
3.63769947741892
20
-2.84727407526759
30
0
41
1
10
3.6773442712562
20
-2.83108204006192
30
0
41
1
10
3.6982508876194
20
-2.82588865343703
30
0
41
1
10
3.76291635400844
20
-2.81554253892921
30
0
41
1
10
3.80702936403239
20
-2.81753701739584
30
0
41
1
10
3.93791027109597
20
-2.81944900425992
30
0
41
1
10
4.02515895766385
20
-2.82123059553175
30
0
41
1
10
4.28688936970497
20
-2.82808349577985
30
0
41
1
10
4.46122487053398
20
-2.83465996616801
30
0
41
1
10
4.98375787824827
20
-2.86027850453186
30
0
41
1
10
5.33160805005582
20
-2.88523469190051
30
0
41
1
10
6.37263410410512
20
-2.98244546429893
30
0
41
1
10
7.05798006587486
20
-3.07672675984122
30
0
41
1
10
8.41273198102215
20
-3.31246581426896
30
0
41
1
10
9.08207852895873
20
-3.45406489553727
30
0
41
1
10
10.4067869037472
20
-3.76810681268989
30
0
41
1
10
11.0625847214313
20
-3.94065710712923
30
0
41
1
10
12.3616430933308
20
-4.29455930796894
30
0
41
1
10
13.0014156501299
20
-4.47470295698156
30
0
41
1
10
13.6348018587031
20
-4.64668029601472
30
0
0
SPLINE
5
C6
100
AcDbEntity
8
1
62
256
6
ByLayer
370
18
48
1
60
0
100
AcDbSpline
70
4
71
3
72
22
73
18
40
0
40
0
40
0
40
0
40
0.149487525690596
40
0.149487525690596
40
0.224231288535893
40
0.224231288535893
40
0.29897505138119
40
0.29897505138119
40
0.448462577071785
40
0.448462577071785
40
0.597950102762379
40
0.597950102762379
40
0.747437628452973
40
0.747437628452973
40
0.896925154143567
40
0.896925154143567
40
1
40
1
40
1
40
1
41
1
10
4.25061521240687
20
-5.34596577765154
30
0
41
1
10
4.6057653630229
20
-5.4053081441802
30
0
41
1
10
4.97451741246459
20
-5.43709021250586
30
0
41
1
10
5.53893830721802
20
-5.45614399056277
30
0
41
1
10
5.72905100377068
20
-5.45761021944293
30
0
41
1
10
6.11250167396958
20
-5.45175990364362
30
0
41
1
10
6.30613230419306
20
-5.44439334190642
30
0
41
1
10
6.88721234371079
20
-5.41010782143664
30
0
41
1
10
7.27587387243523
20
-5.37205367906353
30
0
41
1
10
8.05499263112458
20
-5.26577020546009
30
0
41
1
10
8.44544198856818
20
-5.19833459753499
30
0
41
1
10
9.22852398238001
20
-5.03755979889584
30
0
41
1
10
9.6211723887219
20
-4.94398026435636
30
0
41
1
10
10.4099871438837
20
-4.73454259948133
30
0
41
1
10
10.8061804653808
20
-4.61777053238461
30
0
41
1
10
11.4805325923491
20
-4.40201183205687
30
0
41
1
10
11.75750356107
20
-4.30876417290901
30
0
41
1
10
12.035717602892
20
-4.21173584413921
30
0
0
SPLINE
5
C7
100
AcDbEntity
8
1
62
256
6
ByLayer
370
18
48
1
60
0
100
AcDbSpline
70
4
71
3
72
8
73
4
40
0
40
0
40
0
40
0
40
1
40
1
40
1
40
1
41
1
10
55.2623178556836
20
5.61672353537895
30
0
41
1
10
55.1503695780215
20
5.70036878999881
30
0
41
1
10
55.0495309775262
20
5.75214228719204
30
0
41
1
10
54.9594405340609
20
5.76889215686819
30
0
0
SPLINE
5
C8
100
AcDbEntity
8
1
62
256
6
ByLayer
370
18
48
1
60
0
100
AcDbSpline
70
4
71
3
72
30
73
26
40
0
40
0
40
0
40
0
40
0.0026595556584299
40
0.0026595556584299
40
0.0501519577699332
40
0.0501519577699332
40
0.14513676199294
40
0.14513676199294
40
0.240121566215947
40
0.240121566215947
40
0.335106370438953
40
0.335106370438953
40
0.43009117466196
40
0.43009117466196
40
0.525075978884967
40
0.525075978884967
40
0.620060783107973
40
0.620060783107973
40
0.71504558733098
40
0.71504558733098
40
0.810030391553987
40
0.810030391553987
40
0.905015195776993
40
0.905015195776993
40
1
40
1
40
1
40
1
41
1
10
37.7634573876791
20
5.46978243264795
30
0
41
1
10
37.7739002799128
20
5.46967091361577
30
0
41
1
10
37.7843435729615
20
5.46955197868925
30
0
41
1
10
37.9812832269083
20
5.46716989648868
30
0
41
1
10
38.1679137802763
20
5.46298112090747
30
0
41
1
10
38.7287897216404
20
5.44156748999649
30
0
41
1
10
39.1039865870277
20
5.41413818278707
30
0
41
1
10
39.8568924339445
20
5.33826580491547
30
0
41
1
10
40.2338884286701
20
5.28939454878042
30
0
41
1
10
40.9866762922962
20
5.17344235455096
30
0
41
1
10
41.3629304776937
20
5.10720821609959
30
0
41
1
10
42.1146361903444
20
4.95170245620477
30
0
41
1
10
42.4903643395293
20
4.86280310088037
30
0
41
1
10
43.2436300967962
20
4.66730925977456
30
0
41
1
10
43.6213562421011
20
4.55941878462133
30
0
41
1
10
44.3730802603989
20
4.32867823746943
30
0
41
1
10
44.7479202312744
20
4.20594442651461
30
0
41
1
10
45.4953783049668
20
3.94280021013856
30
0
41
1
10
45.8679390597997
20
3.80290322528123
30
0
41
1
10
46.6123082215359
20
3.51001336851292
30
0
41
1
10
46.9845308302089
20
3.35764791214092
30
0
41
1
10
47.7287837328432
20
3.04142575172307
30
0
41
1
10
48.1005536817278
20
2.87646320273063
30
0
41
1
10
48.8453897289679
20
2.53429234983676
30
0
41
1
10
49.2186456317466
20
2.35786797309712
30
0
41
1
10
49.5926195533224
20
2.17698512505726
30
0
0
SPLINE
5
C9
100
AcDbEntity
8
1
62
256
6
ByLayer
370
18
48
1
60
0
100
AcDbSpline
70
4
71
3
72
20
73
16
40
0
40
0
40
0
40
0
40
0.0355745367491124
40
0.0355745367491124
40
0.213496524960546
40
0.213496524960546
40
0.569340501383414
40
0.569340501383414
40
0.747262489594848
40
0.747262489594848
40
0.836223483700564
40
0.836223483700564
40
0.92518447780628
40
0.92518447780628
40
1
40
1
40
1
40
1
41
1
10
5.4842382427461
20
0.0157116364619583
30
0
41
1
10
5.59068833121265
20
-0.0411940305045562
30
0
41
1
10
5.69702554200134
20
-0.0980509411145647
30
0
41
1
10
6.33432587401541
20
-0.438719286171079
30
0
41
1
10
6.86306385065095
20
-0.720624958039849
30
0
41
1
10
8.44616392696594
20
-1.5528954758044
30
0
41
1
10
9.49690041440684
20
-2.09076209603944
30
0
41
1
10
11.0829795681097
20
-2.84115532802719
30
0
41
1
10
11.6132049592968
20
-3.08210284611204
30
0
41
1
10
12.4128636255055
20
-3.42611393045351
30
0
41
1
10
12.6801962280386
20
-3.53788115921381
30
0
41
1
10
13.2125157983745
20
-3.75312112419351
30
0
41
1
10
13.4780298949664
20
-3.85683160490112
30
0
41
1
10
13.9658554855528
20
-4.0403127800416
30
0
41
1
10
14.1883275111216
20
-4.12128294809071
30
0
41
1
10
14.4105297279578
20
-4.19929754580627
30
0
0
SPLINE
5
CA
100
AcDbEntity
8
1
62
256
6
ByLayer
370
13
48
1
60
0
100
AcDbSpline
70
4
71
3
72
18
73
14
40
0
40
0
40
0
40
0
40
0.268966680719572
40
0.268966680719572
40
0.439252172606861
40
0.439252172606861
40
0.524394918550503
40
0.524394918550503
40
0.609537664494146
40
0.609537664494146
40
0.950108648268712
40
0.950108648268712
40
1
40
1
40
1
40
1
41
1
10
14.4105287843732
20
-4.19929721451629
30
0
41
1
10
15.2451840462628
20
-4.49234245130353
30
0
41
1
10
16.0760323883099
20
-4.74368550703764
30
0
41
1
10
17.4356899863664
20
-5.07663163971344
30
0
41
1
10
17.963439077699
20
-5.18676558480877
30
0
41
1
10
18.7578799781826
20
-5.32180310444613
30
0
41
1
10
19.0231648102599
20
-5.36178532342964
30
0
41
1
10
19.5551212007445
20
-5.43132489648963
30
0
41
1
10
19.8223195417386
20
-5.46093471896987
30
0
41
1
10
21.1558442474055
20
-5.58139115976834
30
0
41
1
10
22.210465052306
20
-5.58988281605409
30
0
41
1
10
23.4181631875156
20
-5.50216278360108
30
0
41
1
10
23.5724533298161
20
-5.48913259171587
30
0
41
1
10
23.7267528835302
20
-5.47429187373157
30
0
0
SPLINE
5
CB
100
AcDbEntity
8
1
62
256
6
ByLayer
370
18
48
1
60
0
100
AcDbSpline
70
4
71
3
72
10
73
6
40
0
40
0
40
0
40
0
40
0.5
40
0.5
40
1
40
1
40
1
40
1
41
1
10
55.0560810559629
20
1.34890167916504
30
0
41
1
10
55.368997566473
20
1.33860076595116
30
0
41
1
10
55.6819356459926
20
1.32807057385861
30
0
41
1
10
56.3075792963272
20
1.30948176052436
30
0
41
1
10
56.6202535725508
20
1.30175580123711
30
0
41
1
10
56.9328892564079
20
1.29444007935689
30
0
0
SPLINE
5
CC
100
AcDbEntity
8
1
62
256
6
ByLayer
370
18
48
1
60
0
100
AcDbSpline
70
4
71
3
72
10
73
6
40
0
40
0
40
0
40
0
40
0.5
40
0.5
40
1
40
1
40
1
40
1
41
1
10
56.9999621180659
20
0.0481990131359566
30
0
41
1
10
56.9962165651272
20
0.0329497222008683
30
0
41
1
10
56.9911231727734
20
0.0166263014807839
30
0
41
1
10
56.978874380374
20
-0.0143473462328814
30
0
41
1
10
56.971687041322
20
-0.029012156918327
30
0
41
1
10
56.964403533348
20
-0.0409249369247391
30
0
0
SPLINE
5
CD
100
AcDbEntity
8
1
62
256
6
ByLayer
370
18
48
1
60
0
100
AcDbSpline
70
4
71
3
72
43
73
39
40
0
40
0
40
0
40
0
40
0.125000000000004
40
0.125000000000004
40
0.187500000000008
40
0.187500000000008
40
0.250000000000011
40
0.250000000000011
40
0.375000000000023
40
0.375000000000023
40
0.500000000000035
40
0.500000000000035
40
0.562500000000041
40
0.562500000000041
40
0.625000000000046
40
0.625000000000046
40
0.750000000000058
40
0.750000000000058
40
0.812500000000064
40
0.812500000000064
40
0.843750000000065
40
0.843750000000065
40
0.859375000000067
40
0.859375000000067
40
0.867187500000066
40
0.867187500000066
40
0.871093750000065
40
0.871093750000065
40
0.875000000000063
40
0.875000000000063
40
0.882812500000059
40
0.882812500000059
40
0.890625000000054
40
0.890625000000054
40
0.906250000000046
40
0.937500000000031
40
0.937500000000031
40
1
40
1
40
1
40
1
41
1
10
49.5926195533222
20
2.17698512505734
30
0
41
1
10
49.8186458550509
20
1.96428959087558
30
0
41
1
10
50.0517366885555
20
1.76500252108173
30
0
41
1
10
50.4121919368512
20
1.48660634875213
30
0
41
1
10
50.5341710654557
20
1.39727598593444
30
0
41
1
10
50.781880159741
20
1.22573434008484
30
0
41
1
10
50.9080530855748
20
1.14324813746802
30
0
41
1
10
51.2884005610111
20
0.909213603314527
30
0
41
1
10
51.5442738273032
20
0.770720816530769
30
0
41
1
10
52.060742652404
20
0.529598659239838
30
0
41
1
10
52.3213485477913
20
0.427047789806892
30
0
41
1
10
52.7162847489089
20
0.303807227062634
30
0
41
1
10
52.8486034473946
20
0.267840397119983
30
0
41
1
10
53.1146950672493
20
0.206950822377564
30
0
41
1
10
53.2489865796866
20
0.18196521346303
30
0
41
1
10
53.6488873761094
20
0.12607122312096
30
0
41
1
10
53.9122444881214
20
0.113576826856672
30
0
41
1
10
54.3012022126102
20
0.141249251936756
30
0
41
1
10
54.4294122980571
20
0.158231054308544
30
0
41
1
10
54.6180697152923
20
0.196305804268178
30
0
41
1
10
54.6802816868889
20
0.211083018709502
30
0
41
1
10
54.7725239030244
20
0.23650277731312
30
0
41
1
10
54.8032949245354
20
0.245028452193253
30
0
41
1
10
54.8485416783203
20
0.260180606199128
30
0
41
1
10
54.8630004204655
20
0.267257185669621
30
0
41
1
10
54.8797877829159
20
0.285320030056653
30
0
41
1
10
54.8845441817107
20
0.292358429763141
30
0
41
1
10
54.8911342346552
20
0.308896449139212
30
0
41
1
10
54.8930452541035
20
0.318122360303079
30
0
41
1
10
54.8970492693945
20
0.346025825167658
30
0
41
1
10
54.8987352
20
0.365034475791759
30
0
41
1
10
54.9028128328653
20
0.40276015614316
30
0
41
1
10
54.9047322774221
20
0.421676079740166
30
0
41
1
10
54.9101361733732
20
0.478527936890714
30
0
41
1
10
54.919528949281
20
0.592670507130094
30
0
41
1
10
54.9249014789121
20
0.708059924725688
30
0
41
1
10
54.9308023127883
20
0.940341157829891
30
0
41
1
10
54.9282618811384
20
1.09659523719728
30
0
41
1
10
54.9205510383123
20
1.25288264867484
30
0
0
SPLINE
5
CE
100
AcDbEntity
8
1
62
256
6
ByLayer
370
18
48
1
60
0
100
AcDbSpline
70
4
71
3
72
32
73
28
40
0
40
0
40
0
40
0
40
0.0625000000000011
40
0.0625000000000011
40
0.0937500000000017
40
0.0937500000000017
40
0.125000000000002
40
0.125000000000002
40
0.187500000000004
40
0.187500000000004
40
0.218750000000006
40
0.218750000000006
40
0.250000000000007
40
0.250000000000007
40
0.375000000000007
40
0.375000000000007
40
0.500000000000008
40
0.500000000000008
40
0.562500000000008
40
0.562500000000008
40
0.625000000000008
40
0.625000000000008
40
0.750000000000005
40
0.750000000000005
40
0.875000000000003
40
0.875000000000003
40
1
40
1
40
1
40
1
41
1
10
49.5926195533222
20
2.17698512505726
30
0
41
1
10
49.5720407033675
20
2.00279669291504
30
0
41
1
10
49.5647366118612
20
1.82407726098378
30
0
41
1
10
49.5744825037132
20
1.54893200413278
30
0
41
1
10
49.5812585012992
20
1.45556114969727
30
0
41
1
10
49.6015029564451
20
1.269796246938
30
0
41
1
10
49.6149399055197
20
1.17720251650084
30
0
41
1
10
49.6646642195212
20
0.900241262852461
30
0
41
1
10
49.7103363234712
20
0.716691175041234
30
0
41
1
10
49.7961328294443
20
0.442871903988248
30
0
41
1
10
49.8277601486109
20
0.351494405309666
30
0
41
1
10
49.8958960619898
20
0.171107011367667
30
0
41
1
10
49.9323101313252
20
0.0822670176806071
30
0
41
1
10
50.1250639242398
20
-0.355768619182385
30
0
41
1
10
50.3128112397526
20
-0.686842131515903
30
0
41
1
10
50.7400087947161
20
-1.31915665089173
30
0
41
1
10
50.9734034305971
20
-1.60952557319811
30
0
41
1
10
51.3446474933425
20
-2.01643163400612
30
0
41
1
10
51.4719667872165
20
-2.14730603834118
30
0
41
1
10
51.7329825837076
20
-2.40055323774084
30
0
41
1
10
51.8668972132776
20
-2.52310857538364
30
0
41
1
10
52.2759797412635
20
-2.87791899261114
30
0
41
1
10
52.5549475863119
20
-3.09456396952552
30
0
41
1
10
53.1227861690554
20
-3.49631117692823
30
0
41
1
10
53.4116808221863
20
-3.68133723184277
30
0
41
1
10
53.9980027352871
20
-4.02421123690235
30
0
41
1
10
54.2954511528127
20
-4.18199179588802
30
0
41
1
10
54.5968854774409
20
-4.32707642233171
30
0
0
SPLINE
5
CF
100
AcDbEntity
8
1
62
256
6
ByLayer
370
18
48
1
60
0
100
AcDbSpline
70
4
71
3
72
8
73
4
40
0
40
0
40
0
40
0
40
1
40
1
40
1
40
1
41
1
10
55.0373275392117
20
-5.57774383006637
30
0
41
1
10
55.0114123426463
20
-5.64156858528668
30
0
41
1
10
54.9854487892862
20
-5.70528406188362
30
0
41
1
10
54.959440534061
20
-5.76889215686819
30
0
0
SPLINE
5
D0
100
AcDbEntity
8
1
62
256
6
ByLayer
370
18
48
1
60
0
100
AcDbSpline
70
4
71
3
72
8
73
4
40
0
40
0
40
0
40
0
40
1
40
1
40
1
40
1
41
1
10
56.9893597193723
20
0.125089977551284
30
0
41
1
10
56.9900136563284
20
0.103177564058342
30
0
41
1
10
56.9940468380769
20
0.0763935993891209
30
0
41
1
10
56.9999621180547
20
0.0481990131267764
30
0
0
SPLINE
5
D1
100
AcDbEntity
8
1
62
256
6
ByLayer
370
18
48
1
60
0
100
AcDbSpline
70
4
71
3
72
14
73
10
40
0
40
0
40
0
40
0
40
0.25
40
0.25
40
0.5
40
0.5
40
0.75
40
0.75
40
1
40
1
40
1
40
1
41
1
10
55.2623178556774
20
5.61672353539899
30
0
41
1
10
55.3906896228149
20
5.25372022196891
30
0
41
1
10
55.522389967023
20
4.89127101221072
30
0
41
1
10
55.7914209342511
20
4.16748454988237
30
0
41
1
10
55.9287758543133
20
3.80615095038593
30
0
41
1
10
56.2085543074211
20
3.08462087971836
30
0
41
1
10
56.3510456432593
20
2.7243204783569
30
0
41
1
10
56.639336712857
20
2.00734751477665
30
0
41
1
10
56.7852798264566
20
1.65029027001427
30
0
41
1
10
56.932889256408
20
1.29444007935697
30
0
0
SPLINE
5
D2
100
AcDbEntity
8
1
62
256
6
ByLayer
370
18
48
1
60
0
100
AcDbSpline
70
4
71
3
72
14
73
10
40
0
40
0
40
0
40
0
40
0.25
40
0.25
40
0.5
40
0.5
40
0.75
40
0.75
40
1
40
1
40
1
40
1
41
1
10
55.0463918151406
20
-5.48314245996448
30
0
41
1
10
55.0497884527709
20
-5.48268008238492
30
0
41
1
10
55.0525544367126
20
-5.48387943849292
30
0
41
1
10
55.0564092709057
20
-5.49067931043504
30
0
41
1
10
55.0574466527477
20
-5.49635759997128
30
0
41
1
10
55.0565922788666
20
-5.51329797954972
30
0
41
1
10
55.0546174131489
20
-5.52460827371411
30
0
41
1
10
55.0476434209114
20
-5.55032051790946
30
0
41
1
10
55.0427310277025
20
-5.56443594990449
30
0
41
1
10
55.0373275392346
20
-5.57774383000975
30
0
0
SPLINE
5
D3
100
AcDbEntity
8
1
62
256
6
ByLayer
370
13
48
1
60
0
100
AcDbSpline
70
4
71
3
72
8
73
4
40
0
40
0
40
0
40
0
40
1
40
1
40
1
40
1
41
1
10
4.250245563405
20
0.771755905900704
30
0
41
1
10
4.20898144536758
20
0.784608411120644
30
0
41
1
10
4.16869330360728
20
0.798478139532193
30
0
41
1
10
4.13191464572111
20
0.812726128553152
30
0
0
SPLINE
5
D4
100
AcDbEntity
8
1
62
256
6
ByLayer
370
18
48
1
60
0
100
AcDbSpline
70
4
71
3
72
28
73
24
40
0
40
0
40
0
40
0
40
0.0625
40
0.0625
40
0.125
40
0.125
40
0.1875
40
0.1875
40
0.25
40
0.25
40
0.375
40
0.375
40
0.5
40
0.5
40
0.625
40
0.625
40
0.75
40
0.75
40
0.875
40
0.875
40
0.9375
40
0.9375
40
1
40
1
40
1
40
1
41
1
10
55.9380386226921
20
-1.79100071501924
30
0
41
1
10
55.9341534833089
20
-1.82567607475843
30
0
41
1
10
55.928459565058
20
-1.86331380670015
30
0
41
1
10
55.9139671585816
20
-1.94076571267806
30
0
41
1
10
55.9051444562434
20
-1.98095395505015
30
0
41
1
10
55.8843167957638
20
-2.0643159884161
30
0
41
1
10
55.8722937553949
20
-2.10742771915102
30
0
41
1
10
55.846163268619
20
-2.19290257069636
30
0
41
1
10
55.8319446231444
20
-2.23573427021699
30
0
41
1
10
55.7859401017306
20
-2.36452535899156
30
0
41
1
10
55.7521902924424
20
-2.44696563059469
30
0
41
1
10
55.6812580427336
20
-2.60177944827242
30
0
41
1
10
55.6450731481819
20
-2.67204463010299
30
0
41
1
10
55.5723948442573
20
-2.79829927749543
30
0
41
1
10
55.5364316354193
20
-2.85316692712706
30
0
41
1
10
55.4685877993064
20
-2.94297543143267
30
0
41
1
10
55.4364389492333
20
-2.97847907984445
30
0
41
1
10
55.375855003732
20
-3.03020808669422
30
0
41
1
10
55.348601808851
20
-3.04544233097286
30
0
41
1
10
55.3121563715167
20
-3.05226646769262
30
0
41
1
10
55.3006788181883
20
-3.05178959669914
30
0
41
1
10
55.2798411299067
20
-3.04510130357715
30
0
41
1
10
55.2704542367582
20
-3.03894729819692
30
0
41
1
10
55.2621051596168
20
-3.02992920352457
30
0
0
SPLINE
5
D5
100
AcDbEntity
8
1
62
256
6
ByLayer
370
18
48
1
60
0
100
AcDbSpline
70
4
71
3
72
50
73
46
40
0
40
0
40
0
40
0
40
0.0624999999999989
40
0.0624999999999989
40
0.124999999999998
40
0.124999999999998
40
0.249999999999996
40
0.249999999999996
40
0.312499999999995
40
0.312499999999995
40
0.343749999999996
40
0.343749999999996
40
0.374999999999998
40
0.374999999999998
40
0.40625
40
0.40625
40
0.421875
40
0.421875
40
0.437500000000001
40
0.437500000000001
40
0.453125000000002
40
0.453125000000002
40
0.468750000000003
40
0.468750000000003
40
0.484375000000003
40
0.484375000000003
40
0.500000000000004
40
0.500000000000004
40
0.515625000000005
40
0.515625000000005
40
0.531250000000006
40
0.531250000000006
40
0.562500000000007
40
0.562500000000007
40
0.625000000000005
40
0.625000000000005
40
0.687500000000004
40
0.687500000000004
40
0.750000000000002
40
0.750000000000002
40
0.8125
40
0.8125
40
0.874999999999998
40
0.874999999999998
40
1
40
1
40
1
40
1
41
1
10
55.2621051596171
20
-3.02992920352421
30
0
41
1
10
55.1521746656243
20
-2.99713414310008
30
0
41
1
10
55.0423997288245
20
-2.95951617462529
30
0
41
1
10
54.8231559967359
20
-2.87478860099904
30
0
41
1
10
54.713366151574
20
-2.82752455386108
30
0
41
1
10
54.3868768222012
20
-2.67153960621897
30
0
41
1
10
54.1740281799954
20
-2.55017962379756
30
0
41
1
10
53.8651382791934
20
-2.33065111908752
30
0
41
1
10
53.7637931944749
20
-2.25093785800848
30
0
41
1
10
53.618780319007
20
-2.11928696671166
30
0
41
1
10
53.5713524559854
20
-2.07309727902225
30
0
41
1
10
53.4808122222054
20
-1.97644523138754
30
0
41
1
10
53.4375739781512
20
-1.9259503885817
30
0
41
1
10
53.3570197943658
20
-1.81863924138366
30
0
41
1
10
53.3195583872792
20
-1.76196099827931
30
0
41
1
10
53.2713507864017
20
-1.66847267591822
30
0
41
1
10
53.2570583036915
20
-1.63661436524626
30
0
41
1
10
53.2332956696259
20
-1.5710099324925
30
0
41
1
10
53.2238764182697
20
-1.53715076530017
30
0
41
1
10
53.2125127420787
20
-1.47021822466888
30
0
41
1
10
53.2104799472647
20
-1.43618632075356
30
0
41
1
10
53.2156023957174
20
-1.37153895187512
30
0
41
1
10
53.2227484665925
20
-1.34079001628248
30
0
41
1
10
53.2451307726125
20
-1.28517130725464
30
0
41
1
10
53.2601898256884
20
-1.26045295769239
30
0
41
1
10
53.2955801838988
20
-1.21704388037617
30
0
41
1
10
53.3155259843493
20
-1.1986713725176
30
0
41
1
10
53.3585891327355
20
-1.16662181297656
30
0
41
1
10
53.3818633019771
20
-1.15292281587716
30
0
41
1
10
53.4296575849474
20
-1.1296855381882
30
0
41
1
10
53.4542954836515
20
-1.12004410206688
30
0
41
1
10
53.5298587248411
20
-1.0955227005326
30
0
41
1
10
53.5826929180993
20
-1.08494449885927
30
0
41
1
10
53.7433473307017
20
-1.06475893741035
30
0
41
1
10
53.8522045785384
20
-1.06620180030672
30
0
41
1
10
54.0717126282049
20
-1.08432077532936
30
0
41
1
10
54.1824173324608
20
-1.10145469864722
30
0
41
1
10
54.4051523356248
20
-1.14698126054273
30
0
41
1
10
54.5167087848734
20
-1.17537275073846
30
0
41
1
10
54.7388387959539
20
-1.24072603016768
30
0
41
1
10
54.849639998826
20
-1.27776385709342
30
0
41
1
10
55.0707708172682
20
-1.35963579491727
30
0
41
1
10
55.181266611449
20
-1.40455810799639
30
0
41
1
10
55.5100150207001
20
-1.55012312706239
30
0
41
1
10
55.7261285236715
20
-1.66102134713404
30
0
41
1
10
55.9380386226922
20
-1.79100071501921
30
0
0
SPLINE
5
D6
100
AcDbEntity
8
1
62
256
6
ByLayer
370
18
48
1
60
0
100
AcDbSpline
70
4
71
3
72
22
73
18
40
0
40
0
40
0
40
0
40
0.19890600681321
40
0.19890600681321
40
0.397812013626421
40
0.397812013626421
40
0.596718020439631
40
0.596718020439631
40
0.696171023846236
40
0.696171023846236
40
0.795624027252839
40
0.795624027252839
40
0.895077030659443
40
0.895077030659443
40
0.994530034066047
40
0.994530034066047
40
1
40
1
40
1
40
1
41
1
10
13.6348018587031
20
-4.64668029601472
30
0
41
1
10
14.0719123127381
20
-4.79060479770138
30
0
41
1
10
14.5082395536421
20
-4.91969189160849
30
0
41
1
10
15.3776950153496
20
-5.15153367348248
30
0
41
1
10
15.8098482151838
20
-5.25488347531052
30
0
41
1
10
16.6747023870875
20
-5.43210777554197
30
0
41
1
10
17.1071626252855
20
-5.50643153219926
30
0
41
1
10
17.7544384457442
20
-5.59716172535957
30
0
41
1
10
17.9701378847227
20
-5.62381826589839
30
0
41
1
10
18.4023631440903
20
-5.66961313276451
30
0
41
1
10
18.6187781590396
20
-5.68881084501714
30
0
41
1
10
19.052057065221
20
-5.71986766819435
30
0
41
1
10
19.26893576433
20
-5.73172753734059
30
0
41
1
10
19.7028097678481
20
-5.74802531096404
30
0
41
1
10
19.9198537229792
20
-5.7524256030255
30
0
41
1
10
20.1496059421577
20
-5.75303961678196
30
0
41
1
10
20.1615855153904
20
-5.75306016244568
30
0
41
1
10
20.1735669411969
20
-5.7530692400596
30
0
0
SPLINE
5
D7
100
AcDbEntity
8
1
62
256
6
ByLayer
370
18
48
1
60
0
100
AcDbSpline
70
4
71
3
72
30
73
26
40
0
40
0
40
0
40
0
40
0.123356289183751
40
0.123356289183751
40
0.248591105014645
40
0.248591105014645
40
0.311208512930091
40
0.311208512930091
40
0.373825920845536
40
0.373825920845536
40
0.49906073667643
40
0.49906073667643
40
0.561678144591877
40
0.561678144591877
40
0.624295552507324
40
0.624295552507324
40
0.686912960422771
40
0.686912960422771
40
0.749530368338218
40
0.749530368338218
40
0.87476518416911
40
0.87476518416911
40
0.937382592084555
40
0.937382592084555
40
1
40
1
40
1
40
1
41
1
10
44.8864784327296
20
4.16630248457099
30
0
41
1
10
45.3128130529932
20
4.3298344533132
30
0
41
1
10
45.7384809898133
20
4.48228665734632
30
0
41
1
10
46.5940732959984
20
4.76806099720906
30
0
41
1
10
47.0256718866019
20
4.89915066351784
30
0
41
1
10
47.6738907952676
20
5.07675251940842
30
0
41
1
10
47.8900176732832
20
5.13284973128407
30
0
41
1
10
48.3222500508317
20
5.23881482304773
30
0
41
1
10
48.5386172196531
20
5.28845603769656
30
0
41
1
10
49.189466232692
20
5.42662061695373
30
0
41
1
10
49.6253916492973
20
5.50475113943878
30
0
41
1
10
50.2809535175168
20
5.60114448788531
30
0
41
1
10
50.499212327371
20
5.62956335384374
30
0
41
1
10
50.9350301692863
20
5.67854966485879
30
0
41
1
10
51.1526596676696
20
5.69920912241213
30
0
41
1
10
51.5872149518555
20
5.73304632621392
30
0
41
1
10
51.8041561976412
20
5.74622410016087
30
0
41
1
10
52.2369892629845
20
5.76513656680402
30
0
41
1
10
52.452940435085
20
5.77083146414904
30
0
41
1
10
53.1012562292302
20
5.7765749601798
30
0
41
1
10
53.5336974457813
20
5.76549561762661
30
0
41
1
10
54.1814394350438
20
5.72644937938253
30
0
41
1
10
54.3970744338855
20
5.70961698991789
30
0
41
1
10
54.8291982672034
20
5.66864362260807
30
0
41
1
10
55.0456152655575
20
5.64450958040737
30
0
41
1
10
55.2623178556849
20
5.61672353537807
30
0
0
SPLINE
5
D8
100
AcDbEntity
8
1
62
256
6
ByLayer
370
18
48
1
60
0
100
AcDbSpline
70
4
71
3
72
8
73
4
40
0
40
0
40
0
40
0
40
1
40
1
40
1
40
1
41
1
10
55.2621051596171
20
-3.02992920352421
30
0
41
1
10
55.0355550218924
20
-3.45794325911544
30
0
41
1
10
54.8138001727044
20
-3.89031208410825
30
0
41
1
10
54.5968854774408
20
-4.32707642233174
30
0
0
SPLINE
5
D9
100
AcDbEntity
8
1
62
256
6
ByLayer
370
18
48
1
60
0
100
AcDbSpline
70
4
71
3
72
72
73
68
40
0
40
0
40
0
40
0
40
0.0282869353898859
40
0.0282869353898859
40
0.064276308153225
40
0.064276308153225
40
0.100265680916564
40
0.100265680916564
40
0.136255053679903
40
0.136255053679903
40
0.172244426443242
40
0.172244426443242
40
0.208233799206581
40
0.208233799206581
40
0.226228485588251
40
0.226228485588251
40
0.24422317196992
40
0.24422317196992
40
0.280212544733258
40
0.280212544733258
40
0.316201917496596
40
0.316201917496596
40
0.352191290259935
40
0.352191290259935
40
0.388180663023273
40
0.388180663023273
40
0.424170035786611
40
0.424170035786611
40
0.460159408549949
40
0.460159408549949
40
0.496148781313287
40
0.496148781313287
40
0.532138154076625
40
0.532138154076625
40
0.550132840458293
40
0.550132840458293
40
0.568127526839962
40
0.568127526839962
40
0.604116899603298
40
0.604116899603298
40
0.640106272366634
40
0.640106272366634
40
0.658100958748302
40
0.658100958748302
40
0.676095645129971
40
0.676095645129971
40
0.712085017893308
40
0.712085017893308
40
0.748074390656645
40
0.748074390656645
40
0.784063763419982
40
0.784063763419982
40
0.80205844980165
40
0.80205844980165
40
0.820053136183319
40
0.820053136183319
40
0.856042508946655
40
0.856042508946655
40
0.892031881709991
40
0.892031881709991
40
0.910026568091659
40
0.910026568091659
40
0.928021254473327
40
0.928021254473327
40
0.964010627236664
40
0.964010627236664
40
1
40
1
40
1
40
1
41
1
10
44.850889909924
20
-4.16811481704596
30
0
41
1
10
44.5580822911257
20
-4.26778988072363
30
0
41
1
10
44.265520297171
20
-4.36194162316869
30
0
41
1
10
43.6010152725353
20
-4.56532259690675
30
0
41
1
10
43.2287926402029
20
-4.67133708352688
30
0
41
1
10
42.4832744225831
20
-4.86446076600674
30
0
41
1
10
42.1104423084766
20
-4.95261904244049
30
0
41
1
10
41.362315468408
20
-5.10728613180117
30
0
41
1
10
40.9867444101514
20
-5.17343308055928
30
0
41
1
10
40.2336712515767
20
-5.28942678218067
30
0
41
1
10
39.8564411482738
20
-5.33831680149521
30
0
41
1
10
39.103855364314
20
-5.41414588289376
30
0
41
1
10
38.7278323650237
20
-5.44167191143546
30
0
41
1
10
38.1638595169164
20
-5.46310156195034
30
0
41
1
10
37.9759212764241
20
-5.46728997436978
30
0
41
1
10
37.5999397355695
20
-5.47172516107264
30
0
41
1
10
37.4118519256669
20
-5.4715444366268
30
0
41
1
10
36.8471499422225
20
-5.46327420239484
30
0
41
1
10
36.4693160374072
20
-5.44771573959707
30
0
41
1
10
35.7173958735321
20
-5.39501370324706
30
0
41
1
10
35.3428846692577
20
-5.35756502172651
30
0
41
1
10
34.5952139411781
20
-5.26029831300457
30
0
41
1
10
34.222310060068
20
-5.20262902579088
30
0
41
1
10
33.4778434279895
20
-5.06587672062318
30
0
41
1
10
33.1057795192283
20
-4.98736574926647
30
0
41
1
10
32.3616749653531
20
-4.81416446471442
30
0
41
1
10
31.9899601356102
20
-4.71833107840163
30
0
41
1
10
31.2455915706884
20
-4.50842902566444
30
0
41
1
10
30.8727488367244
20
-4.39468605823495
30
0
41
1
10
30.1245453317605
20
-4.14684883909442
30
0
41
1
10
29.7499077210222
20
-4.0143020585528
30
0
41
1
10
28.9978709729143
20
-3.73531822652174
30
0
41
1
10
28.6202470369038
20
-3.58842474402161
30
0
41
1
10
28.0560498289757
20
-3.35779394864343
30
0
41
1
10
27.8682215544539
20
-3.27911296039227
30
0
41
1
10
27.4925666339894
20
-3.11822550156239
30
0
41
1
10
27.3046929916136
20
-3.03603898149973
30
0
41
1
10
26.7409440631661
20
-2.78581243857857
30
0
41
1
10
26.3649870817302
20
-2.61441572912855
30
0
41
1
10
25.6130302575429
20
-2.26017266128625
30
0
41
1
10
25.2358672535081
20
-2.07755730390326
30
0
41
1
10
24.6718545768007
20
-1.79961040733079
30
0
41
1
10
24.4841837988737
20
-1.70623509849057
30
0
41
1
10
24.1095515785162
20
-1.51792994475321
30
0
41
1
10
23.9225923893146
20
-1.42301549127904
30
0
41
1
10
23.3624470534767
20
-1.13667549980181
30
0
41
1
10
22.9897523796175
20
-0.944080721427582
30
0
41
1
10
22.245071201592
20
-0.55695183515121
30
0
41
1
10
21.8734549402063
20
-0.361713560846368
30
0
41
1
10
21.1302873411667
20
0.0294805132299132
30
0
41
1
10
20.7584483179051
20
0.224868514940965
30
0
41
1
10
20.2000518945209
20
0.517135363934642
30
0
41
1
10
20.0138636974974
20
0.614518543033256
30
0
41
1
10
19.6412064114885
20
0.808898684311089
30
0
41
1
10
19.4546067062483
20
0.905654452545889
30
0
41
1
10
18.8940534245414
20
1.19463021862731
30
0
41
1
10
18.5195233596017
20
1.38589154821372
30
0
41
1
10
17.7681352281692
20
1.76446702612012
30
0
41
1
10
17.3912570024694
20
1.95223738469318
30
0
41
1
10
16.827474571098
20
2.22491867876243
30
0
41
1
10
16.6396317413895
20
2.3144879591618
30
0
41
1
10
16.2640280953688
20
2.4906077429201
30
0
41
1
10
16.0762839545828
20
2.5772763572337
30
0
41
1
10
15.5134854323883
20
2.83482512435336
30
0
41
1
10
15.1386004418661
20
3.00237360473807
30
0
41
1
10
14.3877213733929
20
3.32477240528541
30
0
41
1
10
14.0116500258897
20
3.47944908272987
30
0
41
1
10
13.6348018587031
20
3.62683457665722
30
0
0
SPLINE
5
DA
100
AcDbEntity
8
1
62
256
6
ByLayer
370
18
48
1
60
0
100
AcDbSpline
70
4
71
3
72
18
73
14
40
0
40
0
40
0
40
0
40
0.250000000000001
40
0.250000000000001
40
0.375000000000001
40
0.375000000000001
40
0.500000000000001
40
0.500000000000001
40
0.750000000000002
40
0.750000000000002
40
0.875000000000001
40
0.875000000000001
40
1
40
1
40
1
40
1
41
1
10
54.5968854774408
20
-4.32707642233171
30
0
41
1
10
54.5964223148676
20
-4.52435225289716
30
0
41
1
10
54.6051185574122
20
-4.69746593577571
30
0
41
1
10
54.632311018831
20
-4.92155635447756
30
0
41
1
10
54.6437511045921
20
-4.9902895384059
30
0
41
1
10
54.6716786259437
20
-5.11552558487691
30
0
41
1
10
54.6880733258193
20
-5.17147888087447
30
0
41
1
10
54.7440804420901
20
-5.3181497877726
30
0
41
1
10
54.7906452559329
20
-5.38869799295895
30
0
41
1
10
54.875383375887
20
-5.4546068109247
30
0
41
1
10
54.9062205111319
20
-5.46990650050847
30
0
41
1
10
54.9727934320569
20
-5.48675421458117
30
0
41
1
10
55.0083950875308
20
-5.48831487953345
30
0
41
1
10
55.0463918151493
20
-5.48314245996332
30
0
0
SPLINE
5
DB
100
AcDbEntity
8
1
62
256
6
ByLayer
370
18
48
1
60
0
100
AcDbSpline
70
4
71
3
72
14
73
10
40
0
40
0
40
0
40
0
40
0.25
40
0.25
40
0.5
40
0.5
40
0.75
40
0.75
40
1
40
1
40
1
40
1
41
1
10
55.2623178556756
20
-5.61672353540391
30
0
41
1
10
55.3907334680727
20
-5.25359623852458
30
0
41
1
10
55.5224538388476
20
-4.8910965627544
30
0
41
1
10
55.7914850727508
20
-4.16731460848163
30
0
41
1
10
55.9288201131426
20
-3.80603656423588
30
0
41
1
10
56.208524573929
20
-3.08469780599998
30
0
41
1
10
56.3510185291121
20
-2.72438809485487
30
0
41
1
10
56.6393502863932
20
-2.00731357346143
30
0
41
1
10
56.7852945593825
20
-1.65025475253751
30
0
41
1
10
56.932889256408
20
-1.29444007935697
30
0
0
SPLINE
5
DC
100
AcDbEntity
8
1
62
256
6
ByLayer
370
18
48
1
60
0
100
AcDbSpline
70
4
71
3
72
8
73
4
40
0
40
0
40
0
40
0
40
1
40
1
40
1
40
1
41
1
10
55.2623178556834
20
-5.61672353537915
30
0
41
1
10
55.1503695780213
20
-5.70036878999889
30
0
41
1
10
55.0495309775261
20
-5.75214228719207
30
0
41
1
10
54.959440534061
20
-5.76889215686819
30
0
0
SPLINE
5
DD
100
AcDbEntity
8
1
62
256
6
ByLayer
370
18
48
1
60
0
100
AcDbSpline
70
4
71
3
72
8
73
4
40
0
40
0
40
0
40
0
40
1
40
1
40
1
40
1
41
1
10
56.932889256408
20
-1.29444007935692
30
0
41
1
10
56.9589110141667
20
-0.904290437320725
30
0
41
1
10
56.9777382654888
20
-0.514506878542818
30
0
41
1
10
56.9893597193723
20
-0.12508997755134
30
0
0
SPLINE
5
DE
100
AcDbEntity
8
1
62
256
6
ByLayer
370
18
48
1
60
0
100
AcDbSpline
70
4
71
3
72
8
73
4
40
0
40
0
40
0
40
0
40
1
40
1
40
1
40
1
41
1
10
54.959440534061
20
5.76889215686816
30
0
41
1
10
54.8024880419787
20
5.77274750714986
30
0
41
1
10
54.6455031029946
20
5.7746194992626
30
0
41
1
10
54.4884885705457
20
5.77451212885816
30
0
0
SPLINE
5
DF
100
AcDbEntity
8
1
62
256
6
ByLayer
370
18
48
1
60
0
100
AcDbSpline
70
4
71
3
72
38
73
34
40
0
40
0
40
0
40
0
40
0.0154535350539275
40
0.0154535350539275
40
0.0911878785113167
40
0.0911878785113167
40
0.166922221968706
40
0.166922221968706
40
0.2047893936974
40
0.2047893936974
40
0.242656565426095
40
0.242656565426095
40
0.318390908883486
40
0.318390908883486
40
0.394125252340876
40
0.394125252340876
40
0.469859595798267
40
0.469859595798267
40
0.507726767526962
40
0.507726767526962
40
0.545593939255658
40
0.545593939255658
40
0.621328282713048
40
0.621328282713048
40
0.659195454441743
40
0.659195454441743
40
0.697062626170438
40
0.697062626170438
40
0.772796969627828
40
0.772796969627828
40
0.848531313085219
40
0.848531313085219
40
1
40
1
40
1
40
1
41
1
10
25.1114793016331
20
-5.473055273858
30
0
41
1
10
25.0032388470288
20
-5.49155404283306
30
0
41
1
10
24.8949791928648
20
-5.50916618880223
30
0
41
1
10
24.2563257283128
20
-5.60775381787263
30
0
41
1
10
23.7274972511669
20
-5.66786934896567
30
0
41
1
10
22.6697014034597
20
-5.74365639435479
30
0
41
1
10
22.1407576484231
20
-5.75935863410365
30
0
41
1
10
21.3451912109564
20
-5.74919037966774
30
0
41
1
10
21.0797508254928
20
-5.74016882068219
30
0
41
1
10
20.549956792397
20
-5.71099950673073
30
0
41
1
10
20.2853382000111
20
-5.69084933043638
30
0
41
1
10
19.4916806508557
20
-5.61394195366015
30
0
41
1
10
18.9630574825479
20
-5.54064674851458
30
0
41
1
10
17.9035327531929
20
-5.35126576293916
30
0
41
1
10
17.3722816181128
20
-5.23507220696166
30
0
41
1
10
16.3134982951605
20
-4.963617075342
30
0
41
1
10
15.7849198120068
20
-4.80815930877705
30
0
41
1
10
14.9908534339823
20
-4.54770282109058
30
0
41
1
10
14.7259794337616
20
-4.45632709633267
30
0
41
1
10
14.1954967851762
20
-4.26482312631947
30
0
41
1
10
13.9300202214309
20
-4.16473423242218
30
0
41
1
10
13.1351535992126
20
-3.85324140536653
30
0
41
1
10
12.6064211442204
20
-3.63007276102576
30
0
41
1
10
11.8127722247598
20
-3.27531625567207
30
0
41
1
10
11.5481072079769
20
-3.15376690472715
30
0
41
1
10
11.0181992886679
20
-2.90458186968576
30
0
41
1
10
10.7527136625541
20
-2.77682640960495
30
0
41
1
10
9.95675228259
20
-2.38610733712676
30
0
41
1
10
9.42749085751063
20
-2.11587410524882
30
0
41
1
10
8.36878855055957
20
-1.56089818000018
30
0
41
1
10
7.83899386868728
20
-1.27617632930415
30
0
41
1
10
6.24632900634245
20
-0.409133787851772
30
0
41
1
10
5.19064366821374
20
0.181385954857347
30
0
41
1
10
4.12909106939173
20
0.762667386226184
30
0
0
SPLINE
5
E0
100
AcDbEntity
8
1
62
256
6
ByLayer
370
18
48
1
60
0
100
AcDbSpline
70
4
71
3
72
10
73
6
40
0
40
0
40
0
40
0
40
0.915850339849482
40
0.915850339849482
40
1
40
1
40
1
40
1
41
1
10
55.0463918151904
20
-5.48314245996363
30
0
41
1
10
52.920610308341
20
-5.51989892586025
30
0
41
1
10
50.8353384879459
20
-5.20909913599587
30
0
41
1
10
48.5127284130011
20
-4.53964439193683
30
0
41
1
10
48.3167264778987
20
-4.48070096211515
30
0
41
1
10
48.1210026264802
20
-4.41952233941888
30
0
0
SPLINE
5
E1
100
AcDbEntity
8
1
62
256
6
ByLayer
370
13
48
1
60
0
100
AcDbSpline
70
4
71
3
72
24
73
20
40
0
40
0
40
0
40
0
40
0.0153273800256703
40
0.0153273800256703
40
0.0731778373824757
40
0.0731778373824757
40
0.188878752096084
40
0.188878752096084
40
0.420280581523301
40
0.420280581523301
40
0.535981496236908
40
0.535981496236908
40
0.651682410950516
40
0.651682410950516
40
0.88308424037773
40
0.88308424037773
40
0.998785155091337
40
0.998785155091337
40
1
40
1
40
1
40
1
41
1
10
48.1210025629132
20
-4.41952231954934
30
0
41
1
10
48.0504541839408
20
-4.39747057336115
30
0
41
1
10
47.9799419344909
20
-4.37512842385848
30
0
41
1
10
47.6436525757857
20
-4.26715693072725
30
0
41
1
10
47.3784737600599
20
-4.17779852906079
30
0
41
1
10
46.5845692460231
20
-3.89830756968152
30
0
41
1
10
46.0574572789872
20
-3.69680036506972
30
0
41
1
10
44.4785934313897
20
-3.05310453258497
30
0
41
1
10
43.429122391813
20
-2.5720010700849
30
0
41
1
10
41.8442537409707
20
-1.79737248123212
30
0
41
1
10
41.3141498107102
20
-1.53035695613977
30
0
41
1
10
40.2478103101441
20
-0.982944017156655
30
0
41
1
10
39.7173263000924
20
-0.705790831264835
30
0
41
1
10
38.1318537461359
20
0.126941411978578
30
0
41
1
10
37.0822354038932
20
0.684778459240022
30
0
41
1
10
35.5030788409155
20
1.49530780052874
30
0
41
1
10
34.9758790794883
20
1.76106372620956
30
0
41
1
10
34.4410804203126
20
2.02274918305139
30
0
41
1
10
34.4355232206548
20
2.02546753993295
30
0
41
1
10
34.4299657900353
20
2.02818513658585
30
0
0
SPLINE
5
E2
100
AcDbEntity
8
1
62
256
6
ByLayer
370
18
48
1
60
0
100
AcDbSpline
70
4
71
3
72
8
73
4
40
0
40
0
40
0
40
0
40
1
40
1
40
1
40
1
41
1
10
12.0420642267262
20
4.20794221566109
30
0
41
1
10
12.5786648243954
20
4.35548359562094
30
0
41
1
10
13.10893443223
20
4.50389651028499
30
0
41
1
10
13.6348018587031
20
4.64668029601472
30
0
0
SPLINE
5
E3
100
AcDbEntity
8
1
62
256
6
ByLayer
370
18
48
1
60
0
100
AcDbSpline
70
4
71
3
72
8
73
4
40
0
40
0
40
0
40
0
40
1
40
1
40
1
40
1
41
1
10
56.932889256408
20
1.29444007935689
30
0
41
1
10
56.9589152571833
20
0.904226820888823
30
0
41
1
10
56.9777401608148
20
0.514443369105891
30
0
41
1
10
56.9893597193723
20
0.125089977551312
30
0
0
SPLINE
5
E4
100
AcDbEntity
8
1
62
256
6
ByLayer
370
18
48
1
60
0
100
AcDbSpline
70
4
71
3
72
12
73
8
40
0
40
0
40
0
40
0
40
0.25
40
0.25
40
0.500000000000001
40
0.500000000000001
40
1
40
1
40
1
40
1
41
1
10
4.12909106939168
20
0.762667386226212
30
0
41
1
10
4.10947187871116
20
0.773410397221369
30
0
41
1
10
4.09172619496158
20
0.786476852784546
30
0
41
1
10
4.05987632882673
20
0.817112442398212
30
0
41
1
10
4.04595008395429
20
0.834652977110352
30
0
41
1
10
4.0122417196049
20
0.89112364193457
30
0
41
1
10
3.99999951119423
20
0.934809283858584
30
0
41
1
10
3.9999995111942
20
0.9789830121112
30
0
0
SPLINE
5
E5
100
AcDbEntity
8
1
62
256
6
ByLayer
370
18
48
1
60
0
100
AcDbSpline
70
4
71
3
72
14
73
10
40
0
40
0
40
0
40
0
40
0.25
40
0.25
40
0.5
40
0.5
40
0.75
40
0.75
40
1
40
1
40
1
40
1
41
1
10
3.99999951119449
20
-5.59407352630024
30
0
41
1
10
3.99999951119446
20
-5.56174839551818
30
0
41
1
10
4.00460253655734
20
-5.52854495962364
30
0
41
1
10
4.02724110317342
20
-5.46217159906081
30
0
41
1
10
4.04556030931451
20
-5.4295289772474
30
0
41
1
10
4.0971157633646
20
-5.37674198663075
30
0
41
1
10
4.12884992554416
20
-5.35876462575757
30
0
41
1
10
4.19192422221525
20
-5.34136125388886
30
0
41
1
10
4.22219356279649
20
-5.34121677797529
30
0
41
1
10
4.25061521151409
20
-5.34596577750236
30
0
0
SPLINE
5
E6
100
AcDbEntity
8
1
62
256
6
ByLayer
370
13
48
1
60
0
100
AcDbSpline
70
4
71
3
72
30
73
26
40
0
40
0
40
0
40
0
40
0.142580133796884
40
0.142580133796884
40
0.213870200695326
40
0.213870200695326
40
0.285160267593767
40
0.356450334492209
40
0.356450334492209
40
0.427740401390651
40
0.427740401390651
40
0.570320535187535
40
0.570320535187535
40
0.641610602085977
40
0.641610602085977
40
0.712900668984419
40
0.712900668984419
40
0.784190735882861
40
0.784190735882861
40
0.855480802781303
40
0.926770869679745
40
0.926770869679745
40
0.998060936578187
40
0.998060936578187
40
1
40
1
40
1
40
1
41
1
10
4.25024556340497
20
0.771755905900676
30
0
41
1
10
4.25026676222981
20
1.14119502292812
30
0
41
1
10
4.25027842336368
20
1.50106444442179
30
0
41
1
10
4.25028771211703
20
2.02659908761862
30
0
41
1
10
4.25028941194859
20
2.1984266709095
30
0
41
1
10
4.25029108549057
20
2.53116328901231
30
0
41
1
10
4.25029105699161
20
2.85434762660182
30
0
41
1
10
4.2502896711153
20
3.15863141125897
30
0
41
1
10
4.25028856145482
20
3.45327200992276
30
0
41
1
10
4.25028814913804
20
3.59632600071896
30
0
41
1
10
4.25028867520683
20
4.00165271043139
30
0
41
1
10
4.25029141243792
20
4.24308778549681
30
0
41
1
10
4.25030290703359
20
4.56250571803085
30
0
41
1
10
4.25030797852199
20
4.66210623197088
30
0
41
1
10
4.25032093850569
20
4.84490404484083
30
0
41
1
10
4.25032878554265
20
4.92770045374462
30
0
41
1
10
4.25034737300888
20
5.07616154224206
30
0
41
1
10
4.25035815132085
20
5.14188966816309
30
0
41
1
10
4.25038221270202
20
5.25423341308309
30
0
41
1
10
4.25040883177974
20
5.34808515233692
30
0
41
1
10
4.25043999176881
20
5.40545837105702
30
0
41
1
10
4.25047300272558
20
5.44427420627812
30
0
41
1
10
4.25049049345489
20
5.45430796332369
30
0
41
1
10
4.25050870606208
20
5.45480014203537
30
0
41
1
10
4.25050897262698
20
5.45480714478149
30
0
41
1
10
4.25050969057513
20
5.45480546507524
30
0
0
SPLINE
5
E7
100
AcDbEntity
8
1
62
256
6
ByLayer
370
18
48
1
60
0
100
AcDbSpline
70
4
71
3
72
8
73
4
40
0
40
0
40
0
40
0
40
1
40
1
40
1
40
1
41
1
10
56.964403533348
20
-0.0409249369247959
30
0
41
1
10
56.6129293082316
20
-0.615790116819596
30
0
41
1
10
56.2707588751001
20
-1.19910439593812
30
0
41
1
10
55.9380386226922
20
-1.79100071501921
30
0
0
SPLINE
5
E8
100
AcDbEntity
8
1
62
256
6
ByLayer
370
13
48
1
60
0
100
AcDbSpline
70
4
71
3
72
8
73
4
40
0
40
0
40
0
40
0
40
1
40
1
40
1
40
1
41
1
10
4.25051363361223
20
-5.45464469373985
30
0
41
1
10
4.25054741440655
20
-5.45195972664908
30
0
41
1
10
4.25058224046379
20
-5.41566925455484
30
0
41
1
10
4.25061521150678
20
-5.34596577753882
30
0
0
SPLINE
5
E9
100
AcDbEntity
8
1
62
256
6
ByLayer
370
18
48
1
60
0
100
AcDbSpline
70
4
71
3
72
16
73
12
40
0
40
0
40
0
40
0
40
0.119316186511309
40
0.119316186511309
40
0.310374636351107
40
0.310374636351107
40
0.501433086190904
40
0.501433086190904
40
0.883549985870494
40
0.883549985870494
40
1
40
1
40
1
40
1
41
1
10
38.1797044661545
20
-0.0086091725447375
30
0
41
1
10
38.5088659287442
20
-0.185162502618113
30
0
41
1
10
38.8384477981324
20
-0.3619279331283
30
0
41
1
10
39.697742684143
20
-0.820657906006545
30
0
41
1
10
40.2289895070128
20
-1.10236896286159
30
0
41
1
10
41.2961473963666
20
-1.65762968694182
30
0
41
1
10
41.8265816559119
20
-1.92800565468167
30
0
41
1
10
43.412414599007
20
-2.71103144981117
30
0
41
1
10
44.4623866253868
20
-3.19558006389843
30
0
41
1
10
45.836705097609
20
-3.75705101748332
30
0
41
1
10
46.158029202164
20
-3.88314279737014
30
0
41
1
10
46.479986713647
20
-4.0036998261447
30
0
0
SPLINE
5
EA
100
AcDbEntity
8
1
62
256
6
ByLayer
370
13
48
1
60
0
100
AcDbSpline
70
4
71
3
72
16
73
12
40
0
40
0
40
0
40
0
40
0.072442359544148
40
0.072442359544148
40
0.165198123589733
40
0.165198123589733
40
0.257953887635318
40
0.257953887635318
40
0.628976943817659
40
0.628976943817659
40
1
40
1
40
1
40
1
41
1
10
46.479986713641
20
-4.00369982614239
30
0
41
1
10
46.6862618822334
20
-4.0809395877524
30
0
41
1
10
46.8927970545609
20
-4.15590741974128
30
0
41
1
10
47.3645592007639
20
-4.32139342192764
30
0
41
1
10
47.6300068832726
20
-4.41036955878644
30
0
41
1
10
48.1623116697821
20
-4.58003177743706
30
0
41
1
10
48.4295095279719
20
-4.66080890495044
30
0
41
1
10
49.7599106844527
20
-5.03968672637174
30
0
41
1
10
50.813462290582
20
-5.26484464900938
30
0
41
1
10
52.9202362184961
20
-5.54866804280283
30
0
41
1
10
53.9736266166711
20
-5.60769123188786
30
0
41
1
10
55.0373275391071
20
-5.57774383001333
30
0
0
SPLINE
5
EB
100
AcDbEntity
8
1
62
256
6
ByLayer
370
18
48
1
60
0
100
AcDbSpline
70
4
71
3
72
22
73
18
40
0
40
0
40
0
40
0
40
0.145578989119427
40
0.145578989119427
40
0.291157978238854
40
0.291157978238854
40
0.436736967358281
40
0.436736967358281
40
0.582315956477709
40
0.582315956477709
40
0.727894945597136
40
0.727894945597136
40
0.873473934716563
40
0.873473934716563
40
0.946263429276277
40
0.946263429276277
40
1
40
1
40
1
40
1
41
1
10
13.6348018587031
20
3.62683457665722
30
0
41
1
10
13.2248549000339
20
3.78186658856623
30
0
41
1
10
12.8186642414115
20
3.93270939088802
30
0
41
1
10
12.0108923006534
20
4.2224673664565
30
0
41
1
10
11.6092712568541
20
4.36077160652891
30
0
41
1
10
10.8075890539235
20
4.61736980565928
30
0
41
1
10
10.409728657142
20
4.73464021135928
30
0
41
1
10
9.61834997390866
20
4.9447005474911
30
0
41
1
10
9.22466425973681
20
5.03845434454493
30
0
41
1
10
8.4400224061049
20
5.19934397414607
30
0
41
1
10
8.04904566158274
20
5.26673515065218
30
0
41
1
10
7.26941106607069
20
5.37277914781868
30
0
41
1
10
6.88077479111274
20
5.41065603789656
30
0
41
1
10
6.30016945293781
20
5.44465896583168
30
0
41
1
10
6.10716039533986
20
5.45191247609446
30
0
41
1
10
5.77498039018099
20
5.45685545532268
30
0
41
1
10
5.63476422700842
20
5.45657515819659
30
0
41
1
10
5.49555456398326
20
5.45371601866768
30
0
0
SPLINE
5
EC
100
AcDbEntity
8
1
62
256
6
ByLayer
370
18
48
1
60
0
100
AcDbSpline
70
4
71
3
72
33
73
29
40
0
40
0
40
0
40
0
40
0.0517631454352911
40
0.10063388830369
40
0.14572011661031
40
0.181276825679514
40
0.213025723503479
40
0.261007142214311
40
0.309602636228719
40
0.344310602103902
40
0.376657974003926
40
0.413005395058052
40
0.458123910899836
40
0.515412184688724
40
0.557444796980373
40
0.589345809452181
40
0.615311928027968
40
0.650019593969201
40
0.693026483716649
40
0.732681204637047
40
0.766696948904821
40
0.795375727240142
40
0.833854030921301
40
0.868758740145419
40
0.910905509957912
40
0.94224904335634
40
0.983233416297239
40
1
40
1
40
1
40
1
41
1
10
21.9694259798116
20
-5.4654595594867
30
0
41
1
10
22.23458477346
20
-5.46489477363025
30
0
41
1
10
22.7514107127095
20
-5.46433765879476
30
0
41
1
10
23.5157123297751
20
-5.46487527059728
30
0
41
1
10
24.1772651320172
20
-5.46692144222089
30
0
41
1
10
24.7631404606416
20
-5.46715744583273
30
0
41
1
10
25.3622014368217
20
-5.46748101029425
30
0
41
1
10
26.0304216877254
20
-5.46725426497014
30
0
41
1
10
26.713612704411
20
-5.46674373305297
30
0
41
1
10
27.3155101052517
20
-5.46804015928595
30
0
41
1
10
27.8536755962889
20
-5.46915588174681
30
0
41
1
10
28.4460174720409
20
-5.46851095451842
30
0
41
1
10
29.1681688508989
20
-5.46792941970472
30
0
41
1
10
29.9199138517733
20
-5.46738658515577
30
0
41
1
10
30.6028455875451
20
-5.47068013421739
30
0
41
1
10
31.1227793222129
20
-5.47082607311268
30
0
41
1
10
31.6045877754872
20
-5.46993785367459
30
0
41
1
10
32.1441991726623
20
-5.4692623353547
30
0
41
1
10
32.7550504879314
20
-5.46861291601366
30
0
41
1
10
33.3623025156456
20
-5.46927125582792
30
0
41
1
10
33.8949817300156
20
-5.4709121636642
30
0
41
1
10
34.4215416824437
20
-5.47121322658711
30
0
41
1
10
34.952722565902
20
-5.47197454304191
30
0
41
1
10
35.5540142662482
20
-5.4734772161662
30
0
41
1
10
36.1181024209345
20
-5.47218505041158
30
0
41
1
10
36.7132939531038
20
-5.47112587242674
30
0
41
1
10
37.1771745776887
20
-5.47045165022689
30
0
41
1
10
37.4776870016439
20
-5.47113041962805
30
0
41
1
10
37.5649366137491
20
-5.47138521255482
30
0
0
SPLINE
5
ED
100
AcDbEntity
8
1
62
256
6
ByLayer
370
18
48
1
60
0
100
AcDbSpline
70
4
71
2
72
6
73
3
40
0
40
0
40
0
40
1
40
1
40
1
41
1
10
5.71858385983356
20
5.45608608150019
30
0
41
1
10
4.98464285718711
20
5.45596295643352
30
0
41
1
10
4.25049810679303
20
5.45442181450974
30
0
0
SPLINE
5
EE
100
AcDbEntity
8
1
62
256
6
ByLayer
370
18
48
1
60
0
100
AcDbSpline
70
4
71
2
72
6
73
3
40
0
40
0
40
0
40
1
40
1
40
1
41
1
10
54.6448704895043
20
-5.48582853380304
30
0
41
1
10
54.8121442830385
20
-5.48613382272936
30
0
41
1
10
54.9772172886376
20
-5.484580887004
30
0
0
SPLINE
5
EF
100
AcDbEntity
8
1
62
256
6
ByLayer
370
18
48
1
60
0
100
AcDbSpline
70
4
71
3
72
28
73
24
40
0
40
0
40
0
40
0
40
0.0269926632235793
40
0.0815630355619042
40
0.121536245158468
40
0.145458797918762
40
0.176325969376566
40
0.215970461358039
40
0.263091954322964
40
0.325234981188545
40
0.377759908885845
40
0.429534718617909
40
0.488874982167238
40
0.547916213166657
40
0.606548359769641
40
0.659484256957239
40
0.719084420559589
40
0.789541859915176
40
0.852888099708585
40
0.897691347671849
40
0.92551835198675
40
0.962427409765944
40
1
40
1
40
1
40
1
41
1
10
37.7659601840658
20
5.47027040470729
30
0
41
1
10
37.6511580728694
20
5.46985826028518
30
0
41
1
10
37.3051466884122
20
5.46894749156189
30
0
41
1
10
36.8038977201441
20
5.47154879635553
30
0
41
1
10
36.3023044139675
20
5.47164598378438
30
0
41
1
10
35.9015547155681
20
5.47260377843998
30
0
41
1
10
35.5018998145858
20
5.47323945719106
30
0
41
1
10
35.0038377914582
20
5.47220294684917
30
0
41
1
10
34.3733545522027
20
5.47108347884091
30
0
41
1
10
33.6883324211257
20
5.47057368889372
30
0
41
1
10
32.9836077873966
20
5.46842577819405
30
0
41
1
10
32.2907475228633
20
5.46913207163482
30
0
41
1
10
31.570299131994
20
5.46986419841801
30
0
41
1
10
30.8208117914772
20
5.47167344847193
30
0
41
1
10
30.0984472129663
20
5.467940535389
30
0
41
1
10
29.3737141758068
20
5.46774631900931
30
0
41
1
10
28.5989367014526
20
5.4683143916869
30
0
41
1
10
27.7800542532403
20
5.46952474896804
30
0
41
1
10
27.0238163399499
20
5.46699750947957
30
0
41
1
10
26.4481257770386
20
5.46706372710622
30
0
41
1
10
25.9843205825485
20
5.46722585171156
30
0
41
1
10
25.5511598300578
20
5.46738401228936
30
0
41
1
10
25.2357977790484
20
5.46739325161832
30
0
41
1
10
25.0767130739277
20
5.46737464677426
30
0
0
SPLINE
5
F0
100
AcDbEntity
8
1
62
256
6
ByLayer
370
18
48
1
60
0
100
AcDbSpline
70
4
71
2
72
6
73
3
40
0
40
0
40
0
40
1
40
1
40
1
41
1
10
4.25049810679306
20
-5.45442181451006
30
0
41
1
10
4.98448976265732
20
-5.45596273255794
30
0
41
1
10
5.71827771326647
20
-5.45608592948099
30
0
0
SPLINE
5
F1
100
AcDbEntity
8
1
62
256
6
ByLayer
370
18
48
1
60
0
100
AcDbSpline
70
4
71
2
72
6
73
3
40
0
40
0
40
0
40
1
40
1
40
1
41
1
10
5.50696581257117
20
0.0035654754125005
30
0
41
1
10
5.50695454235154
20
0.0035696018754834
30
0
41
1
10
5.50694327208976
20
0.0035739566305608
30
0
0
LINE
5
7B
100
AcDbEntity
8
SK1
62
256
6
ByLayer
370
18
48
1
60
0
100
AcDbLine
10
-44.15
20
-3.68486
30
0
11
-44.15
21
-2.229558
31
0
39
0
210
0
220
0
230
1
0
LINE
5
7D
100
AcDbEntity
8
SK1
62
256
6
ByLayer
370
13
48
1
60
0
100
AcDbLine
10
-44.25
20
-2.077451
30
0
11
-44.25
21
-3.694527
31
0
39
0
210
0
220
0
230
1
0
LINE
5
7E
100
AcDbEntity
8
SK1
62
256
6
ByLayer
370
18
48
1
60
0
100
AcDbLine
10
-45
20
4.255
30
0
11
-45
21
-1.625408
31
0
39
0
210
0
220
0
230
1
0
LINE
5
7F
100
AcDbEntity
8
SK1
62
256
6
ByLayer
370
18
48
1
60
0
100
AcDbLine
10
-43.255
20
6
30
0
11
-43.255
21
-6
31
0
39
0
210
0
220
0
230
1
0
LINE
5
80
100
AcDbEntity
8
SK1
62
256
6
ByLayer
370
18
48
1
60
0
100
AcDbLine
10
-45
20
-4.255
30
0
11
-45
21
-3.24241
31
0
39
0
210
0
220
0
230
1
0
LINE
5
81
100
AcDbEntity
8
SK1
62
256
6
ByLayer
370
18
48
1
60
0
100
AcDbLine
10
0
20
-6
30
0
11
0
21
6
31
0
39
0
210
0
220
0
230
1
0
LINE
5
82
100
AcDbEntity
8
SK1
62
256
6
ByLayer
370
18
48
1
60
0
100
AcDbLine
10
-45
20
-1.625349
30
0
11
-45
21
-3.24241
31
0
39
0
210
0
220
0
230
1
0
LINE
5
83
100
AcDbEntity
8
1
62
256
6
ByLayer
370
18
48
1
60
0
100
AcDbLine
10
4
20
0.978983
30
0
11
4
21
5.742961
31
0
39
0
210
0
220
0
230
1
0
LINE
5
84
100
AcDbEntity
8
1
62
256
6
ByLayer
370
13
48
1
60
0
100
AcDbLine
10
54.920551
20
1.252883
30
0
11
56.964404
21
-0.040925
31
0
39
0
210
0
220
0
230
1
0
LINE
5
85
100
AcDbEntity
8
1
62
256
6
ByLayer
370
13
48
1
60
0
100
AcDbLine
10
0.873255
20
5.741007
30
0
11
0.873255
21
-5.741007
31
0
39
0
210
0
220
0
230
1
0
LINE
5
86
100
AcDbEntity
8
1
62
256
6
ByLayer
370
13
48
1
60
0
100
AcDbLine
10
55.056081
20
1.348902
30
0
11
56.98936
21
0.12509
31
0
39
0
210
0
220
0
230
1
0
LINE
5
87
100
AcDbEntity
8
1
62
256
6
ByLayer
370
18
48
1
60
0
100
AcDbLine
10
0
20
-6
30
0
11
0
21
6
31
0
39
0
210
0
220
0
230
1
0
LINE
5
88
100
AcDbEntity
8
1
62
256
6
ByLayer
370
13
48
1
60
0
100
AcDbLine
10
0.436378
20
5.870503
30
0
11
0.436378
21
-5.870503
31
0
39
0
210
0
220
0
230
1
0
LINE
5
89
100
AcDbEntity
8
1
62
256
6
ByLayer
370
18
48
1
60
0
100
AcDbLine
10
4.250509
20
5.454805
30
0
11
4.250514
21
5.454644
31
0
39
0
210
0
220
0
230
1
0
LINE
5
8A
100
AcDbEntity
8
1
62
256
6
ByLayer
370
18
48
1
60
0
100
AcDbLine
10
4.250509
20
-5.454805
30
0
11
4.250514
21
-5.454644
31
0
39
0
210
0
220
0
230
1
0
LINE
5
8B
100
AcDbEntity
8
80
62
256
6
ByLayer
370
18
48
1
60
0
100
AcDbLine
10
0
20
0
30
0
11
-5
21
0
31
0
39
0
210
0
220
0
230
1
0
LINE
5
8C
100
AcDbEntity
8
4
62
256
6
ByLayer
370
18
48
0.05
60
0
100
AcDbLine
10
57
20
0
30
0
11
0
21
0
31
0
39
0
210
0
220
0
230
1
0
LINE
5
8E
100
AcDbEntity
8
SK4
62
256
6
ByLayer
370
18
48
0.05
60
0
100
AcDbLine
10
62
20
0
30
0
11
-50
21
0
31
0
39
0
210
0
220
0
230
1
0
LINE
5
90
100
AcDbEntity
8
SK1
62
256
6
ByLayer
370
18
48
1
60
0
100
AcDbLine
10
-43.255
20
-6
30
0
11
0
21
-6
31
0
39
0
210
0
220
0
230
1
0
LINE
5
91
100
AcDbEntity
8
SK1
62
256
6
ByLayer
370
18
48
1
60
0
100
AcDbLine
10
0
20
6
30
0
11
-43.255
21
6
31
0
39
0
210
0
220
0
230
1
0
LINE
5
92
100
AcDbEntity
8
SK1
62
256
6
ByLayer
370
18
48
1
60
0
100
AcDbLine
10
-45
20
-4.255
30
0
11
-43.255
21
-6
31
0
39
0
210
0
220
0
230
1
0
LINE
5
93
100
AcDbEntity
8
SK1
62
256
6
ByLayer
370
18
48
1
60
0
100
AcDbLine
10
-43.255
20
6
30
0
11
-45
21
4.255
31
0
39
0
210
0
220
0
230
1
0
LINE
5
94
100
AcDbEntity
8
1
62
256
6
ByLayer
370
18
48
1
60
0
100
AcDbLine
10
0.873255
20
-5.741007
30
0
11
4
21
-5.742961
31
0
39
0
210
0
220
0
230
1
0
LINE
5
95
100
AcDbEntity
8
1
62
256
6
ByLayer
370
18
48
1
60
0
100
AcDbLine
10
20.177812
20
-5.753072
30
0
11
21.838124
21
-5.75411
31
0
39
0
210
0
220
0
230
1
0
LINE
5
96
100
AcDbEntity
8
1
62
256
6
ByLayer
370
18
48
1
60
0
100
AcDbLine
10
52.823045
20
-5.773475
30
0
11
54.489295
21
-5.774517
31
0
39
0
210
0
220
0
230
1
0
LINE
5
97
100
AcDbEntity
8
1
62
256
6
ByLayer
370
18
48
1
60
0
100
AcDbLine
10
54.489229
20
5.774517
30
0
11
52.823045
21
5.773475
31
0
39
0
210
0
220
0
230
1
0
LINE
5
98
100
AcDbEntity
8
1
62
256
6
ByLayer
370
18
48
1
60
0
100
AcDbLine
10
21.838237
20
5.75411
30
0
11
20.177812
21
5.753072
31
0
39
0
210
0
220
0
230
1
0
LINE
5
99
100
AcDbEntity
8
1
62
256
6
ByLayer
370
18
48
1
60
0
100
AcDbLine
10
4
20
5.742961
30
0
11
0.873255
21
5.741007
31
0
39
0
210
0
220
0
230
1
0
LINE
5
9A
100
AcDbEntity
8
81
62
256
6
ByLayer
370
18
48
1
60
0
100
AcDbLine
10
57
20
0
30
0
11
62
21
0
31
0
39
0
210
0
220
0
230
1
0
LINE
5
9B
100
AcDbEntity
8
SK2
62
256
6
ByLayer
370
13
48
1
60
0
100
AcDbLine
10
-53.625163
20
-6
30
0
11
-53.625163
21
36.857173
31
0
39
0
210
0
220
0
230
1
0
LINE
5
9D
100
AcDbEntity
8
SK2
62
256
6
ByLayer
370
13
48
1
60
0
100
AcDbLine
10
-46.5875
20
6
30
0
11
-55.625163
21
6
31
0
39
0
210
0
220
0
230
1
0
LINE
5
9E
100
AcDbEntity
8
SK2
62
256
6
ByLayer
370
13
48
1
60
0
100
AcDbLine
10
-46.5875
20
-6
30
0
11
-55.625163
21
-6
31
0
39
0
210
0
220
0
230
1
0
LINE
5
9F
100
AcDbEntity
8
1
62
256
6
ByLayer
370
18
48
1
60
1
100
AcDbLine
10
-53.625163
20
6
30
0
11
-53.164379
21
2.500002
31
0
39
0
210
0
220
0
230
1
0
LINE
5
A0
100
AcDbEntity
8
1
62
256
6
ByLayer
370
18
48
1
60
1
100
AcDbLine
10
-53.164379
20
2.500002
30
0
11
-54.085946
21
2.499998
31
0
39
0
210
0
220
0
230
1
0
LINE
5
A1
100
AcDbEntity
8
1
62
256
6
ByLayer
370
18
48
1
60
1
100
AcDbLine
10
-54.085946
20
2.499998
30
0
11
-53.625163
21
6
31
0
39
0
210
0
220
0
230
1
0
LINE
5
A2
100
AcDbEntity
8
1
62
256
6
ByLayer
370
18
48
1
60
1
100
AcDbLine
10
-53.625163
20
-6
30
0
11
-54.085946
21
-2.500002
31
0
39
0
210
0
220
0
230
1
0
LINE
5
A3
100
AcDbEntity
8
1
62
256
6
ByLayer
370
18
48
1
60
1
100
AcDbLine
10
-54.085946
20
-2.500002
30
0
11
-53.164379
21
-2.499998
31
0
39
0
210
0
220
0
230
1
0
LINE
5
A4
100
AcDbEntity
8
1
62
256
6
ByLayer
370
18
48
1
60
1
100
AcDbLine
10
-53.164379
20
-2.499998
30
0
11
-53.625163
21
-6
31
0
39
0
210
0
220
0
230
1
0
LINE
5
A5
100
AcDbEntity
8
2
62
256
6
ByLayer
370
13
48
1
60
0
100
AcDbLine
10
69.083343
20
-5.775
30
0
11
69.083343
21
34.350392
31
0
39
0
210
0
220
0
230
1
0
LINE
5
A7
100
AcDbEntity
8
2
62
256
6
ByLayer
370
13
48
1
60
0
100
AcDbLine
10
56.8699
20
5.775
30
0
11
71.083343
21
5.775
31
0
39
0
210
0
220
0
230
1
0
LINE
5
A8
100
AcDbEntity
8
2
62
256
6
ByLayer
370
13
48
1
60
0
100
AcDbLine
10
56.8699
20
-5.775
30
0
11
71.083343
21
-5.775
31
0
39
0
210
0
220
0
230
1
0
LINE
5
A9
100
AcDbEntity
8
1
62
256
6
ByLayer
370
18
48
1
60
1
100
AcDbLine
10
69.083343
20
5.775
30
0
11
69.544126
21
2.275002
31
0
39
0
210
0
220
0
230
1
0
LINE
5
AA
100
AcDbEntity
8
1
62
256
6
ByLayer
370
18
48
1
60
1
100
AcDbLine
10
69.544126
20
2.275002
30
0
11
68.622559
21
2.274998
31
0
39
0
210
0
220
0
230
1
0
LINE
5
AB
100
AcDbEntity
8
1
62
256
6
ByLayer
370
18
48
1
60
1
100
AcDbLine
10
68.622559
20
2.274998
30
0
11
69.083343
21
5.775
31
0
39
0
210
0
220
0
230
1
0
LINE
5
AC
100
AcDbEntity
8
1
62
256
6
ByLayer
370
18
48
1
60
1
100
AcDbLine
10
69.083343
20
-5.775
30
0
11
68.622559
21
-2.275002
31
0
39
0
210
0
220
0
230
1
0
LINE
5
AD
100
AcDbEntity
8
1
62
256
6
ByLayer
370
18
48
1
60
1
100
AcDbLine
10
68.622559
20
-2.275002
30
0
11
69.544126
21
-2.274998
31
0
39
0
210
0
220
0
230
1
0
LINE
5
AE
100
AcDbEntity
8
1
62
256
6
ByLayer
370
18
48
1
60
1
100
AcDbLine
10
69.544126
20
-2.274998
30
0
11
69.083343
21
-5.775
31
0
39
0
210
0
220
0
230
1
0
LINE
5
F8
100
AcDbEntity
8
1
62
256
6
ByLayer
370
18
48
1
60
1
100
AcDbLine
10
-53.625163
20
6
30
0
11
-53.164379
21
2.500002
31
0
39
0
210
0
220
0
230
1
0
LINE
5
F9
100
AcDbEntity
8
1
62
256
6
ByLayer
370
18
48
1
60
1
100
AcDbLine
10
-53.164379
20
2.500002
30
0
11
-54.085946
21
2.499998
31
0
39
0
210
0
220
0
230
1
0
LINE
5
FA
100
AcDbEntity
8
1
62
256
6
ByLayer
370
18
48
1
60
1
100
AcDbLine
10
-54.085946
20
2.499998
30
0
11
-53.625163
21
6
31
0
39
0
210
0
220
0
230
1
0
LINE
5
FC
100
AcDbEntity
8
1
62
256
6
ByLayer
370
18
48
1
60
1
100
AcDbLine
10
-53.625163
20
-6
30
0
11
-54.085946
21
-2.500002
31
0
39
0
210
0
220
0
230
1
0
LINE
5
FD
100
AcDbEntity
8
1
62
256
6
ByLayer
370
18
48
1
60
1
100
AcDbLine
10
-54.085946
20
-2.500002
30
0
11
-53.164379
21
-2.499998
31
0
39
0
210
0
220
0
230
1
0
LINE
5
FE
100
AcDbEntity
8
1
62
256
6
ByLayer
370
18
48
1
60
1
100
AcDbLine
10
-53.164379
20
-2.499998
30
0
11
-53.625163
21
-6
31
0
39
0
210
0
220
0
230
1
0
LINE
5
102
100
AcDbEntity
8
1
62
256
6
ByLayer
370
18
48
1
60
1
100
AcDbLine
10
69.083343
20
5.775
30
0
11
69.544126
21
2.275002
31
0
39
0
210
0
220
0
230
1
0
LINE
5
103
100
AcDbEntity
8
1
62
256
6
ByLayer
370
18
48
1
60
1
100
AcDbLine
10
69.544126
20
2.275002
30
0
11
68.622559
21
2.274998
31
0
39
0
210
0
220
0
230
1
0
LINE
5
104
100
AcDbEntity
8
1
62
256
6
ByLayer
370
18
48
1
60
1
100
AcDbLine
10
68.622559
20
2.274998
30
0
11
69.083343
21
5.775
31
0
39
0
210
0
220
0
230
1
0
LINE
5
106
100
AcDbEntity
8
1
62
256
6
ByLayer
370
18
48
1
60
1
100
AcDbLine
10
69.083343
20
-5.775
30
0
11
68.622559
21
-2.275002
31
0
39
0
210
0
220
0
230
1
0
LINE
5
107
100
AcDbEntity
8
1
62
256
6
ByLayer
370
18
48
1
60
1
100
AcDbLine
10
68.622559
20
-2.275002
30
0
11
69.544126
21
-2.274998
31
0
39
0
210
0
220
0
230
1
0
LINE
5
108
100
AcDbEntity
8
1
62
256
6
ByLayer
370
18
48
1
60
1
100
AcDbLine
10
69.544126
20
-2.274998
30
0
11
69.083343
21
-5.775
31
0
39
0
210
0
220
0
230
1
0
MTEXT
5
F2
100
AcDbEntity
8
SK6
62
256
6
ByLayer
370
13
48
1
60
0
100
AcDbMText
10
-22.270327
20
38.315328
30
0
210
0
220
0
230
1
1
\W0.7456;462.1-1155-035A1-XM X2BM
40
3.5
41
0
44
1.084337
50
0
71
7
72
5
7
iso_b_vert
0
MTEXT
5
F6
100
AcDbEntity
8
SK2
62
256
6
ByLayer
370
18
48
1
60
0
100
AcDbMText
10
-55.189796
20
19.409024
30
0
210
0
220
0
230
1
1
%%c
40
3.5
41
0
44
1.084337
50
90
71
7
72
5
7
iso_b_vert
0
MTEXT
5
F7
100
AcDbEntity
8
SK2
62
256
6
ByLayer
370
18
48
1
60
0
100
AcDbMText
10
-55.189796
20
24.63168
30
0
210
0
220
0
230
1
1
\W0.6930;12,000
40
3.5
41
0
44
1.084337
50
90
71
7
72
5
7
iso_b_vert
0
MTEXT
5
100
100
AcDbEntity
8
2
62
256
6
ByLayer
370
18
48
1
60
0
100
AcDbMText
10
67.518709
20
17.77711
30
0
210
0
220
0
230
1
1
%%c
40
3.5
41
0
44
1.084337
50
90
71
7
72
5
7
iso_b_vert
0
MTEXT
5
101
100
AcDbEntity
8
2
62
256
6
ByLayer
370
18
48
1
60
0
100
AcDbMText
10
67.518709
20
22.999766
30
0
210
0
220
0
230
1
1
\W0.6440;11,550
40
3.5
41
0
44
1.084337
50
90
71
7
72
5
7
iso_b_vert
0
HATCH
5
FB
100
AcDbEntity
8
SK2
62
256
6
ByLayer
370
13
48
1
60
0
100
AcDbHatch
10
0
20
0
30
0
210
0
220
0
230
1
2
ANSI31
70
0
71
0
91
1
92
5
93
3
72
1
10
-53.6251625675374
20
6
11
-53.1643788259847
21
2.50000169255318
72
1
10
-53.1643788259847
20
2.50000169255318
11
-54.0859463090902
21
2.49999830744682
72
1
10
-54.0859463090902
20
2.49999830744682
11
-53.6251625675374
21
6
97
0
75
0
76
1
52
0
41
0.0062
77
0
78
1
53
45
43
0
44
0
45
-0.0139193969876572
46
0.0139193969876572
79
0
47
0
98
1
10
0
20
0
0
HATCH
5
FF
100
AcDbEntity
8
SK2
62
256
6
ByLayer
370
13
48
1
60
0
100
AcDbHatch
10
0
20
0
30
0
210
0
220
0
230
1
2
ANSI31
70
0
71
0
91
1
92
5
93
3
72
1
10
-53.6251625675374
20
-6
11
-54.0859463090902
21
-2.50000169255318
72
1
10
-54.0859463090902
20
-2.50000169255318
11
-53.1643788259847
21
-2.49999830744682
72
1
10
-53.1643788259847
20
-2.49999830744682
11
-53.6251625675374
21
-6
97
0
75
0
76
1
52
0
41
0.0062
77
0
78
1
53
45
43
0
44
0
45
-0.0139193969876572
46
0.0139193969876572
79
0
47
0
98
1
10
0
20
0
0
HATCH
5
105
100
AcDbEntity
8
2
62
256
6
ByLayer
370
13
48
1
60
0
100
AcDbHatch
10
0
20
0
30
0
210
0
220
0
230
1
2
ANSI31
70
0
71
0
91
1
92
5
93
3
72
1
10
69.083342615295
20
5.77500000000001
11
69.5441263568477
21
2.27500169255319
72
1
10
69.5441263568477
20
2.27500169255319
11
68.6225588737422
21
2.27499830744682
72
1
10
68.6225588737422
20
2.27499830744682
11
69.083342615295
21
5.77500000000001
97
0
75
0
76
1
52
0
41
0.0062
77
0
78
1
53
45
43
0
44
0
45
-0.0139193969876572
46
0.0139193969876572
79
0
47
0
98
1
10
0
20
0
0
HATCH
5
109
100
AcDbEntity
8
2
62
256
6
ByLayer
370
13
48
1
60
0
100
AcDbHatch
10
0
20
0
30
0
210
0
220
0
230
1
2
ANSI31
70
0
71
0
91
1
92
5
93
3
72
1
10
69.083342615295
20
-5.77500000000001
11
68.6225588737422
21
-2.27500169255319
72
1
10
68.6225588737422
20
-2.27500169255319
11
69.5441263568477
21
-2.27499830744682
72
1
10
69.5441263568477
20
-2.27499830744682
11
69.083342615295
21
-5.77500000000001
97
0
75
0
76
1
52
0
41
0.0062
77
0
78
1
53
45
43
0
44
0
45
-0.0139193969876572
46
0.0139193969876572
79
0
47
0
98
1
10
0
20
0
0
DIMENSION
5
10B
100
AcDbEntity
8
SK2
62
256
6
ByLayer
370
13
48
1
60
0
100
AcDbDimension
2
_U0
10
55.2824
20
-15.988398
30
0
11
27.6412
21
-15.988398
31
0
70
32
71
1
72
1
41
1
210
0
220
0
230
1
3
Standard
100
AcDbAlignedDimension
13
0
23
0
33
0
14
55.2824
24
-5.775
34
0
50
0
100
AcDbRotatedDimension
1001
ACAD
1000
DSTYLE
1002
{
1070
   371
1070
    13
1070
   372
1070
    13
1070
   170
1070
     0
1070
   144
1040
1.0
1070
   277
1070
     2
1070
   278
1070
    44
1070
   146
1040
1.0
1070
   345
1005
16
1070
   347
1005
16
1070
   346
1005
16
1070
   344
1005
0
1070
   343
1005
0
1070
   172
1070
     1
1070
    76
1070
     0
1070
    75
1070
     0
1070
   282
1070
     0
1070
   281
1070
     0
1070
    71
1070
     0
1070
    74
1070
     0
1070
   279
1070
     0
1070
   173
1070
     1
1070
   340
1005
F3
1070
   271
1070
     2
1070
   272
1070
     2
1070
    77
1070
     1
1070
    73
1070
     1
1070
   171
1070
     3
1070
   274
1070
     4
1070
   177
1070
    35
1070
   176
1070
    35
1070
   178
1070
    35
1070
    48
1040
-0.1
1070
    41
1040
3.5
1070
   147
1040
1.75
1070
    42
1040
1.5875
1070
    44
1040
2.0
1070
   140
1040
3.5
1002
}
1001
ACAD_DSTYLE_DIM_LINETYPE
1070
   380
1005
16
1001
ACAD_DSTYLE_DIM_EXT1_LINETYPE
1070
   381
1005
16
1001
ACAD_DSTYLE_DIM_EXT2_LINETYPE
1070
   382
1005
16
0
DIMENSION
5
124
100
AcDbEntity
8
SK2
62
256
6
ByLayer
370
13
48
1
60
0
100
AcDbDimension
2
_U1
10
57
20
-34.692985
30
0
11
6
21
-34.692985
31
0
70
32
71
1
72
1
41
1
210
0
220
0
230
1
3
Standard
100
AcDbAlignedDimension
13
-45
23
-6
33
0
14
57
24
0
34
0
50
0
100
AcDbRotatedDimension
1001
ACAD
1000
DSTYLE
1002
{
1070
   371
1070
    13
1070
   372
1070
    13
1070
   170
1070
     0
1070
   144
1040
1.0
1070
   277
1070
     2
1070
   278
1070
    44
1070
   146
1040
1.0
1070
   345
1005
16
1070
   347
1005
16
1070
   346
1005
16
1070
   344
1005
0
1070
   343
1005
0
1070
   172
1070
     1
1070
    76
1070
     0
1070
    75
1070
     0
1070
   282
1070
     0
1070
   281
1070
     0
1070
    71
1070
     0
1070
    74
1070
     0
1070
   279
1070
     0
1070
   173
1070
     1
1070
   340
1005
F3
1070
   271
1070
     2
1070
   272
1070
     2
1070
    77
1070
     1
1070
    73
1070
     1
1070
   171
1070
     3
1070
   274
1070
     4
1070
   177
1070
    35
1070
   176
1070
    35
1070
   178
1070
    35
1070
    48
1040
-0.1
1070
    41
1040
3.5
1070
   147
1040
1.75
1070
    42
1040
1.5875
1070
    44
1040
2.0
1070
   140
1040
3.5
1002
}
1001
ACAD_DSTYLE_DIM_LINETYPE
1070
   380
1005
16
1001
ACAD_DSTYLE_DIM_EXT1_LINETYPE
1070
   381
1005
16
1001
ACAD_DSTYLE_DIM_EXT2_LINETYPE
1070
   382
1005
16
0
DIMENSION
5
13C
100
AcDbEntity
8
SK2
62
256
6
ByLayer
370
13
48
1
60
0
100
AcDbDimension
2
_U2
10
57
20
17.384119
30
0
11
38.815
21
17.384119
31
0
70
32
71
1
72
1
41
1
210
0
220
0
230
1
3
Standard
100
AcDbAlignedDimension
13
20.63
23
5.775
33
0
14
57
24
0
34
0
50
0
100
AcDbRotatedDimension
1001
ACAD
1000
DSTYLE
1002
{
1070
   371
1070
    13
1070
   372
1070
    13
1070
   170
1070
     0
1070
   144
1040
1.0
1070
   277
1070
     2
1070
   278
1070
    44
1070
   146
1040
1.0
1070
   345
1005
16
1070
   347
1005
16
1070
   346
1005
16
1070
   344
1005
0
1070
   343
1005
0
1070
   172
1070
     1
1070
    76
1070
     0
1070
    75
1070
     0
1070
   282
1070
     0
1070
   281
1070
     0
1070
    71
1070
     0
1070
    74
1070
     0
1070
   279
1070
     0
1070
   173
1070
     1
1070
   340
1005
F3
1070
   271
1070
     2
1070
   272
1070
     2
1070
    77
1070
     1
1070
    73
1070
     1
1070
   171
1070
     3
1070
   274
1070
     4
1070
   177
1070
    35
1070
   176
1070
    35
1070
   178
1070
    35
1070
    48
1040
-0.1
1070
    41
1040
3.5
1070
   147
1040
1.75
1070
    42
1040
1.5875
1070
    44
1040
2.0
1070
   140
1040
3.5
1002
}
1001
ACAD_DSTYLE_DIM_LINETYPE
1070
   380
1005
16
1001
ACAD_DSTYLE_DIM_EXT1_LINETYPE
1070
   381
1005
16
1001
ACAD_DSTYLE_DIM_EXT2_LINETYPE
1070
   382
1005
16
0
DIMENSION
5
154
100
AcDbEntity
8
SK2
62
256
6
ByLayer
370
13
48
1
60
0
100
AcDbDimension
2
_U3
10
55.2824
20
-18.577503
30
0
11
74.333333
21
-18.577503
31
0
70
32
71
1
72
1
41
1
210
0
220
0
230
1
3
Standard
100
AcDbAlignedDimension
13
57
23
0
33
0
14
55.2824
24
-5.775
34
0
50
0
100
AcDbRotatedDimension
1001
ACAD
1000
DSTYLE
1002
{
1070
   371
1070
    13
1070
   372
1070
    13
1070
   170
1070
     0
1070
   144
1040
1.0
1070
   277
1070
     2
1070
   278
1070
    44
1070
   146
1040
1.0
1070
   345
1005
16
1070
   347
1005
16
1070
   346
1005
16
1070
   344
1005
0
1070
   343
1005
0
1070
   172
1070
     1
1070
    76
1070
     0
1070
    75
1070
     0
1070
   282
1070
     0
1070
   281
1070
     0
1070
    71
1070
     0
1070
    74
1070
     0
1070
   279
1070
     0
1070
   173
1070
     1
1070
   340
1005
F3
1070
   271
1070
     2
1070
   272
1070
     2
1070
    77
1070
     1
1070
    73
1070
     1
1070
   171
1070
     3
1070
   274
1070
     4
1070
   177
1070
    35
1070
   176
1070
    35
1070
   178
1070
    35
1070
    48
1040
-0.1
1070
    41
1040
3.5
1070
   147
1040
1.75
1070
    42
1040
1.5875
1070
    44
1040
2.0
1070
   140
1040
3.5
1002
}
1001
ACAD_DSTYLE_DIM_LINETYPE
1070
   380
1005
16
1001
ACAD_DSTYLE_DIM_EXT1_LINETYPE
1070
   381
1005
16
1001
ACAD_DSTYLE_DIM_EXT2_LINETYPE
1070
   382
1005
16
0
DIMENSION
5
16E
100
AcDbEntity
8
SK2
62
256
6
ByLayer
370
13
48
1
60
0
100
AcDbDimension
2
_U4
10
55.2824
20
-24.343428
30
0
11
5.1412
21
-24.343428
31
0
70
32
71
1
72
1
41
1
210
0
220
0
230
1
3
Standard
100
AcDbAlignedDimension
13
-45
23
-6
33
0
14
55.2824
24
-5.775
34
0
50
0
100
AcDbRotatedDimension
1001
ACAD
1000
DSTYLE
1002
{
1070
   371
1070
    13
1070
   372
1070
    13
1070
   170
1070
     0
1070
   144
1040
1.0
1070
   277
1070
     2
1070
   278
1070
    44
1070
   146
1040
1.0
1070
   345
1005
16
1070
   347
1005
16
1070
   346
1005
16
1070
   344
1005
0
1070
   343
1005
0
1070
   172
1070
     1
1070
    76
1070
     0
1070
    75
1070
     0
1070
   282
1070
     0
1070
   281
1070
     0
1070
    71
1070
     0
1070
    74
1070
     0
1070
   279
1070
     0
1070
   173
1070
     1
1070
   340
1005
F3
1070
   271
1070
     2
1070
   272
1070
     2
1070
    77
1070
     1
1070
    73
1070
     1
1070
   171
1070
     3
1070
   274
1070
     4
1070
   177
1070
    35
1070
   176
1070
    35
1070
   178
1070
    35
1070
    48
1040
-0.1
1070
    41
1040
3.5
1070
   147
1040
1.75
1070
    42
1040
1.5875
1070
    44
1040
2.0
1070
   140
1040
3.5
1002
}
1001
ACAD_DSTYLE_DIM_LINETYPE
1070
   380
1005
16
1001
ACAD_DSTYLE_DIM_EXT1_LINETYPE
1070
   381
1005
16
1001
ACAD_DSTYLE_DIM_EXT2_LINETYPE
1070
   382
1005
16
0
ENDSEC
0
SECTION
2
OBJECTS
0
DICTIONARY
5
1f6
330
0
100
AcDbDictionary
280
0
281
1
3
ACAD_GROUP
350
1f7
3
ACAD_MLINESTYLE
350
1f8
0
DICTIONARY
5
1f7
330
0
100
AcDbDictionary
280
0
281
1
0
DICTIONARY
5
1f8
330
0
100
AcDbDictionary
280
0
281
1
3
Standard
350
18
0
MLINESTYLE
5
18
330
1f8
100
AcDbMlineStyle
2
Standard
70
0
3

62
256
51
90
52
90
71
2
49
-0.5
62
256
6
ByLayer
49
0.5
62
256
6
ByLayer
0
RASTERVARIABLES
5
1e4
330

100
AcDbRasterVariables
90
0
70
1
71
1
72
1
0
ENDSEC
0
EOF
