0
SECTION
2
HEADER
9
$ACADVER
1
AC1015
9
$DWGCODEPAGE
3
ANSI_1252
9
$HANDSEED
5
203
9
$ANGBASE
50
0
9
$ANGDIR
70
0
9
$ATTMODE
70
1
9
$AUNITS
70
0
9
$AUPREC
70
0
9
$CECOLOR
62
256
9
$CELTSCALE
40
1
9
$CELTYPE
6
ByLayer
9
$CELWEIGHT
370
18
9
$CLAYER
8
0
9
$CMLJUST
70
0
9
$CMLSCALE
40
1
9
$CMLSTYLE
2
Standard
9
$DIMSTYLE
2
Standard
9
$TEXTSIZE
40
0.2
9
$TEXTSTYLE
7
Standard
9
$LUNITS
70
2
9
$LUPREC
70
4
9
$EXTNAMES
290
1
9
$INSUNITS
70
4
9
$LTSCALE
40
1
9
$LWDISPLAY
290
1
9
$PDMODE
70
0
9
$PDSIZE
40
0
9
$PLINEGEN
70
0
0
ENDSEC
0
SECTION
2
CLASSES
0
CLASS
1
RASTERVARIABLES
2
AcDbRasterVariables
3
ISM
90
0
280
0
281
0
0
ENDSEC
0
SECTION
2
TABLES
0
TABLE
2
VPORT
5
1f9
100
AcDbSymbolTable
0
VPORT
5
1
100
AcDbSymbolTableRecord
100
AcDbViewportTableRecord
2
*Active
70
0
10
0
20
0
11
1
21
1
12
-1
22
1
13
0
23
0
14
0.5
24
0.5
15
10
25
10
16
0
26
0
36
1
17
0
27
0
37
0
0
ENDTAB
0
TABLE
2
LTYPE
5
1fa
100
AcDbSymbolTable
0
LTYPE
5
14
100
AcDbSymbolTableRecord
100
AcDbLinetypeTableRecord
70
0
2
ByBlock
3

72
65
73
0
40
0
0
LTYPE
5
15
100
AcDbSymbolTableRecord
100
AcDbLinetypeTableRecord
70
0
2
ByLayer
3

72
65
73
0
40
0
0
LTYPE
5
16
100
AcDbSymbolTableRecord
100
AcDbLinetypeTableRecord
70
0
2
Continuous
3
Solid line
72
65
73
0
40
0
0
LTYPE
5
6E
100
AcDbSymbolTableRecord
100
AcDbLinetypeTableRecord
70
0
2
CENTER
3
____ _ ____ _ ____ _ ____
72
65
73
4
40
47.5
49
22
74
0
49
-8.5
74
0
49
8.5
74
0
49
-8.5
74
0
0
LTYPE
5
6F
100
AcDbSymbolTableRecord
100
AcDbLinetypeTableRecord
70
0
2
DASHED
3
__ __ __ __ __ __ __ __ __
72
65
73
2
40
25.72
49
12.86
74
0
49
-12.86
74
0
0
ENDTAB
0
TABLE
2
LAYER
5
1fb
100
AcDbSymbolTable
0
LAYER
5
10
100
AcDbSymbolTableRecord
100
AcDbLayerTableRecord
2
0
70
0
62
7
6
Continuous
290
1
370
-3
390
0
0
LAYER
5
71
100
AcDbSymbolTableRecord
100
AcDbLayerTableRecord
2
80
70
0
62
-6
6
Continuous
290
1
370
-3
390
0
0
LAYER
5
73
100
AcDbSymbolTableRecord
100
AcDbLayerTableRecord
2
81
70
0
62
-3
6
Continuous
290
1
370
-3
390
0
0
LAYER
5
75
100
AcDbSymbolTableRecord
100
AcDbLayerTableRecord
2
1
70
0
62
4
6
Continuous
290
1
370
-3
390
0
0
LAYER
5
8B
100
AcDbSymbolTableRecord
100
AcDbLayerTableRecord
2
4
70
0
62
-2
6
CENTER
290
1
370
-3
390
0
0
LAYER
5
A4
100
AcDbSymbolTableRecord
100
AcDbLayerTableRecord
2
2
70
0
62
7
6
Continuous
290
1
370
-3
390
0
0
LAYER
5
10D
100
AcDbSymbolTableRecord
100
AcDbLayerTableRecord
2
Defpoints
70
0
62
7
6
Continuous
290
0
370
-3
390
0
0
LAYER
5
1e5
100
AcDbSymbolTableRecord
100
AcDbLayerTableRecord
2
SK1
70
0
62
4
6
Continuous
290
1
370
-3
390
0
0
LAYER
5
1e6
100
AcDbSymbolTableRecord
100
AcDbLayerTableRecord
2
SK4
70
0
62
2
6
CENTER
290
1
370
-3
390
0
0
LAYER
5
1e7
100
AcDbSymbolTableRecord
100
AcDbLayerTableRecord
2
SK2
70
0
62
7
6
Continuous
290
1
370
-3
390
0
0
LAYER
5
1e8
100
AcDbSymbolTableRecord
100
AcDbLayerTableRecord
2
SK6
70
0
62
5
6
Continuous
290
1
370
-3
390
0
0
ENDTAB
0
TABLE
2
STYLE
5
1fc
100
AcDbSymbolTable
0
STYLE
5
11
100
AcDbSymbolTableRecord
100
AcDbTextStyleTableRecord
2
Standard
3
txt
70
0
71
0
40
0
41
1
42
0
50
0
0
STYLE
5
F2
100
AcDbSymbolTableRecord
100
AcDbTextStyleTableRecord
2
iso_b_vert
3
simplex.shx
70
0
71
0
40
0
41
1
42
0
50
0
0
STYLE
5
F3
100
AcDbSymbolTableRecord
100
AcDbTextStyleTableRecord
2
DWGDirectTextStyle
3
simplex
70
0
71
0
40
0
41
1
42
0
50
0
0
ENDTAB
0
TABLE
2
DIMSTYLE
5
1fd
100
AcDbSymbolTable
100
AcDbDimStyleTable
0
DIMSTYLE
105
27
100
AcDbSymbolTableRecord
100
AcDbDimStyleTableRecord
2
Standard
70
0
3
<>
41
0.18
42
0.0625
44
0.18
140
0.18
147
0.09
73
0
74
0
77
1
271
2
275
0
278
52
280
0
340
11
0
ENDTAB
0
TABLE
2
VIEW
5
1fe
100
AcDbSymbolTable
0
ENDTAB
0
TABLE
2
UCS
5
1ff
100
AcDbSymbolTable
0
ENDTAB
0
TABLE
2
APPID
5
200
100
AcDbSymbolTable
0
APPID
5
12
100
AcDbSymbolTableRecord
100
AcDbRegAppTableRecord
2
ACAD
70
0
0
APPID
5
109
100
AcDbSymbolTableRecord
100
AcDbRegAppTableRecord
2
ACAD_DSTYLE_DIMBREAK
70
0
0
APPID
5
1A4
100
AcDbSymbolTableRecord
100
AcDbRegAppTableRecord
2
ACAD_DSTYLE_DIM_LINETYPE
70
0
0
APPID
5
1A5
100
AcDbSymbolTableRecord
100
AcDbRegAppTableRecord
2
ACAD_DSTYLE_DIM_EXT1_LINETYPE
70
0
0
APPID
5
1A6
100
AcDbSymbolTableRecord
100
AcDbRegAppTableRecord
2
ACAD_DSTYLE_DIM_EXT2_LINETYPE
70
0
0
APPID
5
1E1
100
AcDbSymbolTableRecord
100
AcDbRegAppTableRecord
2
ACAD_MLEADERVER
70
0
0
ENDTAB
0
TABLE
2
BLOCK_RECORD
5
201
100
AcDbSymbolTable
0
BLOCK_RECORD
5
1F
100
AcDbSymbolTableRecord
100
AcDbBlockTableRecord
2
*Model_Space
340
0
70
0
0
BLOCK_RECORD
5
1B
100
AcDbSymbolTableRecord
100
AcDbBlockTableRecord
2
*Paper_Space
340
0
70
0
0
BLOCK_RECORD
5
23
100
AcDbSymbolTableRecord
100
AcDbBlockTableRecord
2
*Paper_Space0
340
0
70
0
0
BLOCK_RECORD
5
10E
100
AcDbSymbolTableRecord
100
AcDbBlockTableRecord
2
*D1
340
0
70
0
0
BLOCK_RECORD
5
11A
100
AcDbSymbolTableRecord
100
AcDbBlockTableRecord
2
_U0
340
0
70
0
0
BLOCK_RECORD
5
126
100
AcDbSymbolTableRecord
100
AcDbBlockTableRecord
2
*D3
340
0
70
0
0
BLOCK_RECORD
5
132
100
AcDbSymbolTableRecord
100
AcDbBlockTableRecord
2
_U1
340
0
70
0
0
BLOCK_RECORD
5
13E
100
AcDbSymbolTableRecord
100
AcDbBlockTableRecord
2
*D5
340
0
70
0
0
BLOCK_RECORD
5
14B
100
AcDbSymbolTableRecord
100
AcDbBlockTableRecord
2
_U2
340
0
70
0
0
BLOCK_RECORD
5
157
100
AcDbSymbolTableRecord
100
AcDbBlockTableRecord
2
*D7
340
0
70
0
0
BLOCK_RECORD
5
165
100
AcDbSymbolTableRecord
100
AcDbBlockTableRecord
2
_U3
340
0
70
0
0
BLOCK_RECORD
5
171
100
AcDbSymbolTableRecord
100
AcDbBlockTableRecord
2
*D9
340
0
70
0
0
BLOCK_RECORD
5
17D
100
AcDbSymbolTableRecord
100
AcDbBlockTableRecord
2
_U4
340
0
70
0
0
ENDTAB
0
ENDSEC
0
SECTION
2
BLOCKS
0
BLOCK
5
20
100
AcDbEntity
8
0
100
AcDbBlockBegin
2
*Model_Space
70
0
10
0
20
0
30
0
3
*Model_Space
0
ENDBLK
5
21
100
AcDbEntity
8
0
100
AcDbBlockEnd
0
BLOCK
5
1C
100
AcDbEntity
8
0
100
AcDbBlockBegin
2
*Paper_Space
70
0
10
0
20
0
30
0
3
*Paper_Space
0
ENDBLK
5
1D
100
AcDbEntity
8
0
100
AcDbBlockEnd
0
BLOCK
5
24
100
AcDbEntity
8
0
100
AcDbBlockBegin
2
*Paper_Space0
70
0
10
0
20
0
30
0
3
*Paper_Space0
0
ENDBLK
5
25
100
AcDbEntity
8
0
100
AcDbBlockEnd
0
BLOCK
5
10F
100
AcDbEntity
8
0
100
AcDbBlockBegin
2
*D1
70
1
10
0
20
0
30
0
3
*D1
0
LINE
5
111
100
AcDbEntity
8
0
62
256
6
ByLayer
370
-2
48
1
60
0
100
AcDbLine
10
0
20
-1.5875
30
0
11
0
21
-14.804398
31
0
39
0
210
0
220
0
230
1
0
LINE
5
112
100
AcDbEntity
8
0
62
256
6
ByLayer
370
-2
48
1
60
0
100
AcDbLine
10
29.2424
20
-4.1785
30
0
11
29.2424
21
-14.804398
31
0
39
0
210
0
220
0
230
1
0
LINE
5
113
100
AcDbEntity
8
0
62
256
6
ByLayer
370
-2
48
1
60
0
100
AcDbLine
10
3.5
20
-12.804398
30
0
11
25.7424
21
-12.804398
31
0
39
0
210
0
220
0
230
1
0
SOLID
5
114
100
AcDbEntity
8
0
62
256
6
ByLayer
370
-1
48
1
60
0
100
AcDbTrace
10
3.5
20
-12.221065
30
0
11
3.5
21
-13.387732
31
0
12
0
22
-12.804398
32
0
13
0
23
-12.804398
33
0
39
0
210
0
220
0
230
1
0
SOLID
5
115
100
AcDbEntity
8
0
62
256
6
ByLayer
370
-1
48
1
60
0
100
AcDbTrace
10
25.7424
20
-13.387732
30
0
11
25.7424
21
-12.221065
31
0
12
29.2424
22
-12.804398
32
0
13
29.2424
23
-12.804398
33
0
39
0
210
0
220
0
230
1
0
MTEXT
5
116
100
AcDbEntity
8
0
62
256
6
ByLayer
370
18
48
1
60
0
100
AcDbMText
10
14.6212
20
-5.804398
30
0
210
0
220
0
230
1
1
\A1;29.24
40
3.5
41
0
44
1
50
0
71
5
72
5
7
iso_b_vert
0
POINT
5
117
100
AcDbEntity
8
Defpoints
62
0
6
ByLayer
370
-1
48
1
60
0
100
AcDbPoint
10
0
20
0
30
0
39
0
210
0
220
0
230
1
50
360
0
POINT
5
118
100
AcDbEntity
8
Defpoints
62
0
6
ByLayer
370
-1
48
1
60
0
100
AcDbPoint
10
29.2424
20
-2.591
30
0
39
0
210
0
220
0
230
1
50
360
0
POINT
5
119
100
AcDbEntity
8
Defpoints
62
0
6
ByLayer
370
-1
48
1
60
0
100
AcDbPoint
10
29.2424
20
-12.804398
30
0
39
0
210
0
220
0
230
1
50
360
0
ENDBLK
5
110
100
AcDbEntity
8
0
100
AcDbBlockEnd
0
BLOCK
5
121
100
AcDbEntity
8
0
100
AcDbBlockBegin
2
_U0
70
0
10
0
20
0
30
0
3
_U0
0
MTEXT
5
11B
100
AcDbEntity
8
SK2
62
256
6
ByLayer
370
13
48
1
60
0
100
AcDbMText
10
9.299635
20
-11.771765
30
0
210
0
220
0
230
1
1
\W0.7495;29,24
40
3.5
41
0
44
1.084337
50
0
71
7
72
5
7
iso_b_vert
0
LINE
5
11C
100
AcDbEntity
8
SK2
62
256
6
ByLayer
370
13
48
1
60
0
100
AcDbLine
10
0
20
-1.5875
30
0
11
0
21
-14.804398
31
0
39
0
210
0
220
0
230
1
0
LINE
5
11D
100
AcDbEntity
8
SK2
62
256
6
ByLayer
370
13
48
1
60
0
100
AcDbLine
10
29.2424
20
-4.1785
30
0
11
29.2424
21
-14.804398
31
0
39
0
210
0
220
0
230
1
0
LINE
5
11E
100
AcDbEntity
8
SK2
62
256
6
ByLayer
370
13
48
1
60
0
100
AcDbLine
10
0
20
-12.804398
30
0
11
29.2424
21
-12.804398
31
0
39
0
210
0
220
0
230
1
0
SOLID
5
11F
100
AcDbEntity
8
SK2
62
256
6
ByLayer
370
18
48
1
60
0
100
AcDbTrace
10
0
20
-12.804398
30
0
11
3.499998
21
-12.343615
31
0
12
3.500002
22
-13.265182
32
0
13
3.500002
23
-13.265182
33
0
39
0
210
0
220
0
230
1
0
SOLID
5
120
100
AcDbEntity
8
SK2
62
256
6
ByLayer
370
18
48
1
60
0
100
AcDbTrace
10
29.2424
20
-12.804398
30
0
11
25.742402
21
-13.265182
31
0
12
25.742398
22
-12.343615
32
0
13
25.742398
23
-12.343615
33
0
39
0
210
0
220
0
230
1
0
ENDBLK
5
122
100
AcDbEntity
8
0
100
AcDbBlockEnd
0
BLOCK
5
127
100
AcDbEntity
8
0
100
AcDbBlockBegin
2
*D3
70
1
10
0
20
0
30
0
3
*D3
0
LINE
5
129
100
AcDbEntity
8
0
62
256
6
ByLayer
370
-2
48
1
60
0
100
AcDbLine
10
-36
20
-4.5875
30
0
11
-36
21
-33.692985
31
0
39
0
210
0
220
0
230
1
0
LINE
5
12A
100
AcDbEntity
8
0
62
256
6
ByLayer
370
-2
48
1
60
0
100
AcDbLine
10
30
20
-1.5875
30
0
11
30
21
-33.692985
31
0
39
0
210
0
220
0
230
1
0
LINE
5
12B
100
AcDbEntity
8
0
62
256
6
ByLayer
370
-2
48
1
60
0
100
AcDbLine
10
-32.5
20
-31.692985
30
0
11
26.5
21
-31.692985
31
0
39
0
210
0
220
0
230
1
0
SOLID
5
12C
100
AcDbEntity
8
0
62
256
6
ByLayer
370
-1
48
1
60
0
100
AcDbTrace
10
-32.5
20
-31.109652
30
0
11
-32.5
21
-32.276319
31
0
12
-36
22
-31.692985
32
0
13
-36
23
-31.692985
33
0
39
0
210
0
220
0
230
1
0
SOLID
5
12D
100
AcDbEntity
8
0
62
256
6
ByLayer
370
-1
48
1
60
0
100
AcDbTrace
10
26.5
20
-32.276319
30
0
11
26.5
21
-31.109652
31
0
12
30
22
-31.692985
32
0
13
30
23
-31.692985
33
0
39
0
210
0
220
0
230
1
0
MTEXT
5
12E
100
AcDbEntity
8
0
62
256
6
ByLayer
370
18
48
1
60
0
100
AcDbMText
10
-3
20
-24.692985
30
0
210
0
220
0
230
1
1
\A1;66.00
40
3.5
41
0
44
1
50
0
71
5
72
5
7
iso_b_vert
0
POINT
5
12F
100
AcDbEntity
8
Defpoints
62
0
6
ByLayer
370
-1
48
1
60
0
100
AcDbPoint
10
-36
20
-3
30
0
39
0
210
0
220
0
230
1
50
360
0
POINT
5
130
100
AcDbEntity
8
Defpoints
62
0
6
ByLayer
370
-1
48
1
60
0
100
AcDbPoint
10
30
20
0
30
0
39
0
210
0
220
0
230
1
50
360
0
POINT
5
131
100
AcDbEntity
8
Defpoints
62
0
6
ByLayer
370
-1
48
1
60
0
100
AcDbPoint
10
30
20
-31.692985
30
0
39
0
210
0
220
0
230
1
50
360
0
ENDBLK
5
128
100
AcDbEntity
8
0
100
AcDbBlockEnd
0
BLOCK
5
139
100
AcDbEntity
8
0
100
AcDbBlockBegin
2
_U1
70
0
10
0
20
0
30
0
3
_U1
0
MTEXT
5
133
100
AcDbEntity
8
SK2
62
256
6
ByLayer
370
13
48
1
60
0
100
AcDbMText
10
-8.137299
20
-30.660352
30
0
210
0
220
0
230
1
1
\W0.7317;66,00
40
3.5
41
0
44
1.084337
50
0
71
7
72
5
7
iso_b_vert
0
LINE
5
134
100
AcDbEntity
8
SK2
62
256
6
ByLayer
370
13
48
1
60
0
100
AcDbLine
10
-36
20
-4.5875
30
0
11
-36
21
-33.692985
31
0
39
0
210
0
220
0
230
1
0
LINE
5
135
100
AcDbEntity
8
SK2
62
256
6
ByLayer
370
13
48
1
60
0
100
AcDbLine
10
30
20
-1.5875
30
0
11
30
21
-33.692985
31
0
39
0
210
0
220
0
230
1
0
LINE
5
136
100
AcDbEntity
8
SK2
62
256
6
ByLayer
370
13
48
1
60
0
100
AcDbLine
10
-36
20
-31.692985
30
0
11
30
21
-31.692985
31
0
39
0
210
0
220
0
230
1
0
SOLID
5
137
100
AcDbEntity
8
SK2
62
256
6
ByLayer
370
18
48
1
60
0
100
AcDbTrace
10
-36
20
-31.692985
30
0
11
-32.500002
21
-31.232202
31
0
12
-32.499998
22
-32.153769
32
0
13
-32.499998
23
-32.153769
33
0
39
0
210
0
220
0
230
1
0
SOLID
5
138
100
AcDbEntity
8
SK2
62
256
6
ByLayer
370
18
48
1
60
0
100
AcDbTrace
10
30
20
-31.692985
30
0
11
26.500002
21
-32.153769
31
0
12
26.499998
22
-31.232202
32
0
13
26.499998
23
-31.232202
33
0
39
0
210
0
220
0
230
1
0
ENDBLK
5
13A
100
AcDbEntity
8
0
100
AcDbBlockEnd
0
BLOCK
5
13F
100
AcDbEntity
8
0
100
AcDbBlockBegin
2
*D5
70
1
10
0
20
0
30
0
3
*D5
0
LINE
5
141
100
AcDbEntity
8
0
62
256
6
ByLayer
370
-2
48
1
60
0
100
AcDbLine
10
13.7
20
4.1785
30
0
11
13.7
21
16.200119
31
0
39
0
210
0
220
0
230
1
0
LINE
5
142
100
AcDbEntity
8
0
62
256
6
ByLayer
370
-2
48
1
60
0
100
AcDbLine
10
30
20
1.5875
30
0
11
30
21
16.200119
31
0
39
0
210
0
220
0
230
1
0
LINE
5
143
100
AcDbEntity
8
0
62
256
6
ByLayer
370
-2
48
1
60
0
100
AcDbLine
10
10.2
20
14.200119
30
0
11
6.7
21
14.200119
31
0
39
0
210
0
220
0
230
1
0
LINE
5
144
100
AcDbEntity
8
0
62
256
6
ByLayer
370
-2
48
1
60
0
100
AcDbLine
10
33.5
20
14.200119
30
0
11
37
21
14.200119
31
0
39
0
210
0
220
0
230
1
0
SOLID
5
145
100
AcDbEntity
8
0
62
256
6
ByLayer
370
-1
48
1
60
0
100
AcDbTrace
10
10.2
20
13.616786
30
0
11
10.2
21
14.783453
31
0
12
13.7
22
14.200119
32
0
13
13.7
23
14.200119
33
0
39
0
210
0
220
0
230
1
0
SOLID
5
146
100
AcDbEntity
8
0
62
256
6
ByLayer
370
-1
48
1
60
0
100
AcDbTrace
10
33.5
20
14.783453
30
0
11
33.5
21
13.616786
31
0
12
30
22
14.200119
32
0
13
30
23
14.200119
33
0
39
0
210
0
220
0
230
1
0
MTEXT
5
147
100
AcDbEntity
8
0
62
256
6
ByLayer
370
18
48
1
60
0
100
AcDbMText
10
21.85
20
21.200119
30
0
210
0
220
0
230
1
1
\A1;16.30
40
3.5
41
0
44
1
50
0
71
5
72
5
7
iso_b_vert
0
POINT
5
148
100
AcDbEntity
8
Defpoints
62
0
6
ByLayer
370
-1
48
1
60
0
100
AcDbPoint
10
13.7
20
2.591
30
0
39
0
210
0
220
0
230
1
50
360
0
POINT
5
149
100
AcDbEntity
8
Defpoints
62
0
6
ByLayer
370
-1
48
1
60
0
100
AcDbPoint
10
30
20
0
30
0
39
0
210
0
220
0
230
1
50
360
0
POINT
5
14A
100
AcDbEntity
8
Defpoints
62
0
6
ByLayer
370
-1
48
1
60
0
100
AcDbPoint
10
30
20
14.200119
30
0
39
0
210
0
220
0
230
1
50
360
0
ENDBLK
5
140
100
AcDbEntity
8
0
100
AcDbBlockEnd
0
BLOCK
5
152
100
AcDbEntity
8
0
100
AcDbBlockBegin
2
_U2
70
0
10
0
20
0
30
0
3
_U2
0
MTEXT
5
14C
100
AcDbEntity
8
SK2
62
256
6
ByLayer
370
13
48
1
60
0
100
AcDbMText
10
17.150135
20
15.232753
30
0
210
0
220
0
230
1
1
\W0.6713;16,30
40
3.5
41
0
44
1.084337
50
0
71
7
72
5
7
iso_b_vert
0
LINE
5
14D
100
AcDbEntity
8
SK2
62
256
6
ByLayer
370
13
48
1
60
0
100
AcDbLine
10
13.7
20
4.1785
30
0
11
13.7
21
16.200119
31
0
39
0
210
0
220
0
230
1
0
LINE
5
14E
100
AcDbEntity
8
SK2
62
256
6
ByLayer
370
13
48
1
60
0
100
AcDbLine
10
30
20
1.5875
30
0
11
30
21
16.200119
31
0
39
0
210
0
220
0
230
1
0
LINE
5
14F
100
AcDbEntity
8
SK2
62
256
6
ByLayer
370
13
48
1
60
0
100
AcDbLine
10
13.7
20
14.200119
30
0
11
30
21
14.200119
31
0
39
0
210
0
220
0
230
1
0
SOLID
5
150
100
AcDbEntity
8
SK2
62
256
6
ByLayer
370
18
48
1
60
0
100
AcDbTrace
10
13.7
20
14.200119
30
0
11
17.199998
21
14.660903
31
0
12
17.200002
22
13.739335
32
0
13
17.200002
23
13.739335
33
0
39
0
210
0
220
0
230
1
0
SOLID
5
151
100
AcDbEntity
8
SK2
62
256
6
ByLayer
370
18
48
1
60
0
100
AcDbTrace
10
30
20
14.200119
30
0
11
26.500002
21
13.739335
31
0
12
26.499998
22
14.660903
32
0
13
26.499998
23
14.660903
33
0
39
0
210
0
220
0
230
1
0
ENDBLK
5
153
100
AcDbEntity
8
0
100
AcDbBlockEnd
0
BLOCK
5
158
100
AcDbEntity
8
0
100
AcDbBlockBegin
2
*D7
70
1
10
0
20
0
30
0
3
*D7
0
LINE
5
15A
100
AcDbEntity
8
0
62
256
6
ByLayer
370
-2
48
1
60
0
100
AcDbLine
10
30
20
-1.5875
30
0
11
30
21
-17.393503
31
0
39
0
210
0
220
0
230
1
0
LINE
5
15B
100
AcDbEntity
8
0
62
256
6
ByLayer
370
-2
48
1
60
0
100
AcDbLine
10
29.2424
20
-4.1785
30
0
11
29.2424
21
-17.393503
31
0
39
0
210
0
220
0
230
1
0
LINE
5
15C
100
AcDbEntity
8
0
62
256
6
ByLayer
370
-2
48
1
60
0
100
AcDbLine
10
30
20
-15.393503
30
0
11
58.166667
21
-15.393503
31
0
39
0
210
0
220
0
230
1
0
LINE
5
15D
100
AcDbEntity
8
0
62
256
6
ByLayer
370
-2
48
1
60
0
100
AcDbLine
10
33.5
20
-15.393503
30
0
11
37
21
-15.393503
31
0
39
0
210
0
220
0
230
1
0
LINE
5
15E
100
AcDbEntity
8
0
62
256
6
ByLayer
370
-2
48
1
60
0
100
AcDbLine
10
25.7424
20
-15.393503
30
0
11
22.2424
21
-15.393503
31
0
39
0
210
0
220
0
230
1
0
SOLID
5
15F
100
AcDbEntity
8
0
62
256
6
ByLayer
370
-1
48
1
60
0
100
AcDbTrace
10
33.5
20
-14.81017
30
0
11
33.5
21
-15.976837
31
0
12
30
22
-15.393503
32
0
13
30
23
-15.393503
33
0
39
0
210
0
220
0
230
1
0
SOLID
5
160
100
AcDbEntity
8
0
62
256
6
ByLayer
370
-1
48
1
60
0
100
AcDbTrace
10
25.7424
20
-15.976837
30
0
11
25.7424
21
-14.81017
31
0
12
29.2424
22
-15.393503
32
0
13
29.2424
23
-15.393503
33
0
39
0
210
0
220
0
230
1
0
MTEXT
5
161
100
AcDbEntity
8
0
62
256
6
ByLayer
370
18
48
1
60
0
100
AcDbMText
10
47.583333
20
-8.393503
30
0
210
0
220
0
230
1
1
\A1;0.76
40
3.5
41
0
44
1
50
0
71
5
72
5
7
iso_b_vert
0
POINT
5
162
100
AcDbEntity
8
Defpoints
62
0
6
ByLayer
370
-1
48
1
60
0
100
AcDbPoint
10
30
20
0
30
0
39
0
210
0
220
0
230
1
50
360
0
POINT
5
163
100
AcDbEntity
8
Defpoints
62
0
6
ByLayer
370
-1
48
1
60
0
100
AcDbPoint
10
29.2424
20
-2.591
30
0
39
0
210
0
220
0
230
1
50
360
0
POINT
5
164
100
AcDbEntity
8
Defpoints
62
0
6
ByLayer
370
-1
48
1
60
0
100
AcDbPoint
10
29.2424
20
-15.393503
30
0
39
0
210
0
220
0
230
1
50
360
0
ENDBLK
5
159
100
AcDbEntity
8
0
100
AcDbBlockEnd
0
BLOCK
5
16C
100
AcDbEntity
8
0
100
AcDbBlockBegin
2
_U3
70
0
10
0
20
0
30
0
3
_U3
0
MTEXT
5
166
100
AcDbEntity
8
SK2
62
256
6
ByLayer
370
13
48
1
60
0
100
AcDbMText
10
36.15186
20
-14.36087
30
0
210
0
220
0
230
1
1
\W0.7150;0,76
40
3.5
41
0
44
1.084337
50
0
71
7
72
5
7
iso_b_vert
0
LINE
5
167
100
AcDbEntity
8
SK2
62
256
6
ByLayer
370
13
48
1
60
0
100
AcDbLine
10
30
20
-1.5875
30
0
11
30
21
-17.393503
31
0
39
0
210
0
220
0
230
1
0
LINE
5
168
100
AcDbEntity
8
SK2
62
256
6
ByLayer
370
13
48
1
60
0
100
AcDbLine
10
29.2424
20
-4.1785
30
0
11
29.2424
21
-17.393503
31
0
39
0
210
0
220
0
230
1
0
LINE
5
169
100
AcDbEntity
8
SK2
62
256
6
ByLayer
370
13
48
1
60
0
100
AcDbLine
10
20.4924
20
-15.393503
30
0
11
43.996491
21
-15.393503
31
0
39
0
210
0
220
0
230
1
0
SOLID
5
16A
100
AcDbEntity
8
SK2
62
256
6
ByLayer
370
18
48
1
60
0
100
AcDbTrace
10
30
20
-15.393503
30
0
11
33.499998
21
-14.932719
31
0
12
33.500002
22
-15.854287
32
0
13
33.500002
23
-15.854287
33
0
39
0
210
0
220
0
230
1
0
SOLID
5
16B
100
AcDbEntity
8
SK2
62
256
6
ByLayer
370
18
48
1
60
0
100
AcDbTrace
10
29.2424
20
-15.393503
30
0
11
25.742402
21
-15.854287
31
0
12
25.742398
22
-14.932719
32
0
13
25.742398
23
-14.932719
33
0
39
0
210
0
220
0
230
1
0
ENDBLK
5
16D
100
AcDbEntity
8
0
100
AcDbBlockEnd
0
BLOCK
5
172
100
AcDbEntity
8
0
100
AcDbBlockBegin
2
*D9
70
1
10
0
20
0
30
0
3
*D9
0
LINE
5
174
100
AcDbEntity
8
0
62
256
6
ByLayer
370
-2
48
1
60
0
100
AcDbLine
10
-36
20
-4.5875
30
0
11
-36
21
-23.343428
31
0
39
0
210
0
220
0
230
1
0
LINE
5
175
100
AcDbEntity
8
0
62
256
6
ByLayer
370
-2
48
1
60
0
100
AcDbLine
10
29.2424
20
-4.1785
30
0
11
29.2424
21
-23.343428
31
0
39
0
210
0
220
0
230
1
0
LINE
5
176
100
AcDbEntity
8
0
62
256
6
ByLayer
370
-2
48
1
60
0
100
AcDbLine
10
-32.5
20
-21.343428
30
0
11
25.7424
21
-21.343428
31
0
39
0
210
0
220
0
230
1
0
SOLID
5
177
100
AcDbEntity
8
0
62
256
6
ByLayer
370
-1
48
1
60
0
100
AcDbTrace
10
-32.5
20
-20.760095
30
0
11
-32.5
21
-21.926762
31
0
12
-36
22
-21.343428
32
0
13
-36
23
-21.343428
33
0
39
0
210
0
220
0
230
1
0
SOLID
5
178
100
AcDbEntity
8
0
62
256
6
ByLayer
370
-1
48
1
60
0
100
AcDbTrace
10
25.7424
20
-21.926762
30
0
11
25.7424
21
-20.760095
31
0
12
29.2424
22
-21.343428
32
0
13
29.2424
23
-21.343428
33
0
39
0
210
0
220
0
230
1
0
MTEXT
5
179
100
AcDbEntity
8
0
62
256
6
ByLayer
370
18
48
1
60
0
100
AcDbMText
10
-3.3788
20
-14.343428
30
0
210
0
220
0
230
1
1
\A1;65.24
40
3.5
41
0
44
1
50
0
71
5
72
5
7
iso_b_vert
0
POINT
5
17A
100
AcDbEntity
8
Defpoints
62
0
6
ByLayer
370
-1
48
1
60
0
100
AcDbPoint
10
-36
20
-3
30
0
39
0
210
0
220
0
230
1
50
360
0
POINT
5
17B
100
AcDbEntity
8
Defpoints
62
0
6
ByLayer
370
-1
48
1
60
0
100
AcDbPoint
10
29.2424
20
-2.591
30
0
39
0
210
0
220
0
230
1
50
360
0
POINT
5
17C
100
AcDbEntity
8
Defpoints
62
0
6
ByLayer
370
-1
48
1
60
0
100
AcDbPoint
10
29.2424
20
-21.343428
30
0
39
0
210
0
220
0
230
1
50
360
0
ENDBLK
5
173
100
AcDbEntity
8
0
100
AcDbBlockEnd
0
BLOCK
5
184
100
AcDbEntity
8
0
100
AcDbBlockBegin
2
_U4
70
0
10
0
20
0
30
0
3
_U4
0
MTEXT
5
17E
100
AcDbEntity
8
SK2
62
256
6
ByLayer
370
13
48
1
60
0
100
AcDbMText
10
-8.700365
20
-20.310795
30
0
210
0
220
0
230
1
1
\W0.7495;65,24
40
3.5
41
0
44
1.084337
50
0
71
7
72
5
7
iso_b_vert
0
LINE
5
17F
100
AcDbEntity
8
SK2
62
256
6
ByLayer
370
13
48
1
60
0
100
AcDbLine
10
-36
20
-4.5875
30
0
11
-36
21
-23.343428
31
0
39
0
210
0
220
0
230
1
0
LINE
5
180
100
AcDbEntity
8
SK2
62
256
6
ByLayer
370
13
48
1
60
0
100
AcDbLine
10
29.2424
20
-4.1785
30
0
11
29.2424
21
-23.343428
31
0
39
0
210
0
220
0
230
1
0
LINE
5
181
100
AcDbEntity
8
SK2
62
256
6
ByLayer
370
13
48
1
60
0
100
AcDbLine
10
-36
20
-21.343428
30
0
11
29.2424
21
-21.343428
31
0
39
0
210
0
220
0
230
1
0
SOLID
5
182
100
AcDbEntity
8
SK2
62
256
6
ByLayer
370
18
48
1
60
0
100
AcDbTrace
10
-36
20
-21.343428
30
0
11
-32.500002
21
-20.882645
31
0
12
-32.499998
22
-21.804212
32
0
13
-32.499998
23
-21.804212
33
0
39
0
210
0
220
0
230
1
0
SOLID
5
183
100
AcDbEntity
8
SK2
62
256
6
ByLayer
370
18
48
1
60
0
100
AcDbTrace
10
29.2424
20
-21.343428
30
0
11
25.742402
21
-21.804212
31
0
12
25.742398
22
-20.882645
32
0
13
25.742398
23
-20.882645
33
0
39
0
210
0
220
0
230
1
0
ENDBLK
5
185
100
AcDbEntity
8
0
100
AcDbBlockEnd
0
ENDSEC
0
SECTION
2
ENTITIES
0
ARC
5
AD
100
AcDbEntity
8
1
62
256
6
ByLayer
370
18
48
1
60
0
100
AcDbCircle
39
0
10
1.087721
20
-3.373398
30
0
40
0.799999999999999
210
0
220
0
230
1
100
AcDbArc
50
89.96419
51
132.830024
0
ARC
5
AE
100
AcDbEntity
8
1
62
256
6
ByLayer
370
18
48
1
60
0
100
AcDbCircle
39
0
10
1.087721
20
3.373398
30
0
40
0.799999999999999
210
0
220
0
230
1
100
AcDbArc
50
227.169976
51
270.03581
0
ARC
5
AF
100
AcDbEntity
8
1
62
256
6
ByLayer
370
18
48
1
60
0
100
AcDbCircle
39
0
10
0
20
-2.2
30
0
40
0.799999999999999
210
0
220
0
230
1
100
AcDbArc
50
270
51
312.830024
0
ARC
5
B0
100
AcDbEntity
8
1
62
256
6
ByLayer
370
18
48
1
60
0
100
AcDbCircle
39
0
10
0
20
2.2
30
0
40
0.799999999999999
210
0
220
0
230
1
100
AcDbArc
50
47.169976
51
90
0
ELLIPSE
5
B1
100
AcDbEntity
8
1
62
256
6
ByLayer
370
13
48
1
60
0
100
AcDbEllipse
10
4.183812
20
0.082283
30
0
11
-0.0440088867473334
21
-0.0897954224181856
31
0
210
0
220
0
230
1
40
0.393354
41
-1.34933815454524
42
-0.0033059559345693
0
ELLIPSE
5
B2
100
AcDbEntity
8
1
62
256
6
ByLayer
370
13
48
1
60
0
100
AcDbEllipse
10
4.250221
20
0.049875
30
0
11
0.0439183821425026
21
0.0898397223392031
31
0
210
0
220
0
230
1
40
0.009693
41
-3.12687672113871
42
-1.58726699784641
0
POINT
5
70
100
AcDbEntity
8
80
62
256
6
ByLayer
370
18
48
1
60
0
100
AcDbPoint
10
0
20
0
30
0
39
0
210
0
220
0
230
1
50
360
0
POINT
5
72
100
AcDbEntity
8
81
62
256
6
ByLayer
370
18
48
1
60
0
100
AcDbPoint
10
30
20
0
30
0
39
0
210
0
220
0
230
1
50
360
0
POINT
5
74
100
AcDbEntity
8
1
62
256
6
ByLayer
370
18
48
1
60
1
100
AcDbPoint
10
29.2424
20
-2.591
30
0
39
0
210
0
220
0
230
1
50
360
0
POINT
5
76
100
AcDbEntity
8
1
62
256
6
ByLayer
370
18
48
1
60
1
100
AcDbPoint
10
-36
20
-3
30
0
39
0
210
0
220
0
230
1
50
360
0
POINT
5
77
100
AcDbEntity
8
1
62
256
6
ByLayer
370
18
48
1
60
1
100
AcDbPoint
10
13.7
20
2.591
30
0
39
0
210
0
220
0
230
1
50
360
0
POINT
5
78
100
AcDbEntity
8
1
62
256
6
ByLayer
370
18
48
1
60
1
100
AcDbPoint
10
29.2424
20
-2.591
30
0
39
0
210
0
220
0
230
1
50
360
0
POINT
5
79
100
AcDbEntity
8
1
62
256
6
ByLayer
370
18
48
1
60
1
100
AcDbPoint
10
-36
20
-3
30
0
39
0
210
0
220
0
230
1
50
360
0
POINT
5
7A
100
AcDbEntity
8
1
62
256
6
ByLayer
370
18
48
1
60
1
100
AcDbPoint
10
29.2424
20
-2.591
30
0
39
0
210
0
220
0
230
1
50
360
0
SPLINE
5
B3
100
AcDbEntity
8
SK1
62
256
6
ByLayer
370
18
48
1
60
0
100
AcDbSpline
70
4
71
3
72
12
73
8
40
0
40
0
40
0
40
0
40
0.5
40
0.5
40
0.75
40
0.75
40
1
40
1
40
1
40
1
41
1
10
-35.75
20
-2.14963720659659
30
0
41
1
10
-35.7259913046563
20
-2.1688794011776
30
0
41
1
10
-35.7033433879314
20
-2.18379252212276
30
0
41
1
10
-35.6754686754417
20
-2.19616612781039
30
0
41
1
10
-35.667025596347
20
-2.19864237895908
30
0
41
1
10
-35.6543350076412
20
-2.1980301423205
30
0
41
1
10
-35.65
20
-2.19480163991366
30
0
41
1
10
-35.65
20
-2.18736262554327
30
0
0
SPLINE
5
B4
100
AcDbEntity
8
SK1
62
256
6
ByLayer
370
18
48
1
60
0
100
AcDbSpline
70
4
71
3
72
12
73
8
40
0
40
0
40
0
40
0
40
0.25
40
0.25
40
0.5
40
0.5
40
1
40
1
40
1
40
1
41
1
10
-35.65
20
-1.33979644510768
30
0
41
1
10
-35.65
20
-1.32517170536337
30
0
41
1
10
-35.6543403470552
20
-1.30825639120934
30
0
41
1
10
-35.6670034572333
20
-1.2760583683345
30
0
41
1
10
-35.6754069618006
20
-1.26030866252518
30
0
41
1
10
-35.7033744297257
20
-1.21648402113675
30
0
41
1
10
-35.7260009806424
20
-1.19091066876112
30
0
41
1
10
-35.7500000000001
20
-1.17167622917071
30
0
0
SPLINE
5
B5
100
AcDbEntity
8
SK1
62
256
6
ByLayer
370
18
48
1
60
0
100
AcDbSpline
70
4
71
3
72
8
73
4
40
0
40
0
40
0
40
0
40
1
40
1
40
1
40
1
41
1
10
-35.75
20
-1.17167622917071
30
0
41
1
10
-35.8336554104926
20
-1.10462911713873
30
0
41
1
10
-35.9170302933806
20
-1.03738774369836
30
0
41
1
10
-36
20
-0.969865791408523
30
0
0
SPLINE
5
B6
100
AcDbEntity
8
SK1
62
256
6
ByLayer
370
18
48
1
60
0
100
AcDbSpline
70
4
71
3
72
8
73
4
40
0
40
0
40
0
40
0
40
1
40
1
40
1
40
1
41
1
10
-35.9999999999998
20
-1.94782676883443
30
0
41
1
10
-35.9170225587719
20
-2.01535501566104
30
0
41
1
10
-35.8336485042691
20
-2.08259562967987
30
0
41
1
10
-35.75
20
-2.14963720659654
30
0
0
SPLINE
5
B7
100
AcDbEntity
8
1
62
256
6
ByLayer
370
18
48
1
60
0
100
AcDbSpline
70
4
71
3
72
8
73
4
40
0
40
0
40
0
40
0
40
1
40
1
40
1
40
1
41
1
10
29.9790556449656
20
-0.0172567640030366
30
0
41
1
10
29.8362114727965
20
-0.251145736038381
30
0
41
1
10
29.6967956789355
20
-0.488157041797166
30
0
41
1
10
29.5608578245177
20
-0.728335818189692
30
0
0
SPLINE
5
B8
100
AcDbEntity
8
1
62
256
6
ByLayer
370
13
48
1
60
0
100
AcDbSpline
70
4
71
3
72
8
73
4
40
0
40
0
40
0
40
0
40
1
40
1
40
1
40
1
41
1
10
4.03114616810012
20
0.141563605211957
30
0
41
1
10
4.05469948771358
20
0.11555725432558
30
0
41
1
10
4.09168808054091
20
0.093381470669442
30
0
41
1
10
4.13968675054929
20
0.0794476903953409
30
0
0
SPLINE
5
B9
100
AcDbEntity
8
1
62
256
6
ByLayer
370
18
48
1
60
0
100
AcDbSpline
70
4
71
3
72
34
73
30
40
0
40
0
40
0
40
0
40
0.136528526683939
40
0.136528526683939
40
0.215141900897449
40
0.215141900897449
40
0.29375527511096
40
0.29375527511096
40
0.450982023537982
40
0.450982023537982
40
0.529595397751493
40
0.529595397751493
40
0.568902084858248
40
0.568902084858248
40
0.588555428411626
40
0.588555428411626
40
0.59346876429997
40
0.59346876429997
40
0.598382100188314
40
0.598382100188314
40
0.608208771965003
40
0.608208771965003
40
0.686822146178514
40
0.686822146178514
40
0.765435520392025
40
0.765435520392025
40
0.922662268819047
40
0.922662268819047
40
1
40
1
40
1
40
1
41
1
10
7.99546616478611
20
2.01990741475322
30
0
41
1
10
7.99546616478611
20
1.87923151523395
30
0
41
1
10
7.99546616478611
20
1.74726375434102
30
0
41
1
10
7.99546616478611
20
1.55288814232731
30
0
41
1
10
7.99546616478611
20
1.48545529174382
30
0
41
1
10
7.99546616478611
20
1.35857363063786
30
0
41
1
10
7.99546616478614
20
1.2989195312031
30
0
41
1
10
7.99546616478614
20
1.13084940447328
30
0
41
1
10
7.99546616478611
20
1.03325170517707
30
0
41
1
10
7.99546616478611
20
0.908145811007387
30
0
41
1
10
7.99546616478611
20
0.869995412639383
30
0
41
1
10
7.99546616478611
20
0.818743163828174
30
0
41
1
10
7.99546616478611
20
0.802625884753411
30
0
41
1
10
7.99546616478611
20
0.779892550164931
30
0
41
1
10
7.99546616478611
20
0.772558477523347
30
0
41
1
10
7.99546616478611
20
0.763695624052474
30
0
41
1
10
7.99546616478611
20
0.761756098499632
30
0
41
1
10
7.99546616478611
20
0.760445331529382
30
0
41
1
10
7.99546616478611
20
0.760769740299509
30
0
41
1
10
7.99546616478611
20
0.76469662142847
30
0
41
1
10
7.99546616478611
20
0.771761191900112
30
0
41
1
10
7.99546616478611
20
0.825046892694559
30
0
41
1
10
7.99546616478611
20
0.876461092226094
30
0
41
1
10
7.99546616478611
20
0.987282076807873
30
0
41
1
10
7.99546616478611
20
1.04689650940577
30
0
41
1
10
7.99546616478611
20
1.23607871142295
30
0
41
1
10
7.99546616478611
20
1.37632065884208
30
0
41
1
10
7.99546616478608
20
1.6079039024128
30
0
41
1
10
7.99546616478611
20
1.68831257062493
30
0
41
1
10
7.99546616478611
20
1.77165579148186
30
0
0
SPLINE
5
BA
100
AcDbEntity
8
1
62
256
6
ByLayer
370
18
48
1
60
0
100
AcDbSpline
70
4
71
3
72
8
73
4
40
0
40
0
40
0
40
0
40
1
40
1
40
1
40
1
41
1
10
7.53908147014414
20
1.90485086289223
30
0
41
1
10
7.69158219081947
20
1.9436547201997
30
0
41
1
10
7.84367889004909
20
1.98215231282711
30
0
41
1
10
7.99546616478611
20
2.01990741475342
30
0
0
SPLINE
5
BB
100
AcDbEntity
8
1
62
256
6
ByLayer
370
18
48
1
60
0
100
AcDbSpline
70
4
71
3
72
36
73
32
40
0
40
0
40
0
40
0
40
0.0671204962120528
40
0.0671204962120528
40
0.114841761152613
40
0.114841761152613
40
0.162563026093173
40
0.162563026093173
40
0.258005555974292
40
0.258005555974292
40
0.305726820914852
40
0.305726820914852
40
0.329587453385133
40
0.329587453385133
40
0.353448085855413
40
0.353448085855413
40
0.544333145617655
40
0.544333145617655
40
0.592054410558215
40
0.592054410558215
40
0.639775675498776
40
0.639775675498776
40
0.735218205379896
40
0.735218205379896
40
0.782939470320457
40
0.782939470320457
40
0.830660735261017
40
0.830660735261017
40
0.926103265142137
40
0.926103265142137
40
1
40
1
40
1
40
1
41
1
10
28.6473768200431
20
-2.59062595412667
30
0
41
1
10
28.2798529707559
20
-2.59028706510824
30
0
41
1
10
27.9125560207694
20
-2.57054401082741
30
0
41
1
10
27.2819793860455
20
-2.50402670829794
30
0
41
1
10
27.0200102293101
20
-2.46669930896022
30
0
41
1
10
26.4993607557963
20
-2.37427996423875
30
0
41
1
10
26.2399922999915
20
-2.31917238270464
30
0
41
1
10
25.463080134048
20
-2.12908770817239
30
0
41
1
10
24.9467571974485
20
-1.96927751515153
30
0
41
1
10
24.1679719252883
20
-1.68825671373841
30
0
41
1
10
23.9077238869002
20
-1.58760453293144
30
0
41
1
10
23.5153885265636
20
-1.42748826757659
30
0
41
1
10
23.3840603984485
20
-1.37250735289004
30
0
41
1
10
23.1223306140427
20
-1.26043577506681
30
0
41
1
10
22.9917976315787
20
-1.20329924779122
30
0
41
1
10
21.8193203973319
20
-0.680495380715684
30
0
41
1
10
20.7938307277859
20
-0.154167550617615
30
0
41
1
10
19.4872743414747
20
0.488106730773922
30
0
41
1
10
19.2243749240104
20
0.615971745304392
30
0
41
1
10
18.7026705599995
20
0.864127613799212
30
0
41
1
10
18.442953279145
20
0.984916591743968
30
0
41
1
10
17.6653618711414
20
1.33408187710379
30
0
41
1
10
17.1489995868623
20
1.54917709451479
30
0
41
1
10
16.3711652857643
20
1.8344066625933
30
0
41
1
10
16.1112676055983
20
1.92313919628842
30
0
41
1
10
15.5891600507011
20
2.08616464609492
30
0
41
1
10
15.3261469204025
20
2.16064415518511
30
0
41
1
10
14.5425508577715
20
2.3572040139901
30
0
41
1
10
14.0248408453878
20
2.45327719581695
30
0
41
1
10
13.1067541734683
20
2.55746723545173
30
0
41
1
10
12.7061596092445
20
2.580507947255
30
0
41
1
10
12.303631112889
20
2.58040602057366
30
0
0
SPLINE
5
BC
100
AcDbEntity
8
1
62
256
6
ByLayer
370
18
48
1
60
0
100
AcDbSpline
70
4
71
3
72
28
73
24
40
0
40
0
40
0
40
0
40
0.0637641778167978
40
0.0637641778167978
40
0.127528355633596
40
0.127528355633596
40
0.255056711267191
40
0.255056711267191
40
0.382585066900787
40
0.382585066900787
40
0.510113422534383
40
0.510113422534383
40
0.573877600351181
40
0.573877600351181
40
0.637641778167978
40
0.637641778167978
40
0.765170133801574
40
0.765170133801574
40
0.89269848943517
40
0.89269848943517
40
0.956462667251967
40
0.956462667251967
40
1
40
1
40
1
40
1
41
1
10
4.03114616810987
20
0.141563605242311
30
0
41
1
10
4.03116976204367
20
0.224823474830742
30
0
41
1
10
4.03119221792454
20
0.307660565283584
30
0
41
1
10
4.03123517947634
20
0.472489475927261
30
0
41
1
10
4.03125574702824
20
0.554757429233263
30
0
41
1
10
4.03131408045485
20
0.796381858529855
30
0
41
1
10
4.03134879521463
20
0.951640002155671
30
0
41
1
10
4.03141293519175
20
1.25067779388024
30
0
41
1
10
4.03144255321868
20
1.39549129408172
30
0
41
1
10
4.03149679813393
20
1.66175548272582
30
0
41
1
10
4.0315217265032
20
1.7845846510906
30
0
41
1
10
4.03155743506323
20
1.95316360837992
30
0
41
1
10
4.03156909442714
20
2.00691720745581
30
0
41
1
10
4.03159154754673
20
2.10691620657346
30
0
41
1
10
4.03160239290932
20
2.15341806973538
30
0
41
1
10
4.03163399155173
20
2.28264882887134
30
0
41
1
10
4.0316538520903
20
2.35520247066617
30
0
41
1
10
4.03169117738267
20
2.47193262778097
30
0
41
1
10
4.03170802486414
20
2.51419320893936
30
0
41
1
10
4.03172991433087
20
2.55442002819001
30
0
41
1
10
4.03173663588771
20
2.56394043959492
30
0
41
1
10
4.03174676437351
20
2.57327853530742
30
0
41
1
10
4.03175055148139
20
2.57519560291706
30
0
41
1
10
4.03175392914426
20
2.57522950251536
30
0
0
SPLINE
5
BD
100
AcDbEntity
8
1
62
256
6
ByLayer
370
18
48
1
60
0
100
AcDbSpline
70
4
71
3
72
14
73
10
40
0
40
0
40
0
40
0
40
0.144455622170975
40
0.144455622170975
40
0.370341656537375
40
0.370341656537375
40
0.596227690903775
40
0.596227690903775
40
1
40
1
40
1
40
1
41
1
10
12.5238653103958
20
-2.45115321077989
30
0
41
1
10
12.3591635236886
20
-2.45101679123437
30
0
41
1
10
12.1944417408824
20
-2.44719013086984
30
0
41
1
10
11.7717690396711
20
-2.42787392826585
30
0
41
1
10
11.5135760964599
20
-2.40706362366083
30
0
41
1
10
10.9954409221647
20
-2.34766026265186
30
0
41
1
10
10.7350268578949
20
-2.30901435098735
30
0
41
1
10
10.0082200266731
20
-2.17718264421723
30
0
41
1
10
9.54407588536642
20
-2.06558402523831
30
0
41
1
10
9.07873577623079
20
-1.93068682405013
30
0
0
SPLINE
5
BE
100
AcDbEntity
8
1
62
256
6
ByLayer
370
13
48
1
60
0
100
AcDbSpline
70
4
71
3
72
18
73
14
40
0
40
0
40
0
40
0
40
0.0342045275839413
40
0.0342045275839413
40
0.195170439653284
40
0.195170439653284
40
0.356136351722627
40
0.356136351722627
40
0.678068175861314
40
0.678068175861314
40
0.839034087930657
40
0.839034087930657
40
1
40
1
40
1
40
1
41
1
10
9.07873577632316
20
-1.9306868240769
30
0
41
1
10
9.02341694217577
20
-1.91465047613957
30
0
41
1
10
8.96808120655524
20
-1.89828487155131
30
0
41
1
10
8.65221010184882
20
-1.80306034752266
30
0
41
1
10
8.39095929705817
20
-1.71715590699296
30
0
41
1
10
7.87192273725123
20
-1.5341823226816
30
0
41
1
10
7.61335869344626
20
-1.43708690031019
30
0
41
1
10
6.8390729303656
20
-1.1317476541148
30
0
41
1
10
6.32482372861958
20
-0.909297257488959
30
0
41
1
10
5.55054035436558
20
-0.558971351657135
30
0
41
1
10
5.29194258256319
20
-0.439477099479831
30
0
41
1
10
4.77258774768399
20
-0.197374151450703
30
0
41
1
10
4.51134976686092
20
-0.0745657359526035
30
0
41
1
10
4.25036877321179
20
0.0479695189401923
30
0
0
SPLINE
5
BF
100
AcDbEntity
8
1
62
256
6
ByLayer
370
18
48
1
60
0
100
AcDbSpline
70
4
71
3
72
12
73
8
40
0
40
0
40
0
40
0
40
0.250000000000072
40
0.250000000000072
40
0.500000000000144
40
0.500000000000144
40
1
40
1
40
1
40
1
41
1
10
28.8986581446292
20
0.666660732388465
30
0
41
1
10
28.8983852138096
20
0.676671418971068
30
0
41
1
10
28.900877047735
20
0.686729661405025
30
0
41
1
10
28.9114416344241
20
0.704073406809471
30
0
41
1
10
28.9194883869123
20
0.711297693239118
30
0
41
1
10
28.9464369091506
20
0.726802971282012
30
0
41
1
10
28.967762646285
20
0.729996576635273
30
0
41
1
10
28.9885038080343
20
0.729399151900139
30
0
0
SPLINE
5
C0
100
AcDbEntity
8
1
62
256
6
ByLayer
370
18
48
1
60
0
100
AcDbSpline
70
4
71
3
72
24
73
20
40
0
40
0
40
0
40
0
40
0.125
40
0.125
40
0.1875
40
0.1875
40
0.25
40
0.25
40
0.375
40
0.375
40
0.5
40
0.5
40
0.625
40
0.625
40
0.75
40
0.75
40
0.875
40
0.875
40
1
40
1
40
1
40
1
41
1
10
29.5608578245177
20
-0.728335818189692
30
0
41
1
10
29.5575696474789
20
-0.761253774471356
30
0
41
1
10
29.5507167802472
20
-0.799649550627464
30
0
41
1
10
29.5360024046932
20
-0.859872933433735
30
0
41
1
10
29.5302680224289
20
-0.880804751848132
30
0
41
1
10
29.5176841398287
20
-0.922519540280661
30
0
41
1
10
29.5108405378509
20
-0.943340786363279
30
0
41
1
10
29.4887608018663
20
-1.00571067395691
30
0
41
1
10
29.4722696220462
20
-1.04628102843631
30
0
41
1
10
29.4377472642899
20
-1.12196114588656
30
0
41
1
10
29.4200208609319
20
-1.15647490003289
30
0
41
1
10
29.3845800773554
20
-1.21805454895656
30
0
41
1
10
29.3669183301737
20
-1.24491988713436
30
0
41
1
10
29.3338630082151
20
-1.2882401972098
30
0
41
1
10
29.318112953722
20
-1.30524976482874
30
0
41
1
10
29.2889804530491
20
-1.32890006386134
30
0
41
1
10
29.2759475508177
20
-1.33533302044628
30
0
41
1
10
29.2529654905902
20
-1.33695091466646
30
0
41
1
10
29.2432987281153
20
-1.33196954115215
30
0
41
1
10
29.2359188308772
20
-1.32101441313281
30
0
0
SPLINE
5
C1
100
AcDbEntity
8
1
62
256
6
ByLayer
370
18
48
1
60
0
100
AcDbSpline
70
4
71
3
72
8
73
4
40
0
40
0
40
0
40
0
40
1
40
1
40
1
40
1
41
1
10
4.13914187879945
20
-0.0072373854995362
30
0
41
1
10
4.12418849640738
20
0.0001605636395254
30
0
41
1
10
4.11022045970799
20
0.0089156739605585
30
0
41
1
10
4.09719786338812
20
0.0189726655308391
30
0
0
SPLINE
5
C2
100
AcDbEntity
8
1
62
256
6
ByLayer
370
18
48
1
60
0
100
AcDbSpline
70
4
71
3
72
20
73
16
40
0
40
0
40
0
40
0
40
0.0536398489696678
40
0.0536398489696678
40
0.43800636252335
40
0.43800636252335
40
0.53409799091177
40
0.53409799091177
40
0.630189619300191
40
0.630189619300191
40
0.822372876077032
40
0.822372876077032
40
0.918464504465452
40
0.918464504465452
40
1
40
1
40
1
40
1
41
1
10
16.2336563567361
20
1.85703743031053
30
0
41
1
10
16.3792011415595
20
1.80816454899519
30
0
41
1
10
16.5248470149943
20
1.75706214747728
30
0
41
1
10
17.715520462225
20
1.32256812505466
30
0
41
1
10
18.7410663126601
20
0.845152711566101
30
0
41
1
10
20.0430143999948
20
0.212212093414848
30
0
41
1
10
20.3048118071391
20
0.0835877247075132
30
0
41
1
10
20.8245650502815
20
-0.171486954578455
30
0
41
1
10
21.0833209421158
20
-0.298382954710121
30
0
41
1
10
21.8579948920074
20
-0.673561080902289
30
0
41
1
10
22.3722314234237
20
-0.916464816627354
30
0
41
1
10
23.1469070367119
20
-1.25686611314305
30
0
41
1
10
23.4056666378093
20
-1.36640933400568
30
0
41
1
10
23.8859709706529
20
-1.55964235256315
30
0
41
1
10
24.1077130302626
20
-1.64485133061245
30
0
41
1
10
24.3291288840151
20
-1.72518981057624
30
0
0
SPLINE
5
C3
100
AcDbEntity
8
1
62
256
6
ByLayer
370
13
48
1
60
0
100
AcDbSpline
70
4
71
3
72
16
73
12
40
0
40
0
40
0
40
0
40
0.0246252537079414
40
0.0246252537079414
40
0.349750169138628
40
0.349750169138628
40
0.512312626853973
40
0.512312626853973
40
0.674875084569318
40
0.674875084569318
40
1
40
1
40
1
40
1
41
1
10
24.3291288841797
20
-1.72518981063587
30
0
41
1
10
24.3686571725352
20
-1.73953224613965
30
0
41
1
10
24.4081750643144
20
-1.75371945296243
30
0
41
1
10
24.9691673368712
20
-1.95290276454585
30
0
41
1
10
25.4884992150592
20
-2.11092655148761
30
0
41
1
10
26.2710831619357
20
-2.29828757750565
30
0
41
1
10
26.5323353308572
20
-2.35233754202739
30
0
41
1
10
27.0519889195215
20
-2.44191728200678
30
0
41
1
10
27.3110822305604
20
-2.47755561385279
30
0
41
1
10
28.0878958412687
20
-2.55667500818078
30
0
41
1
10
28.6049395934487
20
-2.57246693179889
30
0
41
1
10
29.1252876432728
20
-2.54919882116752
30
0
0
SPLINE
5
C4
100
AcDbEntity
8
1
62
256
6
ByLayer
370
18
48
1
60
0
100
AcDbSpline
70
4
71
3
72
26
73
22
40
0
40
0
40
0
40
0
40
0.0625000000000001
40
0.0625000000000001
40
0.125
40
0.125
40
0.1875
40
0.1875
40
0.25
40
0.25
40
0.374999999999996
40
0.374999999999996
40
0.437499999999993
40
0.437499999999993
40
0.499999999999991
40
0.499999999999991
40
0.624999999999993
40
0.624999999999993
40
0.749999999999996
40
0.749999999999996
40
1
40
1
40
1
40
1
41
1
10
26.6849801368725
20
0.87281488015941
30
0
41
1
10
26.6811674053614
20
0.795498544564481
30
0
41
1
10
26.683020894663
20
0.716923120718633
30
0
41
1
10
26.6980469470123
20
0.557257066994652
30
0
41
1
10
26.7114408200294
20
0.475524986810427
30
0
41
1
10
26.7482275960473
20
0.315387633526456
30
0
41
1
10
26.7715903007115
20
0.236403908109878
30
0
41
1
10
26.8272001336773
20
0.0803761940617562
30
0
41
1
10
26.8597119072378
20
0.0028145544480651
30
0
41
1
10
26.9674546487593
20
-0.222939445714417
30
0
41
1
10
27.0521241457026
20
-0.363811141509558
30
0
41
1
10
27.1936412189857
20
-0.56423381675117
30
0
41
1
10
27.2435187213203
20
-0.629472187384067
30
0
41
1
10
27.3464834725668
20
-0.755031519975915
30
0
41
1
10
27.3994709799393
20
-0.815298035886286
30
0
41
1
10
27.5622855846851
20
-0.98966567960187
30
0
41
1
10
27.6759210878131
20
-1.09740783159302
30
0
41
1
10
27.9112316180622
20
-1.29946837195291
30
0
41
1
10
28.0335140274167
20
-1.39411866528377
30
0
41
1
10
28.4059673461916
20
-1.65721426772066
30
0
41
1
10
28.6612337258313
20
-1.80548962287062
30
0
41
1
10
28.9220004417865
20
-1.93234410441235
30
0
0
SPLINE
5
C5
100
AcDbEntity
8
1
62
256
6
ByLayer
370
18
48
1
60
0
100
AcDbSpline
70
4
71
3
72
54
73
50
40
0
40
0
40
0
40
0
40
0.062499999999992
40
0.062499999999992
40
0.124999999999984
40
0.124999999999984
40
0.156249999999979
40
0.156249999999979
40
0.187499999999974
40
0.187499999999974
40
0.218749999999969
40
0.218749999999969
40
0.249999999999964
40
0.249999999999964
40
0.265624999999962
40
0.265624999999962
40
0.281249999999959
40
0.281249999999959
40
0.296874999999957
40
0.296874999999957
40
0.312499999999954
40
0.312499999999954
40
0.328124999999952
40
0.328124999999952
40
0.343749999999949
40
0.343749999999949
40
0.374999999999943
40
0.374999999999943
40
0.406249999999937
40
0.406249999999937
40
0.437499999999931
40
0.437499999999931
40
0.441406249999932
40
0.441406249999932
40
0.445312499999932
40
0.445312499999932
40
0.453124999999933
40
0.453124999999933
40
0.468749999999935
40
0.468749999999935
40
0.499999999999939
40
0.499999999999939
40
0.624999999999954
40
0.624999999999954
40
0.749999999999969
40
0.749999999999969
40
0.874999999999985
40
0.874999999999985
40
1
40
1
40
1
40
1
41
1
10
4.03175836294852
20
-2.57405622370706
30
0
41
1
10
3.86153926954154
20
-2.57096395017615
30
0
41
1
10
3.69212351536996
20
-2.56220635531267
30
0
41
1
10
3.35573361535842
20
-2.53069968955893
30
0
41
1
10
3.18807176675577
20
-2.50786561742399
30
0
41
1
10
2.94435086083146
20
-2.45991875185109
30
0
41
1
10
2.86430246068329
20
-2.44163278786243
30
0
41
1
10
2.70736751000743
20
-2.39937096149271
30
0
41
1
10
2.63021405548835
20
-2.37530472077978
30
0
41
1
10
2.48224325894591
20
-2.32037235222026
30
0
41
1
10
2.41128347421568
20
-2.28953432776731
30
0
41
1
10
2.27829497029128
20
-2.21855352013498
30
0
41
1
10
2.2161387191139
20
-2.17852242933176
30
0
41
1
10
2.1341815372484
20
-2.10742548845121
30
0
41
1
10
2.10874356215274
20
-2.0817252294826
30
0
41
1
10
2.06470332875153
20
-2.02702661480922
30
0
41
1
10
2.04588312005041
20
-1.99789130523038
30
0
41
1
10
2.01674440052653
20
-1.93504257967439
30
0
41
1
10
2.00684415571465
20
-1.90206032813143
30
0
41
1
10
1.99817089618315
20
-1.83341582353231
30
0
41
1
10
1.99946065358603
20
-1.79709452046691
30
0
41
1
10
2.01432812944927
20
-1.72411052648596
30
0
41
1
10
2.02763129266279
20
-1.68781600145135
30
0
41
1
10
2.06492891914581
20
-1.61575062765556
30
0
41
1
10
2.08888938508702
20
-1.58026482578839
30
0
41
1
10
2.17082186494503
20
-1.47918248116997
30
0
41
1
10
2.24039404096919
20
-1.41656185870806
30
0
41
1
10
2.39063279821437
20
-1.30368099552422
30
0
41
1
10
2.47191691269973
20
-1.25264101040693
30
0
41
1
10
2.64239534567952
20
-1.1578479917664
30
0
41
1
10
2.7311921535746
20
-1.1144157322868
30
0
41
1
10
2.83308089151586
20
-1.06917875691275
30
0
41
1
10
2.84407817554347
20
-1.0635768663995
30
0
41
1
10
2.86760709466949
20
-1.0550488098242
30
0
41
1
10
2.88042947946337
20
-1.05242347730524
30
0
41
1
10
2.91791920187845
20
-1.04872221122864
30
0
41
1
10
2.94263912967139
20
-1.05139896952227
30
0
41
1
10
3.01698138817821
20
-1.05599158513735
30
0
41
1
10
3.06652926774095
20
-1.05930720368534
30
0
41
1
10
3.21513233855177
20
-1.07000558638811
30
0
41
1
10
3.31413178963132
20
-1.07813945358293
30
0
41
1
10
3.80826385127185
20
-1.12362025259915
30
0
41
1
10
4.20177754028379
20
-1.17557942965763
30
0
41
1
10
4.98229600651771
20
-1.3047392397954
30
0
41
1
10
5.36781017797568
20
-1.38167255232796
30
0
41
1
10
6.13051410691136
20
-1.55100258444728
30
0
41
1
10
6.50769107181847
20
-1.64338758192233
30
0
41
1
10
7.25568017749089
20
-1.83196256082849
30
0
41
1
10
7.62648740373402
20
-1.92812876758882
30
0
41
1
10
7.99546616478611
20
-2.01990741475342
30
0
0
SPLINE
5
C6
100
AcDbEntity
8
1
62
256
6
ByLayer
370
18
48
1
60
0
100
AcDbSpline
70
4
71
3
72
8
73
4
40
0
40
0
40
0
40
0
40
1
40
1
40
1
40
1
41
1
10
29.9900952443194
20
0.0953677816888217
30
0
41
1
10
29.9906637338635
20
0.0777115102065693
30
0
41
1
10
29.9944725765296
20
0.0554286600253135
30
0
41
1
10
29.9999624603369
20
0.0321384500389001
30
0
0
SPLINE
5
C7
100
AcDbEntity
8
1
62
256
6
ByLayer
370
13
48
1
60
0
100
AcDbSpline
70
4
71
3
72
8
73
4
40
0
40
0
40
0
40
0
40
1
40
1
40
1
40
1
41
1
10
4.13968675054929
20
-0.0074545254603606
30
0
41
1
10
4.16075375848556
20
-0.0177784893678279
30
0
41
1
10
4.18329113765898
20
-0.0287100344097269
30
0
41
1
10
4.20632056910654
20
-0.0399614307147544
30
0
0
SPLINE
5
C8
100
AcDbEntity
8
1
62
256
6
ByLayer
370
18
48
1
60
0
100
AcDbSpline
70
4
71
3
72
14
73
10
40
0
40
0
40
0
40
0
40
0.25
40
0.25
40
0.5
40
0.5
40
0.75
40
0.75
40
1
40
1
40
1
40
1
41
1
10
29.1331640675875
20
-2.45840484596962
30
0
41
1
10
29.1365555791988
20
-2.45773692013944
30
0
41
1
10
29.1393149572449
20
-2.45873969183086
30
0
41
1
10
29.1431791199648
20
-2.46507895994463
30
0
41
1
10
29.1442340855527
20
-2.47048911470466
30
0
41
1
10
29.143509460344
20
-2.48677953804147
30
0
41
1
10
29.1416571036716
20
-2.49764251963413
30
0
41
1
10
29.1351205716118
20
-2.52234180604373
30
0
41
1
10
29.1304736802227
20
-2.53606214458333
30
0
41
1
10
29.1252876432788
20
-2.54919882116724
30
0
0
SPLINE
5
C9
100
AcDbEntity
8
1
62
256
6
ByLayer
370
18
48
1
60
0
100
AcDbSpline
70
4
71
3
72
14
73
10
40
0
40
0
40
0
40
0
40
0.453875197275727
40
0.453875197275727
40
0.68081279591359
40
0.68081279591359
40
0.907750394551454
40
0.907750394551454
40
1
40
1
40
1
40
1
41
1
10
29.1331641447765
20
-2.45840484420268
30
0
41
1
10
28.6135559291497
20
-2.47029922717255
30
0
41
1
10
28.0970660610455
20
-2.44493805467883
30
0
41
1
10
27.3211595823399
20
-2.35407842541241
30
0
41
1
10
27.0623619739753
20
-2.31499121474749
30
0
41
1
10
26.5433575671267
20
-2.21947962539983
30
0
41
1
10
26.2824793534598
20
-2.16297626252947
30
0
41
1
10
25.9162922784985
20
-2.07252387546075
30
0
41
1
10
25.8105500906083
20
-2.04510393644185
30
0
41
1
10
25.7048625467067
20
-2.01645591457429
30
0
0
SPLINE
5
CA
100
AcDbEntity
8
1
62
256
6
ByLayer
370
13
48
1
60
0
100
AcDbSpline
70
4
71
3
72
20
73
16
40
0
40
0
40
0
40
0
40
0.140038840700094
40
0.140038840700094
40
0.227919983566689
40
0.227919983566689
40
0.315801126433286
40
0.315801126433286
40
0.49156341216648
40
0.49156341216648
40
0.579444555033076
40
0.579444555033076
40
0.667325697899672
40
0.667325697899672
40
1
40
1
40
1
40
1
41
1
10
25.7048628566484
20
-2.01645599858813
30
0
41
1
10
25.2905594024964
20
-1.90415351743047
30
0
41
1
10
24.8770956638468
20
-1.77297906877092
30
0
41
1
10
24.2019614000659
20
-1.53365776259525
30
0
41
1
10
23.9409240187213
20
-1.43488411023219
30
0
41
1
10
23.4221647335275
20
-1.22873219787672
30
0
41
1
10
23.163800649777
20
-1.12110541235646
30
0
41
1
10
22.3901305790734
20
-0.787879307341314
30
0
41
1
10
21.8762945667021
20
-0.551743781997146
30
0
41
1
10
21.1024248459804
20
-0.189173506132192
30
0
41
1
10
20.8439225558492
20
-0.0669796532115754
30
0
41
1
10
20.324812547576
20
0.177888561296072
30
0
41
1
10
20.063520461952
20
0.300974683703885
30
0
41
1
10
18.8198059304796
20
0.878893536368054
30
0
41
1
10
17.8491216040862
20
1.30639001420897
30
0
41
1
10
16.8636649686728
20
1.6500734156752
30
0
0
SPLINE
5
CB
100
AcDbEntity
8
1
62
256
6
ByLayer
370
18
48
1
60
0
100
AcDbSpline
70
4
71
3
72
8
73
4
40
0
40
0
40
0
40
0
40
1
40
1
40
1
40
1
41
1
10
29.9999624603369
20
0.0321384500389001
30
0
41
1
10
30.0000125182991
20
0.0107106424410688
30
0
41
1
10
30.0000125078997
20
-0.0107150939886651
30
0
41
1
10
29.999962460337
20
-0.0321384500039699
30
0
0
SPLINE
5
CC
100
AcDbEntity
8
1
62
256
6
ByLayer
370
18
48
1
60
0
100
AcDbSpline
70
4
71
3
72
10
73
6
40
0
40
0
40
0
40
0
40
0.5
40
0.5
40
1
40
1
40
1
40
1
41
1
10
29.2512380987326
20
-2.49562811748763
30
0
41
1
10
29.3621539325276
20
-2.19496852466463
30
0
41
1
10
29.4769314865773
20
-1.89577026343269
30
0
41
1
10
29.7127382286906
20
-1.29975182053278
30
0
41
1
10
29.8337916627374
20
-1.00296541650806
30
0
41
1
10
29.9571619616643
20
-0.708287365936627
30
0
0
SPLINE
5
CD
100
AcDbEntity
8
1
62
256
6
ByLayer
370
18
48
1
60
0
100
AcDbSpline
70
4
71
3
72
8
73
4
40
0
40
0
40
0
40
0
40
1
40
1
40
1
40
1
41
1
10
29.1128479386725
20
2.58066997167995
30
0
41
1
10
28.9580268715355
20
2.58743737793691
30
0
41
1
10
28.8033326219823
20
2.59075071259065
30
0
41
1
10
28.6486550140501
20
2.59062699413886
30
0
0
SPLINE
5
CE
100
AcDbEntity
8
1
62
256
6
ByLayer
370
18
48
1
60
0
100
AcDbSpline
70
4
71
3
72
26
73
22
40
0
40
0
40
0
40
0
40
0.0392677636132841
40
0.0392677636132841
40
0.199389803011069
40
0.199389803011069
40
0.279450822709961
40
0.279450822709961
40
0.359511842408853
40
0.359511842408853
40
0.519633881806639
40
0.519633881806639
40
0.599694901505534
40
0.599694901505534
40
0.639725411354981
40
0.639725411354981
40
0.679755921204427
40
0.679755921204427
40
0.839877960602214
40
0.839877960602214
40
1
40
1
40
1
40
1
41
1
10
13.8881932433985
20
-2.46209419605287
30
0
41
1
10
13.7612243203533
20
-2.48094879828642
30
0
41
1
10
13.6343207015322
20
-2.49759548263563
30
0
41
1
10
12.9899434243148
20
-2.57072487429275
30
0
41
1
10
12.4722830606277
20
-2.59206902942114
30
0
41
1
10
11.6891078952287
20
-2.56551871706384
30
0
41
1
10
11.4260539330934
20
-2.54677172601205
30
0
41
1
10
10.903431652041
20
-2.49041568425196
30
0
41
1
10
10.6433006955921
20
-2.45285557792533
30
0
41
1
10
9.86481688914614
20
-2.31357072887664
30
0
41
1
10
9.34835393641765
20
-2.18517735398572
30
0
41
1
10
8.57052238097765
20
-1.94661835090159
30
0
41
1
10
8.31077148604953
20
-1.85939437737383
30
0
41
1
10
7.91963001840875
20
-1.71787982969855
30
0
41
1
10
7.78896488745877
20
-1.66897893409069
30
0
41
1
10
7.52693217035599
20
-1.5678902696998
30
0
41
1
10
7.39552137477767
20
-1.51567630174603
30
0
41
1
10
6.74096882584618
20
-1.24869460075414
30
0
41
1
10
6.22175496805062
20
-1.01471574484862
30
0
41
1
10
5.1831139318364
20
-0.523452445490847
30
0
41
1
10
4.66345687613872
20
-0.26663392746326
30
0
41
1
10
4.13914187880033
20
-0.0072373854999626
30
0
0
SPLINE
5
CF
100
AcDbEntity
8
1
62
256
6
ByLayer
370
18
48
1
60
0
100
AcDbSpline
70
4
71
3
72
28
73
24
40
0
40
0
40
0
40
0
40
0.0733885735569271
40
0.0733885735569271
40
0.166049716201234
40
0.166049716201234
40
0.258710858845542
40
0.258710858845542
40
0.351372001489849
40
0.351372001489849
40
0.444033144134156
40
0.444033144134156
40
0.536694286778464
40
0.536694286778464
40
0.629355429422771
40
0.629355429422771
40
0.722016572067078
40
0.722016572067078
40
0.814677714711385
40
0.814677714711385
40
0.907338857355693
40
0.907338857355693
40
1
40
1
40
1
40
1
41
1
10
20.3837711710147
20
2.4537922619468
30
0
41
1
10
20.5380617905141
20
2.45410716082401
30
0
41
1
10
20.6922768675901
20
2.451603380047
30
0
41
1
10
21.0409479371438
20
2.43871811334412
30
0
41
1
10
21.2351855228463
20
2.4254670828316
30
0
41
1
10
21.62448524552
20
2.38877321873244
30
0
41
1
10
21.8193240535496
20
2.36528850185908
30
0
41
1
10
22.2094953528023
20
2.30942454963514
30
0
41
1
10
22.4043163635809
20
2.27758225203539
30
0
41
1
10
22.7935678413231
20
2.20273644201782
30
0
41
1
10
22.9880006945127
20
2.15980107397022
30
0
41
1
10
23.3766668073316
20
2.06476435738577
30
0
41
1
10
23.5714279535929
20
2.01350309005991
30
0
41
1
10
23.9611851458291
20
1.90433483419872
30
0
41
1
10
24.1562785821704
20
1.84564164172016
30
0
41
1
10
24.5453975868993
20
1.7192481682782
30
0
41
1
10
24.7397672477156
20
1.65208899156662
30
0
41
1
10
25.128347236204
20
1.51094300780807
30
0
41
1
10
25.3224588279356
20
1.43679094412528
30
0
41
1
10
25.7115652044996
20
1.28400962184625
30
0
41
1
10
25.9065035870702
20
1.20489494641527
30
0
41
1
10
26.2960734792116
20
1.04208508947482
30
0
41
1
10
26.4905470821212
20
0.958438892501022
30
0
41
1
10
26.6849801368725
20
0.872814880159467
30
0
0
SPLINE
5
D0
100
AcDbEntity
8
1
62
256
6
ByLayer
370
18
48
1
60
0
100
AcDbSpline
70
4
71
3
72
8
73
4
40
0
40
0
40
0
40
0
40
1
40
1
40
1
40
1
41
1
10
29.2359188308772
20
-1.32101441313284
30
0
41
1
10
29.1288980773888
20
-1.5226222595474
30
0
41
1
10
29.0242507177768
20
-1.72639163163768
30
0
41
1
10
28.9220004417866
20
-1.93234410441235
30
0
0
SPLINE
5
D1
100
AcDbEntity
8
1
62
256
6
ByLayer
370
18
48
1
60
0
100
AcDbSpline
70
4
71
3
72
10
73
6
40
0
40
0
40
0
40
0
40
0.5
40
0.5
40
1
40
1
40
1
40
1
41
1
10
29.2512380987337
20
2.4956281174849
30
0
41
1
10
29.3621421628413
20
2.19500042875771
30
0
41
1
10
29.4769397056895
20
1.89574682725271
30
0
41
1
10
29.7128314739219
20
1.29951879945656
30
0
41
1
10
29.8338709202694
20
1.00277610469459
30
0
41
1
10
29.9571619616643
20
0.708287365936599
30
0
0
SPLINE
5
D2
100
AcDbEntity
8
1
62
256
6
ByLayer
370
18
48
1
60
0
100
AcDbSpline
70
4
71
3
72
16
73
12
40
0
40
0
40
0
40
0
40
0.17667957103637
40
0.17667957103637
40
0.35335914207274
40
0.35335914207274
40
0.70671828414548
40
0.70671828414548
40
0.88339785518185
40
0.88339785518185
40
1
40
1
40
1
40
1
41
1
10
4.2063205691054
20
-0.039961430714186
30
0
41
1
10
4.46779691288089
20
-0.167709871873342
30
0
41
1
10
4.72953867662255
20
-0.295361488040413
30
0
41
1
10
5.24971886746721
20
-0.546215129894932
30
0
41
1
10
5.50866553572322
20
-0.669638300935077
30
0
41
1
10
6.28385776182108
20
-1.03046218069676
30
0
41
1
10
6.79853720727834
20
-1.2581614946987
30
0
41
1
10
7.57376312836718
20
-1.56844304291187
30
0
41
1
10
7.83268105053611
20
-1.66671355621617
30
0
41
1
10
8.26415431660763
20
-1.81974519822865
30
0
41
1
10
8.43649654064438
20
-1.87794755583565
30
0
41
1
10
8.6088851365366
20
-1.93297085608327
30
0
0
SPLINE
5
D3
100
AcDbEntity
8
1
62
256
6
ByLayer
370
13
48
1
60
0
100
AcDbSpline
70
4
71
3
72
18
73
14
40
0
40
0
40
0
40
0
40
0.0520528169688372
40
0.0520528169688372
40
0.358212649629702
40
0.358212649629702
40
0.511292565960136
40
0.511292565960136
40
0.66437248229057
40
0.66437248229057
40
0.970532314951439
40
0.970532314951439
40
1
40
1
40
1
40
1
41
1
10
8.60888449927427
20
-1.93297065268072
30
0
41
1
10
8.69770523176234
20
-1.96132061693288
30
0
41
1
10
8.78653827472476
20
-1.98882664441416
30
0
41
1
10
9.39723894407771
20
-2.17179972670775
30
0
41
1
10
9.91711143385925
20
-2.29744331534462
30
0
41
1
10
10.7008496175668
20
-2.43204844615795
30
0
41
1
10
10.9616866570914
20
-2.46778604542848
30
0
41
1
10
11.4805331482094
20
-2.52043175254354
30
0
41
1
10
11.739002315793
20
-2.53740337487352
30
0
41
1
10
12.5132474946057
20
-2.55997293898622
30
0
41
1
10
13.0279280758741
20
-2.53725464707546
30
0
41
1
10
13.5950223579094
20
-2.47172092414041
30
0
41
1
10
13.6448376451071
20
-2.46562437542065
30
0
41
1
10
13.6946825125634
20
-2.45918591737163
30
0
0
SPLINE
5
D4
100
AcDbEntity
8
1
62
256
6
ByLayer
370
18
48
1
60
0
100
AcDbSpline
70
4
71
3
72
10
73
6
40
0
40
0
40
0
40
0
40
0.5
40
0.5
40
1
40
1
40
1
40
1
41
1
10
4.09719786338434
20
0.0189726655337665
30
0
41
1
10
4.07805341951757
20
0.0337573909344258
30
0
41
1
10
4.06188391012725
20
0.0518042033369852
30
0
41
1
10
4.03832485009673
20
0.0937070113507161
30
0
41
1
10
4.03113929633994
20
0.117314038863412
30
0
41
1
10
4.03114616810981
20
0.141563605242254
30
0
0
SPLINE
5
D5
100
AcDbEntity
8
1
62
256
6
ByLayer
370
18
48
1
60
0
100
AcDbSpline
70
4
71
3
72
8
73
4
40
0
40
0
40
0
40
0
40
1
40
1
40
1
40
1
41
1
10
29.1252876432778
20
-2.5491988211698
30
0
41
1
10
29.1211446121868
20
-2.55969347442982
30
0
41
1
10
29.1169979953143
20
-2.57018391070344
30
0
41
1
10
29.1128479386725
20
-2.58066997167995
30
0
0
SPLINE
5
D6
100
AcDbEntity
8
1
62
256
6
ByLayer
370
18
48
1
60
0
100
AcDbSpline
70
4
71
3
72
16
73
12
40
0
40
0
40
0
40
0
40
0.249999999999997
40
0.249999999999997
40
0.374999999999997
40
0.374999999999997
40
0.499999999999998
40
0.499999999999998
40
0.749999999999999
40
0.749999999999999
40
1
40
1
40
1
40
1
41
1
10
7.99546616478611
20
1.77687575606768
30
0
41
1
10
7.67441766880324
20
1.87337182000604
30
0
41
1
10
7.35649168143507
20
1.96509706984654
30
0
41
1
10
6.88172782510173
20
2.08772845690763
30
0
41
1
10
6.72362375158531
20
2.12633491446363
30
0
41
1
10
6.40907682301292
20
2.19757903965368
30
0
41
1
10
6.25262045958888
20
2.22995304420527
30
0
41
1
10
5.78502903670733
20
2.31842463923795
30
0
41
1
10
5.47556880318928
20
2.36671544194158
30
0
41
1
10
4.86045318421284
20
2.43188023641574
30
0
41
1
10
4.55469024834656
20
2.44936382315589
30
0
41
1
10
4.25122419074424
20
2.44715673201
30
0
0
SPLINE
5
D7
100
AcDbEntity
8
1
62
256
6
ByLayer
370
13
48
1
60
0
100
AcDbSpline
70
4
71
3
72
8
73
4
40
0
40
0
40
0
40
0
40
1
40
1
40
1
40
1
41
1
10
4.13914187879953
20
-0.0072373854995647
30
0
41
1
10
4.1393231795596
20
-0.0073101539756237
30
0
41
1
10
4.13950480350809
20
-0.0073825349483627
30
0
41
1
10
4.13968675054926
20
-0.0074545254603606
30
0
0
SPLINE
5
D8
100
AcDbEntity
8
1
62
256
6
ByLayer
370
18
48
1
60
0
100
AcDbSpline
70
4
71
3
72
8
73
4
40
0
40
0
40
0
40
0
40
1
40
1
40
1
40
1
41
1
10
29.9900952443195
20
-0.0953677816887648
30
0
41
1
10
29.9906637338637
20
-0.0777115102014534
30
0
41
1
10
29.9944725765316
20
-0.055428660012808
30
0
41
1
10
29.9999624603416
20
-0.032138450018806
30
0
0
SPLINE
5
D9
100
AcDbEntity
8
1
62
256
6
ByLayer
370
18
48
1
60
0
100
AcDbSpline
70
4
71
3
72
72
73
68
40
0
40
0
40
0
40
0
40
0.0334829198298665
40
0.0334829198298665
40
0.0669658396597331
40
0.0669658396597331
40
0.1004487594896
40
0.1004487594896
40
0.133931679319466
40
0.133931679319466
40
0.150673139234399
40
0.150673139234399
40
0.167414599149332
40
0.167414599149332
40
0.200897518979198
40
0.200897518979198
40
0.234380438809065
40
0.234380438809065
40
0.251121898723998
40
0.251121898723998
40
0.267863358638932
40
0.267863358638932
40
0.301346278468797
40
0.301346278468797
40
0.334829198298663
40
0.334829198298663
40
0.351570658213596
40
0.351570658213596
40
0.368312118128529
40
0.368312118128529
40
0.401795037958394
40
0.401795037958394
40
0.43527795778826
40
0.43527795778826
40
0.468760877618126
40
0.468760877618126
40
0.502243797447992
40
0.502243797447992
40
0.535726717277857
40
0.535726717277857
40
0.569209637107723
40
0.569209637107723
40
0.602692556937589
40
0.602692556937589
40
0.636175476767454
40
0.636175476767454
40
0.66965839659732
40
0.66965839659732
40
0.703141316427186
40
0.703141316427186
40
0.736624236257051
40
0.736624236257051
40
0.770107156086917
40
0.770107156086917
40
0.803590075916783
40
0.803590075916783
40
0.837072995746649
40
0.837072995746649
40
0.870555915576514
40
0.870555915576514
40
0.90403883540638
40
0.90403883540638
40
0.937521755236246
40
0.937521755236246
40
0.971004675066111
40
0.971004675066111
40
1
40
1
40
1
40
1
41
1
10
7.99546616478611
20
2.01990741475339
30
0
41
1
10
8.21827539251677
20
2.08929535844686
30
0
41
1
10
8.44054342365638
20
2.15201082021258
30
0
41
1
10
8.88395510726758
20
2.26501251840031
30
0
41
1
10
9.10444758505386
20
2.31590203818348
30
0
41
1
10
9.54537322869413
20
2.40417947734525
30
0
41
1
10
9.76582161763136
20
2.441690772127
30
0
41
1
10
10.2058707728742
20
2.50401881662555
30
0
41
1
10
10.4258959087163
20
2.52850044257946
30
0
41
1
10
10.7568620163896
20
2.55487376939126
30
0
41
1
10
10.8672830423793
20
2.56197071615515
30
0
41
1
10
11.0881406204209
20
2.57276244633582
30
0
41
1
10
11.1985274894814
20
2.57644622789857
30
0
41
1
10
11.5307302418547
20
2.58215627971734
30
0
41
1
10
11.7534412510725
20
2.57899115175707
30
0
41
1
10
12.199507144167
20
2.5583335565762
30
0
41
1
10
12.4214160637964
20
2.54089165092719
30
0
41
1
10
12.7537466462772
20
2.50481348894599
30
0
41
1
10
12.8643835340881
20
2.49112499221889
30
0
41
1
10
13.0851965781298
20
2.46032286853031
30
0
41
1
10
13.1952778908659
20
2.44313335355977
30
0
41
1
10
13.525731885029
20
2.38697512826309
30
0
41
1
10
13.7461725819145
20
2.34343959149982
30
0
41
1
10
14.1862509169542
20
2.24335710984766
30
0
41
1
10
14.4061305959704
20
2.18692927781635
30
0
41
1
10
14.7370231860998
20
2.09414982770886
30
0
41
1
10
14.8474594172023
20
2.06183573349054
30
0
41
1
10
15.0684284413314
20
1.99417472057954
30
0
41
1
10
15.1788540104396
20
1.95867106147241
30
0
41
1
10
15.5109282830141
20
1.84837129718761
30
0
41
1
10
15.7338080831534
20
1.77001072068663
30
0
41
1
10
16.1797656105744
20
1.60250904743256
30
0
41
1
10
16.4014631262137
20
1.51405115557921
30
0
41
1
10
16.8442295574035
20
1.33120860987427
30
0
41
1
10
17.0649839541467
20
1.23629584015328
30
0
41
1
10
17.5051409757546
20
1.03929519884684
30
0
41
1
10
17.7254247553849
20
0.938865005129571
30
0
41
1
10
18.1654432419808
20
0.732391551492555
30
0
41
1
10
18.3851367668169
20
0.626223763201239
30
0
41
1
10
18.8259702296833
20
0.412158604991077
30
0
41
1
10
19.0469943353153
20
0.304070016818969
30
0
41
1
10
19.4893133245544
20
0.0836510877391561
30
0
41
1
10
19.7118686688654
20
-0.0264288070468695
30
0
41
1
10
20.1580816937167
20
-0.24732898526068
30
0
41
1
10
20.3797480367122
20
-0.357747487886627
30
0
41
1
10
20.8223911934893
20
-0.573927316437874
30
0
41
1
10
21.0433880232301
20
-0.679715056508996
30
0
41
1
10
21.4833829775463
20
-0.889412633461916
30
0
41
1
10
21.7034462846011
20
-0.991191077880728
30
0
41
1
10
22.1435560817362
20
-1.189046600924
30
0
41
1
10
22.3631779364352
20
-1.28587544537322
30
0
41
1
10
22.8037264364425
20
-1.4713198905184
30
0
41
1
10
23.0247434401566
20
-1.55983964451559
30
0
41
1
10
23.467053387734
20
-1.73039209113952
30
0
41
1
10
23.6890174789588
20
-1.81128811539202
30
0
41
1
10
24.1354542241079
20
-1.96281426785063
30
0
41
1
10
24.3576988172985
20
-2.03380356271666
30
0
41
1
10
24.8023255828308
20
-2.16351345599992
30
0
41
1
10
25.024879594996
20
-2.22214650448623
30
0
41
1
10
25.4693881725334
20
-2.32807886862295
30
0
41
1
10
25.6918302881788
20
-2.37491306157523
30
0
41
1
10
26.1381485038962
20
-2.45488312607344
30
0
41
1
10
26.3603623730559
20
-2.48841558084229
30
0
41
1
10
26.8047697973381
20
-2.54138620742987
30
0
41
1
10
27.0272032282747
20
-2.56082754486533
30
0
41
1
10
27.4418422979576
20
-2.5842642590944
30
0
41
1
10
27.6342216724547
20
-2.58985647902443
30
0
41
1
10
27.8272423130092
20
-2.59010544009689
30
0
0
SPLINE
5
DA
100
AcDbEntity
8
1
62
256
6
ByLayer
370
18
48
1
60
0
100
AcDbSpline
70
4
71
3
72
62
73
58
40
0
40
0
40
0
40
0
40
0.0116403324757257
40
0.0116403324757257
40
0.0482462460877358
40
0.0482462460877358
40
0.084852159699746
40
0.084852159699746
40
0.121458073311756
40
0.121458073311756
40
0.158063986923766
40
0.158063986923766
40
0.194669900535777
40
0.194669900535777
40
0.231275814147787
40
0.231275814147787
40
0.267881727759797
40
0.267881727759797
40
0.304487641371807
40
0.304487641371807
40
0.341093554983817
40
0.341093554983817
40
0.377699468595827
40
0.377699468595827
40
0.414305382207838
40
0.414305382207838
40
0.450911295819848
40
0.450911295819848
40
0.487517209431858
40
0.487517209431858
40
0.524123123043868
40
0.524123123043868
40
0.560729036655878
40
0.560729036655878
40
0.597334950267888
40
0.597334950267888
40
0.633940863879898
40
0.633940863879898
40
0.670546777491909
40
0.670546777491909
40
0.707152691103919
40
0.707152691103919
40
0.743758604715929
40
0.743758604715929
40
0.780364518327939
40
0.780364518327939
40
0.816970431939949
40
0.816970431939949
40
0.853576345551959
40
0.853576345551959
40
0.89018225916397
40
0.89018225916397
40
0.92678817277598
40
0.92678817277598
40
0.96339408638799
40
0.96339408638799
40
1
40
1
40
1
40
1
41
1
10
23.948507175704
20
-1.90668947456169
30
0
41
1
10
23.8865978370333
20
-1.92484818743853
30
0
41
1
10
23.8246672734485
20
-1.94258597626765
30
0
41
1
10
23.5678437857297
20
-2.01446304409475
30
0
41
1
10
23.3726858635475
20
-2.06580700402662
30
0
41
1
10
22.9826204502949
20
-2.16104574965735
30
0
41
1
10
22.7877855839234
20
-2.20395579789354
30
0
41
1
10
22.3984441975756
20
-2.27860055755846
30
0
41
1
10
22.2039583786689
20
-2.31029090530583
30
0
41
1
10
21.8148541228741
20
-2.36585299871274
30
0
41
1
10
21.620150085149
20
-2.38926233439253
30
0
41
1
10
21.2302056584074
20
-2.42585401891884
30
0
41
1
10
21.0351174636075
20
-2.439047207199
30
0
41
1
10
20.6455135474688
20
-2.45321431360398
30
0
41
1
10
20.4508414697554
20
-2.45522506348715
30
0
41
1
10
20.0618118154644
20
-2.45057283257148
30
0
41
1
10
19.8674005837115
20
-2.44345467092145
30
0
41
1
10
19.4779285668503
20
-2.41847144292674
30
0
41
1
10
19.2826494017657
20
-2.40033291016383
30
0
41
1
10
18.892744804956
20
-2.35355135021285
30
0
41
1
10
18.6979009899652
20
-2.32569294927021
30
0
41
1
10
18.3084925124953
20
-2.25972136251181
30
0
41
1
10
18.1139849837806
20
-2.2220376375596
30
0
41
1
10
17.7247730578341
20
-2.13830227911183
30
0
41
1
10
17.5299763655121
20
-2.09204736461476
30
0
41
1
10
17.1396780392643
20
-1.98991393157473
30
0
41
1
10
16.944631153865
20
-1.9337943555642
30
0
41
1
10
16.5549415274966
20
-1.81483135037928
30
0
41
1
10
16.3602377089198
20
-1.75203710004658
30
0
41
1
10
15.9710563054741
20
-1.6189408450004
30
0
41
1
10
15.776484985733
20
-1.54858470698744
30
0
41
1
10
15.386571873995
20
-1.40167888862246
30
0
41
1
10
15.1910900842169
20
-1.32510927249561
30
0
41
1
10
14.8012501973546
20
-1.16649617402294
30
0
41
1
10
14.60643790794
20
-1.08516732061173
30
0
41
1
10
14.2170654858416
20
-0.917855699095242
30
0
41
1
10
14.0225099908785
20
-0.8315962309307
30
0
41
1
10
13.6330052144638
20
-0.656454536671959
30
0
41
1
10
13.4380429175909
20
-0.567707992222324
30
0
41
1
10
13.0475367219289
20
-0.387641954405723
30
0
41
1
10
12.8528059331593
20
-0.296129168747086
30
0
41
1
10
12.4633623746814
20
-0.113461016198386
30
0
41
1
10
12.2687434067747
20
-0.0219220183357152
30
0
41
1
10
11.8796336800205
20
0.161403289974942
30
0
41
1
10
11.6849877842196
20
0.252855022536039
30
0
41
1
10
11.2950228608113
20
0.434295731834197
30
0
41
1
10
11.0996109422128
20
0.524665104509268
30
0
41
1
10
10.7106274696919
20
0.702780850825462
30
0
41
1
10
10.5164600902098
20
0.789977891662033
30
0
41
1
10
10.1287760793943
20
0.959912620561084
30
0
41
1
10
9.93527687843772
20
1.04282370832885
30
0
41
1
10
9.54828450530374
20
1.2046748939637
30
0
41
1
10
9.35476954607407
20
1.28348382889936
30
0
41
1
10
8.96748785490934
20
1.43534623181139
30
0
41
1
10
8.77392930710366
20
1.50862280470844
30
0
41
1
10
8.38540970872737
20
1.64739071603239
30
0
41
1
10
8.19061170152685
20
1.71360064221869
30
0
41
1
10
7.99546616478611
20
1.77687575606768
30
0
0
SPLINE
5
DB
100
AcDbEntity
8
1
62
256
6
ByLayer
370
18
48
1
60
0
100
AcDbSpline
70
4
71
3
72
8
73
4
40
0
40
0
40
0
40
0
40
1
40
1
40
1
40
1
41
1
10
29.9999624603369
20
0.0321384500389001
30
0
41
1
10
29.994914870669
20
0.0145545983546924
30
0
41
1
10
29.9871840095865
20
-0.003947611682463
30
0
41
1
10
29.9790556449657
20
-0.0172567640030081
30
0
0
SPLINE
5
DC
100
AcDbEntity
8
1
62
256
6
ByLayer
370
18
48
1
60
0
100
AcDbSpline
70
4
71
3
72
8
73
4
40
0
40
0
40
0
40
0
40
1
40
1
40
1
40
1
41
1
10
29.9571619616643
20
0.70828736593657
30
0
41
1
10
29.9725501398591
20
0.503672841372179
30
0
41
1
10
29.9835269793882
20
0.299366377631429
30
0
41
1
10
29.9900952443195
20
0.0953677816888217
30
0
0
SPLINE
5
DD
100
AcDbEntity
8
1
62
256
6
ByLayer
370
18
48
1
60
0
100
AcDbSpline
70
4
71
3
72
8
73
4
40
0
40
0
40
0
40
0
40
1
40
1
40
1
40
1
41
1
10
29.9571619616643
20
-0.708287365936599
30
0
41
1
10
29.972543257525
20
-0.503764354838296
30
0
41
1
10
29.9835240397284
20
-0.299457678224087
30
0
41
1
10
29.9900952443194
20
-0.0953677816888217
30
0
0
SPLINE
5
DE
100
AcDbEntity
8
1
62
256
6
ByLayer
370
18
48
1
60
0
100
AcDbSpline
70
4
71
3
72
12
73
8
40
0
40
0
40
0
40
0
40
0.25
40
0.25
40
0.5
40
0.5
40
1
40
1
40
1
40
1
41
1
10
4.03175836294832
20
-2.57405622370697
30
0
41
1
10
4.04294302406569
20
-2.55396148749961
30
0
41
1
10
4.05730618315434
20
-2.53496526352202
30
0
41
1
10
4.09002170001929
20
-2.50252003555943
30
0
41
1
10
4.10884346739701
20
-2.48858742238607
30
0
41
1
10
4.16765885672166
20
-2.45634270950103
30
0
41
1
10
4.21062743075692
20
-2.4468614741088
30
0
41
1
10
4.25122418981877
20
-2.44715673200318
30
0
0
SPLINE
5
DF
100
AcDbEntity
8
1
62
256
6
ByLayer
370
18
48
1
60
0
100
AcDbSpline
70
4
71
3
72
16
73
12
40
0
40
0
40
0
40
0
40
0.2849067790386
40
0.2849067790386
40
0.427360168557902
40
0.427360168557902
40
0.569813558077205
40
0.569813558077205
40
0.854720337115809
40
0.854720337115809
40
1
40
1
40
1
40
1
41
1
10
4.25122419061063
20
-2.44715673200901
30
0
41
1
10
4.55441466534131
20
-2.44936181886246
30
0
41
1
10
4.86130833849418
20
-2.43189279210625
30
0
41
1
10
5.32607150627484
20
-2.38250068791882
30
0
41
1
10
5.4816506249627
20
-2.36211889749617
30
0
41
1
10
5.79257482400914
20
-2.3146706151721
30
0
41
1
10
5.94815721780836
20
-2.2876404038164
30
0
41
1
10
6.41560821448042
20
-2.19894733584391
30
0
41
1
10
6.72813503080391
20
-2.12745661343541
30
0
41
1
10
7.20336638043025
20
-2.00462077762029
30
0
41
1
10
7.36444904562163
20
-1.96051402235304
30
0
41
1
10
7.52632898245409
20
-1.914459730304
30
0
0
SPLINE
5
E0
100
AcDbEntity
8
1
62
256
6
ByLayer
370
13
48
1
60
0
100
AcDbSpline
70
4
71
3
72
8
73
4
40
0
40
0
40
0
40
0
40
1
40
1
40
1
40
1
41
1
10
4.09719786338843
20
0.0189726655305265
30
0
41
1
10
4.11019803739256
20
0.008952355967665
30
0
41
1
10
4.12430943468493
20
9.18052959946E-05
30
0
41
1
10
4.13968675054929
20
-0.0074545254603606
30
0
0
SPLINE
5
E1
100
AcDbEntity
8
1
62
256
6
ByLayer
370
18
48
1
60
0
100
AcDbSpline
70
4
71
3
72
20
73
16
40
0
40
0
40
0
40
0
40
0.19045947076878
40
0.19045947076878
40
0.380918941537559
40
0.380918941537559
40
0.571378412306339
40
0.571378412306339
40
0.761837883075118
40
0.761837883075118
40
0.857067618459508
40
0.857067618459508
40
0.952297353843898
40
0.952297353843898
40
1
40
1
40
1
40
1
41
1
10
7.99546616478611
20
-2.01990741475342
30
0
41
1
10
8.21827539251677
20
-2.08929535844686
30
0
41
1
10
8.44054342365638
20
-2.15201082021258
30
0
41
1
10
8.88395510726758
20
-2.26501251840031
30
0
41
1
10
9.10444758505386
20
-2.31590203818348
30
0
41
1
10
9.5453732286941
20
-2.40417947734525
30
0
41
1
10
9.76582161763136
20
-2.441690772127
30
0
41
1
10
10.2058707728742
20
-2.50401881662555
30
0
41
1
10
10.4258959087162
20
-2.52850044257946
30
0
41
1
10
10.7568620163896
20
-2.55487376939126
30
0
41
1
10
10.8672830423793
20
-2.56197071615515
30
0
41
1
10
11.0881406204209
20
-2.57276244633582
30
0
41
1
10
11.1985274894814
20
-2.57644622789857
30
0
41
1
10
11.3647309354931
20
-2.57930300823048
30
0
41
1
10
11.4202780740267
20
-2.57981909057273
30
0
41
1
10
11.4758886922649
20
-2.57989481141607
30
0
0
SPLINE
5
E2
100
AcDbEntity
8
1
62
256
6
ByLayer
370
18
48
1
60
0
100
AcDbSpline
70
4
71
3
72
22
73
18
40
0
40
0
40
0
40
0
40
0.121430702489262
40
0.121430702489262
40
0.246940602133652
40
0.246940602133652
40
0.372450501778041
40
0.372450501778041
40
0.497960401422431
40
0.497960401422431
40
0.623470301066823
40
0.623470301066823
40
0.748980200711216
40
0.748980200711216
40
0.874490100355608
40
0.874490100355608
40
1
40
1
40
1
40
1
41
1
10
23.9339972619566
20
1.89442314411417
30
0
41
1
10
24.1499006394878
20
1.96742223408631
30
0
41
1
10
24.3649242243867
20
2.03591141328928
30
0
41
1
10
24.8023255828308
20
2.16351345599992
30
0
41
1
10
25.024879594996
20
2.22214650448623
30
0
41
1
10
25.4693881725334
20
2.32807886862295
30
0
41
1
10
25.6918302881788
20
2.37491306157526
30
0
41
1
10
26.1381485038962
20
2.45488312607344
30
0
41
1
10
26.3603623730558
20
2.48841558084229
30
0
41
1
10
26.8047697973381
20
2.54138620742987
30
0
41
1
10
27.0272032282747
20
2.56082754486533
30
0
41
1
10
27.4716243793816
20
2.58594763671729
30
0
41
1
10
27.6937694542571
20
2.59146090860932
30
0
41
1
10
28.140054820727
20
2.58821278250213
30
0
41
1
10
28.3624482930566
20
2.57944897184589
30
0
41
1
10
28.8067653475714
20
2.5478570755277
30
0
41
1
10
29.0291003945016
20
2.52522150625543
30
0
41
1
10
29.2512380987375
20
2.49562811747441
30
0
0
SPLINE
5
E3
100
AcDbEntity
8
1
62
256
6
ByLayer
370
13
48
1
60
0
100
AcDbSpline
70
4
71
3
72
30
73
26
40
0
40
0
40
0
40
0
40
0.125
40
0.125
40
0.1875
40
0.1875
40
0.25
40
0.25
40
0.375
40
0.375
40
0.4375
40
0.4375
40
0.500000000000001
40
0.500000000000001
40
0.625000000000001
40
0.625000000000001
40
0.6875
40
0.6875
40
0.75
40
0.75
40
0.875
40
0.875
40
0.9375
40
0.9375
40
1
40
1
40
1
40
1
41
1
10
4.25036877321176
20
0.0479695189401923
30
0
41
1
10
4.25043863737244
20
0.207709113691664
30
0
41
1
10
4.25050078480231
20
0.36528573887955
30
0
41
1
10
4.25058567134747
20
0.598448968444245
30
0
41
1
10
4.25061263267855
20
0.675841163838612
30
0
41
1
10
4.2506633556828
20
0.82675878970295
30
0
41
1
10
4.25068724287388
20
0.900612620094563
30
0
41
1
10
4.25075540575645
20
1.11745295841496
30
0
41
1
10
4.25079627191636
20
1.25597302233601
30
0
41
1
10
4.25085340889041
20
1.45329913405658
30
0
41
1
10
4.25087155235872
20
1.51661740998878
30
0
41
1
10
4.2509065204444
20
1.63837991672222
30
0
41
1
10
4.25092340916098
20
1.69704288936387
30
0
41
1
10
4.2509720299449
20
1.86342373855126
30
0
41
1
10
4.25100186659768
20
1.96193100909284
30
0
41
1
10
4.25104434533336
20
2.09146157190085
30
0
41
1
10
4.25105810928974
20
2.13157886849839
30
0
41
1
10
4.25108492286745
20
2.20549546957841
30
0
41
1
10
4.25109793339112
20
2.23915894920887
30
0
41
1
10
4.25113505958853
20
2.32851139453186
30
0
41
1
10
4.2511574512622
20
2.37305914663835
30
0
41
1
10
4.25118657227608
20
2.41786307922908
30
0
41
1
10
4.25119551842897
20
2.42910245308792
30
0
41
1
10
4.25121151658817
20
2.44395784501552
30
0
41
1
10
4.25121849415092
20
2.44748262313846
30
0
41
1
10
4.25122418981167
20
2.44715673200534
30
0
0
SPLINE
5
E4
100
AcDbEntity
8
1
62
256
6
ByLayer
370
18
48
1
60
0
100
AcDbSpline
70
4
71
3
72
10
73
6
40
0
40
0
40
0
40
0
40
0.5
40
0.5
40
1
40
1
40
1
40
1
41
1
10
28.9885038080343
20
0.729399151900139
30
0
41
1
10
29.1500754633551
20
0.724745270668507
30
0
41
1
10
29.3116364994473
20
0.720185111807183
30
0
41
1
10
29.6344466726408
20
0.713817528172228
30
0
41
1
10
29.7958325631617
20
0.710803155602747
30
0
41
1
10
29.9571619616643
20
0.70828736593657
30
0
0
SPLINE
5
E5
100
AcDbEntity
8
1
62
256
6
ByLayer
370
18
48
1
60
0
100
AcDbSpline
70
4
71
3
72
8
73
4
40
0
40
0
40
0
40
0
40
1
40
1
40
1
40
1
41
1
10
29.2512380987363
20
-2.49562811747546
30
0
41
1
10
29.2007174762741
20
-2.5374938091588
30
0
41
1
10
29.1546093297832
20
-2.56634538506685
30
0
41
1
10
29.1128479386725
20
-2.58066997167995
30
0
0
SPLINE
5
E6
100
AcDbEntity
8
1
62
256
6
ByLayer
370
13
48
1
60
0
100
AcDbSpline
70
4
71
3
72
8
73
4
40
0
40
0
40
0
40
0
40
1
40
1
40
1
40
1
41
1
10
4.25036877321179
20
0.0479695189401923
30
0
41
1
10
4.21195774991313
20
0.0587927288626702
30
0
41
1
10
4.17446411448782
20
0.0693519909207794
30
0
41
1
10
4.13968675054929
20
0.0794476903953409
30
0
0
SPLINE
5
E7
100
AcDbEntity
8
1
62
256
6
ByLayer
370
18
48
1
60
0
100
AcDbSpline
70
4
71
3
72
8
73
4
40
0
40
0
40
0
40
0
40
1
40
1
40
1
40
1
41
1
10
29.2512380987365
20
2.49562811747523
30
0
41
1
10
29.2007174762742
20
2.53749380915869
30
0
41
1
10
29.1546093297832
20
2.56634538506683
30
0
41
1
10
29.1128479386725
20
2.58066997167995
30
0
0
SPLINE
5
E8
100
AcDbEntity
8
1
62
256
6
ByLayer
370
18
48
1
60
0
100
AcDbSpline
70
4
71
3
72
31
73
27
40
0
40
0
40
0
40
0
40
0.249999999999988
40
0.249999999999988
40
0.374999999999987
40
0.374999999999987
40
0.499999999999985
40
0.499999999999985
40
0.624999999999984
40
0.624999999999984
40
0.749999999999983
40
0.749999999999983
40
0.812499999999987
40
0.812499999999987
40
0.828124999999988
40
0.828124999999988
40
0.835937499999989
40
0.835937499999989
40
0.843749999999989
40
0.843749999999989
40
0.85156249999999
40
0.85156249999999
40
0.85937499999999
40
0.874999999999991
40
0.874999999999991
40
1
40
1
40
1
40
1
41
1
10
26.6849801368725
20
0.872814880159524
30
0
41
1
10
26.8847190582459
20
0.715818299949291
30
0
41
1
10
27.0921672041544
20
0.579595890380517
30
0
41
1
10
27.4158741168648
20
0.40903971599468
30
0
41
1
10
27.5263319096465
20
0.358298302453676
30
0
41
1
10
27.7464924216604
20
0.271422701263475
30
0
41
1
10
27.856849047878
20
0.235017445184155
30
0
41
1
10
28.0781582284498
20
0.17737098106835
30
0
41
1
10
28.1891117076477
20
0.156153306701867
30
0
41
1
10
28.41173758168
20
0.13201155844294
30
0
41
1
10
28.5220505954064
20
0.129335440100277
30
0
41
1
10
28.6840653177287
20
0.141324361610117
30
0
41
1
10
28.7376467683293
20
0.148002299579076
30
0
41
1
10
28.8037546832168
20
0.159956813798971
30
0
41
1
10
28.8169265125477
20
0.162521476727818
30
0
41
1
10
28.8367020450455
20
0.166306346398386
30
0
41
1
10
28.8432854228986
20
0.167715874290252
30
0
41
1
10
28.8555152503731
20
0.172749656839812
30
0
41
1
10
28.8611680826434
20
0.17668270362114
30
0
41
1
10
28.8691632275528
20
0.18846112112513
30
0
41
1
10
28.8703922079312
20
0.196466911267095
30
0
41
1
10
28.8729398484069
20
0.212157640949272
30
0
41
1
10
28.8766190207378
20
0.235757398851064
30
0
41
1
10
28.8798790638352
20
0.259542237056394
30
0
41
1
10
28.8978109883144
20
0.402800031442041
30
0
41
1
10
28.9022586663165
20
0.534599083191608
30
0
41
1
10
28.8986581446291
20
0.666660732388465
30
0
0
SPLINE
5
E9
100
AcDbEntity
8
1
62
256
6
ByLayer
370
18
48
1
60
0
100
AcDbSpline
70
4
71
3
72
14
73
10
40
0
40
0
40
0
40
0
40
0.25
40
0.25
40
0.5
40
0.5
40
0.75
40
0.75
40
1
40
1
40
1
40
1
41
1
10
4.25122418981175
20
2.44715673200312
30
0
41
1
10
4.23090729933185
20
2.44700896842693
30
0
41
1
10
4.21042852091034
20
2.44921218896675
30
0
41
1
10
4.1690976415079
20
2.45915120172748
30
0
41
1
10
4.14830763765588
20
2.4669782340996
30
0
41
1
10
4.10903463889764
20
2.48845642393775
30
0
41
1
10
4.09019166405562
20
2.50237793234319
30
0
41
1
10
4.05741907911644
20
2.53482707112687
30
0
41
1
10
4.04299860773835
20
2.55386162401487
30
0
41
1
10
4.03175836294852
20
2.57405622370706
30
0
0
SPLINE
5
EA
100
AcDbEntity
8
1
62
256
6
ByLayer
370
18
48
1
60
0
100
AcDbSpline
70
4
71
3
72
34
73
30
40
0
40
0
40
0
40
0
40
0.12499999999999
40
0.12499999999999
40
0.24999999999998
40
0.24999999999998
40
0.312499999999975
40
0.312499999999975
40
0.374999999999971
40
0.374999999999971
40
0.406249999999972
40
0.406249999999972
40
0.437499999999974
40
0.437499999999974
40
0.468749999999975
40
0.468749999999975
40
0.499999999999977
40
0.499999999999977
40
0.531249999999978
40
0.531249999999978
40
0.562499999999979
40
0.562499999999979
40
0.624999999999982
40
0.624999999999982
40
0.749999999999988
40
0.749999999999988
40
0.874999999999994
40
0.874999999999994
40
1
40
1
40
1
40
1
41
1
10
29.2359188308772
20
-1.32101441313281
30
0
41
1
10
29.1414839701089
20
-1.29222597613446
30
0
41
1
10
29.0465646882954
20
-1.2547518495708
30
0
41
1
10
28.8605049227613
20
-1.16293760728823
30
0
41
1
10
28.7696274187194
20
-1.10917603256797
30
0
41
1
10
28.6382532309338
20
-1.01049909069192
30
0
41
1
10
28.5955062931365
20
-0.974674475379089
30
0
41
1
10
28.5146367721007
20
-0.895043561325764
30
0
41
1
10
28.4768843165768
20
-0.852000281871682
30
0
41
1
10
28.4292683755203
20
-0.778443916909964
30
0
41
1
10
28.4146958039036
20
-0.751856020193543
30
0
41
1
10
28.3926889495876
20
-0.696201822213368
30
0
41
1
10
28.3852543167104
20
-0.666825515912137
30
0
41
1
10
28.3831048016802
20
-0.609664705461
30
0
41
1
10
28.3887905337331
20
-0.582455150324364
30
0
41
1
10
28.4112759683393
20
-0.537390998550535
30
0
41
1
10
28.427571599833
20
-0.519438701905273
30
0
41
1
10
28.4639731227792
20
-0.491249214309477
30
0
41
1
10
28.4845300155856
20
-0.480566354760811
30
0
41
1
10
28.5269389500912
20
-0.464128525281552
30
0
41
1
10
28.5489444230532
20
-0.458274374640496
30
0
41
1
10
28.6165602750593
20
-0.445433839146858
30
0
41
1
10
28.6636355986071
20
-0.443178137121379
30
0
41
1
10
28.8045683818073
20
-0.447197164922613
30
0
41
1
10
28.9003373913931
20
-0.463963957917059
30
0
41
1
10
29.0919394451208
20
-0.513351973211911
30
0
41
1
10
29.1871779517152
20
-0.546135669867539
30
0
41
1
10
29.3766495521017
20
-0.62616205664014
30
0
41
1
10
29.4698830339108
20
-0.67291369862059
30
0
41
1
10
29.5608578245177
20
-0.728335818189692
30
0
0
SPLINE
5
EB
100
AcDbEntity
8
1
62
256
6
ByLayer
370
18
48
1
60
0
100
AcDbSpline
70
4
71
3
72
16
73
12
40
0
40
0
40
0
40
0
40
0.282462556276876
40
0.282462556276876
40
0.564925112553752
40
0.564925112553752
40
0.70615639069219
40
0.70615639069219
40
0.847387668830629
40
0.847387668830629
40
1
40
1
40
1
40
1
41
1
10
28.9220004417866
20
-1.93234410441235
30
0
41
1
10
28.9214944497102
20
-2.02468660290535
30
0
41
1
10
28.9254838041539
20
-2.10668283555287
30
0
41
1
10
28.9424058668275
20
-2.24494351336014
30
0
41
1
10
28.9552625607948
20
-2.30167070702623
30
0
41
1
10
28.9815981938976
20
-2.3684051893286
30
0
41
1
10
28.9916149700327
20
-2.38764231221259
30
0
41
1
10
29.0139254689225
20
-2.41942083856844
30
0
41
1
10
29.0261671186442
20
-2.43194207035702
30
0
41
1
10
29.0539304687005
20
-2.45125630701608
30
0
41
1
10
29.0696296007604
20
-2.4575264491954
30
0
41
1
10
29.0866773690009
20
-2.46005653892905
30
0
0
SPLINE
5
EC
100
AcDbEntity
8
1
62
256
6
ByLayer
370
18
48
1
60
0
100
AcDbSpline
70
4
71
3
72
21
73
17
40
0
40
0
40
0
40
0
40
0.0858768120170229
40
0.154352089964256
40
0.205433736480455
40
0.265632657798669
40
0.322194470434395
40
0.379617928143067
40
0.441518140687949
40
0.502251710558217
40
0.609563138910407
40
0.722914922007017
40
0.769839904603798
40
0.833339251822706
40
0.922051992085808
40
1
40
1
40
1
40
1
41
1
10
12.4847728365343
20
-2.45116040300093
30
0
41
1
10
12.7110597334095
20
-2.45130404470484
30
0
41
1
10
13.1178130623682
20
-2.45159062402851
30
0
41
1
10
13.659347088456
20
-2.45129859488256
30
0
41
1
10
14.1331084735838
20
-2.45222178170934
30
0
41
1
10
14.5755184889561
20
-2.4526775158196
30
0
41
1
10
15.0346326579645
20
-2.45229139460312
30
0
41
1
10
15.4982380517631
20
-2.45241344027878
30
0
41
1
10
15.9728403613599
20
-2.45315559702809
30
0
41
1
10
16.5789387816532
20
-2.45212251780524
30
0
41
1
10
17.3206568549633
20
-2.45462253108391
30
0
41
1
10
18.0259711352876
20
-2.45236592610993
30
0
41
1
10
18.615807718482
20
-2.45386476678934
30
0
41
1
10
19.1406892609803
20
-2.45436930088843
30
0
41
1
10
19.7473587066244
20
-2.45461953249372
30
0
41
1
10
20.1866355031065
20
-2.45453060152573
30
0
41
1
10
20.3920859147816
20
-2.454430388823
30
0
0
SPLINE
5
ED
100
AcDbEntity
8
1
62
256
6
ByLayer
370
18
48
1
60
0
100
AcDbSpline
70
4
71
2
72
6
73
3
40
0
40
0
40
0
40
1
40
1
40
1
41
1
10
4.5225935363936
20
2.44429532918824
30
0
41
1
10
4.38683325288559
20
2.44340578131406
30
0
41
1
10
4.25120158681432
20
2.44162652099811
30
0
0
SPLINE
5
EE
100
AcDbEntity
8
1
62
256
6
ByLayer
370
18
48
1
60
0
100
AcDbSpline
70
4
71
2
72
6
73
3
40
0
40
0
40
0
40
1
40
1
40
1
41
1
10
28.7248694567118
20
-2.46010877308362
30
0
41
1
10
28.9094088035383
20
-2.45998731599928
30
0
41
1
10
29.0938292323312
20
-2.46004481084123
30
0
0
SPLINE
5
EF
100
AcDbEntity
8
1
62
256
6
ByLayer
370
18
48
1
60
0
100
AcDbSpline
70
4
71
3
72
21
73
17
40
0
40
0
40
0
40
0
40
0.0651515477202853
40
0.149558744837235
40
0.208086692142521
40
0.251125121709932
40
0.293847979565625
40
0.336491241710852
40
0.440851262462624
40
0.556719405770589
40
0.670442588196205
40
0.783867234468418
40
0.881480149704091
40
0.929478803664103
40
0.996025506311866
40
1
40
1
40
1
40
1
41
1
10
20.3833767441808
20
2.45428898551165
30
0
41
1
10
20.2422870657863
20
2.45415866770918
30
0
41
1
10
19.9183825279517
20
2.45388749165727
30
0
41
1
10
19.4675638937084
20
2.45531069328294
30
0
41
1
10
19.0646967074047
20
2.45406924146758
30
0
41
1
10
18.7522751820125
20
2.45390130633592
30
0
41
1
10
18.4741196654198
20
2.45353849731436
30
0
41
1
10
18.0631113450667
20
2.45254253942318
30
0
41
1
10
17.4936523219971
20
2.45433072674467
30
0
41
1
10
16.770210054694
20
2.45235932765542
30
0
41
1
10
16.0271293504034
20
2.45320387409049
30
0
41
1
10
15.3235948133345
20
2.45212914465452
30
0
41
1
10
14.7624444479849
20
2.45252252899618
30
0
41
1
10
14.3028312040832
20
2.45258409265088
30
0
41
1
10
14.0461107908818
20
2.45191998522148
30
0
41
1
10
13.8933453026153
20
2.45171421620873
30
0
41
1
10
13.8847355779951
20
2.45170318971299
30
0
0
SPLINE
5
F0
100
AcDbEntity
8
1
62
256
6
ByLayer
370
18
48
1
60
0
100
AcDbSpline
70
4
71
2
72
6
73
3
40
0
40
0
40
0
40
1
40
1
40
1
41
1
10
4.32847102906322
20
-2.44256795759151
30
0
41
1
10
4.42466410019367
20
-2.44364940595764
30
0
41
1
10
4.5209222310819
20
-2.4442808027801
30
0
0
LINE
5
7B
100
AcDbEntity
8
SK1
62
256
6
ByLayer
370
18
48
1
60
0
100
AcDbLine
10
-36
20
2.065
30
0
11
-36
21
-0.969866
31
0
39
0
210
0
220
0
230
1
0
LINE
5
7D
100
AcDbEntity
8
SK1
62
256
6
ByLayer
370
18
48
1
60
0
100
AcDbLine
10
-35.065
20
3
30
0
11
-35.065
21
-3
31
0
39
0
210
0
220
0
230
1
0
LINE
5
7E
100
AcDbEntity
8
SK1
62
256
6
ByLayer
370
18
48
1
60
0
100
AcDbLine
10
0
20
-3
30
0
11
0
21
3
31
0
39
0
210
0
220
0
230
1
0
LINE
5
7F
100
AcDbEntity
8
SK1
62
256
6
ByLayer
370
13
48
1
60
0
100
AcDbLine
10
-35.75
20
-1.171666
30
0
11
-35.75
21
-2.149637
31
0
39
0
210
0
220
0
230
1
0
LINE
5
80
100
AcDbEntity
8
SK1
62
256
6
ByLayer
370
18
48
1
60
0
100
AcDbLine
10
-36
20
-2.065
30
0
11
-36
21
-1.947827
31
0
39
0
210
0
220
0
230
1
0
LINE
5
81
100
AcDbEntity
8
SK1
62
256
6
ByLayer
370
18
48
1
60
0
100
AcDbLine
10
-36
20
-0.969853
30
0
11
-36
21
-1.947827
31
0
39
0
210
0
220
0
230
1
0
LINE
5
82
100
AcDbEntity
8
SK1
62
256
6
ByLayer
370
18
48
1
60
0
100
AcDbLine
10
-35.65
20
-2.187363
30
0
11
-35.65
21
-1.339796
31
0
39
0
210
0
220
0
230
1
0
LINE
5
83
100
AcDbEntity
8
1
62
256
6
ByLayer
370
18
48
1
60
0
100
AcDbLine
10
4.031754
20
-2.57523
30
0
11
4.031758
21
-2.574056
31
0
39
0
210
0
220
0
230
1
0
LINE
5
84
100
AcDbEntity
8
1
62
256
6
ByLayer
370
13
48
1
60
0
100
AcDbLine
10
28.988504
20
0.729399
30
0
11
29.990095
21
0.095368
31
0
39
0
210
0
220
0
230
1
0
LINE
5
85
100
AcDbEntity
8
1
62
256
6
ByLayer
370
13
48
1
60
0
100
AcDbLine
10
28.898658
20
0.666661
30
0
11
29.979056
21
-0.017257
31
0
39
0
210
0
220
0
230
1
0
LINE
5
86
100
AcDbEntity
8
1
62
256
6
ByLayer
370
13
48
1
60
0
100
AcDbLine
10
1.088221
20
2.573398
30
0
11
1.088221
21
-2.573398
31
0
39
0
210
0
220
0
230
1
0
LINE
5
87
100
AcDbEntity
8
1
62
256
6
ByLayer
370
18
48
1
60
0
100
AcDbLine
10
0
20
-3
30
0
11
0
21
3
31
0
39
0
210
0
220
0
230
1
0
LINE
5
88
100
AcDbEntity
8
1
62
256
6
ByLayer
370
13
48
1
60
0
100
AcDbLine
10
0.543861
20
2.786699
30
0
11
0.543861
21
-2.786699
31
0
39
0
210
0
220
0
230
1
0
LINE
5
89
100
AcDbEntity
8
80
62
256
6
ByLayer
370
18
48
1
60
0
100
AcDbLine
10
0
20
0
30
0
11
-5
21
0
31
0
39
0
210
0
220
0
230
1
0
LINE
5
8A
100
AcDbEntity
8
4
62
256
6
ByLayer
370
18
48
0.05
60
0
100
AcDbLine
10
30
20
0
30
0
11
0
21
0
31
0
39
0
210
0
220
0
230
1
0
LINE
5
8C
100
AcDbEntity
8
SK4
62
256
6
ByLayer
370
18
48
0.05
60
0
100
AcDbLine
10
35
20
0
30
0
11
-41
21
0
31
0
39
0
210
0
220
0
230
1
0
LINE
5
8E
100
AcDbEntity
8
SK1
62
256
6
ByLayer
370
18
48
1
60
0
100
AcDbLine
10
-35.065
20
-3
30
0
11
0
21
-3
31
0
39
0
210
0
220
0
230
1
0
LINE
5
8F
100
AcDbEntity
8
SK1
62
256
6
ByLayer
370
18
48
1
60
0
100
AcDbLine
10
0
20
3
30
0
11
-35.065
21
3
31
0
39
0
210
0
220
0
230
1
0
LINE
5
90
100
AcDbEntity
8
SK1
62
256
6
ByLayer
370
18
48
1
60
0
100
AcDbLine
10
-36
20
-2.065
30
0
11
-35.065
21
-3
31
0
39
0
210
0
220
0
230
1
0
LINE
5
91
100
AcDbEntity
8
SK1
62
256
6
ByLayer
370
18
48
1
60
0
100
AcDbLine
10
-35.065
20
3
30
0
11
-36
21
2.065
31
0
39
0
210
0
220
0
230
1
0
LINE
5
92
100
AcDbEntity
8
1
62
256
6
ByLayer
370
18
48
1
60
0
100
AcDbLine
10
1.088221
20
-2.573398
30
0
11
4.031753
21
-2.575238
31
0
39
0
210
0
220
0
230
1
0
LINE
5
93
100
AcDbEntity
8
1
62
256
6
ByLayer
370
18
48
1
60
0
100
AcDbLine
10
11.484206
20
-2.579896
30
0
11
12.300055
21
-2.580406
31
0
39
0
210
0
220
0
230
1
0
LINE
5
94
100
AcDbEntity
8
1
62
256
6
ByLayer
370
18
48
1
60
0
100
AcDbLine
10
27.834264
20
-2.590114
30
0
11
28.650213
21
-2.590624
31
0
39
0
210
0
220
0
230
1
0
LINE
5
95
100
AcDbEntity
8
1
62
256
6
ByLayer
370
18
48
1
60
0
100
AcDbLine
10
28.650984
20
2.590625
30
0
11
27.834264
21
2.590114
31
0
39
0
210
0
220
0
230
1
0
LINE
5
96
100
AcDbEntity
8
1
62
256
6
ByLayer
370
18
48
1
60
0
100
AcDbLine
10
12.300027
20
2.580405
30
0
11
11.484206
21
2.579896
31
0
39
0
210
0
220
0
230
1
0
LINE
5
97
100
AcDbEntity
8
1
62
256
6
ByLayer
370
18
48
1
60
0
100
AcDbLine
10
4.031753
20
2.575238
30
0
11
1.088221
21
2.573398
31
0
39
0
210
0
220
0
230
1
0
LINE
5
98
100
AcDbEntity
8
81
62
256
6
ByLayer
370
18
48
1
60
0
100
AcDbLine
10
30
20
0
30
0
11
35
21
0
31
0
39
0
210
0
220
0
230
1
0
LINE
5
99
100
AcDbEntity
8
SK2
62
256
6
ByLayer
370
13
48
1
60
0
100
AcDbLine
10
-44.625163
20
32.117107
30
0
11
-44.625163
21
-11.75
31
0
39
0
210
0
220
0
230
1
0
LINE
5
9B
100
AcDbEntity
8
SK2
62
256
6
ByLayer
370
13
48
1
60
0
100
AcDbLine
10
-37.5875
20
3
30
0
11
-46.625163
21
3
31
0
39
0
210
0
220
0
230
1
0
LINE
5
9C
100
AcDbEntity
8
SK2
62
256
6
ByLayer
370
13
48
1
60
0
100
AcDbLine
10
-37.5875
20
-3
30
0
11
-46.625163
21
-3
31
0
39
0
210
0
220
0
230
1
0
LINE
5
9D
100
AcDbEntity
8
1
62
256
6
ByLayer
370
18
48
1
60
1
100
AcDbLine
10
-44.625163
20
3
30
0
11
-45.085946
21
6.499998
31
0
39
0
210
0
220
0
230
1
0
LINE
5
9E
100
AcDbEntity
8
1
62
256
6
ByLayer
370
18
48
1
60
1
100
AcDbLine
10
-45.085946
20
6.499998
30
0
11
-44.164379
21
6.500002
31
0
39
0
210
0
220
0
230
1
0
LINE
5
9F
100
AcDbEntity
8
1
62
256
6
ByLayer
370
18
48
1
60
1
100
AcDbLine
10
-44.164379
20
6.500002
30
0
11
-44.625163
21
3
31
0
39
0
210
0
220
0
230
1
0
LINE
5
A0
100
AcDbEntity
8
1
62
256
6
ByLayer
370
18
48
1
60
1
100
AcDbLine
10
-44.625163
20
-3
30
0
11
-44.164379
21
-6.499998
31
0
39
0
210
0
220
0
230
1
0
LINE
5
A1
100
AcDbEntity
8
1
62
256
6
ByLayer
370
18
48
1
60
1
100
AcDbLine
10
-44.164379
20
-6.499998
30
0
11
-45.085946
21
-6.500002
31
0
39
0
210
0
220
0
230
1
0
LINE
5
A2
100
AcDbEntity
8
1
62
256
6
ByLayer
370
18
48
1
60
1
100
AcDbLine
10
-45.085946
20
-6.500002
30
0
11
-44.625163
21
-3
31
0
39
0
210
0
220
0
230
1
0
LINE
5
A3
100
AcDbEntity
8
2
62
256
6
ByLayer
370
13
48
1
60
0
100
AcDbLine
10
42.083343
20
29.426327
30
0
11
42.083343
21
-11.341
31
0
39
0
210
0
220
0
230
1
0
LINE
5
A5
100
AcDbEntity
8
2
62
256
6
ByLayer
370
13
48
1
60
0
100
AcDbLine
10
30.8299
20
2.591
30
0
11
44.083343
21
2.591
31
0
39
0
210
0
220
0
230
1
0
LINE
5
A6
100
AcDbEntity
8
2
62
256
6
ByLayer
370
13
48
1
60
0
100
AcDbLine
10
30.8299
20
-2.591
30
0
11
44.083343
21
-2.591
31
0
39
0
210
0
220
0
230
1
0
LINE
5
A7
100
AcDbEntity
8
1
62
256
6
ByLayer
370
18
48
1
60
1
100
AcDbLine
10
42.083343
20
2.591
30
0
11
41.622559
21
6.090998
31
0
39
0
210
0
220
0
230
1
0
LINE
5
A8
100
AcDbEntity
8
1
62
256
6
ByLayer
370
18
48
1
60
1
100
AcDbLine
10
41.622559
20
6.090998
30
0
11
42.544126
21
6.091002
31
0
39
0
210
0
220
0
230
1
0
LINE
5
A9
100
AcDbEntity
8
1
62
256
6
ByLayer
370
18
48
1
60
1
100
AcDbLine
10
42.544126
20
6.091002
30
0
11
42.083343
21
2.591
31
0
39
0
210
0
220
0
230
1
0
LINE
5
AA
100
AcDbEntity
8
1
62
256
6
ByLayer
370
18
48
1
60
1
100
AcDbLine
10
42.083343
20
-2.591
30
0
11
42.544126
21
-6.090998
31
0
39
0
210
0
220
0
230
1
0
LINE
5
AB
100
AcDbEntity
8
1
62
256
6
ByLayer
370
18
48
1
60
1
100
AcDbLine
10
42.544126
20
-6.090998
30
0
11
41.622559
21
-6.091002
31
0
39
0
210
0
220
0
230
1
0
LINE
5
AC
100
AcDbEntity
8
1
62
256
6
ByLayer
370
18
48
1
60
1
100
AcDbLine
10
41.622559
20
-6.091002
30
0
11
42.083343
21
-2.591
31
0
39
0
210
0
220
0
230
1
0
LINE
5
F7
100
AcDbEntity
8
1
62
256
6
ByLayer
370
18
48
1
60
1
100
AcDbLine
10
-44.625163
20
3
30
0
11
-45.085946
21
6.499998
31
0
39
0
210
0
220
0
230
1
0
LINE
5
F8
100
AcDbEntity
8
1
62
256
6
ByLayer
370
18
48
1
60
1
100
AcDbLine
10
-45.085946
20
6.499998
30
0
11
-44.164379
21
6.500002
31
0
39
0
210
0
220
0
230
1
0
LINE
5
F9
100
AcDbEntity
8
1
62
256
6
ByLayer
370
18
48
1
60
1
100
AcDbLine
10
-44.164379
20
6.500002
30
0
11
-44.625163
21
3
31
0
39
0
210
0
220
0
230
1
0
LINE
5
FB
100
AcDbEntity
8
1
62
256
6
ByLayer
370
18
48
1
60
1
100
AcDbLine
10
-44.625163
20
-3
30
0
11
-44.164379
21
-6.499998
31
0
39
0
210
0
220
0
230
1
0
LINE
5
FC
100
AcDbEntity
8
1
62
256
6
ByLayer
370
18
48
1
60
1
100
AcDbLine
10
-44.164379
20
-6.499998
30
0
11
-45.085946
21
-6.500002
31
0
39
0
210
0
220
0
230
1
0
LINE
5
FD
100
AcDbEntity
8
1
62
256
6
ByLayer
370
18
48
1
60
1
100
AcDbLine
10
-45.085946
20
-6.500002
30
0
11
-44.625163
21
-3
31
0
39
0
210
0
220
0
230
1
0
LINE
5
101
100
AcDbEntity
8
1
62
256
6
ByLayer
370
18
48
1
60
1
100
AcDbLine
10
42.083343
20
2.591
30
0
11
41.622559
21
6.090998
31
0
39
0
210
0
220
0
230
1
0
LINE
5
102
100
AcDbEntity
8
1
62
256
6
ByLayer
370
18
48
1
60
1
100
AcDbLine
10
41.622559
20
6.090998
30
0
11
42.544126
21
6.091002
31
0
39
0
210
0
220
0
230
1
0
LINE
5
103
100
AcDbEntity
8
1
62
256
6
ByLayer
370
18
48
1
60
1
100
AcDbLine
10
42.544126
20
6.091002
30
0
11
42.083343
21
2.591
31
0
39
0
210
0
220
0
230
1
0
LINE
5
105
100
AcDbEntity
8
1
62
256
6
ByLayer
370
18
48
1
60
1
100
AcDbLine
10
42.083343
20
-2.591
30
0
11
42.544126
21
-6.090998
31
0
39
0
210
0
220
0
230
1
0
LINE
5
106
100
AcDbEntity
8
1
62
256
6
ByLayer
370
18
48
1
60
1
100
AcDbLine
10
42.544126
20
-6.090998
30
0
11
41.622559
21
-6.091002
31
0
39
0
210
0
220
0
230
1
0
LINE
5
107
100
AcDbEntity
8
1
62
256
6
ByLayer
370
18
48
1
60
1
100
AcDbLine
10
41.622559
20
-6.091002
30
0
11
42.083343
21
-2.591
31
0
39
0
210
0
220
0
230
1
0
MTEXT
5
F1
100
AcDbEntity
8
SK6
62
256
6
ByLayer
370
13
48
1
60
0
100
AcDbMText
10
-31.270327
20
35.131328
30
0
210
0
220
0
230
1
1
\W0.7456;462.1-0518-016A1-XM X2BM
40
3.5
41
0
44
1.084337
50
0
71
7
72
5
7
iso_b_vert
0
MTEXT
5
F5
100
AcDbEntity
8
SK2
62
256
6
ByLayer
370
18
48
1
60
0
100
AcDbMText
10
-46.189796
20
16.409024
30
0
210
0
220
0
230
1
1
%%c
40
3.5
41
0
44
1.084337
50
90
71
7
72
5
7
iso_b_vert
0
MTEXT
5
F6
100
AcDbEntity
8
SK2
62
256
6
ByLayer
370
18
48
1
60
0
100
AcDbMText
10
-46.189796
20
21.63168
30
0
210
0
220
0
230
1
1
\W0.7317;6,000
40
3.5
41
0
44
1.084337
50
90
71
7
72
5
7
iso_b_vert
0
MTEXT
5
FF
100
AcDbEntity
8
2
62
256
6
ByLayer
370
18
48
1
60
0
100
AcDbMText
10
40.518709
20
14.59311
30
0
210
0
220
0
230
1
1
%%c
40
3.5
41
0
44
1.084337
50
90
71
7
72
5
7
iso_b_vert
0
MTEXT
5
100
100
AcDbEntity
8
2
62
256
6
ByLayer
370
18
48
1
60
0
100
AcDbMText
10
40.518709
20
19.815766
30
0
210
0
220
0
230
1
1
\W0.6713;5,182
40
3.5
41
0
44
1.084337
50
90
71
7
72
5
7
iso_b_vert
0
HATCH
5
FA
100
AcDbEntity
8
SK2
62
256
6
ByLayer
370
13
48
1
60
0
100
AcDbHatch
10
0
20
0
30
0
210
0
220
0
230
1
2
ANSI31
70
0
71
0
91
1
92
5
93
3
72
1
10
-44.6251625675374
20
3
11
-45.0859463090902
21
6.49999830744682
72
1
10
-45.0859463090902
20
6.49999830744682
11
-44.1643788259847
21
6.50000169255318
72
1
10
-44.1643788259847
20
6.50000169255318
11
-44.6251625675374
21
3
97
0
75
0
76
1
52
0
41
0.0062
77
0
78
1
53
45
43
0
44
0
45
-0.0139193969876572
46
0.0139193969876572
79
0
47
0
98
1
10
0
20
0
0
HATCH
5
FE
100
AcDbEntity
8
SK2
62
256
6
ByLayer
370
13
48
1
60
0
100
AcDbHatch
10
0
20
0
30
0
210
0
220
0
230
1
2
ANSI31
70
0
71
0
91
1
92
5
93
3
72
1
10
-44.6251625675374
20
-3
11
-44.1643788259847
21
-6.49999830744682
72
1
10
-44.1643788259847
20
-6.49999830744682
11
-45.0859463090902
21
-6.50000169255318
72
1
10
-45.0859463090902
20
-6.50000169255318
11
-44.6251625675374
21
-3
97
0
75
0
76
1
52
0
41
0.0062
77
0
78
1
53
45
43
0
44
0
45
-0.0139193969876572
46
0.0139193969876572
79
0
47
0
98
1
10
0
20
0
0
HATCH
5
104
100
AcDbEntity
8
2
62
256
6
ByLayer
370
13
48
1
60
0
100
AcDbHatch
10
0
20
0
30
0
210
0
220
0
230
1
2
ANSI31
70
0
71
0
91
1
92
5
93
3
72
1
10
42.083342615295
20
2.59100000000001
11
41.6225588737423
21
6.09099830744682
72
1
10
41.6225588737423
20
6.09099830744682
11
42.5441263568478
21
6.09100169255319
72
1
10
42.5441263568478
20
6.09100169255319
11
42.083342615295
21
2.59100000000001
97
0
75
0
76
1
52
0
41
0.0062
77
0
78
1
53
45
43
0
44
0
45
-0.0139193969876572
46
0.0139193969876572
79
0
47
0
98
1
10
0
20
0
0
HATCH
5
108
100
AcDbEntity
8
2
62
256
6
ByLayer
370
13
48
1
60
0
100
AcDbHatch
10
0
20
0
30
0
210
0
220
0
230
1
2
ANSI31
70
0
71
0
91
1
92
5
93
3
72
1
10
42.083342615295
20
-2.59099999999998
11
42.5441263568478
21
-6.0909983074468
72
1
10
42.5441263568478
20
-6.0909983074468
11
41.6225588737423
21
-6.09100169255316
72
1
10
41.6225588737423
20
-6.09100169255316
11
42.083342615295
21
-2.59099999999998
97
0
75
0
76
1
52
0
41
0.0062
77
0
78
1
53
45
43
0
44
0
45
-0.0139193969876572
46
0.0139193969876572
79
0
47
0
98
1
10
0
20
0
0
DIMENSION
5
10A
100
AcDbEntity
8
SK2
62
256
6
ByLayer
370
13
48
1
60
0
100
AcDbDimension
2
_U0
10
29.2424
20
-12.804398
30
0
11
14.6212
21
-12.804398
31
0
70
32
71
1
72
1
41
1
210
0
220
0
230
1
3
Standard
100
AcDbAlignedDimension
13
0
23
0
33
0
14
29.2424
24
-2.591
34
0
50
0
100
AcDbRotatedDimension
1001
ACAD
1000
DSTYLE
1002
{
1070
   371
1070
    13
1070
   372
1070
    13
1070
   170
1070
     0
1070
   144
1040
1.0
1070
   277
1070
     2
1070
   278
1070
    44
1070
   146
1040
1.0
1070
   345
1005
16
1070
   347
1005
16
1070
   346
1005
16
1070
   344
1005
0
1070
   343
1005
0
1070
   172
1070
     1
1070
    76
1070
     0
1070
    75
1070
     0
1070
   282
1070
     0
1070
   281
1070
     0
1070
    71
1070
     0
1070
    74
1070
     0
1070
   279
1070
     0
1070
   173
1070
     1
1070
   340
1005
F2
1070
   271
1070
     2
1070
   272
1070
     2
1070
    77
1070
     1
1070
    73
1070
     1
1070
   171
1070
     3
1070
   274
1070
     4
1070
   177
1070
    35
1070
   176
1070
    35
1070
   178
1070
    35
1070
    48
1040
-0.1
1070
    41
1040
3.5
1070
   147
1040
1.75
1070
    42
1040
1.5875
1070
    44
1040
2.0
1070
   140
1040
3.5
1002
}
1001
ACAD_DSTYLE_DIM_LINETYPE
1070
   380
1005
16
1001
ACAD_DSTYLE_DIM_EXT1_LINETYPE
1070
   381
1005
16
1001
ACAD_DSTYLE_DIM_EXT2_LINETYPE
1070
   382
1005
16
0
DIMENSION
5
123
100
AcDbEntity
8
SK2
62
256
6
ByLayer
370
13
48
1
60
0
100
AcDbDimension
2
_U1
10
30
20
-31.692985
30
0
11
-3
21
-31.692985
31
0
70
32
71
1
72
1
41
1
210
0
220
0
230
1
3
Standard
100
AcDbAlignedDimension
13
-36
23
-3
33
0
14
30
24
0
34
0
50
0
100
AcDbRotatedDimension
1001
ACAD
1000
DSTYLE
1002
{
1070
   371
1070
    13
1070
   372
1070
    13
1070
   170
1070
     0
1070
   144
1040
1.0
1070
   277
1070
     2
1070
   278
1070
    44
1070
   146
1040
1.0
1070
   345
1005
16
1070
   347
1005
16
1070
   346
1005
16
1070
   344
1005
0
1070
   343
1005
0
1070
   172
1070
     1
1070
    76
1070
     0
1070
    75
1070
     0
1070
   282
1070
     0
1070
   281
1070
     0
1070
    71
1070
     0
1070
    74
1070
     0
1070
   279
1070
     0
1070
   173
1070
     1
1070
   340
1005
F2
1070
   271
1070
     2
1070
   272
1070
     2
1070
    77
1070
     1
1070
    73
1070
     1
1070
   171
1070
     3
1070
   274
1070
     4
1070
   177
1070
    35
1070
   176
1070
    35
1070
   178
1070
    35
1070
    48
1040
-0.1
1070
    41
1040
3.5
1070
   147
1040
1.75
1070
    42
1040
1.5875
1070
    44
1040
2.0
1070
   140
1040
3.5
1002
}
1001
ACAD_DSTYLE_DIM_LINETYPE
1070
   380
1005
16
1001
ACAD_DSTYLE_DIM_EXT1_LINETYPE
1070
   381
1005
16
1001
ACAD_DSTYLE_DIM_EXT2_LINETYPE
1070
   382
1005
16
0
DIMENSION
5
13B
100
AcDbEntity
8
SK2
62
256
6
ByLayer
370
13
48
1
60
0
100
AcDbDimension
2
_U2
10
30
20
14.200119
30
0
11
21.85
21
14.200119
31
0
70
32
71
1
72
1
41
1
210
0
220
0
230
1
3
Standard
100
AcDbAlignedDimension
13
13.7
23
2.591
33
0
14
30
24
0
34
0
50
0
100
AcDbRotatedDimension
1001
ACAD
1000
DSTYLE
1002
{
1070
   371
1070
    13
1070
   372
1070
    13
1070
   170
1070
     0
1070
   144
1040
1.0
1070
   277
1070
     2
1070
   278
1070
    44
1070
   146
1040
1.0
1070
   345
1005
16
1070
   347
1005
16
1070
   346
1005
16
1070
   344
1005
0
1070
   343
1005
0
1070
   172
1070
     1
1070
    76
1070
     0
1070
    75
1070
     0
1070
   282
1070
     0
1070
   281
1070
     0
1070
    71
1070
     0
1070
    74
1070
     0
1070
   279
1070
     0
1070
   173
1070
     1
1070
   340
1005
F2
1070
   271
1070
     2
1070
   272
1070
     2
1070
    77
1070
     1
1070
    73
1070
     1
1070
   171
1070
     3
1070
   274
1070
     4
1070
   177
1070
    35
1070
   176
1070
    35
1070
   178
1070
    35
1070
    48
1040
-0.1
1070
    41
1040
3.5
1070
   147
1040
1.75
1070
    42
1040
1.5875
1070
    44
1040
2.0
1070
   140
1040
3.5
1002
}
1001
ACAD_DSTYLE_DIM_LINETYPE
1070
   380
1005
16
1001
ACAD_DSTYLE_DIM_EXT1_LINETYPE
1070
   381
1005
16
1001
ACAD_DSTYLE_DIM_EXT2_LINETYPE
1070
   382
1005
16
0
DIMENSION
5
154
100
AcDbEntity
8
SK2
62
256
6
ByLayer
370
13
48
1
60
0
100
AcDbDimension
2
_U3
10
29.2424
20
-15.393503
30
0
11
47.583333
21
-15.393503
31
0
70
32
71
1
72
1
41
1
210
0
220
0
230
1
3
Standard
100
AcDbAlignedDimension
13
30
23
0
33
0
14
29.2424
24
-2.591
34
0
50
0
100
AcDbRotatedDimension
1001
ACAD
1000
DSTYLE
1002
{
1070
   371
1070
    13
1070
   372
1070
    13
1070
   170
1070
     0
1070
   144
1040
1.0
1070
   277
1070
     2
1070
   278
1070
    44
1070
   146
1040
1.0
1070
   345
1005
16
1070
   347
1005
16
1070
   346
1005
16
1070
   344
1005
0
1070
   343
1005
0
1070
   172
1070
     1
1070
    76
1070
     0
1070
    75
1070
     0
1070
   282
1070
     0
1070
   281
1070
     0
1070
    71
1070
     0
1070
    74
1070
     0
1070
   279
1070
     0
1070
   173
1070
     1
1070
   340
1005
F2
1070
   271
1070
     2
1070
   272
1070
     2
1070
    77
1070
     1
1070
    73
1070
     1
1070
   171
1070
     3
1070
   274
1070
     4
1070
   177
1070
    35
1070
   176
1070
    35
1070
   178
1070
    35
1070
    48
1040
-0.1
1070
    41
1040
3.5
1070
   147
1040
1.75
1070
    42
1040
1.5875
1070
    44
1040
2.0
1070
   140
1040
3.5
1002
}
1001
ACAD_DSTYLE_DIM_LINETYPE
1070
   380
1005
16
1001
ACAD_DSTYLE_DIM_EXT1_LINETYPE
1070
   381
1005
16
1001
ACAD_DSTYLE_DIM_EXT2_LINETYPE
1070
   382
1005
16
0
DIMENSION
5
16E
100
AcDbEntity
8
SK2
62
256
6
ByLayer
370
13
48
1
60
0
100
AcDbDimension
2
_U4
10
29.2424
20
-21.343428
30
0
11
-3.3788
21
-21.343428
31
0
70
32
71
1
72
1
41
1
210
0
220
0
230
1
3
Standard
100
AcDbAlignedDimension
13
-36
23
-3
33
0
14
29.2424
24
-2.591
34
0
50
0
100
AcDbRotatedDimension
1001
ACAD
1000
DSTYLE
1002
{
1070
   371
1070
    13
1070
   372
1070
    13
1070
   170
1070
     0
1070
   144
1040
1.0
1070
   277
1070
     2
1070
   278
1070
    44
1070
   146
1040
1.0
1070
   345
1005
16
1070
   347
1005
16
1070
   346
1005
16
1070
   344
1005
0
1070
   343
1005
0
1070
   172
1070
     1
1070
    76
1070
     0
1070
    75
1070
     0
1070
   282
1070
     0
1070
   281
1070
     0
1070
    71
1070
     0
1070
    74
1070
     0
1070
   279
1070
     0
1070
   173
1070
     1
1070
   340
1005
F2
1070
   271
1070
     2
1070
   272
1070
     2
1070
    77
1070
     1
1070
    73
1070
     1
1070
   171
1070
     3
1070
   274
1070
     4
1070
   177
1070
    35
1070
   176
1070
    35
1070
   178
1070
    35
1070
    48
1040
-0.1
1070
    41
1040
3.5
1070
   147
1040
1.75
1070
    42
1040
1.5875
1070
    44
1040
2.0
1070
   140
1040
3.5
1002
}
1001
ACAD_DSTYLE_DIM_LINETYPE
1070
   380
1005
16
1001
ACAD_DSTYLE_DIM_EXT1_LINETYPE
1070
   381
1005
16
1001
ACAD_DSTYLE_DIM_EXT2_LINETYPE
1070
   382
1005
16
0
ENDSEC
0
SECTION
2
OBJECTS
0
DICTIONARY
5
1f6
330
0
100
AcDbDictionary
280
0
281
1
3
ACAD_GROUP
350
1f7
3
ACAD_MLINESTYLE
350
1f8
0
DICTIONARY
5
1f7
330
0
100
AcDbDictionary
280
0
281
1
0
DICTIONARY
5
1f8
330
0
100
AcDbDictionary
280
0
281
1
3
Standard
350
18
0
MLINESTYLE
5
18
330
1f8
100
AcDbMlineStyle
2
Standard
70
0
3

62
256
51
90
52
90
71
2
49
-0.5
62
256
6
ByLayer
49
0.5
62
256
6
ByLayer
0
RASTERVARIABLES
5
1e4
330

100
AcDbRasterVariables
90
0
70
1
71
1
72
1
0
ENDSEC
0
EOF
