0
SECTION
2
HEADER
9
$ACADVER
1
AC1015
9
$DWGCODEPAGE
3
ANSI_1252
9
$HANDSEED
5
201
9
$ANGBASE
50
0
9
$ANGDIR
70
0
9
$ATTMODE
70
1
9
$AUNITS
70
0
9
$AUPREC
70
0
9
$CECOLOR
62
256
9
$CELTSCALE
40
1
9
$CELTYPE
6
ByLayer
9
$CELWEIGHT
370
18
9
$CLAYER
8
0
9
$CMLJUST
70
0
9
$CMLSCALE
40
1
9
$CMLSTYLE
2
Standard
9
$DIMSTYLE
2
Standard
9
$TEXTSIZE
40
0.2
9
$TEXTSTYLE
7
Standard
9
$LUNITS
70
2
9
$LUPREC
70
4
9
$EXTNAMES
290
1
9
$INSUNITS
70
4
9
$LTSCALE
40
1
9
$LWDISPLAY
290
1
9
$PDMODE
70
0
9
$PDSIZE
40
0
9
$PLINEGEN
70
0
0
ENDSEC
0
SECTION
2
CLASSES
0
CLASS
1
RASTERVARIABLES
2
AcDbRasterVariables
3
ISM
90
0
280
0
281
0
0
ENDSEC
0
SECTION
2
TABLES
0
TABLE
2
VPORT
5
1f7
100
AcDbSymbolTable
0
VPORT
5
1
100
AcDbSymbolTableRecord
100
AcDbViewportTableRecord
2
*Active
70
0
10
0
20
0
11
1
21
1
12
-1
22
1
13
0
23
0
14
0.5
24
0.5
15
10
25
10
16
0
26
0
36
1
17
0
27
0
37
0
0
ENDTAB
0
TABLE
2
LTYPE
5
1f8
100
AcDbSymbolTable
0
LTYPE
5
14
100
AcDbSymbolTableRecord
100
AcDbLinetypeTableRecord
70
0
2
ByBlock
3

72
65
73
0
40
0
0
LTYPE
5
15
100
AcDbSymbolTableRecord
100
AcDbLinetypeTableRecord
70
0
2
ByLayer
3

72
65
73
0
40
0
0
LTYPE
5
16
100
AcDbSymbolTableRecord
100
AcDbLinetypeTableRecord
70
0
2
Continuous
3
Solid line
72
65
73
0
40
0
0
LTYPE
5
6E
100
AcDbSymbolTableRecord
100
AcDbLinetypeTableRecord
70
0
2
CENTER
3
____ _ ____ _ ____ _ ____
72
65
73
4
40
47.5
49
22
74
0
49
-8.5
74
0
49
8.5
74
0
49
-8.5
74
0
0
LTYPE
5
6F
100
AcDbSymbolTableRecord
100
AcDbLinetypeTableRecord
70
0
2
DASHED
3
__ __ __ __ __ __ __ __ __
72
65
73
2
40
25.72
49
12.86
74
0
49
-12.86
74
0
0
ENDTAB
0
TABLE
2
LAYER
5
1f9
100
AcDbSymbolTable
0
LAYER
5
10
100
AcDbSymbolTableRecord
100
AcDbLayerTableRecord
2
0
70
0
62
7
6
Continuous
290
1
370
-3
390
0
0
LAYER
5
71
100
AcDbSymbolTableRecord
100
AcDbLayerTableRecord
2
80
70
0
62
-6
6
Continuous
290
1
370
-3
390
0
0
LAYER
5
73
100
AcDbSymbolTableRecord
100
AcDbLayerTableRecord
2
81
70
0
62
-3
6
Continuous
290
1
370
-3
390
0
0
LAYER
5
75
100
AcDbSymbolTableRecord
100
AcDbLayerTableRecord
2
1
70
0
62
4
6
Continuous
290
1
370
-3
390
0
0
LAYER
5
8A
100
AcDbSymbolTableRecord
100
AcDbLayerTableRecord
2
4
70
0
62
-2
6
CENTER
290
1
370
-3
390
0
0
LAYER
5
A3
100
AcDbSymbolTableRecord
100
AcDbLayerTableRecord
2
2
70
0
62
7
6
Continuous
290
1
370
-3
390
0
0
LAYER
5
10B
100
AcDbSymbolTableRecord
100
AcDbLayerTableRecord
2
Defpoints
70
0
62
7
6
Continuous
290
0
370
-3
390
0
0
LAYER
5
1e3
100
AcDbSymbolTableRecord
100
AcDbLayerTableRecord
2
SK1
70
0
62
4
6
Continuous
290
1
370
-3
390
0
0
LAYER
5
1e4
100
AcDbSymbolTableRecord
100
AcDbLayerTableRecord
2
SK4
70
0
62
2
6
CENTER
290
1
370
-3
390
0
0
LAYER
5
1e5
100
AcDbSymbolTableRecord
100
AcDbLayerTableRecord
2
SK2
70
0
62
7
6
Continuous
290
1
370
-3
390
0
0
LAYER
5
1e6
100
AcDbSymbolTableRecord
100
AcDbLayerTableRecord
2
SK6
70
0
62
5
6
Continuous
290
1
370
-3
390
0
0
ENDTAB
0
TABLE
2
STYLE
5
1fa
100
AcDbSymbolTable
0
STYLE
5
11
100
AcDbSymbolTableRecord
100
AcDbTextStyleTableRecord
2
Standard
3
txt
70
0
71
0
40
0
41
1
42
0
50
0
0
STYLE
5
F0
100
AcDbSymbolTableRecord
100
AcDbTextStyleTableRecord
2
iso_b_vert
3
simplex.shx
70
0
71
0
40
0
41
1
42
0
50
0
0
STYLE
5
F1
100
AcDbSymbolTableRecord
100
AcDbTextStyleTableRecord
2
DWGDirectTextStyle
3
simplex
70
0
71
0
40
0
41
1
42
0
50
0
0
ENDTAB
0
TABLE
2
DIMSTYLE
5
1fb
100
AcDbSymbolTable
100
AcDbDimStyleTable
0
DIMSTYLE
105
27
100
AcDbSymbolTableRecord
100
AcDbDimStyleTableRecord
2
Standard
70
0
3
<>
41
0.18
42
0.0625
44
0.18
140
0.18
147
0.09
73
0
74
0
77
1
271
2
275
0
278
52
280
0
340
11
0
ENDTAB
0
TABLE
2
VIEW
5
1fc
100
AcDbSymbolTable
0
ENDTAB
0
TABLE
2
UCS
5
1fd
100
AcDbSymbolTable
0
ENDTAB
0
TABLE
2
APPID
5
1fe
100
AcDbSymbolTable
0
APPID
5
12
100
AcDbSymbolTableRecord
100
AcDbRegAppTableRecord
2
ACAD
70
0
0
APPID
5
107
100
AcDbSymbolTableRecord
100
AcDbRegAppTableRecord
2
ACAD_DSTYLE_DIMBREAK
70
0
0
APPID
5
1A2
100
AcDbSymbolTableRecord
100
AcDbRegAppTableRecord
2
ACAD_DSTYLE_DIM_LINETYPE
70
0
0
APPID
5
1A3
100
AcDbSymbolTableRecord
100
AcDbRegAppTableRecord
2
ACAD_DSTYLE_DIM_EXT1_LINETYPE
70
0
0
APPID
5
1A4
100
AcDbSymbolTableRecord
100
AcDbRegAppTableRecord
2
ACAD_DSTYLE_DIM_EXT2_LINETYPE
70
0
0
APPID
5
1DF
100
AcDbSymbolTableRecord
100
AcDbRegAppTableRecord
2
ACAD_MLEADERVER
70
0
0
ENDTAB
0
TABLE
2
BLOCK_RECORD
5
1ff
100
AcDbSymbolTable
0
BLOCK_RECORD
5
1F
100
AcDbSymbolTableRecord
100
AcDbBlockTableRecord
2
*Model_Space
340
0
70
0
0
BLOCK_RECORD
5
1B
100
AcDbSymbolTableRecord
100
AcDbBlockTableRecord
2
*Paper_Space
340
0
70
0
0
BLOCK_RECORD
5
23
100
AcDbSymbolTableRecord
100
AcDbBlockTableRecord
2
*Paper_Space0
340
0
70
0
0
BLOCK_RECORD
5
10C
100
AcDbSymbolTableRecord
100
AcDbBlockTableRecord
2
*D1
340
0
70
0
0
BLOCK_RECORD
5
118
100
AcDbSymbolTableRecord
100
AcDbBlockTableRecord
2
_U0
340
0
70
0
0
BLOCK_RECORD
5
124
100
AcDbSymbolTableRecord
100
AcDbBlockTableRecord
2
*D3
340
0
70
0
0
BLOCK_RECORD
5
130
100
AcDbSymbolTableRecord
100
AcDbBlockTableRecord
2
_U1
340
0
70
0
0
BLOCK_RECORD
5
13C
100
AcDbSymbolTableRecord
100
AcDbBlockTableRecord
2
*D5
340
0
70
0
0
BLOCK_RECORD
5
149
100
AcDbSymbolTableRecord
100
AcDbBlockTableRecord
2
_U2
340
0
70
0
0
BLOCK_RECORD
5
155
100
AcDbSymbolTableRecord
100
AcDbBlockTableRecord
2
*D7
340
0
70
0
0
BLOCK_RECORD
5
163
100
AcDbSymbolTableRecord
100
AcDbBlockTableRecord
2
_U3
340
0
70
0
0
BLOCK_RECORD
5
16F
100
AcDbSymbolTableRecord
100
AcDbBlockTableRecord
2
*D9
340
0
70
0
0
BLOCK_RECORD
5
17B
100
AcDbSymbolTableRecord
100
AcDbBlockTableRecord
2
_U4
340
0
70
0
0
ENDTAB
0
ENDSEC
0
SECTION
2
BLOCKS
0
BLOCK
5
20
100
AcDbEntity
8
0
100
AcDbBlockBegin
2
*Model_Space
70
0
10
0
20
0
30
0
3
*Model_Space
0
ENDBLK
5
21
100
AcDbEntity
8
0
100
AcDbBlockEnd
0
BLOCK
5
1C
100
AcDbEntity
8
0
100
AcDbBlockBegin
2
*Paper_Space
70
0
10
0
20
0
30
0
3
*Paper_Space
0
ENDBLK
5
1D
100
AcDbEntity
8
0
100
AcDbBlockEnd
0
BLOCK
5
24
100
AcDbEntity
8
0
100
AcDbBlockBegin
2
*Paper_Space0
70
0
10
0
20
0
30
0
3
*Paper_Space0
0
ENDBLK
5
25
100
AcDbEntity
8
0
100
AcDbBlockEnd
0
BLOCK
5
10D
100
AcDbEntity
8
0
100
AcDbBlockBegin
2
*D1
70
1
10
0
20
0
30
0
3
*D1
0
LINE
5
10F
100
AcDbEntity
8
0
62
256
6
ByLayer
370
-2
48
1
60
0
100
AcDbLine
10
0
20
-1.5875
30
0
11
0
21
-14.238398
31
0
39
0
210
0
220
0
230
1
0
LINE
5
110
100
AcDbEntity
8
0
62
256
6
ByLayer
370
-2
48
1
60
0
100
AcDbLine
10
29.4127
20
-3.6125
30
0
11
29.4127
21
-14.238398
31
0
39
0
210
0
220
0
230
1
0
LINE
5
111
100
AcDbEntity
8
0
62
256
6
ByLayer
370
-2
48
1
60
0
100
AcDbLine
10
3.5
20
-12.238398
30
0
11
25.9127
21
-12.238398
31
0
39
0
210
0
220
0
230
1
0
SOLID
5
112
100
AcDbEntity
8
0
62
256
6
ByLayer
370
-1
48
1
60
0
100
AcDbTrace
10
3.5
20
-11.655065
30
0
11
3.5
21
-12.821732
31
0
12
0
22
-12.238398
32
0
13
0
23
-12.238398
33
0
39
0
210
0
220
0
230
1
0
SOLID
5
113
100
AcDbEntity
8
0
62
256
6
ByLayer
370
-1
48
1
60
0
100
AcDbTrace
10
25.9127
20
-12.821732
30
0
11
25.9127
21
-11.655065
31
0
12
29.4127
22
-12.238398
32
0
13
29.4127
23
-12.238398
33
0
39
0
210
0
220
0
230
1
0
MTEXT
5
114
100
AcDbEntity
8
0
62
256
6
ByLayer
370
18
48
1
60
0
100
AcDbMText
10
14.70635
20
-5.238398
30
0
210
0
220
0
230
1
1
\A1;29.41
40
3.5
41
0
44
1
50
0
71
5
72
5
7
iso_b_vert
0
POINT
5
115
100
AcDbEntity
8
Defpoints
62
0
6
ByLayer
370
-1
48
1
60
0
100
AcDbPoint
10
0
20
0
30
0
39
0
210
0
220
0
230
1
50
360
0
POINT
5
116
100
AcDbEntity
8
Defpoints
62
0
6
ByLayer
370
-1
48
1
60
0
100
AcDbPoint
10
29.4127
20
-2.025
30
0
39
0
210
0
220
0
230
1
50
360
0
POINT
5
117
100
AcDbEntity
8
Defpoints
62
0
6
ByLayer
370
-1
48
1
60
0
100
AcDbPoint
10
29.4127
20
-12.238398
30
0
39
0
210
0
220
0
230
1
50
360
0
ENDBLK
5
10E
100
AcDbEntity
8
0
100
AcDbBlockEnd
0
BLOCK
5
11F
100
AcDbEntity
8
0
100
AcDbBlockBegin
2
_U0
70
0
10
0
20
0
30
0
3
_U0
0
MTEXT
5
119
100
AcDbEntity
8
SK2
62
256
6
ByLayer
370
13
48
1
60
0
100
AcDbMText
10
9.822218
20
-11.205765
30
0
210
0
220
0
230
1
1
\W0.7494;29,41
40
3.5
41
0
44
1.084337
50
0
71
7
72
5
7
iso_b_vert
0
LINE
5
11A
100
AcDbEntity
8
SK2
62
256
6
ByLayer
370
13
48
1
60
0
100
AcDbLine
10
0
20
-1.5875
30
0
11
0
21
-14.238398
31
0
39
0
210
0
220
0
230
1
0
LINE
5
11B
100
AcDbEntity
8
SK2
62
256
6
ByLayer
370
13
48
1
60
0
100
AcDbLine
10
29.4127
20
-3.6125
30
0
11
29.4127
21
-14.238398
31
0
39
0
210
0
220
0
230
1
0
LINE
5
11C
100
AcDbEntity
8
SK2
62
256
6
ByLayer
370
13
48
1
60
0
100
AcDbLine
10
0
20
-12.238398
30
0
11
29.4127
21
-12.238398
31
0
39
0
210
0
220
0
230
1
0
SOLID
5
11D
100
AcDbEntity
8
SK2
62
256
6
ByLayer
370
18
48
1
60
0
100
AcDbTrace
10
0
20
-12.238398
30
0
11
3.499998
21
-11.777615
31
0
12
3.500002
22
-12.699182
32
0
13
3.500002
23
-12.699182
33
0
39
0
210
0
220
0
230
1
0
SOLID
5
11E
100
AcDbEntity
8
SK2
62
256
6
ByLayer
370
18
48
1
60
0
100
AcDbTrace
10
29.4127
20
-12.238398
30
0
11
25.912702
21
-12.699182
31
0
12
25.912698
22
-11.777615
32
0
13
25.912698
23
-11.777615
33
0
39
0
210
0
220
0
230
1
0
ENDBLK
5
120
100
AcDbEntity
8
0
100
AcDbBlockEnd
0
BLOCK
5
125
100
AcDbEntity
8
0
100
AcDbBlockBegin
2
*D3
70
1
10
0
20
0
30
0
3
*D3
0
LINE
5
127
100
AcDbEntity
8
0
62
256
6
ByLayer
370
-2
48
1
60
0
100
AcDbLine
10
-36
20
-4.5875
30
0
11
-36
21
-33.692985
31
0
39
0
210
0
220
0
230
1
0
LINE
5
128
100
AcDbEntity
8
0
62
256
6
ByLayer
370
-2
48
1
60
0
100
AcDbLine
10
30
20
-1.5875
30
0
11
30
21
-33.692985
31
0
39
0
210
0
220
0
230
1
0
LINE
5
129
100
AcDbEntity
8
0
62
256
6
ByLayer
370
-2
48
1
60
0
100
AcDbLine
10
-32.5
20
-31.692985
30
0
11
26.5
21
-31.692985
31
0
39
0
210
0
220
0
230
1
0
SOLID
5
12A
100
AcDbEntity
8
0
62
256
6
ByLayer
370
-1
48
1
60
0
100
AcDbTrace
10
-32.5
20
-31.109652
30
0
11
-32.5
21
-32.276319
31
0
12
-36
22
-31.692985
32
0
13
-36
23
-31.692985
33
0
39
0
210
0
220
0
230
1
0
SOLID
5
12B
100
AcDbEntity
8
0
62
256
6
ByLayer
370
-1
48
1
60
0
100
AcDbTrace
10
26.5
20
-32.276319
30
0
11
26.5
21
-31.109652
31
0
12
30
22
-31.692985
32
0
13
30
23
-31.692985
33
0
39
0
210
0
220
0
230
1
0
MTEXT
5
12C
100
AcDbEntity
8
0
62
256
6
ByLayer
370
18
48
1
60
0
100
AcDbMText
10
-3
20
-24.692985
30
0
210
0
220
0
230
1
1
\A1;66.00
40
3.5
41
0
44
1
50
0
71
5
72
5
7
iso_b_vert
0
POINT
5
12D
100
AcDbEntity
8
Defpoints
62
0
6
ByLayer
370
-1
48
1
60
0
100
AcDbPoint
10
-36
20
-3
30
0
39
0
210
0
220
0
230
1
50
360
0
POINT
5
12E
100
AcDbEntity
8
Defpoints
62
0
6
ByLayer
370
-1
48
1
60
0
100
AcDbPoint
10
30
20
0
30
0
39
0
210
0
220
0
230
1
50
360
0
POINT
5
12F
100
AcDbEntity
8
Defpoints
62
0
6
ByLayer
370
-1
48
1
60
0
100
AcDbPoint
10
30
20
-31.692985
30
0
39
0
210
0
220
0
230
1
50
360
0
ENDBLK
5
126
100
AcDbEntity
8
0
100
AcDbBlockEnd
0
BLOCK
5
137
100
AcDbEntity
8
0
100
AcDbBlockBegin
2
_U1
70
0
10
0
20
0
30
0
3
_U1
0
MTEXT
5
131
100
AcDbEntity
8
SK2
62
256
6
ByLayer
370
13
48
1
60
0
100
AcDbMText
10
-8.137299
20
-30.660352
30
0
210
0
220
0
230
1
1
\W0.7317;66,00
40
3.5
41
0
44
1.084337
50
0
71
7
72
5
7
iso_b_vert
0
LINE
5
132
100
AcDbEntity
8
SK2
62
256
6
ByLayer
370
13
48
1
60
0
100
AcDbLine
10
-36
20
-4.5875
30
0
11
-36
21
-33.692985
31
0
39
0
210
0
220
0
230
1
0
LINE
5
133
100
AcDbEntity
8
SK2
62
256
6
ByLayer
370
13
48
1
60
0
100
AcDbLine
10
30
20
-1.5875
30
0
11
30
21
-33.692985
31
0
39
0
210
0
220
0
230
1
0
LINE
5
134
100
AcDbEntity
8
SK2
62
256
6
ByLayer
370
13
48
1
60
0
100
AcDbLine
10
-36
20
-31.692985
30
0
11
30
21
-31.692985
31
0
39
0
210
0
220
0
230
1
0
SOLID
5
135
100
AcDbEntity
8
SK2
62
256
6
ByLayer
370
18
48
1
60
0
100
AcDbTrace
10
-36
20
-31.692985
30
0
11
-32.500002
21
-31.232202
31
0
12
-32.499998
22
-32.153769
32
0
13
-32.499998
23
-32.153769
33
0
39
0
210
0
220
0
230
1
0
SOLID
5
136
100
AcDbEntity
8
SK2
62
256
6
ByLayer
370
18
48
1
60
0
100
AcDbTrace
10
30
20
-31.692985
30
0
11
26.500002
21
-32.153769
31
0
12
26.499998
22
-31.232202
32
0
13
26.499998
23
-31.232202
33
0
39
0
210
0
220
0
230
1
0
ENDBLK
5
138
100
AcDbEntity
8
0
100
AcDbBlockEnd
0
BLOCK
5
13D
100
AcDbEntity
8
0
100
AcDbBlockBegin
2
*D5
70
1
10
0
20
0
30
0
3
*D5
0
LINE
5
13F
100
AcDbEntity
8
0
62
256
6
ByLayer
370
-2
48
1
60
0
100
AcDbLine
10
17.26
20
3.6125
30
0
11
17.26
21
15.634119
31
0
39
0
210
0
220
0
230
1
0
LINE
5
140
100
AcDbEntity
8
0
62
256
6
ByLayer
370
-2
48
1
60
0
100
AcDbLine
10
30
20
1.5875
30
0
11
30
21
15.634119
31
0
39
0
210
0
220
0
230
1
0
LINE
5
141
100
AcDbEntity
8
0
62
256
6
ByLayer
370
-2
48
1
60
0
100
AcDbLine
10
13.76
20
13.634119
30
0
11
10.26
21
13.634119
31
0
39
0
210
0
220
0
230
1
0
LINE
5
142
100
AcDbEntity
8
0
62
256
6
ByLayer
370
-2
48
1
60
0
100
AcDbLine
10
33.5
20
13.634119
30
0
11
37
21
13.634119
31
0
39
0
210
0
220
0
230
1
0
SOLID
5
143
100
AcDbEntity
8
0
62
256
6
ByLayer
370
-1
48
1
60
0
100
AcDbTrace
10
13.76
20
13.050786
30
0
11
13.76
21
14.217453
31
0
12
17.26
22
13.634119
32
0
13
17.26
23
13.634119
33
0
39
0
210
0
220
0
230
1
0
SOLID
5
144
100
AcDbEntity
8
0
62
256
6
ByLayer
370
-1
48
1
60
0
100
AcDbTrace
10
33.5
20
14.217453
30
0
11
33.5
21
13.050786
31
0
12
30
22
13.634119
32
0
13
30
23
13.634119
33
0
39
0
210
0
220
0
230
1
0
MTEXT
5
145
100
AcDbEntity
8
0
62
256
6
ByLayer
370
18
48
1
60
0
100
AcDbMText
10
23.63
20
20.634119
30
0
210
0
220
0
230
1
1
\A1;12.74
40
3.5
41
0
44
1
50
0
71
5
72
5
7
iso_b_vert
0
POINT
5
146
100
AcDbEntity
8
Defpoints
62
0
6
ByLayer
370
-1
48
1
60
0
100
AcDbPoint
10
17.26
20
2.025
30
0
39
0
210
0
220
0
230
1
50
360
0
POINT
5
147
100
AcDbEntity
8
Defpoints
62
0
6
ByLayer
370
-1
48
1
60
0
100
AcDbPoint
10
30
20
0
30
0
39
0
210
0
220
0
230
1
50
360
0
POINT
5
148
100
AcDbEntity
8
Defpoints
62
0
6
ByLayer
370
-1
48
1
60
0
100
AcDbPoint
10
30
20
13.634119
30
0
39
0
210
0
220
0
230
1
50
360
0
ENDBLK
5
13E
100
AcDbEntity
8
0
100
AcDbBlockEnd
0
BLOCK
5
150
100
AcDbEntity
8
0
100
AcDbBlockBegin
2
_U2
70
0
10
0
20
0
30
0
3
_U2
0
MTEXT
5
14A
100
AcDbEntity
8
SK2
62
256
6
ByLayer
370
13
48
1
60
0
100
AcDbMText
10
18.745868
20
14.666753
30
0
210
0
220
0
230
1
1
\W0.6898;12,74
40
3.5
41
0
44
1.084337
50
0
71
7
72
5
7
iso_b_vert
0
LINE
5
14B
100
AcDbEntity
8
SK2
62
256
6
ByLayer
370
13
48
1
60
0
100
AcDbLine
10
17.26
20
3.6125
30
0
11
17.26
21
15.634119
31
0
39
0
210
0
220
0
230
1
0
LINE
5
14C
100
AcDbEntity
8
SK2
62
256
6
ByLayer
370
13
48
1
60
0
100
AcDbLine
10
30
20
1.5875
30
0
11
30
21
15.634119
31
0
39
0
210
0
220
0
230
1
0
LINE
5
14D
100
AcDbEntity
8
SK2
62
256
6
ByLayer
370
13
48
1
60
0
100
AcDbLine
10
17.26
20
13.634119
30
0
11
30
21
13.634119
31
0
39
0
210
0
220
0
230
1
0
SOLID
5
14E
100
AcDbEntity
8
SK2
62
256
6
ByLayer
370
18
48
1
60
0
100
AcDbTrace
10
17.26
20
13.634119
30
0
11
20.759998
21
14.094903
31
0
12
20.760002
22
13.173335
32
0
13
20.760002
23
13.173335
33
0
39
0
210
0
220
0
230
1
0
SOLID
5
14F
100
AcDbEntity
8
SK2
62
256
6
ByLayer
370
18
48
1
60
0
100
AcDbTrace
10
30
20
13.634119
30
0
11
26.500002
21
13.173335
31
0
12
26.499998
22
14.094903
32
0
13
26.499998
23
14.094903
33
0
39
0
210
0
220
0
230
1
0
ENDBLK
5
151
100
AcDbEntity
8
0
100
AcDbBlockEnd
0
BLOCK
5
156
100
AcDbEntity
8
0
100
AcDbBlockBegin
2
*D7
70
1
10
0
20
0
30
0
3
*D7
0
LINE
5
158
100
AcDbEntity
8
0
62
256
6
ByLayer
370
-2
48
1
60
0
100
AcDbLine
10
30
20
-1.5875
30
0
11
30
21
-16.827503
31
0
39
0
210
0
220
0
230
1
0
LINE
5
159
100
AcDbEntity
8
0
62
256
6
ByLayer
370
-2
48
1
60
0
100
AcDbLine
10
29.4127
20
-3.6125
30
0
11
29.4127
21
-16.827503
31
0
39
0
210
0
220
0
230
1
0
LINE
5
15A
100
AcDbEntity
8
0
62
256
6
ByLayer
370
-2
48
1
60
0
100
AcDbLine
10
30
20
-14.827503
30
0
11
58
21
-14.827503
31
0
39
0
210
0
220
0
230
1
0
LINE
5
15B
100
AcDbEntity
8
0
62
256
6
ByLayer
370
-2
48
1
60
0
100
AcDbLine
10
33.5
20
-14.827503
30
0
11
37
21
-14.827503
31
0
39
0
210
0
220
0
230
1
0
LINE
5
15C
100
AcDbEntity
8
0
62
256
6
ByLayer
370
-2
48
1
60
0
100
AcDbLine
10
25.9127
20
-14.827503
30
0
11
22.4127
21
-14.827503
31
0
39
0
210
0
220
0
230
1
0
SOLID
5
15D
100
AcDbEntity
8
0
62
256
6
ByLayer
370
-1
48
1
60
0
100
AcDbTrace
10
33.5
20
-14.24417
30
0
11
33.5
21
-15.410837
31
0
12
30
22
-14.827503
32
0
13
30
23
-14.827503
33
0
39
0
210
0
220
0
230
1
0
SOLID
5
15E
100
AcDbEntity
8
0
62
256
6
ByLayer
370
-1
48
1
60
0
100
AcDbTrace
10
25.9127
20
-15.410837
30
0
11
25.9127
21
-14.24417
31
0
12
29.4127
22
-14.827503
32
0
13
29.4127
23
-14.827503
33
0
39
0
210
0
220
0
230
1
0
MTEXT
5
15F
100
AcDbEntity
8
0
62
256
6
ByLayer
370
18
48
1
60
0
100
AcDbMText
10
47.5
20
-7.827503
30
0
210
0
220
0
230
1
1
\A1;0.59
40
3.5
41
0
44
1
50
0
71
5
72
5
7
iso_b_vert
0
POINT
5
160
100
AcDbEntity
8
Defpoints
62
0
6
ByLayer
370
-1
48
1
60
0
100
AcDbPoint
10
30
20
0
30
0
39
0
210
0
220
0
230
1
50
360
0
POINT
5
161
100
AcDbEntity
8
Defpoints
62
0
6
ByLayer
370
-1
48
1
60
0
100
AcDbPoint
10
29.4127
20
-2.025
30
0
39
0
210
0
220
0
230
1
50
360
0
POINT
5
162
100
AcDbEntity
8
Defpoints
62
0
6
ByLayer
370
-1
48
1
60
0
100
AcDbPoint
10
29.4127
20
-14.827503
30
0
39
0
210
0
220
0
230
1
50
360
0
ENDBLK
5
157
100
AcDbEntity
8
0
100
AcDbBlockEnd
0
BLOCK
5
16A
100
AcDbEntity
8
0
100
AcDbBlockBegin
2
_U3
70
0
10
0
20
0
30
0
3
_U3
0
MTEXT
5
164
100
AcDbEntity
8
SK2
62
256
6
ByLayer
370
13
48
1
60
0
100
AcDbMText
10
36.15186
20
-13.79487
30
0
210
0
220
0
230
1
1
\W0.7259;0,59
40
3.5
41
0
44
1.084337
50
0
71
7
72
5
7
iso_b_vert
0
LINE
5
165
100
AcDbEntity
8
SK2
62
256
6
ByLayer
370
13
48
1
60
0
100
AcDbLine
10
30
20
-1.5875
30
0
11
30
21
-16.827503
31
0
39
0
210
0
220
0
230
1
0
LINE
5
166
100
AcDbEntity
8
SK2
62
256
6
ByLayer
370
13
48
1
60
0
100
AcDbLine
10
29.4127
20
-3.6125
30
0
11
29.4127
21
-16.827503
31
0
39
0
210
0
220
0
230
1
0
LINE
5
167
100
AcDbEntity
8
SK2
62
256
6
ByLayer
370
13
48
1
60
0
100
AcDbLine
10
20.6627
20
-14.827503
30
0
11
43.996491
21
-14.827503
31
0
39
0
210
0
220
0
230
1
0
SOLID
5
168
100
AcDbEntity
8
SK2
62
256
6
ByLayer
370
18
48
1
60
0
100
AcDbTrace
10
30
20
-14.827503
30
0
11
33.499998
21
-14.366719
31
0
12
33.500002
22
-15.288287
32
0
13
33.500002
23
-15.288287
33
0
39
0
210
0
220
0
230
1
0
SOLID
5
169
100
AcDbEntity
8
SK2
62
256
6
ByLayer
370
18
48
1
60
0
100
AcDbTrace
10
29.4127
20
-14.827503
30
0
11
25.912702
21
-15.288287
31
0
12
25.912698
22
-14.366719
32
0
13
25.912698
23
-14.366719
33
0
39
0
210
0
220
0
230
1
0
ENDBLK
5
16B
100
AcDbEntity
8
0
100
AcDbBlockEnd
0
BLOCK
5
170
100
AcDbEntity
8
0
100
AcDbBlockBegin
2
*D9
70
1
10
0
20
0
30
0
3
*D9
0
LINE
5
172
100
AcDbEntity
8
0
62
256
6
ByLayer
370
-2
48
1
60
0
100
AcDbLine
10
-36
20
-4.5875
30
0
11
-36
21
-23.343428
31
0
39
0
210
0
220
0
230
1
0
LINE
5
173
100
AcDbEntity
8
0
62
256
6
ByLayer
370
-2
48
1
60
0
100
AcDbLine
10
29.4127
20
-3.6125
30
0
11
29.4127
21
-23.343428
31
0
39
0
210
0
220
0
230
1
0
LINE
5
174
100
AcDbEntity
8
0
62
256
6
ByLayer
370
-2
48
1
60
0
100
AcDbLine
10
-32.5
20
-21.343428
30
0
11
25.9127
21
-21.343428
31
0
39
0
210
0
220
0
230
1
0
SOLID
5
175
100
AcDbEntity
8
0
62
256
6
ByLayer
370
-1
48
1
60
0
100
AcDbTrace
10
-32.5
20
-20.760095
30
0
11
-32.5
21
-21.926762
31
0
12
-36
22
-21.343428
32
0
13
-36
23
-21.343428
33
0
39
0
210
0
220
0
230
1
0
SOLID
5
176
100
AcDbEntity
8
0
62
256
6
ByLayer
370
-1
48
1
60
0
100
AcDbTrace
10
25.9127
20
-21.926762
30
0
11
25.9127
21
-20.760095
31
0
12
29.4127
22
-21.343428
32
0
13
29.4127
23
-21.343428
33
0
39
0
210
0
220
0
230
1
0
MTEXT
5
177
100
AcDbEntity
8
0
62
256
6
ByLayer
370
18
48
1
60
0
100
AcDbMText
10
-3.29365
20
-14.343428
30
0
210
0
220
0
230
1
1
\A1;65.41
40
3.5
41
0
44
1
50
0
71
5
72
5
7
iso_b_vert
0
POINT
5
178
100
AcDbEntity
8
Defpoints
62
0
6
ByLayer
370
-1
48
1
60
0
100
AcDbPoint
10
-36
20
-3
30
0
39
0
210
0
220
0
230
1
50
360
0
POINT
5
179
100
AcDbEntity
8
Defpoints
62
0
6
ByLayer
370
-1
48
1
60
0
100
AcDbPoint
10
29.4127
20
-2.025
30
0
39
0
210
0
220
0
230
1
50
360
0
POINT
5
17A
100
AcDbEntity
8
Defpoints
62
0
6
ByLayer
370
-1
48
1
60
0
100
AcDbPoint
10
29.4127
20
-21.343428
30
0
39
0
210
0
220
0
230
1
50
360
0
ENDBLK
5
171
100
AcDbEntity
8
0
100
AcDbBlockEnd
0
BLOCK
5
182
100
AcDbEntity
8
0
100
AcDbBlockBegin
2
_U4
70
0
10
0
20
0
30
0
3
_U4
0
MTEXT
5
17C
100
AcDbEntity
8
SK2
62
256
6
ByLayer
370
13
48
1
60
0
100
AcDbMText
10
-8.177782
20
-20.310795
30
0
210
0
220
0
230
1
1
\W0.7494;65,41
40
3.5
41
0
44
1.084337
50
0
71
7
72
5
7
iso_b_vert
0
LINE
5
17D
100
AcDbEntity
8
SK2
62
256
6
ByLayer
370
13
48
1
60
0
100
AcDbLine
10
-36
20
-4.5875
30
0
11
-36
21
-23.343428
31
0
39
0
210
0
220
0
230
1
0
LINE
5
17E
100
AcDbEntity
8
SK2
62
256
6
ByLayer
370
13
48
1
60
0
100
AcDbLine
10
29.4127
20
-3.6125
30
0
11
29.4127
21
-23.343428
31
0
39
0
210
0
220
0
230
1
0
LINE
5
17F
100
AcDbEntity
8
SK2
62
256
6
ByLayer
370
13
48
1
60
0
100
AcDbLine
10
-36
20
-21.343428
30
0
11
29.4127
21
-21.343428
31
0
39
0
210
0
220
0
230
1
0
SOLID
5
180
100
AcDbEntity
8
SK2
62
256
6
ByLayer
370
18
48
1
60
0
100
AcDbTrace
10
-36
20
-21.343428
30
0
11
-32.500002
21
-20.882645
31
0
12
-32.499998
22
-21.804212
32
0
13
-32.499998
23
-21.804212
33
0
39
0
210
0
220
0
230
1
0
SOLID
5
181
100
AcDbEntity
8
SK2
62
256
6
ByLayer
370
18
48
1
60
0
100
AcDbTrace
10
29.4127
20
-21.343428
30
0
11
25.912702
21
-21.804212
31
0
12
25.912698
22
-20.882645
32
0
13
25.912698
23
-20.882645
33
0
39
0
210
0
220
0
230
1
0
ENDBLK
5
183
100
AcDbEntity
8
0
100
AcDbBlockEnd
0
ENDSEC
0
SECTION
2
ENTITIES
0
ARC
5
AC
100
AcDbEntity
8
1
62
256
6
ByLayer
370
18
48
1
60
0
100
AcDbCircle
39
0
10
1.480167
20
-2.807541
30
0
40
0.799999999999996
210
0
220
0
230
1
100
AcDbArc
50
89.96419
51
157.684105
0
ARC
5
AD
100
AcDbEntity
8
1
62
256
6
ByLayer
370
18
48
1
60
0
100
AcDbCircle
39
0
10
1.480167
20
2.807541
30
0
40
0.799999999999996
210
0
220
0
230
1
100
AcDbArc
50
202.315895
51
270.03581
0
ARC
5
AE
100
AcDbEntity
8
1
62
256
6
ByLayer
370
18
48
1
60
0
100
AcDbCircle
39
0
10
0
20
-2.2
30
0
40
0.800000000000002
210
0
220
0
230
1
100
AcDbArc
50
270
51
337.684105
0
ARC
5
AF
100
AcDbEntity
8
1
62
256
6
ByLayer
370
18
48
1
60
0
100
AcDbCircle
39
0
10
0
20
2.2
30
0
40
0.800000000000002
210
0
220
0
230
1
100
AcDbArc
50
22.315895
51
90
0
ELLIPSE
5
B0
100
AcDbEntity
8
1
62
256
6
ByLayer
370
18
48
1
60
0
100
AcDbEllipse
10
8.25
20
2.160725
30
0
11
0.25
21
0
31
0
210
0
220
0
230
1
40
1
41
-2.4090166989025
42
-1.55186438481829
0
ELLIPSE
5
B1
100
AcDbEntity
8
1
62
256
6
ByLayer
370
18
48
1
60
0
100
AcDbEllipse
10
8.25
20
-2.160725
30
0
11
0.25
21
0
31
0
210
0
220
0
230
1
40
1
41
1.58800057629994
42
2.4175554178345
0
POINT
5
70
100
AcDbEntity
8
80
62
256
6
ByLayer
370
18
48
1
60
0
100
AcDbPoint
10
0
20
0
30
0
39
0
210
0
220
0
230
1
50
360
0
POINT
5
72
100
AcDbEntity
8
81
62
256
6
ByLayer
370
18
48
1
60
0
100
AcDbPoint
10
30
20
0
30
0
39
0
210
0
220
0
230
1
50
360
0
POINT
5
74
100
AcDbEntity
8
1
62
256
6
ByLayer
370
18
48
1
60
1
100
AcDbPoint
10
29.4127
20
-2.025
30
0
39
0
210
0
220
0
230
1
50
360
0
POINT
5
76
100
AcDbEntity
8
1
62
256
6
ByLayer
370
18
48
1
60
1
100
AcDbPoint
10
-36
20
-3
30
0
39
0
210
0
220
0
230
1
50
360
0
POINT
5
77
100
AcDbEntity
8
1
62
256
6
ByLayer
370
18
48
1
60
1
100
AcDbPoint
10
17.26
20
2.025
30
0
39
0
210
0
220
0
230
1
50
360
0
POINT
5
78
100
AcDbEntity
8
1
62
256
6
ByLayer
370
18
48
1
60
1
100
AcDbPoint
10
29.4127
20
-2.025
30
0
39
0
210
0
220
0
230
1
50
360
0
POINT
5
79
100
AcDbEntity
8
1
62
256
6
ByLayer
370
18
48
1
60
1
100
AcDbPoint
10
-36
20
-3
30
0
39
0
210
0
220
0
230
1
50
360
0
POINT
5
7A
100
AcDbEntity
8
1
62
256
6
ByLayer
370
18
48
1
60
1
100
AcDbPoint
10
29.4127
20
-2.025
30
0
39
0
210
0
220
0
230
1
50
360
0
SPLINE
5
B2
100
AcDbEntity
8
SK1
62
256
6
ByLayer
370
18
48
1
60
0
100
AcDbSpline
70
4
71
3
72
12
73
8
40
0
40
0
40
0
40
0
40
0.500000000000002
40
0.500000000000002
40
0.750000000000001
40
0.750000000000001
40
1
40
1
40
1
40
1
41
1
10
-35.75
20
-2.28426366782176
30
0
41
1
10
-35.7259913046562
20
-2.30928889197995
30
0
41
1
10
-35.7033433879313
20
-2.33428613129775
30
0
41
1
10
-35.6754686754417
20
-2.36674074745613
30
0
41
1
10
-35.667025596347
20
-2.37692932558383
30
0
41
1
10
-35.6543350076412
20
-2.39332240448721
30
0
41
1
10
-35.65
20
-2.39966471523607
30
0
41
1
10
-35.65
20
-2.4015168214153
30
0
0
SPLINE
5
B3
100
AcDbEntity
8
SK1
62
256
6
ByLayer
370
18
48
1
60
0
100
AcDbSpline
70
4
71
3
72
8
73
4
40
0
40
0
40
0
40
0
40
1
40
1
40
1
40
1
41
1
10
-35.75
20
-2.03523392791641
30
0
41
1
10
-35.8336559242578
20
-1.94803600954839
30
0
41
1
10
-35.9170308686621
20
-1.86058590880563
30
0
41
1
10
-36
20
-1.77277158656639
30
0
0
SPLINE
5
B4
100
AcDbEntity
8
SK1
62
256
6
ByLayer
370
18
48
1
60
0
100
AcDbSpline
70
4
71
3
72
8
73
4
40
0
40
0
40
0
40
0
40
1
40
1
40
1
40
1
41
1
10
-35.9999999999999
20
2.02180132647169
30
0
41
1
10
-35.9170322293253
20
2.10961420858831
30
0
41
1
10
-35.8336571394754
20
2.19706448278365
30
0
41
1
10
-35.7499999999999
20
2.28426366782168
30
0
0
SPLINE
5
B5
100
AcDbEntity
8
SK1
62
256
6
ByLayer
370
18
48
1
60
0
100
AcDbSpline
70
4
71
3
72
12
73
8
40
0
40
0
40
0
40
0
40
0.499999999999998
40
0.499999999999998
40
0.749999999999999
40
0.749999999999999
40
1
40
1
40
1
40
1
41
1
10
-35.75
20
2.28426366782176
30
0
41
1
10
-35.7259913046562
20
2.30928889197995
30
0
41
1
10
-35.7033433879313
20
2.33428613129775
30
0
41
1
10
-35.6754686754417
20
2.36674074745613
30
0
41
1
10
-35.667025596347
20
2.37692932558383
30
0
41
1
10
-35.6543350076412
20
2.39332240448721
30
0
41
1
10
-35.65
20
2.39966471523607
30
0
41
1
10
-35.65
20
2.4015168214153
30
0
0
SPLINE
5
B6
100
AcDbEntity
8
SK1
62
256
6
ByLayer
370
18
48
1
60
0
100
AcDbSpline
70
4
71
3
72
8
73
4
40
0
40
0
40
0
40
0
40
1
40
1
40
1
40
1
41
1
10
-35.9999999999999
20
-2.02180132647169
30
0
41
1
10
-35.9170322293253
20
-2.10961420858831
30
0
41
1
10
-35.8336571394754
20
-2.19706448278365
30
0
41
1
10
-35.7499999999999
20
-2.28426366782168
30
0
0
SPLINE
5
B7
100
AcDbEntity
8
SK1
62
256
6
ByLayer
370
18
48
1
60
0
100
AcDbSpline
70
4
71
3
72
12
73
8
40
0
40
0
40
0
40
0
40
0.249999999999999
40
0.249999999999999
40
0.499999999999998
40
0.499999999999998
40
1
40
1
40
1
40
1
41
1
10
-35.65
20
-2.18569104683078
30
0
41
1
10
-35.65
20
-2.1782150063855
30
0
41
1
10
-35.6543403470551
20
-2.16674315420042
30
0
41
1
10
-35.6670034572333
20
-2.14202844919251
30
0
41
1
10
-35.6754069618005
20
-2.12849872637898
30
0
41
1
10
-35.7033744297257
20
-2.08793327680527
30
0
41
1
10
-35.7260009806423
20
-2.06024906640707
30
0
41
1
10
-35.7500000000001
20
-2.03523392791646
30
0
0
SPLINE
5
B8
100
AcDbEntity
8
1
62
256
6
ByLayer
370
18
48
1
60
0
100
AcDbSpline
70
4
71
3
72
8
73
4
40
0
40
0
40
0
40
0
40
1
40
1
40
1
40
1
41
1
10
29.999951955149
20
0.0321426719213207
30
0
41
1
10
30.0000160234965
20
0.0107113647300139
30
0
41
1
10
30.0000160055819
20
-0.010717357256226
30
0
41
1
10
29.9999519551491
20
-0.0321426718866746
30
0
0
SPLINE
5
B9
100
AcDbEntity
8
1
62
256
6
ByLayer
370
18
48
1
60
0
100
AcDbSpline
70
4
71
3
72
8
73
4
40
0
40
0
40
0
40
0
40
1
40
1
40
1
40
1
41
1
10
29.3022962159886
20
2.01835616316308
30
0
41
1
10
29.2057887888008
20
2.02270532423296
30
0
41
1
10
29.1094119391451
20
2.02483451185085
30
0
41
1
10
29.0130974136347
20
2.02476010658856
30
0
0
SPLINE
5
BA
100
AcDbEntity
8
1
62
256
6
ByLayer
370
18
48
1
60
0
100
AcDbSpline
70
4
71
3
72
36
73
32
40
0
40
0
40
0
40
0
40
0.0035808380808819
40
0.0035808380808819
40
0.0658570357008252
40
0.0658570357008252
40
0.128133233320769
40
0.128133233320769
40
0.252685628560657
40
0.252685628560657
40
0.314961826180601
40
0.314961826180601
40
0.346099924990573
40
0.346099924990573
40
0.377238023800545
40
0.377238023800545
40
0.501790419040436
40
0.501790419040436
40
0.564066616660382
40
0.564066616660382
40
0.626342814280328
40
0.626342814280328
40
0.750895209520219
40
0.750895209520219
40
0.782033308330191
40
0.782033308330191
40
0.813171407140164
40
0.813171407140164
40
0.875447604760109
40
0.875447604760109
40
1
40
1
40
1
40
1
41
1
10
18.7783768077259
20
-1.93783291510428
30
0
41
1
10
18.7657778550545
20
-1.93981196256931
30
0
41
1
10
18.7531780049117
20
-1.94175535649688
30
0
41
1
10
18.5214283757724
20
-1.9768398590723
30
0
41
1
10
18.3018325777626
20
-1.99911357181568
30
0
41
1
10
17.8600201748048
20
-2.02086712963668
30
0
41
1
10
17.6372890063687
20
-2.02021197119171
30
0
41
1
10
16.975854360324
20
-1.98371251699646
30
0
41
1
10
16.539111988088
20
-1.91406614838465
30
0
41
1
10
15.8808620819685
20
-1.74749917194492
30
0
41
1
10
15.6607812364392
20
-1.68171524170674
30
0
41
1
10
15.3284003375038
20
-1.56846420355808
30
0
41
1
10
15.2171364410489
20
-1.5282301147999
30
0
41
1
10
14.9958482552167
20
-1.44396589872366
30
0
41
1
10
14.8855500975636
20
-1.39985153674965
30
0
41
1
10
14.3352592062339
20
-1.17019451051073
30
0
41
1
10
13.8988978176405
20
-0.957320660480519
30
0
41
1
10
13.2394045020985
20
-0.611025711400146
30
0
41
1
10
13.018590654662
20
-0.490856215859736
30
0
41
1
10
12.5744103147388
20
-0.244931338530535
30
0
41
1
10
12.3539226585174
20
-0.120880975846632
30
0
41
1
10
11.6945941501938
20
0.249751009116665
30
0
41
1
10
11.2581753699035
20
0.49532417700371
30
0
41
1
10
10.707354060824
20
0.783896770894614
30
0
41
1
10
10.5969297061569
20
0.840701005411887
30
0
41
1
10
10.3753547225145
20
0.95211945131453
30
0
41
1
10
10.2640342293487
20
1.00681447660767
30
0
41
1
10
9.93176727971274
20
1.16548855017027
30
0
41
1
10
9.7115849822803
20
1.26452791129833
30
0
41
1
10
9.05230039683528
20
1.53804369695547
30
0
41
1
10
8.61470978573885
20
1.68914716497889
30
0
41
1
10
8.17141041707814
20
1.79994307300109
30
0
0
SPLINE
5
BB
100
AcDbEntity
8
1
62
256
6
ByLayer
370
18
48
1
60
0
100
AcDbSpline
70
4
71
3
72
60
73
56
40
0
40
0
40
0
40
0
40
0.0362496520394667
40
0.0362496520394667
40
0.0754171368762456
40
0.0754171368762456
40
0.114584621713024
40
0.114584621713024
40
0.153752106549803
40
0.153752106549803
40
0.192919591386582
40
0.192919591386582
40
0.232087076223361
40
0.232087076223361
40
0.27125456106014
40
0.27125456106014
40
0.310422045896919
40
0.310422045896919
40
0.349589530733697
40
0.349589530733697
40
0.388757015570476
40
0.388757015570476
40
0.427924500407255
40
0.427924500407255
40
0.467091985244034
40
0.467091985244034
40
0.506259470080813
40
0.506259470080813
40
0.545426954917592
40
0.545426954917592
40
0.584594439754371
40
0.584594439754371
40
0.62376192459115
40
0.62376192459115
40
0.662929409427928
40
0.662929409427928
40
0.682513151846317
40
0.682513151846317
40
0.702096894264706
40
0.702096894264706
40
0.741264379101484
40
0.741264379101484
40
0.780431863938262
40
0.780431863938262
40
0.819599348775039
40
0.819599348775039
40
0.858766833611817
40
0.858766833611817
40
0.897934318448595
40
0.897934318448595
40
0.937101803285373
40
0.937101803285373
40
0.97626928812215
40
0.97626928812215
40
1
40
1
40
1
40
1
41
1
10
25.7721834624961
20
-1.48128974841092
30
0
41
1
10
25.6061393192737
20
-1.53795569494321
30
0
41
1
10
25.439764285179
20
-1.59019796121888
30
0
41
1
10
25.0944891192071
20
-1.68706531985805
30
0
41
1
10
24.9156875746216
20
-1.73068673471982
30
0
41
1
10
24.5572025324292
20
-1.80484395574837
30
0
41
1
10
24.3774641515944
20
-1.83624262203296
30
0
41
1
10
24.0187216424575
20
-1.88406915172868
30
0
41
1
10
23.8397210885041
20
-1.90127649772626
30
0
41
1
10
23.4813046327793
20
-1.91834514790506
30
0
41
1
10
23.3023478187602
20
-1.92023378727762
30
0
41
1
10
22.9431404202589
20
-1.91124689788202
30
0
41
1
10
22.76384417016
20
-1.89995032106754
30
0
41
1
10
22.4059807393122
20
-1.86201337005366
30
0
41
1
10
22.2268512009949
20
-1.83389772512888
30
0
41
1
10
21.8680926905852
20
-1.76743440947544
30
0
41
1
10
21.6886271896357
20
-1.72775179509756
30
0
41
1
10
21.3302577103623
20
-1.636421162792
30
0
41
1
10
21.1514727973982
20
-1.58452987391925
30
0
41
1
10
20.7934039500423
20
-1.46759717802865
30
0
41
1
10
20.6136315542969
20
-1.40333413943355
30
0
41
1
10
20.2546886106916
20
-1.26517989075401
30
0
41
1
10
20.0758718605459
20
-1.19059869267457
30
0
41
1
10
19.7176577210389
20
-1.03508169001805
30
0
41
1
10
19.5387232235817
20
-0.953088535045737
30
0
41
1
10
19.1796383920483
20
-0.781529482580822
30
0
41
1
10
19.000127944579
20
-0.692780655732122
30
0
41
1
10
18.6419898048051
20
-0.510494316205637
30
0
41
1
10
18.4631400942361
20
-0.417216767659568
30
0
41
1
10
18.1044792305131
20
-0.22830152140358
30
0
41
1
10
17.9248893210995
20
-0.13196669985237
30
0
41
1
10
17.5665350779595
20
0.0594909196981064
30
0
41
1
10
17.387246395926
20
0.154611333679441
30
0
41
1
10
17.0294273612524
20
0.34541963644628
30
0
41
1
10
16.8497254905703
20
0.439774488715329
30
0
41
1
10
16.5807462023407
20
0.578013683536568
30
0
41
1
10
16.491206145675
20
0.623310838313984
30
0
41
1
10
16.3122078730703
20
0.712673582233208
30
0
41
1
10
16.2227576108156
20
0.756899874803736
30
0
41
1
10
15.9542563307765
20
0.887193643248054
30
0
41
1
10
15.7749734283207
20
0.970635898392771
30
0
41
1
10
15.4163081439886
20
1.13190244257899
30
0
41
1
10
15.2370771709082
20
1.20763443481883
30
0
41
1
10
14.8791672490572
20
1.35000697166814
30
0
41
1
10
14.7005333218204
20
1.41715081872331
30
0
41
1
10
14.3417835267226
20
1.53726350658613
30
0
41
1
10
14.1619843724387
20
1.59233756407306
30
0
41
1
10
13.8039843811406
20
1.69161323973401
30
0
41
1
10
13.624977071735
20
1.73516779835387
30
0
41
1
10
13.2666942459213
20
1.80749182141736
30
0
41
1
10
13.0869585775864
20
1.8359384996561
30
0
41
1
10
12.7279879779633
20
1.88056003819608
30
0
41
1
10
12.5489425956139
20
1.89661200215534
30
0
41
1
10
12.2613542015611
20
1.91064261415249
30
0
41
1
10
12.1526593309295
20
1.91310954221905
30
0
41
1
10
12.0438763667846
20
1.91282828689742
30
0
0
SPLINE
5
BC
100
AcDbEntity
8
1
62
256
6
ByLayer
370
18
48
1
60
0
100
AcDbSpline
70
4
71
3
72
8
73
4
40
0
40
0
40
0
40
0
40
1
40
1
40
1
40
1
41
1
10
29.965106278117
20
0.553108185437367
30
0
41
1
10
29.9765600066688
20
0.400305248613137
30
0
41
1
10
29.984864551273
20
0.247740244196564
30
0
41
1
10
29.9900240318082
20
0.0954128609157578
30
0
0
SPLINE
5
BD
100
AcDbEntity
8
1
62
256
6
ByLayer
370
18
48
1
60
0
100
AcDbSpline
70
4
71
3
72
10
73
6
40
0
40
0
40
0
40
0
40
0.5
40
0.5
40
1
40
1
40
1
40
1
41
1
10
29.4160185746863
20
-1.94945277940249
30
0
41
1
10
29.5018952567398
20
-1.71296753714975
30
0
41
1
10
29.591108109494
20
-1.478889113544
30
0
41
1
10
29.774526550847
20
-1.01383198385335
30
0
41
1
10
29.8689060615396
20
-0.782973956345728
30
0
41
1
10
29.965106278117
20
-0.553108185436855
30
0
0
SPLINE
5
BE
100
AcDbEntity
8
1
62
256
6
ByLayer
370
18
48
1
60
0
100
AcDbSpline
70
4
71
3
72
14
73
10
40
0
40
0
40
0
40
0
40
0.25
40
0.25
40
0.5
40
0.5
40
0.75
40
0.75
40
1
40
1
40
1
40
1
41
1
10
29.1573484900288
20
-1.50702251203833
30
0
41
1
10
29.1568635952992
20
-1.57712137183387
30
0
41
1
10
29.159603246474
20
-1.63876569045396
30
0
41
1
10
29.1717208436887
20
-1.7454353519623
30
0
41
1
10
29.1812606919316
20
-1.79069216681634
30
0
41
1
10
29.2069007234891
20
-1.86108340125924
30
0
41
1
10
29.2229744613922
20
-1.88670293030745
30
0
41
1
10
29.2621290874199
20
-1.91920463139857
30
0
41
1
10
29.2853238801891
20
-1.9259343845788
30
0
41
1
10
29.3117735107161
20
-1.92305176496518
30
0
0
SPLINE
5
BF
100
AcDbEntity
8
1
62
256
6
ByLayer
370
18
48
1
60
0
100
AcDbSpline
70
4
71
3
72
22
73
18
40
0
40
0
40
0
40
0
40
0.125250497075968
40
0.125250497075968
40
0.250500994151936
40
0.250500994151936
40
0.375751491227904
40
0.375751491227904
40
0.501001988303872
40
0.501001988303872
40
0.62625248537984
40
0.62625248537984
40
0.751502982455808
40
0.751502982455808
40
0.876753479531776
40
0.876753479531776
40
1
40
1
40
1
40
1
41
1
10
10.2195502800541
20
-1.66676411127415
30
0
41
1
10
10.3993820961987
20
-1.71353851079522
30
0
41
1
10
10.5790200500401
20
-1.75448335791347
30
0
41
1
10
10.937237484134
20
-1.8229606699108
30
0
41
1
10
11.1161908487799
20
-1.84986353156532
30
0
41
1
10
11.4752273053606
20
-1.88960244531881
30
0
41
1
10
11.6550721195638
20
-1.90269032891763
30
0
41
1
10
12.01374996
20
-1.91513739535301
30
0
41
1
10
12.192971303523
20
-1.91404165707127
30
0
41
1
10
12.5513197689163
20
-1.89643238147113
30
0
41
1
10
12.7310546317456
20
-1.88025595126439
30
0
41
1
10
13.090391325847
20
-1.83543327640044
30
0
41
1
10
13.2695236302106
20
-1.80700126500218
30
0
41
1
10
13.6278592301541
20
-1.73450411076607
30
0
41
1
10
13.807202546005
20
-1.69080929466446
30
0
41
1
10
14.1635144440911
20
-1.5918243259739
30
0
41
1
10
14.3403351742225
20
-1.53769531357159
30
0
41
1
10
14.516847320348
20
-1.47865060936735
30
0
0
SPLINE
5
C0
100
AcDbEntity
8
1
62
256
6
ByLayer
370
18
48
1
60
0
100
AcDbSpline
70
4
71
3
72
24
73
20
40
0
40
0
40
0
40
0
40
0.088597223436215
40
0.088597223436215
40
0.218797620088184
40
0.218797620088184
40
0.348998016740154
40
0.348998016740154
40
0.479198413392123
40
0.479198413392123
40
0.609398810044092
40
0.609398810044092
40
0.739599206696061
40
0.739599206696061
40
0.804699405022046
40
0.804699405022046
40
0.869799603348031
40
0.869799603348031
40
1
40
1
40
1
40
1
41
1
10
23.2985447370879
20
1.91809304803633
30
0
41
1
10
23.42028504801
20
1.91829930838
30
0
41
1
10
23.5419797498733
20
1.91552677087498
30
0
41
1
10
23.8431053045421
20
1.9010083403291
30
0
41
1
10
24.0227558689284
20
1.88362985768541
30
0
41
1
10
24.380976762569
20
1.83567369520068
30
0
41
1
10
24.5598993903861
20
1.80434191066453
30
0
41
1
10
24.917982156609
20
1.73015545306089
30
0
41
1
10
25.0971231475258
20
1.68639216431754
30
0
41
1
10
25.4560812677973
20
1.58555335432464
30
0
41
1
10
25.6350030412203
20
1.52882138539596
30
0
41
1
10
25.9928714702589
20
1.40506933093218
30
0
41
1
10
26.1720060549095
20
1.33880776535568
30
0
41
1
10
26.4411048780895
20
1.2305001291773
30
0
41
1
10
26.5307582767209
20
1.19273578393697
30
0
41
1
10
26.7099045548722
20
1.11547380130318
30
0
41
1
10
26.7995267173226
20
1.07601189297975
30
0
41
1
10
27.0681699200897
20
0.954697212229149
30
0
41
1
10
27.2470371329719
20
0.870012781971866
30
0
41
1
10
27.4262353701381
20
0.782589945569811
30
0
0
SPLINE
5
C1
100
AcDbEntity
8
1
62
256
6
ByLayer
370
18
48
1
60
0
100
AcDbSpline
70
4
71
3
72
8
73
4
40
0
40
0
40
0
40
0
40
1
40
1
40
1
40
1
41
1
10
29.9900240318082
20
0.0954128609157294
30
0
41
1
10
29.9906225649935
20
0.0777418970841381
30
0
41
1
10
29.9944490830436
20
0.0554477331880037
30
0
41
1
10
29.999951955149
20
0.0321426719213491
30
0
0
SPLINE
5
C2
100
AcDbEntity
8
1
62
256
6
ByLayer
370
18
48
1
60
0
100
AcDbSpline
70
4
71
3
72
22
73
18
40
0
40
0
40
0
40
0
40
0.0795138104939704
40
0.0795138104939704
40
0.163194373176337
40
0.163194373176337
40
0.330555498541069
40
0.330555498541069
40
0.497916623905802
40
0.497916623905802
40
0.665277749270535
40
0.665277749270535
40
0.748958311952901
40
0.748958311952901
40
0.832638874635267
40
0.832638874635267
40
1
40
1
40
1
40
1
41
1
10
8.04931312024445
20
-2.01164495940398
30
0
41
1
10
8.04931039398573
20
-2.01171066163278
30
0
41
1
10
8.04930725612087
20
-2.00904243582804
30
0
41
1
10
8.04930061962673
20
-1.99785909147002
30
0
41
1
10
8.04929709378649
20
-1.98896675258811
30
0
41
1
10
8.04928743785501
20
-1.95335868362236
30
0
41
1
10
8.04928224775381
20
-1.91790113988947
30
0
41
1
10
8.04927868768439
20
-1.82402778468597
30
0
41
1
10
8.04928042191102
20
-1.76478441912843
30
0
41
1
10
8.04929324231574
20
-1.62709177183388
30
0
41
1
10
8.04930422880378
20
-1.54860177238302
30
0
41
1
10
8.04932771430384
20
-1.4163280570958
30
0
41
1
10
8.04933675872849
20
-1.36952303659217
30
0
41
1
10
8.04935671327561
20
-1.27242739489574
30
0
41
1
10
8.04936760549489
20
-1.22217652244413
30
0
41
1
10
8.04940244426842
20
-1.06644454026383
30
0
41
1
10
8.04942860515973
20
-0.956029516787822
30
0
41
1
10
8.04945563295942
20
-0.8388143763095
30
0
0
SPLINE
5
C3
100
AcDbEntity
8
1
62
256
6
ByLayer
370
18
48
1
60
0
100
AcDbSpline
70
4
71
3
72
14
73
10
40
0
40
0
40
0
40
0
40
0.25
40
0.25
40
0.5
40
0.5
40
0.75
40
0.75
40
1
40
1
40
1
40
1
41
1
10
8.25030270003117
20
-0.885405119089398
30
0
41
1
10
8.41198400604503
20
-0.971181108849862
30
0
41
1
10
8.57416281759359
20
-1.05209517504383
30
0
41
1
10
8.90002785773629
20
-1.20431158144157
30
0
41
1
10
9.06385096165545
20
-1.27577403451946
30
0
41
1
10
9.39155258299473
20
-1.40804116329369
30
0
41
1
10
9.55567974217828
20
-1.46845939253618
30
0
41
1
10
9.88581304043066
20
-1.57675635708671
30
0
41
1
10
10.0518316268655
20
-1.624719653923
30
0
41
1
10
10.2195502800518
20
-1.6667641112731
30
0
0
SPLINE
5
C4
100
AcDbEntity
8
1
62
256
6
ByLayer
370
18
48
1
60
0
100
AcDbSpline
70
4
71
3
72
8
73
4
40
0
40
0
40
0
40
0
40
1
40
1
40
1
40
1
41
1
10
29.4160185746863
20
1.94945277940252
30
0
41
1
10
29.3738182097109
20
1.98458511202031
30
0
41
1
10
29.3360114401941
20
2.0077526573873
30
0
41
1
10
29.3022962159885
20
2.01835616316308
30
0
0
SPLINE
5
C5
100
AcDbEntity
8
1
62
256
6
ByLayer
370
18
48
1
60
0
100
AcDbSpline
70
4
71
3
72
8
73
4
40
0
40
0
40
0
40
0
40
1
40
1
40
1
40
1
41
1
10
8.04929912835246
20
1.86161547620455
30
0
41
1
10
8.05580026210629
20
1.85169754899189
30
0
41
1
10
8.0629062722937
20
1.84219581734311
30
0
41
1
10
8.07060238374959
20
1.8331966479229
30
0
0
SPLINE
5
C6
100
AcDbEntity
8
1
62
256
6
ByLayer
370
18
48
1
60
0
100
AcDbSpline
70
4
71
3
72
36
73
32
40
0
40
0
40
0
40
0
40
0.114411318225264
40
0.114411318225264
40
0.171616977337895
40
0.171616977337895
40
0.228822636450527
40
0.228822636450527
40
0.343233954675792
40
0.343233954675792
40
0.371836784232108
40
0.371836784232108
40
0.400439613788424
40
0.400439613788424
40
0.457645272901056
40
0.457645272901056
40
0.572056591126318
40
0.572056591126318
40
0.686467909351581
40
0.686467909351581
40
0.743673568464212
40
0.743673568464212
40
0.772276398020527
40
0.772276398020527
40
0.800879227576842
40
0.800879227576842
40
0.915290545802099
40
0.915290545802099
40
0.972496204914726
40
0.972496204914726
40
1
40
1
40
1
40
1
41
1
10
29.3022962159886
20
-2.01835616316308
30
0
41
1
10
28.8606980538171
20
-2.03825703081043
30
0
41
1
10
28.4222780608189
20
-2.01165804395447
30
0
41
1
10
27.7596321563318
20
-1.90477284492644
30
0
41
1
10
27.5371844072243
20
-1.85759540314655
30
0
41
1
10
27.0960377456043
20
-1.74348621572537
30
0
41
1
10
26.8766119390491
20
-1.67659537626619
30
0
41
1
10
26.2195055135369
20
-1.44925663650253
30
0
41
1
10
25.7829414032808
20
-1.2620906324363
30
0
41
1
10
25.2298773979856
20
-0.995000989917287
30
0
41
1
10
25.1186546660698
20
-0.939808821596444
30
0
41
1
10
24.8973276729918
20
-0.827382512325329
30
0
41
1
10
24.787047504452
20
-0.770070114084348
30
0
41
1
10
24.4569790183039
20
-0.595504390532199
30
0
41
1
10
24.2379239786738
20
-0.475689806556773
30
0
41
1
10
23.5810516360217
20
-0.110728154947225
30
0
41
1
10
23.1439463932332
20
0.140705973144748
30
0
41
1
10
22.2558658963481
20
0.632023599052445
30
0
41
1
10
21.8181311052593
20
0.865700359800201
30
0
41
1
10
21.1611769462845
20
1.17907491755
30
0
41
1
10
20.9421096149918
20
1.2775324295807
30
0
41
1
10
20.6121210010597
20
1.41425483829136
30
0
41
1
10
20.5018819902038
20
1.45798597299992
30
0
41
1
10
20.2807209418127
20
1.54145077738468
30
0
41
1
10
20.1695335294749
20
1.58126854746257
30
0
41
1
10
19.6159833386365
20
1.76772181842026
30
0
41
1
10
19.178725652105
20
1.87732838394675
30
0
41
1
10
18.5215805607245
20
1.97681854439446
30
0
41
1
10
18.3021943328876
20
1.99907208112108
30
0
41
1
10
17.9755574150578
20
2.01518974213894
30
0
41
1
10
17.8690084726163
20
2.01776854275891
30
0
41
1
10
17.7624200469071
20
2.01768453652085
30
0
0
SPLINE
5
C7
100
AcDbEntity
8
1
62
256
6
ByLayer
370
13
48
1
60
0
100
AcDbSpline
70
4
71
3
72
12
73
8
40
0
40
0
40
0
40
0
40
0.41888410316851
40
0.41888410316851
40
0.884310366276732
40
0.884310366276732
40
1
40
1
40
1
40
1
41
1
10
8.25027776760575
20
1.7532703830941
30
0
41
1
10
8.25027853370614
20
1.79678871132572
30
0
41
1
10
8.25027367333021
20
1.83124845816786
30
0
41
1
10
8.25025627276233
20
1.88534864874779
30
0
41
1
10
8.25024277603805
20
1.90280143946208
30
0
41
1
10
8.25022499414621
20
1.9099785611285
30
0
41
1
10
8.25022140519306
20
1.91070771854618
30
0
41
1
10
8.25021780863202
20
1.91073530993242
30
0
0
SPLINE
5
C8
100
AcDbEntity
8
1
62
256
6
ByLayer
370
18
48
1
60
0
100
AcDbSpline
70
4
71
3
72
14
73
10
40
0
40
0
40
0
40
0
40
0.250000000000001
40
0.250000000000001
40
0.500000000000002
40
0.500000000000002
40
0.750000000000001
40
0.750000000000001
40
1
40
1
40
1
40
1
41
1
10
29.3117735063241
20
-1.92305176544386
30
0
41
1
10
29.3150978051947
20
-1.92268946602527
30
0
41
1
10
29.3178333020842
20
-1.92388166479435
30
0
41
1
10
29.3217176220091
20
-1.93040737519499
30
0
41
1
10
29.3228264231258
20
-1.93579428656668
30
0
41
1
10
29.3222166319913
20
-1.9520491165849
30
0
41
1
10
29.3204042239808
20
-1.9629721399383
30
0
41
1
10
29.3137096726268
20
-1.98807741586984
30
0
41
1
10
29.3088843193652
20
-2.00204988214188
30
0
41
1
10
29.3035530923001
20
-2.01524568897406
30
0
0
SPLINE
5
C9
100
AcDbEntity
8
1
62
256
6
ByLayer
370
18
48
1
60
0
100
AcDbSpline
70
4
71
3
72
38
73
34
40
0
40
0
40
0
40
0
40
0.0197413430853529
40
0.0197413430853529
40
0.0519990924236876
40
0.0519990924236876
40
0.0842568417620222
40
0.0842568417620222
40
0.213287839115359
40
0.213287839115359
40
0.277803337792028
40
0.277803337792028
40
0.310061087130361
40
0.310061087130361
40
0.342318836468695
40
0.342318836468695
40
0.471349833822027
40
0.471349833822027
40
0.535865332498693
40
0.535865332498693
40
0.600380831175358
40
0.600380831175358
40
0.729411828528688
40
0.729411828528688
40
0.793927327205352
40
0.793927327205352
40
0.826185076543684
40
0.826185076543684
40
0.858442825882015
40
0.858442825882015
40
0.987473823235345
40
0.987473823235345
40
1
40
1
40
1
40
1
41
1
10
8.66139372230043
20
1.65844136754279
30
0
41
1
10
8.72893650385316
20
1.63707259018818
30
0
41
1
10
8.79646442937519
20
1.61481179093346
30
0
41
1
10
8.97436134952991
20
1.55390138389197
30
0
41
1
10
9.08477756280249
20
1.51385390762033
30
0
41
1
10
9.30599499334022
20
1.42947374843735
30
0
41
1
10
9.41699867611129
20
1.38501585931314
30
0
41
1
10
9.97024200406673
20
1.1536848662962
30
0
41
1
10
10.406736654833
20
0.940668958018392
30
0
41
1
10
11.0628821139235
20
0.596395705976448
30
0
41
1
10
11.2817911766871
20
0.477461720092862
30
0
41
1
10
11.6117475090208
20
0.295015568842075
30
0
41
1
10
11.7220075308653
20
0.233544646738096
30
0
41
1
10
11.9433531787014
20
0.10974912074289
30
0
41
1
10
12.0542789564201
20
0.0474915946850558
30
0
41
1
10
12.6058668507843
20
-0.262115162539544
30
0
41
1
10
13.0416095292819
20
-0.50690843691757
30
0
41
1
10
13.6980003676717
20
-0.850222064652343
30
0
41
1
10
13.9172412100771
20
-0.960745566154429
30
0
41
1
10
14.3582353702765
20
-1.1711536673896
30
0
41
1
10
14.5803878556928
20
-1.27111763232094
30
0
41
1
10
15.2404514242074
20
-1.54440084337992
30
0
41
1
10
15.6760537619878
20
-1.69393621724765
30
0
41
1
10
16.3329125055761
20
-1.85861660059936
30
0
41
1
10
16.5524907995635
20
-1.90358695693652
30
0
41
1
10
16.8842938087613
20
-1.95463118662874
30
0
41
1
10
16.9952515812559
20
-1.96891717845366
30
0
41
1
10
17.2160925169656
20
-1.99172526379741
30
0
41
1
10
17.3262269112552
20
-2.00028503817489
30
0
41
1
10
17.8760511166126
20
-2.0289013169859
30
0
41
1
10
18.3138366240424
20
-2.00627536487732
30
0
41
1
10
18.7989747664305
20
-1.93183373576471
30
0
41
1
10
18.8419202974945
20
-1.92482809016809
30
0
41
1
10
18.8848722332713
20
-1.91741064209157
30
0
0
SPLINE
5
CA
100
AcDbEntity
8
1
62
256
6
ByLayer
370
18
48
1
60
0
100
AcDbSpline
70
4
71
3
72
10
73
6
40
0
40
0
40
0
40
0
40
0.5
40
0.5
40
1
40
1
40
1
40
1
41
1
10
29.4160185746862
20
1.94945277940275
30
0
41
1
10
29.5013617132497
20
1.71443679700556
30
0
41
1
10
29.5904085120989
20
1.48070015843896
30
0
41
1
10
29.7739802952298
20
1.01518004877414
30
0
41
1
10
29.8687525227481
20
0.783340829871946
30
0
41
1
10
29.9651062781181
20
0.553108185434382
30
0
0
SPLINE
5
CB
100
AcDbEntity
8
1
62
256
6
ByLayer
370
18
48
1
60
0
100
AcDbSpline
70
4
71
3
72
34
73
30
40
0
40
0
40
0
40
0
40
0.148923730755355
40
0.148923730755355
40
0.225561879983488
40
0.225561879983488
40
0.302200029211621
40
0.302200029211621
40
0.455476327667887
40
0.455476327667887
40
0.53211447689602
40
0.53211447689602
40
0.570433551510087
40
0.570433551510087
40
0.58959308881712
40
0.58959308881712
40
0.599172857470637
40
0.599172857470637
40
0.603962741797395
40
0.603962741797395
40
0.608752626124154
40
0.608752626124154
40
0.76202892458042
40
0.76202892458042
40
0.838667073808553
40
0.838667073808553
40
0.915305223036686
40
0.915305223036686
40
1
40
1
40
1
40
1
41
1
10
10.2195502800541
20
0.736614501532131
30
0
41
1
10
10.2195502800541
20
0.682393064181355
30
0
41
1
10
10.2195502800542
20
0.613781805727001
30
0
41
1
10
10.2195502800542
20
0.489462778266159
30
0
41
1
10
10.2195502800541
20
0.443661751973252
30
0
41
1
10
10.2195502800541
20
0.347066477613453
30
0
41
1
10
10.2195502800541
20
0.296052766097319
30
0
41
1
10
10.2195502800541
20
0.135302019093416
30
0
41
1
10
10.2195502800541
20
0.0179177575579956
30
0
41
1
10
10.2195502800541
20
-0.173042682969168
30
0
41
1
10
10.2195502800541
20
-0.239130128691755
30
0
41
1
10
10.2195502800541
20
-0.340802210043961
30
0
41
1
10
10.2195502800542
20
-0.375165474839662
30
0
41
1
10
10.2195502800542
20
-0.427405503355345
30
0
41
1
10
10.2195502800541
20
-0.444923491421491
30
0
41
1
10
10.2195502800541
20
-0.471356708806979
30
0
41
1
10
10.2195502800541
20
-0.481220370123026
30
0
41
1
10
10.2195502800541
20
-0.496746612060036
30
0
41
1
10
10.2195502800542
20
-0.50181250750623
30
0
41
1
10
10.2195502800542
20
-0.511984793196206
30
0
41
1
10
10.2195502800542
20
-0.517069258012498
30
0
41
1
10
10.2195502800542
20
-0.684801080717648
30
0
41
1
10
10.2195502800542
20
-0.844939398170737
30
0
41
1
10
10.2195502800542
20
-1.07573897762427
30
0
41
1
10
10.2195502800541
20
-1.15133202060395
30
0
41
1
10
10.2195502800541
20
-1.2996853374363
30
0
41
1
10
10.2195502800541
20
-1.37286013234879
30
0
41
1
10
10.2195502800541
20
-1.52126032388932
30
0
41
1
10
10.2195502800541
20
-1.59577535148566
30
0
41
1
10
10.2195502800541
20
-1.66676411127398
30
0
0
SPLINE
5
CC
100
AcDbEntity
8
1
62
256
6
ByLayer
370
18
48
1
60
0
100
AcDbSpline
70
4
71
3
72
22
73
18
40
0
40
0
40
0
40
0
40
0.125
40
0.125
40
0.25
40
0.25
40
0.375
40
0.375
40
0.5
40
0.5
40
0.625
40
0.625
40
0.75
40
0.75
40
0.875
40
0.875
40
1
40
1
40
1
40
1
41
1
10
29.7214488970421
20
-0.452219901000149
30
0
41
1
10
29.7189364079698
20
-0.480916994678353
30
0
41
1
10
29.713161667869
20
-0.51467545155964
30
0
41
1
10
29.6961005100516
20
-0.585589787778673
30
0
41
1
10
29.6846547033993
20
-0.623517195912626
30
0
41
1
10
29.6584751104107
20
-0.697263393646892
30
0
41
1
10
29.6436283475539
20
-0.733532226467844
30
0
41
1
10
29.612752700031
20
-0.800588105937237
30
0
41
1
10
29.5967566411911
20
-0.831371846426379
30
0
41
1
10
29.5650567750239
20
-0.88570086928209
30
0
41
1
10
29.5491936406094
20
-0.90944167303067
30
0
41
1
10
29.5196302319336
20
-0.947375866163839
30
0
41
1
10
29.5056592095564
20
-0.962038921433646
30
0
41
1
10
29.4797475099871
20
-0.982126195730473
30
0
41
1
10
29.4682366877643
20
-0.98725786512685
30
0
41
1
10
29.4480867393243
20
-0.987355659675472
30
0
41
1
10
29.4396595896807
20
-0.982160921725097
30
0
41
1
10
29.4333508681874
20
-0.971597443045596
30
0
0
SPLINE
5
CD
100
AcDbEntity
8
1
62
256
6
ByLayer
370
18
48
1
60
0
100
AcDbSpline
70
4
71
3
72
24
73
20
40
0
40
0
40
0
40
0
40
0.0392371548490108
40
0.0392371548490108
40
0.146939972751858
40
0.146939972751858
40
0.362345608557551
40
0.362345608557551
40
0.416197017508974
40
0.416197017508974
40
0.470048426460397
40
0.470048426460397
40
0.577751244363243
40
0.577751244363243
40
0.793156880168936
40
0.793156880168936
40
0.900859698071781
40
0.900859698071781
40
1
40
1
40
1
40
1
41
1
10
20.502726847276
20
1.4548277404601
30
0
41
1
10
20.583230339477
20
1.42347130409979
30
0
41
1
10
20.663619550198
20
1.39105974457854
30
0
41
1
10
20.9636939762402
20
1.26620468847452
30
0
41
1
10
21.1825242019077
20
1.16753648835839
30
0
41
1
10
21.8381490109915
20
0.8540635599675
30
0
41
1
10
22.2738235358947
20
0.621410036115122
30
0
41
1
10
22.8261563699981
20
0.31598955879852
30
0
41
1
10
22.93710323766
20
0.254065468517155
30
0
41
1
10
23.1577208236444
20
0.130292340392486
30
0
41
1
10
23.2676546295886
20
0.0682970531499905
30
0
41
1
10
23.596658705721
20
-0.117421083657632
30
0
41
1
10
23.8151236549822
20
-0.240513523737548
30
0
41
1
10
24.4701706256787
20
-0.603656021177954
30
0
41
1
10
24.9062710626892
20
-0.837821450625569
30
0
41
1
10
25.5705197866551
20
-1.15766510709986
30
0
41
1
10
25.7906619038372
20
-1.25774697124837
30
0
41
1
10
26.211356844553
20
-1.43447237543569
30
0
41
1
10
26.4122738002239
20
-1.51247243432962
30
0
41
1
10
26.6131903270564
20
-1.58299770700629
30
0
0
SPLINE
5
CE
100
AcDbEntity
8
1
62
256
6
ByLayer
370
13
48
1
60
0
100
AcDbSpline
70
4
71
3
72
16
73
12
40
0
40
0
40
0
40
0
40
0.0194876526938468
40
0.0194876526938468
40
0.264615739520394
40
0.264615739520394
40
0.387179782933662
40
0.387179782933662
40
0.50974382634693
40
0.50974382634693
40
1
40
1
40
1
40
1
41
1
10
26.6131912707836
20
-1.58299803827131
30
0
41
1
10
26.6305436466586
20
-1.58908902866079
30
0
41
1
10
26.6478960193434
20
-1.59512426384552
30
0
41
1
10
26.8835238459863
20
-1.67631070927507
30
0
41
1
10
27.1018773411153
20
-1.74260629661924
30
0
41
1
10
27.4306425395953
20
-1.82729715801602
30
0
41
1
10
27.5404320195926
20
-1.85307027511885
30
0
41
1
10
27.7607451317723
20
-1.89939420803265
30
0
41
1
10
27.8715036423156
20
-1.91997948602025
30
0
41
1
10
28.4245715072861
20
-2.00891951123447
30
0
41
1
10
28.8628660147194
20
-2.03532693397187
30
0
41
1
10
29.3035530922989
20
-2.01524568897406
30
0
0
SPLINE
5
CF
100
AcDbEntity
8
1
62
256
6
ByLayer
370
13
48
1
60
0
100
AcDbSpline
70
4
71
3
72
22
73
18
40
0
40
0
40
0
40
0
40
0.129639291282723
40
0.129639291282723
40
0.216675362154451
40
0.216675362154451
40
0.303711433026179
40
0.303711433026179
40
0.477783574769634
40
0.477783574769634
40
0.651855716513089
40
0.651855716513089
40
0.825927858256544
40
0.825927858256544
40
0.912963929128272
40
0.912963929128272
40
1
40
1
40
1
40
1
41
1
10
8.2502175182924
20
-1.91073601331013
30
0
41
1
10
8.25020674131238
20
-1.91070555798987
30
0
41
1
10
8.25019590601113
20
-1.90437674031813
30
0
41
1
10
8.25017955500107
20
-1.88318713221699
30
0
41
1
10
8.25017343297546
20
-1.87170671216393
30
0
41
1
10
8.25016293300888
20
-1.84331954099207
30
0
41
1
10
8.25015853087893
20
-1.82642003202207
30
0
41
1
10
8.25014847230807
20
-1.76778902849969
30
0
41
1
10
8.25014599071534
20
-1.71819699431777
30
0
41
1
10
8.25015188098664
20
-1.59726050741119
30
0
41
1
10
8.25016035996433
20
-1.52625577096586
30
0
41
1
10
8.25018745963828
20
-1.36833007616519
30
0
41
1
10
8.25020589666366
20
-1.28190870697307
30
0
41
1
10
8.25023890257901
20
-1.14146791026369
30
0
41
1
10
8.25025078933785
20
-1.09284064808588
30
0
41
1
10
8.2502758965291
20
-0.991875123157257
30
0
41
1
10
8.25028917758951
20
-0.939299492498776
30
0
41
1
10
8.25030269970475
20
-0.885405118916822
30
0
0
SPLINE
5
D0
100
AcDbEntity
8
1
62
256
6
ByLayer
370
18
48
1
60
0
100
AcDbSpline
70
4
71
3
72
10
73
6
40
0
40
0
40
0
40
0
40
0.5
40
0.5
40
1
40
1
40
1
40
1
41
1
10
8.04945563294891
20
-0.838814376317515
30
0
41
1
10
8.07439594814343
20
-0.832714899546261
30
0
41
1
10
8.10675348530381
20
-0.83444182571057
30
0
41
1
10
8.17646639949888
20
-0.851163919654567
30
0
41
1
10
8.21363449898553
20
-0.865951718351624
30
0
41
1
10
8.25030269970463
20
-0.885405118916054
30
0
0
SPLINE
5
D1
100
AcDbEntity
8
1
62
256
6
ByLayer
370
18
48
1
60
0
100
AcDbSpline
70
4
71
3
72
8
73
4
40
0
40
0
40
0
40
0
40
1
40
1
40
1
40
1
41
1
10
29.9651062781171
20
-0.553108185436855
30
0
41
1
10
29.9765538128875
20
-0.400387879169415
30
0
41
1
10
29.9848617594023
20
-0.24782267078055
30
0
41
1
10
29.9900240318082
20
-0.0954128609157294
30
0
0
SPLINE
5
D2
100
AcDbEntity
8
1
62
256
6
ByLayer
370
18
48
1
60
0
100
AcDbSpline
70
4
71
3
72
58
73
54
40
0
40
0
40
0
40
0
40
0.125000000000009
40
0.125000000000009
40
0.187500000000014
40
0.187500000000014
40
0.250000000000019
40
0.250000000000019
40
0.28125000000002
40
0.28125000000002
40
0.312500000000021
40
0.312500000000021
40
0.328125000000021
40
0.328125000000021
40
0.343750000000021
40
0.343750000000021
40
0.359375000000021
40
0.359375000000021
40
0.375000000000021
40
0.375000000000021
40
0.390625000000021
40
0.390625000000021
40
0.40625000000002
40
0.40625000000002
40
0.42187500000002
40
0.42187500000002
40
0.43750000000002
40
0.43750000000002
40
0.45312500000002
40
0.45312500000002
40
0.46875000000002
40
0.46875000000002
40
0.500000000000022
40
0.500000000000022
40
0.507812500000022
40
0.507812500000022
40
0.511718750000022
40
0.511718750000022
40
0.515625000000022
40
0.515625000000022
40
0.523437500000022
40
0.523437500000022
40
0.531250000000021
40
0.531250000000021
40
0.562500000000018
40
0.562500000000018
40
0.625000000000015
40
0.625000000000015
40
0.75000000000001
40
0.75000000000001
40
0.875000000000005
40
0.875000000000005
40
1
40
1
40
1
40
1
41
1
10
8.04945563295018
20
-0.838814376309585
30
0
41
1
10
7.78417818990448
20
-0.692180013207718
30
0
41
1
10
7.52012689754022
20
-0.534954729899312
30
0
41
1
10
7.12769103692941
20
-0.276697258567765
30
0
41
1
10
6.99792476209828
20
-0.186985614192196
30
0
41
1
10
6.74646229962977
20
-0.0004774657790279
30
0
41
1
10
6.62410461739418
20
0.0965599222290336
30
0
41
1
10
6.44947983671463
20
0.252252424680791
30
0
41
1
10
6.39277802580494
20
0.305863727541777
30
0
41
1
10
6.28392329672042
20
0.418293522694512
30
0
41
1
10
6.23127608261061
20
0.477649289844805
30
0
41
1
10
6.16020595332137
20
0.570511320195095
30
0
41
1
10
6.13783100685964
20
0.602107758940207
30
0
41
1
10
6.09650474959057
20
0.667013934926985
30
0
41
1
10
6.07747072064967
20
0.700525144371653
30
0
41
1
10
6.04489107361269
20
0.768092791963682
30
0
41
1
10
6.03122953235123
20
0.802280341929247
30
0
41
1
10
6.010587227602
20
0.87176089893029
30
0
41
1
10
6.00357306831705
20
0.907491217388923
30
0
41
1
10
5.99853689370835
20
0.978387989315024
30
0
41
1
10
6.00050463068214
20
1.01302220726586
30
0
41
1
10
6.01397630713515
20
1.08068084706486
30
0
41
1
10
6.02552509630056
20
1.11330870949089
30
0
41
1
10
6.05647968408979
20
1.17394953860779
30
0
41
1
10
6.07618753797618
20
1.2026474502793
30
0
41
1
10
6.12104067086412
20
1.25521408283851
30
0
41
1
10
6.14613830698576
20
1.27921764571062
30
0
41
1
10
6.20044306903554
20
1.32381443950803
30
0
41
1
10
6.2298441921576
20
1.34449949407053
30
0
41
1
10
6.29099393525073
20
1.38258232668065
30
0
41
1
10
6.32269753425322
20
1.39998968422992
30
0
41
1
10
6.4204246147045
20
1.44853106462719
30
0
41
1
10
6.48902529636345
20
1.47604552512649
30
0
41
1
10
6.57771888048757
20
1.50656092342933
30
0
41
1
10
6.595615664691
20
1.51246639985934
30
0
41
1
10
6.62264794601154
20
1.52104357433333
30
0
41
1
10
6.63167820727455
20
1.52386050606736
30
0
41
1
10
6.64977993437807
20
1.52940801887732
30
0
41
1
10
6.65953900760169
20
1.53128070750367
30
0
41
1
10
6.68987056770789
20
1.53358340676658
30
0
41
1
10
6.70974565453739
20
1.53190043704939
30
0
41
1
10
6.74964788918166
20
1.52994626114875
30
0
41
1
10
6.76959378818316
20
1.52891925646276
30
0
41
1
10
6.86929732186925
20
1.52353382149548
30
0
41
1
10
6.94900355482091
20
1.51842299846152
30
0
41
1
10
7.1874968552911
20
1.50066335233737
30
0
41
1
10
7.34575912509689
20
1.48559193702258
30
0
41
1
10
7.81844805273971
20
1.43010514815577
30
0
41
1
10
8.13097356383116
20
1.37916634810682
30
0
41
1
10
8.74312644875704
20
1.24747424348644
30
0
41
1
10
9.0437681104689
20
1.16648393183789
30
0
41
1
10
9.63683787431333
20
0.973751099896248
30
0
41
1
10
9.92924944736507
20
0.861908135959879
30
0
41
1
10
10.2195502800541
20
0.736614501532131
30
0
0
SPLINE
5
D3
100
AcDbEntity
8
1
62
256
6
ByLayer
370
18
48
1
60
0
100
AcDbSpline
70
4
71
3
72
8
73
4
40
0
40
0
40
0
40
0
40
1
40
1
40
1
40
1
41
1
10
29.9900240318082
20
-0.0954128609156726
30
0
41
1
10
29.9906225649937
20
-0.0777418970790222
30
0
41
1
10
29.9944490830457
20
-0.055447733175555
30
0
41
1
10
29.9999519551537
20
-0.0321426719013687
30
0
0
SPLINE
5
D4
100
AcDbEntity
8
1
62
256
6
ByLayer
370
18
48
1
60
0
100
AcDbSpline
70
4
71
3
72
8
73
4
40
0
40
0
40
0
40
0
40
1
40
1
40
1
40
1
41
1
10
8.17141041706248
20
1.79994307300768
30
0
41
1
10
8.1543058045855
20
1.8042181097091
30
0
41
1
10
8.13724531161452
20
1.80847015489599
30
0
41
1
10
8.1209789943214
20
1.81322133156345
30
0
0
SPLINE
5
D5
100
AcDbEntity
8
1
62
256
6
ByLayer
370
18
48
1
60
0
100
AcDbSpline
70
4
71
3
72
8
73
4
40
0
40
0
40
0
40
0
40
1
40
1
40
1
40
1
41
1
10
29.4333508681874
20
-0.971597443045567
30
0
41
1
10
29.3390082996492
20
-1.14794039404723
30
0
41
1
10
29.2469987564814
20
-1.326407450191
30
0
41
1
10
29.1573484900288
20
-1.50702251203836
30
0
0
SPLINE
5
D6
100
AcDbEntity
8
1
62
256
6
ByLayer
370
18
48
1
60
0
100
AcDbSpline
70
4
71
3
72
12
73
8
40
0
40
0
40
0
40
0
40
0.249999999999927
40
0.249999999999927
40
0.499999999999855
40
0.499999999999855
40
1
40
1
40
1
40
1
41
1
10
29.1650777401152
20
0.498010746919192
30
0
41
1
10
29.165139624582
20
0.50790330888492
30
0
41
1
10
29.1679724202535
20
0.517756881328268
30
0
41
1
10
29.1788469140704
20
0.534731930696694
30
0
41
1
10
29.1868664435188
20
0.541840573727399
30
0
41
1
10
29.2137003109958
20
0.557380282288591
30
0
41
1
10
29.2347531066873
20
0.560852324128774
30
0
41
1
10
29.2553723812485
20
0.560464952774566
30
0
0
SPLINE
5
D7
100
AcDbEntity
8
1
62
256
6
ByLayer
370
18
48
1
60
0
100
AcDbSpline
70
4
71
3
72
8
73
4
40
0
40
0
40
0
40
0
40
1
40
1
40
1
40
1
41
1
10
29.999951955149
20
0.0321426719213491
30
0
41
1
10
29.9949114150729
20
0.0145569763264746
30
0
41
1
10
29.9871847706475
20
-0.0039464168449683
30
0
41
1
10
29.9790623257296
20
-0.0172609930849887
30
0
0
SPLINE
5
D8
100
AcDbEntity
8
1
62
256
6
ByLayer
370
18
48
1
60
0
100
AcDbSpline
70
4
71
3
72
8
73
4
40
0
40
0
40
0
40
0
40
1
40
1
40
1
40
1
41
1
10
29.3035530922999
20
-2.01524568897457
30
0
41
1
10
29.30313417535
20
-2.01628258856317
30
0
41
1
10
29.3027152164842
20
-2.01731941340176
30
0
41
1
10
29.3022962159886
20
-2.01835616316308
30
0
0
SPLINE
5
D9
100
AcDbEntity
8
1
62
256
6
ByLayer
370
18
48
1
60
0
100
AcDbSpline
70
4
71
3
72
34
73
30
40
0
40
0
40
0
40
0
40
0.125
40
0.125
40
0.25
40
0.25
40
0.3125
40
0.3125
40
0.375
40
0.375
40
0.40625
40
0.40625
40
0.4375
40
0.4375
40
0.46875
40
0.46875
40
0.5
40
0.5
40
0.53125
40
0.53125
40
0.5625
40
0.5625
40
0.625
40
0.625
40
0.75
40
0.75
40
0.875
40
0.875
40
1
40
1
40
1
40
1
41
1
10
29.4333508681874
20
-0.971597443045567
30
0
41
1
10
29.351793920772
20
-0.945083136232398
30
0
41
1
10
29.2697562959694
20
-0.91100956220987
30
0
41
1
10
29.1100953351947
20
-0.828625393157097
30
0
41
1
10
29.0321564610055
20
-0.780608763519439
30
0
41
1
10
28.9196735750915
20
-0.692617750051141
30
0
41
1
10
28.8833043450164
20
-0.660834587541643
30
0
41
1
10
28.8150371203232
20
-0.590737962369928
30
0
41
1
10
28.7824466980842
20
-0.551973567239571
30
0
41
1
10
28.7424336520548
20
-0.486475117249029
30
0
41
1
10
28.7306645959333
20
-0.463420410053402
30
0
41
1
10
28.7132506025764
20
-0.415407647661311
30
0
41
1
10
28.7075870848556
20
-0.389976585166295
30
0
41
1
10
28.7072452216537
20
-0.340785501918475
30
0
41
1
10
28.7128170049096
20
-0.317843128167112
30
0
41
1
10
28.73296862699
20
-0.279959374861761
30
0
41
1
10
28.7472350024424
20
-0.264875867413252
30
0
41
1
10
28.7789739447526
20
-0.241290202555774
30
0
41
1
10
28.7968173771021
20
-0.232427303382906
30
0
41
1
10
28.8334854147298
20
-0.218950266414879
30
0
41
1
10
28.8525247442656
20
-0.214221694052668
30
0
41
1
10
28.9110716113384
20
-0.204107896808551
30
0
41
1
10
28.9514767802964
20
-0.202826502553137
30
0
41
1
10
29.0724592967175
20
-0.208031551116306
30
0
41
1
10
29.1543609675596
20
-0.223392395834537
30
0
41
1
10
29.3189020566697
20
-0.267433667005577
30
0
41
1
10
29.4005661539094
20
-0.296158052872187
30
0
41
1
10
29.5628481814231
20
-0.365171295108212
30
0
41
1
10
29.643199546044
20
-0.405353272126291
30
0
41
1
10
29.7214488970421
20
-0.452219901000149
30
0
0
SPLINE
5
DA
100
AcDbEntity
8
1
62
256
6
ByLayer
370
18
48
1
60
0
100
AcDbSpline
70
4
71
3
72
32
73
28
40
0
40
0
40
0
40
0
40
0.250000000000017
40
0.250000000000017
40
0.375000000000026
40
0.375000000000026
40
0.500000000000035
40
0.500000000000035
40
0.625000000000044
40
0.625000000000044
40
0.750000000000053
40
0.750000000000053
40
0.812500000000057
40
0.812500000000057
40
0.828125000000052
40
0.828125000000052
40
0.83593750000005
40
0.83593750000005
40
0.843750000000047
40
0.843750000000047
40
0.851562500000045
40
0.851562500000045
40
0.859375000000042
40
0.859375000000042
40
0.875000000000037
40
0.875000000000037
40
1
40
1
40
1
40
1
41
1
10
27.426235370138
20
0.782589945569811
30
0
41
1
10
27.574577768612
20
0.64590049748179
30
0
41
1
10
27.7313636291904
20
0.526299729452433
30
0
41
1
10
27.9797116183087
20
0.373551650845968
30
0
41
1
10
28.0638980020649
20
0.327567452802811
30
0
41
1
10
28.2330497889463
20
0.247637500268098
30
0
41
1
10
28.3184103762999
20
0.214025328278154
30
0
41
1
10
28.4906316108286
20
0.158945320193794
30
0
41
1
10
28.5780659979938
20
0.137546693508597
30
0
41
1
10
28.7518733358169
20
0.110222197118077
30
0
41
1
10
28.8379355721257
20
0.10432360543129
30
0
41
1
10
28.9654742876211
20
0.109819924317662
30
0
41
1
10
29.0075063641914
20
0.114054453560101
30
0
41
1
10
29.0592096360792
20
0.122596887718032
30
0
41
1
10
29.0695052895126
20
0.124467298977038
30
0
41
1
10
29.0848788721083
20
0.127520604670508
30
0
41
1
10
29.0899910406553
20
0.12857949328864
30
0
41
1
10
29.1001904683524
20
0.130780147536029
30
0
41
1
10
29.105370689281
20
0.131680108563557
30
0
41
1
10
29.115167154511
20
0.134909464800785
30
0
41
1
10
29.119780857174
20
0.137710613027764
30
0
41
1
10
29.1266485559867
20
0.146206976659755
30
0
41
1
10
29.1285781455065
20
0.152012490116562
30
0
41
1
10
29.1326264877793
20
0.170042304770618
30
0
41
1
10
29.1351500761524
20
0.182150386440213
30
0
41
1
10
29.1563531773272
20
0.291882470628678
30
0
41
1
10
29.1644293417719
20
0.394360814613179
30
0
41
1
10
29.1650777401152
20
0.498010746919192
30
0
0
SPLINE
5
DB
100
AcDbEntity
8
1
62
256
6
ByLayer
370
18
48
1
60
0
100
AcDbSpline
70
4
71
3
72
16
73
12
40
0
40
0
40
0
40
0
40
0.208480348652668
40
0.208480348652668
40
0.354462188351407
40
0.354462188351407
40
0.500444028050146
40
0.500444028050146
40
0.792407707447616
40
0.792407707447616
40
1
40
1
40
1
40
1
41
1
10
17.936838788842
20
-1.91650656315676
30
0
41
1
10
17.7803211620989
20
-1.91568488544851
30
0
41
1
10
17.6238196619744
20
-1.90937828102011
30
0
41
1
10
17.3572934116406
20
-1.88935377070251
30
0
41
1
10
17.2473748652554
20
-1.87843888313296
30
0
41
1
10
17.0269997788139
20
-1.8512588945691
30
0
41
1
10
16.9163158484598
20
-1.834953105632
30
0
41
1
10
16.5854437442892
20
-1.77839349449468
30
0
41
1
10
16.3662848288214
20
-1.73050785779293
30
0
41
1
10
15.9923159727384
20
-1.63288089938141
30
0
41
1
10
15.8371719705326
20
-1.58767723009197
30
0
41
1
10
15.6820087317455
20
-1.53815891631751
30
0
0
SPLINE
5
DC
100
AcDbEntity
8
1
62
256
6
ByLayer
370
13
48
1
60
0
100
AcDbSpline
70
4
71
3
72
24
73
20
40
0
40
0
40
0
40
0
40
0.133922596976761
40
0.133922596976761
40
0.237820909452299
40
0.237820909452299
40
0.341719221927837
40
0.341719221927837
40
0.549515846878913
40
0.549515846878913
40
0.601465003116682
40
0.601465003116682
40
0.653414159354452
40
0.653414159354452
40
0.757312471829991
40
0.757312471829991
40
0.96510909678107
40
0.96510909678107
40
1
40
1
40
1
40
1
41
1
10
15.6820077791152
20
-1.53815861229799
30
0
41
1
10
15.4007193885904
20
-1.4483890776294
30
0
41
1
10
15.1193677762819
20
-1.34443971720174
30
0
41
1
10
14.6166733927938
20
-1.13804824487431
30
0
41
1
10
14.3950583636231
20
-1.03996393747838
30
0
41
1
10
13.9550939567244
20
-0.834714747609183
30
0
41
1
10
13.7362763445221
20
-0.727423536061792
30
0
41
1
10
13.0809880454185
20
-0.395738969962025
30
0
41
1
10
12.6457120005111
20
-0.161437398210381
30
0
41
1
10
12.0952751248666
20
0.132307648327952
30
0
41
1
10
11.9846121303944
20
0.191223529800396
30
0
41
1
10
11.7638205227825
20
0.308079833887121
30
0
41
1
10
11.6537974549209
20
0.365999061174421
30
0
41
1
10
11.3244964770577
20
0.537616634281733
30
0
41
1
10
11.1059510510017
20
0.649085681836311
30
0
41
1
10
10.4508103842867
20
0.970196218024
30
0
41
1
10
10.0148655301414
20
1.16685298835685
30
0
41
1
10
9.49914608435176
20
1.36364641996991
30
0
41
1
10
9.42496911118798
20
1.39106635995071
30
0
41
1
10
9.35080401170862
20
1.41756790624396
30
0
0
SPLINE
5
DD
100
AcDbEntity
8
1
62
256
6
ByLayer
370
18
48
1
60
0
100
AcDbSpline
70
4
71
3
72
12
73
8
40
0
40
0
40
0
40
0
40
0.503714934225068
40
0.503714934225068
40
0.755572401337608
40
0.755572401337608
40
1
40
1
40
1
40
1
41
1
10
29.3117735316664
20
-1.92305176509015
30
0
41
1
10
28.8718866692928
20
-1.9291912164116
30
0
41
1
10
28.4341800767775
20
-1.89133476656102
30
0
41
1
10
27.7717994553305
20
-1.77175697110909
30
0
41
1
10
27.5519917453459
20
-1.72165407567718
30
0
41
1
10
27.1209848819121
20
-1.6052084571869
30
0
41
1
10
26.9094130115236
20
-1.53933403158328
30
0
41
1
10
26.6978940871556
20
-1.46576148121966
30
0
0
SPLINE
5
DE
100
AcDbEntity
8
1
62
256
6
ByLayer
370
13
48
1
60
0
100
AcDbSpline
70
4
71
3
72
26
73
22
40
0
40
0
40
0
40
0
40
0.0030885490837735
40
0.0030885490837735
40
0.107784667199189
40
0.107784667199189
40
0.212480785314606
40
0.212480785314606
40
0.421873021545435
40
0.421873021545435
40
0.52656913966085
40
0.52656913966085
40
0.578917198718557
40
0.578917198718557
40
0.631265257776265
40
0.631265257776265
40
0.840657494007091
40
0.840657494007091
40
0.945353612122505
40
0.945353612122505
40
1
40
1
40
1
40
1
41
1
10
26.697893982129
20
-1.46576144468824
30
0
41
1
10
26.6914644740288
20
-1.46352507115168
30
0
41
1
10
26.685035014849
20
-1.46128158479257
30
0
41
1
10
26.4606598143838
20
-1.38274063260644
30
0
41
1
10
26.2427091069143
20
-1.29836635192669
30
0
41
1
10
25.8051400367822
20
-1.11548388566075
30
0
41
1
10
25.5850719595181
20
-1.01668565092851
30
0
41
1
10
24.9229551904986
20
-0.704020671222764
30
0
41
1
10
24.4875519385537
20
-0.477578625137738
30
0
41
1
10
23.8334328878803
20
-0.129744176329467
30
0
41
1
10
23.6152330429946
20
-0.0124039473938922
30
0
41
1
10
23.286657691987
20
0.163721236433929
30
0
41
1
10
23.1768885554613
20
0.222387293464891
30
0
41
1
10
22.9566477708298
20
0.339228355563989
30
0
41
1
10
22.8459852251145
20
0.397503581502406
30
0
41
1
10
22.2952823730648
20
0.684113162287531
30
0
41
1
10
21.8601977126278
20
0.900293292282015
30
0
41
1
10
21.2055608899635
20
1.18846351789554
30
0
41
1
10
20.9870410837649
20
1.27850475088431
30
0
41
1
10
20.6528223558447
20
1.40451617249383
30
0
41
1
10
20.5377185432725
20
1.44578832755795
30
0
41
1
10
20.4225352020873
20
1.48480085289941
30
0
0
SPLINE
5
DF
100
AcDbEntity
8
1
62
256
6
ByLayer
370
18
48
1
60
0
100
AcDbSpline
70
4
71
3
72
8
73
4
40
0
40
0
40
0
40
0
40
1
40
1
40
1
40
1
41
1
10
20.4225352022132
20
1.48480085285669
30
0
41
1
10
20.3995622209588
20
1.49258178718432
30
0
41
1
10
20.3765860761246
20
1.5002728353885
30
0
41
1
10
20.3536099748237
20
1.50787148826569
30
0
0
SPLINE
5
E0
100
AcDbEntity
8
1
62
256
6
ByLayer
370
18
48
1
60
0
100
AcDbSpline
70
4
71
3
72
8
73
4
40
0
40
0
40
0
40
0
40
1
40
1
40
1
40
1
41
1
10
29.9790623257296
20
-0.0172609930850456
30
0
41
1
10
29.8915346915273
20
-0.160739141656052
30
0
41
1
10
29.805657273259
20
-0.305719730875637
30
0
41
1
10
29.7214488970421
20
-0.452219901000149
30
0
0
SPLINE
5
E1
100
AcDbEntity
8
1
62
256
6
ByLayer
370
18
48
1
60
0
100
AcDbSpline
70
4
71
3
72
10
73
6
40
0
40
0
40
0
40
0
40
0.5
40
0.5
40
1
40
1
40
1
40
1
41
1
10
8.12097899432115
20
1.81322133156326
30
0
41
1
10
8.10086707240015
20
1.81909575860459
30
0
41
1
10
8.08332761934716
20
1.82644443654439
30
0
41
1
10
8.05762075105292
20
1.84305502158793
30
0
41
1
10
8.04929636120318
20
1.85236074961713
30
0
41
1
10
8.04929912835081
20
1.86161547620745
30
0
0
SPLINE
5
E2
100
AcDbEntity
8
1
62
256
6
ByLayer
370
18
48
1
60
0
100
AcDbSpline
70
4
71
3
72
24
73
20
40
0
40
0
40
0
40
0
40
0.0625000000000006
40
0.0625000000000006
40
0.125000000000001
40
0.125000000000001
40
0.187500000000002
40
0.187500000000002
40
0.250000000000002
40
0.250000000000002
40
0.375000000000004
40
0.375000000000004
40
0.500000000000005
40
0.500000000000005
40
0.625000000000006
40
0.625000000000006
40
0.750000000000007
40
0.750000000000007
40
1
40
1
40
1
40
1
41
1
10
27.4262353701381
20
0.78258994556964
30
0
41
1
10
27.4181364965079
20
0.721989256028763
30
0
41
1
10
27.4146168882826
20
0.65974472337038
30
0
41
1
10
27.4171339856432
20
0.531825177550729
30
0
41
1
10
27.4232941853961
20
0.466236510332209
30
0
41
1
10
27.4444404249006
20
0.33700449641708
30
0
41
1
10
27.4594149386029
20
0.272680022209073
30
0
41
1
10
27.4975349860347
20
0.144572293225508
30
0
41
1
10
27.5208057789431
20
0.0806732898415135
30
0
41
1
10
27.5994236211465
20
-0.104257076645268
30
0
41
1
10
27.6640989790915
20
-0.220975641638859
30
0
41
1
10
27.8122230810236
20
-0.443356566578757
30
0
41
1
10
27.8932746683005
20
-0.545549229582377
30
0
41
1
10
28.0654436451545
20
-0.736976604370199
30
0
41
1
10
28.1569168523146
20
-0.826421028711792
30
0
41
1
10
28.3468064177041
20
-0.993475748046905
30
0
41
1
10
28.4440284242586
20
-1.07009458083758
30
0
41
1
10
28.7411317469402
20
-1.28345566358567
30
0
41
1
10
28.9463261013216
20
-1.4040794860905
30
0
41
1
10
29.1573484900288
20
-1.50702251203833
30
0
0
SPLINE
5
E3
100
AcDbEntity
8
1
62
256
6
ByLayer
370
18
48
1
60
0
100
AcDbSpline
70
4
71
3
72
8
73
4
40
0
40
0
40
0
40
0
40
1
40
1
40
1
40
1
41
1
10
29.4160185746864
20
-1.94945277940249
30
0
41
1
10
29.3738182097109
20
-1.98458511202031
30
0
41
1
10
29.3360114401941
20
-2.0077526573873
30
0
41
1
10
29.3022962159886
20
-2.01835616316308
30
0
0
SPLINE
5
E4
100
AcDbEntity
8
1
62
256
6
ByLayer
370
18
48
1
60
0
100
AcDbSpline
70
4
71
3
72
72
73
68
40
0
40
0
40
0
40
0
40
0.0138044314825152
40
0.0138044314825152
40
0.0353734333519306
40
0.0353734333519306
40
0.056942435221346
40
0.056942435221346
40
0.0785114370907615
40
0.0785114370907615
40
0.100080438960177
40
0.100080438960177
40
0.121649440829592
40
0.121649440829592
40
0.164787444568424
40
0.164787444568424
40
0.18635644643784
40
0.18635644643784
40
0.207925448307256
40
0.207925448307256
40
0.251063452046088
40
0.251063452046088
40
0.29420145578492
40
0.29420145578492
40
0.337339459523752
40
0.337339459523752
40
0.380477463262584
40
0.380477463262584
40
0.423615467001416
40
0.423615467001416
40
0.466753470740248
40
0.466753470740248
40
0.50989147447908
40
0.50989147447908
40
0.531460476348496
40
0.531460476348496
40
0.553029478217912
40
0.553029478217912
40
0.574598480087328
40
0.574598480087328
40
0.596167481956744
40
0.596167481956744
40
0.639305485695575
40
0.639305485695575
40
0.660874487564991
40
0.660874487564991
40
0.682443489434407
40
0.682443489434407
40
0.725581493173239
40
0.725581493173239
40
0.747150495042656
40
0.747150495042656
40
0.768719496912072
40
0.768719496912072
40
0.811857500650904
40
0.811857500650904
40
0.854995504389736
40
0.854995504389736
40
0.898133508128568
40
0.898133508128568
40
0.919702509997985
40
0.919702509997985
40
0.941271511867402
40
0.941271511867402
40
0.984409515606236
40
0.984409515606236
40
1
40
1
40
1
40
1
41
1
10
14.5205265094067
20
1.48299579273268
30
0
41
1
10
14.5844226077402
20
1.50727836765583
30
0
41
1
10
14.6484050347992
20
1.53085965285106
30
0
41
1
10
14.8124333889506
20
1.5896591452979
30
0
41
1
10
14.9125078334864
20
1.62396286583333
30
0
41
1
10
15.1133306772038
20
1.6887532958244
30
0
41
1
10
15.2142774276013
20
1.71924522542025
30
0
41
1
10
15.4154062005701
20
1.77562951716922
30
0
41
1
10
15.515743746372
20
1.80162943517487
30
0
41
1
10
15.7156241770808
20
1.84956380282378
30
0
41
1
10
15.8150735174797
20
1.87153087334821
30
0
41
1
10
16.0142416885162
20
1.91062411051536
30
0
41
1
10
16.1138535292188
20
1.92785626030027
30
0
41
1
10
16.4123764854647
20
1.97294166861531
30
0
41
1
10
16.6105264429419
20
1.99423927102291
30
0
41
1
10
16.9092571239071
20
2.01198186229627
30
0
41
1
10
17.0090672079018
20
2.01557437308466
30
0
41
1
10
17.2088367173024
20
2.01811134180974
30
0
41
1
10
17.3086166048692
20
2.01702650670146
30
0
41
1
10
17.6093040928667
20
2.0065814644278
30
0
41
1
10
17.8118058292937
20
1.99012561635897
30
0
41
1
10
18.2117678168848
20
1.93864321726409
30
0
41
1
10
18.4109632598812
20
1.90385880942148
30
0
41
1
10
18.8090425560039
20
1.81751879033209
30
0
41
1
10
19.0070146077004
20
1.7651792371833
30
0
41
1
10
19.4052004933308
20
1.64582965011843
30
0
41
1
10
19.6042496229378
20
1.5777790495531
30
0
41
1
10
20.0046023179073
20
1.42694817326446
30
0
41
1
10
20.2070792337152
20
1.34474368012855
30
0
41
1
10
20.6083973397693
20
1.16622994132786
30
0
41
1
10
20.8095127347048
20
1.07238878991259
30
0
41
1
10
21.2113716924861
20
0.873822352378994
30
0
41
1
10
21.4127051895468
20
0.768986902316499
30
0
41
1
10
21.7146266246659
20
0.60887235780487
30
0
41
1
10
21.8152088240201
20
0.554848259964785
30
0
41
1
10
22.0158170751517
20
0.444723849695123
30
0
41
1
10
22.1159991060007
20
0.388885310954834
30
0
41
1
10
22.316987081319
20
0.277182677355825
30
0
41
1
10
22.4177125899895
20
0.221184547772282
30
0
41
1
10
22.6191787876377
20
0.108091184370636
30
0
41
1
10
22.7197812217161
20
0.051026446308839
30
0
41
1
10
23.0210938740829
20
-0.119641557185588
30
0
41
1
10
23.2221688352058
20
-0.232081951675525
30
0
41
1
10
23.523471670492
20
-0.399827266048277
30
0
41
1
10
23.623695402801
20
-0.455863369161364
30
0
41
1
10
23.8250106854747
20
-0.565920073907279
30
0
41
1
10
23.9258933760115
20
-0.620085669655168
30
0
41
1
10
24.2277376596372
20
-0.780215064184688
30
0
41
1
10
24.4278779825569
20
-0.884668084890194
30
0
41
1
10
24.7293721698407
20
-1.03315142652232
30
0
41
1
10
24.8300561299256
20
-1.08134271639318
30
0
41
1
10
25.03144996827
20
-1.17563037921963
30
0
41
1
10
25.1318770057655
20
-1.22191478075138
30
0
41
1
10
25.4324465923166
20
-1.35475262495791
30
0
41
1
10
25.6323048546662
20
-1.43607635210822
30
0
41
1
10
26.0298519210332
20
-1.58608340692567
30
0
41
1
10
26.228418569987
20
-1.65361551666783
30
0
41
1
10
26.6261753470678
20
-1.77291099926123
30
0
41
1
10
26.8245221102074
20
-1.82534756351018
30
0
41
1
10
27.1245218306513
20
-1.89027254191234
30
0
41
1
10
27.2247390765852
20
-1.90980442599519
30
0
41
1
10
27.4254630138865
20
-1.94461483713729
30
0
41
1
10
27.5261916686532
20
-1.95983942565894
30
0
41
1
10
27.8271266617343
20
-1.99810905323045
30
0
41
1
10
28.0270950762714
20
-2.01405579220477
30
0
41
1
10
28.2972044897388
20
-2.02322571849703
30
0
41
1
10
28.3689415667051
20
-2.02442852516003
30
0
41
1
10
28.4406773815703
20
-2.02440942872016
30
0
0
SPLINE
5
E5
100
AcDbEntity
8
1
62
256
6
ByLayer
370
18
48
1
60
0
100
AcDbSpline
70
4
71
3
72
10
73
6
40
0
40
0
40
0
40
0
40
0.5
40
0.5
40
1
40
1
40
1
40
1
41
1
10
29.2553723812486
20
0.560464952774595
30
0
41
1
10
29.3738379443813
20
0.558239357228871
30
0
41
1
10
29.4923189409894
20
0.555975828224433
30
0
41
1
10
29.7290432052235
20
0.552723863076125
30
0
41
1
10
29.8471199376155
20
0.552667464678819
30
0
41
1
10
29.9651062781238
20
0.553108185436855
30
0
0
SPLINE
5
E6
100
AcDbEntity
8
1
62
256
6
ByLayer
370
18
48
1
60
0
100
AcDbSpline
70
4
71
3
72
40
73
36
40
0
40
0
40
0
40
0
40
0.0861546888803199
40
0.0861546888803199
40
0.17230937776064
40
0.17230937776064
40
0.25846406664096
40
0.25846406664096
40
0.34461875552128
40
0.34461875552128
40
0.430773444401599
40
0.430773444401599
40
0.516928133281919
40
0.516928133281919
40
0.56000547772208
40
0.56000547772208
40
0.603082822162241
40
0.603082822162241
40
0.646160166602402
40
0.646160166602402
40
0.689237511042563
40
0.689237511042563
40
0.732314855482724
40
0.732314855482724
40
0.775392199922885
40
0.775392199922885
40
0.818469544363046
40
0.818469544363046
40
0.861546888803207
40
0.861546888803207
40
0.947701577683532
40
0.947701577683532
40
0.990778922123693
40
0.990778922123693
40
1
40
1
40
1
40
1
41
1
10
10.2195502800541
20
0.736614501532131
30
0
41
1
10
10.420648605412
20
0.630068341143811
30
0
41
1
10
10.621280505763
20
0.522364558221852
30
0
41
1
10
11.0209544569259
20
0.303505239408963
30
0
41
1
10
11.2192784753563
20
0.191046879668022
30
0
41
1
10
11.6174771396144
20
-0.0316514425043124
30
0
41
1
10
11.816065238608
20
-0.144219216776406
30
0
41
1
10
12.2148791225597
20
-0.366972897745427
30
0
41
1
10
12.4155067859871
20
-0.476419574504177
30
0
41
1
10
12.8174916058206
20
-0.694606812862077
30
0
41
1
10
13.0190233919357
20
-0.799188267880481
30
0
41
1
10
13.4184219707831
20
-1.0005458811998
30
0
41
1
10
13.6170788727838
20
-1.09702327711275
30
0
41
1
10
13.9156665430393
20
-1.23228440102099
30
0
41
1
10
14.0152018459803
20
-1.27595521019685
30
0
41
1
10
14.2138460552286
20
-1.36102080180737
30
0
41
1
10
14.3131439534321
20
-1.40213749265166
30
0
41
1
10
14.5124555941841
20
-1.48055001036093
30
0
41
1
10
14.6124003391683
20
-1.5179529950982
30
0
41
1
10
14.8124333889506
20
-1.5896591452979
30
0
41
1
10
14.9125078334864
20
-1.62396286583333
30
0
41
1
10
15.1133306772039
20
-1.6887532958244
30
0
41
1
10
15.2142774276013
20
-1.71924522542025
30
0
41
1
10
15.4154062005701
20
-1.77562951716922
30
0
41
1
10
15.515743746372
20
-1.80162943517487
30
0
41
1
10
15.7156241770808
20
-1.84956380282381
30
0
41
1
10
15.8150735174797
20
-1.87153087334821
30
0
41
1
10
16.0142416885162
20
-1.91062411051539
30
0
41
1
10
16.1138535292189
20
-1.92785626030027
30
0
41
1
10
16.4123764854647
20
-1.97294166861531
30
0
41
1
10
16.6105264429419
20
-1.99423927102291
30
0
41
1
10
16.9092571239071
20
-2.01198186229627
30
0
41
1
10
17.0090672079018
20
-2.01557437308466
30
0
41
1
10
17.1303331576065
20
-2.01711438748797
30
0
41
1
10
17.1517095474833
20
-2.01727808583613
30
0
41
1
10
17.1730865674826
20
-2.0173335255694
30
0
0
SPLINE
5
E7
100
AcDbEntity
8
1
62
256
6
ByLayer
370
18
48
1
60
0
100
AcDbSpline
70
4
71
3
72
22
73
18
40
0
40
0
40
0
40
0
40
0.0163116850680313
40
0.0163116850680313
40
0.180259737556693
40
0.180259737556693
40
0.344207790045354
40
0.344207790045354
40
0.426181816289685
40
0.426181816289685
40
0.508155842534016
40
0.508155842534016
40
0.672103895022677
40
0.672103895022677
40
0.836051947511338
40
0.836051947511338
40
1
40
1
40
1
40
1
41
1
10
25.7717169990497
20
1.48850431053555
30
0
41
1
10
25.7915144964017
20
1.49609266349111
30
0
41
1
10
25.8113018109162
20
1.50361755288659
30
0
41
1
10
26.0298519210332
20
1.58608340692567
30
0
41
1
10
26.228418569987
20
1.65361551666783
30
0
41
1
10
26.6261753470678
20
1.77291099926123
30
0
41
1
10
26.8245221102075
20
1.82534756351021
30
0
41
1
10
27.1245218306513
20
1.89027254191234
30
0
41
1
10
27.2247390765853
20
1.90980442599519
30
0
41
1
10
27.4254630138865
20
1.94461483713729
30
0
41
1
10
27.5261916686532
20
1.95983942565897
30
0
41
1
10
27.8271266617344
20
1.99810905323048
30
0
41
1
10
28.0270950762715
20
2.01405579220477
30
0
41
1
10
28.4239035506099
20
2.02752701638431
30
0
41
1
10
28.6225520187007
20
2.02483422965506
30
0
41
1
10
29.01893239808
20
2.00099877308702
30
0
41
1
10
29.2168558193907
20
1.97967171758225
30
0
41
1
10
29.4160185746866
20
1.94945277940246
30
0
0
SPLINE
5
E8
100
AcDbEntity
8
1
62
256
6
ByLayer
370
18
48
1
60
0
100
AcDbSpline
70
4
71
3
72
12
73
8
40
0
40
0
40
0
40
0
40
0.493514125880321
40
0.493514125880321
40
0.987028251760641
40
0.987028251760641
40
1
40
1
40
1
40
1
41
1
10
8.04929912835257
20
1.86161547620455
30
0
41
1
10
8.04931371068164
20
1.91038611255436
30
0
41
1
10
8.04932024204911
20
1.94748841696318
30
0
41
1
10
8.04932298401371
20
1.99805889192098
30
0
41
1
10
8.04931919101983
20
2.01087100147242
30
0
41
1
10
8.04931339700747
20
2.01163159432494
30
0
41
1
10
8.04931324730495
20
2.01164271381941
30
0
41
1
10
8.04931309634546
20
2.01164546514073
30
0
0
SPLINE
5
E9
100
AcDbEntity
8
1
62
256
6
ByLayer
370
18
48
1
60
0
100
AcDbSpline
70
4
71
3
72
8
73
4
40
0
40
0
40
0
40
0
40
1
40
1
40
1
40
1
41
1
10
28.3128464868649
20
0.216639260115869
30
0
41
1
10
28.330973211918
20
0.210623311814061
30
0
41
1
10
28.3490534342931
20
0.204509435620395
30
0
41
1
10
28.3670828488223
20
0.198297983138786
30
0
0
SPLINE
5
EA
100
AcDbEntity
8
1
62
256
6
ByLayer
370
18
48
1
60
0
100
AcDbSpline
70
4
71
3
72
17
73
13
40
0
40
0
40
0
40
0
40
0.131377616654652
40
0.218402725809239
40
0.275435403529293
40
0.333118403894418
40
0.522045133075581
40
0.610111957728916
40
0.694571204419094
40
0.769992594279871
40
0.875833263900744
40
1
40
1
40
1
40
1
41
1
10
17.9398201469794
20
-1.91669021526923
30
0
41
1
10
18.1745388941567
20
-1.91664862816069
30
0
41
1
10
18.564755630026
20
-1.91675066152305
30
0
41
1
10
19.0569157075944
20
-1.91716031029586
30
0
41
1
10
19.4174101941183
20
-1.91772815749062
30
0
41
1
10
19.959991007456
20
-1.91663288495522
30
0
41
1
10
20.5580266491367
20
-1.91743671931948
30
0
41
1
10
21.2039074628441
20
-1.918666399671
30
0
41
1
10
21.646963192009
20
-1.91722230761468
30
0
41
1
10
22.1217793325697
20
-1.91690562674563
30
0
41
1
10
22.6675449628098
20
-1.92032190259289
30
0
41
1
10
23.078543036065
20
-1.91931534728838
30
0
41
1
10
23.300415424859
20
-1.91838937582722
30
0
0
SPLINE
5
EB
100
AcDbEntity
8
1
62
256
6
ByLayer
370
18
48
1
60
0
100
AcDbSpline
70
4
71
2
72
6
73
3
40
0
40
0
40
0
40
1
40
1
40
1
41
1
10
28.9849265837731
20
-1.92043768579654
30
0
41
1
10
29.1328326061673
20
-1.92107776626716
30
0
41
1
10
29.2809357456555
20
-1.92163133630311
30
0
0
SPLINE
5
EC
100
AcDbEntity
8
1
62
256
6
ByLayer
370
18
48
1
60
0
100
AcDbSpline
70
4
71
3
72
18
73
14
40
0
40
0
40
0
40
0
40
0.118788865481095
40
0.228035316997858
40
0.299124449052048
40
0.36282443559446
40
0.430127065494736
40
0.498794847677968
40
0.567460145286285
40
0.804632970957896
40
0.859245797547333
40
0.934713241377787
40
1
40
1
40
1
40
1
41
1
10
23.2989329924463
20
1.91836145432077
30
0
41
1
10
23.122156701534
20
1.91879984449008
30
0
41
1
10
22.782793795864
20
1.91908784234357
30
0
41
1
10
22.3375345590528
20
1.91906482844584
30
0
41
1
10
21.9743590109625
20
1.91680921731324
30
0
41
1
10
21.6736051241376
20
1.91736859494145
30
0
41
1
10
21.3764085417415
20
1.9178842043014
30
0
41
1
10
21.0718258083067
20
1.91866111525673
30
0
41
1
10
20.5144024169852
20
1.91714069539023
30
0
41
1
10
19.9779094264285
20
1.91666298480794
30
0
41
1
10
19.4312643966652
20
1.91770449853439
30
0
41
1
10
19.1405276442171
20
1.91728426142964
30
0
41
1
10
18.9310295597793
20
1.91707347251426
30
0
41
1
10
18.8338577933591
20
1.91699266980129
30
0
0
SPLINE
5
ED
100
AcDbEntity
8
1
62
256
6
ByLayer
370
18
48
1
60
0
100
AcDbSpline
70
4
71
3
72
16
73
12
40
0
40
0
40
0
40
0
40
0.17051003997054
40
0.307699446813359
40
0.399977495990446
40
0.497318675430643
40
0.575180740965129
40
0.648763135112926
40
0.734647234727496
40
0.862723383313317
40
1
40
1
40
1
40
1
41
1
10
12.0445865473372
20
1.91285900631812
30
0
41
1
10
11.8289500623038
20
1.91232417478349
30
0
41
1
10
11.4398148007894
20
1.91151309238262
30
0
41
1
10
10.9338538346394
20
1.91261193847799
30
0
41
1
10
10.5206142434299
20
1.91128125696665
30
0
41
1
10
10.1822691171015
20
1.91117119834152
30
0
41
1
10
9.86759198766629
20
1.91171986053439
30
0
41
1
10
9.56739802922203
20
1.91196275491595
30
0
41
1
10
9.20370741040432
20
1.91098406204918
30
0
41
1
10
8.75943963405217
20
1.9106649345097
30
0
41
1
10
8.42382837203149
20
1.91055723810288
30
0
41
1
10
8.25020768013042
20
1.91059714177965
30
0
0
SPLINE
5
EE
100
AcDbEntity
8
1
62
256
6
ByLayer
370
18
48
1
60
0
100
AcDbSpline
70
4
71
3
72
16
73
12
40
0
40
0
40
0
40
0
40
0.127338675358391
40
0.24751169878486
40
0.336677158625843
40
0.423847249184898
40
0.509960286212152
40
0.607922260290321
40
0.705362375697567
40
0.846462517541112
40
1
40
1
40
1
40
1
41
1
10
8.25020166719335
20
-1.91060560259004
30
0
41
1
10
8.41139279200146
20
-1.9106183397642
30
0
41
1
10
8.72469850481787
20
-1.91078766574623
30
0
41
1
10
9.15091195648219
20
-1.91072649086831
30
0
41
1
10
9.52617703481388
20
-1.91199092578876
30
0
41
1
10
9.85840945872633
20
-1.91175059459863
30
0
41
1
10
10.2017738899395
20
-1.9111050043191
30
0
41
1
10
10.558138118038
20
-1.91142477398614
30
0
41
1
10
10.9841095940295
20
-1.91262813187819
30
0
41
1
10
11.4804195705207
20
-1.91155784822618
30
0
41
1
10
11.8533911032704
20
-1.9123476215494
30
0
41
1
10
12.0477488227635
20
-1.91285008063716
30
0
0
LINE
5
7B
100
AcDbEntity
8
SK1
62
256
6
ByLayer
370
18
48
1
60
0
100
AcDbLine
10
-36
20
2.021801
30
0
11
-36
21
-1.772772
31
0
39
0
210
0
220
0
230
1
0
LINE
5
7D
100
AcDbEntity
8
SK1
62
256
6
ByLayer
370
18
48
1
60
0
100
AcDbLine
10
-36
20
-1.772723
30
0
11
-36
21
-2.021801
31
0
39
0
210
0
220
0
230
1
0
LINE
5
7E
100
AcDbEntity
8
SK1
62
256
6
ByLayer
370
18
48
1
60
0
100
AcDbLine
10
-35.65
20
2.415
30
0
11
-35.65
21
2.401517
31
0
39
0
210
0
220
0
230
1
0
LINE
5
7F
100
AcDbEntity
8
SK1
62
256
6
ByLayer
370
18
48
1
60
0
100
AcDbLine
10
-35.65
20
-2.415
30
0
11
-35.65
21
-2.185691
31
0
39
0
210
0
220
0
230
1
0
LINE
5
80
100
AcDbEntity
8
SK1
62
256
6
ByLayer
370
13
48
1
60
0
100
AcDbLine
10
-35.75
20
-2.035218
30
0
11
-35.75
21
-2.284264
31
0
39
0
210
0
220
0
230
1
0
LINE
5
81
100
AcDbEntity
8
SK1
62
256
6
ByLayer
370
18
48
1
60
0
100
AcDbLine
10
0
20
-3
30
0
11
0
21
3
31
0
39
0
210
0
220
0
230
1
0
LINE
5
82
100
AcDbEntity
8
SK1
62
256
6
ByLayer
370
18
48
1
60
0
100
AcDbLine
10
-35.065
20
3
30
0
11
-35.065
21
-3
31
0
39
0
210
0
220
0
230
1
0
LINE
5
83
100
AcDbEntity
8
1
62
256
6
ByLayer
370
13
48
1
60
0
100
AcDbLine
10
1.480667
20
2.007541
30
0
11
1.480667
21
-2.007541
31
0
39
0
210
0
220
0
230
1
0
LINE
5
84
100
AcDbEntity
8
1
62
256
6
ByLayer
370
13
48
1
60
0
100
AcDbLine
10
29.255372
20
0.560465
30
0
11
29.990024
21
0.095413
31
0
39
0
210
0
220
0
230
1
0
LINE
5
85
100
AcDbEntity
8
1
62
256
6
ByLayer
370
13
48
1
60
0
100
AcDbLine
10
0.740084
20
2.50377
30
0
11
0.740084
21
-2.50377
31
0
39
0
210
0
220
0
230
1
0
LINE
5
86
100
AcDbEntity
8
1
62
256
6
ByLayer
370
13
48
1
60
0
100
AcDbLine
10
29.165078
20
0.498011
30
0
11
29.979062
21
-0.017261
31
0
39
0
210
0
220
0
230
1
0
LINE
5
87
100
AcDbEntity
8
1
62
256
6
ByLayer
370
18
48
1
60
0
100
AcDbLine
10
0
20
-3
30
0
11
0
21
3
31
0
39
0
210
0
220
0
230
1
0
LINE
5
88
100
AcDbEntity
8
80
62
256
6
ByLayer
370
18
48
1
60
0
100
AcDbLine
10
0
20
0
30
0
11
-5
21
0
31
0
39
0
210
0
220
0
230
1
0
LINE
5
89
100
AcDbEntity
8
4
62
256
6
ByLayer
370
18
48
0.05
60
0
100
AcDbLine
10
30
20
0
30
0
11
0
21
0
31
0
39
0
210
0
220
0
230
1
0
LINE
5
8B
100
AcDbEntity
8
SK4
62
256
6
ByLayer
370
18
48
0.05
60
0
100
AcDbLine
10
35
20
0
30
0
11
-41
21
0
31
0
39
0
210
0
220
0
230
1
0
LINE
5
8D
100
AcDbEntity
8
SK1
62
256
6
ByLayer
370
18
48
1
60
0
100
AcDbLine
10
-35.65
20
-2.415
30
0
11
-35.065
21
-3
31
0
39
0
210
0
220
0
230
1
0
LINE
5
8E
100
AcDbEntity
8
SK1
62
256
6
ByLayer
370
18
48
1
60
0
100
AcDbLine
10
-35.065
20
3
30
0
11
-35.65
21
2.415
31
0
39
0
210
0
220
0
230
1
0
LINE
5
8F
100
AcDbEntity
8
SK1
62
256
6
ByLayer
370
18
48
1
60
0
100
AcDbLine
10
-35.065
20
-3
30
0
11
0
21
-3
31
0
39
0
210
0
220
0
230
1
0
LINE
5
90
100
AcDbEntity
8
SK1
62
256
6
ByLayer
370
18
48
1
60
0
100
AcDbLine
10
0
20
3
30
0
11
-35.065
21
3
31
0
39
0
210
0
220
0
230
1
0
LINE
5
91
100
AcDbEntity
8
1
62
256
6
ByLayer
370
18
48
1
60
0
100
AcDbLine
10
1.480667
20
-2.007541
30
0
11
8.049291
21
-2.011646
31
0
39
0
210
0
220
0
230
1
0
LINE
5
92
100
AcDbEntity
8
1
62
256
6
ByLayer
370
18
48
1
60
0
100
AcDbLine
10
17.185857
20
-2.017356
30
0
11
17.763604
21
-2.017718
31
0
39
0
210
0
220
0
230
1
0
LINE
5
93
100
AcDbEntity
8
1
62
256
6
ByLayer
370
18
48
1
60
0
100
AcDbLine
10
28.434219
20
-2.024387
30
0
11
29.014168
21
-2.024749
31
0
39
0
210
0
220
0
230
1
0
LINE
5
94
100
AcDbEntity
8
1
62
256
6
ByLayer
370
18
48
1
60
0
100
AcDbLine
10
29.014143
20
2.024749
30
0
11
28.434219
21
2.024387
31
0
39
0
210
0
220
0
230
1
0
LINE
5
95
100
AcDbEntity
8
1
62
256
6
ByLayer
370
18
48
1
60
0
100
AcDbLine
10
17.762873
20
2.017717
30
0
11
17.185857
21
2.017356
31
0
39
0
210
0
220
0
230
1
0
LINE
5
96
100
AcDbEntity
8
1
62
256
6
ByLayer
370
18
48
1
60
0
100
AcDbLine
10
8.049291
20
2.011646
30
0
11
1.480667
21
2.007541
31
0
39
0
210
0
220
0
230
1
0
LINE
5
97
100
AcDbEntity
8
81
62
256
6
ByLayer
370
18
48
1
60
0
100
AcDbLine
10
30
20
0
30
0
11
35
21
0
31
0
39
0
210
0
220
0
230
1
0
LINE
5
98
100
AcDbEntity
8
SK2
62
256
6
ByLayer
370
13
48
1
60
0
100
AcDbLine
10
-44.625163
20
32.117107
30
0
11
-44.625163
21
-11.75
31
0
39
0
210
0
220
0
230
1
0
LINE
5
9A
100
AcDbEntity
8
SK2
62
256
6
ByLayer
370
13
48
1
60
0
100
AcDbLine
10
-37.5875
20
3
30
0
11
-46.625163
21
3
31
0
39
0
210
0
220
0
230
1
0
LINE
5
9B
100
AcDbEntity
8
SK2
62
256
6
ByLayer
370
13
48
1
60
0
100
AcDbLine
10
-37.5875
20
-3
30
0
11
-46.625163
21
-3
31
0
39
0
210
0
220
0
230
1
0
LINE
5
9C
100
AcDbEntity
8
1
62
256
6
ByLayer
370
18
48
1
60
1
100
AcDbLine
10
-44.625163
20
3
30
0
11
-45.085946
21
6.499998
31
0
39
0
210
0
220
0
230
1
0
LINE
5
9D
100
AcDbEntity
8
1
62
256
6
ByLayer
370
18
48
1
60
1
100
AcDbLine
10
-45.085946
20
6.499998
30
0
11
-44.164379
21
6.500002
31
0
39
0
210
0
220
0
230
1
0
LINE
5
9E
100
AcDbEntity
8
1
62
256
6
ByLayer
370
18
48
1
60
1
100
AcDbLine
10
-44.164379
20
6.500002
30
0
11
-44.625163
21
3
31
0
39
0
210
0
220
0
230
1
0
LINE
5
9F
100
AcDbEntity
8
1
62
256
6
ByLayer
370
18
48
1
60
1
100
AcDbLine
10
-44.625163
20
-3
30
0
11
-44.164379
21
-6.499998
31
0
39
0
210
0
220
0
230
1
0
LINE
5
A0
100
AcDbEntity
8
1
62
256
6
ByLayer
370
18
48
1
60
1
100
AcDbLine
10
-44.164379
20
-6.499998
30
0
11
-45.085946
21
-6.500002
31
0
39
0
210
0
220
0
230
1
0
LINE
5
A1
100
AcDbEntity
8
1
62
256
6
ByLayer
370
18
48
1
60
1
100
AcDbLine
10
-45.085946
20
-6.500002
30
0
11
-44.625163
21
-3
31
0
39
0
210
0
220
0
230
1
0
LINE
5
A2
100
AcDbEntity
8
2
62
256
6
ByLayer
370
13
48
1
60
0
100
AcDbLine
10
42.083343
20
30.103727
30
0
11
42.083343
21
-10.775
31
0
39
0
210
0
220
0
230
1
0
LINE
5
A4
100
AcDbEntity
8
2
62
256
6
ByLayer
370
13
48
1
60
0
100
AcDbLine
10
31.0002
20
2.025
30
0
11
44.083343
21
2.025
31
0
39
0
210
0
220
0
230
1
0
LINE
5
A5
100
AcDbEntity
8
2
62
256
6
ByLayer
370
13
48
1
60
0
100
AcDbLine
10
31.0002
20
-2.025
30
0
11
44.083343
21
-2.025
31
0
39
0
210
0
220
0
230
1
0
LINE
5
A6
100
AcDbEntity
8
1
62
256
6
ByLayer
370
18
48
1
60
1
100
AcDbLine
10
42.083343
20
2.025
30
0
11
41.622559
21
5.524998
31
0
39
0
210
0
220
0
230
1
0
LINE
5
A7
100
AcDbEntity
8
1
62
256
6
ByLayer
370
18
48
1
60
1
100
AcDbLine
10
41.622559
20
5.524998
30
0
11
42.544126
21
5.525002
31
0
39
0
210
0
220
0
230
1
0
LINE
5
A8
100
AcDbEntity
8
1
62
256
6
ByLayer
370
18
48
1
60
1
100
AcDbLine
10
42.544126
20
5.525002
30
0
11
42.083343
21
2.025
31
0
39
0
210
0
220
0
230
1
0
LINE
5
A9
100
AcDbEntity
8
1
62
256
6
ByLayer
370
18
48
1
60
1
100
AcDbLine
10
42.083343
20
-2.025
30
0
11
42.544126
21
-5.524998
31
0
39
0
210
0
220
0
230
1
0
LINE
5
AA
100
AcDbEntity
8
1
62
256
6
ByLayer
370
18
48
1
60
1
100
AcDbLine
10
42.544126
20
-5.524998
30
0
11
41.622559
21
-5.525002
31
0
39
0
210
0
220
0
230
1
0
LINE
5
AB
100
AcDbEntity
8
1
62
256
6
ByLayer
370
18
48
1
60
1
100
AcDbLine
10
41.622559
20
-5.525002
30
0
11
42.083343
21
-2.025
31
0
39
0
210
0
220
0
230
1
0
LINE
5
F5
100
AcDbEntity
8
1
62
256
6
ByLayer
370
18
48
1
60
1
100
AcDbLine
10
-44.625163
20
3
30
0
11
-45.085946
21
6.499998
31
0
39
0
210
0
220
0
230
1
0
LINE
5
F6
100
AcDbEntity
8
1
62
256
6
ByLayer
370
18
48
1
60
1
100
AcDbLine
10
-45.085946
20
6.499998
30
0
11
-44.164379
21
6.500002
31
0
39
0
210
0
220
0
230
1
0
LINE
5
F7
100
AcDbEntity
8
1
62
256
6
ByLayer
370
18
48
1
60
1
100
AcDbLine
10
-44.164379
20
6.500002
30
0
11
-44.625163
21
3
31
0
39
0
210
0
220
0
230
1
0
LINE
5
F9
100
AcDbEntity
8
1
62
256
6
ByLayer
370
18
48
1
60
1
100
AcDbLine
10
-44.625163
20
-3
30
0
11
-44.164379
21
-6.499998
31
0
39
0
210
0
220
0
230
1
0
LINE
5
FA
100
AcDbEntity
8
1
62
256
6
ByLayer
370
18
48
1
60
1
100
AcDbLine
10
-44.164379
20
-6.499998
30
0
11
-45.085946
21
-6.500002
31
0
39
0
210
0
220
0
230
1
0
LINE
5
FB
100
AcDbEntity
8
1
62
256
6
ByLayer
370
18
48
1
60
1
100
AcDbLine
10
-45.085946
20
-6.500002
30
0
11
-44.625163
21
-3
31
0
39
0
210
0
220
0
230
1
0
LINE
5
FF
100
AcDbEntity
8
1
62
256
6
ByLayer
370
18
48
1
60
1
100
AcDbLine
10
42.083343
20
2.025
30
0
11
41.622559
21
5.524998
31
0
39
0
210
0
220
0
230
1
0
LINE
5
100
100
AcDbEntity
8
1
62
256
6
ByLayer
370
18
48
1
60
1
100
AcDbLine
10
41.622559
20
5.524998
30
0
11
42.544126
21
5.525002
31
0
39
0
210
0
220
0
230
1
0
LINE
5
101
100
AcDbEntity
8
1
62
256
6
ByLayer
370
18
48
1
60
1
100
AcDbLine
10
42.544126
20
5.525002
30
0
11
42.083343
21
2.025
31
0
39
0
210
0
220
0
230
1
0
LINE
5
103
100
AcDbEntity
8
1
62
256
6
ByLayer
370
18
48
1
60
1
100
AcDbLine
10
42.083343
20
-2.025
30
0
11
42.544126
21
-5.524998
31
0
39
0
210
0
220
0
230
1
0
LINE
5
104
100
AcDbEntity
8
1
62
256
6
ByLayer
370
18
48
1
60
1
100
AcDbLine
10
42.544126
20
-5.524998
30
0
11
41.622559
21
-5.525002
31
0
39
0
210
0
220
0
230
1
0
LINE
5
105
100
AcDbEntity
8
1
62
256
6
ByLayer
370
18
48
1
60
1
100
AcDbLine
10
41.622559
20
-5.525002
30
0
11
42.083343
21
-2.025
31
0
39
0
210
0
220
0
230
1
0
MTEXT
5
EF
100
AcDbEntity
8
SK6
62
256
6
ByLayer
370
13
48
1
60
0
100
AcDbMText
10
-31.892027
20
34.565328
30
0
210
0
220
0
230
1
1
\W0.7610;462.1-0405-012A1-XM X2BM
40
3.5
41
0
44
1.084337
50
0
71
7
72
5
7
iso_b_vert
0
MTEXT
5
F3
100
AcDbEntity
8
SK2
62
256
6
ByLayer
370
18
48
1
60
0
100
AcDbMText
10
-46.189796
20
16.409024
30
0
210
0
220
0
230
1
1
%%c
40
3.5
41
0
44
1.084337
50
90
71
7
72
5
7
iso_b_vert
0
MTEXT
5
F4
100
AcDbEntity
8
SK2
62
256
6
ByLayer
370
18
48
1
60
0
100
AcDbMText
10
-46.189796
20
21.63168
30
0
210
0
220
0
230
1
1
\W0.7317;6,000
40
3.5
41
0
44
1.084337
50
90
71
7
72
5
7
iso_b_vert
0
MTEXT
5
FD
100
AcDbEntity
8
2
62
256
6
ByLayer
370
18
48
1
60
0
100
AcDbMText
10
40.518709
20
14.02711
30
0
210
0
220
0
230
1
1
%%c
40
3.5
41
0
44
1.084337
50
90
71
7
72
5
7
iso_b_vert
0
MTEXT
5
FE
100
AcDbEntity
8
2
62
256
6
ByLayer
370
18
48
1
60
0
100
AcDbMText
10
40.518709
20
19.249766
30
0
210
0
220
0
230
1
1
\W0.7581;4,050
40
3.5
41
0
44
1.084337
50
90
71
7
72
5
7
iso_b_vert
0
HATCH
5
F8
100
AcDbEntity
8
SK2
62
256
6
ByLayer
370
13
48
1
60
0
100
AcDbHatch
10
0
20
0
30
0
210
0
220
0
230
1
2
ANSI31
70
0
71
0
91
1
92
5
93
3
72
1
10
-44.6251625675374
20
3
11
-45.0859463090902
21
6.49999830744682
72
1
10
-45.0859463090902
20
6.49999830744682
11
-44.1643788259847
21
6.50000169255318
72
1
10
-44.1643788259847
20
6.50000169255318
11
-44.6251625675374
21
3
97
0
75
0
76
1
52
0
41
0.0062
77
0
78
1
53
45
43
0
44
0
45
-0.0139193969876572
46
0.0139193969876572
79
0
47
0
98
1
10
0
20
0
0
HATCH
5
FC
100
AcDbEntity
8
SK2
62
256
6
ByLayer
370
13
48
1
60
0
100
AcDbHatch
10
0
20
0
30
0
210
0
220
0
230
1
2
ANSI31
70
0
71
0
91
1
92
5
93
3
72
1
10
-44.6251625675374
20
-3
11
-44.1643788259847
21
-6.49999830744682
72
1
10
-44.1643788259847
20
-6.49999830744682
11
-45.0859463090902
21
-6.50000169255318
72
1
10
-45.0859463090902
20
-6.50000169255318
11
-44.6251625675374
21
-3
97
0
75
0
76
1
52
0
41
0.0062
77
0
78
1
53
45
43
0
44
0
45
-0.0139193969876572
46
0.0139193969876572
79
0
47
0
98
1
10
0
20
0
0
HATCH
5
102
100
AcDbEntity
8
2
62
256
6
ByLayer
370
13
48
1
60
0
100
AcDbHatch
10
0
20
0
30
0
210
0
220
0
230
1
2
ANSI31
70
0
71
0
91
1
92
5
93
3
72
1
10
42.083342615295
20
2.02500000000001
11
41.6225588737423
21
5.52499830744682
72
1
10
41.6225588737423
20
5.52499830744682
11
42.5441263568478
21
5.52500169255319
72
1
10
42.5441263568478
20
5.52500169255319
11
42.083342615295
21
2.02500000000001
97
0
75
0
76
1
52
0
41
0.0062
77
0
78
1
53
45
43
0
44
0
45
-0.0139193969876572
46
0.0139193969876572
79
0
47
0
98
1
10
0
20
0
0
HATCH
5
106
100
AcDbEntity
8
2
62
256
6
ByLayer
370
13
48
1
60
0
100
AcDbHatch
10
0
20
0
30
0
210
0
220
0
230
1
2
ANSI31
70
0
71
0
91
1
92
5
93
3
72
1
10
42.083342615295
20
-2.02499999999998
11
42.5441263568478
21
-5.52499830744679
72
1
10
42.5441263568478
20
-5.52499830744679
11
41.6225588737423
21
-5.52500169255316
72
1
10
41.6225588737423
20
-5.52500169255316
11
42.083342615295
21
-2.02499999999998
97
0
75
0
76
1
52
0
41
0.0062
77
0
78
1
53
45
43
0
44
0
45
-0.0139193969876572
46
0.0139193969876572
79
0
47
0
98
1
10
0
20
0
0
DIMENSION
5
108
100
AcDbEntity
8
SK2
62
256
6
ByLayer
370
13
48
1
60
0
100
AcDbDimension
2
_U0
10
29.4127
20
-12.238398
30
0
11
14.70635
21
-12.238398
31
0
70
32
71
1
72
1
41
1
210
0
220
0
230
1
3
Standard
100
AcDbAlignedDimension
13
0
23
0
33
0
14
29.4127
24
-2.025
34
0
50
0
100
AcDbRotatedDimension
1001
ACAD
1000
DSTYLE
1002
{
1070
   371
1070
    13
1070
   372
1070
    13
1070
   170
1070
     0
1070
   144
1040
1.0
1070
   277
1070
     2
1070
   278
1070
    44
1070
   146
1040
1.0
1070
   345
1005
16
1070
   347
1005
16
1070
   346
1005
16
1070
   344
1005
0
1070
   343
1005
0
1070
   172
1070
     1
1070
    76
1070
     0
1070
    75
1070
     0
1070
   282
1070
     0
1070
   281
1070
     0
1070
    71
1070
     0
1070
    74
1070
     0
1070
   279
1070
     0
1070
   173
1070
     1
1070
   340
1005
F0
1070
   271
1070
     2
1070
   272
1070
     2
1070
    77
1070
     1
1070
    73
1070
     1
1070
   171
1070
     3
1070
   274
1070
     4
1070
   177
1070
    35
1070
   176
1070
    35
1070
   178
1070
    35
1070
    48
1040
-0.1
1070
    41
1040
3.5
1070
   147
1040
1.75
1070
    42
1040
1.5875
1070
    44
1040
2.0
1070
   140
1040
3.5
1002
}
1001
ACAD_DSTYLE_DIM_LINETYPE
1070
   380
1005
16
1001
ACAD_DSTYLE_DIM_EXT1_LINETYPE
1070
   381
1005
16
1001
ACAD_DSTYLE_DIM_EXT2_LINETYPE
1070
   382
1005
16
0
DIMENSION
5
121
100
AcDbEntity
8
SK2
62
256
6
ByLayer
370
13
48
1
60
0
100
AcDbDimension
2
_U1
10
30
20
-31.692985
30
0
11
-3
21
-31.692985
31
0
70
32
71
1
72
1
41
1
210
0
220
0
230
1
3
Standard
100
AcDbAlignedDimension
13
-36
23
-3
33
0
14
30
24
0
34
0
50
0
100
AcDbRotatedDimension
1001
ACAD
1000
DSTYLE
1002
{
1070
   371
1070
    13
1070
   372
1070
    13
1070
   170
1070
     0
1070
   144
1040
1.0
1070
   277
1070
     2
1070
   278
1070
    44
1070
   146
1040
1.0
1070
   345
1005
16
1070
   347
1005
16
1070
   346
1005
16
1070
   344
1005
0
1070
   343
1005
0
1070
   172
1070
     1
1070
    76
1070
     0
1070
    75
1070
     0
1070
   282
1070
     0
1070
   281
1070
     0
1070
    71
1070
     0
1070
    74
1070
     0
1070
   279
1070
     0
1070
   173
1070
     1
1070
   340
1005
F0
1070
   271
1070
     2
1070
   272
1070
     2
1070
    77
1070
     1
1070
    73
1070
     1
1070
   171
1070
     3
1070
   274
1070
     4
1070
   177
1070
    35
1070
   176
1070
    35
1070
   178
1070
    35
1070
    48
1040
-0.1
1070
    41
1040
3.5
1070
   147
1040
1.75
1070
    42
1040
1.5875
1070
    44
1040
2.0
1070
   140
1040
3.5
1002
}
1001
ACAD_DSTYLE_DIM_LINETYPE
1070
   380
1005
16
1001
ACAD_DSTYLE_DIM_EXT1_LINETYPE
1070
   381
1005
16
1001
ACAD_DSTYLE_DIM_EXT2_LINETYPE
1070
   382
1005
16
0
DIMENSION
5
139
100
AcDbEntity
8
SK2
62
256
6
ByLayer
370
13
48
1
60
0
100
AcDbDimension
2
_U2
10
30
20
13.634119
30
0
11
23.63
21
13.634119
31
0
70
32
71
1
72
1
41
1
210
0
220
0
230
1
3
Standard
100
AcDbAlignedDimension
13
17.26
23
2.025
33
0
14
30
24
0
34
0
50
0
100
AcDbRotatedDimension
1001
ACAD
1000
DSTYLE
1002
{
1070
   371
1070
    13
1070
   372
1070
    13
1070
   170
1070
     0
1070
   144
1040
1.0
1070
   277
1070
     2
1070
   278
1070
    44
1070
   146
1040
1.0
1070
   345
1005
16
1070
   347
1005
16
1070
   346
1005
16
1070
   344
1005
0
1070
   343
1005
0
1070
   172
1070
     1
1070
    76
1070
     0
1070
    75
1070
     0
1070
   282
1070
     0
1070
   281
1070
     0
1070
    71
1070
     0
1070
    74
1070
     0
1070
   279
1070
     0
1070
   173
1070
     1
1070
   340
1005
F0
1070
   271
1070
     2
1070
   272
1070
     2
1070
    77
1070
     1
1070
    73
1070
     1
1070
   171
1070
     3
1070
   274
1070
     4
1070
   177
1070
    35
1070
   176
1070
    35
1070
   178
1070
    35
1070
    48
1040
-0.1
1070
    41
1040
3.5
1070
   147
1040
1.75
1070
    42
1040
1.5875
1070
    44
1040
2.0
1070
   140
1040
3.5
1002
}
1001
ACAD_DSTYLE_DIM_LINETYPE
1070
   380
1005
16
1001
ACAD_DSTYLE_DIM_EXT1_LINETYPE
1070
   381
1005
16
1001
ACAD_DSTYLE_DIM_EXT2_LINETYPE
1070
   382
1005
16
0
DIMENSION
5
152
100
AcDbEntity
8
SK2
62
256
6
ByLayer
370
13
48
1
60
0
100
AcDbDimension
2
_U3
10
29.4127
20
-14.827503
30
0
11
47.5
21
-14.827503
31
0
70
32
71
1
72
1
41
1
210
0
220
0
230
1
3
Standard
100
AcDbAlignedDimension
13
30
23
0
33
0
14
29.4127
24
-2.025
34
0
50
0
100
AcDbRotatedDimension
1001
ACAD
1000
DSTYLE
1002
{
1070
   371
1070
    13
1070
   372
1070
    13
1070
   170
1070
     0
1070
   144
1040
1.0
1070
   277
1070
     2
1070
   278
1070
    44
1070
   146
1040
1.0
1070
   345
1005
16
1070
   347
1005
16
1070
   346
1005
16
1070
   344
1005
0
1070
   343
1005
0
1070
   172
1070
     1
1070
    76
1070
     0
1070
    75
1070
     0
1070
   282
1070
     0
1070
   281
1070
     0
1070
    71
1070
     0
1070
    74
1070
     0
1070
   279
1070
     0
1070
   173
1070
     1
1070
   340
1005
F0
1070
   271
1070
     2
1070
   272
1070
     2
1070
    77
1070
     1
1070
    73
1070
     1
1070
   171
1070
     3
1070
   274
1070
     4
1070
   177
1070
    35
1070
   176
1070
    35
1070
   178
1070
    35
1070
    48
1040
-0.1
1070
    41
1040
3.5
1070
   147
1040
1.75
1070
    42
1040
1.5875
1070
    44
1040
2.0
1070
   140
1040
3.5
1002
}
1001
ACAD_DSTYLE_DIM_LINETYPE
1070
   380
1005
16
1001
ACAD_DSTYLE_DIM_EXT1_LINETYPE
1070
   381
1005
16
1001
ACAD_DSTYLE_DIM_EXT2_LINETYPE
1070
   382
1005
16
0
DIMENSION
5
16C
100
AcDbEntity
8
SK2
62
256
6
ByLayer
370
13
48
1
60
0
100
AcDbDimension
2
_U4
10
29.4127
20
-21.343428
30
0
11
-3.29365
21
-21.343428
31
0
70
32
71
1
72
1
41
1
210
0
220
0
230
1
3
Standard
100
AcDbAlignedDimension
13
-36
23
-3
33
0
14
29.4127
24
-2.025
34
0
50
0
100
AcDbRotatedDimension
1001
ACAD
1000
DSTYLE
1002
{
1070
   371
1070
    13
1070
   372
1070
    13
1070
   170
1070
     0
1070
   144
1040
1.0
1070
   277
1070
     2
1070
   278
1070
    44
1070
   146
1040
1.0
1070
   345
1005
16
1070
   347
1005
16
1070
   346
1005
16
1070
   344
1005
0
1070
   343
1005
0
1070
   172
1070
     1
1070
    76
1070
     0
1070
    75
1070
     0
1070
   282
1070
     0
1070
   281
1070
     0
1070
    71
1070
     0
1070
    74
1070
     0
1070
   279
1070
     0
1070
   173
1070
     1
1070
   340
1005
F0
1070
   271
1070
     2
1070
   272
1070
     2
1070
    77
1070
     1
1070
    73
1070
     1
1070
   171
1070
     3
1070
   274
1070
     4
1070
   177
1070
    35
1070
   176
1070
    35
1070
   178
1070
    35
1070
    48
1040
-0.1
1070
    41
1040
3.5
1070
   147
1040
1.75
1070
    42
1040
1.5875
1070
    44
1040
2.0
1070
   140
1040
3.5
1002
}
1001
ACAD_DSTYLE_DIM_LINETYPE
1070
   380
1005
16
1001
ACAD_DSTYLE_DIM_EXT1_LINETYPE
1070
   381
1005
16
1001
ACAD_DSTYLE_DIM_EXT2_LINETYPE
1070
   382
1005
16
0
ENDSEC
0
SECTION
2
OBJECTS
0
DICTIONARY
5
1f4
330
0
100
AcDbDictionary
280
0
281
1
3
ACAD_GROUP
350
1f5
3
ACAD_MLINESTYLE
350
1f6
0
DICTIONARY
5
1f5
330
0
100
AcDbDictionary
280
0
281
1
0
DICTIONARY
5
1f6
330
0
100
AcDbDictionary
280
0
281
1
3
Standard
350
18
0
MLINESTYLE
5
18
330
1f6
100
AcDbMlineStyle
2
Standard
70
0
3

62
256
51
90
52
90
71
2
49
-0.5
62
256
6
ByLayer
49
0.5
62
256
6
ByLayer
0
RASTERVARIABLES
5
1e2
330

100
AcDbRasterVariables
90
0
70
1
71
1
72
1
0
ENDSEC
0
EOF
