0
SECTION
2
HEADER
9
$ACADVER
1
AC1015
9
$DWGCODEPAGE
3
ANSI_1252
9
$HANDSEED
5
203
9
$ANGBASE
50
0
9
$ANGDIR
70
0
9
$ATTMODE
70
1
9
$AUNITS
70
0
9
$AUPREC
70
0
9
$CECOLOR
62
256
9
$CELTSCALE
40
1
9
$CELTYPE
6
ByLayer
9
$CELWEIGHT
370
18
9
$CLAYER
8
0
9
$CMLJUST
70
0
9
$CMLSCALE
40
1
9
$CMLSTYLE
2
Standard
9
$DIMSTYLE
2
Standard
9
$TEXTSIZE
40
0.2
9
$TEXTSTYLE
7
Standard
9
$LUNITS
70
2
9
$LUPREC
70
4
9
$EXTNAMES
290
1
9
$INSUNITS
70
4
9
$LTSCALE
40
1
9
$LWDISPLAY
290
1
9
$PDMODE
70
0
9
$PDSIZE
40
0
9
$PLINEGEN
70
0
0
ENDSEC
0
SECTION
2
CLASSES
0
CLASS
1
RASTERVARIABLES
2
AcDbRasterVariables
3
ISM
90
0
280
0
281
0
0
ENDSEC
0
SECTION
2
TABLES
0
TABLE
2
VPORT
5
1f9
100
AcDbSymbolTable
0
VPORT
5
1
100
AcDbSymbolTableRecord
100
AcDbViewportTableRecord
2
*Active
70
0
10
0
20
0
11
1
21
1
12
-1
22
1
13
0
23
0
14
0.5
24
0.5
15
10
25
10
16
0
26
0
36
1
17
0
27
0
37
0
0
ENDTAB
0
TABLE
2
LTYPE
5
1fa
100
AcDbSymbolTable
0
LTYPE
5
14
100
AcDbSymbolTableRecord
100
AcDbLinetypeTableRecord
70
0
2
ByBlock
3

72
65
73
0
40
0
0
LTYPE
5
15
100
AcDbSymbolTableRecord
100
AcDbLinetypeTableRecord
70
0
2
ByLayer
3

72
65
73
0
40
0
0
LTYPE
5
16
100
AcDbSymbolTableRecord
100
AcDbLinetypeTableRecord
70
0
2
Continuous
3
Solid line
72
65
73
0
40
0
0
LTYPE
5
6E
100
AcDbSymbolTableRecord
100
AcDbLinetypeTableRecord
70
0
2
CENTER
3
____ _ ____ _ ____ _ ____
72
65
73
4
40
47.5
49
22
74
0
49
-8.5
74
0
49
8.5
74
0
49
-8.5
74
0
0
LTYPE
5
6F
100
AcDbSymbolTableRecord
100
AcDbLinetypeTableRecord
70
0
2
DASHED
3
__ __ __ __ __ __ __ __ __
72
65
73
2
40
25.72
49
12.86
74
0
49
-12.86
74
0
0
ENDTAB
0
TABLE
2
LAYER
5
1fb
100
AcDbSymbolTable
0
LAYER
5
10
100
AcDbSymbolTableRecord
100
AcDbLayerTableRecord
2
0
70
0
62
7
6
Continuous
290
1
370
-3
390
0
0
LAYER
5
71
100
AcDbSymbolTableRecord
100
AcDbLayerTableRecord
2
80
70
0
62
-6
6
Continuous
290
1
370
-3
390
0
0
LAYER
5
73
100
AcDbSymbolTableRecord
100
AcDbLayerTableRecord
2
81
70
0
62
-3
6
Continuous
290
1
370
-3
390
0
0
LAYER
5
75
100
AcDbSymbolTableRecord
100
AcDbLayerTableRecord
2
1
70
0
62
4
6
Continuous
290
1
370
-3
390
0
0
LAYER
5
8B
100
AcDbSymbolTableRecord
100
AcDbLayerTableRecord
2
4
70
0
62
-2
6
CENTER
290
1
370
-3
390
0
0
LAYER
5
A4
100
AcDbSymbolTableRecord
100
AcDbLayerTableRecord
2
2
70
0
62
7
6
Continuous
290
1
370
-3
390
0
0
LAYER
5
10D
100
AcDbSymbolTableRecord
100
AcDbLayerTableRecord
2
Defpoints
70
0
62
7
6
Continuous
290
0
370
-3
390
0
0
LAYER
5
1e5
100
AcDbSymbolTableRecord
100
AcDbLayerTableRecord
2
SK1
70
0
62
4
6
Continuous
290
1
370
-3
390
0
0
LAYER
5
1e6
100
AcDbSymbolTableRecord
100
AcDbLayerTableRecord
2
SK4
70
0
62
2
6
CENTER
290
1
370
-3
390
0
0
LAYER
5
1e7
100
AcDbSymbolTableRecord
100
AcDbLayerTableRecord
2
SK2
70
0
62
7
6
Continuous
290
1
370
-3
390
0
0
LAYER
5
1e8
100
AcDbSymbolTableRecord
100
AcDbLayerTableRecord
2
SK6
70
0
62
5
6
Continuous
290
1
370
-3
390
0
0
ENDTAB
0
TABLE
2
STYLE
5
1fc
100
AcDbSymbolTable
0
STYLE
5
11
100
AcDbSymbolTableRecord
100
AcDbTextStyleTableRecord
2
Standard
3
txt
70
0
71
0
40
0
41
1
42
0
50
0
0
STYLE
5
F2
100
AcDbSymbolTableRecord
100
AcDbTextStyleTableRecord
2
iso_b_vert
3
simplex.shx
70
0
71
0
40
0
41
1
42
0
50
0
0
STYLE
5
F3
100
AcDbSymbolTableRecord
100
AcDbTextStyleTableRecord
2
DWGDirectTextStyle
3
simplex
70
0
71
0
40
0
41
1
42
0
50
0
0
ENDTAB
0
TABLE
2
DIMSTYLE
5
1fd
100
AcDbSymbolTable
100
AcDbDimStyleTable
0
DIMSTYLE
105
27
100
AcDbSymbolTableRecord
100
AcDbDimStyleTableRecord
2
Standard
70
0
3
<>
41
0.18
42
0.0625
44
0.18
140
0.18
147
0.09
73
0
74
0
77
1
271
2
275
0
278
52
280
0
340
11
0
ENDTAB
0
TABLE
2
VIEW
5
1fe
100
AcDbSymbolTable
0
ENDTAB
0
TABLE
2
UCS
5
1ff
100
AcDbSymbolTable
0
ENDTAB
0
TABLE
2
APPID
5
200
100
AcDbSymbolTable
0
APPID
5
12
100
AcDbSymbolTableRecord
100
AcDbRegAppTableRecord
2
ACAD
70
0
0
APPID
5
109
100
AcDbSymbolTableRecord
100
AcDbRegAppTableRecord
2
ACAD_DSTYLE_DIMBREAK
70
0
0
APPID
5
1A4
100
AcDbSymbolTableRecord
100
AcDbRegAppTableRecord
2
ACAD_DSTYLE_DIM_LINETYPE
70
0
0
APPID
5
1A5
100
AcDbSymbolTableRecord
100
AcDbRegAppTableRecord
2
ACAD_DSTYLE_DIM_EXT1_LINETYPE
70
0
0
APPID
5
1A6
100
AcDbSymbolTableRecord
100
AcDbRegAppTableRecord
2
ACAD_DSTYLE_DIM_EXT2_LINETYPE
70
0
0
APPID
5
1E1
100
AcDbSymbolTableRecord
100
AcDbRegAppTableRecord
2
ACAD_MLEADERVER
70
0
0
ENDTAB
0
TABLE
2
BLOCK_RECORD
5
201
100
AcDbSymbolTable
0
BLOCK_RECORD
5
1F
100
AcDbSymbolTableRecord
100
AcDbBlockTableRecord
2
*Model_Space
340
0
70
0
0
BLOCK_RECORD
5
1B
100
AcDbSymbolTableRecord
100
AcDbBlockTableRecord
2
*Paper_Space
340
0
70
0
0
BLOCK_RECORD
5
23
100
AcDbSymbolTableRecord
100
AcDbBlockTableRecord
2
*Paper_Space0
340
0
70
0
0
BLOCK_RECORD
5
10E
100
AcDbSymbolTableRecord
100
AcDbBlockTableRecord
2
*D1
340
0
70
0
0
BLOCK_RECORD
5
11A
100
AcDbSymbolTableRecord
100
AcDbBlockTableRecord
2
_U0
340
0
70
0
0
BLOCK_RECORD
5
126
100
AcDbSymbolTableRecord
100
AcDbBlockTableRecord
2
*D3
340
0
70
0
0
BLOCK_RECORD
5
132
100
AcDbSymbolTableRecord
100
AcDbBlockTableRecord
2
_U1
340
0
70
0
0
BLOCK_RECORD
5
13E
100
AcDbSymbolTableRecord
100
AcDbBlockTableRecord
2
*D5
340
0
70
0
0
BLOCK_RECORD
5
14B
100
AcDbSymbolTableRecord
100
AcDbBlockTableRecord
2
_U2
340
0
70
0
0
BLOCK_RECORD
5
157
100
AcDbSymbolTableRecord
100
AcDbBlockTableRecord
2
*D7
340
0
70
0
0
BLOCK_RECORD
5
165
100
AcDbSymbolTableRecord
100
AcDbBlockTableRecord
2
_U3
340
0
70
0
0
BLOCK_RECORD
5
171
100
AcDbSymbolTableRecord
100
AcDbBlockTableRecord
2
*D9
340
0
70
0
0
BLOCK_RECORD
5
17D
100
AcDbSymbolTableRecord
100
AcDbBlockTableRecord
2
_U4
340
0
70
0
0
ENDTAB
0
ENDSEC
0
SECTION
2
BLOCKS
0
BLOCK
5
20
100
AcDbEntity
8
0
100
AcDbBlockBegin
2
*Model_Space
70
0
10
0
20
0
30
0
3
*Model_Space
0
ENDBLK
5
21
100
AcDbEntity
8
0
100
AcDbBlockEnd
0
BLOCK
5
1C
100
AcDbEntity
8
0
100
AcDbBlockBegin
2
*Paper_Space
70
0
10
0
20
0
30
0
3
*Paper_Space
0
ENDBLK
5
1D
100
AcDbEntity
8
0
100
AcDbBlockEnd
0
BLOCK
5
24
100
AcDbEntity
8
0
100
AcDbBlockBegin
2
*Paper_Space0
70
0
10
0
20
0
30
0
3
*Paper_Space0
0
ENDBLK
5
25
100
AcDbEntity
8
0
100
AcDbBlockEnd
0
BLOCK
5
10F
100
AcDbEntity
8
0
100
AcDbBlockBegin
2
*D1
70
1
10
0
20
0
30
0
3
*D1
0
LINE
5
111
100
AcDbEntity
8
0
62
256
6
ByLayer
370
-2
48
1
60
0
100
AcDbLine
10
0
20
-1.5875
30
0
11
0
21
-14.813398
31
0
39
0
210
0
220
0
230
1
0
LINE
5
112
100
AcDbEntity
8
0
62
256
6
ByLayer
370
-2
48
1
60
0
100
AcDbLine
10
29.2394
20
-4.1875
30
0
11
29.2394
21
-14.813398
31
0
39
0
210
0
220
0
230
1
0
LINE
5
113
100
AcDbEntity
8
0
62
256
6
ByLayer
370
-2
48
1
60
0
100
AcDbLine
10
3.5
20
-12.813398
30
0
11
25.7394
21
-12.813398
31
0
39
0
210
0
220
0
230
1
0
SOLID
5
114
100
AcDbEntity
8
0
62
256
6
ByLayer
370
-1
48
1
60
0
100
AcDbTrace
10
3.5
20
-12.230065
30
0
11
3.5
21
-13.396732
31
0
12
0
22
-12.813398
32
0
13
0
23
-12.813398
33
0
39
0
210
0
220
0
230
1
0
SOLID
5
115
100
AcDbEntity
8
0
62
256
6
ByLayer
370
-1
48
1
60
0
100
AcDbTrace
10
25.7394
20
-13.396732
30
0
11
25.7394
21
-12.230065
31
0
12
29.2394
22
-12.813398
32
0
13
29.2394
23
-12.813398
33
0
39
0
210
0
220
0
230
1
0
MTEXT
5
116
100
AcDbEntity
8
0
62
256
6
ByLayer
370
18
48
1
60
0
100
AcDbMText
10
14.6197
20
-5.813398
30
0
210
0
220
0
230
1
1
\A1;29.24
40
3.5
41
0
44
1
50
0
71
5
72
5
7
iso_b_vert
0
POINT
5
117
100
AcDbEntity
8
Defpoints
62
0
6
ByLayer
370
-1
48
1
60
0
100
AcDbPoint
10
0
20
0
30
0
39
0
210
0
220
0
230
1
50
360
0
POINT
5
118
100
AcDbEntity
8
Defpoints
62
0
6
ByLayer
370
-1
48
1
60
0
100
AcDbPoint
10
29.2394
20
-2.6
30
0
39
0
210
0
220
0
230
1
50
360
0
POINT
5
119
100
AcDbEntity
8
Defpoints
62
0
6
ByLayer
370
-1
48
1
60
0
100
AcDbPoint
10
29.2394
20
-12.813398
30
0
39
0
210
0
220
0
230
1
50
360
0
ENDBLK
5
110
100
AcDbEntity
8
0
100
AcDbBlockEnd
0
BLOCK
5
121
100
AcDbEntity
8
0
100
AcDbBlockBegin
2
_U0
70
0
10
0
20
0
30
0
3
_U0
0
MTEXT
5
11B
100
AcDbEntity
8
SK2
62
256
6
ByLayer
370
13
48
1
60
0
100
AcDbMText
10
9.298135
20
-11.780765
30
0
210
0
220
0
230
1
1
\W0.7495;29,24
40
3.5
41
0
44
1.084337
50
0
71
7
72
5
7
iso_b_vert
0
LINE
5
11C
100
AcDbEntity
8
SK2
62
256
6
ByLayer
370
13
48
1
60
0
100
AcDbLine
10
0
20
-1.5875
30
0
11
0
21
-14.813398
31
0
39
0
210
0
220
0
230
1
0
LINE
5
11D
100
AcDbEntity
8
SK2
62
256
6
ByLayer
370
13
48
1
60
0
100
AcDbLine
10
29.2394
20
-4.1875
30
0
11
29.2394
21
-14.813398
31
0
39
0
210
0
220
0
230
1
0
LINE
5
11E
100
AcDbEntity
8
SK2
62
256
6
ByLayer
370
13
48
1
60
0
100
AcDbLine
10
0
20
-12.813398
30
0
11
29.2394
21
-12.813398
31
0
39
0
210
0
220
0
230
1
0
SOLID
5
11F
100
AcDbEntity
8
SK2
62
256
6
ByLayer
370
18
48
1
60
0
100
AcDbTrace
10
0
20
-12.813398
30
0
11
3.499998
21
-12.352615
31
0
12
3.500002
22
-13.274182
32
0
13
3.500002
23
-13.274182
33
0
39
0
210
0
220
0
230
1
0
SOLID
5
120
100
AcDbEntity
8
SK2
62
256
6
ByLayer
370
18
48
1
60
0
100
AcDbTrace
10
29.2394
20
-12.813398
30
0
11
25.739402
21
-13.274182
31
0
12
25.739398
22
-12.352615
32
0
13
25.739398
23
-12.352615
33
0
39
0
210
0
220
0
230
1
0
ENDBLK
5
122
100
AcDbEntity
8
0
100
AcDbBlockEnd
0
BLOCK
5
127
100
AcDbEntity
8
0
100
AcDbBlockBegin
2
*D3
70
1
10
0
20
0
30
0
3
*D3
0
LINE
5
129
100
AcDbEntity
8
0
62
256
6
ByLayer
370
-2
48
1
60
0
100
AcDbLine
10
-36
20
-4.5875
30
0
11
-36
21
-33.692985
31
0
39
0
210
0
220
0
230
1
0
LINE
5
12A
100
AcDbEntity
8
0
62
256
6
ByLayer
370
-2
48
1
60
0
100
AcDbLine
10
30
20
-1.5875
30
0
11
30
21
-33.692985
31
0
39
0
210
0
220
0
230
1
0
LINE
5
12B
100
AcDbEntity
8
0
62
256
6
ByLayer
370
-2
48
1
60
0
100
AcDbLine
10
-32.5
20
-31.692985
30
0
11
26.5
21
-31.692985
31
0
39
0
210
0
220
0
230
1
0
SOLID
5
12C
100
AcDbEntity
8
0
62
256
6
ByLayer
370
-1
48
1
60
0
100
AcDbTrace
10
-32.5
20
-31.109652
30
0
11
-32.5
21
-32.276319
31
0
12
-36
22
-31.692985
32
0
13
-36
23
-31.692985
33
0
39
0
210
0
220
0
230
1
0
SOLID
5
12D
100
AcDbEntity
8
0
62
256
6
ByLayer
370
-1
48
1
60
0
100
AcDbTrace
10
26.5
20
-32.276319
30
0
11
26.5
21
-31.109652
31
0
12
30
22
-31.692985
32
0
13
30
23
-31.692985
33
0
39
0
210
0
220
0
230
1
0
MTEXT
5
12E
100
AcDbEntity
8
0
62
256
6
ByLayer
370
18
48
1
60
0
100
AcDbMText
10
-3
20
-24.692985
30
0
210
0
220
0
230
1
1
\A1;66.00
40
3.5
41
0
44
1
50
0
71
5
72
5
7
iso_b_vert
0
POINT
5
12F
100
AcDbEntity
8
Defpoints
62
0
6
ByLayer
370
-1
48
1
60
0
100
AcDbPoint
10
-36
20
-3
30
0
39
0
210
0
220
0
230
1
50
360
0
POINT
5
130
100
AcDbEntity
8
Defpoints
62
0
6
ByLayer
370
-1
48
1
60
0
100
AcDbPoint
10
30
20
0
30
0
39
0
210
0
220
0
230
1
50
360
0
POINT
5
131
100
AcDbEntity
8
Defpoints
62
0
6
ByLayer
370
-1
48
1
60
0
100
AcDbPoint
10
30
20
-31.692985
30
0
39
0
210
0
220
0
230
1
50
360
0
ENDBLK
5
128
100
AcDbEntity
8
0
100
AcDbBlockEnd
0
BLOCK
5
139
100
AcDbEntity
8
0
100
AcDbBlockBegin
2
_U1
70
0
10
0
20
0
30
0
3
_U1
0
MTEXT
5
133
100
AcDbEntity
8
SK2
62
256
6
ByLayer
370
13
48
1
60
0
100
AcDbMText
10
-8.137299
20
-30.660352
30
0
210
0
220
0
230
1
1
\W0.7317;66,00
40
3.5
41
0
44
1.084337
50
0
71
7
72
5
7
iso_b_vert
0
LINE
5
134
100
AcDbEntity
8
SK2
62
256
6
ByLayer
370
13
48
1
60
0
100
AcDbLine
10
-36
20
-4.5875
30
0
11
-36
21
-33.692985
31
0
39
0
210
0
220
0
230
1
0
LINE
5
135
100
AcDbEntity
8
SK2
62
256
6
ByLayer
370
13
48
1
60
0
100
AcDbLine
10
30
20
-1.5875
30
0
11
30
21
-33.692985
31
0
39
0
210
0
220
0
230
1
0
LINE
5
136
100
AcDbEntity
8
SK2
62
256
6
ByLayer
370
13
48
1
60
0
100
AcDbLine
10
-36
20
-31.692985
30
0
11
30
21
-31.692985
31
0
39
0
210
0
220
0
230
1
0
SOLID
5
137
100
AcDbEntity
8
SK2
62
256
6
ByLayer
370
18
48
1
60
0
100
AcDbTrace
10
-36
20
-31.692985
30
0
11
-32.500002
21
-31.232202
31
0
12
-32.499998
22
-32.153769
32
0
13
-32.499998
23
-32.153769
33
0
39
0
210
0
220
0
230
1
0
SOLID
5
138
100
AcDbEntity
8
SK2
62
256
6
ByLayer
370
18
48
1
60
0
100
AcDbTrace
10
30
20
-31.692985
30
0
11
26.500002
21
-32.153769
31
0
12
26.499998
22
-31.232202
32
0
13
26.499998
23
-31.232202
33
0
39
0
210
0
220
0
230
1
0
ENDBLK
5
13A
100
AcDbEntity
8
0
100
AcDbBlockEnd
0
BLOCK
5
13F
100
AcDbEntity
8
0
100
AcDbBlockBegin
2
*D5
70
1
10
0
20
0
30
0
3
*D5
0
LINE
5
141
100
AcDbEntity
8
0
62
256
6
ByLayer
370
-2
48
1
60
0
100
AcDbLine
10
13.64
20
4.1875
30
0
11
13.64
21
16.209119
31
0
39
0
210
0
220
0
230
1
0
LINE
5
142
100
AcDbEntity
8
0
62
256
6
ByLayer
370
-2
48
1
60
0
100
AcDbLine
10
30
20
1.5875
30
0
11
30
21
16.209119
31
0
39
0
210
0
220
0
230
1
0
LINE
5
143
100
AcDbEntity
8
0
62
256
6
ByLayer
370
-2
48
1
60
0
100
AcDbLine
10
10.14
20
14.209119
30
0
11
6.64
21
14.209119
31
0
39
0
210
0
220
0
230
1
0
LINE
5
144
100
AcDbEntity
8
0
62
256
6
ByLayer
370
-2
48
1
60
0
100
AcDbLine
10
33.5
20
14.209119
30
0
11
37
21
14.209119
31
0
39
0
210
0
220
0
230
1
0
SOLID
5
145
100
AcDbEntity
8
0
62
256
6
ByLayer
370
-1
48
1
60
0
100
AcDbTrace
10
10.14
20
13.625786
30
0
11
10.14
21
14.792453
31
0
12
13.64
22
14.209119
32
0
13
13.64
23
14.209119
33
0
39
0
210
0
220
0
230
1
0
SOLID
5
146
100
AcDbEntity
8
0
62
256
6
ByLayer
370
-1
48
1
60
0
100
AcDbTrace
10
33.5
20
14.792453
30
0
11
33.5
21
13.625786
31
0
12
30
22
14.209119
32
0
13
30
23
14.209119
33
0
39
0
210
0
220
0
230
1
0
MTEXT
5
147
100
AcDbEntity
8
0
62
256
6
ByLayer
370
18
48
1
60
0
100
AcDbMText
10
21.82
20
21.209119
30
0
210
0
220
0
230
1
1
\A1;16.36
40
3.5
41
0
44
1
50
0
71
5
72
5
7
iso_b_vert
0
POINT
5
148
100
AcDbEntity
8
Defpoints
62
0
6
ByLayer
370
-1
48
1
60
0
100
AcDbPoint
10
13.64
20
2.6
30
0
39
0
210
0
220
0
230
1
50
360
0
POINT
5
149
100
AcDbEntity
8
Defpoints
62
0
6
ByLayer
370
-1
48
1
60
0
100
AcDbPoint
10
30
20
0
30
0
39
0
210
0
220
0
230
1
50
360
0
POINT
5
14A
100
AcDbEntity
8
Defpoints
62
0
6
ByLayer
370
-1
48
1
60
0
100
AcDbPoint
10
30
20
14.209119
30
0
39
0
210
0
220
0
230
1
50
360
0
ENDBLK
5
140
100
AcDbEntity
8
0
100
AcDbBlockEnd
0
BLOCK
5
152
100
AcDbEntity
8
0
100
AcDbBlockBegin
2
_U2
70
0
10
0
20
0
30
0
3
_U2
0
MTEXT
5
14C
100
AcDbEntity
8
SK2
62
256
6
ByLayer
370
13
48
1
60
0
100
AcDbMText
10
17.120135
20
15.241753
30
0
210
0
220
0
230
1
1
\W0.6713;16,36
40
3.5
41
0
44
1.084337
50
0
71
7
72
5
7
iso_b_vert
0
LINE
5
14D
100
AcDbEntity
8
SK2
62
256
6
ByLayer
370
13
48
1
60
0
100
AcDbLine
10
13.64
20
4.1875
30
0
11
13.64
21
16.209119
31
0
39
0
210
0
220
0
230
1
0
LINE
5
14E
100
AcDbEntity
8
SK2
62
256
6
ByLayer
370
13
48
1
60
0
100
AcDbLine
10
30
20
1.5875
30
0
11
30
21
16.209119
31
0
39
0
210
0
220
0
230
1
0
LINE
5
14F
100
AcDbEntity
8
SK2
62
256
6
ByLayer
370
13
48
1
60
0
100
AcDbLine
10
13.64
20
14.209119
30
0
11
30
21
14.209119
31
0
39
0
210
0
220
0
230
1
0
SOLID
5
150
100
AcDbEntity
8
SK2
62
256
6
ByLayer
370
18
48
1
60
0
100
AcDbTrace
10
13.64
20
14.209119
30
0
11
17.139998
21
14.669903
31
0
12
17.140002
22
13.748335
32
0
13
17.140002
23
13.748335
33
0
39
0
210
0
220
0
230
1
0
SOLID
5
151
100
AcDbEntity
8
SK2
62
256
6
ByLayer
370
18
48
1
60
0
100
AcDbTrace
10
30
20
14.209119
30
0
11
26.500002
21
13.748335
31
0
12
26.499998
22
14.669903
32
0
13
26.499998
23
14.669903
33
0
39
0
210
0
220
0
230
1
0
ENDBLK
5
153
100
AcDbEntity
8
0
100
AcDbBlockEnd
0
BLOCK
5
158
100
AcDbEntity
8
0
100
AcDbBlockBegin
2
*D7
70
1
10
0
20
0
30
0
3
*D7
0
LINE
5
15A
100
AcDbEntity
8
0
62
256
6
ByLayer
370
-2
48
1
60
0
100
AcDbLine
10
30
20
-1.5875
30
0
11
30
21
-17.402503
31
0
39
0
210
0
220
0
230
1
0
LINE
5
15B
100
AcDbEntity
8
0
62
256
6
ByLayer
370
-2
48
1
60
0
100
AcDbLine
10
29.2394
20
-4.1875
30
0
11
29.2394
21
-17.402503
31
0
39
0
210
0
220
0
230
1
0
LINE
5
15C
100
AcDbEntity
8
0
62
256
6
ByLayer
370
-2
48
1
60
0
100
AcDbLine
10
30
20
-15.402503
30
0
11
58.166667
21
-15.402503
31
0
39
0
210
0
220
0
230
1
0
LINE
5
15D
100
AcDbEntity
8
0
62
256
6
ByLayer
370
-2
48
1
60
0
100
AcDbLine
10
33.5
20
-15.402503
30
0
11
37
21
-15.402503
31
0
39
0
210
0
220
0
230
1
0
LINE
5
15E
100
AcDbEntity
8
0
62
256
6
ByLayer
370
-2
48
1
60
0
100
AcDbLine
10
25.7394
20
-15.402503
30
0
11
22.2394
21
-15.402503
31
0
39
0
210
0
220
0
230
1
0
SOLID
5
15F
100
AcDbEntity
8
0
62
256
6
ByLayer
370
-1
48
1
60
0
100
AcDbTrace
10
33.5
20
-14.81917
30
0
11
33.5
21
-15.985837
31
0
12
30
22
-15.402503
32
0
13
30
23
-15.402503
33
0
39
0
210
0
220
0
230
1
0
SOLID
5
160
100
AcDbEntity
8
0
62
256
6
ByLayer
370
-1
48
1
60
0
100
AcDbTrace
10
25.7394
20
-15.985837
30
0
11
25.7394
21
-14.81917
31
0
12
29.2394
22
-15.402503
32
0
13
29.2394
23
-15.402503
33
0
39
0
210
0
220
0
230
1
0
MTEXT
5
161
100
AcDbEntity
8
0
62
256
6
ByLayer
370
18
48
1
60
0
100
AcDbMText
10
47.583333
20
-8.402503
30
0
210
0
220
0
230
1
1
\A1;0.76
40
3.5
41
0
44
1
50
0
71
5
72
5
7
iso_b_vert
0
POINT
5
162
100
AcDbEntity
8
Defpoints
62
0
6
ByLayer
370
-1
48
1
60
0
100
AcDbPoint
10
30
20
0
30
0
39
0
210
0
220
0
230
1
50
360
0
POINT
5
163
100
AcDbEntity
8
Defpoints
62
0
6
ByLayer
370
-1
48
1
60
0
100
AcDbPoint
10
29.2394
20
-2.6
30
0
39
0
210
0
220
0
230
1
50
360
0
POINT
5
164
100
AcDbEntity
8
Defpoints
62
0
6
ByLayer
370
-1
48
1
60
0
100
AcDbPoint
10
29.2394
20
-15.402503
30
0
39
0
210
0
220
0
230
1
50
360
0
ENDBLK
5
159
100
AcDbEntity
8
0
100
AcDbBlockEnd
0
BLOCK
5
16C
100
AcDbEntity
8
0
100
AcDbBlockBegin
2
_U3
70
0
10
0
20
0
30
0
3
_U3
0
MTEXT
5
166
100
AcDbEntity
8
SK2
62
256
6
ByLayer
370
13
48
1
60
0
100
AcDbMText
10
36.15186
20
-14.36987
30
0
210
0
220
0
230
1
1
\W0.7150;0,76
40
3.5
41
0
44
1.084337
50
0
71
7
72
5
7
iso_b_vert
0
LINE
5
167
100
AcDbEntity
8
SK2
62
256
6
ByLayer
370
13
48
1
60
0
100
AcDbLine
10
30
20
-1.5875
30
0
11
30
21
-17.402503
31
0
39
0
210
0
220
0
230
1
0
LINE
5
168
100
AcDbEntity
8
SK2
62
256
6
ByLayer
370
13
48
1
60
0
100
AcDbLine
10
29.2394
20
-4.1875
30
0
11
29.2394
21
-17.402503
31
0
39
0
210
0
220
0
230
1
0
LINE
5
169
100
AcDbEntity
8
SK2
62
256
6
ByLayer
370
13
48
1
60
0
100
AcDbLine
10
20.4894
20
-15.402503
30
0
11
43.996491
21
-15.402503
31
0
39
0
210
0
220
0
230
1
0
SOLID
5
16A
100
AcDbEntity
8
SK2
62
256
6
ByLayer
370
18
48
1
60
0
100
AcDbTrace
10
30
20
-15.402503
30
0
11
33.499998
21
-14.941719
31
0
12
33.500002
22
-15.863287
32
0
13
33.500002
23
-15.863287
33
0
39
0
210
0
220
0
230
1
0
SOLID
5
16B
100
AcDbEntity
8
SK2
62
256
6
ByLayer
370
18
48
1
60
0
100
AcDbTrace
10
29.2394
20
-15.402503
30
0
11
25.739402
21
-15.863287
31
0
12
25.739398
22
-14.941719
32
0
13
25.739398
23
-14.941719
33
0
39
0
210
0
220
0
230
1
0
ENDBLK
5
16D
100
AcDbEntity
8
0
100
AcDbBlockEnd
0
BLOCK
5
172
100
AcDbEntity
8
0
100
AcDbBlockBegin
2
*D9
70
1
10
0
20
0
30
0
3
*D9
0
LINE
5
174
100
AcDbEntity
8
0
62
256
6
ByLayer
370
-2
48
1
60
0
100
AcDbLine
10
-36
20
-4.5875
30
0
11
-36
21
-23.343428
31
0
39
0
210
0
220
0
230
1
0
LINE
5
175
100
AcDbEntity
8
0
62
256
6
ByLayer
370
-2
48
1
60
0
100
AcDbLine
10
29.2394
20
-4.1875
30
0
11
29.2394
21
-23.343428
31
0
39
0
210
0
220
0
230
1
0
LINE
5
176
100
AcDbEntity
8
0
62
256
6
ByLayer
370
-2
48
1
60
0
100
AcDbLine
10
-32.5
20
-21.343428
30
0
11
25.7394
21
-21.343428
31
0
39
0
210
0
220
0
230
1
0
SOLID
5
177
100
AcDbEntity
8
0
62
256
6
ByLayer
370
-1
48
1
60
0
100
AcDbTrace
10
-32.5
20
-20.760095
30
0
11
-32.5
21
-21.926762
31
0
12
-36
22
-21.343428
32
0
13
-36
23
-21.343428
33
0
39
0
210
0
220
0
230
1
0
SOLID
5
178
100
AcDbEntity
8
0
62
256
6
ByLayer
370
-1
48
1
60
0
100
AcDbTrace
10
25.7394
20
-21.926762
30
0
11
25.7394
21
-20.760095
31
0
12
29.2394
22
-21.343428
32
0
13
29.2394
23
-21.343428
33
0
39
0
210
0
220
0
230
1
0
MTEXT
5
179
100
AcDbEntity
8
0
62
256
6
ByLayer
370
18
48
1
60
0
100
AcDbMText
10
-3.3803
20
-14.343428
30
0
210
0
220
0
230
1
1
\A1;65.24
40
3.5
41
0
44
1
50
0
71
5
72
5
7
iso_b_vert
0
POINT
5
17A
100
AcDbEntity
8
Defpoints
62
0
6
ByLayer
370
-1
48
1
60
0
100
AcDbPoint
10
-36
20
-3
30
0
39
0
210
0
220
0
230
1
50
360
0
POINT
5
17B
100
AcDbEntity
8
Defpoints
62
0
6
ByLayer
370
-1
48
1
60
0
100
AcDbPoint
10
29.2394
20
-2.6
30
0
39
0
210
0
220
0
230
1
50
360
0
POINT
5
17C
100
AcDbEntity
8
Defpoints
62
0
6
ByLayer
370
-1
48
1
60
0
100
AcDbPoint
10
29.2394
20
-21.343428
30
0
39
0
210
0
220
0
230
1
50
360
0
ENDBLK
5
173
100
AcDbEntity
8
0
100
AcDbBlockEnd
0
BLOCK
5
184
100
AcDbEntity
8
0
100
AcDbBlockBegin
2
_U4
70
0
10
0
20
0
30
0
3
_U4
0
MTEXT
5
17E
100
AcDbEntity
8
SK2
62
256
6
ByLayer
370
13
48
1
60
0
100
AcDbMText
10
-8.701865
20
-20.310795
30
0
210
0
220
0
230
1
1
\W0.7495;65,24
40
3.5
41
0
44
1.084337
50
0
71
7
72
5
7
iso_b_vert
0
LINE
5
17F
100
AcDbEntity
8
SK2
62
256
6
ByLayer
370
13
48
1
60
0
100
AcDbLine
10
-36
20
-4.5875
30
0
11
-36
21
-23.343428
31
0
39
0
210
0
220
0
230
1
0
LINE
5
180
100
AcDbEntity
8
SK2
62
256
6
ByLayer
370
13
48
1
60
0
100
AcDbLine
10
29.2394
20
-4.1875
30
0
11
29.2394
21
-23.343428
31
0
39
0
210
0
220
0
230
1
0
LINE
5
181
100
AcDbEntity
8
SK2
62
256
6
ByLayer
370
13
48
1
60
0
100
AcDbLine
10
-36
20
-21.343428
30
0
11
29.2394
21
-21.343428
31
0
39
0
210
0
220
0
230
1
0
SOLID
5
182
100
AcDbEntity
8
SK2
62
256
6
ByLayer
370
18
48
1
60
0
100
AcDbTrace
10
-36
20
-21.343428
30
0
11
-32.500002
21
-20.882645
31
0
12
-32.499998
22
-21.804212
32
0
13
-32.499998
23
-21.804212
33
0
39
0
210
0
220
0
230
1
0
SOLID
5
183
100
AcDbEntity
8
SK2
62
256
6
ByLayer
370
18
48
1
60
0
100
AcDbTrace
10
29.2394
20
-21.343428
30
0
11
25.739402
21
-21.804212
31
0
12
25.739398
22
-20.882645
32
0
13
25.739398
23
-20.882645
33
0
39
0
210
0
220
0
230
1
0
ENDBLK
5
185
100
AcDbEntity
8
0
100
AcDbBlockEnd
0
ENDSEC
0
SECTION
2
ENTITIES
0
ARC
5
AD
100
AcDbEntity
8
1
62
256
6
ByLayer
370
18
48
1
60
0
100
AcDbCircle
39
0
10
1.077936
20
-3.382393
30
0
40
0.8
210
0
220
0
230
1
100
AcDbArc
50
89.96419
51
132.354054
0
ARC
5
AE
100
AcDbEntity
8
1
62
256
6
ByLayer
370
18
48
1
60
0
100
AcDbCircle
39
0
10
1.077936
20
3.382393
30
0
40
0.8
210
0
220
0
230
1
100
AcDbArc
50
227.645946
51
270.03581
0
ARC
5
AF
100
AcDbEntity
8
1
62
256
6
ByLayer
370
18
48
1
60
0
100
AcDbCircle
39
0
10
0
20
-2.2
30
0
40
0.8
210
0
220
0
230
1
100
AcDbArc
50
270
51
312.354054
0
ARC
5
B0
100
AcDbEntity
8
1
62
256
6
ByLayer
370
18
48
1
60
0
100
AcDbCircle
39
0
10
0
20
2.2
30
0
40
0.8
210
0
220
0
230
1
100
AcDbArc
50
47.645946
51
90
0
ELLIPSE
5
B1
100
AcDbEntity
8
1
62
256
6
ByLayer
370
13
48
1
60
0
100
AcDbEllipse
10
4.183632
20
0.08077
30
0
11
-0.0441092530295556
21
-0.0897461631334435
31
0
210
0
220
0
230
1
40
0.394528
41
-1.34894675366369
42
-0.00384699700152491
0
ELLIPSE
5
B2
100
AcDbEntity
8
1
62
256
6
ByLayer
370
13
48
1
60
0
100
AcDbEllipse
10
4.250221
20
0.048173
30
0
11
0.0440376589508282
21
0.0897813153954126
31
0
210
0
220
0
230
1
40
0.009394
41
-3.12635684072261
42
-1.58659950977776
0
POINT
5
70
100
AcDbEntity
8
80
62
256
6
ByLayer
370
18
48
1
60
0
100
AcDbPoint
10
0
20
0
30
0
39
0
210
0
220
0
230
1
50
360
0
POINT
5
72
100
AcDbEntity
8
81
62
256
6
ByLayer
370
18
48
1
60
0
100
AcDbPoint
10
30
20
0
30
0
39
0
210
0
220
0
230
1
50
360
0
POINT
5
74
100
AcDbEntity
8
1
62
256
6
ByLayer
370
18
48
1
60
1
100
AcDbPoint
10
29.2394
20
-2.6
30
0
39
0
210
0
220
0
230
1
50
360
0
POINT
5
76
100
AcDbEntity
8
1
62
256
6
ByLayer
370
18
48
1
60
1
100
AcDbPoint
10
-36
20
-3
30
0
39
0
210
0
220
0
230
1
50
360
0
POINT
5
77
100
AcDbEntity
8
1
62
256
6
ByLayer
370
18
48
1
60
1
100
AcDbPoint
10
13.64
20
2.6
30
0
39
0
210
0
220
0
230
1
50
360
0
POINT
5
78
100
AcDbEntity
8
1
62
256
6
ByLayer
370
18
48
1
60
1
100
AcDbPoint
10
29.2394
20
-2.6
30
0
39
0
210
0
220
0
230
1
50
360
0
POINT
5
79
100
AcDbEntity
8
1
62
256
6
ByLayer
370
18
48
1
60
1
100
AcDbPoint
10
-36
20
-3
30
0
39
0
210
0
220
0
230
1
50
360
0
POINT
5
7A
100
AcDbEntity
8
1
62
256
6
ByLayer
370
18
48
1
60
1
100
AcDbPoint
10
29.2394
20
-2.6
30
0
39
0
210
0
220
0
230
1
50
360
0
SPLINE
5
B3
100
AcDbEntity
8
SK1
62
256
6
ByLayer
370
18
48
1
60
0
100
AcDbSpline
70
4
71
3
72
8
73
4
40
0
40
0
40
0
40
0
40
1
40
1
40
1
40
1
41
1
10
-35.9999999999998
20
-1.94783943020181
30
0
41
1
10
-35.9170225588349
20
-2.01536874912873
30
0
41
1
10
-35.8336485043255
20
-2.08261043073861
30
0
41
1
10
-35.75
20
-2.14965307212518
30
0
0
SPLINE
5
B4
100
AcDbEntity
8
SK1
62
256
6
ByLayer
370
18
48
1
60
0
100
AcDbSpline
70
4
71
3
72
12
73
8
40
0
40
0
40
0
40
0
40
0.500000000000001
40
0.500000000000001
40
0.75
40
0.75
40
1
40
1
40
1
40
1
41
1
10
-35.75
20
-2.1496530721252
30
0
41
1
10
-35.7259913046563
20
-2.16889557221617
30
0
41
1
10
-35.7033433879314
20
-2.18380913000738
30
0
41
1
10
-35.6754686754417
20
-2.19618351649652
30
0
41
1
10
-35.667025596347
20
-2.19866005581298
30
0
41
1
10
-35.6543350076412
20
-2.19804842333528
30
0
41
1
10
-35.65
20
-2.19482024612327
30
0
41
1
10
-35.65
20
-2.18738152530042
30
0
0
SPLINE
5
B5
100
AcDbEntity
8
SK1
62
256
6
ByLayer
370
18
48
1
60
0
100
AcDbSpline
70
4
71
3
72
12
73
8
40
0
40
0
40
0
40
0
40
0.25
40
0.25
40
0.5
40
0.5
40
1
40
1
40
1
40
1
41
1
10
-35.65
20
-1.33983354635089
30
0
41
1
10
-35.65
20
-1.32520898667894
30
0
41
1
10
-35.6543403470552
20
-1.30829377991557
30
0
41
1
10
-35.6670034572333
20
-1.27609585866728
30
0
41
1
10
-35.6754069618006
20
-1.26034615112448
30
0
41
1
10
-35.7033744297257
20
-1.21652140069983
30
0
41
1
10
-35.7260009806424
20
-1.19094784139128
30
0
41
1
10
-35.7500000000001
20
-1.17171309641404
30
0
0
SPLINE
5
B6
100
AcDbEntity
8
SK1
62
256
6
ByLayer
370
18
48
1
60
0
100
AcDbSpline
70
4
71
3
72
8
73
4
40
0
40
0
40
0
40
0
40
1
40
1
40
1
40
1
41
1
10
-35.75
20
-1.17171309641404
30
0
41
1
10
-35.8336554104926
20
-1.10466491986943
30
0
41
1
10
-35.9170302933806
20
-1.03742247883216
30
0
41
1
10
-36
20
-0.969899454490616
30
0
0
SPLINE
5
B7
100
AcDbEntity
8
1
62
256
6
ByLayer
370
18
48
1
60
0
100
AcDbSpline
70
4
71
3
72
8
73
4
40
0
40
0
40
0
40
0
40
1
40
1
40
1
40
1
41
1
10
29.9900961253949
20
0.0953672239459991
30
0
41
1
10
29.9906642433082
20
0.0777111342992214
30
0
41
1
10
29.9944728672867
20
0.0554284240984657
30
0
41
1
10
29.9999625904038
20
0.0321383977681933
30
0
0
SPLINE
5
B8
100
AcDbEntity
8
1
62
256
6
ByLayer
370
18
48
1
60
0
100
AcDbSpline
70
4
71
3
72
28
73
24
40
0
40
0
40
0
40
0
40
0.0719698208974526
40
0.0719698208974526
40
0.164772838807707
40
0.164772838807707
40
0.257575856717962
40
0.257575856717962
40
0.350378874628217
40
0.350378874628217
40
0.443181892538472
40
0.443181892538472
40
0.535984910448726
40
0.535984910448726
40
0.628787928358981
40
0.628787928358981
40
0.721590946269236
40
0.721590946269236
40
0.814393964179491
40
0.814393964179491
40
0.907196982089745
40
0.907196982089745
40
1
40
1
40
1
40
1
41
1
10
20.3845819652775
20
2.46234091372594
30
0
41
1
10
20.5355665246828
20
2.46266031247242
30
0
41
1
10
20.6864857984701
20
2.46025819016938
30
0
41
1
10
21.0317905442762
20
2.44779584391947
30
0
41
1
10
21.2259478858475
20
2.43471441327046
30
0
41
1
10
21.6151238810258
20
2.3982741000882
30
0
41
1
10
21.8099869671841
20
2.37488223286408
30
0
41
1
10
22.1999546621658
20
2.31918710035279
30
0
41
1
10
22.3946409579696
20
2.28742680703249
30
0
41
1
10
22.7837103379301
20
2.21275461636793
30
0
41
1
10
22.978076999749
20
2.16988700022637
30
0
41
1
10
23.366633654649
20
2.0748919144236
30
0
41
1
10
23.5613380467717
20
2.02357905424213
30
0
41
1
10
23.9510468940445
20
1.91433247662334
30
0
41
1
10
24.1460179286234
20
1.85566787052824
30
0
41
1
10
24.5348921136763
20
1.72923521780865
30
0
41
1
10
24.7291589927144
20
1.66202216588391
30
0
41
1
10
25.1175851374132
20
1.52073085065521
30
0
41
1
10
25.3116283159712
20
1.44645730088575
30
0
41
1
10
25.7006488121562
20
1.29339725760906
30
0
41
1
10
25.895604959554
20
1.21410823749863
30
0
41
1
10
26.284936220288
20
1.0510334593688
30
0
41
1
10
26.4792983128172
20
0.967238460153624
30
0
41
1
10
26.6736402072519
20
0.881437597318893
30
0
0
SPLINE
5
B9
100
AcDbEntity
8
1
62
256
6
ByLayer
370
18
48
1
60
0
100
AcDbSpline
70
4
71
3
72
8
73
4
40
0
40
0
40
0
40
0
40
1
40
1
40
1
40
1
41
1
10
29.9999625904038
20
0.0321383977681933
30
0
41
1
10
29.9949149134525
20
0.0145545688895652
30
0
41
1
10
29.9871840001546
20
-0.0039476264749396
30
0
41
1
10
29.9790555622417
20
-0.0172567116377138
30
0
0
SPLINE
5
BA
100
AcDbEntity
8
1
62
256
6
ByLayer
370
18
48
1
60
0
100
AcDbSpline
70
4
71
3
72
8
73
4
40
0
40
0
40
0
40
0
40
1
40
1
40
1
40
1
41
1
10
29.1224064088302
20
-2.55770620913685
30
0
41
1
10
29.1182023232913
20
-2.56835127403175
30
0
41
1
10
29.1139945553091
20
-2.57899198296911
30
0
41
1
10
29.1097832571432
20
-2.58962817059341
30
0
0
SPLINE
5
BB
100
AcDbEntity
8
1
62
256
6
ByLayer
370
18
48
1
60
0
100
AcDbSpline
70
4
71
3
72
8
73
4
40
0
40
0
40
0
40
0
40
1
40
1
40
1
40
1
41
1
10
29.1097832571431
20
2.58962817059341
30
0
41
1
10
28.954846217043
20
2.5964264290094
30
0
41
1
10
28.8000366387719
20
2.5997535340143
30
0
41
1
10
28.6452434912551
20
2.59962648622397
30
0
0
SPLINE
5
BC
100
AcDbEntity
8
1
62
256
6
ByLayer
370
18
48
1
60
0
100
AcDbSpline
70
4
71
3
72
24
73
20
40
0
40
0
40
0
40
0
40
0.0395368730713087
40
0.0395368730713087
40
0.199614060892758
40
0.199614060892758
40
0.279652654803483
40
0.279652654803483
40
0.359691248714208
40
0.359691248714208
40
0.519768436535656
40
0.519768436535656
40
0.59980703044638
40
0.59980703044638
40
0.679845624357104
40
0.679845624357104
40
0.839922812178552
40
0.839922812178552
40
1
40
1
40
1
40
1
41
1
10
13.889208875257
20
-2.47004964950185
30
0
41
1
10
13.7613550839866
20
-2.48915116459216
30
0
41
1
10
13.6335613969769
20
-2.5060075460012
30
0
41
1
10
12.9883216207494
20
-2.57958413809925
30
0
41
1
10
12.4705809720986
20
-2.60109629101458
30
0
41
1
10
11.6870711231556
20
-2.57453859876432
30
0
41
1
10
11.4240161379073
20
-2.55574900731614
30
0
41
1
10
10.9017136550971
20
-2.49929625104738
30
0
41
1
10
10.6417110373192
20
-2.46166271671302
30
0
41
1
10
9.86351274945326
20
-2.32206239339905
30
0
41
1
10
9.34710683962925
20
-2.19333207243952
30
0
41
1
10
8.56912393797239
20
-1.95400309818024
30
0
41
1
10
8.30928400026997
20
-1.86647717388576
30
0
41
1
10
7.78749464586369
20
-1.67709023463075
30
0
41
1
10
7.52451167900713
20
-1.57505284437141
30
0
41
1
10
6.73963684960586
20
-1.25386037381719
30
0
41
1
10
6.22074695177142
20
-1.01926209875185
30
0
41
1
10
5.18258987788252
20
-0.526582622149078
30
0
41
1
10
4.66309087242192
20
-0.268970040489023
30
0
41
1
10
4.13883053206533
20
-0.0086952624889136
30
0
0
SPLINE
5
BD
100
AcDbEntity
8
1
62
256
6
ByLayer
370
18
48
1
60
0
100
AcDbSpline
70
4
71
3
72
14
73
10
40
0
40
0
40
0
40
0
40
0.454442456767814
40
0.454442456767814
40
0.681663685151721
40
0.681663685151721
40
0.908884913535629
40
0.908884913535629
40
1
40
1
40
1
40
1
41
1
10
29.1302586698185
20
-2.46692346836591
30
0
41
1
10
28.6107517680981
20
-2.47890127373967
30
0
41
1
10
28.094437725492
20
-2.45350759711627
30
0
41
1
10
27.3188796023848
20
-2.36247042738319
30
0
41
1
10
27.0602123485906
20
-2.32330256633946
30
0
41
1
10
26.5414936232777
20
-2.22759134605201
30
0
41
1
10
26.2807869353102
20
-2.17097598212817
30
0
41
1
10
25.9159818550985
20
-2.08061129120094
30
0
41
1
10
25.8116600714374
20
-2.05349962515371
30
0
41
1
10
25.7073968765197
20
-2.02518894635779
30
0
0
SPLINE
5
BE
100
AcDbEntity
8
1
62
256
6
ByLayer
370
13
48
1
60
0
100
AcDbSpline
70
4
71
3
72
20
73
16
40
0
40
0
40
0
40
0
40
0.140800604349055
40
0.140800604349055
40
0.228855852881335
40
0.228855852881335
40
0.316911101413615
40
0.316911101413615
40
0.493021598478174
40
0.493021598478174
40
0.581076847010454
40
0.581076847010454
40
0.669132095542734
40
0.669132095542734
40
1
40
1
40
1
40
1
41
1
10
25.7073970475404
20
-2.02518899279517
30
0
41
1
10
25.2916406770391
20
-1.91229829805317
30
0
41
1
10
24.8768159078527
20
-1.78034248181498
30
0
41
1
10
24.2004577330622
20
-1.5398446227446
30
0
41
1
10
23.9393717228475
20
-1.44074460179661
30
0
41
1
10
23.4204719845991
20
-1.23387606688681
30
0
41
1
10
23.1620661379206
20
-1.12588063103448
30
0
41
1
10
22.3883455960558
20
-0.79153340367057
30
0
41
1
10
21.8745764881624
20
-0.554631014135225
30
0
41
1
10
21.1009233142233
20
-0.190921208246039
30
0
41
1
10
20.8425128023443
20
-0.0683485740625542
30
0
41
1
10
20.3236205708253
20
0.177272196313453
30
0
41
1
10
20.0623954466185
20
0.300761677701644
30
0
41
1
10
18.8257374492581
20
0.877453681343212
30
0
41
1
10
17.8621788973928
20
1.30355804564238
30
0
41
1
10
16.8843212940712
20
1.64724337140541
30
0
0
SPLINE
5
BF
100
AcDbEntity
8
1
62
256
6
ByLayer
370
18
48
1
60
0
100
AcDbSpline
70
4
71
3
72
34
73
30
40
0
40
0
40
0
40
0
40
0.12499999999999
40
0.12499999999999
40
0.249999999999981
40
0.249999999999981
40
0.312499999999976
40
0.312499999999976
40
0.374999999999972
40
0.374999999999972
40
0.406249999999969
40
0.406249999999969
40
0.437499999999967
40
0.437499999999967
40
0.468749999999964
40
0.468749999999964
40
0.499999999999962
40
0.499999999999962
40
0.531249999999959
40
0.531249999999959
40
0.562499999999957
40
0.562499999999957
40
0.624999999999963
40
0.624999999999963
40
0.749999999999975
40
0.749999999999975
40
0.874999999999988
40
0.874999999999988
40
1
40
1
40
1
40
1
41
1
10
29.2357515295779
20
-1.32097631773433
30
0
41
1
10
29.1413298595511
20
-1.29217950726954
30
0
41
1
10
29.0464226544443
20
-1.25469910879301
30
0
41
1
10
28.8603949622381
20
-1.16287899158993
30
0
41
1
10
28.7695328326865
20
-1.10911615379317
30
0
41
1
10
28.6381814843193
20
-1.01043642438921
30
0
41
1
10
28.5954435148184
20
-0.974611926889139
30
0
41
1
10
28.5145914074909
20
-0.894979067292411
30
0
41
1
10
28.4768515860899
20
-0.851938795106918
30
0
41
1
10
28.4292542955052
20
-0.778381524827239
30
0
41
1
10
28.4146886032105
20
-0.751792585184603
30
0
41
1
10
28.3926999291749
20
-0.696139475615894
30
0
41
1
10
28.3852768041642
20
-0.666765991837707
30
0
41
1
10
28.3831519359927
20
-0.609614238101216
30
0
41
1
10
28.3888502867827
20
-0.582415232936057
30
0
41
1
10
28.4113501082631
20
-0.537372600414358
30
0
41
1
10
28.4276489102957
20
-0.519429385911934
30
0
41
1
10
28.4640525687943
20
-0.491253835333026
30
0
41
1
10
28.4846087535136
20
-0.480576037947287
30
0
41
1
10
28.5270147435228
20
-0.464145994333791
30
0
41
1
10
28.549018191418
20
-0.458294528215873
30
0
41
1
10
28.6166270443429
20
-0.44546016479535
30
0
41
1
10
28.6636969725357
20
-0.443205997788709
30
0
41
1
10
28.8046131876656
20
-0.447226618178092
30
0
41
1
10
28.9003689623375
20
-0.463990073002549
30
0
41
1
10
29.0919486716609
20
-0.51336877868431
30
0
41
1
10
29.1871756793779
20
-0.546145943598532
30
0
41
1
10
29.3766237709572
20
-0.626154865700187
30
0
41
1
10
29.4698488305918
20
-0.67289755171501
30
0
41
1
10
29.5608140404275
20
-0.728306225702681
30
0
0
SPLINE
5
C0
100
AcDbEntity
8
1
62
256
6
ByLayer
370
18
48
1
60
0
100
AcDbSpline
70
4
71
3
72
60
73
56
40
0
40
0
40
0
40
0
40
0.0125078716551484
40
0.0125078716551484
40
0.0490816541864392
40
0.0490816541864392
40
0.08565543671773
40
0.08565543671773
40
0.122229219249021
40
0.122229219249021
40
0.158803001780312
40
0.158803001780312
40
0.195376784311602
40
0.195376784311602
40
0.231950566842893
40
0.231950566842893
40
0.268524349374184
40
0.268524349374184
40
0.305098131905475
40
0.305098131905475
40
0.341671914436766
40
0.341671914436766
40
0.414819479499347
40
0.414819479499347
40
0.451393262030638
40
0.451393262030638
40
0.487967044561929
40
0.487967044561929
40
0.52454082709322
40
0.52454082709322
40
0.56111460962451
40
0.56111460962451
40
0.597688392155801
40
0.597688392155801
40
0.634262174687092
40
0.634262174687092
40
0.670835957218383
40
0.670835957218383
40
0.707409739749674
40
0.707409739749674
40
0.743983522280965
40
0.743983522280965
40
0.780557304812255
40
0.780557304812255
40
0.817131087343546
40
0.817131087343546
40
0.853704869874837
40
0.853704869874837
40
0.890278652406128
40
0.890278652406128
40
0.926852434937419
40
0.926852434937419
40
0.963426217468709
40
0.963426217468709
40
1
40
1
40
1
40
1
41
1
10
23.952241915774
20
-1.91262025836534
30
0
41
1
10
23.8856863738096
20
-1.9322209214495
30
0
41
1
10
23.8191069186212
20
-1.95133381246339
30
0
41
1
10
23.5576961989742
20
-2.02455511300144
30
0
41
1
10
23.362597239013
20
-2.07595072398681
30
0
41
1
10
22.9727058879829
20
-2.17112640754888
30
0
41
1
10
22.7779533517399
20
-2.21396727015792
30
0
41
1
10
22.3887760049536
20
-2.28844142978468
30
0
41
1
10
22.1943706020659
20
-2.32005987925129
30
0
41
1
10
21.8054054001117
20
-2.37545931518625
30
0
41
1
10
21.6107654422572
20
-2.3987635224363
30
0
41
1
10
21.2209414247835
20
-2.43509989189471
30
0
41
1
10
21.0259507267718
20
-2.44812003547983
30
0
41
1
10
20.6365188289392
20
-2.46194451614457
30
0
41
1
10
20.4419322728714
20
-2.46381474307347
30
0
41
1
10
20.0530645513314
20
-2.45880936408474
30
0
41
1
10
19.858722455227
20
-2.4514926269274
30
0
41
1
10
19.4693740474128
20
-2.42607091792496
30
0
41
1
10
19.2741432060972
20
-2.40767438814942
30
0
41
1
10
18.8844273748587
20
-2.36043384170642
30
0
41
1
10
18.689673711571
20
-2.33233295873237
30
0
41
1
10
18.1058168975465
20
-2.232599193504
30
0
41
1
10
17.7172961775268
20
-2.14845921834038
30
0
41
1
10
17.1319991787968
20
-1.99434439295874
30
0
41
1
10
16.9370874247135
20
-1.9379317710862
30
0
41
1
10
16.5475867159316
20
-1.81839542880263
30
0
41
1
10
16.3529741705391
20
-1.75530654405975
30
0
41
1
10
15.9639554656955
20
-1.62158724362936
30
0
41
1
10
15.7694498547404
20
-1.55091311640373
30
0
41
1
10
15.3796506347848
20
-1.40336860806448
30
0
41
1
10
15.184236243969
20
-1.32646334398183
30
0
41
1
10
14.7946025225315
20
-1.16725493546264
30
0
41
1
10
14.5998857488843
20
-1.08562125446645
30
0
41
1
10
14.2106847881298
20
-0.917678233445201
30
0
41
1
10
14.0162020456279
20
-0.831096278817512
30
0
41
1
10
13.626819894662
20
-0.655334047403016
30
0
41
1
10
13.4319058787636
20
-0.566269481855642
30
0
41
1
10
13.0414894130684
20
-0.385561097929383
30
0
41
1
10
12.8469402092698
20
-0.293792616811174
30
0
41
1
10
12.4576855503717
20
-0.110562525295023
30
0
41
1
10
12.2631513140634
20
-0.0187377560542643
30
0
41
1
10
11.8741868018335
20
0.165154081122751
30
0
41
1
10
11.6795951823998
20
0.256879935163738
30
0
41
1
10
11.2897221742878
20
0.438881731089566
30
0
41
1
10
11.0944209257319
20
0.529503492887216
30
0
41
1
10
10.705718490276
20
0.708048168191567
30
0
41
1
10
10.5116871011269
20
0.795452901402342
30
0
41
1
10
10.1242629366725
20
0.965780998311317
30
0
41
1
10
9.93088756323348
20
1.04889155347703
30
0
41
1
10
9.54413179868965
20
1.21112426165141
30
0
41
1
10
9.35073044981232
20
1.29011831798917
30
0
41
1
10
8.96365934411355
20
1.44232006776363
30
0
41
1
10
8.77019832873145
20
1.51575296643347
30
0
41
1
10
8.38185594817071
20
1.65483014202252
30
0
41
1
10
8.18714047260957
20
1.72119420636534
30
0
41
1
10
7.99206809417336
20
1.78460613613586
30
0
0
SPLINE
5
C1
100
AcDbEntity
8
1
62
256
6
ByLayer
370
18
48
1
60
0
100
AcDbSpline
70
4
71
3
72
10
73
6
40
0
40
0
40
0
40
0
40
0.5
40
0.5
40
1
40
1
40
1
40
1
41
1
10
29.2488709870825
20
-2.50410295805105
30
0
41
1
10
29.3604980485941
20
-2.20139513223259
30
0
41
1
10
29.4757311510303
20
-1.90098503711502
30
0
41
1
10
29.7120993668851
20
-1.30348702216242
30
0
41
1
10
29.8332575911729
20
-1.00641999827747
30
0
41
1
10
29.9570393856172
20
-0.710705034682775
30
0
0
SPLINE
5
C2
100
AcDbEntity
8
1
62
256
6
ByLayer
370
18
48
1
60
0
100
AcDbSpline
70
4
71
3
72
28
73
24
40
0
40
0
40
0
40
0
40
0.0637663493003796
40
0.0637663493003796
40
0.127532698600759
40
0.127532698600759
40
0.255065397201519
40
0.255065397201519
40
0.382598095802278
40
0.382598095802278
40
0.510130794403037
40
0.510130794403037
40
0.573897143703417
40
0.573897143703417
40
0.637663493003797
40
0.637663493003797
40
0.765196191604556
40
0.765196191604556
40
0.892728890205315
40
0.892728890205315
40
0.956495239505695
40
0.956495239505695
40
1
40
1
40
1
40
1
41
1
10
4.03089771071927
20
0.14024122621268
30
0
41
1
10
4.03092115149084
20
0.223883915953394
30
0
41
1
10
4.03094345034995
20
0.307105817863032
30
0
41
1
10
4.03098609273565
20
0.472708228554467
30
0
41
1
10
4.03100649523034
20
0.55535705641671
30
0
41
1
10
4.03106433194185
20
0.798083026225015
30
0
41
1
10
4.03109872112981
20
0.954066425614684
30
0
41
1
10
4.03116224027042
20
1.2545301544194
30
0
41
1
10
4.03119155496597
20
1.40001940540293
30
0
41
1
10
4.0312452553178
20
1.66748808351665
30
0
41
1
10
4.03126994518294
20
1.79088227885549
30
0
41
1
10
4.0313053543706
20
1.96023895848367
30
0
41
1
10
4.03131692023803
20
2.01422545805028
30
0
41
1
10
4.031339204429
20
2.11463150993609
30
0
41
1
10
4.03134997685314
20
2.16132230893513
30
0
41
1
10
4.0313813897734
20
2.29107218454541
30
0
41
1
10
4.03140118287067
20
2.3639473241993
30
0
41
1
10
4.0314384042567
20
2.48100416645761
30
0
41
1
10
4.03145524244076
20
2.52335844781564
30
0
41
1
10
4.03147716211305
20
2.56359886910349
30
0
41
1
10
4.031483901103
20
2.57310252781625
30
0
41
1
10
4.03149406494703
20
2.58236847058791
30
0
41
1
10
4.03149786639082
20
2.58424479826922
30
0
41
1
10
4.03150126029428
20
2.58423094427761
30
0
0
SPLINE
5
C3
100
AcDbEntity
8
1
62
256
6
ByLayer
370
18
48
1
60
0
100
AcDbSpline
70
4
71
3
72
35
73
31
40
0
40
0
40
0
40
0
40
0.140678643731608
40
0.140678643731608
40
0.297546211473426
40
0.297546211473426
40
0.454413779215245
40
0.454413779215245
40
0.532847563086154
40
0.532847563086154
40
0.572064455021608
40
0.572064455021608
40
0.581868678005472
40
0.586770789497404
40
0.586770789497404
40
0.591672900989335
40
0.591672900989335
40
0.596575012481267
40
0.596575012481267
40
0.601477123973199
40
0.601477123973199
40
0.611281346957062
40
0.611281346957062
40
0.689715130827971
40
0.689715130827971
40
0.76814891469888
40
0.76814891469888
40
0.925016482440698
40
0.925016482440698
40
1
40
1
40
1
40
1
41
1
10
7.99206809417336
20
2.02707767322184
30
0
41
1
10
7.99206809417336
20
1.88108897080022
30
0
41
1
10
7.99206809417336
20
1.74444882477027
30
0
41
1
10
7.99206809417336
20
1.47504062751668
30
0
41
1
10
7.99206809417336
20
1.348665659781
30
0
41
1
10
7.99206809417336
20
1.12536747919918
30
0
41
1
10
7.99206809417336
20
1.02824260090358
30
0
41
1
10
7.99206809417336
20
0.904007410838091
30
0
41
1
10
7.99206809417336
20
0.866213852666675
30
0
41
1
10
7.99206809417336
20
0.81553251651772
30
0
41
1
10
7.99206809417336
20
0.799608166543038
30
0
41
1
10
7.99206809417336
20
0.780920180560031
30
0
41
1
10
7.99206809417342
20
0.775405928773523
30
0
41
1
10
7.99206809417336
20
0.770029638156132
30
0
41
1
10
7.99206809417336
20
0.76647607893068
30
0
41
1
10
7.99206809417336
20
0.764611570018758
30
0
41
1
10
7.99206809417336
20
0.763496902033808
30
0
41
1
10
7.99206809417339
20
0.7639126792414
30
0
41
1
10
7.99206809417339
20
0.766726209798122
30
0
41
1
10
7.99206809417339
20
0.769379955536323
30
0
41
1
10
7.99206809417339
20
0.778124743663398
30
0
41
1
10
7.99206809417336
20
0.784018072777002
30
0
41
1
10
7.99206809417336
20
0.837627161533135
30
0
41
1
10
7.99206809417336
20
0.889271316256526
30
0
41
1
10
7.99206809417336
20
1.00049570268305
30
0
41
1
10
7.99206809417336
20
1.06025301040791
30
0
41
1
10
7.99206809417336
20
1.2496921505001
30
0
41
1
10
7.99206809417339
20
1.38996762507455
30
0
41
1
10
7.99206809417339
20
1.61927616886391
30
0
41
1
10
7.99206809417336
20
1.69726062911985
30
0
41
1
10
7.99206809417336
20
1.77793082884594
30
0
0
SPLINE
5
C4
100
AcDbEntity
8
1
62
256
6
ByLayer
370
18
48
1
60
0
100
AcDbSpline
70
4
71
3
72
16
73
12
40
0
40
0
40
0
40
0
40
0.176259753447153
40
0.176259753447153
40
0.352519506894306
40
0.352519506894306
40
0.705039013788608
40
0.705039013788608
40
0.881298767235759
40
0.881298767235759
40
1
40
1
40
1
40
1
41
1
10
4.20620099698144
20
-0.0416045962853389
30
0
41
1
10
4.46764529455697
20
-0.169765215308473
30
0
41
1
10
4.72941900902717
20
-0.297854561705776
30
0
41
1
10
5.24969141538134
20
-0.549571112335883
30
0
41
1
10
5.50866245294949
20
-0.673402720844649
30
0
41
1
10
6.28387456937799
20
-1.03537790007999
30
0
41
1
10
6.79849778627698
20
-1.26374312757571
30
0
41
1
10
7.57356640113841
20
-1.57487563967504
30
0
41
1
10
7.83241953795292
20
-1.67340523567387
30
0
41
1
10
8.26727201508493
20
-1.82807212787947
30
0
41
1
10
8.44310518334825
20
-1.88755889353888
30
0
41
1
10
8.61899005134157
20
-1.94371826292687
30
0
0
SPLINE
5
C5
100
AcDbEntity
8
1
62
256
6
ByLayer
370
13
48
1
60
0
100
AcDbSpline
70
4
71
3
72
18
73
14
40
0
40
0
40
0
40
0
40
0.0501192854207052
40
0.0501192854207052
40
0.357077055674742
40
0.357077055674742
40
0.510555940801759
40
0.510555940801759
40
0.664034825928776
40
0.664034825928776
40
0.970992596182813
40
0.970992596182813
40
1
40
1
40
1
40
1
41
1
10
8.61899018725902
20
-1.9437183063248
30
0
41
1
10
8.70427714848196
20
-1.97095010782664
30
0
41
1
10
8.78957626582289
20
-1.99739953809833
30
0
41
1
10
9.39674361517461
20
-2.17980138054918
30
0
41
1
10
9.9165537052815
20
-2.30573177130489
30
0
41
1
10
10.7001594665409
20
-2.44058793437509
30
0
41
1
10
10.9610349289929
20
-2.47639133572338
30
0
41
1
10
11.4798721906077
20
-2.5290901637222
30
0
41
1
10
11.7383278648987
20
-2.54605560171223
30
0
41
1
10
12.512514475885
20
-2.5685149447508
30
0
41
1
10
13.0271334089426
20
-2.54560238797558
30
0
41
1
10
13.5932524194102
20
-2.47983868088392
30
0
41
1
10
13.6421556182555
20
-2.47382919950994
30
0
41
1
10
13.691087271292
20
-2.46748912225189
30
0
0
SPLINE
5
C6
100
AcDbEntity
8
1
62
256
6
ByLayer
370
18
48
1
60
0
100
AcDbSpline
70
4
71
3
72
16
73
12
40
0
40
0
40
0
40
0
40
0.250000000000002
40
0.250000000000002
40
0.375000000000003
40
0.375000000000003
40
0.500000000000004
40
0.500000000000004
40
0.750000000000002
40
0.750000000000002
40
1
40
1
40
1
40
1
41
1
10
7.99206809417333
20
1.78460613613586
30
0
41
1
10
7.67126712421668
20
1.88139701432988
30
0
41
1
10
7.35360370381463
20
1.97336580392127
30
0
41
1
10
6.87922835473887
20
2.09627722085639
30
0
41
1
10
6.72125572103755
20
2.13496345675455
30
0
41
1
10
6.40701372062648
20
2.20632016526721
30
0
41
1
10
6.25071031500917
20
2.23873397120229
30
0
41
1
10
5.78357473643021
20
2.3272993467412
30
0
41
1
10
5.47441775483929
20
2.37559064151427
30
0
41
1
10
4.85989046111447
20
2.4406560782862
30
0
41
1
10
4.55441289292599
20
2.4580409004532
30
0
41
1
10
4.25122195986683
20
2.45569699429885
30
0
0
SPLINE
5
C7
100
AcDbEntity
8
1
62
256
6
ByLayer
370
18
48
1
60
0
100
AcDbSpline
70
4
71
3
72
12
73
8
40
0
40
0
40
0
40
0
40
0.250000000000016
40
0.250000000000016
40
0.500000000000032
40
0.500000000000032
40
1
40
1
40
1
40
1
41
1
10
4.03150572827099
20
-2.58298073586875
30
0
41
1
10
4.04267521032267
20
-2.56281384213779
30
0
41
1
10
4.05704121452777
20
-2.54374588983546
30
0
41
1
10
4.08978534616159
20
-2.51118581100255
30
0
41
1
10
4.10863150926809
20
-2.49720882777279
30
0
41
1
10
4.16753234288845
20
-2.46487208799573
30
0
41
1
10
4.21056675013344
20
-2.45538269730869
30
0
41
1
10
4.25122195892018
20
-2.45569699429143
30
0
0
SPLINE
5
C8
100
AcDbEntity
8
1
62
256
6
ByLayer
370
13
48
1
60
0
100
AcDbSpline
70
4
71
3
72
8
73
4
40
0
40
0
40
0
40
0
40
1
40
1
40
1
40
1
41
1
10
4.25036811566784
20
0.0463401790398166
30
0
41
1
10
4.21184677873094
20
0.0572325412386192
30
0
41
1
10
4.17424405542153
20
0.0678541132126327
30
0
41
1
10
4.13938671813929
20
0.0779981735741444
30
0
0
SPLINE
5
C9
100
AcDbEntity
8
1
62
256
6
ByLayer
370
18
48
1
60
0
100
AcDbSpline
70
4
71
3
72
10
73
6
40
0
40
0
40
0
40
0
40
0.5
40
0.5
40
1
40
1
40
1
40
1
41
1
10
29.2488709870787
20
2.50410295806142
30
0
41
1
10
29.3601030730411
20
2.20246621830481
30
0
41
1
10
29.4752575579155
20
1.90219962712368
30
0
41
1
10
29.7119108156575
20
1.30394626735389
30
0
41
1
10
29.8333500170838
20
1.00619919258463
30
0
41
1
10
29.9570393856173
20
0.710705034682775
30
0
0
SPLINE
5
CA
100
AcDbEntity
8
1
62
256
6
ByLayer
370
18
48
1
60
0
100
AcDbSpline
70
4
71
3
72
20
73
16
40
0
40
0
40
0
40
0
40
0.190496032376887
40
0.190496032376887
40
0.380992064753773
40
0.380992064753773
40
0.57148809713066
40
0.57148809713066
40
0.761984129507547
40
0.761984129507547
40
0.857232145695992
40
0.857232145695992
40
0.952480161884438
40
0.952480161884438
40
1
40
1
40
1
40
1
41
1
10
7.99206809417336
20
-2.02707767322207
30
0
41
1
10
8.21459193573287
20
-2.09661201241903
30
0
41
1
10
8.4365757399168
20
-2.15946738442503
30
0
41
1
10
8.87942179024196
20
-2.27273515792794
30
0
41
1
10
9.09963185643451
20
-2.32375014226224
30
0
41
1
10
9.53998889855291
20
-2.41227477099315
30
0
41
1
10
9.76015873737811
20
-2.44990107980718
30
0
41
1
10
10.199649009936
20
-2.51245180944193
30
0
41
1
10
10.4193902702132
20
-2.53704264487232
30
0
41
1
10
10.7499414126385
20
-2.56356727249289
30
0
41
1
10
10.8602259326835
20
-2.57071268626956
30
0
41
1
10
11.0808161344311
20
-2.5815983471046
30
0
41
1
10
11.1910645237112
20
-2.58532912290295
30
0
41
1
10
11.3568375703025
20
-2.58824902822542
30
0
41
1
10
11.4120946622302
20
-2.58878644222182
30
0
41
1
10
11.4674158111023
20
-2.58888652925634
30
0
0
SPLINE
5
CB
100
AcDbEntity
8
1
62
256
6
ByLayer
370
18
48
1
60
0
100
AcDbSpline
70
4
71
3
72
26
73
22
40
0
40
0
40
0
40
0
40
0.120105394167449
40
0.120105394167449
40
0.245804623572095
40
0.245804623572095
40
0.308654238274419
40
0.308654238274419
40
0.371503852976743
40
0.371503852976743
40
0.497203082381392
40
0.497203082381392
40
0.622902311786044
40
0.622902311786044
40
0.68575192648837
40
0.68575192648837
40
0.748601541190696
40
0.748601541190696
40
0.874300770595348
40
0.874300770595348
40
1
40
1
40
1
40
1
41
1
10
23.9473748619636
20
1.9068339622128
30
0
41
1
10
24.1601316072745
20
1.97878398972423
30
0
41
1
10
24.3721061707792
20
2.04633952856446
30
0
41
1
10
24.8062160161982
20
2.17314193964725
30
0
41
1
10
25.0285267170337
20
2.23177972038528
30
0
41
1
10
25.3616442573372
20
2.31124643461655
30
0
41
1
10
25.4726057133444
20
2.33631149990001
30
0
41
1
10
25.6951105762782
20
2.38292126469935
30
0
41
1
10
25.8066230940212
20
2.40456007217011
30
0
41
1
10
26.1405774426343
20
2.46440463162057
30
0
41
1
10
26.3623272629351
20
2.49786405850509
30
0
41
1
10
26.8059391823687
20
2.55069967222664
30
0
41
1
10
27.0280366907538
20
2.57008135339859
30
0
41
1
10
27.3609430151958
20
2.58882387917089
30
0
41
1
10
27.4717807061184
20
2.59333772266942
30
0
41
1
10
27.6940206013195
20
2.59874302598016
30
0
41
1
10
27.8054090005763
20
2.59966037132151
30
0
41
1
10
28.139638165717
20
2.59709982274524
30
0
41
1
10
28.3615431909516
20
2.58825687157045
30
0
41
1
10
28.8050958620497
20
2.55650131579921
30
0
41
1
10
29.0270680022502
20
2.53378110375297
30
0
41
1
10
29.2488709870825
20
2.50410295805108
30
0
0
SPLINE
5
CC
100
AcDbEntity
8
1
62
256
6
ByLayer
370
18
48
1
60
0
100
AcDbSpline
70
4
71
3
72
8
73
4
40
0
40
0
40
0
40
0
40
1
40
1
40
1
40
1
41
1
10
29.9570393856172
20
0.710705034682718
30
0
41
1
10
29.9724881810694
20
0.505283405648129
30
0
41
1
10
29.9835061827799
20
0.300170865658203
30
0
41
1
10
29.9900961253949
20
0.0953672239459991
30
0
0
SPLINE
5
CD
100
AcDbEntity
8
1
62
256
6
ByLayer
370
18
48
1
60
0
100
AcDbSpline
70
4
71
3
72
12
73
8
40
0
40
0
40
0
40
0
40
0.25
40
0.25
40
0.500000000000001
40
0.500000000000001
40
1
40
1
40
1
40
1
41
1
10
28.8951673053068
20
0.668870517294351
30
0
41
1
10
28.894899443245
20
0.678879192455099
30
0
41
1
10
28.8973959287906
20
0.688934268817093
30
0
41
1
10
28.9079635827897
20
0.706272731082237
30
0
41
1
10
28.9160091189337
20
0.713495789413628
30
0
41
1
10
28.942954261202
20
0.729002362971926
30
0
41
1
10
28.9642751147023
20
0.732201343535962
30
0
41
1
10
28.985013673621
20
0.731608490581692
30
0
0
SPLINE
5
CE
100
AcDbEntity
8
1
62
256
6
ByLayer
370
18
48
1
60
0
100
AcDbSpline
70
4
71
3
72
10
73
6
40
0
40
0
40
0
40
0
40
0.5
40
0.5
40
1
40
1
40
1
40
1
41
1
10
4.09623580054861
20
0.0181070400221301
30
0
41
1
10
4.07727218422434
20
0.0329001119835368
30
0
41
1
10
4.06127620218899
20
0.0509057616992266
30
0
41
1
10
4.03798066869192
20
0.0926513919906427
30
0
41
1
10
4.03089095361816
20
0.116130155154053
30
0
41
1
10
4.03089771071922
20
0.140241226212652
30
0
0
SPLINE
5
CF
100
AcDbEntity
8
1
62
256
6
ByLayer
370
18
48
1
60
0
100
AcDbSpline
70
4
71
3
72
8
73
4
40
0
40
0
40
0
40
0
40
1
40
1
40
1
40
1
41
1
10
29.9900961253949
20
-0.0953672239459422
30
0
41
1
10
29.9906642433084
20
-0.0777111342941055
30
0
41
1
10
29.9944728672888
20
-0.0554284240859602
30
0
41
1
10
29.9999625904086
20
-0.0321383977480707
30
0
0
SPLINE
5
D0
100
AcDbEntity
8
1
62
256
6
ByLayer
370
18
48
1
60
0
100
AcDbSpline
70
4
71
3
72
14
73
10
40
0
40
0
40
0
40
0
40
0.25
40
0.25
40
0.5
40
0.5
40
0.75
40
0.75
40
1
40
1
40
1
40
1
41
1
10
4.25122195892027
20
2.45569699429137
30
0
41
1
10
4.23087554481975
20
2.45553970038551
30
0
41
1
10
4.21036680628768
20
2.45774056556559
30
0
41
1
10
4.16897483966414
20
2.4676937906101
30
0
41
1
10
4.14815343306748
20
2.47553781245961
30
0
41
1
10
4.10882305431312
20
2.49707732657356
30
0
41
1
10
4.08995581441181
20
2.51104301949749
30
0
41
1
10
4.05715486521302
20
2.54360638994825
30
0
41
1
10
4.04273168068497
20
2.56271188290774
30
0
41
1
10
4.03150572827121
20
2.58298073586886
30
0
0
SPLINE
5
D1
100
AcDbEntity
8
1
62
256
6
ByLayer
370
18
48
1
60
0
100
AcDbSpline
70
4
71
3
72
8
73
4
40
0
40
0
40
0
40
0
40
1
40
1
40
1
40
1
41
1
10
4.13883053206442
20
-0.0086952624884589
30
0
41
1
10
4.12362398755539
20
-0.0011458072053188
30
0
41
1
10
4.10943943285992
20
0.0078071963854711
30
0
41
1
10
4.09623580055217
20
0.0181070400193448
30
0
0
SPLINE
5
D2
100
AcDbEntity
8
1
62
256
6
ByLayer
370
13
48
1
60
0
100
AcDbSpline
70
4
71
3
72
8
73
4
40
0
40
0
40
0
40
0
40
1
40
1
40
1
40
1
41
1
10
4.13938671813929
20
-0.0089089799580506
30
0
41
1
10
4.16050399247206
20
-0.0192867101158356
30
0
41
1
10
4.18310641407499
20
-0.0302835765927512
30
0
41
1
10
4.20620099698596
20
-0.0416045962875842
30
0
0
SPLINE
5
D3
100
AcDbEntity
8
1
62
256
6
ByLayer
370
18
48
1
60
0
100
AcDbSpline
70
4
71
3
72
57
73
53
40
0
40
0
40
0
40
0
40
0.0624999999999861
40
0.0624999999999861
40
0.124999999999972
40
0.124999999999972
40
0.156249999999965
40
0.156249999999965
40
0.187499999999958
40
0.187499999999958
40
0.218749999999951
40
0.218749999999951
40
0.249999999999944
40
0.249999999999944
40
0.265624999999941
40
0.265624999999941
40
0.281249999999937
40
0.281249999999937
40
0.296874999999934
40
0.296874999999934
40
0.312499999999931
40
0.312499999999931
40
0.328124999999927
40
0.328124999999927
40
0.343749999999924
40
0.343749999999924
40
0.35937499999992
40
0.35937499999992
40
0.374999999999917
40
0.374999999999917
40
0.40624999999991
40
0.40624999999991
40
0.437499999999903
40
0.437499999999903
40
0.445312499999901
40
0.445312499999901
40
0.449218749999901
40
0.449218749999901
40
0.453124999999901
40
0.453124999999901
40
0.460937499999902
40
0.460937499999902
40
0.468749999999904
40
0.49999999999991
40
0.49999999999991
40
0.624999999999933
40
0.624999999999933
40
0.749999999999955
40
0.749999999999955
40
0.874999999999978
40
0.874999999999978
40
1
40
1
40
1
40
1
41
1
10
4.03150572827121
20
-2.58298073586883
30
0
41
1
10
3.86322596959769
20
-2.57982372376819
30
0
41
1
10
3.69573011277316
20
-2.57110561318035
30
0
41
1
10
3.36311224917159
20
-2.53998184169436
30
0
41
1
10
3.19732786135688
20
-2.51749130241299
30
0
41
1
10
2.95619350641863
20
-2.47044739070344
30
0
41
1
10
2.87696966854975
20
-2.45252777279791
30
0
41
1
10
2.72156315111266
20
-2.41119421046818
30
0
41
1
10
2.64509676949871
20
-2.38768910074921
30
0
41
1
10
2.49806442415243
20
-2.33408885642169
30
0
41
1
10
2.42747653949578
20
-2.30405434307571
30
0
41
1
10
2.29479547290805
20
-2.23520689902196
30
0
41
1
10
2.23259851434622
20
-2.19648354754654
30
0
41
1
10
2.14972696340766
20
-2.12826366094217
30
0
41
1
10
2.12369138344599
20
-2.10360135661927
30
0
41
1
10
2.07752177184338
20
-2.05065999876311
30
0
41
1
10
2.05746909290895
20
-2.02255099806919
30
0
41
1
10
2.02518784920971
20
-1.96225343219578
30
0
41
1
10
2.01301108419474
20
-1.92982725560131
30
0
41
1
10
1.9995682518242
20
-1.86295610127212
30
0
41
1
10
1.99806849777542
20
-1.82823834216188
30
0
41
1
10
2.00707533526287
20
-1.75604591087301
30
0
41
1
10
2.01757787786664
20
-1.71955744247302
30
0
41
1
10
2.04909652715764
20
-1.64788470040949
30
0
41
1
10
2.07047136676732
20
-1.61202179438183
30
0
41
1
10
2.1207236545653
20
-1.5436323179546
30
0
41
1
10
2.14956262072371
20
-1.51090125681941
30
0
41
1
10
2.21299000220614
20
-1.44779743893423
30
0
41
1
10
2.24780830022314
20
-1.41729306532403
30
0
41
1
10
2.35676109386819
20
-1.33072465455501
30
0
41
1
10
2.43579262401914
20
-1.27881622025942
30
0
41
1
10
2.60181793353507
20
-1.18258534648226
30
0
41
1
10
2.68904743492141
20
-1.1382787911389
30
0
41
1
10
2.80046592148372
20
-1.08704327275259
30
0
41
1
10
2.82289255381204
20
-1.07699515260842
30
0
41
1
10
2.85666950209048
20
-1.06222786054639
30
0
41
1
10
2.86830274910076
20
-1.05814850855759
30
0
41
1
10
2.89329612765994
20
-1.05391980397982
30
0
41
1
10
2.90605631331727
20
-1.05317187963172
30
0
41
1
10
2.94367815557564
20
-1.05396867893251
30
0
41
1
10
2.96865163173288
20
-1.05616958908186
30
0
41
1
10
3.01867597539592
20
-1.05937017541956
30
0
41
1
10
3.14371369440195
20
-1.06769517923479
30
0
41
1
10
3.26865813419698
20
-1.0776302751396
30
0
41
1
10
3.7675891000967
20
-1.12232287264024
30
0
41
1
10
4.1651277062071
20
-1.17413515725246
30
0
41
1
10
4.95267094571852
20
-1.30364648119058
30
0
41
1
10
5.34161636130469
20
-1.38113324862371
30
0
41
1
10
6.11104046514441
20
-1.55210629510665
30
0
41
1
10
6.49149195162255
20
-1.64561812331379
30
0
41
1
10
7.24594110423976
20
-1.83661223676813
30
0
41
1
10
7.61992453449781
20
-1.93409365978812
30
0
41
1
10
7.99206809417336
20
-2.02707767322207
30
0
0
SPLINE
5
D4
100
AcDbEntity
8
1
62
256
6
ByLayer
370
18
48
1
60
0
100
AcDbSpline
70
4
71
3
72
20
73
16
40
0
40
0
40
0
40
0
40
0.0544546689391833
40
0.0544546689391833
40
0.439486373204392
40
0.439486373204392
40
0.535744299270695
40
0.535744299270695
40
0.632002225336997
40
0.632002225336997
40
0.824518077469601
40
0.824518077469601
40
0.920776003535903
40
0.920776003535903
40
1
40
1
40
1
40
1
41
1
10
16.2266228341211
20
1.86455700391824
30
0
41
1
10
16.3741040005679
20
1.81490697060846
30
0
41
1
10
16.5216887651444
20
1.76295877153893
30
0
41
1
10
17.7142035980274
20
1.32618188012091
30
0
41
1
10
18.7397042766242
20
0.847116945764697
30
0
41
1
10
20.0419225712444
20
0.211889576731266
30
0
41
1
10
20.3036337355398
20
0.0828734192461695
30
0
41
1
10
20.823162776491
20
-0.172944296337192
30
0
41
1
10
21.0818255126191
20
-0.300215368061686
30
0
41
1
10
21.8562841091681
20
-0.676524808928122
30
0
41
1
10
22.3704610044736
20
-0.920194438787746
30
0
41
1
10
23.145208584988
20
-1.26171851698859
30
0
41
1
10
23.4040188521915
20
-1.37163135020231
30
0
41
1
10
23.8778510234264
20
-1.5628559220323
30
0
41
1
10
24.092932435244
20
-1.64587419397103
30
0
41
1
10
24.3076834638594
20
-1.72430886761558
30
0
0
SPLINE
5
D5
100
AcDbEntity
8
1
62
256
6
ByLayer
370
13
48
1
60
0
100
AcDbSpline
70
4
71
3
72
16
73
12
40
0
40
0
40
0
40
0
40
0.0286486041230895
40
0.0286486041230895
40
0.352432402748731
40
0.352432402748731
40
0.51432430206155
40
0.51432430206155
40
0.67621620137437
40
0.67621620137437
40
1
40
1
40
1
40
1
41
1
10
24.3076834637831
20
-1.72430886758767
30
0
41
1
10
24.3538570231681
20
-1.74117308511794
30
0
41
1
10
24.4000153092082
20
-1.75782540665122
30
0
41
1
10
24.9674796995124
20
-1.95991859016053
30
0
41
1
10
25.4867660216826
20
-2.11840792051615
30
0
41
1
10
26.269487541423
20
-2.30632633194242
30
0
41
1
10
26.5305293898409
20
-2.36047512321369
30
0
41
1
10
27.0498844054495
20
-2.45024434941411
30
0
41
1
10
27.30884210119
20
-2.48595917805514
30
0
41
1
10
28.0852949911818
20
-2.56524501395182
30
0
41
1
10
28.6021588651661
20
-2.58106385320087
30
0
41
1
10
29.1224064088244
20
-2.55770620913421
30
0
0
SPLINE
5
D6
100
AcDbEntity
8
1
62
256
6
ByLayer
370
18
48
1
60
0
100
AcDbSpline
70
4
71
3
72
8
73
4
40
0
40
0
40
0
40
0
40
1
40
1
40
1
40
1
41
1
10
29.9999625904038
20
0.0321383977681933
30
0
41
1
10
30.00001247491
20
0.010710632010472
30
0
41
1
10
30.0000124645861
20
-0.010715066567144
30
0
41
1
10
29.9999625904039
20
-0.0321383977332914
30
0
0
SPLINE
5
D7
100
AcDbEntity
8
1
62
256
6
ByLayer
370
18
48
1
60
0
100
AcDbSpline
70
4
71
3
72
16
73
12
40
0
40
0
40
0
40
0
40
0.284714103947034
40
0.284714103947034
40
0.427071155920551
40
0.427071155920551
40
0.569428207894069
40
0.569428207894069
40
0.854142311841108
40
0.854142311841108
40
1
40
1
40
1
40
1
41
1
10
4.25122195973051
20
-2.45569699429777
30
0
41
1
10
4.55412526506655
20
-2.45803867686792
30
0
41
1
10
4.86072938272997
20
-2.44067042891052
30
0
41
1
10
5.32505663638887
20
-2.3913524503717
30
0
41
1
10
5.48050180711249
20
-2.37098115589791
30
0
41
1
10
5.7911481076471
20
-2.32352552247761
30
0
41
1
10
5.94658929186949
20
-2.29647472601084
30
0
41
1
10
6.41361342812405
20
-2.20767950430914
30
0
41
1
10
6.72584917559254
20
-2.13607463912928
30
0
41
1
10
7.20139567190023
20
-2.01277373739694
30
0
41
1
10
7.36308611180976
20
-1.96834214869156
30
0
41
1
10
7.52558586569165
20
-1.9219334019034
30
0
0
SPLINE
5
D8
100
AcDbEntity
8
1
62
256
6
ByLayer
370
18
48
1
60
0
100
AcDbSpline
70
4
71
3
72
16
73
12
40
0
40
0
40
0
40
0
40
0.282512326690733
40
0.282512326690733
40
0.565024653381465
40
0.565024653381465
40
0.70628081672683
40
0.70628081672683
40
0.847536980072194
40
0.847536980072194
40
1
40
1
40
1
40
1
41
1
10
28.918256966256
20
-1.93910954617198
30
0
41
1
10
28.9177507719158
20
-2.03178721974007
30
0
41
1
10
28.9217573752361
20
-2.11407808483062
30
0
41
1
10
28.9387485434237
20
-2.25282757542874
30
0
41
1
10
28.951656818382
20
-2.30975112933359
30
0
41
1
10
28.9780975167618
20
-2.37670856894323
30
0
41
1
10
28.988154324355
20
-2.39600834521784
30
0
41
1
10
29.0105528691297
20
-2.42788497073846
30
0
41
1
10
29.0228426964377
20
-2.44044231911124
30
0
41
1
10
29.0506983583592
20
-2.45979427574156
30
0
41
1
10
29.0664393383581
20
-2.46607273564553
30
0
41
1
10
29.0835309332484
20
-2.46860544728997
30
0
0
SPLINE
5
D9
100
AcDbEntity
8
1
62
256
6
ByLayer
370
18
48
1
60
0
100
AcDbSpline
70
4
71
3
72
8
73
4
40
0
40
0
40
0
40
0
40
1
40
1
40
1
40
1
41
1
10
29.9570393856172
20
-0.710705034682775
30
0
41
1
10
29.9724812926802
20
-0.505375000110035
30
0
41
1
10
29.9835032424048
20
-0.300262247260804
30
0
41
1
10
29.9900961253948
20
-0.0953672239459991
30
0
0
SPLINE
5
DA
100
AcDbEntity
8
1
62
256
6
ByLayer
370
18
48
1
60
0
100
AcDbSpline
70
4
71
3
72
8
73
4
40
0
40
0
40
0
40
0
40
1
40
1
40
1
40
1
41
1
10
29.2488709870815
20
2.50410295805187
30
0
41
1
10
29.1980775913245
20
2.54622391160734
30
0
41
1
10
29.1517390123811
20
2.57523337131994
30
0
41
1
10
29.1097832571431
20
2.58962817059341
30
0
0
SPLINE
5
DB
100
AcDbEntity
8
1
62
256
6
ByLayer
370
13
48
1
60
0
100
AcDbSpline
70
4
71
3
72
8
73
4
40
0
40
0
40
0
40
0
40
1
40
1
40
1
40
1
41
1
10
4.03089771071001
20
0.140241226184372
30
0
41
1
10
4.05439089394182
20
0.114197292209781
30
0
41
1
10
4.09135850437804
20
0.0919751763369732
30
0
41
1
10
4.13938671813929
20
0.0779981735741444
30
0
0
SPLINE
5
DC
100
AcDbEntity
8
1
62
256
6
ByLayer
370
18
48
1
60
0
100
AcDbSpline
70
4
71
3
72
8
73
4
40
0
40
0
40
0
40
0
40
1
40
1
40
1
40
1
41
1
10
29.9790555622417
20
-0.0172567116377422
30
0
41
1
10
29.8362087716195
20
-0.251146681886553
30
0
41
1
10
29.6967785214115
20
-0.488148241647309
30
0
41
1
10
29.5608140404275
20
-0.72830622570271
30
0
0
SPLINE
5
DD
100
AcDbEntity
8
1
62
256
6
ByLayer
370
18
48
1
60
0
100
AcDbSpline
70
4
71
3
72
24
73
20
40
0
40
0
40
0
40
0
40
0.125
40
0.125
40
0.1875
40
0.1875
40
0.25
40
0.25
40
0.375
40
0.375
40
0.5
40
0.5
40
0.625
40
0.625
40
0.75
40
0.75
40
0.875
40
0.875
40
1
40
1
40
1
40
1
41
1
10
29.5608140404275
20
-0.728306225702681
30
0
41
1
10
29.5575278923481
20
-0.761226614688212
30
0
41
1
10
29.5506751659566
20
-0.7996281633867
30
0
41
1
10
29.5359582185746
20
-0.859861242765703
30
0
41
1
10
29.5302225487836
20
-0.880796465400437
30
0
41
1
10
29.5176349216468
20
-0.922519247661995
30
0
41
1
10
29.5107891187253
20
-0.943344236168201
30
0
41
1
10
29.4887018702599
20
-1.00572460457181
30
0
41
1
10
29.4722042128208
20
-1.04630164765482
30
0
41
1
10
29.4376677978856
20
-1.12199105092995
30
0
41
1
10
29.4199339273806
20
-1.15650750592886
30
0
41
1
10
29.3844774352258
20
-1.21808941419806
30
0
41
1
10
29.3668080131571
20
-1.2449533390392
30
0
41
1
10
29.3337379027992
20
-1.28826799018364
30
0
41
1
10
29.3179799525217
20
-1.3052738054856
30
0
41
1
10
29.2888345283438
20
-1.32891163195853
30
0
41
1
10
29.2757955864718
20
-1.33533731499247
30
0
41
1
10
29.2528032018529
20
-1.33693658605509
30
0
41
1
10
29.2431332224551
20
-1.33194438100045
30
0
41
1
10
29.2357515295779
20
-1.32097631773433
30
0
0
SPLINE
5
DE
100
AcDbEntity
8
1
62
256
6
ByLayer
370
13
48
1
60
0
100
AcDbSpline
70
4
71
3
72
8
73
4
40
0
40
0
40
0
40
0
40
1
40
1
40
1
40
1
41
1
10
4.13883053206453
20
-0.0086952624884873
30
0
41
1
10
4.1390155893053
20
-0.0087669063063061
30
0
41
1
10
4.13920098469373
20
-0.0088381465159273
30
0
41
1
10
4.13938671813932
20
-0.0089089799580506
30
0
0
SPLINE
5
DF
100
AcDbEntity
8
1
62
256
6
ByLayer
370
18
48
1
60
0
100
AcDbSpline
70
4
71
3
72
26
73
22
40
0
40
0
40
0
40
0
40
0.0625000000000005
40
0.0625000000000005
40
0.125000000000001
40
0.125000000000001
40
0.187500000000001
40
0.187500000000001
40
0.250000000000002
40
0.250000000000002
40
0.375000000000003
40
0.375000000000003
40
0.437500000000003
40
0.437500000000003
40
0.500000000000004
40
0.500000000000004
40
0.625000000000005
40
0.625000000000005
40
0.750000000000006
40
0.750000000000006
40
1
40
1
40
1
40
1
41
1
10
26.6736402072519
20
0.881437597318836
30
0
41
1
10
26.6695348472289
20
0.803812824277372
30
0
41
1
10
26.6711304678996
20
0.724888878846286
30
0
41
1
10
26.68573038755
20
0.564441112513208
30
0
41
1
10
26.6989548557992
20
0.482289132400893
30
0
41
1
10
26.7354956798612
20
0.321324220820713
30
0
41
1
10
26.7587846913149
20
0.241905386432279
30
0
41
1
10
26.8143478950014
20
0.0849720000596221
30
0
41
1
10
26.8468943905618
20
0.0069272424127007
30
0
41
1
10
26.9547814166963
20
-0.220101136043297
30
0
41
1
10
27.0396966995869
20
-0.361822732252449
30
0
41
1
10
27.1817661795777
20
-0.563509749419836
30
0
41
1
10
27.2318670380516
20
-0.629177198943836
30
0
41
1
10
27.3352137783146
20
-0.755435559703045
30
0
41
1
10
27.3884142516688
20
-0.816042115573822
30
0
41
1
10
27.5519256263575
20
-0.991402922238592
30
0
41
1
10
27.6661026819606
20
-1.09977066597273
30
0
41
1
10
27.9026186280915
20
-1.30302360392378
30
0
41
1
10
28.0255819680419
20
-1.39824521675095
30
0
41
1
10
28.3997282355891
20
-1.66263417447101
30
0
41
1
10
28.6562079821587
20
-1.81163867741961
30
0
41
1
10
28.918256966256
20
-1.93910954617195
30
0
0
SPLINE
5
E0
100
AcDbEntity
8
1
62
256
6
ByLayer
370
18
48
1
60
0
100
AcDbSpline
70
4
71
3
72
14
73
10
40
0
40
0
40
0
40
0
40
0.143600162539913
40
0.143600162539913
40
0.369384212012479
40
0.369384212012479
40
0.595168261485046
40
0.595168261485046
40
1
40
1
40
1
40
1
41
1
10
12.5204709682421
20
-2.45970342478787
30
0
41
1
10
12.3566879880778
20
-2.45957358144514
30
0
41
1
10
12.1928829682435
20
-2.45578173622286
30
0
41
1
10
11.7711481117813
20
-2.43656288832852
30
0
41
1
10
11.5129710055511
20
-2.415756185947
30
0
41
1
10
10.9948503950825
20
-2.35629478913887
30
0
41
1
10
10.7344046776618
20
-2.3175810276081
30
0
41
1
10
10.0062876520215
20
-2.18524933720531
30
0
41
1
10
9.54078163246089
20
-2.07297353823978
30
0
41
1
10
9.07402667625746
20
-1.93716557462992
30
0
0
SPLINE
5
E1
100
AcDbEntity
8
1
62
256
6
ByLayer
370
13
48
1
60
0
100
AcDbSpline
70
4
71
3
72
18
73
14
40
0
40
0
40
0
40
0
40
0.0333487973482873
40
0.0333487973482873
40
0.194457331123575
40
0.194457331123575
40
0.355565864898862
40
0.355565864898862
40
0.677782932449433
40
0.677782932449433
40
0.838891466224717
40
0.838891466224717
40
1
40
1
40
1
40
1
41
1
10
9.07402667641711
20
-1.93716557467636
30
0
41
1
10
9.02014150435218
20
-1.92148703631409
30
0
41
1
10
8.96623968662496
20
-1.90549486437575
30
0
41
1
10
8.65181191597023
20
-1.81044948926583
30
0
41
1
10
8.39062704904441
20
-1.72432462034627
30
0
41
1
10
7.87173695881796
20
-1.54087566358365
30
0
41
1
10
7.61323728724241
20
-1.44351795225776
30
0
41
1
10
6.83911019636469
20
-1.13731868554117
30
0
41
1
10
6.32492146259318
20
-0.914197017785568
30
0
41
1
10
5.55063036328602
20
-0.56271832154809
30
0
41
1
10
5.29201328535862
20
-0.442816144225589
30
0
41
1
10
4.77257864133753
20
-0.199853489523889
30
0
41
1
10
4.5113144791319
20
-0.076608758661564
30
0
41
1
10
4.25036811566781
20
0.0463401790398166
30
0
0
SPLINE
5
E2
100
AcDbEntity
8
1
62
256
6
ByLayer
370
18
48
1
60
0
100
AcDbSpline
70
4
71
3
72
8
73
4
40
0
40
0
40
0
40
0
40
1
40
1
40
1
40
1
41
1
10
29.2488709870825
20
-2.50410295805108
30
0
41
1
10
29.1980775913252
20
-2.54622391160697
30
0
41
1
10
29.1517390123814
20
-2.57523337131985
30
0
41
1
10
29.1097832571432
20
-2.58962817059341
30
0
0
SPLINE
5
E3
100
AcDbEntity
8
1
62
256
6
ByLayer
370
18
48
1
60
0
100
AcDbSpline
70
4
71
3
72
10
73
6
40
0
40
0
40
0
40
0
40
0.5
40
0.5
40
1
40
1
40
1
40
1
41
1
10
28.985013673621
20
0.731608490581692
30
0
41
1
10
29.1471410036088
20
0.726973758393854
30
0
41
1
10
29.3092609397156
20
0.722408180347287
30
0
41
1
10
29.6331962886183
20
0.716125196655582
30
0
41
1
10
29.7951450266033
20
0.71316081545703
30
0
41
1
10
29.9570393856172
20
0.710705034682718
30
0
0
SPLINE
5
E4
100
AcDbEntity
8
1
62
256
6
ByLayer
370
18
48
1
60
0
100
AcDbSpline
70
4
71
3
72
36
73
32
40
0
40
0
40
0
40
0
40
0.0670901969567497
40
0.0670901969567497
40
0.11480690525625
40
0.11480690525625
40
0.162523613555749
40
0.162523613555749
40
0.257957030154748
40
0.257957030154748
40
0.305673738454248
40
0.305673738454248
40
0.329532092603998
40
0.329532092603998
40
0.353390446753748
40
0.353390446753748
40
0.544257279951748
40
0.544257279951748
40
0.591973988251248
40
0.591973988251248
40
0.639690696550748
40
0.639690696550748
40
0.735124113149748
40
0.735124113149748
40
0.782840821449248
40
0.782840821449248
40
0.830557529748747
40
0.830557529748747
40
0.925990946347748
40
0.925990946347748
40
1
40
1
40
1
40
1
41
1
10
28.6439651330078
20
-2.59962541914436
30
0
41
1
10
28.276608536228
20
-2.59927884044487
30
0
41
1
10
27.9094779885242
20
-2.57947837906158
30
0
41
1
10
27.2790809175853
20
-2.51276663365016
30
0
41
1
10
27.0171392340745
20
-2.47532127756787
30
0
41
1
10
26.4965459134415
20
-2.38260853505972
30
0
41
1
10
26.2372062273549
20
-2.32732506980989
30
0
41
1
10
25.4603731832834
20
-2.13662835083105
30
0
41
1
10
24.9440928841649
20
-1.97629893320993
30
0
41
1
10
24.1653200411326
20
-1.69433436207632
30
0
41
1
10
23.9050678780517
20
-1.59333973343877
30
0
41
1
10
23.5127077444682
20
-1.43266841943466
30
0
41
1
10
23.3813837139665
20
-1.37750139160749
30
0
41
1
10
23.1197162873418
20
-1.26507413168258
30
0
41
1
10
22.9892130563923
20
-1.20775572033065
30
0
41
1
10
21.8169879845873
20
-0.683278578070258
30
0
41
1
10
20.7916148799376
20
-0.155198974450968
30
0
41
1
10
19.4848104096573
20
0.489447169034776
30
0
41
1
10
19.2219833808489
20
0.617725731726381
30
0
41
1
10
18.7004574728963
20
0.866673762836456
30
0
41
1
10
18.4408147423339
20
0.98785850038314
30
0
41
1
10
17.663392797567
20
1.33819927996799
30
0
41
1
10
17.1470729246742
20
1.55406630128044
30
0
41
1
10
16.3691600026286
20
1.84038059632908
30
0
41
1
10
16.1092120168566
20
1.92946208004355
30
0
41
1
10
15.5869480201491
20
2.09314652903291
30
0
41
1
10
15.3239455616289
20
2.16789949532205
30
0
41
1
10
14.5407287706492
20
2.36512294428479
30
0
41
1
10
14.0231797374071
20
2.46157852942716
30
0
41
1
10
13.1045332848963
20
2.56633323584131
30
0
41
1
10
12.7032617182825
20
2.58952547087841
30
0
41
1
10
12.2999659664345
20
2.58940554322993
30
0
0
SPLINE
5
E5
100
AcDbEntity
8
1
62
256
6
ByLayer
370
13
48
1
60
0
100
AcDbSpline
70
4
71
3
72
8
73
4
40
0
40
0
40
0
40
0
40
1
40
1
40
1
40
1
41
1
10
4.09623580055242
20
0.0181070400191174
30
0
41
1
10
4.10941398128634
20
0.0078502262758775
30
0
41
1
10
4.12374361904506
20
-0.0012088276085365
30
0
41
1
10
4.13938671813929
20
-0.0089089799580506
30
0
0
SPLINE
5
E6
100
AcDbEntity
8
1
62
256
6
ByLayer
370
18
48
1
60
0
100
AcDbSpline
70
4
71
3
72
32
73
28
40
0
40
0
40
0
40
0
40
0.250000000000002
40
0.250000000000002
40
0.374999999999998
40
0.374999999999998
40
0.499999999999994
40
0.499999999999994
40
0.62499999999999
40
0.62499999999999
40
0.749999999999987
40
0.749999999999987
40
0.812499999999985
40
0.812499999999985
40
0.828124999999986
40
0.828124999999986
40
0.835937499999987
40
0.835937499999987
40
0.843749999999988
40
0.843749999999988
40
0.851562499999989
40
0.851562499999989
40
0.85937499999999
40
0.85937499999999
40
0.874999999999992
40
0.874999999999992
40
1
40
1
40
1
40
1
41
1
10
26.6736402072518
20
0.881437597318921
30
0
41
1
10
26.8742581903197
20
0.722972456740251
30
0
41
1
10
27.0827439985837
20
0.585533651242969
30
0
41
1
10
27.408177734622
20
0.413328927937641
30
0
41
1
10
27.5192245555786
20
0.362131606696948
30
0
41
1
10
27.7405691702117
20
0.274503950111267
30
0
41
1
10
27.8515363824064
20
0.237794600951076
30
0
41
1
10
28.0741065340809
20
0.179691048523097
30
0
41
1
10
28.1857106851136
20
0.158326032467812
30
0
41
1
10
28.409687790282
20
0.134117042254729
30
0
41
1
10
28.5205298392889
20
0.131534476073654
30
0
41
1
10
28.6834237543219
20
0.143868311932835
30
0
41
1
10
28.7373119727551
20
0.150701677306387
30
0
41
1
10
28.8037421165425
20
0.162892747643184
30
0
41
1
10
28.8169762315025
20
0.165512220262656
30
0
41
1
10
28.8367481473178
20
0.169718156028836
30
0
41
1
10
28.8434240553422
20
0.171136985673741
30
0
41
1
10
28.8551607240769
20
0.177182511550313
30
0
41
1
10
28.8604075288372
20
0.181893774695538
30
0
41
1
10
28.8667949320766
20
0.195234564007961
30
0
41
1
10
28.8674646776404
20
0.203437820090187
30
0
41
1
10
28.8699542721242
20
0.218975489835088
30
0
41
1
10
28.8711530127072
20
0.22676597770652
30
0
41
1
10
28.87461365399
20
0.250201182889668
30
0
41
1
10
28.8767387065709
20
0.265901603317104
30
0
41
1
10
28.894277158844
20
0.407740407769836
30
0
41
1
10
28.8986638754478
20
0.53822105358563
30
0
41
1
10
28.8951673053068
20
0.668870517294351
30
0
0
SPLINE
5
E7
100
AcDbEntity
8
1
62
256
6
ByLayer
370
18
48
1
60
0
100
AcDbSpline
70
4
71
3
72
8
73
4
40
0
40
0
40
0
40
0
40
1
40
1
40
1
40
1
41
1
10
29.2357515295779
20
-1.32097631773433
30
0
41
1
10
29.1274935875857
20
-1.52481088191357
30
0
41
1
10
29.021653954796
20
-1.73084790373653
30
0
41
1
10
28.918256966256
20
-1.93910954617198
30
0
0
SPLINE
5
E8
100
AcDbEntity
8
1
62
256
6
ByLayer
370
18
48
1
60
0
100
AcDbSpline
70
4
71
3
72
8
73
4
40
0
40
0
40
0
40
0
40
1
40
1
40
1
40
1
41
1
10
7.53471384713589
20
1.91124564679657
30
0
41
1
10
7.68753645160351
20
1.95031262304516
30
0
41
1
10
7.83995596937177
20
1.98907084631807
30
0
41
1
10
7.99206809417336
20
2.02707767322207
30
0
0
SPLINE
5
E9
100
AcDbEntity
8
1
62
256
6
ByLayer
370
18
48
1
60
0
100
AcDbSpline
70
4
71
3
72
14
73
10
40
0
40
0
40
0
40
0
40
0.25
40
0.25
40
0.5
40
0.5
40
0.75
40
0.75
40
1
40
1
40
1
40
1
41
1
10
29.130258591493
20
-2.46692347017176
30
0
41
1
10
29.1336528014952
20
-2.46625282531605
30
0
41
1
10
29.1364159279607
20
-2.46725069422385
30
0
41
1
10
29.1402891637673
20
-2.47357765206169
30
0
41
1
10
29.1413495995825
20
-2.47898006228505
30
0
41
1
10
29.140634745354
20
-2.49525963711508
30
0
41
1
10
29.1387860035997
20
-2.50612216020264
30
0
41
1
10
29.1322481467167
20
-2.53083339635913
30
0
41
1
10
29.1275968755894
20
-2.54456355184007
30
0
41
1
10
29.1224064088314
20
-2.5577062091339
30
0
0
SPLINE
5
EA
100
AcDbEntity
8
1
62
256
6
ByLayer
370
18
48
1
60
0
100
AcDbSpline
70
4
71
3
72
74
73
70
40
0
40
0
40
0
40
0
40
0.033485732624901
40
0.033485732624901
40
0.0669714652498021
40
0.0669714652498021
40
0.100457197874703
40
0.100457197874703
40
0.133942930499604
40
0.133942930499604
40
0.150685796812055
40
0.150685796812055
40
0.167428663124506
40
0.167428663124506
40
0.200914395749408
40
0.200914395749408
40
0.23440012837431
40
0.23440012837431
40
0.25114299468676
40
0.25114299468676
40
0.267885860999211
40
0.267885860999211
40
0.301371593624113
40
0.301371593624113
40
0.334857326249015
40
0.334857326249015
40
0.368343058873916
40
0.368343058873916
40
0.401828791498818
40
0.401828791498818
40
0.43531452412372
40
0.43531452412372
40
0.468800256748622
40
0.468800256748622
40
0.502285989373524
40
0.502285989373524
40
0.535771721998426
40
0.535771721998426
40
0.569257454623328
40
0.569257454623328
40
0.60274318724823
40
0.60274318724823
40
0.636228919873132
40
0.636228919873132
40
0.669714652498033
40
0.669714652498033
40
0.703200385122935
40
0.703200385122935
40
0.736686117747837
40
0.736686117747837
40
0.770171850372739
40
0.770171850372739
40
0.803657582997641
40
0.803657582997641
40
0.837143315622543
40
0.837143315622543
40
0.870629048247445
40
0.870629048247445
40
0.887371914559896
40
0.887371914559896
40
0.904114780872347
40
0.904114780872347
40
0.937600513497249
40
0.937600513497249
40
0.97108624612215
40
0.97108624612215
40
0.987829112434601
40
0.987829112434601
40
1
40
1
40
1
40
1
41
1
10
7.99206809417336
20
2.02707767322207
30
0
41
1
10
8.21459193573284
20
2.09661201241903
30
0
41
1
10
8.4365757399168
20
2.15946738442503
30
0
41
1
10
8.87942179024196
20
2.27273515792794
30
0
41
1
10
9.09963185643451
20
2.32375014226221
30
0
41
1
10
9.53998889855288
20
2.41227477099318
30
0
41
1
10
9.76015873737813
20
2.44990107980718
30
0
41
1
10
10.1996490099361
20
2.51245180944193
30
0
41
1
10
10.4193902702132
20
2.53704264487232
30
0
41
1
10
10.7499414126385
20
2.56356727249289
30
0
41
1
10
10.8602259326835
20
2.57071268626956
30
0
41
1
10
11.0808161344311
20
2.5815983471046
30
0
41
1
10
11.1910645237112
20
2.58532912290295
30
0
41
1
10
11.5228525281392
20
2.59117319454174
30
0
41
1
10
11.7453309013989
20
2.58808725256756
30
0
41
1
10
12.1908001959253
20
2.56758295882119
30
0
41
1
10
12.4124020908416
20
2.55020864409121
30
0
41
1
10
12.7442866344467
20
2.5142199922245
30
0
41
1
10
12.8547784562478
20
2.50056044123769
30
0
41
1
10
13.0753087734044
20
2.46981740921439
30
0
41
1
10
13.1852472107501
20
2.45265565430736
30
0
41
1
10
13.5152552958553
20
2.39655628418393
30
0
41
1
10
13.7354132817995
20
2.35305414741188
30
0
41
1
10
14.1749456398192
20
2.25303458978661
30
0
41
1
10
14.3945406389558
20
2.19661304509529
30
0
41
1
10
14.8351792452723
20
2.0728908121707
30
0
41
1
10
15.0557886964452
20
2.00513436328851
30
0
41
1
10
15.4980101393634
20
1.85797373410557
30
0
41
1
10
15.7206880256876
20
1.77953439854087
30
0
41
1
10
16.1660287920726
20
1.61199450326873
30
0
41
1
10
16.3874033996015
20
1.52347237464932
30
0
41
1
10
16.8295389100692
20
1.34046191339152
30
0
41
1
10
17.0500386259204
20
1.2455474732962
30
0
41
1
10
17.4895706955494
20
1.04827590420504
30
0
41
1
10
17.7095528342022
20
0.947691398725624
30
0
41
1
10
18.1490464042567
20
0.740997486173256
30
0
41
1
10
18.3684589023354
20
0.63465124919054
30
0
41
1
10
18.8087425121428
20
0.420165148011989
30
0
41
1
10
19.0295533598505
20
0.311952232975017
30
0
41
1
10
19.4713652441215
20
0.0910376954550429
30
0
41
1
10
19.6936743055991
20
-0.0194045655788671
30
0
41
1
10
20.1393858671769
20
-0.240761331585503
30
0
41
1
10
20.3612931882143
20
-0.351724692945396
30
0
41
1
10
20.8055104725997
20
-0.56959441311264
30
0
41
1
10
21.0278697649447
20
-0.676439476758389
30
0
41
1
10
21.4716450994496
20
-0.88872573954086
30
0
41
1
10
21.6943099981171
20
-0.992224777101541
30
0
41
1
10
22.1399456112703
20
-1.1932862368437
30
0
41
1
10
22.3618207971853
20
-1.29142916214371
30
0
41
1
10
22.8059392140484
20
-1.47892861034185
30
0
41
1
10
23.0282880249967
20
-1.56819253733605
30
0
41
1
10
23.4722545463797
20
-1.73979366792454
30
0
41
1
10
23.6948985244791
20
-1.8210256692368
30
0
41
1
10
24.1403867415048
20
-1.97247913272659
30
0
41
1
10
24.3622270280892
20
-2.04345385544337
30
0
41
1
10
24.8062160161982
20
-2.17314193964725
30
0
41
1
10
25.0285267170337
20
-2.23177972038528
30
0
41
1
10
25.3616442573372
20
-2.31124643461655
30
0
41
1
10
25.4726057133444
20
-2.33631149990001
30
0
41
1
10
25.6951105762782
20
-2.38292126469935
30
0
41
1
10
25.8066230940212
20
-2.40456007217011
30
0
41
1
10
26.1405774426343
20
-2.46440463162057
30
0
41
1
10
26.3623272629351
20
-2.49786405850509
30
0
41
1
10
26.8059391823687
20
-2.55069967222664
30
0
41
1
10
27.0280366907538
20
-2.57008135339859
30
0
41
1
10
27.3609430151958
20
-2.58882387917089
30
0
41
1
10
27.4717807061184
20
-2.59333772266942
30
0
41
1
10
27.6636770490673
20
-2.59800501220772
30
0
41
1
10
27.7445953014805
20
-2.59902624628731
30
0
41
1
10
27.8255604814166
20
-2.59910962522562
30
0
0
SPLINE
5
EB
100
AcDbEntity
8
1
62
256
6
ByLayer
370
13
48
1
60
0
100
AcDbSpline
70
4
71
3
72
30
73
26
40
0
40
0
40
0
40
0
40
0.125
40
0.125
40
0.1875
40
0.1875
40
0.25
40
0.25
40
0.375
40
0.375
40
0.4375
40
0.4375
40
0.5
40
0.5
40
0.625
40
0.625
40
0.6875
40
0.6875
40
0.75
40
0.75
40
0.875
40
0.875
40
0.9375
40
0.9375
40
1
40
1
40
1
40
1
41
1
10
4.25036811566781
20
0.0463401790398166
30
0
41
1
10
4.25043785074647
20
0.20679658265459
30
0
41
1
10
4.25049980873774
20
0.365089297668732
30
0
41
1
10
4.25058436618059
20
0.59932550009276
30
0
41
1
10
4.25061120894651
20
0.67707353324235
30
0
41
1
10
4.25066168987829
20
0.828683692800951
30
0
41
1
10
4.25068545376504
20
0.902877630251453
30
0
41
1
10
4.25075325077103
20
1.12071985739655
30
0
41
1
10
4.25079388271993
20
1.25990050750917
30
0
41
1
10
4.25085070221343
20
1.45812270533895
30
0
41
1
10
4.25086874897687
20
1.52172870937375
30
0
41
1
10
4.25090354650868
20
1.64404412229462
30
0
41
1
10
4.25092036084371
20
1.70297202024793
30
0
41
1
10
4.25096879322288
20
1.87007602725399
30
0
41
1
10
4.25099856045981
20
1.96900794987428
30
0
41
1
10
4.25104102389423
20
2.09908280133831
30
0
41
1
10
4.25105479746981
20
2.13936594951059
30
0
41
1
10
4.25108165933261
20
2.21358006986961
30
0
41
1
10
4.2510947040368
20
2.24736244605865
30
0
41
1
10
4.25113197097011
20
2.33701805080239
30
0
41
1
10
4.25115450417132
20
2.38168884294964
30
0
41
1
10
4.2511838774418
20
2.42655538727732
30
0
41
1
10
4.25119291425747
20
2.43779513012862
30
0
41
1
10
4.25120910007584
20
2.45260724598856
30
0
41
1
10
4.25121617104443
20
2.45608680398379
30
0
41
1
10
4.25122195892038
20
2.45569699429413
30
0
0
SPLINE
5
EC
100
AcDbEntity
8
1
62
256
6
ByLayer
370
18
48
1
60
0
100
AcDbSpline
70
4
71
3
72
21
73
17
40
0
40
0
40
0
40
0
40
0.0858961358405387
40
0.154395563573897
40
0.205506152281074
40
0.265743166611458
40
0.322296977898796
40
0.379677556225073
40
0.441528225243181
40
0.502215883829156
40
0.609566024623334
40
0.723172554568132
40
0.770127857215946
40
0.833637389037822
40
0.922367550107313
40
1
40
1
40
1
40
1
41
1
10
12.480951661389
20
-2.45970989680976
30
0
41
1
10
12.7074333488104
20
-2.45985446160913
30
0
41
1
10
13.1145601605504
20
-2.46014184064106
30
0
41
1
10
13.6566312938276
20
-2.45984592062962
30
0
41
1
10
14.1309352384307
20
-2.46076897511972
30
0
41
1
10
14.5737834083621
20
-2.46122946564901
30
0
41
1
10
15.0331568389279
20
-2.46083959078979
30
0
41
1
10
15.496793319945
20
-2.46096056423624
30
0
41
1
10
15.9713337685011
20
-2.46170260434076
30
0
41
1
10
16.5776694657921
20
-2.46066559171482
30
0
41
1
10
17.3205139954953
20
-2.46317415809332
30
0
41
1
10
18.0271324410979
20
-2.4609072164117
30
0
41
1
10
18.6181243139891
20
-2.46241727555082
30
0
41
1
10
19.1434935430632
20
-2.46293323056838
30
0
41
1
10
19.7497908762893
20
-2.46314646251892
30
0
41
1
10
20.1885614777809
20
-2.46307638886265
30
0
41
1
10
20.393310613681
20
-2.46298892839783
30
0
0
SPLINE
5
ED
100
AcDbEntity
8
1
62
256
6
ByLayer
370
18
48
1
60
0
100
AcDbSpline
70
4
71
2
72
6
73
3
40
0
40
0
40
0
40
1
40
1
40
1
41
1
10
4.5241220565872
20
2.45289333138399
30
0
41
1
10
4.38759482860021
20
2.45200433513582
30
0
41
1
10
4.25119871815795
20
2.45021818334251
30
0
0
SPLINE
5
EE
100
AcDbEntity
8
1
62
256
6
ByLayer
370
18
48
1
60
0
100
AcDbSpline
70
4
71
2
72
6
73
3
40
0
40
0
40
0
40
1
40
1
40
1
41
1
10
28.7215517779585
20
-2.46866169719709
30
0
41
1
10
28.9061947241272
20
-2.46853894438092
30
0
41
1
10
29.090716221108
20
-2.4685924836848
30
0
0
SPLINE
5
EF
100
AcDbEntity
8
1
62
256
6
ByLayer
370
18
48
1
60
0
100
AcDbSpline
70
4
71
3
72
21
73
17
40
0
40
0
40
0
40
0
40
0.0651872452873906
40
0.149875917808753
40
0.208493729802662
40
0.251516564338392
40
0.294222456164197
40
0.336845083076611
40
0.441030167332206
40
0.556700928715194
40
0.670477270743206
40
0.783992213822724
40
0.881632529801074
40
0.929609680306763
40
0.99618636997781
40
1
40
1
40
1
40
1
41
1
10
20.3845445728824
20
2.4628443425479
30
0
41
1
10
20.2433400334876
20
2.46270593141824
30
0
41
1
10
19.9186614463657
20
2.46242017592283
30
0
41
1
10
19.4668348931602
20
2.46386142400635
30
0
41
1
10
19.0630853368261
20
2.46261457514723
30
0
41
1
10
18.7504598389196
20
2.46244834193834
30
0
41
1
10
18.4723428873211
20
2.46208297142641
30
0
41
1
10
18.0616813082925
20
2.46108539470524
30
0
41
1
10
17.4929161832939
20
2.46287643029686
30
0
41
1
10
16.7699653140756
20
2.46090816741673
30
0
41
1
10
16.0267958221592
20
2.46174881147428
30
0
41
1
10
15.3226963257116
20
2.46067692503652
30
0
41
1
10
14.7611822685795
20
2.46107240789078
30
0
41
1
10
14.3013639100385
20
2.46113546985615
30
0
41
1
10
14.0449030121983
20
2.46046928652981
30
0
41
1
10
13.8923789646093
20
2.46026302757036
30
0
41
1
10
13.8841154317032
20
2.46025238254518
30
0
0
SPLINE
5
F0
100
AcDbEntity
8
1
62
256
6
ByLayer
370
18
48
1
60
0
100
AcDbSpline
70
4
71
2
72
6
73
3
40
0
40
0
40
0
40
1
40
1
40
1
41
1
10
4.32783663355457
20
-2.45115096317494
30
0
41
1
10
4.42510517913587
20
-2.45224429156002
30
0
41
1
10
4.52244078259412
20
-2.45287878473533
30
0
0
LINE
5
7B
100
AcDbEntity
8
SK1
62
256
6
ByLayer
370
18
48
1
60
0
100
AcDbLine
10
-36
20
-2.065
30
0
11
-36
21
-1.947839
31
0
39
0
210
0
220
0
230
1
0
LINE
5
7D
100
AcDbEntity
8
SK1
62
256
6
ByLayer
370
18
48
1
60
0
100
AcDbLine
10
0
20
-3
30
0
11
0
21
3
31
0
39
0
210
0
220
0
230
1
0
LINE
5
7E
100
AcDbEntity
8
SK1
62
256
6
ByLayer
370
18
48
1
60
0
100
AcDbLine
10
-36
20
-0.969895
30
0
11
-36
21
-1.947839
31
0
39
0
210
0
220
0
230
1
0
LINE
5
7F
100
AcDbEntity
8
SK1
62
256
6
ByLayer
370
13
48
1
60
0
100
AcDbLine
10
-35.75
20
-1.171666
30
0
11
-35.75
21
-2.149653
31
0
39
0
210
0
220
0
230
1
0
LINE
5
80
100
AcDbEntity
8
SK1
62
256
6
ByLayer
370
18
48
1
60
0
100
AcDbLine
10
-35.65
20
-2.187382
30
0
11
-35.65
21
-1.339834
31
0
39
0
210
0
220
0
230
1
0
LINE
5
81
100
AcDbEntity
8
SK1
62
256
6
ByLayer
370
18
48
1
60
0
100
AcDbLine
10
-36
20
2.065
30
0
11
-36
21
-0.969899
31
0
39
0
210
0
220
0
230
1
0
LINE
5
82
100
AcDbEntity
8
SK1
62
256
6
ByLayer
370
18
48
1
60
0
100
AcDbLine
10
-35.065
20
3
30
0
11
-35.065
21
-3
31
0
39
0
210
0
220
0
230
1
0
LINE
5
83
100
AcDbEntity
8
1
62
256
6
ByLayer
370
13
48
1
60
0
100
AcDbLine
10
1.078436
20
2.582393
30
0
11
1.078436
21
-2.582393
31
0
39
0
210
0
220
0
230
1
0
LINE
5
84
100
AcDbEntity
8
1
62
256
6
ByLayer
370
13
48
1
60
0
100
AcDbLine
10
28.985014
20
0.731608
30
0
11
29.990096
21
0.095367
31
0
39
0
210
0
220
0
230
1
0
LINE
5
85
100
AcDbEntity
8
1
62
256
6
ByLayer
370
13
48
1
60
0
100
AcDbLine
10
0.538968
20
2.791197
30
0
11
0.538968
21
-2.791197
31
0
39
0
210
0
220
0
230
1
0
LINE
5
86
100
AcDbEntity
8
1
62
256
6
ByLayer
370
18
48
1
60
0
100
AcDbLine
10
0
20
-3
30
0
11
0
21
3
31
0
39
0
210
0
220
0
230
1
0
LINE
5
87
100
AcDbEntity
8
1
62
256
6
ByLayer
370
18
48
1
60
0
100
AcDbLine
10
4.031501
20
-2.584231
30
0
11
4.031506
21
-2.582981
31
0
39
0
210
0
220
0
230
1
0
LINE
5
88
100
AcDbEntity
8
1
62
256
6
ByLayer
370
13
48
1
60
0
100
AcDbLine
10
28.895167
20
0.668871
30
0
11
29.979056
21
-0.017257
31
0
39
0
210
0
220
0
230
1
0
LINE
5
89
100
AcDbEntity
8
80
62
256
6
ByLayer
370
18
48
1
60
0
100
AcDbLine
10
0
20
0
30
0
11
-5
21
0
31
0
39
0
210
0
220
0
230
1
0
LINE
5
8A
100
AcDbEntity
8
4
62
256
6
ByLayer
370
18
48
0.05
60
0
100
AcDbLine
10
30
20
0
30
0
11
0
21
0
31
0
39
0
210
0
220
0
230
1
0
LINE
5
8C
100
AcDbEntity
8
SK4
62
256
6
ByLayer
370
18
48
0.05
60
0
100
AcDbLine
10
35
20
0
30
0
11
-41
21
0
31
0
39
0
210
0
220
0
230
1
0
LINE
5
8E
100
AcDbEntity
8
SK1
62
256
6
ByLayer
370
18
48
1
60
0
100
AcDbLine
10
-35.065
20
-3
30
0
11
0
21
-3
31
0
39
0
210
0
220
0
230
1
0
LINE
5
8F
100
AcDbEntity
8
SK1
62
256
6
ByLayer
370
18
48
1
60
0
100
AcDbLine
10
0
20
3
30
0
11
-35.065
21
3
31
0
39
0
210
0
220
0
230
1
0
LINE
5
90
100
AcDbEntity
8
SK1
62
256
6
ByLayer
370
18
48
1
60
0
100
AcDbLine
10
-36
20
-2.065
30
0
11
-35.065
21
-3
31
0
39
0
210
0
220
0
230
1
0
LINE
5
91
100
AcDbEntity
8
SK1
62
256
6
ByLayer
370
18
48
1
60
0
100
AcDbLine
10
-35.065
20
3
30
0
11
-36
21
2.065
31
0
39
0
210
0
220
0
230
1
0
LINE
5
92
100
AcDbEntity
8
1
62
256
6
ByLayer
370
18
48
1
60
0
100
AcDbLine
10
1.078436
20
-2.582393
30
0
11
4.031501
21
-2.584239
31
0
39
0
210
0
220
0
230
1
0
LINE
5
93
100
AcDbEntity
8
1
62
256
6
ByLayer
370
18
48
1
60
0
100
AcDbLine
10
11.480442
20
-2.588895
30
0
11
12.296838
21
-2.589405
31
0
39
0
210
0
220
0
230
1
0
LINE
5
94
100
AcDbEntity
8
1
62
256
6
ByLayer
370
18
48
1
60
0
100
AcDbLine
10
27.83003
20
-2.599113
30
0
11
28.647018
21
-2.599624
31
0
39
0
210
0
220
0
230
1
0
LINE
5
95
100
AcDbEntity
8
1
62
256
6
ByLayer
370
18
48
1
60
0
100
AcDbLine
10
28.647786
20
2.599624
30
0
11
27.83003
21
2.599113
31
0
39
0
210
0
220
0
230
1
0
LINE
5
96
100
AcDbEntity
8
1
62
256
6
ByLayer
370
18
48
1
60
0
100
AcDbLine
10
12.296853
20
2.589405
30
0
11
11.480442
21
2.588895
31
0
39
0
210
0
220
0
230
1
0
LINE
5
97
100
AcDbEntity
8
1
62
256
6
ByLayer
370
18
48
1
60
0
100
AcDbLine
10
4.031501
20
2.584239
30
0
11
1.078436
21
2.582393
31
0
39
0
210
0
220
0
230
1
0
LINE
5
98
100
AcDbEntity
8
81
62
256
6
ByLayer
370
18
48
1
60
0
100
AcDbLine
10
30
20
0
30
0
11
35
21
0
31
0
39
0
210
0
220
0
230
1
0
LINE
5
99
100
AcDbEntity
8
SK2
62
256
6
ByLayer
370
13
48
1
60
0
100
AcDbLine
10
-44.625163
20
32.117107
30
0
11
-44.625163
21
-11.75
31
0
39
0
210
0
220
0
230
1
0
LINE
5
9B
100
AcDbEntity
8
SK2
62
256
6
ByLayer
370
13
48
1
60
0
100
AcDbLine
10
-37.5875
20
3
30
0
11
-46.625163
21
3
31
0
39
0
210
0
220
0
230
1
0
LINE
5
9C
100
AcDbEntity
8
SK2
62
256
6
ByLayer
370
13
48
1
60
0
100
AcDbLine
10
-37.5875
20
-3
30
0
11
-46.625163
21
-3
31
0
39
0
210
0
220
0
230
1
0
LINE
5
9D
100
AcDbEntity
8
1
62
256
6
ByLayer
370
18
48
1
60
1
100
AcDbLine
10
-44.625163
20
3
30
0
11
-45.085946
21
6.499998
31
0
39
0
210
0
220
0
230
1
0
LINE
5
9E
100
AcDbEntity
8
1
62
256
6
ByLayer
370
18
48
1
60
1
100
AcDbLine
10
-45.085946
20
6.499998
30
0
11
-44.164379
21
6.500002
31
0
39
0
210
0
220
0
230
1
0
LINE
5
9F
100
AcDbEntity
8
1
62
256
6
ByLayer
370
18
48
1
60
1
100
AcDbLine
10
-44.164379
20
6.500002
30
0
11
-44.625163
21
3
31
0
39
0
210
0
220
0
230
1
0
LINE
5
A0
100
AcDbEntity
8
1
62
256
6
ByLayer
370
18
48
1
60
1
100
AcDbLine
10
-44.625163
20
-3
30
0
11
-44.164379
21
-6.499998
31
0
39
0
210
0
220
0
230
1
0
LINE
5
A1
100
AcDbEntity
8
1
62
256
6
ByLayer
370
18
48
1
60
1
100
AcDbLine
10
-44.164379
20
-6.499998
30
0
11
-45.085946
21
-6.500002
31
0
39
0
210
0
220
0
230
1
0
LINE
5
A2
100
AcDbEntity
8
1
62
256
6
ByLayer
370
18
48
1
60
1
100
AcDbLine
10
-45.085946
20
-6.500002
30
0
11
-44.625163
21
-3
31
0
39
0
210
0
220
0
230
1
0
LINE
5
A3
100
AcDbEntity
8
2
62
256
6
ByLayer
370
13
48
1
60
0
100
AcDbLine
10
42.083343
20
30.310193
30
0
11
42.083343
21
-11.35
31
0
39
0
210
0
220
0
230
1
0
LINE
5
A5
100
AcDbEntity
8
2
62
256
6
ByLayer
370
13
48
1
60
0
100
AcDbLine
10
30.8269
20
2.6
30
0
11
44.083343
21
2.6
31
0
39
0
210
0
220
0
230
1
0
LINE
5
A6
100
AcDbEntity
8
2
62
256
6
ByLayer
370
13
48
1
60
0
100
AcDbLine
10
30.8269
20
-2.6
30
0
11
44.083343
21
-2.6
31
0
39
0
210
0
220
0
230
1
0
LINE
5
A7
100
AcDbEntity
8
1
62
256
6
ByLayer
370
18
48
1
60
1
100
AcDbLine
10
42.083343
20
2.6
30
0
11
41.622559
21
6.099998
31
0
39
0
210
0
220
0
230
1
0
LINE
5
A8
100
AcDbEntity
8
1
62
256
6
ByLayer
370
18
48
1
60
1
100
AcDbLine
10
41.622559
20
6.099998
30
0
11
42.544126
21
6.100002
31
0
39
0
210
0
220
0
230
1
0
LINE
5
A9
100
AcDbEntity
8
1
62
256
6
ByLayer
370
18
48
1
60
1
100
AcDbLine
10
42.544126
20
6.100002
30
0
11
42.083343
21
2.6
31
0
39
0
210
0
220
0
230
1
0
LINE
5
AA
100
AcDbEntity
8
1
62
256
6
ByLayer
370
18
48
1
60
1
100
AcDbLine
10
42.083343
20
-2.6
30
0
11
42.544126
21
-6.099998
31
0
39
0
210
0
220
0
230
1
0
LINE
5
AB
100
AcDbEntity
8
1
62
256
6
ByLayer
370
18
48
1
60
1
100
AcDbLine
10
42.544126
20
-6.099998
30
0
11
41.622559
21
-6.100002
31
0
39
0
210
0
220
0
230
1
0
LINE
5
AC
100
AcDbEntity
8
1
62
256
6
ByLayer
370
18
48
1
60
1
100
AcDbLine
10
41.622559
20
-6.100002
30
0
11
42.083343
21
-2.6
31
0
39
0
210
0
220
0
230
1
0
LINE
5
F7
100
AcDbEntity
8
1
62
256
6
ByLayer
370
18
48
1
60
1
100
AcDbLine
10
-44.625163
20
3
30
0
11
-45.085946
21
6.499998
31
0
39
0
210
0
220
0
230
1
0
LINE
5
F8
100
AcDbEntity
8
1
62
256
6
ByLayer
370
18
48
1
60
1
100
AcDbLine
10
-45.085946
20
6.499998
30
0
11
-44.164379
21
6.500002
31
0
39
0
210
0
220
0
230
1
0
LINE
5
F9
100
AcDbEntity
8
1
62
256
6
ByLayer
370
18
48
1
60
1
100
AcDbLine
10
-44.164379
20
6.500002
30
0
11
-44.625163
21
3
31
0
39
0
210
0
220
0
230
1
0
LINE
5
FB
100
AcDbEntity
8
1
62
256
6
ByLayer
370
18
48
1
60
1
100
AcDbLine
10
-44.625163
20
-3
30
0
11
-44.164379
21
-6.499998
31
0
39
0
210
0
220
0
230
1
0
LINE
5
FC
100
AcDbEntity
8
1
62
256
6
ByLayer
370
18
48
1
60
1
100
AcDbLine
10
-44.164379
20
-6.499998
30
0
11
-45.085946
21
-6.500002
31
0
39
0
210
0
220
0
230
1
0
LINE
5
FD
100
AcDbEntity
8
1
62
256
6
ByLayer
370
18
48
1
60
1
100
AcDbLine
10
-45.085946
20
-6.500002
30
0
11
-44.625163
21
-3
31
0
39
0
210
0
220
0
230
1
0
LINE
5
101
100
AcDbEntity
8
1
62
256
6
ByLayer
370
18
48
1
60
1
100
AcDbLine
10
42.083343
20
2.6
30
0
11
41.622559
21
6.099998
31
0
39
0
210
0
220
0
230
1
0
LINE
5
102
100
AcDbEntity
8
1
62
256
6
ByLayer
370
18
48
1
60
1
100
AcDbLine
10
41.622559
20
6.099998
30
0
11
42.544126
21
6.100002
31
0
39
0
210
0
220
0
230
1
0
LINE
5
103
100
AcDbEntity
8
1
62
256
6
ByLayer
370
18
48
1
60
1
100
AcDbLine
10
42.544126
20
6.100002
30
0
11
42.083343
21
2.6
31
0
39
0
210
0
220
0
230
1
0
LINE
5
105
100
AcDbEntity
8
1
62
256
6
ByLayer
370
18
48
1
60
1
100
AcDbLine
10
42.083343
20
-2.6
30
0
11
42.544126
21
-6.099998
31
0
39
0
210
0
220
0
230
1
0
LINE
5
106
100
AcDbEntity
8
1
62
256
6
ByLayer
370
18
48
1
60
1
100
AcDbLine
10
42.544126
20
-6.099998
30
0
11
41.622559
21
-6.100002
31
0
39
0
210
0
220
0
230
1
0
LINE
5
107
100
AcDbEntity
8
1
62
256
6
ByLayer
370
18
48
1
60
1
100
AcDbLine
10
41.622559
20
-6.100002
30
0
11
42.083343
21
-2.6
31
0
39
0
210
0
220
0
230
1
0
MTEXT
5
F1
100
AcDbEntity
8
SK6
62
256
6
ByLayer
370
13
48
1
60
0
100
AcDbMText
10
-31.70776
20
35.140328
30
0
210
0
220
0
230
1
1
\W0.7563;462.1-0520-016A1-XM X2BM
40
3.5
41
0
44
1.084337
50
0
71
7
72
5
7
iso_b_vert
0
MTEXT
5
F5
100
AcDbEntity
8
SK2
62
256
6
ByLayer
370
18
48
1
60
0
100
AcDbMText
10
-46.189796
20
16.409024
30
0
210
0
220
0
230
1
1
%%c
40
3.5
41
0
44
1.084337
50
90
71
7
72
5
7
iso_b_vert
0
MTEXT
5
F6
100
AcDbEntity
8
SK2
62
256
6
ByLayer
370
18
48
1
60
0
100
AcDbMText
10
-46.189796
20
21.63168
30
0
210
0
220
0
230
1
1
\W0.7317;6,000
40
3.5
41
0
44
1.084337
50
90
71
7
72
5
7
iso_b_vert
0
MTEXT
5
FF
100
AcDbEntity
8
2
62
256
6
ByLayer
370
18
48
1
60
0
100
AcDbMText
10
40.518709
20
14.60211
30
0
210
0
220
0
230
1
1
%%c
40
3.5
41
0
44
1.084337
50
90
71
7
72
5
7
iso_b_vert
0
MTEXT
5
100
100
AcDbEntity
8
2
62
256
6
ByLayer
370
18
48
1
60
0
100
AcDbMText
10
40.518709
20
19.824766
30
0
210
0
220
0
230
1
1
\W0.7317;5,200
40
3.5
41
0
44
1.084337
50
90
71
7
72
5
7
iso_b_vert
0
HATCH
5
FA
100
AcDbEntity
8
SK2
62
256
6
ByLayer
370
13
48
1
60
0
100
AcDbHatch
10
0
20
0
30
0
210
0
220
0
230
1
2
ANSI31
70
0
71
0
91
1
92
5
93
3
72
1
10
-44.6251625675374
20
3
11
-45.0859463090902
21
6.49999830744682
72
1
10
-45.0859463090902
20
6.49999830744682
11
-44.1643788259847
21
6.50000169255318
72
1
10
-44.1643788259847
20
6.50000169255318
11
-44.6251625675374
21
3
97
0
75
0
76
1
52
0
41
0.0062
77
0
78
1
53
45
43
0
44
0
45
-0.0139193969876572
46
0.0139193969876572
79
0
47
0
98
1
10
0
20
0
0
HATCH
5
FE
100
AcDbEntity
8
SK2
62
256
6
ByLayer
370
13
48
1
60
0
100
AcDbHatch
10
0
20
0
30
0
210
0
220
0
230
1
2
ANSI31
70
0
71
0
91
1
92
5
93
3
72
1
10
-44.6251625675374
20
-3
11
-44.1643788259847
21
-6.49999830744682
72
1
10
-44.1643788259847
20
-6.49999830744682
11
-45.0859463090902
21
-6.50000169255318
72
1
10
-45.0859463090902
20
-6.50000169255318
11
-44.6251625675374
21
-3
97
0
75
0
76
1
52
0
41
0.0062
77
0
78
1
53
45
43
0
44
0
45
-0.0139193969876572
46
0.0139193969876572
79
0
47
0
98
1
10
0
20
0
0
HATCH
5
104
100
AcDbEntity
8
2
62
256
6
ByLayer
370
13
48
1
60
0
100
AcDbHatch
10
0
20
0
30
0
210
0
220
0
230
1
2
ANSI31
70
0
71
0
91
1
92
5
93
3
72
1
10
42.083342615295
20
2.60000000000002
11
41.6225588737423
21
6.09999830744684
72
1
10
41.6225588737423
20
6.09999830744684
11
42.5441263568478
21
6.10000169255321
72
1
10
42.5441263568478
20
6.10000169255321
11
42.083342615295
21
2.60000000000002
97
0
75
0
76
1
52
0
41
0.0062
77
0
78
1
53
45
43
0
44
0
45
-0.0139193969876572
46
0.0139193969876572
79
0
47
0
98
1
10
0
20
0
0
HATCH
5
108
100
AcDbEntity
8
2
62
256
6
ByLayer
370
13
48
1
60
0
100
AcDbHatch
10
0
20
0
30
0
210
0
220
0
230
1
2
ANSI31
70
0
71
0
91
1
92
5
93
3
72
1
10
42.083342615295
20
-2.59999999999999
11
42.5441263568478
21
-6.09999830744681
72
1
10
42.5441263568478
20
-6.09999830744681
11
41.6225588737423
21
-6.10000169255318
72
1
10
41.6225588737423
20
-6.10000169255318
11
42.083342615295
21
-2.59999999999999
97
0
75
0
76
1
52
0
41
0.0062
77
0
78
1
53
45
43
0
44
0
45
-0.0139193969876572
46
0.0139193969876572
79
0
47
0
98
1
10
0
20
0
0
DIMENSION
5
10A
100
AcDbEntity
8
SK2
62
256
6
ByLayer
370
13
48
1
60
0
100
AcDbDimension
2
_U0
10
29.2394
20
-12.813398
30
0
11
14.6197
21
-12.813398
31
0
70
32
71
1
72
1
41
1
210
0
220
0
230
1
3
Standard
100
AcDbAlignedDimension
13
0
23
0
33
0
14
29.2394
24
-2.6
34
0
50
0
100
AcDbRotatedDimension
1001
ACAD
1000
DSTYLE
1002
{
1070
   371
1070
    13
1070
   372
1070
    13
1070
   170
1070
     0
1070
   144
1040
1.0
1070
   277
1070
     2
1070
   278
1070
    44
1070
   146
1040
1.0
1070
   345
1005
16
1070
   347
1005
16
1070
   346
1005
16
1070
   344
1005
0
1070
   343
1005
0
1070
   172
1070
     1
1070
    76
1070
     0
1070
    75
1070
     0
1070
   282
1070
     0
1070
   281
1070
     0
1070
    71
1070
     0
1070
    74
1070
     0
1070
   279
1070
     0
1070
   173
1070
     1
1070
   340
1005
F2
1070
   271
1070
     2
1070
   272
1070
     2
1070
    77
1070
     1
1070
    73
1070
     1
1070
   171
1070
     3
1070
   274
1070
     4
1070
   177
1070
    35
1070
   176
1070
    35
1070
   178
1070
    35
1070
    48
1040
-0.1
1070
    41
1040
3.5
1070
   147
1040
1.75
1070
    42
1040
1.5875
1070
    44
1040
2.0
1070
   140
1040
3.5
1002
}
1001
ACAD_DSTYLE_DIM_LINETYPE
1070
   380
1005
16
1001
ACAD_DSTYLE_DIM_EXT1_LINETYPE
1070
   381
1005
16
1001
ACAD_DSTYLE_DIM_EXT2_LINETYPE
1070
   382
1005
16
0
DIMENSION
5
123
100
AcDbEntity
8
SK2
62
256
6
ByLayer
370
13
48
1
60
0
100
AcDbDimension
2
_U1
10
30
20
-31.692985
30
0
11
-3
21
-31.692985
31
0
70
32
71
1
72
1
41
1
210
0
220
0
230
1
3
Standard
100
AcDbAlignedDimension
13
-36
23
-3
33
0
14
30
24
0
34
0
50
0
100
AcDbRotatedDimension
1001
ACAD
1000
DSTYLE
1002
{
1070
   371
1070
    13
1070
   372
1070
    13
1070
   170
1070
     0
1070
   144
1040
1.0
1070
   277
1070
     2
1070
   278
1070
    44
1070
   146
1040
1.0
1070
   345
1005
16
1070
   347
1005
16
1070
   346
1005
16
1070
   344
1005
0
1070
   343
1005
0
1070
   172
1070
     1
1070
    76
1070
     0
1070
    75
1070
     0
1070
   282
1070
     0
1070
   281
1070
     0
1070
    71
1070
     0
1070
    74
1070
     0
1070
   279
1070
     0
1070
   173
1070
     1
1070
   340
1005
F2
1070
   271
1070
     2
1070
   272
1070
     2
1070
    77
1070
     1
1070
    73
1070
     1
1070
   171
1070
     3
1070
   274
1070
     4
1070
   177
1070
    35
1070
   176
1070
    35
1070
   178
1070
    35
1070
    48
1040
-0.1
1070
    41
1040
3.5
1070
   147
1040
1.75
1070
    42
1040
1.5875
1070
    44
1040
2.0
1070
   140
1040
3.5
1002
}
1001
ACAD_DSTYLE_DIM_LINETYPE
1070
   380
1005
16
1001
ACAD_DSTYLE_DIM_EXT1_LINETYPE
1070
   381
1005
16
1001
ACAD_DSTYLE_DIM_EXT2_LINETYPE
1070
   382
1005
16
0
DIMENSION
5
13B
100
AcDbEntity
8
SK2
62
256
6
ByLayer
370
13
48
1
60
0
100
AcDbDimension
2
_U2
10
30
20
14.209119
30
0
11
21.82
21
14.209119
31
0
70
32
71
1
72
1
41
1
210
0
220
0
230
1
3
Standard
100
AcDbAlignedDimension
13
13.64
23
2.6
33
0
14
30
24
0
34
0
50
0
100
AcDbRotatedDimension
1001
ACAD
1000
DSTYLE
1002
{
1070
   371
1070
    13
1070
   372
1070
    13
1070
   170
1070
     0
1070
   144
1040
1.0
1070
   277
1070
     2
1070
   278
1070
    44
1070
   146
1040
1.0
1070
   345
1005
16
1070
   347
1005
16
1070
   346
1005
16
1070
   344
1005
0
1070
   343
1005
0
1070
   172
1070
     1
1070
    76
1070
     0
1070
    75
1070
     0
1070
   282
1070
     0
1070
   281
1070
     0
1070
    71
1070
     0
1070
    74
1070
     0
1070
   279
1070
     0
1070
   173
1070
     1
1070
   340
1005
F2
1070
   271
1070
     2
1070
   272
1070
     2
1070
    77
1070
     1
1070
    73
1070
     1
1070
   171
1070
     3
1070
   274
1070
     4
1070
   177
1070
    35
1070
   176
1070
    35
1070
   178
1070
    35
1070
    48
1040
-0.1
1070
    41
1040
3.5
1070
   147
1040
1.75
1070
    42
1040
1.5875
1070
    44
1040
2.0
1070
   140
1040
3.5
1002
}
1001
ACAD_DSTYLE_DIM_LINETYPE
1070
   380
1005
16
1001
ACAD_DSTYLE_DIM_EXT1_LINETYPE
1070
   381
1005
16
1001
ACAD_DSTYLE_DIM_EXT2_LINETYPE
1070
   382
1005
16
0
DIMENSION
5
154
100
AcDbEntity
8
SK2
62
256
6
ByLayer
370
13
48
1
60
0
100
AcDbDimension
2
_U3
10
29.2394
20
-15.402503
30
0
11
47.583333
21
-15.402503
31
0
70
32
71
1
72
1
41
1
210
0
220
0
230
1
3
Standard
100
AcDbAlignedDimension
13
30
23
0
33
0
14
29.2394
24
-2.6
34
0
50
0
100
AcDbRotatedDimension
1001
ACAD
1000
DSTYLE
1002
{
1070
   371
1070
    13
1070
   372
1070
    13
1070
   170
1070
     0
1070
   144
1040
1.0
1070
   277
1070
     2
1070
   278
1070
    44
1070
   146
1040
1.0
1070
   345
1005
16
1070
   347
1005
16
1070
   346
1005
16
1070
   344
1005
0
1070
   343
1005
0
1070
   172
1070
     1
1070
    76
1070
     0
1070
    75
1070
     0
1070
   282
1070
     0
1070
   281
1070
     0
1070
    71
1070
     0
1070
    74
1070
     0
1070
   279
1070
     0
1070
   173
1070
     1
1070
   340
1005
F2
1070
   271
1070
     2
1070
   272
1070
     2
1070
    77
1070
     1
1070
    73
1070
     1
1070
   171
1070
     3
1070
   274
1070
     4
1070
   177
1070
    35
1070
   176
1070
    35
1070
   178
1070
    35
1070
    48
1040
-0.1
1070
    41
1040
3.5
1070
   147
1040
1.75
1070
    42
1040
1.5875
1070
    44
1040
2.0
1070
   140
1040
3.5
1002
}
1001
ACAD_DSTYLE_DIM_LINETYPE
1070
   380
1005
16
1001
ACAD_DSTYLE_DIM_EXT1_LINETYPE
1070
   381
1005
16
1001
ACAD_DSTYLE_DIM_EXT2_LINETYPE
1070
   382
1005
16
0
DIMENSION
5
16E
100
AcDbEntity
8
SK2
62
256
6
ByLayer
370
13
48
1
60
0
100
AcDbDimension
2
_U4
10
29.2394
20
-21.343428
30
0
11
-3.3803
21
-21.343428
31
0
70
32
71
1
72
1
41
1
210
0
220
0
230
1
3
Standard
100
AcDbAlignedDimension
13
-36
23
-3
33
0
14
29.2394
24
-2.6
34
0
50
0
100
AcDbRotatedDimension
1001
ACAD
1000
DSTYLE
1002
{
1070
   371
1070
    13
1070
   372
1070
    13
1070
   170
1070
     0
1070
   144
1040
1.0
1070
   277
1070
     2
1070
   278
1070
    44
1070
   146
1040
1.0
1070
   345
1005
16
1070
   347
1005
16
1070
   346
1005
16
1070
   344
1005
0
1070
   343
1005
0
1070
   172
1070
     1
1070
    76
1070
     0
1070
    75
1070
     0
1070
   282
1070
     0
1070
   281
1070
     0
1070
    71
1070
     0
1070
    74
1070
     0
1070
   279
1070
     0
1070
   173
1070
     1
1070
   340
1005
F2
1070
   271
1070
     2
1070
   272
1070
     2
1070
    77
1070
     1
1070
    73
1070
     1
1070
   171
1070
     3
1070
   274
1070
     4
1070
   177
1070
    35
1070
   176
1070
    35
1070
   178
1070
    35
1070
    48
1040
-0.1
1070
    41
1040
3.5
1070
   147
1040
1.75
1070
    42
1040
1.5875
1070
    44
1040
2.0
1070
   140
1040
3.5
1002
}
1001
ACAD_DSTYLE_DIM_LINETYPE
1070
   380
1005
16
1001
ACAD_DSTYLE_DIM_EXT1_LINETYPE
1070
   381
1005
16
1001
ACAD_DSTYLE_DIM_EXT2_LINETYPE
1070
   382
1005
16
0
ENDSEC
0
SECTION
2
OBJECTS
0
DICTIONARY
5
1f6
330
0
100
AcDbDictionary
280
0
281
1
3
ACAD_GROUP
350
1f7
3
ACAD_MLINESTYLE
350
1f8
0
DICTIONARY
5
1f7
330
0
100
AcDbDictionary
280
0
281
1
0
DICTIONARY
5
1f8
330
0
100
AcDbDictionary
280
0
281
1
3
Standard
350
18
0
MLINESTYLE
5
18
330
1f8
100
AcDbMlineStyle
2
Standard
70
0
3

62
256
51
90
52
90
71
2
49
-0.5
62
256
6
ByLayer
49
0.5
62
256
6
ByLayer
0
RASTERVARIABLES
5
1e4
330

100
AcDbRasterVariables
90
0
70
1
71
1
72
1
0
ENDSEC
0
EOF
