0
SECTION
2
HEADER
9
$ACADVER
1
AC1015
9
$DWGCODEPAGE
3
ANSI_1252
9
$HANDSEED
5
1fd
9
$ANGBASE
50
0
9
$ANGDIR
70
0
9
$ATTMODE
70
1
9
$AUNITS
70
0
9
$AUPREC
70
0
9
$CECOLOR
62
256
9
$CELTSCALE
40
1
9
$CELTYPE
6
ByLayer
9
$CELWEIGHT
370
18
9
$CLAYER
8
0
9
$CMLJUST
70
0
9
$CMLSCALE
40
1
9
$CMLSTYLE
2
Standard
9
$DIMSTYLE
2
Standard
9
$TEXTSIZE
40
0.2
9
$TEXTSTYLE
7
Standard
9
$LUNITS
70
2
9
$LUPREC
70
4
9
$EXTNAMES
290
1
9
$INSUNITS
70
4
9
$LTSCALE
40
1
9
$LWDISPLAY
290
1
9
$PDMODE
70
0
9
$PDSIZE
40
0
9
$PLINEGEN
70
0
0
ENDSEC
0
SECTION
2
CLASSES
0
CLASS
1
RASTERVARIABLES
2
AcDbRasterVariables
3
ISM
90
0
280
0
281
0
0
ENDSEC
0
SECTION
2
TABLES
0
TABLE
2
VPORT
5
1f3
100
AcDbSymbolTable
0
VPORT
5
1
100
AcDbSymbolTableRecord
100
AcDbViewportTableRecord
2
*Active
70
0
10
0
20
0
11
1
21
1
12
-1
22
1
13
0
23
0
14
0.5
24
0.5
15
10
25
10
16
0
26
0
36
1
17
0
27
0
37
0
0
ENDTAB
0
TABLE
2
LTYPE
5
1f4
100
AcDbSymbolTable
0
LTYPE
5
14
100
AcDbSymbolTableRecord
100
AcDbLinetypeTableRecord
70
0
2
ByBlock
3

72
65
73
0
40
0
0
LTYPE
5
15
100
AcDbSymbolTableRecord
100
AcDbLinetypeTableRecord
70
0
2
ByLayer
3

72
65
73
0
40
0
0
LTYPE
5
16
100
AcDbSymbolTableRecord
100
AcDbLinetypeTableRecord
70
0
2
Continuous
3
Solid line
72
65
73
0
40
0
0
LTYPE
5
6E
100
AcDbSymbolTableRecord
100
AcDbLinetypeTableRecord
70
0
2
CENTER
3
____ _ ____ _ ____ _ ____
72
65
73
4
40
47.5
49
22
74
0
49
-8.5
74
0
49
8.5
74
0
49
-8.5
74
0
0
LTYPE
5
6F
100
AcDbSymbolTableRecord
100
AcDbLinetypeTableRecord
70
0
2
DASHED
3
__ __ __ __ __ __ __ __ __
72
65
73
2
40
25.72
49
12.86
74
0
49
-12.86
74
0
0
ENDTAB
0
TABLE
2
LAYER
5
1f5
100
AcDbSymbolTable
0
LAYER
5
10
100
AcDbSymbolTableRecord
100
AcDbLayerTableRecord
2
0
70
0
62
7
6
Continuous
290
1
370
-3
390
0
0
LAYER
5
71
100
AcDbSymbolTableRecord
100
AcDbLayerTableRecord
2
80
70
0
62
-6
6
Continuous
290
1
370
-3
390
0
0
LAYER
5
73
100
AcDbSymbolTableRecord
100
AcDbLayerTableRecord
2
81
70
0
62
-3
6
Continuous
290
1
370
-3
390
0
0
LAYER
5
75
100
AcDbSymbolTableRecord
100
AcDbLayerTableRecord
2
1
70
0
62
4
6
Continuous
290
1
370
-3
390
0
0
LAYER
5
8A
100
AcDbSymbolTableRecord
100
AcDbLayerTableRecord
2
4
70
0
62
-2
6
CENTER
290
1
370
-3
390
0
0
LAYER
5
A3
100
AcDbSymbolTableRecord
100
AcDbLayerTableRecord
2
2
70
0
62
7
6
Continuous
290
1
370
-3
390
0
0
LAYER
5
107
100
AcDbSymbolTableRecord
100
AcDbLayerTableRecord
2
Defpoints
70
0
62
7
6
Continuous
290
0
370
-3
390
0
0
LAYER
5
1df
100
AcDbSymbolTableRecord
100
AcDbLayerTableRecord
2
SK1
70
0
62
4
6
Continuous
290
1
370
-3
390
0
0
LAYER
5
1e0
100
AcDbSymbolTableRecord
100
AcDbLayerTableRecord
2
SK4
70
0
62
2
6
CENTER
290
1
370
-3
390
0
0
LAYER
5
1e1
100
AcDbSymbolTableRecord
100
AcDbLayerTableRecord
2
SK2
70
0
62
7
6
Continuous
290
1
370
-3
390
0
0
LAYER
5
1e2
100
AcDbSymbolTableRecord
100
AcDbLayerTableRecord
2
SK6
70
0
62
5
6
Continuous
290
1
370
-3
390
0
0
ENDTAB
0
TABLE
2
STYLE
5
1f6
100
AcDbSymbolTable
0
STYLE
5
11
100
AcDbSymbolTableRecord
100
AcDbTextStyleTableRecord
2
Standard
3
txt
70
0
71
0
40
0
41
1
42
0
50
0
0
STYLE
5
EC
100
AcDbSymbolTableRecord
100
AcDbTextStyleTableRecord
2
iso_b_vert
3
simplex.shx
70
0
71
0
40
0
41
1
42
0
50
0
0
STYLE
5
ED
100
AcDbSymbolTableRecord
100
AcDbTextStyleTableRecord
2
DWGDirectTextStyle
3
simplex
70
0
71
0
40
0
41
1
42
0
50
0
0
ENDTAB
0
TABLE
2
DIMSTYLE
5
1f7
100
AcDbSymbolTable
100
AcDbDimStyleTable
0
DIMSTYLE
105
27
100
AcDbSymbolTableRecord
100
AcDbDimStyleTableRecord
2
Standard
70
0
3
<>
41
0.18
42
0.0625
44
0.18
140
0.18
147
0.09
73
0
74
0
77
1
271
2
275
0
278
52
280
0
340
11
0
ENDTAB
0
TABLE
2
VIEW
5
1f8
100
AcDbSymbolTable
0
ENDTAB
0
TABLE
2
UCS
5
1f9
100
AcDbSymbolTable
0
ENDTAB
0
TABLE
2
APPID
5
1fa
100
AcDbSymbolTable
0
APPID
5
12
100
AcDbSymbolTableRecord
100
AcDbRegAppTableRecord
2
ACAD
70
0
0
APPID
5
103
100
AcDbSymbolTableRecord
100
AcDbRegAppTableRecord
2
ACAD_DSTYLE_DIMBREAK
70
0
0
APPID
5
19E
100
AcDbSymbolTableRecord
100
AcDbRegAppTableRecord
2
ACAD_DSTYLE_DIM_LINETYPE
70
0
0
APPID
5
19F
100
AcDbSymbolTableRecord
100
AcDbRegAppTableRecord
2
ACAD_DSTYLE_DIM_EXT1_LINETYPE
70
0
0
APPID
5
1A0
100
AcDbSymbolTableRecord
100
AcDbRegAppTableRecord
2
ACAD_DSTYLE_DIM_EXT2_LINETYPE
70
0
0
APPID
5
1DB
100
AcDbSymbolTableRecord
100
AcDbRegAppTableRecord
2
ACAD_MLEADERVER
70
0
0
ENDTAB
0
TABLE
2
BLOCK_RECORD
5
1fb
100
AcDbSymbolTable
0
BLOCK_RECORD
5
1F
100
AcDbSymbolTableRecord
100
AcDbBlockTableRecord
2
*Model_Space
340
0
70
0
0
BLOCK_RECORD
5
1B
100
AcDbSymbolTableRecord
100
AcDbBlockTableRecord
2
*Paper_Space
340
0
70
0
0
BLOCK_RECORD
5
23
100
AcDbSymbolTableRecord
100
AcDbBlockTableRecord
2
*Paper_Space0
340
0
70
0
0
BLOCK_RECORD
5
108
100
AcDbSymbolTableRecord
100
AcDbBlockTableRecord
2
*D1
340
0
70
0
0
BLOCK_RECORD
5
114
100
AcDbSymbolTableRecord
100
AcDbBlockTableRecord
2
_U0
340
0
70
0
0
BLOCK_RECORD
5
120
100
AcDbSymbolTableRecord
100
AcDbBlockTableRecord
2
*D3
340
0
70
0
0
BLOCK_RECORD
5
12C
100
AcDbSymbolTableRecord
100
AcDbBlockTableRecord
2
_U1
340
0
70
0
0
BLOCK_RECORD
5
138
100
AcDbSymbolTableRecord
100
AcDbBlockTableRecord
2
*D5
340
0
70
0
0
BLOCK_RECORD
5
145
100
AcDbSymbolTableRecord
100
AcDbBlockTableRecord
2
_U2
340
0
70
0
0
BLOCK_RECORD
5
151
100
AcDbSymbolTableRecord
100
AcDbBlockTableRecord
2
*D7
340
0
70
0
0
BLOCK_RECORD
5
15F
100
AcDbSymbolTableRecord
100
AcDbBlockTableRecord
2
_U3
340
0
70
0
0
BLOCK_RECORD
5
16B
100
AcDbSymbolTableRecord
100
AcDbBlockTableRecord
2
*D9
340
0
70
0
0
BLOCK_RECORD
5
177
100
AcDbSymbolTableRecord
100
AcDbBlockTableRecord
2
_U4
340
0
70
0
0
ENDTAB
0
ENDSEC
0
SECTION
2
BLOCKS
0
BLOCK
5
20
100
AcDbEntity
8
0
100
AcDbBlockBegin
2
*Model_Space
70
0
10
0
20
0
30
0
3
*Model_Space
0
ENDBLK
5
21
100
AcDbEntity
8
0
100
AcDbBlockEnd
0
BLOCK
5
1C
100
AcDbEntity
8
0
100
AcDbBlockBegin
2
*Paper_Space
70
0
10
0
20
0
30
0
3
*Paper_Space
0
ENDBLK
5
1D
100
AcDbEntity
8
0
100
AcDbBlockEnd
0
BLOCK
5
24
100
AcDbEntity
8
0
100
AcDbBlockBegin
2
*Paper_Space0
70
0
10
0
20
0
30
0
3
*Paper_Space0
0
ENDBLK
5
25
100
AcDbEntity
8
0
100
AcDbBlockEnd
0
BLOCK
5
109
100
AcDbEntity
8
0
100
AcDbBlockBegin
2
*D1
70
1
10
0
20
0
30
0
3
*D1
0
LINE
5
10B
100
AcDbEntity
8
0
62
256
6
ByLayer
370
-2
48
1
60
0
100
AcDbLine
10
0
20
-1.5875
30
0
11
0
21
-13.788398
31
0
39
0
210
0
220
0
230
1
0
LINE
5
10C
100
AcDbEntity
8
0
62
256
6
ByLayer
370
-2
48
1
60
0
100
AcDbLine
10
25.5483
20
-3.1625
30
0
11
25.5483
21
-13.788398
31
0
39
0
210
0
220
0
230
1
0
LINE
5
10D
100
AcDbEntity
8
0
62
256
6
ByLayer
370
-2
48
1
60
0
100
AcDbLine
10
3.5
20
-11.788398
30
0
11
22.0483
21
-11.788398
31
0
39
0
210
0
220
0
230
1
0
SOLID
5
10E
100
AcDbEntity
8
0
62
256
6
ByLayer
370
-1
48
1
60
0
100
AcDbTrace
10
3.5
20
-11.205065
30
0
11
3.5
21
-12.371732
31
0
12
0
22
-11.788398
32
0
13
0
23
-11.788398
33
0
39
0
210
0
220
0
230
1
0
SOLID
5
10F
100
AcDbEntity
8
0
62
256
6
ByLayer
370
-1
48
1
60
0
100
AcDbTrace
10
22.0483
20
-12.371732
30
0
11
22.0483
21
-11.205065
31
0
12
25.5483
22
-11.788398
32
0
13
25.5483
23
-11.788398
33
0
39
0
210
0
220
0
230
1
0
MTEXT
5
110
100
AcDbEntity
8
0
62
256
6
ByLayer
370
18
48
1
60
0
100
AcDbMText
10
12.77415
20
-4.788398
30
0
210
0
220
0
230
1
1
\A1;25.55
40
3.5
41
0
44
1
50
0
71
5
72
5
7
iso_b_vert
0
POINT
5
111
100
AcDbEntity
8
Defpoints
62
0
6
ByLayer
370
-1
48
1
60
0
100
AcDbPoint
10
0
20
0
30
0
39
0
210
0
220
0
230
1
50
360
0
POINT
5
112
100
AcDbEntity
8
Defpoints
62
0
6
ByLayer
370
-1
48
1
60
0
100
AcDbPoint
10
25.5483
20
-1.575
30
0
39
0
210
0
220
0
230
1
50
360
0
POINT
5
113
100
AcDbEntity
8
Defpoints
62
0
6
ByLayer
370
-1
48
1
60
0
100
AcDbPoint
10
25.5483
20
-11.788398
30
0
39
0
210
0
220
0
230
1
50
360
0
ENDBLK
5
10A
100
AcDbEntity
8
0
100
AcDbBlockEnd
0
BLOCK
5
11B
100
AcDbEntity
8
0
100
AcDbBlockBegin
2
_U0
70
0
10
0
20
0
30
0
3
_U0
0
MTEXT
5
115
100
AcDbEntity
8
SK2
62
256
6
ByLayer
370
13
48
1
60
0
100
AcDbMText
10
7.636851
20
-10.755765
30
0
210
0
220
0
230
1
1
\W0.7317;25,55
40
3.5
41
0
44
1.084337
50
0
71
7
72
5
7
iso_b_vert
0
LINE
5
116
100
AcDbEntity
8
SK2
62
256
6
ByLayer
370
13
48
1
60
0
100
AcDbLine
10
0
20
-1.5875
30
0
11
0
21
-13.788398
31
0
39
0
210
0
220
0
230
1
0
LINE
5
117
100
AcDbEntity
8
SK2
62
256
6
ByLayer
370
13
48
1
60
0
100
AcDbLine
10
25.5483
20
-3.1625
30
0
11
25.5483
21
-13.788398
31
0
39
0
210
0
220
0
230
1
0
LINE
5
118
100
AcDbEntity
8
SK2
62
256
6
ByLayer
370
13
48
1
60
0
100
AcDbLine
10
0
20
-11.788398
30
0
11
25.5483
21
-11.788398
31
0
39
0
210
0
220
0
230
1
0
SOLID
5
119
100
AcDbEntity
8
SK2
62
256
6
ByLayer
370
18
48
1
60
0
100
AcDbTrace
10
0
20
-11.788398
30
0
11
3.499998
21
-11.327615
31
0
12
3.500002
22
-12.249182
32
0
13
3.500002
23
-12.249182
33
0
39
0
210
0
220
0
230
1
0
SOLID
5
11A
100
AcDbEntity
8
SK2
62
256
6
ByLayer
370
18
48
1
60
0
100
AcDbTrace
10
25.5483
20
-11.788398
30
0
11
22.048302
21
-12.249182
31
0
12
22.048298
22
-11.327615
32
0
13
22.048298
23
-11.327615
33
0
39
0
210
0
220
0
230
1
0
ENDBLK
5
11C
100
AcDbEntity
8
0
100
AcDbBlockEnd
0
BLOCK
5
121
100
AcDbEntity
8
0
100
AcDbBlockBegin
2
*D3
70
1
10
0
20
0
30
0
3
*D3
0
LINE
5
123
100
AcDbEntity
8
0
62
256
6
ByLayer
370
-2
48
1
60
0
100
AcDbLine
10
-36
20
-4.5875
30
0
11
-36
21
-33.692985
31
0
39
0
210
0
220
0
230
1
0
LINE
5
124
100
AcDbEntity
8
0
62
256
6
ByLayer
370
-2
48
1
60
0
100
AcDbLine
10
26
20
-1.5875
30
0
11
26
21
-33.692985
31
0
39
0
210
0
220
0
230
1
0
LINE
5
125
100
AcDbEntity
8
0
62
256
6
ByLayer
370
-2
48
1
60
0
100
AcDbLine
10
-32.5
20
-31.692985
30
0
11
22.5
21
-31.692985
31
0
39
0
210
0
220
0
230
1
0
SOLID
5
126
100
AcDbEntity
8
0
62
256
6
ByLayer
370
-1
48
1
60
0
100
AcDbTrace
10
-32.5
20
-31.109652
30
0
11
-32.5
21
-32.276319
31
0
12
-36
22
-31.692985
32
0
13
-36
23
-31.692985
33
0
39
0
210
0
220
0
230
1
0
SOLID
5
127
100
AcDbEntity
8
0
62
256
6
ByLayer
370
-1
48
1
60
0
100
AcDbTrace
10
22.5
20
-32.276319
30
0
11
22.5
21
-31.109652
31
0
12
26
22
-31.692985
32
0
13
26
23
-31.692985
33
0
39
0
210
0
220
0
230
1
0
MTEXT
5
128
100
AcDbEntity
8
0
62
256
6
ByLayer
370
18
48
1
60
0
100
AcDbMText
10
-5
20
-24.692985
30
0
210
0
220
0
230
1
1
\A1;62.00
40
3.5
41
0
44
1
50
0
71
5
72
5
7
iso_b_vert
0
POINT
5
129
100
AcDbEntity
8
Defpoints
62
0
6
ByLayer
370
-1
48
1
60
0
100
AcDbPoint
10
-36
20
-3
30
0
39
0
210
0
220
0
230
1
50
360
0
POINT
5
12A
100
AcDbEntity
8
Defpoints
62
0
6
ByLayer
370
-1
48
1
60
0
100
AcDbPoint
10
26
20
0
30
0
39
0
210
0
220
0
230
1
50
360
0
POINT
5
12B
100
AcDbEntity
8
Defpoints
62
0
6
ByLayer
370
-1
48
1
60
0
100
AcDbPoint
10
26
20
-31.692985
30
0
39
0
210
0
220
0
230
1
50
360
0
ENDBLK
5
122
100
AcDbEntity
8
0
100
AcDbBlockEnd
0
BLOCK
5
133
100
AcDbEntity
8
0
100
AcDbBlockBegin
2
_U1
70
0
10
0
20
0
30
0
3
_U1
0
MTEXT
5
12D
100
AcDbEntity
8
SK2
62
256
6
ByLayer
370
13
48
1
60
0
100
AcDbMText
10
-10.137299
20
-30.660352
30
0
210
0
220
0
230
1
1
\W0.7317;62,00
40
3.5
41
0
44
1.084337
50
0
71
7
72
5
7
iso_b_vert
0
LINE
5
12E
100
AcDbEntity
8
SK2
62
256
6
ByLayer
370
13
48
1
60
0
100
AcDbLine
10
-36
20
-4.5875
30
0
11
-36
21
-33.692985
31
0
39
0
210
0
220
0
230
1
0
LINE
5
12F
100
AcDbEntity
8
SK2
62
256
6
ByLayer
370
13
48
1
60
0
100
AcDbLine
10
26
20
-1.5875
30
0
11
26
21
-33.692985
31
0
39
0
210
0
220
0
230
1
0
LINE
5
130
100
AcDbEntity
8
SK2
62
256
6
ByLayer
370
13
48
1
60
0
100
AcDbLine
10
-36
20
-31.692985
30
0
11
26
21
-31.692985
31
0
39
0
210
0
220
0
230
1
0
SOLID
5
131
100
AcDbEntity
8
SK2
62
256
6
ByLayer
370
18
48
1
60
0
100
AcDbTrace
10
-36
20
-31.692985
30
0
11
-32.500002
21
-31.232202
31
0
12
-32.499998
22
-32.153769
32
0
13
-32.499998
23
-32.153769
33
0
39
0
210
0
220
0
230
1
0
SOLID
5
132
100
AcDbEntity
8
SK2
62
256
6
ByLayer
370
18
48
1
60
0
100
AcDbTrace
10
26
20
-31.692985
30
0
11
22.500002
21
-32.153769
31
0
12
22.499998
22
-31.232202
32
0
13
22.499998
23
-31.232202
33
0
39
0
210
0
220
0
230
1
0
ENDBLK
5
134
100
AcDbEntity
8
0
100
AcDbBlockEnd
0
BLOCK
5
139
100
AcDbEntity
8
0
100
AcDbBlockBegin
2
*D5
70
1
10
0
20
0
30
0
3
*D5
0
LINE
5
13B
100
AcDbEntity
8
0
62
256
6
ByLayer
370
-2
48
1
60
0
100
AcDbLine
10
16.1
20
3.1625
30
0
11
16.1
21
15.184119
31
0
39
0
210
0
220
0
230
1
0
LINE
5
13C
100
AcDbEntity
8
0
62
256
6
ByLayer
370
-2
48
1
60
0
100
AcDbLine
10
26
20
1.5875
30
0
11
26
21
15.184119
31
0
39
0
210
0
220
0
230
1
0
LINE
5
13D
100
AcDbEntity
8
0
62
256
6
ByLayer
370
-2
48
1
60
0
100
AcDbLine
10
12.6
20
13.184119
30
0
11
9.1
21
13.184119
31
0
39
0
210
0
220
0
230
1
0
LINE
5
13E
100
AcDbEntity
8
0
62
256
6
ByLayer
370
-2
48
1
60
0
100
AcDbLine
10
29.5
20
13.184119
30
0
11
33
21
13.184119
31
0
39
0
210
0
220
0
230
1
0
SOLID
5
13F
100
AcDbEntity
8
0
62
256
6
ByLayer
370
-1
48
1
60
0
100
AcDbTrace
10
12.6
20
12.600786
30
0
11
12.6
21
13.767453
31
0
12
16.1
22
13.184119
32
0
13
16.1
23
13.184119
33
0
39
0
210
0
220
0
230
1
0
SOLID
5
140
100
AcDbEntity
8
0
62
256
6
ByLayer
370
-1
48
1
60
0
100
AcDbTrace
10
29.5
20
13.767453
30
0
11
29.5
21
12.600786
31
0
12
26
22
13.184119
32
0
13
26
23
13.184119
33
0
39
0
210
0
220
0
230
1
0
MTEXT
5
141
100
AcDbEntity
8
0
62
256
6
ByLayer
370
18
48
1
60
0
100
AcDbMText
10
21.05
20
20.184119
30
0
210
0
220
0
230
1
1
\A1;9.90
40
3.5
41
0
44
1
50
0
71
5
72
5
7
iso_b_vert
0
POINT
5
142
100
AcDbEntity
8
Defpoints
62
0
6
ByLayer
370
-1
48
1
60
0
100
AcDbPoint
10
16.1
20
1.575
30
0
39
0
210
0
220
0
230
1
50
360
0
POINT
5
143
100
AcDbEntity
8
Defpoints
62
0
6
ByLayer
370
-1
48
1
60
0
100
AcDbPoint
10
26
20
0
30
0
39
0
210
0
220
0
230
1
50
360
0
POINT
5
144
100
AcDbEntity
8
Defpoints
62
0
6
ByLayer
370
-1
48
1
60
0
100
AcDbPoint
10
26
20
13.184119
30
0
39
0
210
0
220
0
230
1
50
360
0
ENDBLK
5
13A
100
AcDbEntity
8
0
100
AcDbBlockEnd
0
BLOCK
5
14C
100
AcDbEntity
8
0
100
AcDbBlockBegin
2
_U2
70
0
10
0
20
0
30
0
3
_U2
0
MTEXT
5
146
100
AcDbEntity
8
SK2
62
256
6
ByLayer
370
13
48
1
60
0
100
AcDbMText
10
17.220434
20
14.216753
30
0
210
0
220
0
230
1
1
\W0.7150;9,90
40
3.5
41
0
44
1.084337
50
0
71
7
72
5
7
iso_b_vert
0
LINE
5
147
100
AcDbEntity
8
SK2
62
256
6
ByLayer
370
13
48
1
60
0
100
AcDbLine
10
16.1
20
3.1625
30
0
11
16.1
21
15.184119
31
0
39
0
210
0
220
0
230
1
0
LINE
5
148
100
AcDbEntity
8
SK2
62
256
6
ByLayer
370
13
48
1
60
0
100
AcDbLine
10
26
20
1.5875
30
0
11
26
21
15.184119
31
0
39
0
210
0
220
0
230
1
0
LINE
5
149
100
AcDbEntity
8
SK2
62
256
6
ByLayer
370
13
48
1
60
0
100
AcDbLine
10
16.1
20
13.184119
30
0
11
26
21
13.184119
31
0
39
0
210
0
220
0
230
1
0
SOLID
5
14A
100
AcDbEntity
8
SK2
62
256
6
ByLayer
370
18
48
1
60
0
100
AcDbTrace
10
16.1
20
13.184119
30
0
11
19.599998
21
13.644903
31
0
12
19.600002
22
12.723335
32
0
13
19.600002
23
12.723335
33
0
39
0
210
0
220
0
230
1
0
SOLID
5
14B
100
AcDbEntity
8
SK2
62
256
6
ByLayer
370
18
48
1
60
0
100
AcDbTrace
10
26
20
13.184119
30
0
11
22.500002
21
12.723335
31
0
12
22.499998
22
13.644903
32
0
13
22.499998
23
13.644903
33
0
39
0
210
0
220
0
230
1
0
ENDBLK
5
14D
100
AcDbEntity
8
0
100
AcDbBlockEnd
0
BLOCK
5
152
100
AcDbEntity
8
0
100
AcDbBlockBegin
2
*D7
70
1
10
0
20
0
30
0
3
*D7
0
LINE
5
154
100
AcDbEntity
8
0
62
256
6
ByLayer
370
-2
48
1
60
0
100
AcDbLine
10
26
20
-1.5875
30
0
11
26
21
-16.377503
31
0
39
0
210
0
220
0
230
1
0
LINE
5
155
100
AcDbEntity
8
0
62
256
6
ByLayer
370
-2
48
1
60
0
100
AcDbLine
10
25.5483
20
-3.1625
30
0
11
25.5483
21
-16.377503
31
0
39
0
210
0
220
0
230
1
0
LINE
5
156
100
AcDbEntity
8
0
62
256
6
ByLayer
370
-2
48
1
60
0
100
AcDbLine
10
26
20
-14.377503
30
0
11
54.166667
21
-14.377503
31
0
39
0
210
0
220
0
230
1
0
LINE
5
157
100
AcDbEntity
8
0
62
256
6
ByLayer
370
-2
48
1
60
0
100
AcDbLine
10
29.5
20
-14.377503
30
0
11
33
21
-14.377503
31
0
39
0
210
0
220
0
230
1
0
LINE
5
158
100
AcDbEntity
8
0
62
256
6
ByLayer
370
-2
48
1
60
0
100
AcDbLine
10
22.0483
20
-14.377503
30
0
11
18.5483
21
-14.377503
31
0
39
0
210
0
220
0
230
1
0
SOLID
5
159
100
AcDbEntity
8
0
62
256
6
ByLayer
370
-1
48
1
60
0
100
AcDbTrace
10
29.5
20
-13.79417
30
0
11
29.5
21
-14.960837
31
0
12
26
22
-14.377503
32
0
13
26
23
-14.377503
33
0
39
0
210
0
220
0
230
1
0
SOLID
5
15A
100
AcDbEntity
8
0
62
256
6
ByLayer
370
-1
48
1
60
0
100
AcDbTrace
10
22.0483
20
-14.960837
30
0
11
22.0483
21
-13.79417
31
0
12
25.5483
22
-14.377503
32
0
13
25.5483
23
-14.377503
33
0
39
0
210
0
220
0
230
1
0
MTEXT
5
15B
100
AcDbEntity
8
0
62
256
6
ByLayer
370
18
48
1
60
0
100
AcDbMText
10
43.583333
20
-7.377503
30
0
210
0
220
0
230
1
1
\A1;0.45
40
3.5
41
0
44
1
50
0
71
5
72
5
7
iso_b_vert
0
POINT
5
15C
100
AcDbEntity
8
Defpoints
62
0
6
ByLayer
370
-1
48
1
60
0
100
AcDbPoint
10
26
20
0
30
0
39
0
210
0
220
0
230
1
50
360
0
POINT
5
15D
100
AcDbEntity
8
Defpoints
62
0
6
ByLayer
370
-1
48
1
60
0
100
AcDbPoint
10
25.5483
20
-1.575
30
0
39
0
210
0
220
0
230
1
50
360
0
POINT
5
15E
100
AcDbEntity
8
Defpoints
62
0
6
ByLayer
370
-1
48
1
60
0
100
AcDbPoint
10
25.5483
20
-14.377503
30
0
39
0
210
0
220
0
230
1
50
360
0
ENDBLK
5
153
100
AcDbEntity
8
0
100
AcDbBlockEnd
0
BLOCK
5
166
100
AcDbEntity
8
0
100
AcDbBlockBegin
2
_U3
70
0
10
0
20
0
30
0
3
_U3
0
MTEXT
5
160
100
AcDbEntity
8
SK2
62
256
6
ByLayer
370
13
48
1
60
0
100
AcDbMText
10
31.967593
20
-13.34487
30
0
210
0
220
0
230
1
1
\W0.7493;0,45
40
3.5
41
0
44
1.084337
50
0
71
7
72
5
7
iso_b_vert
0
LINE
5
161
100
AcDbEntity
8
SK2
62
256
6
ByLayer
370
13
48
1
60
0
100
AcDbLine
10
26
20
-1.5875
30
0
11
26
21
-16.377503
31
0
39
0
210
0
220
0
230
1
0
LINE
5
162
100
AcDbEntity
8
SK2
62
256
6
ByLayer
370
13
48
1
60
0
100
AcDbLine
10
25.5483
20
-3.1625
30
0
11
25.5483
21
-16.377503
31
0
39
0
210
0
220
0
230
1
0
LINE
5
163
100
AcDbEntity
8
SK2
62
256
6
ByLayer
370
13
48
1
60
0
100
AcDbLine
10
16.7983
20
-14.377503
30
0
11
40.180758
21
-14.377503
31
0
39
0
210
0
220
0
230
1
0
SOLID
5
164
100
AcDbEntity
8
SK2
62
256
6
ByLayer
370
18
48
1
60
0
100
AcDbTrace
10
26
20
-14.377503
30
0
11
29.499998
21
-13.916719
31
0
12
29.500002
22
-14.838287
32
0
13
29.500002
23
-14.838287
33
0
39
0
210
0
220
0
230
1
0
SOLID
5
165
100
AcDbEntity
8
SK2
62
256
6
ByLayer
370
18
48
1
60
0
100
AcDbTrace
10
25.5483
20
-14.377503
30
0
11
22.048302
21
-14.838287
31
0
12
22.048298
22
-13.916719
32
0
13
22.048298
23
-13.916719
33
0
39
0
210
0
220
0
230
1
0
ENDBLK
5
167
100
AcDbEntity
8
0
100
AcDbBlockEnd
0
BLOCK
5
16C
100
AcDbEntity
8
0
100
AcDbBlockBegin
2
*D9
70
1
10
0
20
0
30
0
3
*D9
0
LINE
5
16E
100
AcDbEntity
8
0
62
256
6
ByLayer
370
-2
48
1
60
0
100
AcDbLine
10
-36
20
-4.5875
30
0
11
-36
21
-23.343428
31
0
39
0
210
0
220
0
230
1
0
LINE
5
16F
100
AcDbEntity
8
0
62
256
6
ByLayer
370
-2
48
1
60
0
100
AcDbLine
10
25.5483
20
-3.1625
30
0
11
25.5483
21
-23.343428
31
0
39
0
210
0
220
0
230
1
0
LINE
5
170
100
AcDbEntity
8
0
62
256
6
ByLayer
370
-2
48
1
60
0
100
AcDbLine
10
-32.5
20
-21.343428
30
0
11
22.0483
21
-21.343428
31
0
39
0
210
0
220
0
230
1
0
SOLID
5
171
100
AcDbEntity
8
0
62
256
6
ByLayer
370
-1
48
1
60
0
100
AcDbTrace
10
-32.5
20
-20.760095
30
0
11
-32.5
21
-21.926762
31
0
12
-36
22
-21.343428
32
0
13
-36
23
-21.343428
33
0
39
0
210
0
220
0
230
1
0
SOLID
5
172
100
AcDbEntity
8
0
62
256
6
ByLayer
370
-1
48
1
60
0
100
AcDbTrace
10
22.0483
20
-21.926762
30
0
11
22.0483
21
-20.760095
31
0
12
25.5483
22
-21.343428
32
0
13
25.5483
23
-21.343428
33
0
39
0
210
0
220
0
230
1
0
MTEXT
5
173
100
AcDbEntity
8
0
62
256
6
ByLayer
370
18
48
1
60
0
100
AcDbMText
10
-5.22585
20
-14.343428
30
0
210
0
220
0
230
1
1
\A1;61.55
40
3.5
41
0
44
1
50
0
71
5
72
5
7
iso_b_vert
0
POINT
5
174
100
AcDbEntity
8
Defpoints
62
0
6
ByLayer
370
-1
48
1
60
0
100
AcDbPoint
10
-36
20
-3
30
0
39
0
210
0
220
0
230
1
50
360
0
POINT
5
175
100
AcDbEntity
8
Defpoints
62
0
6
ByLayer
370
-1
48
1
60
0
100
AcDbPoint
10
25.5483
20
-1.575
30
0
39
0
210
0
220
0
230
1
50
360
0
POINT
5
176
100
AcDbEntity
8
Defpoints
62
0
6
ByLayer
370
-1
48
1
60
0
100
AcDbPoint
10
25.5483
20
-21.343428
30
0
39
0
210
0
220
0
230
1
50
360
0
ENDBLK
5
16D
100
AcDbEntity
8
0
100
AcDbBlockEnd
0
BLOCK
5
17E
100
AcDbEntity
8
0
100
AcDbBlockBegin
2
_U4
70
0
10
0
20
0
30
0
3
_U4
0
MTEXT
5
178
100
AcDbEntity
8
SK2
62
256
6
ByLayer
370
13
48
1
60
0
100
AcDbMText
10
-9.925715
20
-20.310795
30
0
210
0
220
0
230
1
1
\W0.6713;61,55
40
3.5
41
0
44
1.084337
50
0
71
7
72
5
7
iso_b_vert
0
LINE
5
179
100
AcDbEntity
8
SK2
62
256
6
ByLayer
370
13
48
1
60
0
100
AcDbLine
10
-36
20
-4.5875
30
0
11
-36
21
-23.343428
31
0
39
0
210
0
220
0
230
1
0
LINE
5
17A
100
AcDbEntity
8
SK2
62
256
6
ByLayer
370
13
48
1
60
0
100
AcDbLine
10
25.5483
20
-3.1625
30
0
11
25.5483
21
-23.343428
31
0
39
0
210
0
220
0
230
1
0
LINE
5
17B
100
AcDbEntity
8
SK2
62
256
6
ByLayer
370
13
48
1
60
0
100
AcDbLine
10
-36
20
-21.343428
30
0
11
25.5483
21
-21.343428
31
0
39
0
210
0
220
0
230
1
0
SOLID
5
17C
100
AcDbEntity
8
SK2
62
256
6
ByLayer
370
18
48
1
60
0
100
AcDbTrace
10
-36
20
-21.343428
30
0
11
-32.500002
21
-20.882645
31
0
12
-32.499998
22
-21.804212
32
0
13
-32.499998
23
-21.804212
33
0
39
0
210
0
220
0
230
1
0
SOLID
5
17D
100
AcDbEntity
8
SK2
62
256
6
ByLayer
370
18
48
1
60
0
100
AcDbTrace
10
25.5483
20
-21.343428
30
0
11
22.048302
21
-21.804212
31
0
12
22.048298
22
-20.882645
32
0
13
22.048298
23
-20.882645
33
0
39
0
210
0
220
0
230
1
0
ENDBLK
5
17F
100
AcDbEntity
8
0
100
AcDbBlockEnd
0
ENDSEC
0
SECTION
2
ENTITIES
0
ARC
5
AC
100
AcDbEntity
8
1
62
256
6
ByLayer
370
18
48
1
60
0
100
AcDbCircle
39
0
10
1.591977
20
-2.360033
30
0
40
0.799999999999999
210
0
220
0
230
1
100
AcDbArc
50
89.96419
51
174.259652
0
ARC
5
AD
100
AcDbEntity
8
1
62
256
6
ByLayer
370
18
48
1
60
0
100
AcDbCircle
39
0
10
1.591977
20
2.360033
30
0
40
0.799999999999999
210
0
220
0
230
1
100
AcDbArc
50
185.740348
51
270.03581
0
ARC
5
AE
100
AcDbEntity
8
1
62
256
6
ByLayer
370
18
48
1
60
0
100
AcDbCircle
39
0
10
0
20
-2.2
30
0
40
0.799999999999999
210
0
220
0
230
1
100
AcDbArc
50
270
51
354.259652
0
ARC
5
AF
100
AcDbEntity
8
1
62
256
6
ByLayer
370
18
48
1
60
0
100
AcDbCircle
39
0
10
0
20
2.2
30
0
40
0.799999999999999
210
0
220
0
230
1
100
AcDbArc
50
5.740348
51
90
0
ELLIPSE
5
B0
100
AcDbEntity
8
1
62
256
6
ByLayer
370
18
48
1
60
0
100
AcDbEllipse
10
8.25
20
-1.735667
30
0
11
0.25
21
0
31
0
210
0
220
0
230
1
40
1
41
1.57325293103574
42
2.36998241339909
0
ELLIPSE
5
B1
100
AcDbEntity
8
1
62
256
6
ByLayer
370
18
48
1
60
0
100
AcDbEllipse
10
8.25
20
1.735667
30
0
11
0.25
21
0
31
0
210
0
220
0
230
1
40
1
41
-2.36321611994512
42
-1.56662130158228
0
POINT
5
70
100
AcDbEntity
8
80
62
256
6
ByLayer
370
18
48
1
60
0
100
AcDbPoint
10
0
20
0
30
0
39
0
210
0
220
0
230
1
50
360
0
POINT
5
72
100
AcDbEntity
8
81
62
256
6
ByLayer
370
18
48
1
60
0
100
AcDbPoint
10
26
20
0
30
0
39
0
210
0
220
0
230
1
50
360
0
POINT
5
74
100
AcDbEntity
8
1
62
256
6
ByLayer
370
18
48
1
60
1
100
AcDbPoint
10
25.5483
20
-1.575
30
0
39
0
210
0
220
0
230
1
50
360
0
POINT
5
76
100
AcDbEntity
8
1
62
256
6
ByLayer
370
18
48
1
60
1
100
AcDbPoint
10
-36
20
-3
30
0
39
0
210
0
220
0
230
1
50
360
0
POINT
5
77
100
AcDbEntity
8
1
62
256
6
ByLayer
370
18
48
1
60
1
100
AcDbPoint
10
16.1
20
1.575
30
0
39
0
210
0
220
0
230
1
50
360
0
POINT
5
78
100
AcDbEntity
8
1
62
256
6
ByLayer
370
18
48
1
60
1
100
AcDbPoint
10
25.5483
20
-1.575
30
0
39
0
210
0
220
0
230
1
50
360
0
POINT
5
79
100
AcDbEntity
8
1
62
256
6
ByLayer
370
18
48
1
60
1
100
AcDbPoint
10
-36
20
-3
30
0
39
0
210
0
220
0
230
1
50
360
0
POINT
5
7A
100
AcDbEntity
8
1
62
256
6
ByLayer
370
18
48
1
60
1
100
AcDbPoint
10
25.5483
20
-1.575
30
0
39
0
210
0
220
0
230
1
50
360
0
SPLINE
5
B2
100
AcDbEntity
8
SK1
62
256
6
ByLayer
370
18
48
1
60
0
100
AcDbSpline
70
4
71
3
72
12
73
8
40
0
40
0
40
0
40
0
40
0.500000000000002
40
0.500000000000002
40
0.750000000000001
40
0.750000000000001
40
1
40
1
40
1
40
1
41
1
10
-35.75
20
2.29148352837086
30
0
41
1
10
-35.7259913046562
20
2.31641723584644
30
0
41
1
10
-35.7033433879313
20
2.34115246981924
30
0
41
1
10
-35.6754686754417
20
2.37299015268692
30
0
41
1
10
-35.667025596347
20
2.38292928514642
30
0
41
1
10
-35.6543350076412
20
2.39873898271387
30
0
41
1
10
-35.65
20
2.40473711241057
30
0
41
1
10
-35.65
20
2.40623144161984
30
0
0
SPLINE
5
B3
100
AcDbEntity
8
SK1
62
256
6
ByLayer
370
18
48
1
60
0
100
AcDbSpline
70
4
71
3
72
8
73
4
40
0
40
0
40
0
40
0
40
1
40
1
40
1
40
1
41
1
10
-35.9999999999999
20
-2.02998100590713
30
0
41
1
10
-35.9170321540622
20
-2.11747283765339
30
0
41
1
10
-35.8336570722555
20
-2.20460329860333
30
0
41
1
10
-35.7499999999999
20
-2.29148352837078
30
0
0
SPLINE
5
B4
100
AcDbEntity
8
SK1
62
256
6
ByLayer
370
18
48
1
60
0
100
AcDbSpline
70
4
71
3
72
8
73
4
40
0
40
0
40
0
40
0
40
1
40
1
40
1
40
1
41
1
10
-35.9999999999999
20
2.02998100590713
30
0
41
1
10
-35.9170321540622
20
2.11747283765339
30
0
41
1
10
-35.8336570722555
20
2.20460329860333
30
0
41
1
10
-35.7499999999999
20
2.29148352837078
30
0
0
SPLINE
5
B5
100
AcDbEntity
8
SK1
62
256
6
ByLayer
370
18
48
1
60
0
100
AcDbSpline
70
4
71
3
72
12
73
8
40
0
40
0
40
0
40
0
40
0.499999999999998
40
0.499999999999998
40
0.749999999999999
40
0.749999999999999
40
1
40
1
40
1
40
1
41
1
10
-35.75
20
-2.29148352837083
30
0
41
1
10
-35.7259913046562
20
-2.31641723584644
30
0
41
1
10
-35.7033433879313
20
-2.34115246981924
30
0
41
1
10
-35.6754686754417
20
-2.37299015268692
30
0
41
1
10
-35.667025596347
20
-2.38292928514642
30
0
41
1
10
-35.6543350076412
20
-2.39873898271387
30
0
41
1
10
-35.65
20
-2.40473711241057
30
0
41
1
10
-35.65
20
-2.40623144161984
30
0
0
SPLINE
5
B6
100
AcDbEntity
8
SK1
62
256
6
ByLayer
370
18
48
1
60
0
100
AcDbSpline
70
4
71
3
72
8
73
4
40
0
40
0
40
0
40
0
40
1
40
1
40
1
40
1
41
1
10
-35.75
20
-2.01221776169294
30
0
41
1
10
-35.8336558133131
20
-1.92533883937281
30
0
41
1
10
-35.9170307444345
20
-1.83820855746606
30
0
41
1
10
-36
20
-1.75071523922929
30
0
0
SPLINE
5
B7
100
AcDbEntity
8
SK1
62
256
6
ByLayer
370
18
48
1
60
0
100
AcDbSpline
70
4
71
3
72
12
73
8
40
0
40
0
40
0
40
0
40
0.249999999999999
40
0.249999999999999
40
0.499999999999998
40
0.499999999999998
40
1
40
1
40
1
40
1
41
1
10
-35.65
20
-2.16420111049911
30
0
41
1
10
-35.65
20
-2.15640088308262
30
0
41
1
10
-35.6543403470552
20
-2.14465042004335
30
0
41
1
10
-35.6670034572333
20
-2.11950355425742
30
0
41
1
10
-35.6754069618006
20
-2.10581157171714
30
0
41
1
10
-35.7033744297257
20
-2.06489415258841
30
0
41
1
10
-35.7260009806424
20
-2.03714142038405
30
0
41
1
10
-35.7500000000001
20
-2.012217761693
30
0
0
SPLINE
5
B8
100
AcDbEntity
8
1
62
256
6
ByLayer
370
18
48
1
60
0
100
AcDbSpline
70
4
71
3
72
8
73
4
40
0
40
0
40
0
40
0
40
1
40
1
40
1
40
1
41
1
10
25.9712128879012
20
0.432530867801205
30
0
41
1
10
25.9796466943
20
0.320011992579509
30
0
41
1
10
25.9858850500084
20
0.207659089393957
30
0
41
1
10
25.9899306846689
20
0.0954719518885838
30
0
0
SPLINE
5
B9
100
AcDbEntity
8
1
62
256
6
ByLayer
370
18
48
1
60
0
100
AcDbSpline
70
4
71
3
72
8
73
4
40
0
40
0
40
0
40
0
40
1
40
1
40
1
40
1
41
1
10
25.9790710670443
20
-0.0172665265489229
30
0
41
1
10
25.8996699409191
20
-0.147617153686127
30
0
41
1
10
25.822019759908
20
-0.279560356898202
30
0
41
1
10
25.7461436097325
20
-0.413117133855422
30
0
0
SPLINE
5
BA
100
AcDbEntity
8
1
62
256
6
ByLayer
370
18
48
1
60
0
100
AcDbSpline
70
4
71
3
72
26
73
22
40
0
40
0
40
0
40
0
40
0.25000000000001
40
0.25000000000001
40
0.375000000000015
40
0.375000000000015
40
0.50000000000002
40
0.50000000000002
40
0.75000000000003
40
0.75000000000003
40
0.81250000000003
40
0.81250000000003
40
0.843750000000026
40
0.843750000000026
40
0.859375000000024
40
0.859375000000024
40
0.867187500000024
40
0.867187500000024
40
0.875000000000023
40
0.875000000000023
40
1
40
1
40
1
40
1
41
1
10
24.0073265373517
20
0.623533492882615
30
0
41
1
10
24.1220486133288
20
0.520232326205644
30
0
41
1
10
24.242836929066
20
0.429992300907429
30
0
41
1
10
24.4332894056809
20
0.31459138503061
30
0
41
1
10
24.4983800723204
20
0.279577681765375
30
0
41
1
10
24.6286218155695
20
0.218825128752456
30
0
41
1
10
24.6941736304067
20
0.192851812043244
30
0
41
1
10
24.8922255475856
20
0.129199665256294
30
0
41
1
10
25.0275046916641
20
0.105290941841901
30
0
41
1
10
25.1909228037236
20
0.108248237326222
30
0
41
1
10
25.2234617315439
20
0.110478372320841
30
0
41
1
10
25.2714873747195
20
0.11673882217292
30
0
41
1
10
25.2872819939649
20
0.119658721924424
30
0
41
1
10
25.3110908907254
20
0.12365072928398
30
0
41
1
10
25.3193612092619
20
0.124531810001173
30
0
41
1
10
25.3296327667554
20
0.130450085000092
30
0
41
1
10
25.3325674247459
20
0.133445792235619
30
0
41
1
10
25.3364256347174
20
0.141304892435784
30
0
41
1
10
25.3370320987081
20
0.14602210645694
30
0
41
1
10
25.3506613547009
20
0.223516998690286
30
0
41
1
10
25.356325542047
20
0.299852386081596
30
0
41
1
10
25.3568947830239
20
0.376585964176968
30
0
0
SPLINE
5
BB
100
AcDbEntity
8
1
62
256
6
ByLayer
370
18
48
1
60
0
100
AcDbSpline
70
4
71
3
72
10
73
6
40
0
40
0
40
0
40
0
40
0.5
40
0.5
40
1
40
1
40
1
40
1
41
1
10
25.5399330111923
20
-1.52105113972567
30
0
41
1
10
25.6074552433447
20
-1.33779457488311
30
0
41
1
10
25.6775577822836
20
-1.15549976659344
30
0
41
1
10
25.8217753433859
20
-0.79241935350089
30
0
41
1
10
25.8958307417826
20
-0.61187726772414
30
0
41
1
10
25.9712128879012
20
-0.432530867801233
30
0
0
SPLINE
5
BC
100
AcDbEntity
8
1
62
256
6
ByLayer
370
18
48
1
60
0
100
AcDbSpline
70
4
71
3
72
10
73
6
40
0
40
0
40
0
40
0
40
0.5
40
0.5
40
1
40
1
40
1
40
1
41
1
10
8.06832379087652
20
-0.437266754406807
30
0
41
1
10
8.09278275625491
20
-0.441291877125423
30
0
41
1
10
8.12212145847761
20
-0.449362679717012
30
0
41
1
10
8.18416681849314
20
-0.472021961599722
30
0
41
1
10
8.21726440979839
20
-0.486722618015278
30
0
41
1
10
8.25021638615272
20
-0.503954974673491
30
0
0
SPLINE
5
BD
100
AcDbEntity
8
1
62
256
6
ByLayer
370
18
48
1
60
0
100
AcDbSpline
70
4
71
3
72
26
73
22
40
0
40
0
40
0
40
0
40
0.106247266284033
40
0.106247266284033
40
0.212494532568065
40
0.212494532568065
40
0.318741798852098
40
0.318741798852098
40
0.424989065136131
40
0.424989065136131
40
0.531236331420163
40
0.531236331420163
40
0.637483597704196
40
0.637483597704196
40
0.743730863988229
40
0.743730863988229
40
0.849978130272262
40
0.849978130272262
40
0.956225396556294
40
0.956225396556294
40
1
40
1
40
1
40
1
41
1
10
9.38059196419712
20
-1.01076174443091
30
0
41
1
10
9.53333774975613
20
-1.0686935705433
30
0
41
1
10
9.68578949489307
20
-1.12174725238677
30
0
41
1
10
9.98997261942162
20
-1.21922971869012
30
0
41
1
10
10.1421192276746
20
-1.26348360661552
30
0
41
1
10
10.4471617400298
20
-1.34029600937023
30
0
41
1
10
10.5997426355052
20
-1.3728585777836
30
0
41
1
10
10.904234870878
20
-1.4259385736957
30
0
41
1
10
11.0564753913702
20
-1.44678635465092
30
0
41
1
10
11.3608541355436
20
-1.47681923905628
30
0
41
1
10
11.5138342363201
20
-1.48503677576744
30
0
41
1
10
11.8185530315218
20
-1.48841252904344
30
0
41
1
10
11.9705872477309
20
-1.48389018426278
30
0
41
1
10
12.2752063002315
20
-1.46403715634131
30
0
41
1
10
12.427748504715
20
-1.4483364110213
30
0
41
1
10
12.7327091324508
20
-1.40205901019888
30
0
41
1
10
12.8849379271779
20
-1.37253191045366
30
0
41
1
10
13.1891985236108
20
-1.30250459740637
30
0
41
1
10
13.3414255329808
20
-1.26270726869174
30
0
41
1
10
13.5569991595842
20
-1.19910122212269
30
0
41
1
10
13.619864050478
20
-1.17957369750022
30
0
41
1
10
13.6826297052167
20
-1.15925643937993
30
0
0
SPLINE
5
BE
100
AcDbEntity
8
1
62
256
6
ByLayer
370
18
48
1
60
0
100
AcDbSpline
70
4
71
3
72
22
73
18
40
0
40
0
40
0
40
0
40
0.0215220545600912
40
0.0215220545600912
40
0.161304618194364
40
0.161304618194364
40
0.301087181828636
40
0.301087181828636
40
0.440869745462909
40
0.440869745462909
40
0.580652309097182
40
0.580652309097182
40
0.720434872731454
40
0.720434872731454
40
0.860217436365727
40
0.860217436365727
40
1
40
1
40
1
40
1
41
1
10
20.7383474177851
20
1.49225902553087
30
0
41
1
10
20.7618161887734
20
1.49236185988386
30
0
41
1
10
20.7852759376247
20
1.49232363985067
30
0
41
1
10
20.9610095883271
20
1.49096329660583
30
0
41
1
10
21.1131105194509
20
1.48252343537016
30
0
41
1
10
21.417475891766
20
1.45344860693021
30
0
41
1
10
21.5700782090737
20
1.43210209859333
30
0
41
1
10
21.8750780013583
20
1.37938476910358
30
0
41
1
10
22.0270934490525
20
1.34714464766796
30
0
41
1
10
22.3314431776112
20
1.27048331939426
30
0
41
1
10
22.4840236745499
20
1.22650501374019
30
0
41
1
10
22.7889431786503
20
1.12883540319356
30
0
41
1
10
22.9413068429695
20
1.0762885053183
30
0
41
1
10
23.2455949198734
20
0.959922836933259
30
0
41
1
10
23.3976327764888
20
0.896836641806971
30
0
41
1
10
23.702871149168
20
0.764657918940685
30
0
41
1
10
23.8552388672293
20
0.695373925972547
30
0
41
1
10
24.0073265373517
20
0.623533492882615
30
0
0
SPLINE
5
BF
100
AcDbEntity
8
1
62
256
6
ByLayer
370
18
48
1
60
0
100
AcDbSpline
70
4
71
3
72
8
73
4
40
0
40
0
40
0
40
0
40
1
40
1
40
1
40
1
41
1
10
25.4534365083495
20
1.57099746124806
30
0
41
1
10
25.385448047182
20
1.5736117547128
30
0
41
1
10
25.3173831242725
20
1.57487839357981
30
0
41
1
10
25.2493003219386
20
1.57480810340658
30
0
0
SPLINE
5
C0
100
AcDbEntity
8
1
62
256
6
ByLayer
370
18
48
1
60
0
100
AcDbSpline
70
4
71
3
72
34
73
30
40
0
40
0
40
0
40
0
40
0.0282714967680019
40
0.0282714967680019
40
0.149737559672006
40
0.149737559672006
40
0.210470591124008
40
0.210470591124008
40
0.27120362257601
40
0.27120362257601
40
0.392669685480014
40
0.392669685480014
40
0.453402716932015
40
0.453402716932015
40
0.514135748384016
40
0.514135748384016
40
0.635601811288017
40
0.635601811288017
40
0.696334842740016
40
0.696334842740016
40
0.726701358466015
40
0.726701358466015
40
0.757067874192013
40
0.757067874192013
40
0.878533937096006
40
0.878533937096006
40
0.939266968548003
40
0.939266968548003
40
1
40
1
40
1
40
1
41
1
10
17.0842881568624
20
-1.50368137088344
30
0
41
1
10
17.0002163027739
20
-1.51683700634663
30
0
41
1
10
16.9157693577438
20
-1.52811561974869
30
0
41
1
10
16.4697763992221
20
-1.5771143777273
30
0
41
1
10
16.1128866189981
20
-1.57942959057198
30
0
41
1
10
15.5765685643076
20
-1.5285084843195
30
0
41
1
10
15.3975371706522
20
-1.50249943352981
30
0
41
1
10
15.0376095696222
20
-1.43285293451231
30
0
41
1
10
14.8559210127697
20
-1.38882807510569
30
0
41
1
10
14.3147796009031
20
-1.23356973275452
30
0
41
1
10
13.9580515618152
20
-1.09989044512531
30
0
41
1
10
13.4212241076683
20
-0.864912523953024
30
0
41
1
10
13.241888619739
20
-0.780986368455331
30
0
41
1
10
12.8810803797813
20
-0.603853906303186
30
0
41
1
10
12.6992661805254
20
-0.510450548499307
30
0
41
1
10
12.1592386927232
20
-0.225611859062809
30
0
41
1
10
11.8030573885868
20
-0.0276203432272268
30
0
41
1
10
11.2653960845809
20
0.264444269286088
30
0
41
1
10
11.0856451078954
20
0.361041953101761
30
0
41
1
10
10.8142696619208
20
0.503024282268484
30
0
41
1
10
10.7234768952263
20
0.549834215965745
30
0
41
1
10
10.542889950492
20
0.641100156611088
30
0
41
1
10
10.4528695062944
20
0.68568295179989
30
0
41
1
10
10.0036760539128
20
0.902682984239647
30
0
41
1
10
9.64745388733323
20
1.05767705941196
30
0
41
1
10
9.10890509252033
20
1.24935557756754
30
0
41
1
10
8.92852231616428
20
1.30650600685928
30
0
41
1
10
8.56576446933167
20
1.40522572303092
30
0
41
1
10
8.38471345800801
20
1.44628351308933
30
0
41
1
10
8.20318871772918
20
1.47847620378781
30
0
0
SPLINE
5
C1
100
AcDbEntity
8
1
62
256
6
ByLayer
370
18
48
1
60
0
100
AcDbSpline
70
4
71
3
72
51
73
47
40
0
40
0
40
0
40
0
40
0.124999999999996
40
0.124999999999996
40
0.187499999999994
40
0.187499999999994
40
0.249999999999991
40
0.249999999999991
40
0.312499999999989
40
0.312499999999989
40
0.343749999999988
40
0.343749999999988
40
0.374999999999987
40
0.374999999999987
40
0.406249999999986
40
0.406249999999986
40
0.421874999999985
40
0.421874999999985
40
0.437499999999984
40
0.437499999999984
40
0.468749999999982
40
0.468749999999982
40
0.48437499999998
40
0.48437499999998
40
0.499999999999978
40
0.499999999999978
40
0.531249999999977
40
0.531249999999977
40
0.539062499999977
40
0.542968749999977
40
0.542968749999977
40
0.546874999999976
40
0.546874999999976
40
0.550781249999976
40
0.550781249999976
40
0.554687499999976
40
0.554687499999976
40
0.562499999999976
40
0.562499999999976
40
0.624999999999979
40
0.624999999999979
40
0.749999999999986
40
0.749999999999986
40
0.874999999999993
40
0.874999999999993
40
1
40
1
40
1
40
1
41
1
10
8.06832379087689
20
-0.437266754403396
30
0
41
1
10
7.83366895607043
20
-0.308818262304754
30
0
41
1
10
7.60098300015483
20
-0.174312972568316
30
0
41
1
10
7.2543755659259
20
0.0362596657648453
30
0
41
1
10
7.13926980842973
20
0.107968708680119
30
0
41
1
10
6.91036671456908
20
0.25549421008273
30
0
41
1
10
6.79626961103787
20
0.331490471316101
30
0
41
1
10
6.57551946893514
20
0.486820603510353
30
0
41
1
10
6.46819231639984
20
0.566328908432638
30
0
41
1
10
6.31619087235984
20
0.692241990285169
30
0
41
1
10
6.26679049264865
20
0.735626792085782
30
0
41
1
10
6.1753944424018
20
0.82407616735523
30
0
41
1
10
6.13309544835624
20
0.869236964175826
30
0
41
1
10
6.06035493765336
20
0.96346298539072
30
0
41
1
10
6.02970245185264
20
1.01301846990592
30
0
41
1
10
6.0048308599952
20
1.08728741802807
30
0
41
1
10
6.00017478196196
20
1.11194614417701
30
0
41
1
10
5.99983209236711
20
1.15919008180251
30
0
41
1
10
6.00424693840213
20
1.18240510256504
30
0
41
1
10
6.03095270783905
20
1.24647464443297
30
0
41
1
10
6.06675408582188
20
1.28229657678702
30
0
41
1
10
6.13307230393011
20
1.32555451169998
30
0
41
1
10
6.15760422892313
20
1.3385413664129
30
0
41
1
10
6.20923200783997
20
1.36185277519337
30
0
41
1
10
6.23625672819193
20
1.37218010099556
30
0
41
1
10
6.3200384153273
20
1.40033240572072
30
0
41
1
10
6.37953971786413
20
1.41539936651509
30
0
41
1
10
6.45660238742155
20
1.43147983595299
30
0
41
1
10
6.47988877307395
20
1.43608119372436
30
0
41
1
10
6.50340358772749
20
1.44038741562764
30
0
41
1
10
6.51912878825166
20
1.44319624488617
30
0
41
1
10
6.52685363551421
20
1.44469747309003
30
0
41
1
10
6.54269620384162
20
1.44736725273975
30
0
41
1
10
6.55089998960375
20
1.44838903226181
30
0
41
1
10
6.56782793717198
20
1.44923436136801
30
0
41
1
10
6.57655921262307
20
1.4492295291011
30
0
41
1
10
6.602272336298
20
1.4484850978387
30
0
41
1
10
6.61932783103356
20
1.4476707375886
30
0
41
1
10
6.77310798974739
20
1.44133326561661
30
0
41
1
10
6.9093008298982
20
1.43400865428697
30
0
41
1
10
7.31594712549943
20
1.40601800126296
30
0
41
1
10
7.58391888662311
20
1.37933693652204
30
0
41
1
10
8.10958945825848
20
1.30420743390351
30
0
41
1
10
8.36801159070345
20
1.25560255634511
30
0
41
1
10
8.87831491015248
20
1.13166534973715
30
0
41
1
10
9.13021358400829
20
1.05629082970029
30
0
41
1
10
9.38059196419709
20
0.967172809525806
30
0
0
SPLINE
5
C2
100
AcDbEntity
8
1
62
256
6
ByLayer
370
18
48
1
60
0
100
AcDbSpline
70
4
71
3
72
30
73
26
40
0
40
0
40
0
40
0
40
0.117396452194623
40
0.117396452194623
40
0.201717452123362
40
0.201717452123362
40
0.286038452052101
40
0.286038452052101
40
0.454680451909579
40
0.454680451909579
40
0.539001451838317
40
0.539001451838317
40
0.581161951802687
40
0.581161951802687
40
0.59170207679378
40
0.59170207679378
40
0.602242201784872
40
0.602242201784872
40
0.623322451767056
40
0.623322451767056
40
0.791964451624534
40
0.791964451624534
40
0.960606451482012
40
0.960606451482012
40
1
40
1
40
1
40
1
41
1
10
9.38059196419709
20
0.967172809525948
30
0
41
1
10
9.38059196419709
20
0.908384980894709
30
0
41
1
10
9.38059196419709
20
0.844021084309446
30
0
41
1
10
9.38059196419709
20
0.724314858559666
30
0
41
1
10
9.38059196419707
20
0.671576763156452
30
0
41
1
10
9.38059196419707
20
0.563123923974274
30
0
41
1
10
9.38059196419709
20
0.507130297241815
30
0
41
1
10
9.38059196419709
20
0.334138573761379
30
0
41
1
10
9.38059196419709
20
0.212173517869473
30
0
41
1
10
9.38059196419709
20
0.0195134995474575
30
0
41
1
10
9.38059196419709
20
-0.0458572605505196
30
0
41
1
10
9.38059196419709
20
-0.145299148580477
30
0
41
1
10
9.38059196419712
20
-0.178701246512873
30
0
41
1
10
9.38059196419712
20
-0.220690221580725
30
0
41
1
10
9.38059196419709
20
-0.229629086560294
30
0
41
1
10
9.38059196419709
20
-0.245998727510539
30
0
41
1
10
9.38059196419712
20
-0.253642020849014
30
0
41
1
10
9.38059196419712
20
-0.277145200049773
30
0
41
1
10
9.38059196419709
20
-0.292725736090887
30
0
41
1
10
9.38059196419709
20
-0.43207375266249
30
0
41
1
10
9.38059196419709
20
-0.549733570867318
30
0
41
1
10
9.38059196419709
20
-0.767123793798987
30
0
41
1
10
9.38059196419715
20
-0.865193773693619
30
0
41
1
10
9.38059196419715
20
-0.97211359930148
30
0
41
1
10
9.38059196419712
20
-0.99178297698478
30
0
41
1
10
9.38059196419712
20
-1.01076174443091
30
0
0
SPLINE
5
C3
100
AcDbEntity
8
1
62
256
6
ByLayer
370
18
48
1
60
0
100
AcDbSpline
70
4
71
3
72
14
73
10
40
0
40
0
40
0
40
0
40
0.25
40
0.25
40
0.5
40
0.5
40
0.75
40
0.75
40
1
40
1
40
1
40
1
41
1
10
25.344615230356
20
-1.16855841533501
30
0
41
1
10
25.344142108674
20
-1.22163018592354
30
0
41
1
10
25.3460237150813
20
-1.26854543836544
30
0
41
1
10
25.3546187035381
20
-1.35028058970423
30
0
41
1
10
25.3614459052732
20
-1.38531985454523
30
0
41
1
10
25.3799229773884
20
-1.44079329736039
30
0
41
1
10
25.3915351599974
20
-1.46151236295137
30
0
41
1
10
25.4198228391468
20
-1.48929598895771
30
0
41
1
10
25.4366150258157
20
-1.49629378397407
30
0
41
1
10
25.4558214435136
20
-1.49622456660001
30
0
0
SPLINE
5
C4
100
AcDbEntity
8
1
62
256
6
ByLayer
370
18
48
1
60
0
100
AcDbSpline
70
4
71
3
72
10
73
6
40
0
40
0
40
0
40
0
40
0.5
40
0.5
40
1
40
1
40
1
40
1
41
1
10
25.5399330111945
20
1.52105113972388
30
0
41
1
10
25.5238833272036
20
1.53402521230214
30
0
41
1
10
25.5086049717526
20
1.54474485715849
30
0
41
1
10
25.4797932853158
20
1.56142151004545
30
0
41
1
10
25.4662146603978
20
1.56741605438589
30
0
41
1
10
25.4534365083496
20
1.57099746124806
30
0
0
SPLINE
5
C5
100
AcDbEntity
8
1
62
256
6
ByLayer
370
18
48
1
60
0
100
AcDbSpline
70
4
71
3
72
8
73
4
40
0
40
0
40
0
40
0
40
1
40
1
40
1
40
1
41
1
10
25.5404507921886
20
-0.787343559288672
30
0
41
1
10
25.4736474451147
20
-0.913028268624572
30
0
41
1
10
25.4083637609038
20
-1.04009519074265
30
0
41
1
10
25.344615230356
20
-1.16855841533501
30
0
0
SPLINE
5
C6
100
AcDbEntity
8
1
62
256
6
ByLayer
370
18
48
1
60
0
100
AcDbSpline
70
4
71
3
72
14
73
10
40
0
40
0
40
0
40
0
40
0.368783138212892
40
0.368783138212892
40
0.663331374942112
40
0.663331374942112
40
0.957879611671332
40
0.957879611671332
40
1
40
1
40
1
40
1
41
1
10
16.4540892355846
20
-1.49051796777238
30
0
41
1
10
16.230022612475
20
-1.49042721384956
30
0
41
1
10
16.0068890972771
20
-1.47667379450903
30
0
41
1
10
15.6049470514429
20
-1.42802412881471
30
0
41
1
10
15.4262071961597
20
-1.39802708290461
30
0
41
1
10
15.0669074981382
20
-1.32150099015797
30
0
41
1
10
14.8857468086066
20
-1.27463941218562
30
0
41
1
10
14.6804001600894
20
-1.21330196197155
30
0
41
1
10
14.6547265780306
20
-1.20548861186524
30
0
41
1
10
14.629068409607
20
-1.19753832991367
30
0
0
SPLINE
5
C7
100
AcDbEntity
8
1
62
256
6
ByLayer
370
13
48
1
60
0
100
AcDbSpline
70
4
71
3
72
22
73
18
40
0
40
0
40
0
40
0
40
0.174531510380323
40
0.174531510380323
40
0.268517154206379
40
0.268517154206379
40
0.362502798032436
40
0.362502798032436
40
0.55047408568455
40
0.55047408568455
40
0.644459729510606
40
0.644459729510606
40
0.738445373336663
40
0.738445373336663
40
0.926416660988773
40
0.926416660988773
40
1
40
1
40
1
40
1
41
1
10
14.6290693646704
20
-1.19753862584375
30
0
41
1
10
14.2958716262051
20
-1.09429607356987
30
0
41
1
10
13.9652732001047
20
-0.967961745394405
30
0
41
1
10
13.4546240819454
20
-0.74659528420554
30
0
41
1
10
13.2754090408114
20
-0.664159635655608
30
0
41
1
10
12.9148740606202
20
-0.491411211990908
30
0
41
1
10
12.7342369988756
20
-0.401459402843983
30
0
41
1
10
12.1965943806336
20
-0.128238283968926
30
0
41
1
10
11.8410838519017
20
0.0598511904882457
30
0
41
1
10
11.3040375368653
20
0.334860600988122
30
0
41
1
10
11.1241836738493
20
0.425393273677457
30
0
41
1
10
10.7628629747093
20
0.60149414797155
30
0
41
1
10
10.583406995872
20
0.685896233128602
30
0
41
1
10
10.0465722791016
20
0.924591850096164
30
0
41
1
10
9.69092068831418
20
1.0647448273883
30
0
41
1
10
9.1916664526897
20
1.22246994071784
30
0
41
1
10
9.05033620394772
20
1.26271102171435
30
0
41
1
10
8.90896587229184
20
1.29828729179496
30
0
0
SPLINE
5
C8
100
AcDbEntity
8
1
62
256
6
ByLayer
370
18
48
1
60
0
100
AcDbSpline
70
4
71
3
72
52
73
48
40
0
40
0
40
0
40
0
40
0.0230703716050815
40
0.0230703716050815
40
0.0684912341151709
40
0.0684912341151709
40
0.11391209662526
40
0.11391209662526
40
0.15933295913535
40
0.15933295913535
40
0.204753821645439
40
0.204753821645439
40
0.250174684155529
40
0.250174684155529
40
0.295595546665618
40
0.295595546665618
40
0.341016409175707
40
0.341016409175707
40
0.386437271685797
40
0.386437271685797
40
0.431858134195886
40
0.431858134195886
40
0.477278996705976
40
0.477278996705976
40
0.522699859216065
40
0.522699859216065
40
0.568120721726154
40
0.568120721726154
40
0.613541584236244
40
0.613541584236244
40
0.658962446746333
40
0.658962446746333
40
0.704383309256422
40
0.704383309256422
40
0.749804171766512
40
0.749804171766512
40
0.795225034276601
40
0.795225034276601
40
0.840645896786691
40
0.840645896786691
40
0.88606675929678
40
0.88606675929678
40
0.931487621806869
40
0.931487621806869
40
0.976908484316959
40
0.976908484316959
40
1
40
1
40
1
40
1
41
1
10
13.6733432058789
20
1.1593694521487
30
0
41
1
10
13.7591940087176
20
1.19095882346196
30
0
41
1
10
13.8447865846965
20
1.22093581910425
30
0
41
1
10
14.0980739068254
20
1.30526711080762
30
0
41
1
10
14.2661052920631
20
1.35385384002265
30
0
41
1
10
14.6010516233945
20
1.43781792178447
30
0
41
1
10
14.7685916748767
20
1.47253301388181
30
0
41
1
10
15.1052429363206
20
1.52650654008269
30
0
41
1
10
15.2735086456416
20
1.54611475923204
30
0
41
1
10
15.6137294005864
20
1.56858115518142
30
0
41
1
10
15.7823638691397
20
1.57160227108395
30
0
41
1
10
16.1186617460132
20
1.56136720843048
30
0
41
1
10
16.2865800388146
20
1.54830839682472
30
0
41
1
10
16.6211578521758
20
1.50604044791425
30
0
41
1
10
16.789122624843
20
1.4774187643138
30
0
41
1
10
17.1251134561486
20
1.40443223895014
30
0
41
1
10
17.2936647012367
20
1.36029533331228
30
0
41
1
10
17.6336626414604
20
1.25813052695685
30
0
41
1
10
17.8022094253436
20
1.19960121617683
30
0
41
1
10
18.1388881691186
20
1.0729309073823
30
0
41
1
10
18.306281121949
20
1.00354111304586
30
0
41
1
10
18.6411912331563
20
0.855473409752932
30
0
41
1
10
18.8090899901235
20
0.777472703566502
30
0
41
1
10
19.1445449410757
20
0.611347931011608
30
0
41
1
10
19.3135186836809
20
0.525626236037056
30
0
41
1
10
19.6527946267796
20
0.346598500699173
30
0
41
1
10
19.8218450923196
20
0.25485158865547
30
0
41
1
10
20.1586209641902
20
0.0720481254472247
30
0
41
1
10
20.3257041391522
20
-0.021082216988674
30
0
41
1
10
20.6609508273439
20
-0.203910213547999
30
0
41
1
10
20.8283019012336
20
-0.295126026927221
30
0
41
1
10
21.1640565401848
20
-0.47418872085268
30
0
41
1
10
21.3330135463731
20
-0.561039400894884
30
0
41
1
10
21.6716866885562
20
-0.731853762730168
30
0
41
1
10
21.8413861738428
20
-0.812558488427584
30
0
41
1
10
22.177719723323
20
-0.965187947438352
30
0
41
1
10
22.3450451537391
20
-1.03683451495863
30
0
41
1
10
22.6803841135601
20
-1.16768474517102
30
0
41
1
10
22.8473510608361
20
-1.22823165587531
30
0
41
1
10
23.183393348043
20
-1.33515829078411
30
0
41
1
10
23.3518247852845
20
-1.38233307148766
30
0
41
1
10
23.6907427615312
20
-1.46240085869644
30
0
41
1
10
23.8606055924414
20
-1.49448984849835
30
0
41
1
10
24.1964681167091
20
-1.54342936874639
30
0
41
1
10
24.3642995283645
20
-1.55967651202226
30
0
41
1
10
24.6168522138935
20
-1.57227904954058
30
0
41
1
10
24.7018823476936
20
-1.57443844337422
30
0
41
1
10
24.7869968996701
20
-1.57451369129853
30
0
0
SPLINE
5
C9
100
AcDbEntity
8
1
62
256
6
ByLayer
370
18
48
1
60
0
100
AcDbSpline
70
4
71
3
72
8
73
4
40
0
40
0
40
0
40
0
40
1
40
1
40
1
40
1
41
1
10
25.9899306846689
20
-0.095471951888527
30
0
41
1
10
25.9905686198861
20
-0.0777817420845111
30
0
41
1
10
25.9944183075221
20
-0.0554727481312796
30
0
41
1
10
25.9999382068148
20
-0.0321481972608808
30
0
0
SPLINE
5
CA
100
AcDbEntity
8
1
62
256
6
ByLayer
370
13
48
1
60
0
100
AcDbSpline
70
4
71
3
72
32
73
28
40
0
40
0
40
0
40
0
40
0.0745600825819871
40
0.0745600825819871
40
0.149120165163974
40
0.149120165163974
40
0.298240330327946
40
0.298240330327946
40
0.335520371618939
40
0.335520371618939
40
0.372800412909932
40
0.372800412909932
40
0.447360495491918
40
0.447360495491918
40
0.59648066065589
40
0.59648066065589
40
0.671040743237875
40
0.671040743237875
40
0.745600825819859
40
0.745600825819859
40
0.894720990983827
40
0.894720990983827
40
0.932001032274819
40
0.932001032274819
40
0.969281073565812
40
0.969281073565812
40
1
40
1
40
1
40
1
41
1
10
25.4558214739079
20
-1.49622456661086
30
0
41
1
10
25.275710416004
20
-1.49627630775987
30
0
41
1
10
25.0953652285171
20
-1.48733648262424
30
0
41
1
10
24.7347204551529
20
-1.45197165979508
30
0
41
1
10
24.5555704872711
20
-1.4256879056978
30
0
41
1
10
24.0197705811057
20
-1.32290341968979
30
0
41
1
10
23.6648454043389
20
-1.22217542405096
30
0
41
1
10
23.2170854562009
20
-1.06291312890807
30
0
41
1
10
23.1273397428732
20
-1.02938109159791
30
0
41
1
10
22.9473229872733
20
-0.959134588131832
30
0
41
1
10
22.8569302368556
20
-0.922380537184011
30
0
41
1
10
22.5871028399991
20
-0.808783636162389
30
0
41
1
10
22.4082762958867
20
-0.728299496630626
30
0
41
1
10
21.8729324138879
20
-0.476377202464335
30
0
41
1
10
21.5177493250806
20
-0.294053260322357
30
0
41
1
10
20.9794333336338
20
-0.0142337705022157
30
0
41
1
10
20.7983826837809
20
0.0805025088314153
30
0
41
1
10
20.4392372032329
20
0.266452488192897
30
0
41
1
10
20.2605766980672
20
0.357929641291321
30
0
41
1
10
19.7253260094551
20
0.624034001037757
30
0
41
1
10
19.3696342090687
20
0.790485642107541
30
0
41
1
10
18.9196017982336
20
0.972849592480685
30
0
41
1
10
18.8291475850633
20
1.00808125588685
30
0
41
1
10
18.6490114097085
20
1.07515405047985
30
0
41
1
10
18.5592024460355
20
1.10705685283537
30
0
41
1
10
18.3957066651075
20
1.16207937462113
30
0
41
1
10
18.3219677299508
20
1.18575536637968
30
0
41
1
10
18.2483007160897
20
1.20821218839666
30
0
0
SPLINE
5
CB
100
AcDbEntity
8
1
62
256
6
ByLayer
370
18
48
1
60
0
100
AcDbSpline
70
4
71
3
72
10
73
6
40
0
40
0
40
0
40
0
40
0.95222655152426
40
0.95222655152426
40
1
40
1
40
1
40
1
41
1
10
18.2483012192766
20
1.20821203500401
30
0
41
1
10
18.1431656367764
20
1.24026181567658
30
0
41
1
10
18.0381765454625
20
1.26982836341628
30
0
41
1
10
17.92792344418
20
1.29815317039913
30
0
41
1
10
17.9226562835765
20
1.29949979858975
30
0
41
1
10
17.9173891157494
20
1.30083986180455
30
0
0
SPLINE
5
CC
100
AcDbEntity
8
1
62
256
6
ByLayer
370
18
48
1
60
0
100
AcDbSpline
70
4
71
3
72
8
73
4
40
0
40
0
40
0
40
0
40
1
40
1
40
1
40
1
41
1
10
25.9999382068102
20
0.0321481972805771
30
0
41
1
10
26.0000206137627
20
0.0107118949366338
30
0
41
1
10
26.0000205808076
20
-0.0107204674109482
30
0
41
1
10
25.9999382068103
20
-0.0321481972463573
30
0
0
SPLINE
5
CD
100
AcDbEntity
8
1
62
256
6
ByLayer
370
18
48
1
60
0
100
AcDbSpline
70
4
71
3
72
22
73
18
40
0
40
0
40
0
40
0
40
0.125
40
0.125
40
0.25
40
0.25
40
0.375
40
0.375
40
0.5
40
0.5
40
0.625
40
0.625
40
0.75
40
0.75
40
0.875
40
0.875
40
1
40
1
40
1
40
1
41
1
10
25.7461436097313
20
-0.413117133857128
30
0
41
1
10
25.7447000953807
20
-0.433403734245502
30
0
41
1
10
25.7408826644054
20
-0.457505429077571
30
0
41
1
10
25.7290852432052
20
-0.508645344158111
30
0
41
1
10
25.7209997064467
20
-0.536196621063397
30
0
41
1
10
25.7023180498178
20
-0.589889216908318
30
0
41
1
10
25.6916354747296
20
-0.616380059930691
30
0
41
1
10
25.6693726723206
20
-0.665296856016909
30
0
41
1
10
25.6578237076201
20
-0.687714617301395
30
0
41
1
10
25.6349073626521
20
-0.727234579177519
30
0
41
1
10
25.623471264559
20
-0.744399769498585
30
0
41
1
10
25.6021800498596
20
-0.7717246216354
30
0
41
1
10
25.5920583906938
20
-0.782286173417589
30
0
41
1
10
25.5734894750122
20
-0.796447543918333
30
0
41
1
10
25.5652312528981
20
-0.79996571862813
30
0
41
1
10
25.5508004566406
20
-0.799473993965535
30
0
41
1
10
25.5448697969352
20
-0.795403550216463
30
0
41
1
10
25.5404507921885
20
-0.787343559288701
30
0
0
SPLINE
5
CE
100
AcDbEntity
8
1
62
256
6
ByLayer
370
18
48
1
60
0
100
AcDbSpline
70
4
71
3
72
8
73
4
40
0
40
0
40
0
40
0
40
1
40
1
40
1
40
1
41
1
10
8.20318871774589
20
-1.47847620378389
30
0
41
1
10
8.18243858855061
20
-1.48215615666589
30
0
41
1
10
8.16185431623092
20
-1.4858313162988
30
0
41
1
10
8.14246705404193
20
-1.48989728077805
30
0
0
SPLINE
5
CF
100
AcDbEntity
8
1
62
256
6
ByLayer
370
18
48
1
60
0
100
AcDbSpline
70
4
71
3
72
24
73
20
40
0
40
0
40
0
40
0
40
0.0624999999999993
40
0.0624999999999993
40
0.124999999999999
40
0.124999999999999
40
0.187499999999998
40
0.187499999999998
40
0.249999999999997
40
0.249999999999997
40
0.374999999999998
40
0.374999999999998
40
0.5
40
0.5
40
0.625000000000002
40
0.625000000000002
40
0.750000000000003
40
0.750000000000003
40
1
40
1
40
1
40
1
41
1
10
24.0073265373517
20
0.623533492882501
30
0
41
1
10
24.0002651208101
20
0.576577290015251
30
0
41
1
10
23.9967609638611
20
0.528275961097592
30
0
41
1
10
23.9972102832431
20
0.428853307549616
30
0
41
1
10
24.001263174387
20
0.377787704465078
30
0
41
1
10
24.0163634373634
20
0.277032644799931
30
0
41
1
10
24.0273931400889
20
0.226812713524794
30
0
41
1
10
24.0559555708153
20
0.126667389391002
30
0
41
1
10
24.0735802657988
20
0.0766744280954015
30
0
41
1
10
24.1335383079541
20
-0.0680598424465586
30
0
41
1
10
24.1834969624867
20
-0.159698718320158
30
0
41
1
10
24.2978670331472
20
-0.333794816964371
30
0
41
1
10
24.3606433964841
20
-0.413910965748983
30
0
41
1
10
24.4942691979321
20
-0.564134594304477
30
0
41
1
10
24.5655492597171
20
-0.63451023281587
30
0
41
1
10
24.7130124338626
20
-0.765418531981254
30
0
41
1
10
24.7886036078206
20
-0.825506005675521
30
0
41
1
10
25.0198290949899
20
-0.992920274841936
30
0
41
1
10
25.1798858550023
20
-1.08769969601334
30
0
41
1
10
25.344615230356
20
-1.16855841533504
30
0
0
SPLINE
5
D0
100
AcDbEntity
8
1
62
256
6
ByLayer
370
18
48
1
60
0
100
AcDbSpline
70
4
71
3
72
10
73
6
40
0
40
0
40
0
40
0
40
0.5
40
0.5
40
1
40
1
40
1
40
1
41
1
10
8.11724609681281
20
1.49562733636117
30
0
41
1
10
8.10330256618306
20
1.49908840982798
30
0
41
1
10
8.09144439859119
20
1.50300257276209
30
0
41
1
10
8.07373609361673
20
1.51153229127786
30
0
41
1
10
8.06814726207455
20
1.51603965046598
30
0
41
1
10
8.06815071203266
20
1.52035833126965
30
0
0
SPLINE
5
D1
100
AcDbEntity
8
1
62
256
6
ByLayer
370
18
48
1
60
0
100
AcDbSpline
70
4
71
3
72
8
73
4
40
0
40
0
40
0
40
0
40
1
40
1
40
1
40
1
41
1
10
25.9899306846689
20
0.0954719518885554
30
0
41
1
10
25.9905686198859
20
0.0777817420895133
30
0
41
1
10
25.9944183075201
20
0.0554727481435293
30
0
41
1
10
25.9999382068102
20
0.0321481972805771
30
0
0
SPLINE
5
D2
100
AcDbEntity
8
1
62
256
6
ByLayer
370
18
48
1
60
0
100
AcDbSpline
70
4
71
3
72
10
73
6
40
0
40
0
40
0
40
0
40
0.80599686213668
40
0.80599686213668
40
1
40
1
40
1
40
1
41
1
10
8.06815071203343
20
1.52035833126971
30
0
41
1
10
8.06816938897424
20
1.54373825102101
30
0
41
1
10
8.06817825594712
20
1.55771584035583
30
0
41
1
10
8.06818142259715
20
1.56348442003934
30
0
41
1
10
8.06818166355072
20
1.56404781600276
30
0
41
1
10
8.06818158532164
20
1.56405932020522
30
0
0
SPLINE
5
D3
100
AcDbEntity
8
1
62
256
6
ByLayer
370
18
48
1
60
0
100
AcDbSpline
70
4
71
3
72
12
73
8
40
0
40
0
40
0
40
0
40
0.25
40
0.25
40
0.5
40
0.5
40
1
40
1
40
1
40
1
41
1
10
25.3568947830237
20
0.376585964176968
30
0
41
1
10
25.3569680429853
20
0.38646139341671
30
0
41
1
10
25.3597990419706
20
0.396295835621743
30
0
41
1
10
25.3706190065508
20
0.413270914823528
30
0
41
1
10
25.3785898878722
20
0.420403144675049
30
0
41
1
10
25.4053299821584
20
0.436048833439031
30
0
41
1
10
25.4263436782403
20
0.439578613448816
30
0
41
1
10
25.4469339910664
20
0.439201865297008
30
0
0
SPLINE
5
D4
100
AcDbEntity
8
1
62
256
6
ByLayer
370
18
48
1
60
0
100
AcDbSpline
70
4
71
3
72
38
73
34
40
0
40
0
40
0
40
0
40
0.0585565792492281
40
0.0585565792492281
40
0.117113158498456
40
0.117113158498456
40
0.234226316996914
40
0.234226316996914
40
0.292782896246143
40
0.292782896246143
40
0.351339475495372
40
0.351339475495372
40
0.46845263399383
40
0.46845263399383
40
0.497730923618444
40
0.497730923618444
40
0.527009213243058
40
0.527009213243058
40
0.585565792492288
40
0.585565792492288
40
0.70267895099075
40
0.70267895099075
40
0.76123553023998
40
0.76123553023998
40
0.819792109489211
40
0.819792109489211
40
0.936905267987672
40
0.936905267987672
40
0.966183557612288
40
0.966183557612288
40
0.995461847236904
40
0.995461847236904
40
1
40
1
40
1
40
1
41
1
10
25.4534365083496
20
-1.57099746124808
30
0
41
1
10
25.2725415550945
20
-1.57795323706628
30
0
41
1
10
25.0919331066007
20
-1.57540024911131
30
0
41
1
10
24.7298604859161
20
-1.55157935650828
30
0
41
1
10
24.5490385700958
20
-1.53029931759085
30
0
41
1
10
24.0104802766621
20
-1.44047304335666
30
0
41
1
10
23.654781009979
20
-1.34554663371696
30
0
41
1
10
23.116779937175
20
-1.15913090821812
30
0
41
1
10
22.9365533830233
20
-1.08939963116552
30
0
41
1
10
22.5745173931916
20
-0.93698900821164
30
0
41
1
10
22.3947667753496
20
-0.855378341473113
30
0
41
1
10
21.8571977881102
20
-0.598049557486746
30
0
41
1
10
21.5012872870884
20
-0.409429710345791
30
0
41
1
10
21.0520570583855
20
-0.165300516594471
30
0
41
1
10
20.9620020457284
20
-0.11604339992283
30
0
41
1
10
20.7812849546354
20
-0.0170007026096073
30
0
41
1
10
20.6905226093601
20
0.032854833442741
30
0
41
1
10
20.4197856134114
20
0.181297144749891
30
0
41
1
10
20.2404177349346
20
0.279051762784292
30
0
41
1
10
19.7035292173414
20
0.564925766934664
30
0
41
1
10
19.3474794873364
20
0.746075648604602
30
0
41
1
10
18.8070250407977
20
0.987693050845678
30
0
41
1
10
18.6252094345892
20
1.06346962436427
30
0
41
1
10
18.2650992689287
20
1.200199442404
30
0
41
1
10
18.0860440614444
20
1.26148991131873
30
0
41
1
10
17.5496718924152
20
1.42202084519758
30
0
41
1
10
17.1928099677928
20
1.49768033103862
30
0
41
1
10
16.7412211118218
20
1.54729185723792
30
0
41
1
10
16.6504300191709
20
1.55495104648989
30
0
41
1
10
16.4697595229079
20
1.5655162166079
30
0
41
1
10
16.379710603102
20
1.56845097718639
30
0
41
1
10
16.2759390910413
20
1.56916675343177
30
0
41
1
10
16.2620180824098
20
1.5692071549507
30
0
41
1
10
16.2481018144425
20
1.56919200810947
30
0
0
SPLINE
5
D5
100
AcDbEntity
8
1
62
256
6
ByLayer
370
18
48
1
60
0
100
AcDbSpline
70
4
71
3
72
8
73
4
40
0
40
0
40
0
40
0
40
1
40
1
40
1
40
1
41
1
10
25.9999382068102
20
0.0321481972806055
30
0
41
1
10
25.994906892411
20
0.0145600827668773
30
0
41
1
10
25.9871857644645
20
-0.0039448527971899
30
0
41
1
10
25.9790710670443
20
-0.0172665265488945
30
0
0
SPLINE
5
D6
100
AcDbEntity
8
1
62
256
6
ByLayer
370
18
48
1
60
0
100
AcDbSpline
70
4
71
3
72
34
73
30
40
0
40
0
40
0
40
0
40
0.0788481100499508
40
0.0788481100499508
40
0.157696220099902
40
0.157696220099902
40
0.236544330149852
40
0.236544330149852
40
0.275968385174827
40
0.275968385174827
40
0.315392440199801
40
0.315392440199801
40
0.394240550249751
40
0.394240550249751
40
0.473088660299702
40
0.473088660299702
40
0.551936770349653
40
0.551936770349653
40
0.630784880399604
40
0.630784880399604
40
0.709632990449555
40
0.709632990449555
40
0.788481100499505
40
0.788481100499505
40
0.867329210549456
40
0.867329210549456
40
0.946177320599407
40
0.946177320599407
40
1
40
1
40
1
40
1
41
1
10
9.38059196419709
20
0.967172809525778
30
0
41
1
10
9.55012610216491
20
0.893385404687024
30
0
41
1
10
9.71930454191602
20
0.816284719539993
30
0
41
1
10
10.0561848268196
20
0.654611894771904
30
0
41
1
10
10.2233983784309
20
0.569139552132924
30
0
41
1
10
10.5591761651908
20
0.395546067029272
30
0
41
1
10
10.7265538919941
20
0.305333016891041
30
0
41
1
10
10.9790035585481
20
0.168735156472707
30
0
41
1
10
11.0634290240676
20
0.123085073154385
30
0
41
1
10
11.2325829381901
20
0.0310689515451656
30
0
41
1
10
11.3172012340817
20
-0.0156115988131376
30
0
41
1
10
11.5719221096363
20
-0.15543402877006
30
0
41
1
10
11.7411457142782
20
-0.246509047035488
30
0
41
1
10
12.0773211628079
20
-0.426690904512924
30
0
41
1
10
12.2449812714883
20
-0.514438479335752
30
0
41
1
10
12.580541690944
20
-0.683452151227982
30
0
41
1
10
12.7477036280791
20
-0.765936336977575
30
0
41
1
10
13.0845410819101
20
-0.920574204473894
30
0
41
1
10
13.2531416865267
20
-0.99456090317247
30
0
41
1
10
13.5930913530765
20
-1.13140102799736
30
0
41
1
10
13.7621322704221
20
-1.19341630083923
30
0
41
1
10
14.0980739068255
20
-1.30526711080762
30
0
41
1
10
14.2661052920632
20
-1.35385384002265
30
0
41
1
10
14.6010516233946
20
-1.43781792178447
30
0
41
1
10
14.7685916748767
20
-1.47253301388181
30
0
41
1
10
15.1052429363206
20
-1.52650654008269
30
0
41
1
10
15.2735086456416
20
-1.54611475923204
30
0
41
1
10
15.559738436802
20
-1.56501587483788
30
0
41
1
10
15.6751701368957
20
-1.56885729585659
30
0
41
1
10
15.7902291327233
20
-1.56889557764947
30
0
0
SPLINE
5
D7
100
AcDbEntity
8
1
62
256
6
ByLayer
370
18
48
1
60
0
100
AcDbSpline
70
4
71
3
72
18
73
14
40
0
40
0
40
0
40
0
40
0.117607789895656
40
0.117607789895656
40
0.294086231916525
40
0.294086231916525
40
0.470564673937394
40
0.470564673937394
40
0.647043115958263
40
0.647043115958263
40
0.823521557979132
40
0.823521557979132
40
1
40
1
40
1
40
1
41
1
10
22.6803416433228
20
1.16602384633325
30
0
41
1
10
22.7918969342734
20
1.20729163278389
30
0
41
1
10
22.9034004807057
20
1.24606624420957
30
0
41
1
10
23.183393348043
20
1.33515829078411
30
0
41
1
10
23.3518247852845
20
1.38233307148766
30
0
41
1
10
23.6907427615312
20
1.46240085869644
30
0
41
1
10
23.8606055924413
20
1.49448984849835
30
0
41
1
10
24.1964681167091
20
1.54342936874639
30
0
41
1
10
24.3642995283645
20
1.55967651202226
30
0
41
1
10
24.6991634203645
20
1.57638643040471
30
0
41
1
10
24.8662448070332
20
1.57666207089227
30
0
41
1
10
25.2023704737017
20
1.56111618512929
30
0
41
1
10
25.3703632197891
20
1.54508983944828
30
0
41
1
10
25.5399330111924
20
1.52105113972564
30
0
0
SPLINE
5
D8
100
AcDbEntity
8
1
62
256
6
ByLayer
370
18
48
1
60
0
100
AcDbSpline
70
4
71
3
72
14
73
10
40
0
40
0
40
0
40
0
40
0.25
40
0.25
40
0.5
40
0.5
40
0.75
40
0.75
40
1
40
1
40
1
40
1
41
1
10
25.4558214376072
20
-1.49622456662129
30
0
41
1
10
25.4586001844443
20
-1.49621455259418
30
0
41
1
10
25.4609130693465
20
-1.49741508902071
30
0
41
1
10
25.4643568711101
20
-1.50284952677359
30
0
41
1
10
25.4654790223319
20
-1.5071600698665
30
0
41
1
10
25.4657783990311
20
-1.51961237462456
30
0
41
1
10
25.4649252430891
20
-1.52789384338416
30
0
41
1
10
25.4607517762975
20
-1.54788491698508
30
0
41
1
10
25.457454159666
20
-1.55940499429434
30
0
41
1
10
25.4534365083496
20
-1.57099746124803
30
0
0
SPLINE
5
D9
100
AcDbEntity
8
1
62
256
6
ByLayer
370
18
48
1
60
0
100
AcDbSpline
70
4
71
3
72
10
73
6
40
0
40
0
40
0
40
0
40
0.5
40
0.5
40
1
40
1
40
1
40
1
41
1
10
25.5399330111924
20
-1.52105113972587
30
0
41
1
10
25.5239847408829
20
-1.53394323259238
30
0
41
1
10
25.5086031622139
20
-1.54475090744205
30
0
41
1
10
25.4796796846507
20
-1.56148224098476
30
0
41
1
10
25.4661292145474
20
-1.56744000279045
30
0
41
1
10
25.4534365083496
20
-1.57099746124803
30
0
0
SPLINE
5
DA
100
AcDbEntity
8
1
62
256
6
ByLayer
370
18
48
1
60
0
100
AcDbSpline
70
4
71
3
72
10
73
6
40
0
40
0
40
0
40
0
40
0.5
40
0.5
40
1
40
1
40
1
40
1
41
1
10
8.25021638616164
20
-0.503954974678209
30
0
41
1
10
8.43648411103698
20
-0.601364363251605
30
0
41
1
10
8.62327131990156
20
-0.693089795994354
30
0
41
1
10
9.00007245755694
20
-0.863349282724357
30
0
41
1
10
9.18933375427378
20
-0.941613314031173
30
0
41
1
10
9.38059196419709
20
-1.01076174443088
30
0
0
SPLINE
5
DB
100
AcDbEntity
8
1
62
256
6
ByLayer
370
18
48
1
60
0
100
AcDbSpline
70
4
71
3
72
8
73
4
40
0
40
0
40
0
40
0
40
1
40
1
40
1
40
1
41
1
10
25.4469339910664
20
0.439201865297093
30
0
41
1
10
25.6218331217163
20
0.436001674761883
30
0
41
1
10
25.7967683447962
20
0.432548827876388
30
0
41
1
10
25.9712128879012
20
0.432530867801205
30
0
0
SPLINE
5
DC
100
AcDbEntity
8
1
62
256
6
ByLayer
370
18
48
1
60
0
100
AcDbSpline
70
4
71
3
72
8
73
4
40
0
40
0
40
0
40
0
40
1
40
1
40
1
40
1
41
1
10
25.9712128879012
20
-0.432530867801205
30
0
41
1
10
25.9796424076521
20
-0.320069182509712
30
0
41
1
10
25.9858829924965
20
-0.207716145057589
30
0
41
1
10
25.9899306846689
20
-0.0954719518885838
30
0
0
SPLINE
5
DD
100
AcDbEntity
8
1
62
256
6
ByLayer
370
13
48
1
60
0
100
AcDbSpline
70
4
71
3
72
22
73
18
40
0
40
0
40
0
40
0
40
0.0799965344122335
40
0.0799965344122335
40
0.233330445343528
40
0.233330445343528
40
0.309997400809175
40
0.309997400809175
40
0.386664356274822
40
0.386664356274822
40
0.539998267206117
40
0.539998267206117
40
0.693332178137411
40
0.693332178137411
40
0.846666089068706
40
0.846666089068706
40
1
40
1
40
1
40
1
41
1
10
8.250216420501
20
-1.48563681551858
30
0
41
1
10
8.25020846348227
20
-1.48561828253475
30
0
41
1
10
8.25019999134776
20
-1.48322197816992
30
0
41
1
10
8.25017510673942
20
-1.46938471369978
30
0
41
1
10
8.25015840470803
20
-1.45181346900779
30
0
41
1
10
8.25013620378959
20
-1.41250973987974
30
0
41
1
10
8.25012924940916
20
-1.39713853514076
30
0
41
1
10
8.25011703879647
20
-1.36257962003023
30
0
41
1
10
8.25011175229594
20
-1.34336985570292
30
0
41
1
10
8.25009884311251
20
-1.2800784068053
30
0
41
1
10
8.25009419153363
20
-1.23038493610093
30
0
41
1
10
8.25009479646576
20
-1.11547507197673
30
0
41
1
10
8.25010013216109
20
-1.05089131152255
30
0
41
1
10
8.25012041032733
20
-0.910395981788412
30
0
41
1
10
8.25013514121667
20
-0.835454551846254
30
0
41
1
10
8.25017144580954
20
-0.676544531995688
30
0
41
1
10
8.25019318148878
20
-0.592032689428095
30
0
41
1
10
8.25021638615272
20
-0.503954974676788
30
0
0
SPLINE
5
DE
100
AcDbEntity
8
1
62
256
6
ByLayer
370
18
48
1
60
0
100
AcDbSpline
70
4
71
3
72
22
73
18
40
0
40
0
40
0
40
0
40
0.112369697988721
40
0.112369697988721
40
0.260308081657268
40
0.260308081657268
40
0.408246465325814
40
0.408246465325814
40
0.556184848994361
40
0.556184848994361
40
0.704123232662907
40
0.704123232662907
40
0.778092424497181
40
0.778092424497181
40
0.852061616331454
40
0.852061616331454
40
1
40
1
40
1
40
1
41
1
10
8.06818158558428
20
-1.56405927931837
30
0
41
1
10
8.06818134098293
20
-1.564099498286
30
0
41
1
10
8.06817791725337
20
-1.55864376204673
30
0
41
1
10
8.06816656742942
20
-1.53355297744903
30
0
41
1
10
8.068157609087
20
-1.51012394322262
30
0
41
1
10
8.06814154312559
20
-1.4444781430893
30
0
41
1
10
8.06813464198743
20
-1.40268065336264
30
0
41
1
10
8.06812860221356
20
-1.30347286980785
30
0
41
1
10
8.0681294183137
20
-1.2454825580229
30
0
41
1
10
8.06814208584524
20
-1.11416883858337
30
0
41
1
10
8.06815376343127
20
-1.04228487074536
30
0
41
1
10
8.06817931640671
20
-0.925406886911588
30
0
41
1
10
8.06818916100792
20
-0.884928528392692
30
0
41
1
10
8.06821135186317
20
-0.800856149861659
30
0
41
1
10
8.0682237179862
20
-0.757227547342609
30
0
41
1
10
8.06826320317089
20
-0.624457121778136
30
0
41
1
10
8.06829298571958
20
-0.532548722464242
30
0
41
1
10
8.06832379088598
20
-0.437266754403197
30
0
0
SPLINE
5
DF
100
AcDbEntity
8
1
62
256
6
ByLayer
370
18
48
1
60
0
100
AcDbSpline
70
4
71
3
72
8
73
4
40
0
40
0
40
0
40
0
40
1
40
1
40
1
40
1
41
1
10
8.06815071203332
20
1.52035833126968
30
0
41
1
10
8.07281495043208
20
1.51493036560191
30
0
41
1
10
8.07767434673275
20
1.50970347388949
30
0
41
1
10
8.08273672983802
20
1.50468652895731
30
0
0
SPLINE
5
E0
100
AcDbEntity
8
1
62
256
6
ByLayer
370
18
48
1
60
0
100
AcDbSpline
70
4
71
3
72
32
73
28
40
0
40
0
40
0
40
0
40
0.125000000000001
40
0.125000000000001
40
0.250000000000001
40
0.250000000000001
40
0.312500000000002
40
0.312500000000002
40
0.375000000000002
40
0.375000000000002
40
0.406249999999999
40
0.406249999999999
40
0.437499999999996
40
0.437499999999996
40
0.468749999999993
40
0.468749999999993
40
0.49999999999999
40
0.49999999999999
40
0.562499999999991
40
0.562499999999991
40
0.624999999999993
40
0.624999999999993
40
0.749999999999995
40
0.749999999999995
40
0.874999999999998
40
0.874999999999998
40
1
40
1
40
1
40
1
41
1
10
25.5404507921885
20
-0.787343559288701
30
0
41
1
10
25.4814680671524
20
-0.767616375118479
30
0
41
1
10
25.4221941659306
20
-0.742711518934954
30
0
41
1
10
25.3068268879542
20
-0.683163011266629
30
0
41
1
10
25.2504134921193
20
-0.648668821979442
30
0
41
1
10
25.1687871052518
20
-0.585803602237206
30
0
41
1
10
25.1423362719815
20
-0.563128633920769
30
0
41
1
10
25.0925369347766
20
-0.513219710534315
30
0
41
1
10
25.0686549597361
20
-0.485656760071692
30
0
41
1
10
25.0389228603843
20
-0.43889100812396
30
0
41
1
10
25.0300750369348
20
-0.422376622935076
30
0
41
1
10
25.0167580246587
20
-0.387788086469129
30
0
41
1
10
25.0122865416681
20
-0.369454012190886
30
0
41
1
10
25.0115693763613
20
-0.333724482018681
30
0
41
1
10
25.015549404801
20
-0.317166159187479
30
0
41
1
10
25.0302836400721
20
-0.289966214572928
30
0
41
1
10
25.0407220132107
20
-0.279305603566826
30
0
41
1
10
25.0756401468234
20
-0.254336455847977
30
0
41
1
10
25.1032455737182
20
-0.246265093663453
30
0
41
1
10
25.160068065584
20
-0.237158724983431
30
0
41
1
10
25.1889522725612
20
-0.236481265843651
30
0
41
1
10
25.2763597783642
20
-0.24063486580053
30
0
41
1
10
25.335951096868
20
-0.25178760775006
30
0
41
1
10
25.4546244889328
20
-0.28312282216362
30
0
41
1
10
25.5136907116577
20
-0.303468152562886
30
0
41
1
10
25.6312981008089
20
-0.352211795803782
30
0
41
1
10
25.6892482291595
20
-0.380342220648402
30
0
41
1
10
25.7461436097319
20
-0.413117133857924
30
0
0
SPLINE
5
E1
100
AcDbEntity
8
1
62
256
6
ByLayer
370
18
48
1
60
0
100
AcDbSpline
70
4
71
3
72
8
73
4
40
0
40
0
40
0
40
0
40
1
40
1
40
1
40
1
41
1
10
8.20318871774592
20
1.47847620378389
30
0
41
1
10
8.17315096146382
20
1.48380328038951
30
0
41
1
10
8.14346076282854
20
1.48912031260966
30
0
41
1
10
8.11724609681283
20
1.49562733636117
30
0
0
SPLINE
5
E2
100
AcDbEntity
8
1
62
256
6
ByLayer
370
18
48
1
60
0
100
AcDbSpline
70
4
71
3
72
10
73
6
40
0
40
0
40
0
40
0
40
0.5
40
0.5
40
1
40
1
40
1
40
1
41
1
10
25.5399330111979
20
1.52105113971055
30
0
41
1
10
25.6074761213473
20
1.33773791160542
30
0
41
1
10
25.6775848743795
20
1.1554302855692
30
0
41
1
10
25.8217947860593
20
0.792371679555828
30
0
41
1
10
25.8958663525541
20
0.611792543900094
30
0
41
1
10
25.9712128879012
20
0.432530867801205
30
0
0
SPLINE
5
E3
100
AcDbEntity
8
1
62
256
6
ByLayer
370
18
48
1
60
0
100
AcDbSpline
70
4
71
3
72
60
73
56
40
0
40
0
40
0
40
0
40
0.0028641587100006
40
0.0028641587100006
40
0.0446797956875729
40
0.0446797956875729
40
0.0864954326651452
40
0.0864954326651452
40
0.128311069642717
40
0.128311069642717
40
0.17012670662029
40
0.17012670662029
40
0.211942343597862
40
0.211942343597862
40
0.253757980575434
40
0.253757980575434
40
0.295573617553007
40
0.295573617553007
40
0.337389254530579
40
0.337389254530579
40
0.379204891508151
40
0.379204891508151
40
0.421020528485724
40
0.421020528485724
40
0.462836165463296
40
0.462836165463296
40
0.504651802440868
40
0.504651802440868
40
0.54646743941844
40
0.54646743941844
40
0.588283076396013
40
0.588283076396013
40
0.630098713373585
40
0.630098713373585
40
0.671914350351157
40
0.671914350351157
40
0.692822168839943
40
0.692822168839943
40
0.713729987328728
40
0.713729987328728
40
0.755545624306299
40
0.755545624306299
40
0.79736126128387
40
0.79736126128387
40
0.818269079772655
40
0.818269079772655
40
0.839176898261441
40
0.839176898261441
40
0.88099253523901
40
0.88099253523901
40
0.922808172216579
40
0.922808172216579
40
0.964623809194149
40
0.964623809194149
40
1
40
1
40
1
40
1
41
1
10
22.6668362714213
20
-1.16789870972556
30
0
41
1
10
22.6564023632502
20
-1.17127512520585
30
0
41
1
10
22.645968539791
20
-1.17463334322233
30
0
41
1
10
22.4832064435917
20
-1.22674626078549
30
0
41
1
10
22.330186477071
20
-1.2708360288583
30
0
41
1
10
22.0254021852278
20
-1.34753413666226
30
0
41
1
10
21.8733505981296
20
-1.37972090135045
30
0
41
1
10
21.5686027418968
20
-1.43231916575599
30
0
41
1
10
21.4159735208849
20
-1.45364344584203
30
0
41
1
10
21.1109638716625
20
-1.48267655511623
30
0
41
1
10
20.9587268659375
20
-1.49104711204893
30
0
41
1
10
20.6543113950759
20
-1.49327031776826
30
0
41
1
10
20.5019899168651
20
-1.48839733498861
30
0
41
1
10
20.1965176360964
20
-1.46764809309195
30
0
41
1
10
20.0445061795798
20
-1.45114446150865
30
0
41
1
10
19.7401705026826
20
-1.40464810530642
30
0
41
1
10
19.5879217157975
20
-1.37389480680918
30
0
41
1
10
19.2830716817879
20
-1.30384455578155
30
0
41
1
10
19.1303780367352
20
-1.26364284482818
30
0
41
1
10
18.8259283040421
20
-1.17293070374248
30
0
41
1
10
18.674124509468
20
-1.12193338698006
30
0
41
1
10
18.3693795915034
20
-1.01051182144698
30
0
41
1
10
18.2166522327718
20
-0.950189486753203
30
0
41
1
10
17.9119969213517
20
-0.822275271844461
30
0
41
1
10
17.7596463882964
20
-0.755344233765072
30
0
41
1
10
17.455502038421
20
-0.614497815917503
30
0
41
1
10
17.3027509726585
20
-0.541205471861815
30
0
41
1
10
16.9977885793695
20
-0.390427223403208
30
0
41
1
10
16.8457331972011
20
-0.312977396121397
30
0
41
1
10
16.5412615862046
20
-0.156810480394938
30
0
41
1
10
16.3889356802014
20
-0.0776173397266007
30
0
41
1
10
16.0837801986945
20
0.0814354475273262
30
0
41
1
10
15.9314156231137
20
0.160165409292233
30
0
41
1
10
15.6270064890409
20
0.316308563994823
30
0
41
1
10
15.4749231771225
20
0.393651888435073
30
0
41
1
10
15.2460785571438
20
0.506650228638392
30
0
41
1
10
15.169633855767
20
0.543794640189361
30
0
41
1
10
15.0173259497088
20
0.616942185309597
30
0
41
1
10
14.9412820502344
20
0.652495404742865
30
0
41
1
10
14.7129113515889
20
0.756666146384958
30
0
41
1
10
14.5607149070817
20
0.82384003544928
30
0
41
1
10
14.256213644833
20
0.95187693112797
30
0
41
1
10
14.1035289297795
20
1.01259101722977
30
0
41
1
10
13.8752152036271
20
1.09510750924284
30
0
41
1
10
13.799216748453
20
1.1209834326815
30
0
41
1
10
13.6472480921285
20
1.17101695661336
30
0
41
1
10
13.571203538438
20
1.19489784501201
30
0
41
1
10
13.3428664077149
20
1.26230650431646
30
0
41
1
10
13.1901955136019
20
1.30225409880822
30
0
41
1
10
12.8857040559379
20
1.37237649573672
30
0
41
1
10
12.7336197082198
20
1.40188354590515
30
0
41
1
10
12.429527007369
20
1.44810348270661
30
0
41
1
10
12.277172026712
20
1.46386808216428
30
0
41
1
10
11.9954978251313
20
1.4823009169327
30
0
41
1
10
11.8667579332137
20
1.48685592129007
30
0
41
1
10
11.7380211576569
20
1.48706311593713
30
0
0
SPLINE
5
E4
100
AcDbEntity
8
1
62
256
6
ByLayer
370
18
48
1
60
0
100
AcDbSpline
70
4
71
1
72
4
73
2
40
0
40
0
40
1
40
1
41
1
10
16.5667969905652
20
-0.17296965922867
30
0
41
1
10
16.6223425031801
20
-0.198451517921882
30
0
0
SPLINE
5
E5
100
AcDbEntity
8
1
62
256
6
ByLayer
370
18
48
1
60
0
100
AcDbSpline
70
4
71
3
72
18
73
14
40
0
40
0
40
0
40
0
40
0.121510651450677
40
0.209264924555846
40
0.272006653201037
40
0.337085651317545
40
0.405013066654766
40
0.472999254146455
40
0.673958217861253
40
0.720125615507634
40
0.784582947733367
40
0.881184508665382
40
1
40
1
40
1
40
1
41
1
10
16.4310186427289
20
-1.49058784504919
30
0
41
1
10
16.6056532310357
20
-1.49051917722843
30
0
41
1
10
16.9064407977256
20
-1.49045652882589
30
0
41
1
10
17.2975810297925
20
-1.49131983699215
30
0
41
1
10
17.6074838346842
20
-1.49096012580554
30
0
41
1
10
17.888939247825
20
-1.4905168429579
30
0
41
1
10
18.1779320428133
20
-1.49107611027446
30
0
41
1
10
18.6622996516347
20
-1.49185630468264
30
0
41
1
10
19.1153762701428
20
-1.49106406466004
30
0
41
1
10
19.5633854333057
20
-1.49068436519892
30
0
41
1
10
19.8613326330304
20
-1.49368822302381
30
0
41
1
10
20.2637437787572
20
-1.49157481525259
30
0
41
1
10
20.5734658939052
20
-1.4922138029454
30
0
41
1
10
20.7442952227807
20
-1.49244381558179
30
0
0
SPLINE
5
E6
100
AcDbEntity
8
1
62
256
6
ByLayer
370
18
48
1
60
0
100
AcDbSpline
70
4
71
2
72
6
73
3
40
0
40
0
40
0
40
1
40
1
40
1
41
1
10
25.2210516760273
20
-1.49211396921348
30
0
41
1
10
25.3284254710071
20
-1.49284558530721
30
0
41
1
10
25.4359407772717
20
-1.49345337701544
30
0
0
SPLINE
5
E7
100
AcDbEntity
8
1
62
256
6
ByLayer
370
18
48
1
60
0
100
AcDbSpline
70
4
71
3
72
19
73
15
40
0
40
0
40
0
40
0
40
0.14426930000441
40
0.254177153393559
40
0.322653531463533
40
0.385564691177424
40
0.448999163205343
40
0.512443008414551
40
0.575443234839238
40
0.637930747401116
40
0.760430750521204
40
0.86767787031249
40
0.982851111127587
40
1
40
1
40
1
40
1
41
1
10
20.7391534396997
20
1.49244915169095
30
0
41
1
10
20.5607656710091
20
1.49228691301641
30
0
41
1
10
20.2464769028991
20
1.49169562419613
30
0
41
1
10
19.8475125003458
20
1.49356210656765
30
0
41
1
10
19.5491508893084
20
1.49059368561069
30
0
41
1
10
19.3082481907957
20
1.49090926931416
30
0
41
1
10
19.0735702783926
20
1.49120979917072
30
0
41
1
10
18.8387809194759
20
1.4918268682637
30
0
41
1
10
18.6051618603858
20
1.49184834112918
30
0
41
1
10
18.298518750869
20
1.49107447650965
30
0
41
1
10
17.9371640994259
20
1.49043349763761
30
0
41
1
10
17.5106568824367
20
1.49127232984148
30
0
41
1
10
17.2144310099553
20
1.49098639185601
30
0
41
1
10
17.0508188014474
20
1.49088307429969
30
0
41
1
10
17.0296147874361
20
1.49087044718746
30
0
0
SPLINE
5
E8
100
AcDbEntity
8
1
62
256
6
ByLayer
370
18
48
1
60
0
100
AcDbSpline
70
4
71
3
72
8
73
4
40
0
40
0
40
0
40
0
40
1
40
1
40
1
40
1
41
1
10
20.4091790498341
20
-0.0640263416525215
30
0
41
1
10
20.3515206672138
20
-0.0344341789341911
30
0
41
1
10
20.2937752865882
20
-0.0034426190604506
30
0
41
1
10
20.2359204367756
20
0.0289952884128581
30
0
0
SPLINE
5
E9
100
AcDbEntity
8
1
62
256
6
ByLayer
370
18
48
1
60
0
100
AcDbSpline
70
4
71
3
72
16
73
12
40
0
40
0
40
0
40
0
40
0.152449460439197
40
0.265715742246355
40
0.36770224159655
40
0.475713443615283
40
0.562273682033664
40
0.645371734420219
40
0.726274068340196
40
0.849568741834289
40
1
40
1
40
1
40
1
41
1
10
11.737091278927
20
1.48699469981366
30
0
41
1
10
11.5599045569724
20
1.48720132074001
30
0
41
1
10
11.2510716450814
20
1.48745078102877
30
0
41
1
10
10.8236894491977
20
1.48626768226998
30
0
41
1
10
10.4479767251872
20
1.48714486261306
30
0
41
1
10
10.1032687085922
20
1.4862373712231
30
0
41
1
10
9.7805236393188
20
1.48580603735977
30
0
41
1
10
9.4892895678388
20
1.4862021712735
30
0
41
1
10
9.15534777794375
20
1.48632995904754
30
0
41
1
10
8.74322062528239
20
1.48551578190964
30
0
41
1
10
8.42505534010382
20
1.48552081538611
30
0
41
1
10
8.25019735380346
20
1.48556116834101
30
0
0
SPLINE
5
EA
100
AcDbEntity
8
1
62
256
6
ByLayer
370
18
48
1
60
0
100
AcDbSpline
70
4
71
3
72
16
73
12
40
0
40
0
40
0
40
0
40
0.113841697127734
40
0.213874546577557
40
0.299086949850036
40
0.387930910364783
40
0.478478081239937
40
0.590159466467312
40
0.688797708549635
40
0.820809765652716
40
1
40
1
40
1
40
1
41
1
10
8.25020830224349
20
-1.48556773655906
30
0
41
1
10
8.38249948195124
20
-1.48558731563554
30
0
41
1
10
8.63103278787122
20
-1.48568859161418
30
0
41
1
10
8.9785741409099
20
-1.48586278306726
30
0
41
1
10
9.29707519673508
20
-1.48638918568193
30
0
41
1
10
9.6045721567184
20
-1.48604571186166
30
0
41
1
10
9.94282221482206
20
-1.48571417883693
30
0
41
1
10
10.2924562640362
20
-1.48709424703048
30
0
41
1
10
10.6902771645723
20
-1.48652324583458
30
0
41
1
10
11.1665407021254
20
-1.48701648494154
30
0
41
1
10
11.5281852823224
20
-1.48697649049242
30
0
41
1
10
11.7364205918251
20
-1.4869760264589
30
0
0
LINE
5
7B
100
AcDbEntity
8
SK1
62
256
6
ByLayer
370
18
48
1
60
0
100
AcDbLine
10
-35.65
20
2.415
30
0
11
-35.65
21
2.406231
31
0
39
0
210
0
220
0
230
1
0
LINE
5
7D
100
AcDbEntity
8
SK1
62
256
6
ByLayer
370
18
48
1
60
0
100
AcDbLine
10
0
20
-3
30
0
11
0
21
3
31
0
39
0
210
0
220
0
230
1
0
LINE
5
7E
100
AcDbEntity
8
SK1
62
256
6
ByLayer
370
18
48
1
60
0
100
AcDbLine
10
-35.65
20
-2.415
30
0
11
-35.65
21
-2.164201
31
0
39
0
210
0
220
0
230
1
0
LINE
5
7F
100
AcDbEntity
8
SK1
62
256
6
ByLayer
370
13
48
1
60
0
100
AcDbLine
10
-35.75
20
-2.012214
30
0
11
-35.75
21
-2.291484
31
0
39
0
210
0
220
0
230
1
0
LINE
5
80
100
AcDbEntity
8
SK1
62
256
6
ByLayer
370
18
48
1
60
0
100
AcDbLine
10
-36
20
2.029981
30
0
11
-36
21
-1.750715
31
0
39
0
210
0
220
0
230
1
0
LINE
5
81
100
AcDbEntity
8
SK1
62
256
6
ByLayer
370
18
48
1
60
0
100
AcDbLine
10
-35.065
20
3
30
0
11
-35.065
21
-3
31
0
39
0
210
0
220
0
230
1
0
LINE
5
82
100
AcDbEntity
8
SK1
62
256
6
ByLayer
370
18
48
1
60
0
100
AcDbLine
10
-36
20
-1.750682
30
0
11
-36
21
-2.029981
31
0
39
0
210
0
220
0
230
1
0
LINE
5
83
100
AcDbEntity
8
1
62
256
6
ByLayer
370
13
48
1
60
0
100
AcDbLine
10
1.592477
20
1.560033
30
0
11
1.592477
21
-1.560033
31
0
39
0
210
0
220
0
230
1
0
LINE
5
84
100
AcDbEntity
8
1
62
256
6
ByLayer
370
13
48
1
60
0
100
AcDbLine
10
25.446934
20
0.439202
30
0
11
25.989931
21
0.095472
31
0
39
0
210
0
220
0
230
1
0
LINE
5
85
100
AcDbEntity
8
1
62
256
6
ByLayer
370
13
48
1
60
0
100
AcDbLine
10
25.356895
20
0.376586
30
0
11
25.979071
21
-0.017267
31
0
39
0
210
0
220
0
230
1
0
LINE
5
86
100
AcDbEntity
8
1
62
256
6
ByLayer
370
13
48
1
60
0
100
AcDbLine
10
0.795988
20
2.280016
30
0
11
0.795988
21
-2.280016
31
0
39
0
210
0
220
0
230
1
0
LINE
5
87
100
AcDbEntity
8
1
62
256
6
ByLayer
370
18
48
1
60
0
100
AcDbLine
10
0
20
-3
30
0
11
0
21
3
31
0
39
0
210
0
220
0
230
1
0
LINE
5
88
100
AcDbEntity
8
80
62
256
6
ByLayer
370
18
48
1
60
0
100
AcDbLine
10
0
20
0
30
0
11
-5
21
0
31
0
39
0
210
0
220
0
230
1
0
LINE
5
89
100
AcDbEntity
8
4
62
256
6
ByLayer
370
18
48
0.05
60
0
100
AcDbLine
10
26
20
0
30
0
11
0
21
0
31
0
39
0
210
0
220
0
230
1
0
LINE
5
8B
100
AcDbEntity
8
SK4
62
256
6
ByLayer
370
18
48
0.05
60
0
100
AcDbLine
10
31
20
0
30
0
11
-41
21
0
31
0
39
0
210
0
220
0
230
1
0
LINE
5
8D
100
AcDbEntity
8
SK1
62
256
6
ByLayer
370
18
48
1
60
0
100
AcDbLine
10
-35.65
20
-2.415
30
0
11
-35.065
21
-3
31
0
39
0
210
0
220
0
230
1
0
LINE
5
8E
100
AcDbEntity
8
SK1
62
256
6
ByLayer
370
18
48
1
60
0
100
AcDbLine
10
-35.065
20
3
30
0
11
-35.65
21
2.415
31
0
39
0
210
0
220
0
230
1
0
LINE
5
8F
100
AcDbEntity
8
SK1
62
256
6
ByLayer
370
18
48
1
60
0
100
AcDbLine
10
-35.065
20
-3
30
0
11
0
21
-3
31
0
39
0
210
0
220
0
230
1
0
LINE
5
90
100
AcDbEntity
8
SK1
62
256
6
ByLayer
370
18
48
1
60
0
100
AcDbLine
10
0
20
3
30
0
11
-35.065
21
3
31
0
39
0
210
0
220
0
230
1
0
LINE
5
91
100
AcDbEntity
8
1
62
256
6
ByLayer
370
18
48
1
60
0
100
AcDbLine
10
1.592477
20
-1.560033
30
0
11
8.068173
21
-1.56408
31
0
39
0
210
0
220
0
230
1
0
LINE
5
92
100
AcDbEntity
8
1
62
256
6
ByLayer
370
18
48
1
60
0
100
AcDbLine
10
15.78752
20
-1.568905
30
0
11
16.249668
21
-1.569194
31
0
39
0
210
0
220
0
230
1
0
LINE
5
93
100
AcDbEntity
8
1
62
256
6
ByLayer
370
18
48
1
60
0
100
AcDbLine
10
24.787629
20
-1.57453
30
0
11
25.251001
21
-1.574819
31
0
39
0
210
0
220
0
230
1
0
LINE
5
94
100
AcDbEntity
8
1
62
256
6
ByLayer
370
18
48
1
60
0
100
AcDbLine
10
25.25099
20
1.574819
30
0
11
24.787629
21
1.57453
31
0
39
0
210
0
220
0
230
1
0
LINE
5
95
100
AcDbEntity
8
1
62
256
6
ByLayer
370
18
48
1
60
0
100
AcDbLine
10
16.250798
20
1.569194
30
0
11
15.78752
21
1.568905
31
0
39
0
210
0
220
0
230
1
0
LINE
5
96
100
AcDbEntity
8
1
62
256
6
ByLayer
370
18
48
1
60
0
100
AcDbLine
10
8.068173
20
1.56408
30
0
11
1.592477
21
1.560033
31
0
39
0
210
0
220
0
230
1
0
LINE
5
97
100
AcDbEntity
8
81
62
256
6
ByLayer
370
18
48
1
60
0
100
AcDbLine
10
26
20
0
30
0
11
31
21
0
31
0
39
0
210
0
220
0
230
1
0
LINE
5
98
100
AcDbEntity
8
SK2
62
256
6
ByLayer
370
13
48
1
60
0
100
AcDbLine
10
-44.625163
20
32.117107
30
0
11
-44.625163
21
-11.75
31
0
39
0
210
0
220
0
230
1
0
LINE
5
9A
100
AcDbEntity
8
SK2
62
256
6
ByLayer
370
13
48
1
60
0
100
AcDbLine
10
-37.5875
20
3
30
0
11
-46.625163
21
3
31
0
39
0
210
0
220
0
230
1
0
LINE
5
9B
100
AcDbEntity
8
SK2
62
256
6
ByLayer
370
13
48
1
60
0
100
AcDbLine
10
-37.5875
20
-3
30
0
11
-46.625163
21
-3
31
0
39
0
210
0
220
0
230
1
0
LINE
5
9C
100
AcDbEntity
8
1
62
256
6
ByLayer
370
18
48
1
60
1
100
AcDbLine
10
-44.625163
20
3
30
0
11
-45.085946
21
6.499998
31
0
39
0
210
0
220
0
230
1
0
LINE
5
9D
100
AcDbEntity
8
1
62
256
6
ByLayer
370
18
48
1
60
1
100
AcDbLine
10
-45.085946
20
6.499998
30
0
11
-44.164379
21
6.500002
31
0
39
0
210
0
220
0
230
1
0
LINE
5
9E
100
AcDbEntity
8
1
62
256
6
ByLayer
370
18
48
1
60
1
100
AcDbLine
10
-44.164379
20
6.500002
30
0
11
-44.625163
21
3
31
0
39
0
210
0
220
0
230
1
0
LINE
5
9F
100
AcDbEntity
8
1
62
256
6
ByLayer
370
18
48
1
60
1
100
AcDbLine
10
-44.625163
20
-3
30
0
11
-44.164379
21
-6.499998
31
0
39
0
210
0
220
0
230
1
0
LINE
5
A0
100
AcDbEntity
8
1
62
256
6
ByLayer
370
18
48
1
60
1
100
AcDbLine
10
-44.164379
20
-6.499998
30
0
11
-45.085946
21
-6.500002
31
0
39
0
210
0
220
0
230
1
0
LINE
5
A1
100
AcDbEntity
8
1
62
256
6
ByLayer
370
18
48
1
60
1
100
AcDbLine
10
-45.085946
20
-6.500002
30
0
11
-44.625163
21
-3
31
0
39
0
210
0
220
0
230
1
0
LINE
5
A2
100
AcDbEntity
8
2
62
256
6
ByLayer
370
13
48
1
60
0
100
AcDbLine
10
38.083343
20
28.410327
30
0
11
38.083343
21
-10.325
31
0
39
0
210
0
220
0
230
1
0
LINE
5
A4
100
AcDbEntity
8
2
62
256
6
ByLayer
370
13
48
1
60
0
100
AcDbLine
10
27.1358
20
1.575
30
0
11
40.083343
21
1.575
31
0
39
0
210
0
220
0
230
1
0
LINE
5
A5
100
AcDbEntity
8
2
62
256
6
ByLayer
370
13
48
1
60
0
100
AcDbLine
10
27.1358
20
-1.575
30
0
11
40.083343
21
-1.575
31
0
39
0
210
0
220
0
230
1
0
LINE
5
A6
100
AcDbEntity
8
1
62
256
6
ByLayer
370
18
48
1
60
1
100
AcDbLine
10
38.083343
20
1.575
30
0
11
37.622559
21
5.074998
31
0
39
0
210
0
220
0
230
1
0
LINE
5
A7
100
AcDbEntity
8
1
62
256
6
ByLayer
370
18
48
1
60
1
100
AcDbLine
10
37.622559
20
5.074998
30
0
11
38.544126
21
5.075002
31
0
39
0
210
0
220
0
230
1
0
LINE
5
A8
100
AcDbEntity
8
1
62
256
6
ByLayer
370
18
48
1
60
1
100
AcDbLine
10
38.544126
20
5.075002
30
0
11
38.083343
21
1.575
31
0
39
0
210
0
220
0
230
1
0
LINE
5
A9
100
AcDbEntity
8
1
62
256
6
ByLayer
370
18
48
1
60
1
100
AcDbLine
10
38.083343
20
-1.575
30
0
11
38.544126
21
-5.074998
31
0
39
0
210
0
220
0
230
1
0
LINE
5
AA
100
AcDbEntity
8
1
62
256
6
ByLayer
370
18
48
1
60
1
100
AcDbLine
10
38.544126
20
-5.074998
30
0
11
37.622559
21
-5.075002
31
0
39
0
210
0
220
0
230
1
0
LINE
5
AB
100
AcDbEntity
8
1
62
256
6
ByLayer
370
18
48
1
60
1
100
AcDbLine
10
37.622559
20
-5.075002
30
0
11
38.083343
21
-1.575
31
0
39
0
210
0
220
0
230
1
0
LINE
5
F1
100
AcDbEntity
8
1
62
256
6
ByLayer
370
18
48
1
60
1
100
AcDbLine
10
-44.625163
20
3
30
0
11
-45.085946
21
6.499998
31
0
39
0
210
0
220
0
230
1
0
LINE
5
F2
100
AcDbEntity
8
1
62
256
6
ByLayer
370
18
48
1
60
1
100
AcDbLine
10
-45.085946
20
6.499998
30
0
11
-44.164379
21
6.500002
31
0
39
0
210
0
220
0
230
1
0
LINE
5
F3
100
AcDbEntity
8
1
62
256
6
ByLayer
370
18
48
1
60
1
100
AcDbLine
10
-44.164379
20
6.500002
30
0
11
-44.625163
21
3
31
0
39
0
210
0
220
0
230
1
0
LINE
5
F5
100
AcDbEntity
8
1
62
256
6
ByLayer
370
18
48
1
60
1
100
AcDbLine
10
-44.625163
20
-3
30
0
11
-44.164379
21
-6.499998
31
0
39
0
210
0
220
0
230
1
0
LINE
5
F6
100
AcDbEntity
8
1
62
256
6
ByLayer
370
18
48
1
60
1
100
AcDbLine
10
-44.164379
20
-6.499998
30
0
11
-45.085946
21
-6.500002
31
0
39
0
210
0
220
0
230
1
0
LINE
5
F7
100
AcDbEntity
8
1
62
256
6
ByLayer
370
18
48
1
60
1
100
AcDbLine
10
-45.085946
20
-6.500002
30
0
11
-44.625163
21
-3
31
0
39
0
210
0
220
0
230
1
0
LINE
5
FB
100
AcDbEntity
8
1
62
256
6
ByLayer
370
18
48
1
60
1
100
AcDbLine
10
38.083343
20
1.575
30
0
11
37.622559
21
5.074998
31
0
39
0
210
0
220
0
230
1
0
LINE
5
FC
100
AcDbEntity
8
1
62
256
6
ByLayer
370
18
48
1
60
1
100
AcDbLine
10
37.622559
20
5.074998
30
0
11
38.544126
21
5.075002
31
0
39
0
210
0
220
0
230
1
0
LINE
5
FD
100
AcDbEntity
8
1
62
256
6
ByLayer
370
18
48
1
60
1
100
AcDbLine
10
38.544126
20
5.075002
30
0
11
38.083343
21
1.575
31
0
39
0
210
0
220
0
230
1
0
LINE
5
FF
100
AcDbEntity
8
1
62
256
6
ByLayer
370
18
48
1
60
1
100
AcDbLine
10
38.083343
20
-1.575
30
0
11
38.544126
21
-5.074998
31
0
39
0
210
0
220
0
230
1
0
LINE
5
100
100
AcDbEntity
8
1
62
256
6
ByLayer
370
18
48
1
60
1
100
AcDbLine
10
38.544126
20
-5.074998
30
0
11
37.622559
21
-5.075002
31
0
39
0
210
0
220
0
230
1
0
LINE
5
101
100
AcDbEntity
8
1
62
256
6
ByLayer
370
18
48
1
60
1
100
AcDbLine
10
37.622559
20
-5.075002
30
0
11
38.083343
21
-1.575
31
0
39
0
210
0
220
0
230
1
0
MTEXT
5
EB
100
AcDbEntity
8
SK6
62
256
6
ByLayer
370
13
48
1
60
0
100
AcDbMText
10
-33.70776
20
34.115328
30
0
210
0
220
0
230
1
1
\W0.7563;462.1-0315-009A1-XM X2BM
40
3.5
41
0
44
1.084337
50
0
71
7
72
5
7
iso_b_vert
0
MTEXT
5
EF
100
AcDbEntity
8
SK2
62
256
6
ByLayer
370
18
48
1
60
0
100
AcDbMText
10
-46.189796
20
16.409024
30
0
210
0
220
0
230
1
1
%%c
40
3.5
41
0
44
1.084337
50
90
71
7
72
5
7
iso_b_vert
0
MTEXT
5
F0
100
AcDbEntity
8
SK2
62
256
6
ByLayer
370
18
48
1
60
0
100
AcDbMText
10
-46.189796
20
21.63168
30
0
210
0
220
0
230
1
1
\W0.7317;6,000
40
3.5
41
0
44
1.084337
50
90
71
7
72
5
7
iso_b_vert
0
MTEXT
5
F9
100
AcDbEntity
8
2
62
256
6
ByLayer
370
18
48
1
60
0
100
AcDbMText
10
36.518709
20
13.57711
30
0
210
0
220
0
230
1
1
%%c
40
3.5
41
0
44
1.084337
50
90
71
7
72
5
7
iso_b_vert
0
MTEXT
5
FA
100
AcDbEntity
8
2
62
256
6
ByLayer
370
18
48
1
60
0
100
AcDbMText
10
36.518709
20
18.799766
30
0
210
0
220
0
230
1
1
\W0.6713;3,150
40
3.5
41
0
44
1.084337
50
90
71
7
72
5
7
iso_b_vert
0
HATCH
5
F4
100
AcDbEntity
8
SK2
62
256
6
ByLayer
370
13
48
1
60
0
100
AcDbHatch
10
0
20
0
30
0
210
0
220
0
230
1
2
ANSI31
70
0
71
0
91
1
92
5
93
3
72
1
10
-44.6251625675374
20
3
11
-45.0859463090902
21
6.49999830744682
72
1
10
-45.0859463090902
20
6.49999830744682
11
-44.1643788259847
21
6.50000169255318
72
1
10
-44.1643788259847
20
6.50000169255318
11
-44.6251625675374
21
3
97
0
75
0
76
1
52
0
41
0.0062
77
0
78
1
53
45
43
0
44
0
45
-0.0139193969876572
46
0.0139193969876572
79
0
47
0
98
1
10
0
20
0
0
HATCH
5
F8
100
AcDbEntity
8
SK2
62
256
6
ByLayer
370
13
48
1
60
0
100
AcDbHatch
10
0
20
0
30
0
210
0
220
0
230
1
2
ANSI31
70
0
71
0
91
1
92
5
93
3
72
1
10
-44.6251625675374
20
-3
11
-44.1643788259847
21
-6.49999830744682
72
1
10
-44.1643788259847
20
-6.49999830744682
11
-45.0859463090902
21
-6.50000169255318
72
1
10
-45.0859463090902
20
-6.50000169255318
11
-44.6251625675374
21
-3
97
0
75
0
76
1
52
0
41
0.0062
77
0
78
1
53
45
43
0
44
0
45
-0.0139193969876572
46
0.0139193969876572
79
0
47
0
98
1
10
0
20
0
0
HATCH
5
FE
100
AcDbEntity
8
2
62
256
6
ByLayer
370
13
48
1
60
0
100
AcDbHatch
10
0
20
0
30
0
210
0
220
0
230
1
2
ANSI31
70
0
71
0
91
1
92
5
93
3
72
1
10
38.083342615295
20
1.57500000000002
11
37.6225588737423
21
5.07499830744683
72
1
10
37.6225588737423
20
5.07499830744683
11
38.5441263568478
21
5.0750016925532
72
1
10
38.5441263568478
20
5.0750016925532
11
38.083342615295
21
1.57500000000002
97
0
75
0
76
1
52
0
41
0.0062
77
0
78
1
53
45
43
0
44
0
45
-0.0139193969876572
46
0.0139193969876572
79
0
47
0
98
1
10
0
20
0
0
HATCH
5
102
100
AcDbEntity
8
2
62
256
6
ByLayer
370
13
48
1
60
0
100
AcDbHatch
10
0
20
0
30
0
210
0
220
0
230
1
2
ANSI31
70
0
71
0
91
1
92
5
93
3
72
1
10
38.083342615295
20
-1.57499999999999
11
38.5441263568478
21
-5.0749983074468
72
1
10
38.5441263568478
20
-5.0749983074468
11
37.6225588737423
21
-5.07500169255317
72
1
10
37.6225588737423
20
-5.07500169255317
11
38.083342615295
21
-1.57499999999999
97
0
75
0
76
1
52
0
41
0.0062
77
0
78
1
53
45
43
0
44
0
45
-0.0139193969876572
46
0.0139193969876572
79
0
47
0
98
1
10
0
20
0
0
DIMENSION
5
104
100
AcDbEntity
8
SK2
62
256
6
ByLayer
370
13
48
1
60
0
100
AcDbDimension
2
_U0
10
25.5483
20
-11.788398
30
0
11
12.77415
21
-11.788398
31
0
70
32
71
1
72
1
41
1
210
0
220
0
230
1
3
Standard
100
AcDbAlignedDimension
13
0
23
0
33
0
14
25.5483
24
-1.575
34
0
50
0
100
AcDbRotatedDimension
1001
ACAD
1000
DSTYLE
1002
{
1070
   371
1070
    13
1070
   372
1070
    13
1070
   170
1070
     0
1070
   144
1040
1.0
1070
   277
1070
     2
1070
   278
1070
    44
1070
   146
1040
1.0
1070
   345
1005
16
1070
   347
1005
16
1070
   346
1005
16
1070
   344
1005
0
1070
   343
1005
0
1070
   172
1070
     1
1070
    76
1070
     0
1070
    75
1070
     0
1070
   282
1070
     0
1070
   281
1070
     0
1070
    71
1070
     0
1070
    74
1070
     0
1070
   279
1070
     0
1070
   173
1070
     1
1070
   340
1005
EC
1070
   271
1070
     2
1070
   272
1070
     2
1070
    77
1070
     1
1070
    73
1070
     1
1070
   171
1070
     3
1070
   274
1070
     4
1070
   177
1070
    35
1070
   176
1070
    35
1070
   178
1070
    35
1070
    48
1040
-0.1
1070
    41
1040
3.5
1070
   147
1040
1.75
1070
    42
1040
1.5875
1070
    44
1040
2.0
1070
   140
1040
3.5
1002
}
1001
ACAD_DSTYLE_DIM_LINETYPE
1070
   380
1005
16
1001
ACAD_DSTYLE_DIM_EXT1_LINETYPE
1070
   381
1005
16
1001
ACAD_DSTYLE_DIM_EXT2_LINETYPE
1070
   382
1005
16
0
DIMENSION
5
11D
100
AcDbEntity
8
SK2
62
256
6
ByLayer
370
13
48
1
60
0
100
AcDbDimension
2
_U1
10
26
20
-31.692985
30
0
11
-5
21
-31.692985
31
0
70
32
71
1
72
1
41
1
210
0
220
0
230
1
3
Standard
100
AcDbAlignedDimension
13
-36
23
-3
33
0
14
26
24
0
34
0
50
0
100
AcDbRotatedDimension
1001
ACAD
1000
DSTYLE
1002
{
1070
   371
1070
    13
1070
   372
1070
    13
1070
   170
1070
     0
1070
   144
1040
1.0
1070
   277
1070
     2
1070
   278
1070
    44
1070
   146
1040
1.0
1070
   345
1005
16
1070
   347
1005
16
1070
   346
1005
16
1070
   344
1005
0
1070
   343
1005
0
1070
   172
1070
     1
1070
    76
1070
     0
1070
    75
1070
     0
1070
   282
1070
     0
1070
   281
1070
     0
1070
    71
1070
     0
1070
    74
1070
     0
1070
   279
1070
     0
1070
   173
1070
     1
1070
   340
1005
EC
1070
   271
1070
     2
1070
   272
1070
     2
1070
    77
1070
     1
1070
    73
1070
     1
1070
   171
1070
     3
1070
   274
1070
     4
1070
   177
1070
    35
1070
   176
1070
    35
1070
   178
1070
    35
1070
    48
1040
-0.1
1070
    41
1040
3.5
1070
   147
1040
1.75
1070
    42
1040
1.5875
1070
    44
1040
2.0
1070
   140
1040
3.5
1002
}
1001
ACAD_DSTYLE_DIM_LINETYPE
1070
   380
1005
16
1001
ACAD_DSTYLE_DIM_EXT1_LINETYPE
1070
   381
1005
16
1001
ACAD_DSTYLE_DIM_EXT2_LINETYPE
1070
   382
1005
16
0
DIMENSION
5
135
100
AcDbEntity
8
SK2
62
256
6
ByLayer
370
13
48
1
60
0
100
AcDbDimension
2
_U2
10
26
20
13.184119
30
0
11
21.05
21
13.184119
31
0
70
32
71
1
72
1
41
1
210
0
220
0
230
1
3
Standard
100
AcDbAlignedDimension
13
16.1
23
1.575
33
0
14
26
24
0
34
0
50
0
100
AcDbRotatedDimension
1001
ACAD
1000
DSTYLE
1002
{
1070
   371
1070
    13
1070
   372
1070
    13
1070
   170
1070
     0
1070
   144
1040
1.0
1070
   277
1070
     2
1070
   278
1070
    44
1070
   146
1040
1.0
1070
   345
1005
16
1070
   347
1005
16
1070
   346
1005
16
1070
   344
1005
0
1070
   343
1005
0
1070
   172
1070
     1
1070
    76
1070
     0
1070
    75
1070
     0
1070
   282
1070
     0
1070
   281
1070
     0
1070
    71
1070
     0
1070
    74
1070
     0
1070
   279
1070
     0
1070
   173
1070
     1
1070
   340
1005
EC
1070
   271
1070
     2
1070
   272
1070
     2
1070
    77
1070
     1
1070
    73
1070
     1
1070
   171
1070
     3
1070
   274
1070
     4
1070
   177
1070
    35
1070
   176
1070
    35
1070
   178
1070
    35
1070
    48
1040
-0.1
1070
    41
1040
3.5
1070
   147
1040
1.75
1070
    42
1040
1.5875
1070
    44
1040
2.0
1070
   140
1040
3.5
1002
}
1001
ACAD_DSTYLE_DIM_LINETYPE
1070
   380
1005
16
1001
ACAD_DSTYLE_DIM_EXT1_LINETYPE
1070
   381
1005
16
1001
ACAD_DSTYLE_DIM_EXT2_LINETYPE
1070
   382
1005
16
0
DIMENSION
5
14E
100
AcDbEntity
8
SK2
62
256
6
ByLayer
370
13
48
1
60
0
100
AcDbDimension
2
_U3
10
25.5483
20
-14.377503
30
0
11
43.583333
21
-14.377503
31
0
70
32
71
1
72
1
41
1
210
0
220
0
230
1
3
Standard
100
AcDbAlignedDimension
13
26
23
0
33
0
14
25.5483
24
-1.575
34
0
50
0
100
AcDbRotatedDimension
1001
ACAD
1000
DSTYLE
1002
{
1070
   371
1070
    13
1070
   372
1070
    13
1070
   170
1070
     0
1070
   144
1040
1.0
1070
   277
1070
     2
1070
   278
1070
    44
1070
   146
1040
1.0
1070
   345
1005
16
1070
   347
1005
16
1070
   346
1005
16
1070
   344
1005
0
1070
   343
1005
0
1070
   172
1070
     1
1070
    76
1070
     0
1070
    75
1070
     0
1070
   282
1070
     0
1070
   281
1070
     0
1070
    71
1070
     0
1070
    74
1070
     0
1070
   279
1070
     0
1070
   173
1070
     1
1070
   340
1005
EC
1070
   271
1070
     2
1070
   272
1070
     2
1070
    77
1070
     1
1070
    73
1070
     1
1070
   171
1070
     3
1070
   274
1070
     4
1070
   177
1070
    35
1070
   176
1070
    35
1070
   178
1070
    35
1070
    48
1040
-0.1
1070
    41
1040
3.5
1070
   147
1040
1.75
1070
    42
1040
1.5875
1070
    44
1040
2.0
1070
   140
1040
3.5
1002
}
1001
ACAD_DSTYLE_DIM_LINETYPE
1070
   380
1005
16
1001
ACAD_DSTYLE_DIM_EXT1_LINETYPE
1070
   381
1005
16
1001
ACAD_DSTYLE_DIM_EXT2_LINETYPE
1070
   382
1005
16
0
DIMENSION
5
168
100
AcDbEntity
8
SK2
62
256
6
ByLayer
370
13
48
1
60
0
100
AcDbDimension
2
_U4
10
25.5483
20
-21.343428
30
0
11
-5.22585
21
-21.343428
31
0
70
32
71
1
72
1
41
1
210
0
220
0
230
1
3
Standard
100
AcDbAlignedDimension
13
-36
23
-3
33
0
14
25.5483
24
-1.575
34
0
50
0
100
AcDbRotatedDimension
1001
ACAD
1000
DSTYLE
1002
{
1070
   371
1070
    13
1070
   372
1070
    13
1070
   170
1070
     0
1070
   144
1040
1.0
1070
   277
1070
     2
1070
   278
1070
    44
1070
   146
1040
1.0
1070
   345
1005
16
1070
   347
1005
16
1070
   346
1005
16
1070
   344
1005
0
1070
   343
1005
0
1070
   172
1070
     1
1070
    76
1070
     0
1070
    75
1070
     0
1070
   282
1070
     0
1070
   281
1070
     0
1070
    71
1070
     0
1070
    74
1070
     0
1070
   279
1070
     0
1070
   173
1070
     1
1070
   340
1005
EC
1070
   271
1070
     2
1070
   272
1070
     2
1070
    77
1070
     1
1070
    73
1070
     1
1070
   171
1070
     3
1070
   274
1070
     4
1070
   177
1070
    35
1070
   176
1070
    35
1070
   178
1070
    35
1070
    48
1040
-0.1
1070
    41
1040
3.5
1070
   147
1040
1.75
1070
    42
1040
1.5875
1070
    44
1040
2.0
1070
   140
1040
3.5
1002
}
1001
ACAD_DSTYLE_DIM_LINETYPE
1070
   380
1005
16
1001
ACAD_DSTYLE_DIM_EXT1_LINETYPE
1070
   381
1005
16
1001
ACAD_DSTYLE_DIM_EXT2_LINETYPE
1070
   382
1005
16
0
ENDSEC
0
SECTION
2
OBJECTS
0
DICTIONARY
5
1f0
330
0
100
AcDbDictionary
280
0
281
1
3
ACAD_GROUP
350
1f1
3
ACAD_MLINESTYLE
350
1f2
0
DICTIONARY
5
1f1
330
0
100
AcDbDictionary
280
0
281
1
0
DICTIONARY
5
1f2
330
0
100
AcDbDictionary
280
0
281
1
3
Standard
350
18
0
MLINESTYLE
5
18
330
1f2
100
AcDbMlineStyle
2
Standard
70
0
3

62
256
51
90
52
90
71
2
49
-0.5
62
256
6
ByLayer
49
0.5
62
256
6
ByLayer
0
RASTERVARIABLES
5
1de
330

100
AcDbRasterVariables
90
0
70
1
71
1
72
1
0
ENDSEC
0
EOF
