0
SECTION
2
HEADER
9
$ACADVER
1
AC1015
9
$DWGCODEPAGE
3
ANSI_1252
9
$HANDSEED
5
200
9
$ANGBASE
50
0
9
$ANGDIR
70
0
9
$ATTMODE
70
1
9
$AUNITS
70
0
9
$AUPREC
70
0
9
$CECOLOR
62
256
9
$CELTSCALE
40
1
9
$CELTYPE
6
ByLayer
9
$CELWEIGHT
370
18
9
$CLAYER
8
0
9
$CMLJUST
70
0
9
$CMLSCALE
40
1
9
$CMLSTYLE
2
Standard
9
$DIMSTYLE
2
Standard
9
$TEXTSIZE
40
0.2
9
$TEXTSTYLE
7
Standard
9
$LUNITS
70
2
9
$LUPREC
70
4
9
$EXTNAMES
290
1
9
$INSUNITS
70
4
9
$LTSCALE
40
1
9
$LWDISPLAY
290
1
9
$PDMODE
70
0
9
$PDSIZE
40
0
9
$PLINEGEN
70
0
0
ENDSEC
0
SECTION
2
CLASSES
0
CLASS
1
RASTERVARIABLES
2
AcDbRasterVariables
3
ISM
90
0
280
0
281
0
0
ENDSEC
0
SECTION
2
TABLES
0
TABLE
2
VPORT
5
1f6
100
AcDbSymbolTable
0
VPORT
5
1
100
AcDbSymbolTableRecord
100
AcDbViewportTableRecord
2
*Active
70
0
10
0
20
0
11
1
21
1
12
-1
22
1
13
0
23
0
14
0.5
24
0.5
15
10
25
10
16
0
26
0
36
1
17
0
27
0
37
0
0
ENDTAB
0
TABLE
2
LTYPE
5
1f7
100
AcDbSymbolTable
0
LTYPE
5
14
100
AcDbSymbolTableRecord
100
AcDbLinetypeTableRecord
70
0
2
ByBlock
3

72
65
73
0
40
0
0
LTYPE
5
15
100
AcDbSymbolTableRecord
100
AcDbLinetypeTableRecord
70
0
2
ByLayer
3

72
65
73
0
40
0
0
LTYPE
5
16
100
AcDbSymbolTableRecord
100
AcDbLinetypeTableRecord
70
0
2
Continuous
3
Solid line
72
65
73
0
40
0
0
LTYPE
5
6E
100
AcDbSymbolTableRecord
100
AcDbLinetypeTableRecord
70
0
2
CENTER
3
____ _ ____ _ ____ _ ____
72
65
73
4
40
47.5
49
22
74
0
49
-8.5
74
0
49
8.5
74
0
49
-8.5
74
0
0
LTYPE
5
6F
100
AcDbSymbolTableRecord
100
AcDbLinetypeTableRecord
70
0
2
DASHED
3
__ __ __ __ __ __ __ __ __
72
65
73
2
40
25.72
49
12.86
74
0
49
-12.86
74
0
0
ENDTAB
0
TABLE
2
LAYER
5
1f8
100
AcDbSymbolTable
0
LAYER
5
10
100
AcDbSymbolTableRecord
100
AcDbLayerTableRecord
2
0
70
0
62
7
6
Continuous
290
1
370
-3
390
0
0
LAYER
5
71
100
AcDbSymbolTableRecord
100
AcDbLayerTableRecord
2
80
70
0
62
-6
6
Continuous
290
1
370
-3
390
0
0
LAYER
5
73
100
AcDbSymbolTableRecord
100
AcDbLayerTableRecord
2
81
70
0
62
-3
6
Continuous
290
1
370
-3
390
0
0
LAYER
5
75
100
AcDbSymbolTableRecord
100
AcDbLayerTableRecord
2
1
70
0
62
4
6
Continuous
290
1
370
-3
390
0
0
LAYER
5
8A
100
AcDbSymbolTableRecord
100
AcDbLayerTableRecord
2
4
70
0
62
-2
6
CENTER
290
1
370
-3
390
0
0
LAYER
5
A3
100
AcDbSymbolTableRecord
100
AcDbLayerTableRecord
2
2
70
0
62
7
6
Continuous
290
1
370
-3
390
0
0
LAYER
5
10B
100
AcDbSymbolTableRecord
100
AcDbLayerTableRecord
2
Defpoints
70
0
62
7
6
Continuous
290
0
370
-3
390
0
0
LAYER
5
1e2
100
AcDbSymbolTableRecord
100
AcDbLayerTableRecord
2
SK1
70
0
62
4
6
Continuous
290
1
370
-3
390
0
0
LAYER
5
1e3
100
AcDbSymbolTableRecord
100
AcDbLayerTableRecord
2
SK4
70
0
62
2
6
CENTER
290
1
370
-3
390
0
0
LAYER
5
1e4
100
AcDbSymbolTableRecord
100
AcDbLayerTableRecord
2
SK2
70
0
62
7
6
Continuous
290
1
370
-3
390
0
0
LAYER
5
1e5
100
AcDbSymbolTableRecord
100
AcDbLayerTableRecord
2
SK6
70
0
62
5
6
Continuous
290
1
370
-3
390
0
0
ENDTAB
0
TABLE
2
STYLE
5
1f9
100
AcDbSymbolTable
0
STYLE
5
11
100
AcDbSymbolTableRecord
100
AcDbTextStyleTableRecord
2
Standard
3
txt
70
0
71
0
40
0
41
1
42
0
50
0
0
STYLE
5
F0
100
AcDbSymbolTableRecord
100
AcDbTextStyleTableRecord
2
iso_b_vert
3
simplex.shx
70
0
71
0
40
0
41
1
42
0
50
0
0
STYLE
5
F1
100
AcDbSymbolTableRecord
100
AcDbTextStyleTableRecord
2
DWGDirectTextStyle
3
simplex
70
0
71
0
40
0
41
1
42
0
50
0
0
ENDTAB
0
TABLE
2
DIMSTYLE
5
1fa
100
AcDbSymbolTable
100
AcDbDimStyleTable
0
DIMSTYLE
105
27
100
AcDbSymbolTableRecord
100
AcDbDimStyleTableRecord
2
Standard
70
0
3
<>
41
0.18
42
0.0625
44
0.18
140
0.18
147
0.09
73
0
74
0
77
1
271
2
275
0
278
52
280
0
340
11
0
ENDTAB
0
TABLE
2
VIEW
5
1fb
100
AcDbSymbolTable
0
ENDTAB
0
TABLE
2
UCS
5
1fc
100
AcDbSymbolTable
0
ENDTAB
0
TABLE
2
APPID
5
1fd
100
AcDbSymbolTable
0
APPID
5
12
100
AcDbSymbolTableRecord
100
AcDbRegAppTableRecord
2
ACAD
70
0
0
APPID
5
107
100
AcDbSymbolTableRecord
100
AcDbRegAppTableRecord
2
ACAD_DSTYLE_DIMBREAK
70
0
0
APPID
5
1A1
100
AcDbSymbolTableRecord
100
AcDbRegAppTableRecord
2
ACAD_DSTYLE_DIM_LINETYPE
70
0
0
APPID
5
1A2
100
AcDbSymbolTableRecord
100
AcDbRegAppTableRecord
2
ACAD_DSTYLE_DIM_EXT1_LINETYPE
70
0
0
APPID
5
1A3
100
AcDbSymbolTableRecord
100
AcDbRegAppTableRecord
2
ACAD_DSTYLE_DIM_EXT2_LINETYPE
70
0
0
APPID
5
1DE
100
AcDbSymbolTableRecord
100
AcDbRegAppTableRecord
2
ACAD_MLEADERVER
70
0
0
ENDTAB
0
TABLE
2
BLOCK_RECORD
5
1fe
100
AcDbSymbolTable
0
BLOCK_RECORD
5
1F
100
AcDbSymbolTableRecord
100
AcDbBlockTableRecord
2
*Model_Space
340
0
70
0
0
BLOCK_RECORD
5
1B
100
AcDbSymbolTableRecord
100
AcDbBlockTableRecord
2
*Paper_Space
340
0
70
0
0
BLOCK_RECORD
5
23
100
AcDbSymbolTableRecord
100
AcDbBlockTableRecord
2
*Paper_Space0
340
0
70
0
0
BLOCK_RECORD
5
10C
100
AcDbSymbolTableRecord
100
AcDbBlockTableRecord
2
*D1
340
0
70
0
0
BLOCK_RECORD
5
118
100
AcDbSymbolTableRecord
100
AcDbBlockTableRecord
2
_U0
340
0
70
0
0
BLOCK_RECORD
5
124
100
AcDbSymbolTableRecord
100
AcDbBlockTableRecord
2
*D3
340
0
70
0
0
BLOCK_RECORD
5
130
100
AcDbSymbolTableRecord
100
AcDbBlockTableRecord
2
_U1
340
0
70
0
0
BLOCK_RECORD
5
13C
100
AcDbSymbolTableRecord
100
AcDbBlockTableRecord
2
*D5
340
0
70
0
0
BLOCK_RECORD
5
148
100
AcDbSymbolTableRecord
100
AcDbBlockTableRecord
2
_U2
340
0
70
0
0
BLOCK_RECORD
5
154
100
AcDbSymbolTableRecord
100
AcDbBlockTableRecord
2
*D7
340
0
70
0
0
BLOCK_RECORD
5
162
100
AcDbSymbolTableRecord
100
AcDbBlockTableRecord
2
_U3
340
0
70
0
0
BLOCK_RECORD
5
16E
100
AcDbSymbolTableRecord
100
AcDbBlockTableRecord
2
*D9
340
0
70
0
0
BLOCK_RECORD
5
17A
100
AcDbSymbolTableRecord
100
AcDbBlockTableRecord
2
_U4
340
0
70
0
0
ENDTAB
0
ENDSEC
0
SECTION
2
BLOCKS
0
BLOCK
5
20
100
AcDbEntity
8
0
100
AcDbBlockBegin
2
*Model_Space
70
0
10
0
20
0
30
0
3
*Model_Space
0
ENDBLK
5
21
100
AcDbEntity
8
0
100
AcDbBlockEnd
0
BLOCK
5
1C
100
AcDbEntity
8
0
100
AcDbBlockBegin
2
*Paper_Space
70
0
10
0
20
0
30
0
3
*Paper_Space
0
ENDBLK
5
1D
100
AcDbEntity
8
0
100
AcDbBlockEnd
0
BLOCK
5
24
100
AcDbEntity
8
0
100
AcDbBlockBegin
2
*Paper_Space0
70
0
10
0
20
0
30
0
3
*Paper_Space0
0
ENDBLK
5
25
100
AcDbEntity
8
0
100
AcDbBlockEnd
0
BLOCK
5
10D
100
AcDbEntity
8
0
100
AcDbBlockBegin
2
*D1
70
1
10
0
20
0
30
0
3
*D1
0
LINE
5
10F
100
AcDbEntity
8
0
62
256
6
ByLayer
370
-2
48
1
60
0
100
AcDbLine
10
0
20
-1.5875
30
0
11
0
21
-15.527898
31
0
39
0
210
0
220
0
230
1
0
LINE
5
110
100
AcDbEntity
8
0
62
256
6
ByLayer
370
-2
48
1
60
0
100
AcDbLine
10
42.0239
20
-4.902
30
0
11
42.0239
21
-15.527898
31
0
39
0
210
0
220
0
230
1
0
LINE
5
111
100
AcDbEntity
8
0
62
256
6
ByLayer
370
-2
48
1
60
0
100
AcDbLine
10
3.5
20
-13.527898
30
0
11
38.5239
21
-13.527898
31
0
39
0
210
0
220
0
230
1
0
SOLID
5
112
100
AcDbEntity
8
0
62
256
6
ByLayer
370
-1
48
1
60
0
100
AcDbTrace
10
3.5
20
-12.944565
30
0
11
3.5
21
-14.111232
31
0
12
0
22
-13.527898
32
0
13
0
23
-13.527898
33
0
39
0
210
0
220
0
230
1
0
SOLID
5
113
100
AcDbEntity
8
0
62
256
6
ByLayer
370
-1
48
1
60
0
100
AcDbTrace
10
38.5239
20
-14.111232
30
0
11
38.5239
21
-12.944565
31
0
12
42.0239
22
-13.527898
32
0
13
42.0239
23
-13.527898
33
0
39
0
210
0
220
0
230
1
0
MTEXT
5
114
100
AcDbEntity
8
0
62
256
6
ByLayer
370
18
48
1
60
0
100
AcDbMText
10
21.01195
20
-6.527898
30
0
210
0
220
0
230
1
1
\A1;42.02
40
3.5
41
0
44
1
50
0
71
5
72
5
7
iso_b_vert
0
POINT
5
115
100
AcDbEntity
8
Defpoints
62
0
6
ByLayer
370
-1
48
1
60
0
100
AcDbPoint
10
0
20
0
30
0
39
0
210
0
220
0
230
1
50
360
0
POINT
5
116
100
AcDbEntity
8
Defpoints
62
0
6
ByLayer
370
-1
48
1
60
0
100
AcDbPoint
10
42.0239
20
-3.3145
30
0
39
0
210
0
220
0
230
1
50
360
0
POINT
5
117
100
AcDbEntity
8
Defpoints
62
0
6
ByLayer
370
-1
48
1
60
0
100
AcDbPoint
10
42.0239
20
-13.527898
30
0
39
0
210
0
220
0
230
1
50
360
0
ENDBLK
5
10E
100
AcDbEntity
8
0
100
AcDbBlockEnd
0
BLOCK
5
11F
100
AcDbEntity
8
0
100
AcDbBlockBegin
2
_U0
70
0
10
0
20
0
30
0
3
_U0
0
MTEXT
5
119
100
AcDbEntity
8
SK2
62
256
6
ByLayer
370
13
48
1
60
0
100
AcDbMText
10
15.690385
20
-12.495265
30
0
210
0
220
0
230
1
1
\W0.7581;42,02
40
3.5
41
0
44
1.084337
50
0
71
7
72
5
7
iso_b_vert
0
LINE
5
11A
100
AcDbEntity
8
SK2
62
256
6
ByLayer
370
13
48
1
60
0
100
AcDbLine
10
0
20
-1.5875
30
0
11
0
21
-15.527898
31
0
39
0
210
0
220
0
230
1
0
LINE
5
11B
100
AcDbEntity
8
SK2
62
256
6
ByLayer
370
13
48
1
60
0
100
AcDbLine
10
42.0239
20
-4.902
30
0
11
42.0239
21
-15.527898
31
0
39
0
210
0
220
0
230
1
0
LINE
5
11C
100
AcDbEntity
8
SK2
62
256
6
ByLayer
370
13
48
1
60
0
100
AcDbLine
10
0
20
-13.527898
30
0
11
42.0239
21
-13.527898
31
0
39
0
210
0
220
0
230
1
0
SOLID
5
11D
100
AcDbEntity
8
SK2
62
256
6
ByLayer
370
18
48
1
60
0
100
AcDbTrace
10
0
20
-13.527898
30
0
11
3.499998
21
-13.067115
31
0
12
3.500002
22
-13.988682
32
0
13
3.500002
23
-13.988682
33
0
39
0
210
0
220
0
230
1
0
SOLID
5
11E
100
AcDbEntity
8
SK2
62
256
6
ByLayer
370
18
48
1
60
0
100
AcDbTrace
10
42.0239
20
-13.527898
30
0
11
38.523902
21
-13.988682
31
0
12
38.523898
22
-13.067115
32
0
13
38.523898
23
-13.067115
33
0
39
0
210
0
220
0
230
1
0
ENDBLK
5
120
100
AcDbEntity
8
0
100
AcDbBlockEnd
0
BLOCK
5
125
100
AcDbEntity
8
0
100
AcDbBlockBegin
2
*D3
70
1
10
0
20
0
30
0
3
*D3
0
LINE
5
127
100
AcDbEntity
8
0
62
256
6
ByLayer
370
-2
48
1
60
0
100
AcDbLine
10
-36
20
-5.5875
30
0
11
-36
21
-34.692985
31
0
39
0
210
0
220
0
230
1
0
LINE
5
128
100
AcDbEntity
8
0
62
256
6
ByLayer
370
-2
48
1
60
0
100
AcDbLine
10
43
20
-1.5875
30
0
11
43
21
-34.692985
31
0
39
0
210
0
220
0
230
1
0
LINE
5
129
100
AcDbEntity
8
0
62
256
6
ByLayer
370
-2
48
1
60
0
100
AcDbLine
10
-32.5
20
-32.692985
30
0
11
39.5
21
-32.692985
31
0
39
0
210
0
220
0
230
1
0
SOLID
5
12A
100
AcDbEntity
8
0
62
256
6
ByLayer
370
-1
48
1
60
0
100
AcDbTrace
10
-32.5
20
-32.109652
30
0
11
-32.5
21
-33.276319
31
0
12
-36
22
-32.692985
32
0
13
-36
23
-32.692985
33
0
39
0
210
0
220
0
230
1
0
SOLID
5
12B
100
AcDbEntity
8
0
62
256
6
ByLayer
370
-1
48
1
60
0
100
AcDbTrace
10
39.5
20
-33.276319
30
0
11
39.5
21
-32.109652
31
0
12
43
22
-32.692985
32
0
13
43
23
-32.692985
33
0
39
0
210
0
220
0
230
1
0
MTEXT
5
12C
100
AcDbEntity
8
0
62
256
6
ByLayer
370
18
48
1
60
0
100
AcDbMText
10
3.5
20
-25.692985
30
0
210
0
220
0
230
1
1
\A1;79.00
40
3.5
41
0
44
1
50
0
71
5
72
5
7
iso_b_vert
0
POINT
5
12D
100
AcDbEntity
8
Defpoints
62
0
6
ByLayer
370
-1
48
1
60
0
100
AcDbPoint
10
-36
20
-4
30
0
39
0
210
0
220
0
230
1
50
360
0
POINT
5
12E
100
AcDbEntity
8
Defpoints
62
0
6
ByLayer
370
-1
48
1
60
0
100
AcDbPoint
10
43
20
0
30
0
39
0
210
0
220
0
230
1
50
360
0
POINT
5
12F
100
AcDbEntity
8
Defpoints
62
0
6
ByLayer
370
-1
48
1
60
0
100
AcDbPoint
10
43
20
-32.692985
30
0
39
0
210
0
220
0
230
1
50
360
0
ENDBLK
5
126
100
AcDbEntity
8
0
100
AcDbBlockEnd
0
BLOCK
5
137
100
AcDbEntity
8
0
100
AcDbBlockBegin
2
_U1
70
0
10
0
20
0
30
0
3
_U1
0
MTEXT
5
131
100
AcDbEntity
8
SK2
62
256
6
ByLayer
370
13
48
1
60
0
100
AcDbMText
10
-1.637299
20
-31.660352
30
0
210
0
220
0
230
1
1
\W0.7317;79,00
40
3.5
41
0
44
1.084337
50
0
71
7
72
5
7
iso_b_vert
0
LINE
5
132
100
AcDbEntity
8
SK2
62
256
6
ByLayer
370
13
48
1
60
0
100
AcDbLine
10
-36
20
-5.5875
30
0
11
-36
21
-34.692985
31
0
39
0
210
0
220
0
230
1
0
LINE
5
133
100
AcDbEntity
8
SK2
62
256
6
ByLayer
370
13
48
1
60
0
100
AcDbLine
10
43
20
-1.5875
30
0
11
43
21
-34.692985
31
0
39
0
210
0
220
0
230
1
0
LINE
5
134
100
AcDbEntity
8
SK2
62
256
6
ByLayer
370
13
48
1
60
0
100
AcDbLine
10
-36
20
-32.692985
30
0
11
43
21
-32.692985
31
0
39
0
210
0
220
0
230
1
0
SOLID
5
135
100
AcDbEntity
8
SK2
62
256
6
ByLayer
370
18
48
1
60
0
100
AcDbTrace
10
-36
20
-32.692985
30
0
11
-32.500002
21
-32.232202
31
0
12
-32.499998
22
-33.153769
32
0
13
-32.499998
23
-33.153769
33
0
39
0
210
0
220
0
230
1
0
SOLID
5
136
100
AcDbEntity
8
SK2
62
256
6
ByLayer
370
18
48
1
60
0
100
AcDbTrace
10
43
20
-32.692985
30
0
11
39.500002
21
-33.153769
31
0
12
39.499998
22
-32.232202
32
0
13
39.499998
23
-32.232202
33
0
39
0
210
0
220
0
230
1
0
ENDBLK
5
138
100
AcDbEntity
8
0
100
AcDbBlockEnd
0
BLOCK
5
13D
100
AcDbEntity
8
0
100
AcDbBlockBegin
2
*D5
70
1
10
0
20
0
30
0
3
*D5
0
LINE
5
13F
100
AcDbEntity
8
0
62
256
6
ByLayer
370
-2
48
1
60
0
100
AcDbLine
10
22.13
20
4.902
30
0
11
22.13
21
16.923619
31
0
39
0
210
0
220
0
230
1
0
LINE
5
140
100
AcDbEntity
8
0
62
256
6
ByLayer
370
-2
48
1
60
0
100
AcDbLine
10
43
20
1.5875
30
0
11
43
21
16.923619
31
0
39
0
210
0
220
0
230
1
0
LINE
5
141
100
AcDbEntity
8
0
62
256
6
ByLayer
370
-2
48
1
60
0
100
AcDbLine
10
25.63
20
14.923619
30
0
11
39.5
21
14.923619
31
0
39
0
210
0
220
0
230
1
0
SOLID
5
142
100
AcDbEntity
8
0
62
256
6
ByLayer
370
-1
48
1
60
0
100
AcDbTrace
10
25.63
20
15.506953
30
0
11
25.63
21
14.340286
31
0
12
22.13
22
14.923619
32
0
13
22.13
23
14.923619
33
0
39
0
210
0
220
0
230
1
0
SOLID
5
143
100
AcDbEntity
8
0
62
256
6
ByLayer
370
-1
48
1
60
0
100
AcDbTrace
10
39.5
20
14.340286
30
0
11
39.5
21
15.506953
31
0
12
43
22
14.923619
32
0
13
43
23
14.923619
33
0
39
0
210
0
220
0
230
1
0
MTEXT
5
144
100
AcDbEntity
8
0
62
256
6
ByLayer
370
18
48
1
60
0
100
AcDbMText
10
32.565
20
21.923619
30
0
210
0
220
0
230
1
1
\A1;20.87
40
3.5
41
0
44
1
50
0
71
5
72
5
7
iso_b_vert
0
POINT
5
145
100
AcDbEntity
8
Defpoints
62
0
6
ByLayer
370
-1
48
1
60
0
100
AcDbPoint
10
22.13
20
3.3145
30
0
39
0
210
0
220
0
230
1
50
360
0
POINT
5
146
100
AcDbEntity
8
Defpoints
62
0
6
ByLayer
370
-1
48
1
60
0
100
AcDbPoint
10
43
20
0
30
0
39
0
210
0
220
0
230
1
50
360
0
POINT
5
147
100
AcDbEntity
8
Defpoints
62
0
6
ByLayer
370
-1
48
1
60
0
100
AcDbPoint
10
43
20
14.923619
30
0
39
0
210
0
220
0
230
1
50
360
0
ENDBLK
5
13E
100
AcDbEntity
8
0
100
AcDbBlockEnd
0
BLOCK
5
14F
100
AcDbEntity
8
0
100
AcDbBlockBegin
2
_U2
70
0
10
0
20
0
30
0
3
_U2
0
MTEXT
5
149
100
AcDbEntity
8
SK2
62
256
6
ByLayer
370
13
48
1
60
0
100
AcDbMText
10
27.427701
20
15.956253
30
0
210
0
220
0
230
1
1
\W0.7317;20,87
40
3.5
41
0
44
1.084337
50
0
71
7
72
5
7
iso_b_vert
0
LINE
5
14A
100
AcDbEntity
8
SK2
62
256
6
ByLayer
370
13
48
1
60
0
100
AcDbLine
10
22.13
20
4.902
30
0
11
22.13
21
16.923619
31
0
39
0
210
0
220
0
230
1
0
LINE
5
14B
100
AcDbEntity
8
SK2
62
256
6
ByLayer
370
13
48
1
60
0
100
AcDbLine
10
43
20
1.5875
30
0
11
43
21
16.923619
31
0
39
0
210
0
220
0
230
1
0
LINE
5
14C
100
AcDbEntity
8
SK2
62
256
6
ByLayer
370
13
48
1
60
0
100
AcDbLine
10
22.13
20
14.923619
30
0
11
43
21
14.923619
31
0
39
0
210
0
220
0
230
1
0
SOLID
5
14D
100
AcDbEntity
8
SK2
62
256
6
ByLayer
370
18
48
1
60
0
100
AcDbTrace
10
22.13
20
14.923619
30
0
11
25.629998
21
15.384403
31
0
12
25.630002
22
14.462835
32
0
13
25.630002
23
14.462835
33
0
39
0
210
0
220
0
230
1
0
SOLID
5
14E
100
AcDbEntity
8
SK2
62
256
6
ByLayer
370
18
48
1
60
0
100
AcDbTrace
10
43
20
14.923619
30
0
11
39.500002
21
14.462835
31
0
12
39.499998
22
15.384403
32
0
13
39.499998
23
15.384403
33
0
39
0
210
0
220
0
230
1
0
ENDBLK
5
150
100
AcDbEntity
8
0
100
AcDbBlockEnd
0
BLOCK
5
155
100
AcDbEntity
8
0
100
AcDbBlockBegin
2
*D7
70
1
10
0
20
0
30
0
3
*D7
0
LINE
5
157
100
AcDbEntity
8
0
62
256
6
ByLayer
370
-2
48
1
60
0
100
AcDbLine
10
43
20
-1.5875
30
0
11
43
21
-18.117003
31
0
39
0
210
0
220
0
230
1
0
LINE
5
158
100
AcDbEntity
8
0
62
256
6
ByLayer
370
-2
48
1
60
0
100
AcDbLine
10
42.0239
20
-4.902
30
0
11
42.0239
21
-18.117003
31
0
39
0
210
0
220
0
230
1
0
LINE
5
159
100
AcDbEntity
8
0
62
256
6
ByLayer
370
-2
48
1
60
0
100
AcDbLine
10
43
20
-16.117003
30
0
11
71.166667
21
-16.117003
31
0
39
0
210
0
220
0
230
1
0
LINE
5
15A
100
AcDbEntity
8
0
62
256
6
ByLayer
370
-2
48
1
60
0
100
AcDbLine
10
46.5
20
-16.117003
30
0
11
50
21
-16.117003
31
0
39
0
210
0
220
0
230
1
0
LINE
5
15B
100
AcDbEntity
8
0
62
256
6
ByLayer
370
-2
48
1
60
0
100
AcDbLine
10
38.5239
20
-16.117003
30
0
11
35.0239
21
-16.117003
31
0
39
0
210
0
220
0
230
1
0
SOLID
5
15C
100
AcDbEntity
8
0
62
256
6
ByLayer
370
-1
48
1
60
0
100
AcDbTrace
10
46.5
20
-15.53367
30
0
11
46.5
21
-16.700337
31
0
12
43
22
-16.117003
32
0
13
43
23
-16.117003
33
0
39
0
210
0
220
0
230
1
0
SOLID
5
15D
100
AcDbEntity
8
0
62
256
6
ByLayer
370
-1
48
1
60
0
100
AcDbTrace
10
38.5239
20
-16.700337
30
0
11
38.5239
21
-15.53367
31
0
12
42.0239
22
-16.117003
32
0
13
42.0239
23
-16.117003
33
0
39
0
210
0
220
0
230
1
0
MTEXT
5
15E
100
AcDbEntity
8
0
62
256
6
ByLayer
370
18
48
1
60
0
100
AcDbMText
10
60.583333
20
-9.117003
30
0
210
0
220
0
230
1
1
\A1;0.98
40
3.5
41
0
44
1
50
0
71
5
72
5
7
iso_b_vert
0
POINT
5
15F
100
AcDbEntity
8
Defpoints
62
0
6
ByLayer
370
-1
48
1
60
0
100
AcDbPoint
10
43
20
0
30
0
39
0
210
0
220
0
230
1
50
360
0
POINT
5
160
100
AcDbEntity
8
Defpoints
62
0
6
ByLayer
370
-1
48
1
60
0
100
AcDbPoint
10
42.0239
20
-3.3145
30
0
39
0
210
0
220
0
230
1
50
360
0
POINT
5
161
100
AcDbEntity
8
Defpoints
62
0
6
ByLayer
370
-1
48
1
60
0
100
AcDbPoint
10
42.0239
20
-16.117003
30
0
39
0
210
0
220
0
230
1
50
360
0
ENDBLK
5
156
100
AcDbEntity
8
0
100
AcDbBlockEnd
0
BLOCK
5
169
100
AcDbEntity
8
0
100
AcDbBlockBegin
2
_U3
70
0
10
0
20
0
30
0
3
_U3
0
MTEXT
5
163
100
AcDbEntity
8
SK2
62
256
6
ByLayer
370
13
48
1
60
0
100
AcDbMText
10
49.15186
20
-15.08437
30
0
210
0
220
0
230
1
1
\W0.7150;0,98
40
3.5
41
0
44
1.084337
50
0
71
7
72
5
7
iso_b_vert
0
LINE
5
164
100
AcDbEntity
8
SK2
62
256
6
ByLayer
370
13
48
1
60
0
100
AcDbLine
10
43
20
-1.5875
30
0
11
43
21
-18.117003
31
0
39
0
210
0
220
0
230
1
0
LINE
5
165
100
AcDbEntity
8
SK2
62
256
6
ByLayer
370
13
48
1
60
0
100
AcDbLine
10
42.0239
20
-4.902
30
0
11
42.0239
21
-18.117003
31
0
39
0
210
0
220
0
230
1
0
LINE
5
166
100
AcDbEntity
8
SK2
62
256
6
ByLayer
370
13
48
1
60
0
100
AcDbLine
10
33.2739
20
-16.117003
30
0
11
56.996491
21
-16.117003
31
0
39
0
210
0
220
0
230
1
0
SOLID
5
167
100
AcDbEntity
8
SK2
62
256
6
ByLayer
370
18
48
1
60
0
100
AcDbTrace
10
43
20
-16.117003
30
0
11
46.499998
21
-15.656219
31
0
12
46.500002
22
-16.577787
32
0
13
46.500002
23
-16.577787
33
0
39
0
210
0
220
0
230
1
0
SOLID
5
168
100
AcDbEntity
8
SK2
62
256
6
ByLayer
370
18
48
1
60
0
100
AcDbTrace
10
42.0239
20
-16.117003
30
0
11
38.523902
21
-16.577787
31
0
12
38.523898
22
-15.656219
32
0
13
38.523898
23
-15.656219
33
0
39
0
210
0
220
0
230
1
0
ENDBLK
5
16A
100
AcDbEntity
8
0
100
AcDbBlockEnd
0
BLOCK
5
16F
100
AcDbEntity
8
0
100
AcDbBlockBegin
2
*D9
70
1
10
0
20
0
30
0
3
*D9
0
LINE
5
171
100
AcDbEntity
8
0
62
256
6
ByLayer
370
-2
48
1
60
0
100
AcDbLine
10
-36
20
-5.5875
30
0
11
-36
21
-24.343428
31
0
39
0
210
0
220
0
230
1
0
LINE
5
172
100
AcDbEntity
8
0
62
256
6
ByLayer
370
-2
48
1
60
0
100
AcDbLine
10
42.0239
20
-4.902
30
0
11
42.0239
21
-24.343428
31
0
39
0
210
0
220
0
230
1
0
LINE
5
173
100
AcDbEntity
8
0
62
256
6
ByLayer
370
-2
48
1
60
0
100
AcDbLine
10
-32.5
20
-22.343428
30
0
11
38.5239
21
-22.343428
31
0
39
0
210
0
220
0
230
1
0
SOLID
5
174
100
AcDbEntity
8
0
62
256
6
ByLayer
370
-1
48
1
60
0
100
AcDbTrace
10
-32.5
20
-21.760095
30
0
11
-32.5
21
-22.926762
31
0
12
-36
22
-22.343428
32
0
13
-36
23
-22.343428
33
0
39
0
210
0
220
0
230
1
0
SOLID
5
175
100
AcDbEntity
8
0
62
256
6
ByLayer
370
-1
48
1
60
0
100
AcDbTrace
10
38.5239
20
-22.926762
30
0
11
38.5239
21
-21.760095
31
0
12
42.0239
22
-22.343428
32
0
13
42.0239
23
-22.343428
33
0
39
0
210
0
220
0
230
1
0
MTEXT
5
176
100
AcDbEntity
8
0
62
256
6
ByLayer
370
18
48
1
60
0
100
AcDbMText
10
3.01195
20
-15.343428
30
0
210
0
220
0
230
1
1
\A1;78.02
40
3.5
41
0
44
1
50
0
71
5
72
5
7
iso_b_vert
0
POINT
5
177
100
AcDbEntity
8
Defpoints
62
0
6
ByLayer
370
-1
48
1
60
0
100
AcDbPoint
10
-36
20
-4
30
0
39
0
210
0
220
0
230
1
50
360
0
POINT
5
178
100
AcDbEntity
8
Defpoints
62
0
6
ByLayer
370
-1
48
1
60
0
100
AcDbPoint
10
42.0239
20
-3.3145
30
0
39
0
210
0
220
0
230
1
50
360
0
POINT
5
179
100
AcDbEntity
8
Defpoints
62
0
6
ByLayer
370
-1
48
1
60
0
100
AcDbPoint
10
42.0239
20
-22.343428
30
0
39
0
210
0
220
0
230
1
50
360
0
ENDBLK
5
170
100
AcDbEntity
8
0
100
AcDbBlockEnd
0
BLOCK
5
181
100
AcDbEntity
8
0
100
AcDbBlockBegin
2
_U4
70
0
10
0
20
0
30
0
3
_U4
0
MTEXT
5
17B
100
AcDbEntity
8
SK2
62
256
6
ByLayer
370
13
48
1
60
0
100
AcDbMText
10
-2.125349
20
-21.310795
30
0
210
0
220
0
230
1
1
\W0.7317;78,02
40
3.5
41
0
44
1.084337
50
0
71
7
72
5
7
iso_b_vert
0
LINE
5
17C
100
AcDbEntity
8
SK2
62
256
6
ByLayer
370
13
48
1
60
0
100
AcDbLine
10
-36
20
-5.5875
30
0
11
-36
21
-24.343428
31
0
39
0
210
0
220
0
230
1
0
LINE
5
17D
100
AcDbEntity
8
SK2
62
256
6
ByLayer
370
13
48
1
60
0
100
AcDbLine
10
42.0239
20
-4.902
30
0
11
42.0239
21
-24.343428
31
0
39
0
210
0
220
0
230
1
0
LINE
5
17E
100
AcDbEntity
8
SK2
62
256
6
ByLayer
370
13
48
1
60
0
100
AcDbLine
10
-36
20
-22.343428
30
0
11
42.0239
21
-22.343428
31
0
39
0
210
0
220
0
230
1
0
SOLID
5
17F
100
AcDbEntity
8
SK2
62
256
6
ByLayer
370
18
48
1
60
0
100
AcDbTrace
10
-36
20
-22.343428
30
0
11
-32.500002
21
-21.882645
31
0
12
-32.499998
22
-22.804212
32
0
13
-32.499998
23
-22.804212
33
0
39
0
210
0
220
0
230
1
0
SOLID
5
180
100
AcDbEntity
8
SK2
62
256
6
ByLayer
370
18
48
1
60
0
100
AcDbTrace
10
42.0239
20
-22.343428
30
0
11
38.523902
21
-22.804212
31
0
12
38.523898
22
-21.882645
32
0
13
38.523898
23
-21.882645
33
0
39
0
210
0
220
0
230
1
0
ENDBLK
5
182
100
AcDbEntity
8
0
100
AcDbBlockEnd
0
ENDSEC
0
SECTION
2
ENTITIES
0
ARC
5
AC
100
AcDbEntity
8
1
62
256
6
ByLayer
370
18
48
1
60
0
100
AcDbCircle
39
0
10
1.330238
20
-4.089081
30
0
40
0.800000000000003
210
0
220
0
230
1
100
AcDbArc
50
89.96419
51
146.242721
0
ARC
5
AD
100
AcDbEntity
8
1
62
256
6
ByLayer
370
18
48
1
60
0
100
AcDbCircle
39
0
10
1.330238
20
4.089081
30
0
40
0.800000000000003
210
0
220
0
230
1
100
AcDbArc
50
213.757279
51
270.03581
0
ARC
5
AE
100
AcDbEntity
8
1
62
256
6
ByLayer
370
18
48
1
60
0
100
AcDbCircle
39
0
10
0
20
-3.2
30
0
40
0.799999999999997
210
0
220
0
230
1
100
AcDbArc
50
270
51
326.242721
0
ARC
5
AF
100
AcDbEntity
8
1
62
256
6
ByLayer
370
18
48
1
60
0
100
AcDbCircle
39
0
10
0
20
3.2
30
0
40
0.799999999999997
210
0
220
0
230
1
100
AcDbArc
50
33.757279
51
90
0
ELLIPSE
5
B0
100
AcDbEntity
8
1
62
256
6
ByLayer
370
13
48
1
60
0
100
AcDbEllipse
10
11.250194
20
-0.996316
30
0
11
0.0405779348107631
21
0.0913971072107507
31
0
210
0
220
0
230
1
40
0.129428
41
1.28406633647429
42
2.82989367926849
0
ELLIPSE
5
B1
100
AcDbEntity
8
1
62
256
6
ByLayer
370
13
48
1
60
0
100
AcDbEllipse
10
11.186386
20
-0.972597
30
0
11
-0.0281910032819459
21
-0.0959440844135652
31
0
210
0
220
0
230
1
40
0.488431
41
-1.71255517435921
42
-0.345886088755492
0
POINT
5
70
100
AcDbEntity
8
80
62
256
6
ByLayer
370
18
48
1
60
0
100
AcDbPoint
10
0
20
0
30
0
39
0
210
0
220
0
230
1
50
360
0
POINT
5
72
100
AcDbEntity
8
81
62
256
6
ByLayer
370
18
48
1
60
0
100
AcDbPoint
10
43
20
0
30
0
39
0
210
0
220
0
230
1
50
360
0
POINT
5
74
100
AcDbEntity
8
1
62
256
6
ByLayer
370
18
48
1
60
1
100
AcDbPoint
10
42.0239
20
-3.3145
30
0
39
0
210
0
220
0
230
1
50
360
0
POINT
5
76
100
AcDbEntity
8
1
62
256
6
ByLayer
370
18
48
1
60
1
100
AcDbPoint
10
-36
20
-4
30
0
39
0
210
0
220
0
230
1
50
360
0
POINT
5
77
100
AcDbEntity
8
1
62
256
6
ByLayer
370
18
48
1
60
1
100
AcDbPoint
10
22.13
20
3.3145
30
0
39
0
210
0
220
0
230
1
50
360
0
POINT
5
78
100
AcDbEntity
8
1
62
256
6
ByLayer
370
18
48
1
60
1
100
AcDbPoint
10
42.0239
20
-3.3145
30
0
39
0
210
0
220
0
230
1
50
360
0
POINT
5
79
100
AcDbEntity
8
1
62
256
6
ByLayer
370
18
48
1
60
1
100
AcDbPoint
10
-36
20
-4
30
0
39
0
210
0
220
0
230
1
50
360
0
POINT
5
7A
100
AcDbEntity
8
1
62
256
6
ByLayer
370
18
48
1
60
1
100
AcDbPoint
10
42.0239
20
-3.3145
30
0
39
0
210
0
220
0
230
1
50
360
0
SPLINE
5
B2
100
AcDbEntity
8
SK1
62
256
6
ByLayer
370
18
48
1
60
0
100
AcDbSpline
70
4
71
3
72
8
73
4
40
0
40
0
40
0
40
0
40
1
40
1
40
1
40
1
41
1
10
-36
20
1.82198904600452
30
0
41
1
10
-35.8338649180591
20
1.96689813115347
30
0
41
1
10
-35.6671143463836
20
2.11132686201856
30
0
41
1
10
-35.5
20
2.2554716876783
30
0
0
SPLINE
5
B3
100
AcDbEntity
8
SK1
62
256
6
ByLayer
370
18
48
1
60
0
100
AcDbSpline
70
4
71
3
72
8
73
4
40
0
40
0
40
0
40
0
40
1
40
1
40
1
40
1
41
1
10
-35.5
20
3.07070797821561
30
0
41
1
10
-35.6671090543255
20
2.92656771723159
30
0
41
1
10
-35.833858670543
20
2.78213987100247
30
0
41
1
10
-36
20
2.63722533654183
30
0
0
SPLINE
5
B4
100
AcDbEntity
8
SK1
62
256
6
ByLayer
370
18
48
1
60
0
100
AcDbSpline
70
4
71
3
72
12
73
8
40
0
40
0
40
0
40
0
40
0.5
40
0.5
40
0.75
40
0.75
40
1
40
1
40
1
40
1
41
1
10
-35.5
20
2.25547168767824
30
0
41
1
10
-35.4764535706457
20
2.2757817090955
30
0
41
1
10
-35.453758325367
20
2.3012803816865
30
0
41
1
10
-35.4256589034923
20
2.3430154903879
30
0
41
1
10
-35.4170915256394
20
2.35788472304452
30
0
41
1
10
-35.4042768359918
20
2.38724349829056
30
0
41
1
10
-35.4
20
2.40208230683694
30
0
41
1
10
-35.4
20
2.41388667210583
30
0
0
SPLINE
5
B5
100
AcDbEntity
8
SK1
62
256
6
ByLayer
370
18
48
1
60
0
100
AcDbSpline
70
4
71
3
72
12
73
8
40
0
40
0
40
0
40
0
40
0.25
40
0.25
40
0.5
40
0.5
40
1
40
1
40
1
40
1
41
1
10
-35.4
20
3.12042479057152
30
0
41
1
10
-35.4
20
3.12672618221819
30
0
41
1
10
-35.4042405317345
20
3.12883260811253
30
0
41
1
10
-35.4170629445097
20
3.12715280051884
30
0
41
1
10
-35.4255309618335
20
3.12354395516047
30
0
41
1
10
-35.4538111153162
20
3.10783183860951
30
0
41
1
10
-35.4764597265187
20
3.09101268987195
30
0
41
1
10
-35.5
20
3.07070797821567
30
0
0
SPLINE
5
B6
100
AcDbEntity
8
1
62
256
6
ByLayer
370
18
48
1
60
0
100
AcDbSpline
70
4
71
3
72
8
73
4
40
0
40
0
40
0
40
0
40
1
40
1
40
1
40
1
41
1
10
11.0413729281134
20
-0.991163810214658
30
0
41
1
10
11.0246198124871
20
-0.966953366085079
30
0
41
1
10
11.0147549787698
20
-0.938798451747601
30
0
41
1
10
11.0147591322487
20
-0.909517428286222
30
0
0
SPLINE
5
B7
100
AcDbEntity
8
1
62
256
6
ByLayer
370
18
48
1
60
0
100
AcDbSpline
70
4
71
3
72
18
73
14
40
0
40
0
40
0
40
0
40
0.0133885290671177
40
0.0133885290671177
40
0.210277694547618
40
0.210277694547618
40
0.604056025508619
40
0.604056025508619
40
0.800945190989117
40
0.800945190989117
40
0.997834356469614
40
0.997834356469614
40
1
40
1
40
1
40
1
41
1
10
19.9393063019307
20
-3.13499397581376
30
0
41
1
10
19.91761030576
20
-3.13495829296511
30
0
41
1
10
19.8959096492724
20
-3.13487654732845
30
0
41
1
10
19.5550076464699
20
-3.1328684864813
30
0
41
1
10
19.234216343624
20
-3.12101900732347
30
0
41
1
10
18.2709611258732
20
-3.05512045547724
30
0
41
1
10
17.631678704053
20
-2.971235057657
30
0
41
1
10
16.6700034293352
20
-2.79013130925981
30
0
41
1
10
16.348321508144
20
-2.72027840371939
30
0
41
1
10
15.7073644225468
20
-2.56404675380409
30
0
41
1
10
15.3880855531495
20
-2.47781735251658
30
0
41
1
10
15.0660261685949
20
-2.38322878637794
30
0
41
1
10
15.0625223720269
20
-2.38219880108895
30
0
41
1
10
15.0590186665372
20
-2.38116792075752
30
0
0
SPLINE
5
B8
100
AcDbEntity
8
1
62
256
6
ByLayer
370
13
48
1
60
0
100
AcDbSpline
70
4
71
3
72
8
73
4
40
0
40
0
40
0
40
0
40
1
40
1
40
1
40
1
41
1
10
15.0590177075528
20
-2.38116763859958
30
0
41
1
10
13.7883662458666
20
-2.00730921427234
30
0
41
1
10
12.5296935455377
20
-1.51573322609596
30
0
41
1
10
11.2503239624755
20
-0.965429341259863
30
0
0
SPLINE
5
B9
100
AcDbEntity
8
1
62
256
6
ByLayer
370
18
48
1
60
0
100
AcDbSpline
70
4
71
3
72
34
73
30
40
0
40
0
40
0
40
0
40
0.250000000000015
40
0.250000000000015
40
0.312500000000019
40
0.312500000000019
40
0.375000000000022
40
0.375000000000022
40
0.500000000000037
40
0.500000000000037
40
0.625000000000052
40
0.625000000000052
40
0.750000000000067
40
0.750000000000067
40
0.812500000000074
40
0.812500000000074
40
0.843750000000075
40
0.843750000000075
40
0.851562500000075
40
0.851562500000075
40
0.859375000000075
40
0.859375000000075
40
0.863281250000072
40
0.863281250000072
40
0.86718750000007
40
0.86718750000007
40
0.875000000000066
40
0.875000000000066
40
1
40
1
40
1
40
1
41
1
10
38.7348690715317
20
0.964429406994213
30
0
41
1
10
39.0082481720332
20
0.756490502088297
30
0
41
1
10
39.2917961787871
20
0.577147229464998
30
0
41
1
10
39.6604481815501
20
0.392947260497778
30
0
41
1
10
39.7350810041987
20
0.358024853419096
30
0
41
1
10
39.8842541740731
20
0.293025063558815
30
0
41
1
10
39.9589179514893
20
0.26287348064298
30
0
41
1
10
40.1831471528555
20
0.179655070381841
30
0
41
1
10
40.3329491258355
20
0.133784422453857
30
0
41
1
10
40.6332615716741
20
0.0635967649659506
30
0
41
1
10
40.7838939520379
20
0.0392112971646839
30
0
41
1
10
41.0854783631319
20
0.0155356399604614
30
0
41
1
10
41.2338537469225
20
0.0163897224754805
30
0
41
1
10
41.4522475878928
20
0.0395655334758942
30
0
41
1
10
41.5244738829235
20
0.051001376701123
30
0
41
1
10
41.6309918932057
20
0.0741622323736522
30
0
41
1
10
41.6661990665154
20
0.0828729081146378
30
0
41
1
10
41.7097505717408
20
0.0950919426923917
30
0
41
1
10
41.7185558201385
20
0.097262031559552
30
0
41
1
10
41.7356660922004
20
0.103044277282066
30
0
41
1
10
41.7437585167071
20
0.107471644530193
30
0
41
1
10
41.7528145273594
20
0.118037906745258
30
0
41
1
10
41.7553760593578
20
0.122266643177568
30
0
41
1
10
41.7588927288498
20
0.131750566609526
30
0
41
1
10
41.7596217531419
20
0.137155899356571
30
0
41
1
10
41.7608892078476
20
0.153681656407997
30
0
41
1
10
41.7616747842949
20
0.164718439840897
30
0
41
1
10
41.7740431981237
20
0.352669469076858
30
0
41
1
10
41.7709076818117
20
0.53422876646016
30
0
41
1
10
41.7577071436457
20
0.715713892343047
30
0
0
SPLINE
5
BA
100
AcDbEntity
8
1
62
256
6
ByLayer
370
18
48
1
60
0
100
AcDbSpline
70
4
71
3
72
14
73
10
40
0
40
0
40
0
40
0
40
0.25
40
0.25
40
0.5
40
0.5
40
0.75
40
0.75
40
1
40
1
40
1
40
1
41
1
10
41.8719655985221
20
-3.14778491320837
30
0
41
1
10
41.8752293590729
20
-3.14745757015672
30
0
41
1
10
41.8778238207276
20
-3.14886728657177
30
0
41
1
10
41.8812825687521
20
-3.15614694014042
30
0
41
1
10
41.8820901031996
20
-3.16211392214171
30
0
41
1
10
41.8808538820881
20
-3.17936114667603
30
0
41
1
10
41.8787626441383
20
-3.19056158208269
30
0
41
1
10
41.8719391283775
20
-3.21553741760951
30
0
41
1
10
41.8672503798752
20
-3.22918720774993
30
0
41
1
10
41.8620566601779
20
-3.24223194594253
30
0
0
SPLINE
5
BB
100
AcDbEntity
8
1
62
256
6
ByLayer
370
18
48
1
60
0
100
AcDbSpline
70
4
71
3
72
14
73
10
40
0
40
0
40
0
40
0
40
0.25
40
0.25
40
0.5
40
0.5
40
0.75
40
0.75
40
1
40
1
40
1
40
1
41
1
10
11.0151496551543
20
-3.10838708031952
30
0
41
1
10
11.023743026663
20
-3.08936153808617
30
0
41
1
10
11.0362256501688
20
-3.07000954112874
30
0
41
1
10
11.0685980843718
20
-3.03309445158834
30
0
41
1
10
11.0885631798189
20
-3.01555963438943
30
0
41
1
10
11.1325393436297
20
-2.98535777691811
30
0
41
1
10
11.1566030182721
20
-2.97262283988311
30
0
41
1
10
11.2042898558911
20
-2.95296559140746
30
0
41
1
10
11.2282234391689
20
-2.94582693578062
30
0
41
1
10
11.2512072021874
20
-2.94108068852282
30
0
0
SPLINE
5
BC
100
AcDbEntity
8
1
62
256
6
ByLayer
370
13
48
1
60
0
100
AcDbSpline
70
4
71
3
72
8
73
4
40
0
40
0
40
0
40
0
40
1
40
1
40
1
40
1
41
1
10
11.1425503123757
20
-1.07473888432318
30
0
41
1
10
11.1430237431624
20
-1.06922535110758
30
0
41
1
10
11.1434992833806
20
-1.06370932273475
30
0
41
1
10
11.143976929282
20
-1.05819075204596
30
0
0
SPLINE
5
BD
100
AcDbEntity
8
1
62
256
6
ByLayer
370
18
48
1
60
0
100
AcDbSpline
70
4
71
3
72
8
73
4
40
0
40
0
40
0
40
0
40
1
40
1
40
1
40
1
41
1
10
42.9642614880151
20
-0.0480639081466165
30
0
41
1
10
42.7864905712348
20
-0.33943256278954
30
0
41
1
10
42.6128790394395
20
-0.634579619518291
30
0
41
1
10
42.443484850477
20
-0.933557727475375
30
0
0
SPLINE
5
BE
100
AcDbEntity
8
1
62
256
6
ByLayer
370
18
48
1
60
0
100
AcDbSpline
70
4
71
3
72
40
73
36
40
0
40
0
40
0
40
0
40
0.0625000000000013
40
0.0625000000000013
40
0.125000000000003
40
0.125000000000003
40
0.250000000000005
40
0.250000000000005
40
0.312500000000006
40
0.312500000000006
40
0.375000000000007
40
0.375000000000007
40
0.406250000000008
40
0.406250000000008
40
0.437500000000009
40
0.437500000000009
40
0.453125000000009
40
0.453125000000009
40
0.468750000000009
40
0.468750000000009
40
0.50000000000001
40
0.50000000000001
40
0.531250000000011
40
0.531250000000011
40
0.562500000000011
40
0.562500000000011
40
0.625000000000013
40
0.625000000000013
40
0.687500000000014
40
0.687500000000014
40
0.750000000000015
40
0.750000000000015
40
0.875000000000007
40
0.875000000000007
40
1
40
1
40
1
40
1
41
1
10
42.0408471040344
20
-1.6664003524395
30
0
41
1
10
41.9814316524748
20
-1.64958646436187
30
0
41
1
10
41.9220850787734
20
-1.62994185663007
30
0
41
1
10
41.8035285344217
20
-1.58503857370604
30
0
41
1
10
41.7441029689187
20
-1.55967560218519
30
0
41
1
10
41.5677516607052
20
-1.47521415891151
30
0
41
1
10
41.4530346174784
20
-1.4086509703867
30
0
41
1
10
41.2874168785881
20
-1.28557211566411
30
0
41
1
10
41.233522150783
20
-1.24071840684374
30
0
41
1
10
41.1318641233534
20
-1.14082732969555
30
0
41
1
10
41.0840150294299
20
-1.08619052849809
30
0
41
1
10
41.0244293607236
20
-0.992665477269384
30
0
41
1
10
41.0065370049518
20
-0.959174058800158
30
0
41
1
10
40.9799424693786
20
-0.889013503308803
30
0
41
1
10
40.971385156859
20
-0.852604574118061
30
0
41
1
10
40.9704663340676
20
-0.798560072012094
30
0
41
1
10
40.9721641001278
20
-0.781417144851019
30
0
41
1
10
40.9794303768772
20
-0.748915834385315
30
0
41
1
10
40.985115280725
20
-0.73340510841615
30
0
41
1
10
41.0066368504183
20
-0.691600897744877
30
0
41
1
10
41.0270656485309
20
-0.669217783114078
30
0
41
1
10
41.0726045471592
20
-0.633835775656735
30
0
41
1
10
41.0982712982049
20
-0.620296840952221
30
0
41
1
10
41.1511293254381
20
-0.599348194836637
30
0
41
1
10
41.1786039102418
20
-0.591773428253703
30
0
41
1
10
41.2631575250171
20
-0.574955613354547
30
0
41
1
10
41.3218557747359
20
-0.571661698321464
30
0
41
1
10
41.4392879179939
20
-0.574195978913593
30
0
41
1
10
41.4985769649246
20
-0.580121531923226
30
0
41
1
10
41.6179819356126
20
-0.598695324778674
30
0
41
1
10
41.6782075868817
20
-0.611429544996412
30
0
41
1
10
41.8579693825688
20
-0.657697538188046
30
0
41
1
10
41.9776867042801
20
-0.699310854123013
30
0
41
1
10
42.214156246039
20
-0.801378970171214
30
0
41
1
10
42.3302817111287
20
-0.861307175711062
30
0
41
1
10
42.4434848504762
20
-0.933557727478529
30
0
0
SPLINE
5
BF
100
AcDbEntity
8
1
62
256
6
ByLayer
370
13
48
1
60
0
100
AcDbSpline
70
4
71
3
72
8
73
4
40
0
40
0
40
0
40
0
40
1
40
1
40
1
40
1
41
1
10
11.2503239624755
20
-0.965429341259892
30
0
41
1
10
11.2134968539635
20
-0.955916845426742
30
0
41
1
10
11.1775804094787
20
-0.949200470515052
30
0
41
1
10
11.143976929282
20
-0.945410484826738
30
0
0
SPLINE
5
C0
100
AcDbEntity
8
1
62
256
6
ByLayer
370
18
48
1
60
0
100
AcDbSpline
70
4
71
3
72
16
73
12
40
0
40
0
40
0
40
0
40
0.26969085065736
40
0.26969085065736
40
0.40453627598604
40
0.40453627598604
40
0.53938170131472
40
0.53938170131472
40
0.809072551972077
40
0.809072551972077
40
1
40
1
40
1
40
1
41
1
10
41.6207437976065
20
-2.48304926482578
30
0
41
1
10
41.6204688124844
20
-2.59486035330372
30
0
41
1
10
41.6253195259447
20
-2.69315381155823
30
0
41
1
10
41.6405031139504
20
-2.82069587527667
30
0
41
1
10
41.6468920067495
20
-2.85987520356593
30
0
41
1
10
41.6624853645984
20
-2.93140239393813
30
0
41
1
10
41.6716557202442
20
-2.96350232637846
30
0
41
1
10
41.7029685598427
20
-3.04785232698882
30
0
41
1
10
41.7290029378391
20
-3.08882511792911
30
0
41
1
10
41.7829114957274
20
-3.13340014580305
30
0
41
1
10
41.8081430752289
20
-3.14432267120461
30
0
41
1
10
41.8360596345734
20
-3.14761367375911
30
0
0
SPLINE
5
C1
100
AcDbEntity
8
1
62
256
6
ByLayer
370
13
48
1
60
0
100
AcDbSpline
70
4
71
3
72
8
73
4
40
0
40
0
40
0
40
0
40
1
40
1
40
1
40
1
41
1
10
11.0147591322457
20
-0.909517428281362
30
0
41
1
10
11.0360908110024
20
-0.925243555553749
30
0
41
1
10
11.0806937533072
20
-0.938273059480281
30
0
41
1
10
11.143976929282
20
-0.945410484826738
30
0
0
SPLINE
5
C2
100
AcDbEntity
8
1
62
256
6
ByLayer
370
18
48
1
60
0
100
AcDbSpline
70
4
71
3
72
8
73
4
40
0
40
0
40
0
40
0
40
1
40
1
40
1
40
1
41
1
10
42.0408471040347
20
-1.66640035243975
30
0
41
1
10
41.8974865051077
20
-1.93559515628269
30
0
41
1
10
41.7574406492835
20
-2.20780108612112
30
0
41
1
10
41.6207437976065
20
-2.48304926482578
30
0
0
SPLINE
5
C3
100
AcDbEntity
8
1
62
256
6
ByLayer
370
18
48
1
60
0
100
AcDbSpline
70
4
71
3
72
8
73
4
40
0
40
0
40
0
40
0
40
1
40
1
40
1
40
1
41
1
10
41.8620566601777
20
-3.24223194594313
30
0
41
1
10
41.8530915308144
20
-3.26474909592884
30
0
41
1
10
41.844115764458
20
-3.28724996693902
30
0
41
1
10
41.8351301859925
20
-3.30973371209532
30
0
0
SPLINE
5
C4
100
AcDbEntity
8
1
62
256
6
ByLayer
370
18
48
1
60
0
100
AcDbSpline
70
4
71
3
72
8
73
4
40
0
40
0
40
0
40
0
40
1
40
1
40
1
40
1
41
1
10
41.8351301859925
20
3.30973371209532
30
0
41
1
10
41.7121541598735
20
3.31278478949074
30
0
41
1
10
41.5892167429095
20
3.31426044270594
30
0
41
1
10
41.466286868005
20
3.31416579989246
30
0
0
SPLINE
5
C5
100
AcDbEntity
8
1
62
256
6
ByLayer
370
18
48
1
60
0
100
AcDbSpline
70
4
71
3
72
22
73
18
40
0
40
0
40
0
40
0
40
0.0118133451035977
40
0.0118133451035977
40
0.101648495548726
40
0.101648495548726
40
0.281318796438982
40
0.281318796438982
40
0.460989097329238
40
0.460989097329238
40
0.550824247774366
40
0.550824247774366
40
0.640659398219494
40
0.640659398219494
40
0.820329699109747
40
0.820329699109747
40
1
40
1
40
1
40
1
41
1
10
21.8231997163344
20
-3.15037761024857
30
0
41
1
10
21.7810836296004
20
-3.15636566345006
30
0
41
1
10
21.7389471373587
20
-3.16218166276838
30
0
41
1
10
21.376196528733
20
-3.21073522129353
30
0
41
1
10
21.0533160582977
20
-3.2436645484506
30
0
41
1
10
20.0897275083147
20
-3.3101615961007
30
0
41
1
10
19.4528321462004
20
-3.31181808323583
30
0
41
1
10
18.1808862750028
20
-3.23244586672621
30
0
41
1
10
17.5462729436464
20
-3.15119845188371
30
0
41
1
10
16.5888735344925
20
-2.97070088250663
30
0
41
1
10
16.2689415659607
20
-2.90071156111512
30
0
41
1
10
15.62639612298
20
-2.74167063495722
30
0
41
1
10
15.3034986203895
20
-2.65266531081008
30
0
41
1
10
14.3406682723541
20
-2.36256453220983
30
0
41
1
10
13.7027442005484
20
-2.13736482259517
30
0
41
1
10
12.4258307347854
20
-1.63827090124011
30
0
41
1
10
11.7866700717535
20
-1.36470887360414
30
0
41
1
10
11.142550312376
20
-1.07473888432438
30
0
0
SPLINE
5
C6
100
AcDbEntity
8
1
62
256
6
ByLayer
370
18
48
1
60
0
100
AcDbSpline
70
4
71
3
72
12
73
8
40
0
40
0
40
0
40
0
40
0.500125147254116
40
0.500125147254116
40
0.750187720881174
40
0.750187720881174
40
1
40
1
40
1
40
1
41
1
10
17.0846954785747
20
-3.21574696782145
30
0
41
1
10
17.3444453391495
20
-3.24378496514547
30
0
41
1
10
17.6041518660216
20
-3.26464223121468
30
0
41
1
10
17.9936348358299
20
-3.28560321548068
30
0
41
1
10
18.1234213355241
20
-3.29087521526435
30
0
41
1
10
18.3825865874836
20
-3.29798698533881
30
0
41
1
10
18.5118853483506
20
-3.29982049751729
30
0
41
1
10
18.6413522575495
20
-3.29990067759354
30
0
0
SPLINE
5
C7
100
AcDbEntity
8
1
62
256
6
ByLayer
370
18
48
1
60
0
100
AcDbSpline
70
4
71
3
72
26
73
22
40
0
40
0
40
0
40
0
40
0.107939311846688
40
0.107939311846688
40
0.219446897865851
40
0.219446897865851
40
0.330954483885014
40
0.330954483885014
40
0.442462069904178
40
0.442462069904178
40
0.553969655923341
40
0.553969655923341
40
0.665477241942505
40
0.665477241942505
40
0.776984827961668
40
0.776984827961668
40
0.888492413980832
40
0.888492413980832
40
0.944246206990416
40
0.944246206990416
40
1
40
1
40
1
40
1
41
1
10
35.0157025443792
20
2.36117319624884
30
0
41
1
10
35.266681525819
20
2.44538814604101
30
0
41
1
10
35.5175786697441
20
2.52540035304671
30
0
41
1
10
36.0292602883074
20
2.67699128754469
30
0
41
1
10
36.2893025691773
20
2.74807437272966
30
0
41
1
10
36.8075661679279
20
2.87948372451467
30
0
41
1
10
37.0665186143844
20
2.93909187139877
30
0
41
1
10
37.5851183199273
20
3.04529551085668
30
0
41
1
10
37.8441624412506
20
3.09242534697404
30
0
41
1
10
38.363057027483
20
3.17344780192789
30
0
41
1
10
38.6234004289548
20
3.20720648185053
30
0
41
1
10
39.1432247081871
20
3.26118841831141
30
0
41
1
10
39.402484417391
20
3.28152386035961
30
0
41
1
10
39.92239756772
20
3.30793323321032
30
0
41
1
10
40.182562131316
20
3.31418389897649
30
0
41
1
10
40.7016347476441
20
3.31269227908947
30
0
41
1
10
40.9611240842667
20
3.30490611753808
30
0
41
1
10
41.3510655074993
20
3.28290170297225
30
0
41
1
10
41.481170779329
20
3.27383840855171
30
0
41
1
10
41.7410279268717
20
3.25220797491531
30
0
41
1
10
41.8706939267362
20
3.2395892900519
30
0
41
1
10
42.0004571297236
20
3.22531235293758
30
0
0
SPLINE
5
C8
100
AcDbEntity
8
1
62
256
6
ByLayer
370
18
48
1
60
0
100
AcDbSpline
70
4
71
3
72
16
73
12
40
0
40
0
40
0
40
0
40
0.295200909211546
40
0.295200909211546
40
0.621119627213851
40
0.621119627213851
40
0.784078986215008
40
0.784078986215008
40
0.947038345216164
40
0.947038345216164
40
1
40
1
40
1
40
1
41
1
10
30.5724882040926
20
0.0095834717403704
30
0
41
1
10
31.1480088711937
20
-0.259717534858879
30
0
41
1
10
31.7213132122927
20
-0.52825181356144
30
0
41
1
10
32.9295400849167
20
-1.07726980121615
30
0
41
1
10
33.5647670892383
20
-1.35584470552229
30
0
41
1
10
34.5255520118691
20
-1.74646665169203
30
0
41
1
10
34.8477928478205
20
-1.8721596449675
30
0
41
1
10
35.4876743509675
20
-2.10915019970614
30
0
41
1
10
35.8062968787189
20
-2.22075842323162
30
0
41
1
10
36.2275058264597
20
-2.3584832881958
30
0
41
1
10
36.3307396330285
20
-2.39146801713034
30
0
41
1
10
36.4339102208441
20
-2.423632519466
30
0
0
SPLINE
5
C9
100
AcDbEntity
8
1
62
256
6
ByLayer
370
13
48
1
60
0
100
AcDbSpline
70
4
71
3
72
14
73
10
40
0
40
0
40
0
40
0
40
0.295154289395155
40
0.295154289395155
40
0.647577144697575
40
0.647577144697575
40
0.823788572348787
40
0.823788572348787
40
1
40
1
40
1
40
1
41
1
10
36.4339102205435
20
-2.4236325193722
30
0
41
1
10
36.9656371988821
20
-2.5894039276742
30
0
41
1
10
37.4956849421035
20
-2.73338823579493
30
0
41
1
10
38.660400055163
20
-2.99444882924695
30
0
41
1
10
39.2952944024832
20
-3.10078384945444
30
0
41
1
10
40.2560416752422
20
-3.20020195916712
30
0
41
1
10
40.5780362936297
20
-3.22334696503921
30
0
41
1
10
41.2201914720175
20
-3.24856208475774
30
0
41
1
10
41.5409864237957
20
-3.25072331151114
30
0
41
1
10
41.8620566601764
20
-3.24223194594256
30
0
0
SPLINE
5
CA
100
AcDbEntity
8
1
62
256
6
ByLayer
370
18
48
1
60
0
100
AcDbSpline
70
4
71
3
72
14
73
10
40
0
40
0
40
0
40
0
40
0.191883409288119
40
0.191883409288119
40
0.383766818576238
40
0.383766818576238
40
0.767533637152475
40
0.767533637152475
40
1
40
1
40
1
40
1
41
1
10
41.8719655985227
20
-3.14778491320837
30
0
41
1
10
41.5512668224467
20
-3.15119413578898
30
0
41
1
10
41.2308380736509
20
-3.14435084166311
30
0
41
1
10
40.5894550431573
20
-3.11052952398546
30
0
41
1
10
40.2679504055839
20
-3.08346383394493
30
0
41
1
10
39.3085991493325
20
-2.97355380860813
30
0
41
1
10
38.6742358757878
20
-2.86186006304442
30
0
41
1
10
37.6571063340356
20
-2.62795777636939
30
0
41
1
10
37.2738040113825
20
-2.5272941144467
30
0
41
1
10
36.8899897506475
20
-2.41542060743427
30
0
0
SPLINE
5
CB
100
AcDbEntity
8
1
62
256
6
ByLayer
370
13
48
1
60
0
100
AcDbSpline
70
4
71
3
72
22
73
18
40
0
40
0
40
0
40
0
40
0.0735886326528963
40
0.0735886326528963
40
0.166915772665625
40
0.166915772665625
40
0.260242912678353
40
0.260242912678353
40
0.633551472729274
40
0.633551472729274
40
0.726878612742005
40
0.726878612742005
40
0.820205752754736
40
0.820205752754736
40
0.913532892767467
40
0.913532892767467
40
1
40
1
40
1
40
1
41
1
10
36.8899896924001
20
-2.41542059045645
30
0
41
1
10
36.6401846567494
20
-2.34260785641777
30
0
41
1
10
36.3901627620047
20
-2.26504658597276
30
0
41
1
10
35.8219957344755
20
-2.07911030329362
30
0
41
1
10
35.5035866789755
20
-1.96793705426867
30
0
41
1
10
34.8642540577428
20
-1.73286492264379
30
0
41
1
10
34.5424906078804
20
-1.60864161196554
30
0
41
1
10
32.9434703115349
20
-0.967113334817128
30
0
41
1
10
31.6842791774779
20
-0.38716774807159
30
0
41
1
10
30.0955753162524
20
0.332285335913866
30
0
41
1
10
29.7770796663552
20
0.475854303814288
30
0
41
1
10
29.1376508850709
20
0.760200343077145
30
0
41
1
10
28.8161110884343
20
0.901204617202495
30
0
41
1
10
28.1745743252978
20
1.17573724697308
30
0
41
1
10
27.8541418052931
20
1.309469177382
30
0
41
1
10
27.2364662282976
20
1.558237225889
30
0
41
1
10
26.9389488084345
20
1.67403099994988
30
0
41
1
10
26.641563077108
20
1.78491383484058
30
0
0
SPLINE
5
CC
100
AcDbEntity
8
1
62
256
6
ByLayer
370
18
48
1
60
0
100
AcDbSpline
70
4
71
3
72
10
73
6
40
0
40
0
40
0
40
0
40
0.5
40
0.5
40
1
40
1
40
1
40
1
41
1
10
42.0004571297169
20
3.22531235295583
30
0
41
1
10
42.1505914981605
20
2.81332411833373
30
0
41
1
10
42.3057337705163
20
2.40291205140602
30
0
41
1
10
42.6250161076923
20
1.58509568355259
30
0
41
1
10
42.7890694962364
20
1.17806112846839
30
0
41
1
10
42.9565118009486
20
0.774231628315448
30
0
0
SPLINE
5
CD
100
AcDbEntity
8
1
62
256
6
ByLayer
370
18
48
1
60
0
100
AcDbSpline
70
4
71
3
72
28
73
24
40
0
40
0
40
0
40
0
40
0.125
40
0.125
40
0.25
40
0.25
40
0.3125
40
0.3125
40
0.375
40
0.375
40
0.5
40
0.5
40
0.625
40
0.625
40
0.6875
40
0.6875
40
0.75
40
0.75
40
0.875
40
0.875
40
0.9375
40
0.9375
40
1
40
1
40
1
40
1
41
1
10
11.0147591322487
20
-0.909517428276303
30
0
41
1
10
11.0147876100469
20
-0.708755859858144
30
0
41
1
10
11.0148139055156
20
-0.501734652165169
30
0
41
1
10
11.0148619549432
20
-0.0885697095487785
30
0
41
1
10
11.0148838559989
20
0.11839479105862
30
0
41
1
10
11.0149146497921
20
0.429422548608955
30
0
41
1
10
11.0149245762283
20
0.533309629172265
30
0
41
1
10
11.0149435254643
20
0.73707169156819
30
0
41
1
10
11.0149526024081
20
0.837481948198729
30
0
41
1
10
11.0149789212216
20
1.1343773535759
30
0
41
1
10
11.0149952916628
20
1.32687462431377
30
0
41
1
10
11.0150266030853
20
1.69860235150637
30
0
41
1
10
11.0150411055312
20
1.87250614515671
30
0
41
1
10
11.0150617003978
20
2.11611491505525
30
0
41
1
10
11.0150683659752
20
2.1944235945378
30
0
41
1
10
11.0150813225099
20
2.34513285342487
30
0
41
1
10
11.0150876382761
20
2.41780846271573
30
0
41
1
10
11.0151056362972
20
2.62257985980119
30
0
41
1
10
11.0151165001934
20
2.74278285157772
30
0
41
1
10
11.0151307562394
20
2.89901889353405
30
0
41
1
10
11.0151351621145
20
2.9470598798666
30
0
41
1
10
11.0151431431581
20
3.0348032060775
30
0
41
1
10
11.0151466729058
20
3.07401753072247
30
0
41
1
10
11.0151496551538
20
3.10838708031849
30
0
0
SPLINE
5
CE
100
AcDbEntity
8
1
62
256
6
ByLayer
370
13
48
1
60
0
100
AcDbSpline
70
4
71
3
72
8
73
4
40
0
40
0
40
0
40
0
40
1
40
1
40
1
40
1
41
1
10
11.143976929282
20
-1.05819075204596
30
0
41
1
10
11.164294958626
20
-1.06408818236261
30
0
41
1
10
11.1858746901559
20
-1.07199808487064
30
0
41
1
10
11.2079438074914
20
-1.08169792565997
30
0
0
SPLINE
5
CF
100
AcDbEntity
8
1
62
256
6
ByLayer
370
18
48
1
60
0
100
AcDbSpline
70
4
71
3
72
56
73
52
40
0
40
0
40
0
40
0
40
0.0625000000000023
40
0.0625000000000023
40
0.0937500000000034
40
0.0937500000000034
40
0.125000000000005
40
0.125000000000005
40
0.156250000000006
40
0.156250000000006
40
0.187500000000007
40
0.187500000000007
40
0.203125000000007
40
0.203125000000007
40
0.218750000000008
40
0.218750000000008
40
0.234375000000008
40
0.234375000000008
40
0.250000000000009
40
0.250000000000009
40
0.26562500000001
40
0.26562500000001
40
0.28125000000001
40
0.28125000000001
40
0.296875000000011
40
0.296875000000011
40
0.312500000000011
40
0.312500000000011
40
0.343750000000011
40
0.343750000000011
40
0.375000000000011
40
0.375000000000011
40
0.406250000000011
40
0.406250000000011
40
0.410156250000011
40
0.410156250000011
40
0.414062500000011
40
0.414062500000011
40
0.421875000000011
40
0.421875000000011
40
0.43750000000001
40
0.43750000000001
40
0.500000000000009
40
0.500000000000009
40
0.625000000000007
40
0.625000000000007
40
0.750000000000004
40
0.750000000000004
40
0.875000000000002
40
0.875000000000002
40
1
40
1
40
1
40
1
41
1
10
11.0151496551539
20
-3.1083870803204
30
0
41
1
10
10.803793315254
20
-3.15104430530141
30
0
41
1
10
10.5929806422571
20
-3.1885202312171
30
0
41
1
10
10.2855248595529
20
-3.23370225232264
30
0
41
1
10
10.1843852217152
20
-3.24694562443597
30
0
41
1
10
9.98562150621513
20
-3.26914617903481
30
0
41
1
10
9.88773608415659
20
-3.27812250637891
30
0
41
1
10
9.698735512475
20
-3.29060785017214
30
0
41
1
10
9.60747091640772
20
-3.29415795881212
30
0
41
1
10
9.43420693432643
20
-3.29423898479962
30
0
41
1
10
9.35209757554384
20
-3.29082786716256
30
0
41
1
10
9.24009478021384
20
-3.27799855908191
30
0
41
1
10
9.20474843712074
20
-3.27240442414376
30
0
41
1
10
9.14059286044181
20
-3.25820742830601
30
0
41
1
10
9.11159217711301
20
-3.24959296570299
30
0
41
1
10
9.06170133439031
20
-3.22855410071691
30
0
41
1
10
9.04120633098296
20
-3.21623440373889
30
0
41
1
10
9.01177235819065
20
-3.18790179165464
30
0
41
1
10
9.00267177786748
20
-3.17184064428957
30
0
41
1
10
8.99832486678966
20
-3.13530509903782
30
0
41
1
10
9.00326632282099
20
-3.11558794477375
30
0
41
1
10
9.02677056874703
20
-3.07381715717406
30
0
41
1
10
9.04567322484948
20
-3.0514444501523
30
0
41
1
10
9.09507758263032
20
-3.0060668253885
30
0
41
1
10
9.12519493992357
20
-2.98324164587646
30
0
41
1
10
9.1940634263681
20
-2.93755481741203
30
0
41
1
10
9.2331246663031
20
-2.91454772911106
30
0
41
1
10
9.35769903449176
20
-2.84741112944579
30
0
41
1
10
9.45087468832375
20
-2.80467584671447
30
0
41
1
10
9.64978388857045
20
-2.72247274157041
30
0
41
1
10
9.75535592809209
20
-2.68316564095167
30
0
41
1
10
9.97160727367441
20
-2.60869922885482
30
0
41
1
10
10.0829820497118
20
-2.57328908368169
30
0
41
1
10
10.2106143439788
20
-2.53530622787591
30
0
41
1
10
10.2247537549151
20
-2.53100485471577
30
0
41
1
10
10.2532741324964
20
-2.52274876249649
30
0
41
1
10
10.2683166846799
20
-2.51979575230587
30
0
41
1
10
10.3156753239847
20
-2.51463015778273
30
0
41
1
10
10.3468297506226
20
-2.51608321916123
30
0
41
1
10
10.440368808853
20
-2.51955850927123
30
0
41
1
10
10.502710036754
20
-2.52208375130127
30
0
41
1
10
10.8143259444414
20
-2.53573292635628
30
0
41
1
10
11.0633491080735
20
-2.54993935588101
30
0
41
1
10
11.8078157910335
20
-2.60132745095299
30
0
41
1
10
12.3012415389205
20
-2.64742906623494
30
0
41
1
10
13.2827626643406
20
-2.75512473240408
30
0
41
1
10
13.7691059390881
20
-2.81649285731657
30
0
41
1
10
14.7307194206769
20
-2.94180679989961
30
0
41
1
10
15.2065376412542
20
-3.00575253983422
30
0
41
1
10
16.1505536536346
20
-3.12247311683097
30
0
41
1
10
16.6187535428796
20
-3.17519476747239
30
0
41
1
10
17.0846954785747
20
-3.21574696782147
30
0
0
SPLINE
5
D0
100
AcDbEntity
8
1
62
256
6
ByLayer
370
18
48
1
60
0
100
AcDbSpline
70
4
71
3
72
10
73
6
40
0
40
0
40
0
40
0
40
0.5
40
0.5
40
1
40
1
40
1
40
1
41
1
10
42.00045712972
20
-3.22531235294747
30
0
41
1
10
42.1513059670762
20
-2.81136352269988
30
0
41
1
10
42.3066398031805
20
-2.40055284641264
30
0
41
1
10
42.625514298652
20
-1.58385825098767
30
0
41
1
10
42.7890919316561
20
-1.17800701977504
30
0
41
1
10
42.9565118009484
20
-0.774231628315903
30
0
0
SPLINE
5
D1
100
AcDbEntity
8
1
62
256
6
ByLayer
370
18
48
1
60
0
100
AcDbSpline
70
4
71
3
72
8
73
4
40
0
40
0
40
0
40
0
40
1
40
1
40
1
40
1
41
1
10
42.9565118009476
20
-0.774231628318091
30
0
41
1
10
42.971439781419
20
-0.555223372972165
30
0
41
1
10
42.9824187277935
20
-0.336415616249923
30
0
41
1
10
42.9894425278553
20
-0.117808668478091
30
0
0
SPLINE
5
D2
100
AcDbEntity
8
1
62
256
6
ByLayer
370
18
48
1
60
0
100
AcDbSpline
70
4
71
3
72
43
73
39
40
0
40
0
40
0
40
0
40
0.0676351765916855
40
0.0676351765916855
40
0.142418925268218
40
0.142418925268218
40
0.291986422621282
40
0.291986422621282
40
0.366770171297815
40
0.366770171297815
40
0.441553919974347
40
0.441553919974347
40
0.516337668650879
40
0.516337668650879
40
0.553729542989145
40
0.553729542989145
40
0.572425480158278
40
0.572425480158278
40
0.581773448742844
40
0.581773448742844
40
0.591121417327411
40
0.591121417327411
40
0.595795401619694
40
0.595795401619694
40
0.600469385911977
40
0.600469385911977
40
0.609817354496544
40
0.628513291665677
40
0.628513291665677
40
0.665905166003943
40
0.665905166003943
40
0.740688914680474
40
0.740688914680474
40
0.890256412033537
40
0.890256412033537
40
0.965040160710069
40
0.965040160710069
40
1
40
1
40
1
40
1
41
1
10
17.0846954785747
20
3.21574696770151
30
0
41
1
10
17.0846954785747
20
3.09678464550814
30
0
41
1
10
17.0846954785748
20
2.97834627316126
30
0
41
1
10
17.0846954785748
20
2.73005937714893
30
0
41
1
10
17.0846954785747
20
2.60087738573367
30
0
41
1
10
17.0846954785747
20
2.22244197773585
30
0
41
1
10
17.0846954785747
20
1.97994867095292
30
0
41
1
10
17.0846954785747
20
1.62999689770427
30
0
41
1
10
17.0846954785747
20
1.51565681905521
30
0
41
1
10
17.0846954785747
20
1.29158401261626
30
0
41
1
10
17.0846954785747
20
1.18155070679308
30
0
41
1
10
17.0846954785747
20
0.968024919789571
30
0
41
1
10
17.0846954785748
20
0.864487401829621
30
0
41
1
10
17.0846954785748
20
0.713937632096616
30
0
41
1
10
17.0846954785748
20
0.664528248645325
30
0
41
1
10
17.0846954785748
20
0.591676500588591
30
0
41
1
10
17.0846954785747
20
0.567607575613437
30
0
41
1
10
17.0846954785747
20
0.531825603360119
30
0
41
1
10
17.0846954785747
20
0.519949522861424
30
0
41
1
10
17.0846954785747
20
0.496320651250187
30
0
41
1
10
17.0846954785769
20
0.488030025302493
30
0
41
1
10
17.0846954785769
20
0.483939968771665
30
0
41
1
10
17.0846954785747
20
0.48404233811209
30
0
41
1
10
17.0846954785747
20
0.48343030769658
30
0
41
1
10
17.0846954785748
20
0.483146494774189
30
0
41
1
10
17.0846954785748
20
0.482362123886759
30
0
41
1
10
17.0846954785747
20
0.481061272160815
30
0
41
1
10
17.0846954785748
20
0.480565950625788
30
0
41
1
10
17.0846954785748
20
0.480655863967684
30
0
41
1
10
17.0846954785748
20
0.482157041898063
30
0
41
1
10
17.0846954785748
20
0.491031638894725
30
0
41
1
10
17.0846954785747
20
0.50278419185824
30
0
41
1
10
17.0846954785747
20
0.555354675947484
30
0
41
1
10
17.0846954785747
20
0.613363349160721
30
0
41
1
10
17.0846954785747
20
0.73708017778668
30
0
41
1
10
17.0846954785747
20
0.784787270035253
30
0
41
1
10
17.0846954785747
20
0.862906841238839
30
0
41
1
10
17.0846954785747
20
0.889007403216254
30
0
41
1
10
17.0846954785747
20
0.916322970273995
30
0
0
SPLINE
5
D3
100
AcDbEntity
8
1
62
256
6
ByLayer
370
13
48
1
60
0
100
AcDbSpline
70
4
71
3
72
8
73
4
40
0
40
0
40
0
40
0
40
1
40
1
40
1
40
1
41
1
10
11.0413729281143
20
-0.991163810217984
30
0
41
1
10
11.0655396553996
20
-1.01889286872955
30
0
41
1
10
11.100423213993
20
-1.0428030935326
30
0
41
1
10
11.143976929282
20
-1.05819075204596
30
0
0
SPLINE
5
D4
100
AcDbEntity
8
1
62
256
6
ByLayer
370
18
48
1
60
0
100
AcDbSpline
70
4
71
3
72
14
73
10
40
0
40
0
40
0
40
0
40
0.25
40
0.25
40
0.5
40
0.5
40
0.75
40
0.75
40
1
40
1
40
1
40
1
41
1
10
11.2512072021873
20
2.94108068852279
30
0
41
1
10
11.2282461502319
20
2.9458222458471
30
0
41
1
10
11.204823586868
20
2.95277150710919
30
0
41
1
10
11.1567404315184
20
2.97254062767377
30
0
41
1
10
11.1329365948501
20
2.98511379290647
30
0
41
1
10
11.0886762915762
20
3.01545344316557
30
0
41
1
10
11.0687488810599
20
3.03294290218616
30
0
41
1
10
11.0362702261891
20
3.06993842462993
30
0
41
1
10
11.02371558459
20
3.08942229425065
30
0
41
1
10
11.0151496551495
20
3.10838708033006
30
0
0
SPLINE
5
D5
100
AcDbEntity
8
1
62
256
6
ByLayer
370
18
48
1
60
0
100
AcDbSpline
70
4
71
3
72
8
73
4
40
0
40
0
40
0
40
0
40
1
40
1
40
1
40
1
41
1
10
42.9894425278553
20
-0.117808668477977
30
0
41
1
10
42.9901396067232
20
-0.0961129649656129
30
0
41
1
10
42.994124140965
20
-0.0696517493930742
30
0
41
1
10
42.9999504096886
20
-0.041778561797372
30
0
0
SPLINE
5
D6
100
AcDbEntity
8
1
62
256
6
ByLayer
370
18
48
1
60
0
100
AcDbSpline
70
4
71
3
72
38
73
34
40
0
40
0
40
0
40
0
40
0.0433594777226736
40
0.0433594777226736
40
0.0867189554453472
40
0.0867189554453472
40
0.173437910890693
40
0.173437910890693
40
0.260156866336039
40
0.260156866336039
40
0.303516344058711
40
0.303516344058711
40
0.346875821781383
40
0.346875821781383
40
0.520313732672073
40
0.520313732672073
40
0.563673210394744
40
0.563673210394744
40
0.585352949256081
40
0.585352949256081
40
0.607032688117418
40
0.607032688117418
40
0.693751643562763
40
0.693751643562763
40
0.780470599008108
40
0.780470599008108
40
0.82383007673078
40
0.82383007673078
40
0.867189554453452
40
0.867189554453452
40
0.953908509898797
40
0.953908509898797
40
1
40
1
40
1
40
1
41
1
10
41.8351301859925
20
-3.30973371209532
30
0
41
1
10
41.5133756480661
20
-3.31771655256037
30
0
41
1
10
41.1919289984963
20
-3.31491367794001
30
0
41
1
10
40.5485387127562
20
-3.2879375718336
30
0
41
1
10
40.2259265215254
20
-3.26368587028597
30
0
41
1
10
39.2609600073653
20
-3.15974844212295
30
0
41
1
10
38.6236725237784
20
-3.04912525019625
30
0
41
1
10
37.3514680501498
20
-2.75517177544936
30
0
41
1
10
36.7166745482429
20
-2.57177721291512
30
0
41
1
10
35.7598546544499
20
-2.25020562171369
30
0
41
1
10
35.440203111231
20
-2.13517962912144
30
0
41
1
10
34.7981771733204
20
-1.89124895441088
30
0
41
1
10
34.4751004963165
20
-1.76207115493412
30
0
41
1
10
32.8709990701612
20
-1.09368045334392
30
0
41
1
10
31.6081499648162
20
-0.484307723947808
30
0
41
1
10
30.0109847505183
20
0.277757976597542
30
0
41
1
10
29.6906456020586
20
0.43022882358315
30
0
41
1
10
29.2079157559382
20
0.657169341580982
30
0
41
1
10
29.0465349361461
20
0.732553495292194
30
0
41
1
10
28.725001726923
20
0.881431807522574
30
0
41
1
10
28.5645913087145
20
0.955045019871449
30
0
41
1
10
27.7639212539741
20
1.3182161374468
30
0
41
1
10
27.1279066718956
20
1.59328219596014
30
0
41
1
10
25.8563229651181
20
2.0966894268611
30
0
41
1
10
25.2205460653641
20
2.32466839132942
30
0
41
1
10
24.2605808519579
20
2.62019901269096
30
0
41
1
10
23.9391172647423
20
2.71098682004532
30
0
41
1
10
23.2944161256747
20
2.87472881571785
30
0
41
1
10
22.9736907079613
20
2.94719276560721
30
0
41
1
10
22.0145531311573
20
3.13506557606533
30
0
41
1
10
21.3788921632255
20
3.22072577017704
30
0
41
1
10
20.4048583925288
20
3.28865867430792
30
0
41
1
10
20.066703571886
20
3.30053450134707
30
0
41
1
10
19.7277466327806
20
3.30055804203747
30
0
0
SPLINE
5
D7
100
AcDbEntity
8
1
62
256
6
ByLayer
370
18
48
1
60
0
100
AcDbSpline
70
4
71
3
72
8
73
4
40
0
40
0
40
0
40
0
40
1
40
1
40
1
40
1
41
1
10
42.9565118009476
20
0.774231628318205
30
0
41
1
10
42.9714440427908
20
0.555160854429374
30
0
41
1
10
42.9824207327107
20
0.336353215721175
30
0
41
1
10
42.9894425278552
20
0.117808668478148
30
0
0
SPLINE
5
D8
100
AcDbEntity
8
1
62
256
6
ByLayer
370
18
48
1
60
0
100
AcDbSpline
70
4
71
3
72
60
73
56
40
0
40
0
40
0
40
0
40
0.0189586864310072
40
0.0189586864310072
40
0.0566910446451992
40
0.0566910446451992
40
0.0944234028593912
40
0.0944234028593912
40
0.132155761073583
40
0.132155761073583
40
0.169888119287775
40
0.169888119287775
40
0.207620477501967
40
0.207620477501967
40
0.245352835716159
40
0.245352835716159
40
0.283085193930351
40
0.283085193930351
40
0.320817552144543
40
0.320817552144543
40
0.358549910358736
40
0.358549910358736
40
0.396282268572927
40
0.396282268572927
40
0.43401462678712
40
0.43401462678712
40
0.471746985001312
40
0.471746985001312
40
0.509479343215504
40
0.509479343215504
40
0.547211701429696
40
0.547211701429696
40
0.584944059643888
40
0.584944059643888
40
0.62267641785808
40
0.62267641785808
40
0.660408776072272
40
0.660408776072272
40
0.698141134286464
40
0.698141134286464
40
0.735873492500656
40
0.735873492500656
40
0.773605850714848
40
0.773605850714848
40
0.81133820892904
40
0.81133820892904
40
0.849070567143232
40
0.849070567143232
40
0.886802925357424
40
0.886802925357424
40
0.924535283571616
40
0.924535283571616
40
0.962267641785808
40
0.962267641785808
40
1
40
1
40
1
40
1
41
1
10
35.0155801435545
20
-2.35700612473084
30
0
41
1
10
34.902164364237
20
-2.39091554484389
30
0
41
1
10
34.7887941902748
20
-2.42401623049278
30
0
41
1
10
34.4500072623043
20
-2.52039237324772
30
0
41
1
10
34.224697257669
20
-2.58098320373381
30
0
41
1
10
33.7744955234674
20
-2.69267811740326
30
0
41
1
10
33.5494751158747
20
-2.74328955765387
30
0
41
1
10
33.0987856946108
20
-2.8358165420193
30
0
41
1
10
32.8733649017349
20
-2.87844132905786
30
0
41
1
10
32.4221505427962
20
-2.954968524186
30
0
41
1
10
32.1961674344734
20
-2.98880876024384
30
0
41
1
10
31.7450220554759
20
-3.04551190976096
30
0
41
1
10
31.5195804627243
20
-3.06798048081515
30
0
41
1
10
31.0694176954882
20
-3.10482167347027
30
0
41
1
10
30.8442659880199
20
-3.11894491280376
30
0
41
1
10
30.3937791492344
20
-3.13741273245384
30
0
41
1
10
30.1685076124662
20
-3.14180253557015
30
0
41
1
10
29.7173980427895
20
-3.13949967617768
30
0
41
1
10
29.4912691233275
20
-3.13270655578188
30
0
41
1
10
29.0398888263044
20
-3.11018039639876
30
0
41
1
10
28.8145056964606
20
-3.09385106136094
30
0
41
1
10
28.364125273116
20
-3.05140125325627
30
0
41
1
10
28.138873207093
20
-3.02597775885906
30
0
41
1
10
27.6883000097749
20
-2.9654776072739
30
0
41
1
10
27.4630376353665
20
-2.93048652267558
30
0
41
1
10
27.0118289563463
20
-2.84998744045743
30
0
41
1
10
26.7855875538085
20
-2.80437838770854
30
0
41
1
10
26.3336056172787
20
-2.70614053952039
30
0
41
1
10
26.1078878273642
20
-2.65281933376309
30
0
41
1
10
25.6561834444421
20
-2.53769185676441
30
0
41
1
10
25.4299188463978
20
-2.47588694087872
30
0
41
1
10
24.9783033514084
20
-2.34446683662753
30
0
41
1
10
24.7528785349874
20
-2.27486801477122
30
0
41
1
10
24.3021555923526
20
-2.12944358748737
30
0
41
1
10
24.0768253924848
20
-2.05361921187952
30
0
41
1
10
23.6260615304273
20
-1.8951787430687
30
0
41
1
10
23.4007923948495
20
-1.81212450344208
30
0
41
1
10
22.9492845690978
20
-1.64067807026663
30
0
41
1
10
22.7229830294575
20
-1.55252122914868
30
0
41
1
10
22.2713242435178
20
-1.37169457302454
30
0
41
1
10
22.0459233438239
20
-1.27890624282688
30
0
41
1
10
21.5951547787273
20
-1.08981230459005
30
0
41
1
10
21.3697694163924
20
-0.993473130477014
30
0
41
1
10
20.9190357869115
20
-0.797942550599714
30
0
41
1
10
20.6938540362564
20
-0.69824334754162
30
0
41
1
10
20.2424483729409
20
-0.497669430040645
30
0
41
1
10
20.0162690712167
20
-0.396431954537718
30
0
41
1
10
19.5645712307764
20
-0.192653500118098
30
0
41
1
10
19.3391529880412
20
-0.0902447489550298
30
0
41
1
10
18.8884025694648
20
0.113818303171485
30
0
41
1
10
18.6630798580407
20
0.215461022130938
30
0
41
1
10
18.2125423437333
20
0.418054513773427
30
0
41
1
10
17.9874790403321
20
0.519417935925418
30
0
41
1
10
17.536513051576
20
0.719474508270935
30
0
41
1
10
17.3107361118183
20
0.818435290243514
30
0
41
1
10
17.0846954785748
20
0.916322970280476
30
0
0
SPLINE
5
D9
100
AcDbEntity
8
1
62
256
6
ByLayer
370
18
48
1
60
0
100
AcDbSpline
70
4
71
3
72
30
73
26
40
0
40
0
40
0
40
0
40
0.0673456537813191
40
0.0673456537813191
40
0.145066849299543
40
0.145066849299543
40
0.222788044817766
40
0.222788044817766
40
0.378230435854213
40
0.378230435854213
40
0.455951631372436
40
0.455951631372436
40
0.53367282689066
40
0.53367282689066
40
0.611394022408883
40
0.611394022408883
40
0.689115217927106
40
0.689115217927106
40
0.76683641344533
40
0.76683641344533
40
0.844557608963553
40
0.844557608963553
40
0.922278804481777
40
0.922278804481777
40
1
40
1
40
1
40
1
41
1
10
30.029458037333
20
3.14082243071698
30
0
41
1
10
30.2245737257421
20
3.14060223197305
30
0
41
1
10
30.4198104416343
20
3.13629849289325
30
0
41
1
10
30.840917259089
20
3.11913557323229
30
0
41
1
10
31.0670051330825
20
3.10499488150552
30
0
41
1
10
31.5181133711562
20
3.06812457508047
30
0
41
1
10
31.7437123562018
20
3.04565094776819
30
0
41
1
10
32.4195852729407
20
2.96077890099755
30
0
41
1
10
32.8694085144688
20
2.88282525640724
30
0
41
1
10
33.5461731943322
20
2.74400828384799
30
0
41
1
10
33.7720938412439
20
2.69324963635773
30
0
41
1
10
34.2232869073162
20
2.58135724410442
30
0
41
1
10
34.4486717716805
20
2.52075633488653
30
0
41
1
10
34.8991607011583
20
2.39263564429285
30
0
41
1
10
35.1242494227901
20
2.32526177349973
30
0
41
1
10
35.5746526701686
20
2.18461753752703
30
0
41
1
10
35.7999578311194
20
2.1107595049607
30
0
41
1
10
36.2509211271889
20
1.95470971243952
30
0
41
1
10
36.4766020174542
20
1.8724720291795
30
0
41
1
10
36.9282738862296
20
1.70317614226556
30
0
41
1
10
37.154066411135
20
1.61589150415759
30
0
41
1
10
37.6056388567443
20
1.43660945232341
30
0
41
1
10
37.8314905175688
20
1.3444604190795
30
0
41
1
10
38.2832509239903
20
1.15708679173375
30
0
41
1
10
38.5091094232344
20
1.0618470085063
30
0
41
1
10
38.7348690715179
20
0.964429407000125
30
0
0
SPLINE
5
DA
100
AcDbEntity
8
1
62
256
6
ByLayer
370
18
48
1
60
0
100
AcDbSpline
70
4
71
3
72
10
73
6
40
0
40
0
40
0
40
0
40
0.5
40
0.5
40
1
40
1
40
1
40
1
41
1
10
11.1425503123756
20
-1.0747388843242
30
0
41
1
10
11.1219191501621
20
-1.06545114272217
30
0
41
1
10
11.1030822849841
20
-1.0537383485474
30
0
41
1
10
11.0689019748055
20
-1.02553675432827
30
0
41
1
10
11.0537893662988
20
-1.00910718801279
30
0
41
1
10
11.0413729281134
20
-0.991163810214744
30
0
0
SPLINE
5
DB
100
AcDbEntity
8
1
62
256
6
ByLayer
370
18
48
1
60
0
100
AcDbSpline
70
4
71
3
72
26
73
22
40
0
40
0
40
0
40
0
40
0.0625
40
0.0625
40
0.125
40
0.125
40
0.1875
40
0.1875
40
0.25
40
0.25
40
0.375
40
0.375
40
0.5
40
0.5
40
0.625
40
0.625
40
0.75
40
0.75
40
0.875
40
0.875
40
1
40
1
40
1
40
1
41
1
10
42.4434848504756
20
-0.933557727477506
30
0
41
1
10
42.4409771313951
20
-0.954348575596271
30
0
41
1
10
42.4373945037204
20
-0.976899063306007
30
0
41
1
10
42.4283995140088
20
-1.02329146686768
30
0
41
1
10
42.4229899784751
20
-1.04725597616252
30
0
41
1
10
42.4103734403911
20
-1.09671810751806
30
0
41
1
10
42.4031150271762
20
-1.12233489426424
30
0
41
1
10
42.3874204252071
20
-1.17303518031631
30
0
41
1
10
42.3789266048598
20
-1.19836982518933
30
0
41
1
10
42.3515946622667
20
-1.27433928853534
30
0
41
1
10
42.3315354334509
20
-1.32321063469885
30
0
41
1
10
42.2893355714907
20
-1.41520905859753
30
0
41
1
10
42.2678407200546
20
-1.4569846688228
30
0
41
1
10
42.2246267328949
20
-1.53217810087946
30
0
41
1
10
42.2031018342113
20
-1.56510255641217
30
0
41
1
10
42.1626635617283
20
-1.61867592596821
30
0
41
1
10
42.1433898331735
20
-1.63991604904098
30
0
41
1
10
42.1074476315282
20
-1.67025356595366
30
0
41
1
10
42.0913031815081
20
-1.67897199089057
30
0
41
1
10
42.0626498203625
20
-1.68312198117488
30
0
41
1
10
42.0503736076864
20
-1.67830386629802
30
0
41
1
10
42.0408471040347
20
-1.66640035243952
30
0
0
SPLINE
5
DC
100
AcDbEntity
8
1
62
256
6
ByLayer
370
18
48
1
60
0
100
AcDbSpline
70
4
71
3
72
72
73
68
40
0
40
0
40
0
40
0
40
0.0334096109338064
40
0.0334096109338064
40
0.0501144164007095
40
0.0501144164007095
40
0.0668192218676127
40
0.0668192218676127
40
0.100228832801419
40
0.100228832801419
40
0.133638443735225
40
0.133638443735225
40
0.167048054669032
40
0.167048054669032
40
0.200457665602838
40
0.200457665602838
40
0.233867276536644
40
0.233867276536644
40
0.267276887470451
40
0.267276887470451
40
0.300686498404257
40
0.300686498404257
40
0.334096109338064
40
0.334096109338064
40
0.36750572027187
40
0.36750572027187
40
0.384210525738773
40
0.384210525738773
40
0.400915331205676
40
0.400915331205676
40
0.434324942139481
40
0.434324942139481
40
0.467734553073286
40
0.467734553073286
40
0.501144164007091
40
0.501144164007091
40
0.534553774940896
40
0.534553774940896
40
0.567963385874701
40
0.567963385874701
40
0.601372996808506
40
0.601372996808506
40
0.634782607742311
40
0.634782607742311
40
0.668192218676116
40
0.668192218676116
40
0.701601829609921
40
0.701601829609921
40
0.718306635076823
40
0.718306635076823
40
0.735011440543725
40
0.735011440543725
40
0.76842105147753
40
0.76842105147753
40
0.801830662411335
40
0.801830662411335
40
0.83524027334514
40
0.83524027334514
40
0.868649884278945
40
0.868649884278945
40
0.90205949521275
40
0.90205949521275
40
0.935469106146555
40
0.935469106146555
40
0.96887871708036
40
0.96887871708036
40
1
40
1
40
1
40
1
41
1
10
17.0846954785747
20
3.21574696782145
30
0
41
1
10
17.3444453391495
20
3.24378496514547
30
0
41
1
10
17.6041518660216
20
3.26464223121468
30
0
41
1
10
17.9936348358299
20
3.28560321548068
30
0
41
1
10
18.1234213355241
20
3.29087521526435
30
0
41
1
10
18.3827163552423
20
3.29799054630411
30
0
41
1
10
18.5121444448404
20
3.2998241698931
30
0
41
1
10
18.9009353359376
20
3.30005440016703
30
0
41
1
10
19.1606732223018
20
3.29329818746871
30
0
41
1
10
19.6802294132607
20
3.26585044037444
30
0
41
1
10
19.9402852974407
20
3.24501993706482
30
0
41
1
10
20.4597409007943
20
3.19010234104403
30
0
41
1
10
20.7194404608676
20
3.15611859451991
30
0
41
1
10
21.2375748989991
20
3.07427399565108
30
0
41
1
10
21.496736326085
20
3.02684763753518
30
0
41
1
10
22.0160202153115
20
2.91982794765963
30
0
41
1
10
22.2757843426205
20
2.85963050633185
30
0
41
1
10
22.7956251119577
20
2.72738410314003
30
0
41
1
10
23.055399281833
20
2.65586348354341
30
0
41
1
10
23.5742804558199
20
2.50174173076434
30
0
41
1
10
23.8330123515914
20
2.41855546954881
30
0
41
1
10
24.3517366782381
20
2.24370026852571
30
0
41
1
10
24.6113667697724
20
2.15157951662383
30
0
41
1
10
25.1307575100242
20
1.95713084852451
30
0
41
1
10
25.3908922567163
20
1.85546658423536
30
0
41
1
10
25.7804485589393
20
1.69843754757389
30
0
41
1
10
25.9102339109667
20
1.6452279173798
30
0
41
1
10
26.1695207536658
20
1.5367911331596
30
0
41
1
10
26.2989307051569
20
1.48138699616277
30
0
41
1
10
26.6875680946396
20
1.31368604247979
30
0
41
1
10
26.9471132646716
20
1.19977893247793
30
0
41
1
10
27.466112827338
20
0.965822149735857
30
0
41
1
10
27.7259276211418
20
0.845642007519785
30
0
41
1
10
28.2457337177141
20
0.603789811466271
30
0
41
1
10
28.5055140593667
20
0.482209106260939
30
0
41
1
10
29.023650077131
20
0.235268609421723
30
0
41
1
10
29.2826802920175
20
0.111318806412584
30
0
41
1
10
29.8015632031636
20
-0.135636095999615
30
0
41
1
10
30.0608303301846
20
-0.259878256344308
30
0
41
1
10
30.5803988359359
20
-0.506980900536604
30
0
41
1
10
30.8406153714618
20
-0.629069437274524
30
0
41
1
10
31.3596493150633
20
-0.87019554242022
30
0
41
1
10
31.6183575736105
20
-0.990139694018012
30
0
41
1
10
32.1368347626656
20
-1.22337881838112
30
0
41
1
10
32.3962619131502
20
-1.33739208177005
30
0
41
1
10
32.9150391805973
20
-1.56102327918657
30
0
41
1
10
33.1751452183582
20
-1.66996577666444
30
0
41
1
10
33.5649316699004
20
-1.8268347768942
30
0
41
1
10
33.6947724107329
20
-1.87813255863989
30
0
41
1
10
33.9541274529317
20
-1.97899701081579
30
0
41
1
10
34.0835468382958
20
-2.02871529810386
30
0
41
1
10
34.4721185007459
20
-2.17388741457938
30
0
41
1
10
34.7315290914137
20
-2.26552290179291
30
0
41
1
10
35.2500939903701
20
-2.4400920795382
30
0
41
1
10
35.5092585689735
20
-2.5229354377455
30
0
41
1
10
36.0292602883073
20
-2.67699128754467
30
0
41
1
10
36.2893025691772
20
-2.74807437272963
30
0
41
1
10
36.8075661679279
20
-2.87948372451467
30
0
41
1
10
37.0665186143844
20
-2.93909187139875
30
0
41
1
10
37.5851183199273
20
-3.04529551085668
30
0
41
1
10
37.8441624412505
20
-3.09242534697404
30
0
41
1
10
38.363057027483
20
-3.17344780192789
30
0
41
1
10
38.6234004289548
20
-3.20720648185053
30
0
41
1
10
39.1432247081869
20
-3.26118841831141
30
0
41
1
10
39.402484417391
20
-3.28152386035961
30
0
41
1
10
39.9045923345314
20
-3.30702880322681
30
0
41
1
10
40.1469241491289
20
-3.3132950205185
30
0
41
1
10
40.3887605227797
20
-3.31349288337708
30
0
0
SPLINE
5
DD
100
AcDbEntity
8
1
62
256
6
ByLayer
370
13
48
1
60
0
100
AcDbSpline
70
4
71
3
72
30
73
26
40
0
40
0
40
0
40
0
40
0.125
40
0.125
40
0.1875
40
0.1875
40
0.25
40
0.25
40
0.375
40
0.375
40
0.4375
40
0.4375
40
0.5
40
0.5
40
0.625
40
0.625
40
0.6875
40
0.6875
40
0.75
40
0.75
40
0.8125
40
0.8125
40
0.875
40
0.875
40
1
40
1
40
1
40
1
41
1
10
11.2503239624756
20
-0.965429341259892
30
0
41
1
10
11.2503918923803
20
-0.773654547973024
30
0
41
1
10
11.2504531245432
20
-0.578045424841548
30
0
41
1
10
11.2505377462751
20
-0.278944704150092
30
0
41
1
10
11.2505647744122
20
-0.178120632415812
30
0
41
1
10
11.2506159415576
20
0.0218155282723558
30
0
41
1
10
11.250640211738
20
0.121372014042123
30
0
41
1
10
11.2507098867999
20
0.418828956182381
30
0
41
1
10
11.250752250472
20
0.615870239158198
30
0
41
1
10
11.2508119543763
20
0.907853978832776
30
0
41
1
10
11.2508310055086
20
1.00357000462765
30
0
41
1
10
11.250867837387
20
1.19180410691649
30
0
41
1
10
11.2508856859355
20
1.28468353789819
30
0
41
1
10
11.2509371829887
20
1.55503102001651
30
0
41
1
10
11.2509689039079
20
1.72454671842431
30
0
41
1
10
11.2510140309619
20
1.96310687481241
30
0
41
1
10
11.2510286496986
20
2.03999020751249
30
0
41
1
10
11.2510571157474
20
2.18832274174653
30
0
41
1
10
11.2510708791419
20
2.2593270433895
30
0
41
1
10
11.2510971496205
20
2.39336720443419
30
0
41
1
10
11.2511097094341
20
2.4566787436392
30
0
41
1
10
11.2511335873315
20
2.575880137778
30
0
41
1
10
11.2511449490618
20
2.63198269880075
30
0
41
1
10
11.2511765141942
20
2.7872466400805
30
0
41
1
10
11.2511941217165
20
2.87285175307568
30
0
41
1
10
11.2512072021873
20
2.94108068845071
30
0
0
SPLINE
5
DE
100
AcDbEntity
8
1
62
256
6
ByLayer
370
18
48
1
60
0
100
AcDbSpline
70
4
71
3
72
22
73
18
40
0
40
0
40
0
40
0
40
0.125
40
0.125
40
0.25
40
0.25
40
0.375
40
0.375
40
0.5
40
0.5
40
0.625
40
0.625
40
0.75
40
0.75
40
0.875
40
0.875
40
1
40
1
40
1
40
1
41
1
10
17.0846954785747
20
0.916322970280476
30
0
41
1
10
16.8337969645067
20
1.01705330294479
30
0
41
1
10
16.5843252886055
20
1.11828594184905
30
0
41
1
10
16.0873495827578
20
1.32070940594915
30
0
41
1
10
15.8398644496119
20
1.42194293214271
30
0
41
1
10
15.3459890920097
20
1.62148795800516
30
0
41
1
10
15.0998135158909
20
1.71972403522517
30
0
41
1
10
14.6096992841699
20
1.91016192748265
30
0
41
1
10
14.3655356999081
20
2.00258748270213
30
0
41
1
10
13.8783887993532
20
2.18020374603961
30
0
41
1
10
13.6354140602649
20
2.26500119602446
30
0
41
1
10
13.1502185220573
20
2.42756603629445
30
0
41
1
10
12.9083496068253
20
2.5050346555544
30
0
41
1
10
12.4284752717711
20
2.64922503652369
30
0
41
1
10
12.1901375319355
20
2.71617078699367
30
0
41
1
10
11.7173480040317
20
2.83816036240705
30
0
41
1
10
11.4828673725671
20
2.89324185344259
30
0
41
1
10
11.2512072025289
20
2.94108068845227
30
0
0
SPLINE
5
DF
100
AcDbEntity
8
1
62
256
6
ByLayer
370
18
48
1
60
0
100
AcDbSpline
70
4
71
3
72
26
73
22
40
0
40
0
40
0
40
0
40
0.0624999999999976
40
0.0624999999999976
40
0.124999999999995
40
0.124999999999995
40
0.249999999999993
40
0.249999999999993
40
0.37499999999999
40
0.37499999999999
40
0.437499999999989
40
0.437499999999989
40
0.499999999999988
40
0.499999999999988
40
0.624999999999991
40
0.624999999999991
40
0.749999999999994
40
0.749999999999994
40
0.874999999999997
40
0.874999999999997
40
1
40
1
40
1
40
1
41
1
10
38.7348690715318
20
0.964429406994412
30
0
41
1
10
38.7372949276116
20
0.866342349855444
30
0
41
1
10
38.7465661883385
20
0.767497436675342
30
0
41
1
10
38.7783591811422
20
0.568340648129862
30
0
41
1
10
38.8011825977702
20
0.467123576591376
30
0
41
1
10
38.8868444703155
20
0.169526585096037
30
0
41
1
10
38.9660771968051
20
-0.0211863486273671
30
0
41
1
10
39.159545508116
20
-0.390453961610206
30
0
41
1
10
39.2701286164618
20
-0.562216276086446
30
0
41
1
10
39.4513330602372
20
-0.805544930019096
30
0
41
1
10
39.5143415438226
20
-0.884224686187167
30
0
41
1
10
39.645082672717
20
-1.03718115480882
30
0
41
1
10
39.7129375544231
20
-1.11155654343995
30
0
41
1
10
39.919717805249
20
-1.32553049258667
30
0
41
1
10
40.0628118385276
20
-1.45732478062686
30
0
41
1
10
40.3571727079583
20
-1.70398456856862
30
0
41
1
10
40.5084737208904
20
-1.81877927617563
30
0
41
1
10
40.8181094748297
20
-2.03379933320861
30
0
41
1
10
40.9767876932634
20
-2.13415679730807
30
0
41
1
10
41.2964190854074
20
-2.31939249927163
30
0
41
1
10
41.4578459748734
20
-2.40460240888481
30
0
41
1
10
41.6207437976065
20
-2.48304926482578
30
0
0
SPLINE
5
E0
100
AcDbEntity
8
1
62
256
6
ByLayer
370
18
48
1
60
0
100
AcDbSpline
70
4
71
3
72
14
73
10
40
0
40
0
40
0
40
0
40
0.25
40
0.25
40
0.5
40
0.5
40
0.75
40
0.75
40
1
40
1
40
1
40
1
41
1
10
41.7577071436455
20
0.715713892343018
30
0
41
1
10
41.7565917330316
20
0.731048906198936
30
0
41
1
10
41.759533686915
20
0.746644980819212
30
0
41
1
10
41.7744336710834
20
0.773828128922219
30
0
41
1
10
41.7863827726771
20
0.785234643904772
30
0
41
1
10
41.813435463796
20
0.801382143254614
30
0
41
1
10
41.8287481833329
20
0.80658062877913
30
0
41
1
10
41.8595572238605
20
0.81262904010589
30
0
41
1
10
41.8754108021375
20
0.813589408681025
30
0
41
1
10
41.8911961194488
20
0.813024951211389
30
0
0
SPLINE
5
E1
100
AcDbEntity
8
1
62
256
6
ByLayer
370
18
48
1
60
0
100
AcDbSpline
70
4
71
3
72
8
73
4
40
0
40
0
40
0
40
0
40
1
40
1
40
1
40
1
41
1
10
42.0004571297232
20
-3.22531235293789
30
0
41
1
10
41.9392114323749
20
-3.27077261880982
30
0
41
1
10
41.88424650981
20
-3.29915376406078
30
0
41
1
10
41.8351301859925
20
-3.30973371209532
30
0
0
SPLINE
5
E2
100
AcDbEntity
8
1
62
256
6
ByLayer
370
18
48
1
60
0
100
AcDbSpline
70
4
71
3
72
8
73
4
40
0
40
0
40
0
40
0
40
1
40
1
40
1
40
1
41
1
10
42.9894425278553
20
0.117808668478119
30
0
41
1
10
42.9901396067228
20
0.09611296497593
30
0
41
1
10
42.9941241409613
20
0.0696517494178579
30
0
41
1
10
42.9999504096803
20
0.0417785618367361
30
0
0
SPLINE
5
E3
100
AcDbEntity
8
1
62
256
6
ByLayer
370
18
48
1
60
0
100
AcDbSpline
70
4
71
3
72
8
73
4
40
0
40
0
40
0
40
0
40
1
40
1
40
1
40
1
41
1
10
42.0004571297228
20
3.22531235293815
30
0
41
1
10
41.9392114323746
20
3.2707726188099
30
0
41
1
10
41.8842465098099
20
3.2991537640608
30
0
41
1
10
41.8351301859925
20
3.30973371209532
30
0
0
SPLINE
5
E4
100
AcDbEntity
8
1
62
256
6
ByLayer
370
18
48
1
60
0
100
AcDbSpline
70
4
71
3
72
8
73
4
40
0
40
0
40
0
40
0
40
1
40
1
40
1
40
1
41
1
10
42.9999504096846
20
0.0417785618235484
30
0
41
1
10
43.0000165342117
20
0.0139244571354595
30
0
41
1
10
43.0000165235256
20
-0.0139289585300446
30
0
41
1
10
42.9999504096846
20
-0.041778561803028
30
0
0
SPLINE
5
E5
100
AcDbEntity
8
1
62
256
6
ByLayer
370
18
48
1
60
0
100
AcDbSpline
70
4
71
3
72
8
73
4
40
0
40
0
40
0
40
0
40
1
40
1
40
1
40
1
41
1
10
11.2079438074914
20
-1.08169792565997
30
0
41
1
10
12.165427341225
20
-1.50253205755555
30
0
41
1
10
13.1106842728768
20
-1.886676501019
30
0
41
1
10
14.0580465769849
20
-2.20957194264238
30
0
0
SPLINE
5
E6
100
AcDbEntity
8
1
62
256
6
ByLayer
370
13
48
1
60
0
100
AcDbSpline
70
4
71
3
72
20
73
16
40
0
40
0
40
0
40
0
40
0.133870811448931
40
0.133870811448931
40
0.265182210967033
40
0.265182210967033
40
0.396493610485136
40
0.396493610485136
40
0.659116409521341
40
0.659116409521341
40
0.790427809039442
40
0.790427809039442
40
0.921739208557543
40
0.921739208557543
40
1
40
1
40
1
40
1
41
1
10
14.0580464558259
20
-2.20957190134703
30
0
41
1
10
14.3820942976674
20
-2.32001916345237
30
0
41
1
10
14.7063884681311
20
-2.42330028907875
30
0
41
1
10
15.3504009027198
20
-2.61174574534471
30
0
41
1
10
15.6700572616302
20
-2.69730091194725
30
0
41
1
10
16.3118695476163
20
-2.85131772902886
30
0
41
1
10
16.633990787309
20
-2.91959667597772
30
0
41
1
10
17.5968952119573
20
-3.09466701589747
30
0
41
1
10
18.2368944058843
20
-3.17284382266303
30
0
41
1
10
19.2015221766199
20
-3.22777006679016
30
0
41
1
10
19.5227018223503
20
-3.23561011212055
30
0
41
1
10
20.1617407268703
20
-3.23068791806787
30
0
41
1
10
20.4801464685838
20
-3.21792267278866
30
0
41
1
10
20.987423656211
20
-3.18142347572902
30
0
41
1
10
21.1766633665369
20
-3.16421120695011
30
0
41
1
10
21.3658137160559
20
-3.14348477123863
30
0
0
SPLINE
5
E7
100
AcDbEntity
8
1
62
256
6
ByLayer
370
18
48
1
60
0
100
AcDbSpline
70
4
71
3
72
10
73
6
40
0
40
0
40
0
40
0
40
0.658843888663391
40
0.658843888663391
40
1
40
1
40
1
40
1
41
1
10
11.2512072029143
20
-2.94108068837275
30
0
41
1
10
11.4827586526203
20
-2.89326430457817
30
0
41
1
10
11.7174401976457
20
-2.83814496894982
30
0
41
1
10
12.0769291693958
20
-2.74537654822393
30
0
41
1
10
12.2001971535782
20
-2.712097919071
30
0
41
1
10
12.3239794691451
20
-2.67731649058729
30
0
0
SPLINE
5
E8
100
AcDbEntity
8
1
62
256
6
ByLayer
370
18
48
1
60
0
100
AcDbSpline
70
4
71
3
72
14
73
10
40
0
40
0
40
0
40
0
40
0.400440627006233
40
0.400440627006233
40
0.60066094050935
40
0.60066094050935
40
0.800881254012467
40
0.800881254012467
40
1
40
1
40
1
40
1
41
1
10
11.0151496551539
20
3.10838708032043
30
0
41
1
10
10.803793315254
20
3.15104430530144
30
0
41
1
10
10.592980642257
20
3.1885202312171
30
0
41
1
10
10.2855248595528
20
3.23370225232264
30
0
41
1
10
10.1843852217151
20
3.24694562443597
30
0
41
1
10
9.98562150621507
20
3.26914617903481
30
0
41
1
10
9.8877360841565
20
3.27812250637891
30
0
41
1
10
9.699255431974
20
3.29057350438347
30
0
41
1
10
9.60847524926149
20
3.29411881349731
30
0
41
1
10
9.52226923550199
20
3.2941974845599
30
0
0
SPLINE
5
E9
100
AcDbEntity
8
1
62
256
6
ByLayer
370
18
48
1
60
0
100
AcDbSpline
70
4
71
3
72
14
73
10
40
0
40
0
40
0
40
0
40
0.0899094647576067
40
0.0899094647576067
40
0.393272976505071
40
0.393272976505071
40
0.696636488252536
40
0.696636488252536
40
1
40
1
40
1
40
1
41
1
10
12.3549460631968
20
2.65554728322513
30
0
41
1
10
12.5008693362626
20
2.67003897429325
30
0
41
1
10
12.6465527716725
20
2.68531772933528
30
0
41
1
10
13.2827626643406
20
2.75512473240408
30
0
41
1
10
13.7691059390881
20
2.81649285731657
30
0
41
1
10
14.730719420677
20
2.94180679989961
30
0
41
1
10
15.2065376412542
20
3.00575253983422
30
0
41
1
10
16.1505536536346
20
3.12247311683095
30
0
41
1
10
16.6187535428796
20
3.17519476747236
30
0
41
1
10
17.0846954785747
20
3.21574696782147
30
0
0
SPLINE
5
EA
100
AcDbEntity
8
1
62
256
6
ByLayer
370
18
48
1
60
0
100
AcDbSpline
70
4
71
3
72
8
73
4
40
0
40
0
40
0
40
0
40
1
40
1
40
1
40
1
41
1
10
41.8911961194488
20
0.813024951211389
30
0
41
1
10
42.2462851723167
20
0.800327539792733
30
0
41
1
10
42.6014947486611
20
0.786150897444514
30
0
41
1
10
42.9565118009546
20
0.774231628317523
30
0
0
SPLINE
5
EB
100
AcDbEntity
8
1
62
256
6
ByLayer
370
18
48
1
60
0
100
AcDbSpline
70
4
71
3
72
10
73
6
40
0
40
0
40
0
40
0
40
0.5
40
0.5
40
1
40
1
40
1
40
1
41
1
10
42.9999504096915
20
0.0417785618439268
30
0
41
1
10
42.9962224022713
20
0.0264358362328494
30
0
41
1
10
42.9911237104516
20
0.0099872240551235
30
0
41
1
10
42.9788263704734
20
-0.0212438029370219
30
0
41
1
10
42.9715908523433
20
-0.0360509925226893
30
0
41
1
10
42.9642614880151
20
-0.048063908146645
30
0
0
SPLINE
5
EC
100
AcDbEntity
8
1
62
256
6
ByLayer
370
18
48
1
60
0
100
AcDbSpline
70
4
71
3
72
23
73
19
40
0
40
0
40
0
40
0
40
0.063130203848665
40
0.114004176281907
40
0.169091052453811
40
0.225712371213314
40
0.283463824273893
40
0.338498120371377
40
0.428762482146571
40
0.503781516088795
40
0.597440566160956
40
0.69517077461068
40
0.728302157049258
40
0.763278841120511
40
0.811652601454696
40
0.877269082764126
40
0.960167173622254
40
1
40
1
40
1
40
1
41
1
10
19.9007785858474
20
-3.13497482997624
30
0
41
1
10
20.0960555483715
20
-3.1316295757419
30
0
41
1
10
20.4579305011274
20
-3.12789004330628
30
0
41
1
10
21.042979961962
20
-3.12488630384112
30
0
41
1
10
21.5803710309674
20
-3.13476031164666
30
0
41
1
10
22.1510461098554
20
-3.1362501628584
30
0
41
1
10
22.725251679345
20
-3.13617554620453
30
0
41
1
10
23.4145285914029
20
-3.13750535922227
30
0
41
1
10
24.1627172322063
20
-3.13752775605729
30
0
41
1
10
25.04181632251
20
-3.13725542478716
30
0
41
1
10
25.946824606031
20
-3.13854977433581
30
0
41
1
10
26.708032307004
20
-3.13781683180898
30
0
41
1
10
27.2716024722944
20
-3.13988542190862
30
0
41
1
10
27.6653499847058
20
-3.13964257083563
30
0
41
1
10
28.1713441837271
20
-3.13876612696461
30
0
41
1
10
28.8398385936297
20
-3.13910489576418
30
0
41
1
10
29.4793642913223
20
-3.1405562260947
30
0
41
1
10
29.8960748063591
20
-3.14037119479164
30
0
41
1
10
30.0313195393841
20
-3.14026582923773
30
0
0
SPLINE
5
ED
100
AcDbEntity
8
1
62
256
6
ByLayer
370
18
48
1
60
0
100
AcDbSpline
70
4
71
1
72
4
73
2
40
0
40
0
40
1
40
1
41
1
10
41.6219593584715
20
-3.14857830791959
30
0
41
1
10
41.8375552664994
20
-3.14766003611419
30
0
0
SPLINE
5
EE
100
AcDbEntity
8
1
62
256
6
ByLayer
370
18
48
1
60
0
100
AcDbSpline
70
4
71
3
72
22
73
18
40
0
40
0
40
0
40
0
40
0.0494587803971299
40
0.152393001972026
40
0.233868719399526
40
0.30717533264194
40
0.361003629876557
40
0.412846398933163
40
0.4645243281095
40
0.517221723506705
40
0.566868549516017
40
0.616141576446914
40
0.696413143367247
40
0.788414008453383
40
0.902258394203357
40
0.993130786572126
40
1
40
1
40
1
40
1
41
1
10
30.0313074167732
20
3.14026583241571
30
0
41
1
10
29.8960667245898
20
3.14037119341069
30
0
41
1
10
29.4793510514334
20
3.14055432448475
30
0
41
1
10
28.8399022731898
20
3.1391180291611
30
0
41
1
10
28.1349660085264
20
3.13871237684589
30
0
41
1
10
27.5649655605562
20
3.13996073430147
30
0
41
1
10
27.0767260760902
20
3.13936179395103
30
0
41
1
10
26.6461333126084
20
3.13791088137862
30
0
41
1
10
26.2198526256383
20
3.13811347812913
30
0
41
1
10
25.798429220926
20
3.13822692518443
30
0
41
1
10
25.3838694154554
20
3.13799233441438
30
0
41
1
10
24.8938192287429
20
3.13726340600695
30
0
41
1
10
24.2880713199786
20
3.1373399925651
30
0
41
1
10
23.5054108621397
20
3.13800263128147
30
0
41
1
10
22.6949232152623
20
3.13566883550476
30
0
41
1
10
22.1155394990003
20
3.13687749892173
30
0
41
1
10
21.8525809891088
20
3.13498233946839
30
0
41
1
10
21.8341185775288
20
3.13483883847863
30
0
0
LINE
5
7B
100
AcDbEntity
8
SK1
62
256
6
ByLayer
370
18
48
1
60
0
100
AcDbLine
10
-36
20
2.76
30
0
11
-36
21
2.637225
31
0
39
0
210
0
220
0
230
1
0
LINE
5
7D
100
AcDbEntity
8
SK1
62
256
6
ByLayer
370
18
48
1
60
0
100
AcDbLine
10
-35.4
20
2.413887
30
0
11
-35.4
21
3.120425
31
0
39
0
210
0
220
0
230
1
0
LINE
5
7E
100
AcDbEntity
8
SK1
62
256
6
ByLayer
370
18
48
1
60
0
100
AcDbLine
10
0
20
-4
30
0
11
0
21
4
31
0
39
0
210
0
220
0
230
1
0
LINE
5
7F
100
AcDbEntity
8
SK1
62
256
6
ByLayer
370
18
48
1
60
0
100
AcDbLine
10
-36
20
2.637225
30
0
11
-36
21
1.821956
31
0
39
0
210
0
220
0
230
1
0
LINE
5
80
100
AcDbEntity
8
SK1
62
256
6
ByLayer
370
18
48
1
60
0
100
AcDbLine
10
-36
20
1.821989
30
0
11
-36
21
-2.76
31
0
39
0
210
0
220
0
230
1
0
LINE
5
81
100
AcDbEntity
8
SK1
62
256
6
ByLayer
370
13
48
1
60
0
100
AcDbLine
10
-35.5
20
3.070708
30
0
11
-35.5
21
2.25547
31
0
39
0
210
0
220
0
230
1
0
LINE
5
82
100
AcDbEntity
8
SK1
62
256
6
ByLayer
370
18
48
1
60
0
100
AcDbLine
10
-34.76
20
4
30
0
11
-34.76
21
-4
31
0
39
0
210
0
220
0
230
1
0
LINE
5
83
100
AcDbEntity
8
1
62
256
6
ByLayer
370
18
48
1
60
0
100
AcDbLine
10
0
20
-4
30
0
11
0
21
4
31
0
39
0
210
0
220
0
230
1
0
LINE
5
84
100
AcDbEntity
8
1
62
256
6
ByLayer
370
13
48
1
60
0
100
AcDbLine
10
41.891196
20
0.813025
30
0
11
42.989443
21
0.117809
31
0
39
0
210
0
220
0
230
1
0
LINE
5
85
100
AcDbEntity
8
1
62
256
6
ByLayer
370
13
48
1
60
0
100
AcDbLine
10
1.330738
20
3.289082
30
0
11
1.330738
21
-3.289082
31
0
39
0
210
0
220
0
230
1
0
LINE
5
86
100
AcDbEntity
8
1
62
256
6
ByLayer
370
13
48
1
60
0
100
AcDbLine
10
0.665119
20
3.644541
30
0
11
0.665119
21
-3.644541
31
0
39
0
210
0
220
0
230
1
0
LINE
5
87
100
AcDbEntity
8
1
62
256
6
ByLayer
370
13
48
1
60
0
100
AcDbLine
10
41.757707
20
0.715714
30
0
11
42.964261
21
-0.048064
31
0
39
0
210
0
220
0
230
1
0
LINE
5
88
100
AcDbEntity
8
80
62
256
6
ByLayer
370
18
48
1
60
0
100
AcDbLine
10
0
20
0
30
0
11
-5
21
0
31
0
39
0
210
0
220
0
230
1
0
LINE
5
89
100
AcDbEntity
8
4
62
256
6
ByLayer
370
18
48
0.05
60
0
100
AcDbLine
10
43
20
0
30
0
11
0
21
0
31
0
39
0
210
0
220
0
230
1
0
LINE
5
8B
100
AcDbEntity
8
SK4
62
256
6
ByLayer
370
18
48
0.05
60
0
100
AcDbLine
10
48
20
0
30
0
11
-41
21
0
31
0
39
0
210
0
220
0
230
1
0
LINE
5
8D
100
AcDbEntity
8
SK1
62
256
6
ByLayer
370
18
48
1
60
0
100
AcDbLine
10
-34.76
20
-4
30
0
11
0
21
-4
31
0
39
0
210
0
220
0
230
1
0
LINE
5
8E
100
AcDbEntity
8
SK1
62
256
6
ByLayer
370
18
48
1
60
0
100
AcDbLine
10
0
20
4
30
0
11
-34.76
21
4
31
0
39
0
210
0
220
0
230
1
0
LINE
5
8F
100
AcDbEntity
8
SK1
62
256
6
ByLayer
370
18
48
1
60
0
100
AcDbLine
10
-36
20
-2.76
30
0
11
-34.76
21
-4
31
0
39
0
210
0
220
0
230
1
0
LINE
5
90
100
AcDbEntity
8
SK1
62
256
6
ByLayer
370
18
48
1
60
0
100
AcDbLine
10
-34.76
20
4
30
0
11
-36
21
2.76
31
0
39
0
210
0
220
0
230
1
0
LINE
5
91
100
AcDbEntity
8
1
62
256
6
ByLayer
370
18
48
1
60
0
100
AcDbLine
10
1.330738
20
-3.289082
30
0
11
9.523523
21
-3.294202
31
0
39
0
210
0
220
0
230
1
0
LINE
5
92
100
AcDbEntity
8
1
62
256
6
ByLayer
370
18
48
1
60
0
100
AcDbLine
10
18.641765
20
-3.299901
30
0
11
19.717773
21
-3.300573
31
0
39
0
210
0
220
0
230
1
0
LINE
5
93
100
AcDbEntity
8
1
62
256
6
ByLayer
370
18
48
1
60
0
100
AcDbLine
10
40.390713
20
-3.313494
30
0
11
41.46863
21
-3.314168
31
0
39
0
210
0
220
0
230
1
0
LINE
5
94
100
AcDbEntity
8
1
62
256
6
ByLayer
370
18
48
1
60
0
100
AcDbLine
10
41.468547
20
3.314168
30
0
11
40.390713
21
3.313494
31
0
39
0
210
0
220
0
230
1
0
LINE
5
95
100
AcDbEntity
8
1
62
256
6
ByLayer
370
18
48
1
60
0
100
AcDbLine
10
19.717302
20
3.300573
30
0
11
18.641765
21
3.299901
31
0
39
0
210
0
220
0
230
1
0
LINE
5
96
100
AcDbEntity
8
1
62
256
6
ByLayer
370
18
48
1
60
0
100
AcDbLine
10
9.523523
20
3.294202
30
0
11
1.330738
21
3.289082
31
0
39
0
210
0
220
0
230
1
0
LINE
5
97
100
AcDbEntity
8
81
62
256
6
ByLayer
370
18
48
1
60
0
100
AcDbLine
10
43
20
0
30
0
11
48
21
0
31
0
39
0
210
0
220
0
230
1
0
LINE
5
98
100
AcDbEntity
8
SK2
62
256
6
ByLayer
370
13
48
1
60
0
100
AcDbLine
10
-44.625163
20
-4
30
0
11
-44.625163
21
33.117107
31
0
39
0
210
0
220
0
230
1
0
LINE
5
9A
100
AcDbEntity
8
SK2
62
256
6
ByLayer
370
13
48
1
60
0
100
AcDbLine
10
-37.5875
20
4
30
0
11
-46.625163
21
4
31
0
39
0
210
0
220
0
230
1
0
LINE
5
9B
100
AcDbEntity
8
SK2
62
256
6
ByLayer
370
13
48
1
60
0
100
AcDbLine
10
-37.5875
20
-4
30
0
11
-46.625163
21
-4
31
0
39
0
210
0
220
0
230
1
0
LINE
5
9C
100
AcDbEntity
8
1
62
256
6
ByLayer
370
18
48
1
60
1
100
AcDbLine
10
-44.625163
20
4
30
0
11
-44.164379
21
0.500002
31
0
39
0
210
0
220
0
230
1
0
LINE
5
9D
100
AcDbEntity
8
1
62
256
6
ByLayer
370
18
48
1
60
1
100
AcDbLine
10
-44.164379
20
0.500002
30
0
11
-45.085946
21
0.499998
31
0
39
0
210
0
220
0
230
1
0
LINE
5
9E
100
AcDbEntity
8
1
62
256
6
ByLayer
370
18
48
1
60
1
100
AcDbLine
10
-45.085946
20
0.499998
30
0
11
-44.625163
21
4
31
0
39
0
210
0
220
0
230
1
0
LINE
5
9F
100
AcDbEntity
8
1
62
256
6
ByLayer
370
18
48
1
60
1
100
AcDbLine
10
-44.625163
20
-4
30
0
11
-45.085946
21
-0.500002
31
0
39
0
210
0
220
0
230
1
0
LINE
5
A0
100
AcDbEntity
8
1
62
256
6
ByLayer
370
18
48
1
60
1
100
AcDbLine
10
-45.085946
20
-0.500002
30
0
11
-44.164379
21
-0.499998
31
0
39
0
210
0
220
0
230
1
0
LINE
5
A1
100
AcDbEntity
8
1
62
256
6
ByLayer
370
18
48
1
60
1
100
AcDbLine
10
-44.164379
20
-0.499998
30
0
11
-44.625163
21
-4
31
0
39
0
210
0
220
0
230
1
0
LINE
5
A2
100
AcDbEntity
8
2
62
256
6
ByLayer
370
13
48
1
60
0
100
AcDbLine
10
55.083343
20
31.024693
30
0
11
55.083343
21
-12.0645
31
0
39
0
210
0
220
0
230
1
0
LINE
5
A4
100
AcDbEntity
8
2
62
256
6
ByLayer
370
13
48
1
60
0
100
AcDbLine
10
43.6114
20
3.3145
30
0
11
57.083343
21
3.3145
31
0
39
0
210
0
220
0
230
1
0
LINE
5
A5
100
AcDbEntity
8
2
62
256
6
ByLayer
370
13
48
1
60
0
100
AcDbLine
10
43.6114
20
-3.3145
30
0
11
57.083343
21
-3.3145
31
0
39
0
210
0
220
0
230
1
0
LINE
5
A6
100
AcDbEntity
8
1
62
256
6
ByLayer
370
18
48
1
60
1
100
AcDbLine
10
55.083343
20
3.3145
30
0
11
54.622559
21
6.814498
31
0
39
0
210
0
220
0
230
1
0
LINE
5
A7
100
AcDbEntity
8
1
62
256
6
ByLayer
370
18
48
1
60
1
100
AcDbLine
10
54.622559
20
6.814498
30
0
11
55.544126
21
6.814502
31
0
39
0
210
0
220
0
230
1
0
LINE
5
A8
100
AcDbEntity
8
1
62
256
6
ByLayer
370
18
48
1
60
1
100
AcDbLine
10
55.544126
20
6.814502
30
0
11
55.083343
21
3.3145
31
0
39
0
210
0
220
0
230
1
0
LINE
5
A9
100
AcDbEntity
8
1
62
256
6
ByLayer
370
18
48
1
60
1
100
AcDbLine
10
55.083343
20
-3.3145
30
0
11
55.544126
21
-6.814498
31
0
39
0
210
0
220
0
230
1
0
LINE
5
AA
100
AcDbEntity
8
1
62
256
6
ByLayer
370
18
48
1
60
1
100
AcDbLine
10
55.544126
20
-6.814498
30
0
11
54.622559
21
-6.814502
31
0
39
0
210
0
220
0
230
1
0
LINE
5
AB
100
AcDbEntity
8
1
62
256
6
ByLayer
370
18
48
1
60
1
100
AcDbLine
10
54.622559
20
-6.814502
30
0
11
55.083343
21
-3.3145
31
0
39
0
210
0
220
0
230
1
0
LINE
5
F5
100
AcDbEntity
8
1
62
256
6
ByLayer
370
18
48
1
60
1
100
AcDbLine
10
-44.625163
20
4
30
0
11
-44.164379
21
0.500002
31
0
39
0
210
0
220
0
230
1
0
LINE
5
F6
100
AcDbEntity
8
1
62
256
6
ByLayer
370
18
48
1
60
1
100
AcDbLine
10
-44.164379
20
0.500002
30
0
11
-45.085946
21
0.499998
31
0
39
0
210
0
220
0
230
1
0
LINE
5
F7
100
AcDbEntity
8
1
62
256
6
ByLayer
370
18
48
1
60
1
100
AcDbLine
10
-45.085946
20
0.499998
30
0
11
-44.625163
21
4
31
0
39
0
210
0
220
0
230
1
0
LINE
5
F9
100
AcDbEntity
8
1
62
256
6
ByLayer
370
18
48
1
60
1
100
AcDbLine
10
-44.625163
20
-4
30
0
11
-45.085946
21
-0.500002
31
0
39
0
210
0
220
0
230
1
0
LINE
5
FA
100
AcDbEntity
8
1
62
256
6
ByLayer
370
18
48
1
60
1
100
AcDbLine
10
-45.085946
20
-0.500002
30
0
11
-44.164379
21
-0.499998
31
0
39
0
210
0
220
0
230
1
0
LINE
5
FB
100
AcDbEntity
8
1
62
256
6
ByLayer
370
18
48
1
60
1
100
AcDbLine
10
-44.164379
20
-0.499998
30
0
11
-44.625163
21
-4
31
0
39
0
210
0
220
0
230
1
0
LINE
5
FF
100
AcDbEntity
8
1
62
256
6
ByLayer
370
18
48
1
60
1
100
AcDbLine
10
55.083343
20
3.3145
30
0
11
54.622559
21
6.814498
31
0
39
0
210
0
220
0
230
1
0
LINE
5
100
100
AcDbEntity
8
1
62
256
6
ByLayer
370
18
48
1
60
1
100
AcDbLine
10
54.622559
20
6.814498
30
0
11
55.544126
21
6.814502
31
0
39
0
210
0
220
0
230
1
0
LINE
5
101
100
AcDbEntity
8
1
62
256
6
ByLayer
370
18
48
1
60
1
100
AcDbLine
10
55.544126
20
6.814502
30
0
11
55.083343
21
3.3145
31
0
39
0
210
0
220
0
230
1
0
LINE
5
103
100
AcDbEntity
8
1
62
256
6
ByLayer
370
18
48
1
60
1
100
AcDbLine
10
55.083343
20
-3.3145
30
0
11
55.544126
21
-6.814498
31
0
39
0
210
0
220
0
230
1
0
LINE
5
104
100
AcDbEntity
8
1
62
256
6
ByLayer
370
18
48
1
60
1
100
AcDbLine
10
55.544126
20
-6.814498
30
0
11
54.622559
21
-6.814502
31
0
39
0
210
0
220
0
230
1
0
LINE
5
105
100
AcDbEntity
8
1
62
256
6
ByLayer
370
18
48
1
60
1
100
AcDbLine
10
54.622559
20
-6.814502
30
0
11
55.083343
21
-3.3145
31
0
39
0
210
0
220
0
230
1
0
MTEXT
5
EF
100
AcDbEntity
8
SK6
62
256
6
ByLayer
370
13
48
1
60
0
100
AcDbMText
10
-25.645193
20
35.854828
30
0
210
0
220
0
230
1
1
\W0.7670;462.1-0663-020A1-XM X2BM
40
3.5
41
0
44
1.084337
50
0
71
7
72
5
7
iso_b_vert
0
MTEXT
5
F3
100
AcDbEntity
8
SK2
62
256
6
ByLayer
370
18
48
1
60
0
100
AcDbMText
10
-46.189796
20
17.409024
30
0
210
0
220
0
230
1
1
%%c
40
3.5
41
0
44
1.084337
50
90
71
7
72
5
7
iso_b_vert
0
MTEXT
5
F4
100
AcDbEntity
8
SK2
62
256
6
ByLayer
370
18
48
1
60
0
100
AcDbMText
10
-46.189796
20
22.63168
30
0
210
0
220
0
230
1
1
\W0.7317;8,000
40
3.5
41
0
44
1.084337
50
90
71
7
72
5
7
iso_b_vert
0
MTEXT
5
FD
100
AcDbEntity
8
2
62
256
6
ByLayer
370
18
48
1
60
0
100
AcDbMText
10
53.518709
20
15.31661
30
0
210
0
220
0
230
1
1
%%c
40
3.5
41
0
44
1.084337
50
90
71
7
72
5
7
iso_b_vert
0
MTEXT
5
FE
100
AcDbEntity
8
2
62
256
6
ByLayer
370
18
48
1
60
0
100
AcDbMText
10
53.518709
20
20.539266
30
0
210
0
220
0
230
1
1
\W0.7402;6,629
40
3.5
41
0
44
1.084337
50
90
71
7
72
5
7
iso_b_vert
0
HATCH
5
F8
100
AcDbEntity
8
SK2
62
256
6
ByLayer
370
13
48
1
60
0
100
AcDbHatch
10
0
20
0
30
0
210
0
220
0
230
1
2
ANSI31
70
0
71
0
91
1
92
5
93
3
72
1
10
-44.6251625675374
20
4
11
-44.1643788259847
21
0.500001692553184
72
1
10
-44.1643788259847
20
0.500001692553184
11
-45.0859463090902
21
0.499998307446816
72
1
10
-45.0859463090902
20
0.499998307446816
11
-44.6251625675374
21
4
97
0
75
0
76
1
52
0
41
0.0062
77
0
78
1
53
45
43
0
44
0
45
-0.0139193969876572
46
0.0139193969876572
79
0
47
0
98
1
10
0
20
0
0
HATCH
5
FC
100
AcDbEntity
8
SK2
62
256
6
ByLayer
370
13
48
1
60
0
100
AcDbHatch
10
0
20
0
30
0
210
0
220
0
230
1
2
ANSI31
70
0
71
0
91
1
92
5
93
3
72
1
10
-44.6251625675374
20
-4
11
-45.0859463090902
21
-0.500001692553184
72
1
10
-45.0859463090902
20
-0.500001692553184
11
-44.1643788259847
21
-0.499998307446816
72
1
10
-44.1643788259847
20
-0.499998307446816
11
-44.6251625675374
21
-4
97
0
75
0
76
1
52
0
41
0.0062
77
0
78
1
53
45
43
0
44
0
45
-0.0139193969876572
46
0.0139193969876572
79
0
47
0
98
1
10
0
20
0
0
HATCH
5
102
100
AcDbEntity
8
2
62
256
6
ByLayer
370
13
48
1
60
0
100
AcDbHatch
10
0
20
0
30
0
210
0
220
0
230
1
2
ANSI31
70
0
71
0
91
1
92
5
93
3
72
1
10
55.083342615295
20
3.31450000000001
11
54.6225588737423
21
6.81449830744683
72
1
10
54.6225588737423
20
6.81449830744683
11
55.5441263568478
21
6.81450169255319
72
1
10
55.5441263568478
20
6.81450169255319
11
55.083342615295
21
3.31450000000001
97
0
75
0
76
1
52
0
41
0.0062
77
0
78
1
53
45
43
0
44
0
45
-0.0139193969876572
46
0.0139193969876572
79
0
47
0
98
1
10
0
20
0
0
HATCH
5
106
100
AcDbEntity
8
2
62
256
6
ByLayer
370
13
48
1
60
0
100
AcDbHatch
10
0
20
0
30
0
210
0
220
0
230
1
2
ANSI31
70
0
71
0
91
1
92
5
93
3
72
1
10
55.083342615295
20
-3.31449999999998
11
55.5441263568478
21
-6.8144983074468
72
1
10
55.5441263568478
20
-6.8144983074468
11
54.6225588737423
21
-6.81450169255317
72
1
10
54.6225588737423
20
-6.81450169255317
11
55.083342615295
21
-3.31449999999998
97
0
75
0
76
1
52
0
41
0.0062
77
0
78
1
53
45
43
0
44
0
45
-0.0139193969876572
46
0.0139193969876572
79
0
47
0
98
1
10
0
20
0
0
DIMENSION
5
108
100
AcDbEntity
8
SK2
62
256
6
ByLayer
370
13
48
1
60
0
100
AcDbDimension
2
_U0
10
42.0239
20
-13.527898
30
0
11
21.01195
21
-13.527898
31
0
70
32
71
1
72
1
41
1
210
0
220
0
230
1
3
Standard
100
AcDbAlignedDimension
13
0
23
0
33
0
14
42.0239
24
-3.3145
34
0
50
0
100
AcDbRotatedDimension
1001
ACAD
1000
DSTYLE
1002
{
1070
   371
1070
    13
1070
   372
1070
    13
1070
   170
1070
     0
1070
   144
1040
1.0
1070
   277
1070
     2
1070
   278
1070
    44
1070
   146
1040
1.0
1070
   345
1005
16
1070
   347
1005
16
1070
   346
1005
16
1070
   344
1005
0
1070
   343
1005
0
1070
   172
1070
     1
1070
    76
1070
     0
1070
    75
1070
     0
1070
   282
1070
     0
1070
   281
1070
     0
1070
    71
1070
     0
1070
    74
1070
     0
1070
   279
1070
     0
1070
   173
1070
     1
1070
   340
1005
F0
1070
   271
1070
     2
1070
   272
1070
     2
1070
    77
1070
     1
1070
    73
1070
     1
1070
   171
1070
     3
1070
   274
1070
     4
1070
   177
1070
    35
1070
   176
1070
    35
1070
   178
1070
    35
1070
    48
1040
-0.1
1070
    41
1040
3.5
1070
   147
1040
1.75
1070
    42
1040
1.5875
1070
    44
1040
2.0
1070
   140
1040
3.5
1002
}
1001
ACAD_DSTYLE_DIM_LINETYPE
1070
   380
1005
16
1001
ACAD_DSTYLE_DIM_EXT1_LINETYPE
1070
   381
1005
16
1001
ACAD_DSTYLE_DIM_EXT2_LINETYPE
1070
   382
1005
16
0
DIMENSION
5
121
100
AcDbEntity
8
SK2
62
256
6
ByLayer
370
13
48
1
60
0
100
AcDbDimension
2
_U1
10
43
20
-32.692985
30
0
11
3.5
21
-32.692985
31
0
70
32
71
1
72
1
41
1
210
0
220
0
230
1
3
Standard
100
AcDbAlignedDimension
13
-36
23
-4
33
0
14
43
24
0
34
0
50
0
100
AcDbRotatedDimension
1001
ACAD
1000
DSTYLE
1002
{
1070
   371
1070
    13
1070
   372
1070
    13
1070
   170
1070
     0
1070
   144
1040
1.0
1070
   277
1070
     2
1070
   278
1070
    44
1070
   146
1040
1.0
1070
   345
1005
16
1070
   347
1005
16
1070
   346
1005
16
1070
   344
1005
0
1070
   343
1005
0
1070
   172
1070
     1
1070
    76
1070
     0
1070
    75
1070
     0
1070
   282
1070
     0
1070
   281
1070
     0
1070
    71
1070
     0
1070
    74
1070
     0
1070
   279
1070
     0
1070
   173
1070
     1
1070
   340
1005
F0
1070
   271
1070
     2
1070
   272
1070
     2
1070
    77
1070
     1
1070
    73
1070
     1
1070
   171
1070
     3
1070
   274
1070
     4
1070
   177
1070
    35
1070
   176
1070
    35
1070
   178
1070
    35
1070
    48
1040
-0.1
1070
    41
1040
3.5
1070
   147
1040
1.75
1070
    42
1040
1.5875
1070
    44
1040
2.0
1070
   140
1040
3.5
1002
}
1001
ACAD_DSTYLE_DIM_LINETYPE
1070
   380
1005
16
1001
ACAD_DSTYLE_DIM_EXT1_LINETYPE
1070
   381
1005
16
1001
ACAD_DSTYLE_DIM_EXT2_LINETYPE
1070
   382
1005
16
0
DIMENSION
5
139
100
AcDbEntity
8
SK2
62
256
6
ByLayer
370
13
48
1
60
0
100
AcDbDimension
2
_U2
10
43
20
14.923619
30
0
11
32.565
21
14.923619
31
0
70
32
71
1
72
1
41
1
210
0
220
0
230
1
3
Standard
100
AcDbAlignedDimension
13
22.13
23
3.3145
33
0
14
43
24
0
34
0
50
0
100
AcDbRotatedDimension
1001
ACAD
1000
DSTYLE
1002
{
1070
   371
1070
    13
1070
   372
1070
    13
1070
   170
1070
     0
1070
   144
1040
1.0
1070
   277
1070
     2
1070
   278
1070
    44
1070
   146
1040
1.0
1070
   345
1005
16
1070
   347
1005
16
1070
   346
1005
16
1070
   344
1005
0
1070
   343
1005
0
1070
   172
1070
     1
1070
    76
1070
     0
1070
    75
1070
     0
1070
   282
1070
     0
1070
   281
1070
     0
1070
    71
1070
     0
1070
    74
1070
     0
1070
   279
1070
     0
1070
   173
1070
     1
1070
   340
1005
F0
1070
   271
1070
     2
1070
   272
1070
     2
1070
    77
1070
     1
1070
    73
1070
     1
1070
   171
1070
     3
1070
   274
1070
     4
1070
   177
1070
    35
1070
   176
1070
    35
1070
   178
1070
    35
1070
    48
1040
-0.1
1070
    41
1040
3.5
1070
   147
1040
1.75
1070
    42
1040
1.5875
1070
    44
1040
2.0
1070
   140
1040
3.5
1002
}
1001
ACAD_DSTYLE_DIM_LINETYPE
1070
   380
1005
16
1001
ACAD_DSTYLE_DIM_EXT1_LINETYPE
1070
   381
1005
16
1001
ACAD_DSTYLE_DIM_EXT2_LINETYPE
1070
   382
1005
16
0
DIMENSION
5
151
100
AcDbEntity
8
SK2
62
256
6
ByLayer
370
13
48
1
60
0
100
AcDbDimension
2
_U3
10
42.0239
20
-16.117003
30
0
11
60.583333
21
-16.117003
31
0
70
32
71
1
72
1
41
1
210
0
220
0
230
1
3
Standard
100
AcDbAlignedDimension
13
43
23
0
33
0
14
42.0239
24
-3.3145
34
0
50
0
100
AcDbRotatedDimension
1001
ACAD
1000
DSTYLE
1002
{
1070
   371
1070
    13
1070
   372
1070
    13
1070
   170
1070
     0
1070
   144
1040
1.0
1070
   277
1070
     2
1070
   278
1070
    44
1070
   146
1040
1.0
1070
   345
1005
16
1070
   347
1005
16
1070
   346
1005
16
1070
   344
1005
0
1070
   343
1005
0
1070
   172
1070
     1
1070
    76
1070
     0
1070
    75
1070
     0
1070
   282
1070
     0
1070
   281
1070
     0
1070
    71
1070
     0
1070
    74
1070
     0
1070
   279
1070
     0
1070
   173
1070
     1
1070
   340
1005
F0
1070
   271
1070
     2
1070
   272
1070
     2
1070
    77
1070
     1
1070
    73
1070
     1
1070
   171
1070
     3
1070
   274
1070
     4
1070
   177
1070
    35
1070
   176
1070
    35
1070
   178
1070
    35
1070
    48
1040
-0.1
1070
    41
1040
3.5
1070
   147
1040
1.75
1070
    42
1040
1.5875
1070
    44
1040
2.0
1070
   140
1040
3.5
1002
}
1001
ACAD_DSTYLE_DIM_LINETYPE
1070
   380
1005
16
1001
ACAD_DSTYLE_DIM_EXT1_LINETYPE
1070
   381
1005
16
1001
ACAD_DSTYLE_DIM_EXT2_LINETYPE
1070
   382
1005
16
0
DIMENSION
5
16B
100
AcDbEntity
8
SK2
62
256
6
ByLayer
370
13
48
1
60
0
100
AcDbDimension
2
_U4
10
42.0239
20
-22.343428
30
0
11
3.01195
21
-22.343428
31
0
70
32
71
1
72
1
41
1
210
0
220
0
230
1
3
Standard
100
AcDbAlignedDimension
13
-36
23
-4
33
0
14
42.0239
24
-3.3145
34
0
50
0
100
AcDbRotatedDimension
1001
ACAD
1000
DSTYLE
1002
{
1070
   371
1070
    13
1070
   372
1070
    13
1070
   170
1070
     0
1070
   144
1040
1.0
1070
   277
1070
     2
1070
   278
1070
    44
1070
   146
1040
1.0
1070
   345
1005
16
1070
   347
1005
16
1070
   346
1005
16
1070
   344
1005
0
1070
   343
1005
0
1070
   172
1070
     1
1070
    76
1070
     0
1070
    75
1070
     0
1070
   282
1070
     0
1070
   281
1070
     0
1070
    71
1070
     0
1070
    74
1070
     0
1070
   279
1070
     0
1070
   173
1070
     1
1070
   340
1005
F0
1070
   271
1070
     2
1070
   272
1070
     2
1070
    77
1070
     1
1070
    73
1070
     1
1070
   171
1070
     3
1070
   274
1070
     4
1070
   177
1070
    35
1070
   176
1070
    35
1070
   178
1070
    35
1070
    48
1040
-0.1
1070
    41
1040
3.5
1070
   147
1040
1.75
1070
    42
1040
1.5875
1070
    44
1040
2.0
1070
   140
1040
3.5
1002
}
1001
ACAD_DSTYLE_DIM_LINETYPE
1070
   380
1005
16
1001
ACAD_DSTYLE_DIM_EXT1_LINETYPE
1070
   381
1005
16
1001
ACAD_DSTYLE_DIM_EXT2_LINETYPE
1070
   382
1005
16
0
ENDSEC
0
SECTION
2
OBJECTS
0
DICTIONARY
5
1f3
330
0
100
AcDbDictionary
280
0
281
1
3
ACAD_GROUP
350
1f4
3
ACAD_MLINESTYLE
350
1f5
0
DICTIONARY
5
1f4
330
0
100
AcDbDictionary
280
0
281
1
0
DICTIONARY
5
1f5
330
0
100
AcDbDictionary
280
0
281
1
3
Standard
350
18
0
MLINESTYLE
5
18
330
1f5
100
AcDbMlineStyle
2
Standard
70
0
3

62
256
51
90
52
90
71
2
49
-0.5
62
256
6
ByLayer
49
0.5
62
256
6
ByLayer
0
RASTERVARIABLES
5
1e1
330

100
AcDbRasterVariables
90
0
70
1
71
1
72
1
0
ENDSEC
0
EOF
