0
SECTION
2
HEADER
9
$ACADVER
1
AC1015
9
$DWGCODEPAGE
3
ANSI_1252
9
$HANDSEED
5
2a5
9
$ANGBASE
50
0
9
$ANGDIR
70
0
9
$ATTMODE
70
1
9
$AUNITS
70
0
9
$AUPREC
70
0
9
$CECOLOR
62
256
9
$CELTSCALE
40
1
9
$CELTYPE
6
ByLayer
9
$CELWEIGHT
370
18
9
$CLAYER
8
0
9
$CMLJUST
70
0
9
$CMLSCALE
40
1
9
$CMLSTYLE
2
Standard
9
$DIMSTYLE
2
Standard
9
$TEXTSIZE
40
0.2
9
$TEXTSTYLE
7
Standard
9
$LUNITS
70
2
9
$LUPREC
70
4
9
$EXTNAMES
290
1
9
$INSUNITS
70
4
9
$LTSCALE
40
1
9
$LWDISPLAY
290
1
9
$PDMODE
70
0
9
$PDSIZE
40
0
9
$PLINEGEN
70
0
0
ENDSEC
0
SECTION
2
CLASSES
0
CLASS
1
RASTERVARIABLES
2
AcDbRasterVariables
3
ISM
90
0
280
0
281
0
0
ENDSEC
0
SECTION
2
TABLES
0
TABLE
2
VPORT
5
29b
100
AcDbSymbolTable
0
VPORT
5
1
100
AcDbSymbolTableRecord
100
AcDbViewportTableRecord
2
*Active
70
0
10
0
20
0
11
1
21
1
12
-1
22
1
13
0
23
0
14
0.5
24
0.5
15
10
25
10
16
0
26
0
36
1
17
0
27
0
37
0
0
ENDTAB
0
TABLE
2
LTYPE
5
29c
100
AcDbSymbolTable
0
LTYPE
5
14
100
AcDbSymbolTableRecord
100
AcDbLinetypeTableRecord
70
0
2
ByBlock
3

72
65
73
0
40
0
0
LTYPE
5
15
100
AcDbSymbolTableRecord
100
AcDbLinetypeTableRecord
70
0
2
ByLayer
3

72
65
73
0
40
0
0
LTYPE
5
16
100
AcDbSymbolTableRecord
100
AcDbLinetypeTableRecord
70
0
2
Continuous
3
Solid line
72
65
73
0
40
0
0
LTYPE
5
6E
100
AcDbSymbolTableRecord
100
AcDbLinetypeTableRecord
70
0
2
CENTER
3
____ _ ____ _ ____ _ ____
72
65
73
4
40
47.5
49
22
74
0
49
-8.5
74
0
49
8.5
74
0
49
-8.5
74
0
0
LTYPE
5
6F
100
AcDbSymbolTableRecord
100
AcDbLinetypeTableRecord
70
0
2
DASHED
3
__ __ __ __ __ __ __ __ __
72
65
73
2
40
25.72
49
12.86
74
0
49
-12.86
74
0
0
ENDTAB
0
TABLE
2
LAYER
5
29d
100
AcDbSymbolTable
0
LAYER
5
10
100
AcDbSymbolTableRecord
100
AcDbLayerTableRecord
2
0
70
0
62
7
6
Continuous
290
1
370
-3
390
0
0
LAYER
5
71
100
AcDbSymbolTableRecord
100
AcDbLayerTableRecord
2
81
70
0
62
-3
6
Continuous
290
1
370
-3
390
0
0
LAYER
5
73
100
AcDbSymbolTableRecord
100
AcDbLayerTableRecord
2
80
70
0
62
-6
6
Continuous
290
1
370
-3
390
0
0
LAYER
5
75
100
AcDbSymbolTableRecord
100
AcDbLayerTableRecord
2
1
70
0
62
4
6
Continuous
290
1
370
-3
390
0
0
LAYER
5
C9
100
AcDbSymbolTableRecord
100
AcDbLayerTableRecord
2
4
70
0
62
-2
6
CENTER
290
1
370
-3
390
0
0
LAYER
5
108
100
AcDbSymbolTableRecord
100
AcDbLayerTableRecord
2
Defpoints
70
0
62
7
6
Continuous
290
0
370
-3
390
0
0
LAYER
5
1ED
100
AcDbSymbolTableRecord
100
AcDbLayerTableRecord
2
2
70
0
62
7
6
Continuous
290
1
370
-3
390
0
0
LAYER
5
286
100
AcDbSymbolTableRecord
100
AcDbLayerTableRecord
2
SK3
70
0
62
1
6
DASHED
290
1
370
-3
390
0
0
LAYER
5
287
100
AcDbSymbolTableRecord
100
AcDbLayerTableRecord
2
SK1
70
0
62
4
6
Continuous
290
1
370
-3
390
0
0
LAYER
5
288
100
AcDbSymbolTableRecord
100
AcDbLayerTableRecord
2
SK4
70
0
62
2
6
CENTER
290
1
370
-3
390
0
0
LAYER
5
289
100
AcDbSymbolTableRecord
100
AcDbLayerTableRecord
2
SK6
70
0
62
5
6
Continuous
290
1
370
-3
390
0
0
LAYER
5
28a
100
AcDbSymbolTableRecord
100
AcDbLayerTableRecord
2
SK2
70
0
62
7
6
Continuous
290
1
370
-3
390
0
0
ENDTAB
0
TABLE
2
STYLE
5
29e
100
AcDbSymbolTable
0
STYLE
5
11
100
AcDbSymbolTableRecord
100
AcDbTextStyleTableRecord
2
Standard
3
txt
70
0
71
0
40
0
41
1
42
0
50
0
0
STYLE
5
101
100
AcDbSymbolTableRecord
100
AcDbTextStyleTableRecord
2
iso_b_vert
3
simplex.shx
70
0
71
0
40
0
41
1
42
0
50
0
0
STYLE
5
102
100
AcDbSymbolTableRecord
100
AcDbTextStyleTableRecord
2
DWGDirectTextStyle
3
simplex
70
0
71
0
40
0
41
1
42
0
50
0
0
ENDTAB
0
TABLE
2
DIMSTYLE
5
29f
100
AcDbSymbolTable
100
AcDbDimStyleTable
0
DIMSTYLE
105
27
100
AcDbSymbolTableRecord
100
AcDbDimStyleTableRecord
2
Standard
70
0
3
<>
41
0.18
42
0.0625
44
0.18
140
0.18
147
0.09
73
0
74
0
77
1
271
2
275
0
278
52
280
0
340
11
0
ENDTAB
0
TABLE
2
VIEW
5
2a0
100
AcDbSymbolTable
0
ENDTAB
0
TABLE
2
UCS
5
2a1
100
AcDbSymbolTable
0
ENDTAB
0
TABLE
2
APPID
5
2a2
100
AcDbSymbolTable
0
APPID
5
12
100
AcDbSymbolTableRecord
100
AcDbRegAppTableRecord
2
ACAD
70
0
0
APPID
5
104
100
AcDbSymbolTableRecord
100
AcDbRegAppTableRecord
2
ACAD_DSTYLE_DIMBREAK
70
0
0
APPID
5
245
100
AcDbSymbolTableRecord
100
AcDbRegAppTableRecord
2
ACAD_DSTYLE_DIM_LINETYPE
70
0
0
APPID
5
246
100
AcDbSymbolTableRecord
100
AcDbRegAppTableRecord
2
ACAD_DSTYLE_DIM_EXT1_LINETYPE
70
0
0
APPID
5
247
100
AcDbSymbolTableRecord
100
AcDbRegAppTableRecord
2
ACAD_DSTYLE_DIM_EXT2_LINETYPE
70
0
0
APPID
5
282
100
AcDbSymbolTableRecord
100
AcDbRegAppTableRecord
2
ACAD_MLEADERVER
70
0
0
ENDTAB
0
TABLE
2
BLOCK_RECORD
5
2a3
100
AcDbSymbolTable
0
BLOCK_RECORD
5
1F
100
AcDbSymbolTableRecord
100
AcDbBlockTableRecord
2
*Model_Space
340
0
70
0
0
BLOCK_RECORD
5
1B
100
AcDbSymbolTableRecord
100
AcDbBlockTableRecord
2
*Paper_Space
340
0
70
0
0
BLOCK_RECORD
5
23
100
AcDbSymbolTableRecord
100
AcDbBlockTableRecord
2
*Paper_Space0
340
0
70
0
0
BLOCK_RECORD
5
109
100
AcDbSymbolTableRecord
100
AcDbBlockTableRecord
2
*D1
340
0
70
0
0
BLOCK_RECORD
5
116
100
AcDbSymbolTableRecord
100
AcDbBlockTableRecord
2
_U0
340
0
70
0
0
BLOCK_RECORD
5
122
100
AcDbSymbolTableRecord
100
AcDbBlockTableRecord
2
*D3
340
0
70
0
0
BLOCK_RECORD
5
12F
100
AcDbSymbolTableRecord
100
AcDbBlockTableRecord
2
_U1
340
0
70
0
0
BLOCK_RECORD
5
13B
100
AcDbSymbolTableRecord
100
AcDbBlockTableRecord
2
*D5
340
0
70
0
0
BLOCK_RECORD
5
149
100
AcDbSymbolTableRecord
100
AcDbBlockTableRecord
2
_U2
340
0
70
0
0
BLOCK_RECORD
5
155
100
AcDbSymbolTableRecord
100
AcDbBlockTableRecord
2
*D7
340
0
70
0
0
BLOCK_RECORD
5
161
100
AcDbSymbolTableRecord
100
AcDbBlockTableRecord
2
_U3
340
0
70
0
0
BLOCK_RECORD
5
16B
100
AcDbSymbolTableRecord
100
AcDbBlockTableRecord
2
_Closed
340
0
70
0
0
BLOCK_RECORD
5
174
100
AcDbSymbolTableRecord
100
AcDbBlockTableRecord
2
*D10
340
0
70
0
0
BLOCK_RECORD
5
180
100
AcDbSymbolTableRecord
100
AcDbBlockTableRecord
2
_U4
340
0
70
0
0
BLOCK_RECORD
5
190
100
AcDbSymbolTableRecord
100
AcDbBlockTableRecord
2
*D12
340
0
70
0
0
BLOCK_RECORD
5
19C
100
AcDbSymbolTableRecord
100
AcDbBlockTableRecord
2
_U5
340
0
70
0
0
BLOCK_RECORD
5
1AC
100
AcDbSymbolTableRecord
100
AcDbBlockTableRecord
2
*D14
340
0
70
0
0
BLOCK_RECORD
5
1B8
100
AcDbSymbolTableRecord
100
AcDbBlockTableRecord
2
_U6
340
0
70
0
0
BLOCK_RECORD
5
1C8
100
AcDbSymbolTableRecord
100
AcDbBlockTableRecord
2
*D16
340
0
70
0
0
BLOCK_RECORD
5
1D5
100
AcDbSymbolTableRecord
100
AcDbBlockTableRecord
2
_U7
340
0
70
0
0
BLOCK_RECORD
5
1E1
100
AcDbSymbolTableRecord
100
AcDbBlockTableRecord
2
*D18
340
0
70
0
0
BLOCK_RECORD
5
1EE
100
AcDbSymbolTableRecord
100
AcDbBlockTableRecord
2
_U8
340
0
70
0
0
BLOCK_RECORD
5
1FA
100
AcDbSymbolTableRecord
100
AcDbBlockTableRecord
2
*D20
340
0
70
0
0
BLOCK_RECORD
5
206
100
AcDbSymbolTableRecord
100
AcDbBlockTableRecord
2
_U9
340
0
70
0
0
BLOCK_RECORD
5
212
100
AcDbSymbolTableRecord
100
AcDbBlockTableRecord
2
*D22
340
0
70
0
0
BLOCK_RECORD
5
21E
100
AcDbSymbolTableRecord
100
AcDbBlockTableRecord
2
_U10
340
0
70
0
0
ENDTAB
0
ENDSEC
0
SECTION
2
BLOCKS
0
BLOCK
5
20
100
AcDbEntity
8
0
100
AcDbBlockBegin
2
*Model_Space
70
0
10
0
20
0
30
0
3
*Model_Space
0
ENDBLK
5
21
100
AcDbEntity
8
0
100
AcDbBlockEnd
0
BLOCK
5
1C
100
AcDbEntity
8
0
100
AcDbBlockBegin
2
*Paper_Space
70
0
10
0
20
0
30
0
3
*Paper_Space
0
ENDBLK
5
1D
100
AcDbEntity
8
0
100
AcDbBlockEnd
0
BLOCK
5
24
100
AcDbEntity
8
0
100
AcDbBlockBegin
2
*Paper_Space0
70
0
10
0
20
0
30
0
3
*Paper_Space0
0
ENDBLK
5
25
100
AcDbEntity
8
0
100
AcDbBlockEnd
0
BLOCK
5
10A
100
AcDbEntity
8
0
100
AcDbBlockBegin
2
*D1
70
1
10
0
20
0
30
0
3
*D1
0
LINE
5
10C
100
AcDbEntity
8
0
62
256
6
ByLayer
370
-2
48
1
60
0
100
AcDbLine
10
1.3E-05
20
27.047179
30
0
11
1.3E-05
21
65.274955
31
0
39
0
210
0
220
0
230
1
0
LINE
5
10D
100
AcDbEntity
8
0
62
256
6
ByLayer
370
-2
48
1
60
0
100
AcDbLine
10
105
20
14.973398
30
0
11
105
21
65.274955
31
0
39
0
210
0
220
0
230
1
0
LINE
5
10E
100
AcDbEntity
8
0
62
256
6
ByLayer
370
-2
48
1
60
0
100
AcDbLine
10
3.175013
20
62.099955
30
0
11
101.825
21
62.099955
31
0
39
0
210
0
220
0
230
1
0
SOLID
5
10F
100
AcDbEntity
8
0
62
256
6
ByLayer
370
-1
48
1
60
0
100
AcDbTrace
10
3.175013
20
62.629122
30
0
11
3.175013
21
61.570789
31
0
12
1.3E-05
22
62.099955
32
0
13
1.3E-05
23
62.099955
33
0
39
0
210
0
220
0
230
1
0
SOLID
5
110
100
AcDbEntity
8
0
62
256
6
ByLayer
370
-1
48
1
60
0
100
AcDbTrace
10
101.825
20
61.570789
30
0
11
101.825
21
62.629122
31
0
12
105
22
62.099955
32
0
13
105
23
62.099955
33
0
39
0
210
0
220
0
230
1
0
MTEXT
5
111
100
AcDbEntity
8
0
62
256
6
ByLayer
370
18
48
1
60
0
100
AcDbMText
10
52.500007
20
71.219976
30
0
210
0
220
0
230
1
1
\A1;105
40
3.000007
41
0
44
1
50
0
71
5
72
5
7
iso_b_vert
0
POINT
5
112
100
AcDbEntity
8
Defpoints
62
0
6
ByLayer
370
-1
48
1
60
0
100
AcDbPoint
10
1.3E-05
20
25.459679
30
0
39
0
210
0
220
0
230
1
50
360
0
POINT
5
113
100
AcDbEntity
8
Defpoints
62
0
6
ByLayer
370
-1
48
1
60
0
100
AcDbPoint
10
105
20
13.385898
30
0
39
0
210
0
220
0
230
1
50
360
0
POINT
5
114
100
AcDbEntity
8
Defpoints
62
0
6
ByLayer
370
-1
48
1
60
0
100
AcDbPoint
10
105
20
62.099955
30
0
39
0
210
0
220
0
230
1
50
360
0
ENDBLK
5
10B
100
AcDbEntity
8
0
100
AcDbBlockEnd
0
BLOCK
5
11D
100
AcDbEntity
8
0
100
AcDbBlockBegin
2
_U0
70
0
10
0
20
0
30
0
3
_U0
0
MTEXT
5
117
100
AcDbEntity
8
SK2
62
256
6
ByLayer
370
18
48
1
60
0
100
AcDbMText
10
50.121889
20
62.985072
30
0
210
0
220
0
230
1
1
\W0.6217;105
40
3.000007
41
0
44
1.084337
50
0
71
7
72
5
7
iso_b_vert
0
LINE
5
118
100
AcDbEntity
8
SK2
62
256
6
ByLayer
370
13
48
1
60
0
100
AcDbLine
10
1.3E-05
20
27.047179
30
0
11
1.3E-05
21
65.274955
31
0
39
0
210
0
220
0
230
1
0
LINE
5
119
100
AcDbEntity
8
SK2
62
256
6
ByLayer
370
13
48
1
60
0
100
AcDbLine
10
105
20
14.973398
30
0
11
105
21
65.274955
31
0
39
0
210
0
220
0
230
1
0
LINE
5
11A
100
AcDbEntity
8
SK2
62
256
6
ByLayer
370
13
48
1
60
0
100
AcDbLine
10
1.3E-05
20
62.099955
30
0
11
105
21
62.099955
31
0
39
0
210
0
220
0
230
1
0
SOLID
5
11B
100
AcDbEntity
8
SK2
62
256
6
ByLayer
370
18
48
1
60
0
100
AcDbTrace
10
1.3E-05
20
62.099955
30
0
11
3.175012
21
62.602826
31
0
12
3.175015
22
61.597085
32
0
13
3.175015
23
61.597085
33
0
39
0
210
0
220
0
230
1
0
SOLID
5
11C
100
AcDbEntity
8
SK2
62
256
6
ByLayer
370
18
48
1
60
0
100
AcDbTrace
10
105
20
62.099955
30
0
11
101.825002
21
61.597085
31
0
12
101.824998
22
62.602826
32
0
13
101.824998
23
62.602826
33
0
39
0
210
0
220
0
230
1
0
ENDBLK
5
11E
100
AcDbEntity
8
0
100
AcDbBlockEnd
0
BLOCK
5
123
100
AcDbEntity
8
0
100
AcDbBlockBegin
2
*D3
70
1
10
0
20
0
30
0
3
*D3
0
LINE
5
125
100
AcDbEntity
8
0
62
256
6
ByLayer
370
-2
48
1
60
0
100
AcDbLine
10
86
20
17.6375
30
0
11
86
21
30.782406
31
0
39
0
210
0
220
0
230
1
0
LINE
5
126
100
AcDbEntity
8
0
62
256
6
ByLayer
370
-2
48
1
60
0
100
AcDbLine
10
105
20
14.973398
30
0
11
105
21
30.782406
31
0
39
0
210
0
220
0
230
1
0
LINE
5
127
100
AcDbEntity
8
0
62
256
6
ByLayer
370
-2
48
1
60
0
100
AcDbLine
10
82.825
20
27.607406
30
0
11
79.65
21
27.607406
31
0
39
0
210
0
220
0
230
1
0
LINE
5
128
100
AcDbEntity
8
0
62
256
6
ByLayer
370
-2
48
1
60
0
100
AcDbLine
10
108.175
20
27.607406
30
0
11
111.35
21
27.607406
31
0
39
0
210
0
220
0
230
1
0
SOLID
5
129
100
AcDbEntity
8
0
62
256
6
ByLayer
370
-1
48
1
60
0
100
AcDbTrace
10
82.825
20
27.078239
30
0
11
82.825
21
28.136572
31
0
12
86
22
27.607406
32
0
13
86
23
27.607406
33
0
39
0
210
0
220
0
230
1
0
SOLID
5
12A
100
AcDbEntity
8
0
62
256
6
ByLayer
370
-1
48
1
60
0
100
AcDbTrace
10
108.175
20
28.136572
30
0
11
108.175
21
27.078239
31
0
12
105
22
27.607406
32
0
13
105
23
27.607406
33
0
39
0
210
0
220
0
230
1
0
MTEXT
5
12B
100
AcDbEntity
8
0
62
256
6
ByLayer
370
18
48
1
60
0
100
AcDbMText
10
95.5
20
36.727426
30
0
210
0
220
0
230
1
1
\A1;19
40
3.000007
41
0
44
1
50
0
71
5
72
5
7
iso_b_vert
0
POINT
5
12C
100
AcDbEntity
8
Defpoints
62
0
6
ByLayer
370
-1
48
1
60
0
100
AcDbPoint
10
86
20
16.05
30
0
39
0
210
0
220
0
230
1
50
360
0
POINT
5
12D
100
AcDbEntity
8
Defpoints
62
0
6
ByLayer
370
-1
48
1
60
0
100
AcDbPoint
10
105
20
13.385898
30
0
39
0
210
0
220
0
230
1
50
360
0
POINT
5
12E
100
AcDbEntity
8
Defpoints
62
0
6
ByLayer
370
-1
48
1
60
0
100
AcDbPoint
10
105
20
27.607406
30
0
39
0
210
0
220
0
230
1
50
360
0
ENDBLK
5
124
100
AcDbEntity
8
0
100
AcDbBlockEnd
0
BLOCK
5
136
100
AcDbEntity
8
0
100
AcDbBlockBegin
2
_U1
70
0
10
0
20
0
30
0
3
_U1
0
MTEXT
5
130
100
AcDbEntity
8
SK2
62
256
6
ByLayer
370
18
48
1
60
0
100
AcDbMText
10
94.24257
20
28.492522
30
0
210
0
220
0
230
1
1
\W0.5469;19
40
3.000007
41
0
44
1.084337
50
0
71
7
72
5
7
iso_b_vert
0
LINE
5
131
100
AcDbEntity
8
SK2
62
256
6
ByLayer
370
13
48
1
60
0
100
AcDbLine
10
86
20
17.6375
30
0
11
86
21
30.782406
31
0
39
0
210
0
220
0
230
1
0
LINE
5
132
100
AcDbEntity
8
SK2
62
256
6
ByLayer
370
13
48
1
60
0
100
AcDbLine
10
105
20
14.973398
30
0
11
105
21
30.782406
31
0
39
0
210
0
220
0
230
1
0
LINE
5
133
100
AcDbEntity
8
SK2
62
256
6
ByLayer
370
13
48
1
60
0
100
AcDbLine
10
86
20
27.607406
30
0
11
105
21
27.607406
31
0
39
0
210
0
220
0
230
1
0
SOLID
5
134
100
AcDbEntity
8
SK2
62
256
6
ByLayer
370
18
48
1
60
0
100
AcDbTrace
10
86
20
27.607406
30
0
11
89.174998
21
28.110276
31
0
12
89.175002
22
27.104535
32
0
13
89.175002
23
27.104535
33
0
39
0
210
0
220
0
230
1
0
SOLID
5
135
100
AcDbEntity
8
SK2
62
256
6
ByLayer
370
18
48
1
60
0
100
AcDbTrace
10
105
20
27.607406
30
0
11
101.825002
21
27.104535
31
0
12
101.824998
22
28.110276
32
0
13
101.824998
23
28.110276
33
0
39
0
210
0
220
0
230
1
0
ENDBLK
5
137
100
AcDbEntity
8
0
100
AcDbBlockEnd
0
BLOCK
5
13C
100
AcDbEntity
8
0
100
AcDbBlockBegin
2
*D5
70
1
10
0
20
0
30
0
3
*D5
0
LINE
5
13E
100
AcDbEntity
8
0
62
256
6
ByLayer
370
-2
48
1
60
0
100
AcDbLine
10
106.5875
20
8
30
0
11
126.893121
21
8
31
0
39
0
210
0
220
0
230
1
0
LINE
5
13F
100
AcDbEntity
8
0
62
256
6
ByLayer
370
-2
48
1
60
0
100
AcDbLine
10
106.5875
20
-8
30
0
11
126.893121
21
-8
31
0
39
0
210
0
220
0
230
1
0
LINE
5
140
100
AcDbEntity
8
0
62
256
6
ByLayer
370
-2
48
1
60
0
100
AcDbLine
10
123.718121
20
8
30
0
11
123.718121
21
34.018615
31
0
39
0
210
0
220
0
230
1
0
LINE
5
141
100
AcDbEntity
8
0
62
256
6
ByLayer
370
-2
48
1
60
0
100
AcDbLine
10
123.718121
20
11.175
30
0
11
123.718121
21
14.35
31
0
39
0
210
0
220
0
230
1
0
LINE
5
142
100
AcDbEntity
8
0
62
256
6
ByLayer
370
-2
48
1
60
0
100
AcDbLine
10
123.718121
20
-11.175
30
0
11
123.718121
21
-14.35
31
0
39
0
210
0
220
0
230
1
0
SOLID
5
143
100
AcDbEntity
8
0
62
256
6
ByLayer
370
-1
48
1
60
0
100
AcDbTrace
10
123.188954
20
11.175
30
0
11
124.247288
21
11.175
31
0
12
123.718121
22
8
32
0
13
123.718121
23
8
33
0
39
0
210
0
220
0
230
1
0
SOLID
5
144
100
AcDbEntity
8
0
62
256
6
ByLayer
370
-1
48
1
60
0
100
AcDbTrace
10
124.247288
20
-11.175
30
0
11
123.188954
21
-11.175
31
0
12
123.718121
22
-8
32
0
13
123.718121
23
-8
33
0
39
0
210
0
220
0
230
1
0
MTEXT
5
145
100
AcDbEntity
8
0
62
256
6
ByLayer
370
18
48
1
60
0
100
AcDbMText
10
114.598101
20
24.184308
30
0
210
0
220
0
230
1
1
\A1;16
40
3.000007
41
0
44
1
50
90
71
5
72
5
7
iso_b_vert
0
POINT
5
146
100
AcDbEntity
8
Defpoints
62
0
6
ByLayer
370
-1
48
1
60
0
100
AcDbPoint
10
105
20
8
30
0
39
0
210
0
220
0
230
1
50
360
0
POINT
5
147
100
AcDbEntity
8
Defpoints
62
0
6
ByLayer
370
-1
48
1
60
0
100
AcDbPoint
10
105
20
-8
30
0
39
0
210
0
220
0
230
1
50
360
0
POINT
5
148
100
AcDbEntity
8
Defpoints
62
0
6
ByLayer
370
-1
48
1
60
0
100
AcDbPoint
10
123.718121
20
-8
30
0
39
0
210
0
220
0
230
1
50
360
0
ENDBLK
5
13D
100
AcDbEntity
8
0
100
AcDbBlockEnd
0
BLOCK
5
150
100
AcDbEntity
8
0
100
AcDbBlockBegin
2
_U2
70
0
10
0
20
0
30
0
3
_U2
0
MTEXT
5
14A
100
AcDbEntity
8
SK2
62
256
6
ByLayer
370
18
48
1
60
0
100
AcDbMText
10
123.127005
20
18.05892
30
0
210
0
220
0
230
1
1
\W0.7804;%%c1-%%c13
40
3.000007
41
0
44
1.084337
50
90
71
7
72
5
7
iso_b_vert
0
LINE
5
14B
100
AcDbEntity
8
SK2
62
256
6
ByLayer
370
13
48
1
60
0
100
AcDbLine
10
106.5875
20
8
30
0
11
126.893121
21
8
31
0
39
0
210
0
220
0
230
1
0
LINE
5
14C
100
AcDbEntity
8
SK2
62
256
6
ByLayer
370
13
48
1
60
0
100
AcDbLine
10
106.5875
20
-8
30
0
11
126.893121
21
-8
31
0
39
0
210
0
220
0
230
1
0
LINE
5
14D
100
AcDbEntity
8
SK2
62
256
6
ByLayer
370
13
48
1
60
0
100
AcDbLine
10
123.718121
20
-8
30
0
11
123.718121
21
30.314685
31
0
39
0
210
0
220
0
230
1
0
SOLID
5
14E
100
AcDbEntity
8
SK2
62
256
6
ByLayer
370
18
48
1
60
0
100
AcDbTrace
10
123.718121
20
8
30
0
11
124.220992
21
4.825002
31
0
12
123.21525
22
4.824998
32
0
13
123.21525
23
4.824998
33
0
39
0
210
0
220
0
230
1
0
SOLID
5
14F
100
AcDbEntity
8
SK2
62
256
6
ByLayer
370
18
48
1
60
0
100
AcDbTrace
10
123.718121
20
-8
30
0
11
123.21525
21
-4.825002
31
0
12
124.220992
22
-4.824998
32
0
13
124.220992
23
-4.824998
33
0
39
0
210
0
220
0
230
1
0
ENDBLK
5
151
100
AcDbEntity
8
0
100
AcDbBlockEnd
0
BLOCK
5
156
100
AcDbEntity
8
0
100
AcDbBlockBegin
2
*D7
70
1
10
0
20
0
30
0
3
*D7
0
LINE
5
158
100
AcDbEntity
8
0
62
256
6
ByLayer
370
-2
48
1
60
0
100
AcDbLine
10
104.5875
20
-16.85
30
0
11
137.334811
21
-16.85
31
0
39
0
210
0
220
0
230
1
0
LINE
5
159
100
AcDbEntity
8
0
62
256
6
ByLayer
370
-2
48
1
60
0
100
AcDbLine
10
104.5875
20
16.85
30
0
11
137.334811
21
16.85
31
0
39
0
210
0
220
0
230
1
0
LINE
5
15A
100
AcDbEntity
8
0
62
256
6
ByLayer
370
-2
48
1
60
0
100
AcDbLine
10
134.159811
20
-13.675
30
0
11
134.159811
21
13.675
31
0
39
0
210
0
220
0
230
1
0
SOLID
5
15B
100
AcDbEntity
8
0
62
256
6
ByLayer
370
-1
48
1
60
0
100
AcDbTrace
10
133.630644
20
-13.675
30
0
11
134.688977
21
-13.675
31
0
12
134.159811
22
-16.85
32
0
13
134.159811
23
-16.85
33
0
39
0
210
0
220
0
230
1
0
SOLID
5
15C
100
AcDbEntity
8
0
62
256
6
ByLayer
370
-1
48
1
60
0
100
AcDbTrace
10
134.688977
20
13.675
30
0
11
133.630644
21
13.675
31
0
12
134.159811
22
16.85
32
0
13
134.159811
23
16.85
33
0
39
0
210
0
220
0
230
1
0
MTEXT
5
15D
100
AcDbEntity
8
0
62
256
6
ByLayer
370
18
48
1
60
0
100
AcDbMText
10
125.03979
20
0
30
0
210
0
220
0
230
1
1
\A1;34
40
3.000007
41
0
44
1
50
90
71
5
72
5
7
iso_b_vert
0
POINT
5
15E
100
AcDbEntity
8
Defpoints
62
0
6
ByLayer
370
-1
48
1
60
0
100
AcDbPoint
10
103
20
-16.85
30
0
39
0
210
0
220
0
230
1
50
360
0
POINT
5
15F
100
AcDbEntity
8
Defpoints
62
0
6
ByLayer
370
-1
48
1
60
0
100
AcDbPoint
10
103
20
16.85
30
0
39
0
210
0
220
0
230
1
50
360
0
POINT
5
160
100
AcDbEntity
8
Defpoints
62
0
6
ByLayer
370
-1
48
1
60
0
100
AcDbPoint
10
134.159811
20
16.85
30
0
39
0
210
0
220
0
230
1
50
360
0
ENDBLK
5
157
100
AcDbEntity
8
0
100
AcDbBlockEnd
0
BLOCK
5
168
100
AcDbEntity
8
0
100
AcDbBlockBegin
2
_U3
70
0
10
0
20
0
30
0
3
_U3
0
MTEXT
5
162
100
AcDbEntity
8
SK2
62
256
6
ByLayer
370
18
48
1
60
0
100
AcDbMText
10
133.568695
20
-5.744496
30
0
210
0
220
0
230
1
1
\W0.8042;%%c 33.7
40
3.000007
41
0
44
1.084337
50
90
71
7
72
5
7
iso_b_vert
0
LINE
5
163
100
AcDbEntity
8
SK2
62
256
6
ByLayer
370
13
48
1
60
0
100
AcDbLine
10
104.5875
20
-16.85
30
0
11
137.334811
21
-16.85
31
0
39
0
210
0
220
0
230
1
0
LINE
5
164
100
AcDbEntity
8
SK2
62
256
6
ByLayer
370
13
48
1
60
0
100
AcDbLine
10
104.5875
20
16.85
30
0
11
137.334811
21
16.85
31
0
39
0
210
0
220
0
230
1
0
LINE
5
165
100
AcDbEntity
8
SK2
62
256
6
ByLayer
370
13
48
1
60
0
100
AcDbLine
10
134.159811
20
-16.85
30
0
11
134.159811
21
16.85
31
0
39
0
210
0
220
0
230
1
0
SOLID
5
166
100
AcDbEntity
8
SK2
62
256
6
ByLayer
370
18
48
1
60
0
100
AcDbTrace
10
134.159811
20
-16.85
30
0
11
133.65694
21
-13.675002
31
0
12
134.662681
22
-13.674998
32
0
13
134.662681
23
-13.674998
33
0
39
0
210
0
220
0
230
1
0
SOLID
5
167
100
AcDbEntity
8
SK2
62
256
6
ByLayer
370
18
48
1
60
0
100
AcDbTrace
10
134.159811
20
16.85
30
0
11
134.662681
21
13.675002
31
0
12
133.65694
22
13.674998
32
0
13
133.65694
23
13.674998
33
0
39
0
210
0
220
0
230
1
0
ENDBLK
5
169
100
AcDbEntity
8
0
100
AcDbBlockEnd
0
BLOCK
5
16C
100
AcDbEntity
8
0
100
AcDbBlockBegin
2
_Closed
70
0
10
0
20
0
30
0
3
_Closed
0
LINE
5
16E
100
AcDbEntity
8
0
62
256
6
ByLayer
370
-2
48
1
60
0
100
AcDbLine
10
-1
20
0.166667
30
0
11
0
21
0
31
0
39
0
210
0
220
0
230
1
0
LINE
5
16F
100
AcDbEntity
8
0
62
256
6
ByLayer
370
-2
48
1
60
0
100
AcDbLine
10
0
20
0
30
0
11
-1
21
-0.166667
31
0
39
0
210
0
220
0
230
1
0
LINE
5
170
100
AcDbEntity
8
0
62
256
6
ByLayer
370
-2
48
1
60
0
100
AcDbLine
10
-1
20
0.166667
30
0
11
-1
21
-0.166667
31
0
39
0
210
0
220
0
230
1
0
LINE
5
171
100
AcDbEntity
8
0
62
256
6
ByLayer
370
-2
48
1
60
0
100
AcDbLine
10
0
20
0
30
0
11
-1
21
0
31
0
39
0
210
0
220
0
230
1
0
ENDBLK
5
16D
100
AcDbEntity
8
0
100
AcDbBlockEnd
0
BLOCK
5
175
100
AcDbEntity
8
0
100
AcDbBlockBegin
2
*D10
70
1
10
0
20
0
30
0
3
*D10
0
LINE
5
177
100
AcDbEntity
8
0
62
256
6
ByLayer
370
-2
48
1
60
0
100
AcDbLine
10
-1.499984
20
23.091026
30
0
11
-12.508562
21
29.446831
31
0
39
0
210
0
220
0
230
1
0
LINE
5
178
100
AcDbEntity
8
0
62
256
6
ByLayer
370
-2
48
1
60
0
100
AcDbLine
10
-1.499984
20
-21.358978
30
0
11
-12.508562
21
-15.003173
31
0
39
0
210
0
220
0
230
1
0
LINE
5
179
100
AcDbEntity
8
0
62
256
6
ByLayer
370
-2
48
1
60
0
100
AcDbLine
10
-9.508568
20
24.71479
30
0
11
-9.508568
21
-13.735226
31
0
39
0
210
0
220
0
230
1
0
SOLID
5
17A
100
AcDbEntity
8
0
62
256
6
ByLayer
370
-1
48
1
60
0
100
AcDbTrace
10
-9.008569
20
24.71479
30
0
11
-10.008567
21
24.71479
31
0
12
-9.508568
22
27.714784
32
0
13
-9.508568
23
27.714784
33
0
39
0
210
0
220
0
230
1
0
SOLID
5
17B
100
AcDbEntity
8
0
62
256
6
ByLayer
370
-1
48
1
60
0
100
AcDbTrace
10
-10.008567
20
-13.735226
30
0
11
-9.008569
21
-13.735226
31
0
12
-9.508568
22
-16.73522
32
0
13
-9.508568
23
-16.73522
33
0
39
0
210
0
220
0
230
1
0
MTEXT
5
17C
100
AcDbEntity
8
0
62
256
6
ByLayer
370
18
48
1
60
0
100
AcDbMText
10
-15.508547
20
9.837331
30
0
210
0
220
0
230
1
1
\A1;44
40
2.999994
41
0
44
1
50
90
71
5
72
5
7
iso_b_vert
0
POINT
5
17D
100
AcDbEntity
8
Defpoints
62
0
6
ByLayer
370
-1
48
1
60
0
100
AcDbPoint
10
1.3E-05
20
22.225002
30
0
39
0
210
0
220
0
230
1
50
360
0
POINT
5
17E
100
AcDbEntity
8
Defpoints
62
0
6
ByLayer
370
-1
48
1
60
0
100
AcDbPoint
10
1.3E-05
20
-22.225002
30
0
39
0
210
0
220
0
230
1
50
360
0
POINT
5
17F
100
AcDbEntity
8
Defpoints
62
0
6
ByLayer
370
-1
48
1
60
0
100
AcDbPoint
10
-9.508568
20
-16.73522
30
0
39
0
210
0
220
0
230
1
50
360
0
ENDBLK
5
176
100
AcDbEntity
8
0
100
AcDbBlockEnd
0
BLOCK
5
18B
100
AcDbEntity
8
0
100
AcDbBlockBegin
2
_U4
70
0
10
0
20
0
30
0
3
_U4
0
MTEXT
5
181
100
AcDbEntity
8
SK2
62
256
6
ByLayer
370
18
48
1
60
0
100
AcDbMText
10
-10.099681
20
2.634188
30
0
210
0
220
0
230
1
1
\W0.8418;%%c 44.45
40
2.999994
41
0
44
1.084337
50
90
71
7
72
5
7
iso_b_vert
0
LINE
5
182
100
AcDbEntity
8
SK2
62
256
6
ByLayer
370
18
48
1
60
0
100
AcDbLine
10
-1.299022
20
22.975
30
0
11
-12.106639
21
29.214781
31
0
39
0
210
0
220
0
230
1
0
LINE
5
183
100
AcDbEntity
8
SK2
62
256
6
ByLayer
370
18
48
1
60
0
100
AcDbLine
10
-1.299022
20
-21.475003
30
0
11
-12.106639
21
-15.235223
31
0
39
0
210
0
220
0
230
1
0
LINE
5
184
100
AcDbEntity
8
SK2
62
256
6
ByLayer
370
18
48
1
60
0
100
AcDbLine
10
-9.508568
20
27.714784
30
0
11
-9.508568
21
-16.73522
31
0
39
0
210
0
220
0
230
1
0
LINE
5
185
100
AcDbEntity
8
SK2
62
256
6
ByLayer
370
18
48
1
60
0
100
AcDbLine
10
-9.508568
20
27.714784
30
0
11
-9.113611
21
24.714791
31
0
39
0
210
0
220
0
230
1
0
LINE
5
186
100
AcDbEntity
8
SK2
62
256
6
ByLayer
370
18
48
1
60
0
100
AcDbLine
10
-9.508568
20
27.714784
30
0
11
-9.903524
21
24.714788
31
0
39
0
210
0
220
0
230
1
0
LINE
5
187
100
AcDbEntity
8
SK2
62
256
6
ByLayer
370
18
48
1
60
0
100
AcDbLine
10
-9.113611
20
24.714791
30
0
11
-9.903524
21
24.714788
31
0
39
0
210
0
220
0
230
1
0
LINE
5
188
100
AcDbEntity
8
SK2
62
256
6
ByLayer
370
18
48
1
60
0
100
AcDbLine
10
-9.508568
20
-16.73522
30
0
11
-9.903524
21
-13.735228
31
0
39
0
210
0
220
0
230
1
0
LINE
5
189
100
AcDbEntity
8
SK2
62
256
6
ByLayer
370
18
48
1
60
0
100
AcDbLine
10
-9.508568
20
-16.73522
30
0
11
-9.113611
21
-13.735225
31
0
39
0
210
0
220
0
230
1
0
LINE
5
18A
100
AcDbEntity
8
SK2
62
256
6
ByLayer
370
18
48
1
60
0
100
AcDbLine
10
-9.903524
20
-13.735228
30
0
11
-9.113611
21
-13.735225
31
0
39
0
210
0
220
0
230
1
0
ENDBLK
5
18C
100
AcDbEntity
8
0
100
AcDbBlockEnd
0
BLOCK
5
191
100
AcDbEntity
8
0
100
AcDbBlockBegin
2
*D12
70
1
10
0
20
0
30
0
3
*D12
0
LINE
5
193
100
AcDbEntity
8
0
62
256
6
ByLayer
370
-2
48
1
60
0
100
AcDbLine
10
0.3
20
-31.75
30
0
11
-79.88724
21
-31.75
31
0
39
0
210
0
220
0
230
1
0
LINE
5
194
100
AcDbEntity
8
0
62
256
6
ByLayer
370
-2
48
1
60
0
100
AcDbLine
10
0.3
20
31.75
30
0
11
-79.88724
21
31.75
31
0
39
0
210
0
220
0
230
1
0
LINE
5
195
100
AcDbEntity
8
0
62
256
6
ByLayer
370
-2
48
1
60
0
100
AcDbLine
10
-76.88724
20
-28.75
30
0
11
-76.88724
21
28.75
31
0
39
0
210
0
220
0
230
1
0
SOLID
5
196
100
AcDbEntity
8
0
62
256
6
ByLayer
370
-1
48
1
60
0
100
AcDbTrace
10
-77.38724
20
-28.75
30
0
11
-76.38724
21
-28.75
31
0
12
-76.88724
22
-31.75
32
0
13
-76.88724
23
-31.75
33
0
39
0
210
0
220
0
230
1
0
SOLID
5
197
100
AcDbEntity
8
0
62
256
6
ByLayer
370
-1
48
1
60
0
100
AcDbTrace
10
-76.38724
20
28.75
30
0
11
-77.38724
21
28.75
31
0
12
-76.88724
22
31.75
32
0
13
-76.88724
23
31.75
33
0
39
0
210
0
220
0
230
1
0
MTEXT
5
198
100
AcDbEntity
8
0
62
256
6
ByLayer
370
18
48
1
60
0
100
AcDbMText
10
-82.88724
20
0
30
0
210
0
220
0
230
1
1
\A1;63.50
40
3
41
0
44
1
50
90
71
5
72
5
7
iso_b_vert
0
POINT
5
199
100
AcDbEntity
8
Defpoints
62
0
6
ByLayer
370
-1
48
1
60
0
100
AcDbPoint
10
1.8
20
-31.75
30
0
39
0
210
0
220
0
230
1
50
360
0
POINT
5
19A
100
AcDbEntity
8
Defpoints
62
0
6
ByLayer
370
-1
48
1
60
0
100
AcDbPoint
10
1.8
20
31.75
30
0
39
0
210
0
220
0
230
1
50
360
0
POINT
5
19B
100
AcDbEntity
8
Defpoints
62
0
6
ByLayer
370
-1
48
1
60
0
100
AcDbPoint
10
-76.88724
20
31.75
30
0
39
0
210
0
220
0
230
1
50
360
0
ENDBLK
5
192
100
AcDbEntity
8
0
100
AcDbBlockEnd
0
BLOCK
5
1A7
100
AcDbEntity
8
0
100
AcDbBlockBegin
2
_U5
70
0
10
0
20
0
30
0
3
_U5
0
MTEXT
5
19D
100
AcDbEntity
8
SK2
62
256
6
ByLayer
370
18
48
1
60
0
100
AcDbMText
10
-77.478354
20
-5.628158
30
0
210
0
220
0
230
1
1
\W0.7881;%%c 63.5
40
3
41
0
44
1.084337
50
90
71
7
72
5
7
iso_b_vert
0
LINE
5
19E
100
AcDbEntity
8
SK2
62
256
6
ByLayer
370
18
48
1
60
0
100
AcDbLine
10
0.3
20
-31.75
30
0
11
-79.88724
21
-31.75
31
0
39
0
210
0
220
0
230
1
0
LINE
5
19F
100
AcDbEntity
8
SK2
62
256
6
ByLayer
370
18
48
1
60
0
100
AcDbLine
10
0.3
20
31.75
30
0
11
-79.88724
21
31.75
31
0
39
0
210
0
220
0
230
1
0
LINE
5
1A0
100
AcDbEntity
8
SK2
62
256
6
ByLayer
370
18
48
1
60
0
100
AcDbLine
10
-76.88724
20
-31.75
30
0
11
-76.88724
21
31.75
31
0
39
0
210
0
220
0
230
1
0
LINE
5
1A1
100
AcDbEntity
8
SK2
62
256
6
ByLayer
370
18
48
1
60
0
100
AcDbLine
10
-76.88724
20
-31.75
30
0
11
-77.416221
21
-28.750002
31
0
39
0
210
0
220
0
230
1
0
LINE
5
1A2
100
AcDbEntity
8
SK2
62
256
6
ByLayer
370
18
48
1
60
0
100
AcDbLine
10
-76.88724
20
-31.75
30
0
11
-76.358259
21
-28.749998
31
0
39
0
210
0
220
0
230
1
0
LINE
5
1A3
100
AcDbEntity
8
SK2
62
256
6
ByLayer
370
18
48
1
60
0
100
AcDbLine
10
-77.416221
20
-28.750002
30
0
11
-76.358259
21
-28.749998
31
0
39
0
210
0
220
0
230
1
0
LINE
5
1A4
100
AcDbEntity
8
SK2
62
256
6
ByLayer
370
18
48
1
60
0
100
AcDbLine
10
-76.88724
20
31.75
30
0
11
-76.358259
21
28.750002
31
0
39
0
210
0
220
0
230
1
0
LINE
5
1A5
100
AcDbEntity
8
SK2
62
256
6
ByLayer
370
18
48
1
60
0
100
AcDbLine
10
-76.88724
20
31.75
30
0
11
-77.416221
21
28.749998
31
0
39
0
210
0
220
0
230
1
0
LINE
5
1A6
100
AcDbEntity
8
SK2
62
256
6
ByLayer
370
18
48
1
60
0
100
AcDbLine
10
-76.358259
20
28.750002
30
0
11
-77.416221
21
28.749998
31
0
39
0
210
0
220
0
230
1
0
ENDBLK
5
1A8
100
AcDbEntity
8
0
100
AcDbBlockEnd
0
BLOCK
5
1AD
100
AcDbEntity
8
0
100
AcDbBlockBegin
2
*D14
70
1
10
0
20
0
30
0
3
*D14
0
LINE
5
1AF
100
AcDbEntity
8
0
62
256
6
ByLayer
370
-2
48
1
60
0
100
AcDbLine
10
-68.25
20
12.885163
30
0
11
-68.25
21
55.999757
31
0
39
0
210
0
220
0
230
1
0
LINE
5
1B0
100
AcDbEntity
8
0
62
256
6
ByLayer
370
-2
48
1
60
0
100
AcDbLine
10
1.3E-05
20
23.658295
30
0
11
1.3E-05
21
55.999757
31
0
39
0
210
0
220
0
230
1
0
LINE
5
1B1
100
AcDbEntity
8
0
62
256
6
ByLayer
370
-2
48
1
60
0
100
AcDbLine
10
-65.25
20
52.999757
30
0
11
-2.999987
21
52.999757
31
0
39
0
210
0
220
0
230
1
0
SOLID
5
1B2
100
AcDbEntity
8
0
62
256
6
ByLayer
370
-1
48
1
60
0
100
AcDbTrace
10
-65.25
20
53.499757
30
0
11
-65.25
21
52.499757
31
0
12
-68.25
22
52.999757
32
0
13
-68.25
23
52.999757
33
0
39
0
210
0
220
0
230
1
0
SOLID
5
1B3
100
AcDbEntity
8
0
62
256
6
ByLayer
370
-1
48
1
60
0
100
AcDbTrace
10
-2.999987
20
52.499757
30
0
11
-2.999987
21
53.499757
31
0
12
1.3E-05
22
52.999757
32
0
13
1.3E-05
23
52.999757
33
0
39
0
210
0
220
0
230
1
0
MTEXT
5
1B4
100
AcDbEntity
8
0
62
256
6
ByLayer
370
18
48
1
60
0
100
AcDbMText
10
-34.124993
20
58.999757
30
0
210
0
220
0
230
1
1
\A1;68.25
40
3
41
0
44
1
50
0
71
5
72
5
7
iso_b_vert
0
POINT
5
1B5
100
AcDbEntity
8
Defpoints
62
0
6
ByLayer
370
-1
48
1
60
0
100
AcDbPoint
10
-68.25
20
11.385163
30
0
39
0
210
0
220
0
230
1
50
360
0
POINT
5
1B6
100
AcDbEntity
8
Defpoints
62
0
6
ByLayer
370
-1
48
1
60
0
100
AcDbPoint
10
1.3E-05
20
22.158295
30
0
39
0
210
0
220
0
230
1
50
360
0
POINT
5
1B7
100
AcDbEntity
8
Defpoints
62
0
6
ByLayer
370
-1
48
1
60
0
100
AcDbPoint
10
1.3E-05
20
52.999757
30
0
39
0
210
0
220
0
230
1
50
360
0
ENDBLK
5
1AE
100
AcDbEntity
8
0
100
AcDbBlockEnd
0
BLOCK
5
1C3
100
AcDbEntity
8
0
100
AcDbBlockBegin
2
_U6
70
0
10
0
20
0
30
0
3
_U6
0
MTEXT
5
1B9
100
AcDbEntity
8
SK2
62
256
6
ByLayer
370
18
48
1
60
0
100
AcDbMText
10
-38.509414
20
53.884871
30
0
210
0
220
0
230
1
1
\W0.7279;68.25
40
3
41
0
44
1.084337
50
0
71
7
72
5
7
iso_b_vert
0
LINE
5
1BA
100
AcDbEntity
8
SK2
62
256
6
ByLayer
370
18
48
1
60
0
100
AcDbLine
10
-68.25
20
12.885163
30
0
11
-68.25
21
55.999757
31
0
39
0
210
0
220
0
230
1
0
LINE
5
1BB
100
AcDbEntity
8
SK2
62
256
6
ByLayer
370
18
48
1
60
0
100
AcDbLine
10
1.3E-05
20
26.959679
30
0
11
1.3E-05
21
55.999757
31
0
39
0
210
0
220
0
230
1
0
LINE
5
1BC
100
AcDbEntity
8
SK2
62
256
6
ByLayer
370
18
48
1
60
0
100
AcDbLine
10
-68.25
20
52.999757
30
0
11
1.3E-05
21
52.999757
31
0
39
0
210
0
220
0
230
1
0
LINE
5
1BD
100
AcDbEntity
8
SK2
62
256
6
ByLayer
370
18
48
1
60
0
100
AcDbLine
10
-68.25
20
52.999757
30
0
11
-65.250002
21
53.528738
31
0
39
0
210
0
220
0
230
1
0
LINE
5
1BE
100
AcDbEntity
8
SK2
62
256
6
ByLayer
370
18
48
1
60
0
100
AcDbLine
10
-68.25
20
52.999757
30
0
11
-65.249998
21
52.470776
31
0
39
0
210
0
220
0
230
1
0
LINE
5
1BF
100
AcDbEntity
8
SK2
62
256
6
ByLayer
370
18
48
1
60
0
100
AcDbLine
10
-65.250002
20
53.528738
30
0
11
-65.249998
21
52.470776
31
0
39
0
210
0
220
0
230
1
0
LINE
5
1C0
100
AcDbEntity
8
SK2
62
256
6
ByLayer
370
18
48
1
60
0
100
AcDbLine
10
1.3E-05
20
52.999757
30
0
11
-2.999985
21
52.470776
31
0
39
0
210
0
220
0
230
1
0
LINE
5
1C1
100
AcDbEntity
8
SK2
62
256
6
ByLayer
370
18
48
1
60
0
100
AcDbLine
10
1.3E-05
20
52.999757
30
0
11
-2.999988
21
53.528738
31
0
39
0
210
0
220
0
230
1
0
LINE
5
1C2
100
AcDbEntity
8
SK2
62
256
6
ByLayer
370
18
48
1
60
0
100
AcDbLine
10
-2.999985
20
52.470776
30
0
11
-2.999988
21
53.528738
31
0
39
0
210
0
220
0
230
1
0
ENDBLK
5
1C4
100
AcDbEntity
8
0
100
AcDbBlockEnd
0
BLOCK
5
1C9
100
AcDbEntity
8
0
100
AcDbBlockBegin
2
*D16
70
1
10
0
20
0
30
0
3
*D16
0
LINE
5
1CB
100
AcDbEntity
8
0
62
256
6
ByLayer
370
-2
48
1
60
0
100
AcDbLine
10
1.3E-05
20
27.047179
30
0
11
1.3E-05
21
45.978932
31
0
39
0
210
0
220
0
230
1
0
LINE
5
1CC
100
AcDbEntity
8
0
62
256
6
ByLayer
370
-2
48
1
60
0
100
AcDbLine
10
19.05
20
32.5375
30
0
11
19.05
21
45.978932
31
0
39
0
210
0
220
0
230
1
0
LINE
5
1CD
100
AcDbEntity
8
0
62
256
6
ByLayer
370
-2
48
1
60
0
100
AcDbLine
10
-3.174987
20
42.803932
30
0
11
-6.349987
21
42.803932
31
0
39
0
210
0
220
0
230
1
0
LINE
5
1CE
100
AcDbEntity
8
0
62
256
6
ByLayer
370
-2
48
1
60
0
100
AcDbLine
10
22.225
20
42.803932
30
0
11
25.4
21
42.803932
31
0
39
0
210
0
220
0
230
1
0
SOLID
5
1CF
100
AcDbEntity
8
0
62
256
6
ByLayer
370
-1
48
1
60
0
100
AcDbTrace
10
-3.174987
20
42.274766
30
0
11
-3.174987
21
43.333099
31
0
12
1.3E-05
22
42.803932
32
0
13
1.3E-05
23
42.803932
33
0
39
0
210
0
220
0
230
1
0
SOLID
5
1D0
100
AcDbEntity
8
0
62
256
6
ByLayer
370
-1
48
1
60
0
100
AcDbTrace
10
22.225
20
43.333099
30
0
11
22.225
21
42.274766
31
0
12
19.05
22
42.803932
32
0
13
19.05
23
42.803932
33
0
39
0
210
0
220
0
230
1
0
MTEXT
5
1D1
100
AcDbEntity
8
0
62
256
6
ByLayer
370
18
48
1
60
0
100
AcDbMText
10
9.525007
20
51.923953
30
0
210
0
220
0
230
1
1
\A1;19.05
40
3.000007
41
0
44
1
50
0
71
5
72
5
7
iso_b_vert
0
POINT
5
1D2
100
AcDbEntity
8
Defpoints
62
0
6
ByLayer
370
-1
48
1
60
0
100
AcDbPoint
10
1.3E-05
20
25.459679
30
0
39
0
210
0
220
0
230
1
50
360
0
POINT
5
1D3
100
AcDbEntity
8
Defpoints
62
0
6
ByLayer
370
-1
48
1
60
0
100
AcDbPoint
10
19.05
20
30.95
30
0
39
0
210
0
220
0
230
1
50
360
0
POINT
5
1D4
100
AcDbEntity
8
Defpoints
62
0
6
ByLayer
370
-1
48
1
60
0
100
AcDbPoint
10
19.05
20
42.803932
30
0
39
0
210
0
220
0
230
1
50
360
0
ENDBLK
5
1CA
100
AcDbEntity
8
0
100
AcDbBlockEnd
0
BLOCK
5
1DC
100
AcDbEntity
8
0
100
AcDbBlockBegin
2
_U7
70
0
10
0
20
0
30
0
3
_U7
0
MTEXT
5
1D6
100
AcDbEntity
8
SK2
62
256
6
ByLayer
370
18
48
1
60
0
100
AcDbMText
10
5.416892
20
43.689049
30
0
210
0
220
0
230
1
1
\W0.6864;19.05
40
3.000007
41
0
44
1.084337
50
0
71
7
72
5
7
iso_b_vert
0
LINE
5
1D7
100
AcDbEntity
8
SK2
62
256
6
ByLayer
370
13
48
1
60
0
100
AcDbLine
10
1.3E-05
20
27.047179
30
0
11
1.3E-05
21
45.978932
31
0
39
0
210
0
220
0
230
1
0
LINE
5
1D8
100
AcDbEntity
8
SK2
62
256
6
ByLayer
370
13
48
1
60
0
100
AcDbLine
10
19.05
20
32.5375
30
0
11
19.05
21
45.978932
31
0
39
0
210
0
220
0
230
1
0
LINE
5
1D9
100
AcDbEntity
8
SK2
62
256
6
ByLayer
370
13
48
1
60
0
100
AcDbLine
10
1.3E-05
20
42.803932
30
0
11
19.05
21
42.803932
31
0
39
0
210
0
220
0
230
1
0
SOLID
5
1DA
100
AcDbEntity
8
SK2
62
256
6
ByLayer
370
18
48
1
60
0
100
AcDbTrace
10
1.3E-05
20
42.803932
30
0
11
3.175012
21
43.306803
31
0
12
3.175015
22
42.301062
32
0
13
3.175015
23
42.301062
33
0
39
0
210
0
220
0
230
1
0
SOLID
5
1DB
100
AcDbEntity
8
SK2
62
256
6
ByLayer
370
18
48
1
60
0
100
AcDbTrace
10
19.05
20
42.803932
30
0
11
15.875002
21
42.301062
31
0
12
15.874998
22
43.306803
32
0
13
15.874998
23
43.306803
33
0
39
0
210
0
220
0
230
1
0
ENDBLK
5
1DD
100
AcDbEntity
8
0
100
AcDbBlockEnd
0
BLOCK
5
1E2
100
AcDbEntity
8
0
100
AcDbBlockBegin
2
*D18
70
1
10
0
20
0
30
0
3
*D18
0
LINE
5
1E4
100
AcDbEntity
8
0
62
256
6
ByLayer
370
-2
48
1
60
0
100
AcDbLine
10
1.3E-05
20
-28.202893
30
0
11
1.3E-05
21
-47.804889
31
0
39
0
210
0
220
0
230
1
0
LINE
5
1E5
100
AcDbEntity
8
0
62
256
6
ByLayer
370
-2
48
1
60
0
100
AcDbLine
10
93.5006
20
-12.7508
30
0
11
93.5006
21
-47.804889
31
0
39
0
210
0
220
0
230
1
0
LINE
5
1E6
100
AcDbEntity
8
0
62
256
6
ByLayer
370
-2
48
1
60
0
100
AcDbLine
10
3.175013
20
-44.629889
30
0
11
90.3256
21
-44.629889
31
0
39
0
210
0
220
0
230
1
0
SOLID
5
1E7
100
AcDbEntity
8
0
62
256
6
ByLayer
370
-1
48
1
60
0
100
AcDbTrace
10
3.175013
20
-44.100722
30
0
11
3.175013
21
-45.159056
31
0
12
1.3E-05
22
-44.629889
32
0
13
1.3E-05
23
-44.629889
33
0
39
0
210
0
220
0
230
1
0
SOLID
5
1E8
100
AcDbEntity
8
0
62
256
6
ByLayer
370
-1
48
1
60
0
100
AcDbTrace
10
90.3256
20
-45.159056
30
0
11
90.3256
21
-44.100722
31
0
12
93.5006
22
-44.629889
32
0
13
93.5006
23
-44.629889
33
0
39
0
210
0
220
0
230
1
0
MTEXT
5
1E9
100
AcDbEntity
8
0
62
256
6
ByLayer
370
18
48
1
60
0
100
AcDbMText
10
46.750307
20
-35.509869
30
0
210
0
220
0
230
1
1
\A1;93.5
40
3.000007
41
0
44
1
50
0
71
5
72
5
7
iso_b_vert
0
POINT
5
1EA
100
AcDbEntity
8
Defpoints
62
0
6
ByLayer
370
-1
48
1
60
0
100
AcDbPoint
10
1.3E-05
20
-26.615393
30
0
39
0
210
0
220
0
230
1
50
360
0
POINT
5
1EB
100
AcDbEntity
8
Defpoints
62
0
6
ByLayer
370
-1
48
1
60
0
100
AcDbPoint
10
93.5006
20
-11.1633
30
0
39
0
210
0
220
0
230
1
50
360
0
POINT
5
1EC
100
AcDbEntity
8
Defpoints
62
0
6
ByLayer
370
-1
48
1
60
0
100
AcDbPoint
10
93.5006
20
-44.629889
30
0
39
0
210
0
220
0
230
1
50
360
0
ENDBLK
5
1E3
100
AcDbEntity
8
0
100
AcDbBlockEnd
0
BLOCK
5
1F5
100
AcDbEntity
8
0
100
AcDbBlockBegin
2
_U8
70
0
10
0
20
0
30
0
3
_U8
0
MTEXT
5
1EF
100
AcDbEntity
8
2
62
256
6
ByLayer
370
18
48
1
60
0
100
AcDbMText
10
43.388843
20
-43.744773
30
0
210
0
220
0
230
1
1
\W0.7346;93.5
40
3.000007
41
0
44
1.084337
50
0
71
7
72
5
7
iso_b_vert
0
LINE
5
1F0
100
AcDbEntity
8
2
62
256
6
ByLayer
370
13
48
1
60
0
100
AcDbLine
10
1.3E-05
20
-28.202893
30
0
11
1.3E-05
21
-47.804889
31
0
39
0
210
0
220
0
230
1
0
LINE
5
1F1
100
AcDbEntity
8
2
62
256
6
ByLayer
370
13
48
1
60
0
100
AcDbLine
10
93.5006
20
-12.7508
30
0
11
93.5006
21
-47.804889
31
0
39
0
210
0
220
0
230
1
0
LINE
5
1F2
100
AcDbEntity
8
2
62
256
6
ByLayer
370
13
48
1
60
0
100
AcDbLine
10
1.3E-05
20
-44.629889
30
0
11
93.5006
21
-44.629889
31
0
39
0
210
0
220
0
230
1
0
SOLID
5
1F3
100
AcDbEntity
8
2
62
256
6
ByLayer
370
18
48
1
60
0
100
AcDbTrace
10
1.3E-05
20
-44.629889
30
0
11
3.175012
21
-44.127018
31
0
12
3.175015
22
-45.13276
32
0
13
3.175015
23
-45.13276
33
0
39
0
210
0
220
0
230
1
0
SOLID
5
1F4
100
AcDbEntity
8
2
62
256
6
ByLayer
370
18
48
1
60
0
100
AcDbTrace
10
93.5006
20
-44.629889
30
0
11
90.325602
21
-45.13276
31
0
12
90.325598
22
-44.127018
32
0
13
90.325598
23
-44.127018
33
0
39
0
210
0
220
0
230
1
0
ENDBLK
5
1F6
100
AcDbEntity
8
0
100
AcDbBlockEnd
0
BLOCK
5
1FB
100
AcDbEntity
8
0
100
AcDbBlockBegin
2
*D20
70
1
10
0
20
0
30
0
3
*D20
0
LINE
5
1FD
100
AcDbEntity
8
0
62
256
6
ByLayer
370
-2
48
1
60
0
100
AcDbLine
10
1.3E-05
20
27.047179
30
0
11
1.3E-05
21
55.943041
31
0
39
0
210
0
220
0
230
1
0
LINE
5
1FE
100
AcDbEntity
8
0
62
256
6
ByLayer
370
-2
48
1
60
0
100
AcDbLine
10
35.004005
20
23.8125
30
0
11
35.004005
21
55.943041
31
0
39
0
210
0
220
0
230
1
0
LINE
5
1FF
100
AcDbEntity
8
0
62
256
6
ByLayer
370
-2
48
1
60
0
100
AcDbLine
10
3.175013
20
52.768041
30
0
11
31.829005
21
52.768041
31
0
39
0
210
0
220
0
230
1
0
SOLID
5
200
100
AcDbEntity
8
0
62
256
6
ByLayer
370
-1
48
1
60
0
100
AcDbTrace
10
3.175013
20
53.297208
30
0
11
3.175013
21
52.238874
31
0
12
1.3E-05
22
52.768041
32
0
13
1.3E-05
23
52.768041
33
0
39
0
210
0
220
0
230
1
0
SOLID
5
201
100
AcDbEntity
8
0
62
256
6
ByLayer
370
-1
48
1
60
0
100
AcDbTrace
10
31.829005
20
52.238874
30
0
11
31.829005
21
53.297208
31
0
12
35.004005
22
52.768041
32
0
13
35.004005
23
52.768041
33
0
39
0
210
0
220
0
230
1
0
MTEXT
5
202
100
AcDbEntity
8
0
62
256
6
ByLayer
370
18
48
1
60
0
100
AcDbMText
10
17.502009
20
61.888061
30
0
210
0
220
0
230
1
1
\A1;35
40
3.000007
41
0
44
1
50
0
71
5
72
5
7
iso_b_vert
0
POINT
5
203
100
AcDbEntity
8
Defpoints
62
0
6
ByLayer
370
-1
48
1
60
0
100
AcDbPoint
10
1.3E-05
20
25.459679
30
0
39
0
210
0
220
0
230
1
50
360
0
POINT
5
204
100
AcDbEntity
8
Defpoints
62
0
6
ByLayer
370
-1
48
1
60
0
100
AcDbPoint
10
35.004005
20
22.225
30
0
39
0
210
0
220
0
230
1
50
360
0
POINT
5
205
100
AcDbEntity
8
Defpoints
62
0
6
ByLayer
370
-1
48
1
60
0
100
AcDbPoint
10
35.004005
20
52.768041
30
0
39
0
210
0
220
0
230
1
50
360
0
ENDBLK
5
1FC
100
AcDbEntity
8
0
100
AcDbBlockEnd
0
BLOCK
5
20D
100
AcDbEntity
8
0
100
AcDbBlockBegin
2
_U9
70
0
10
0
20
0
30
0
3
_U9
0
MTEXT
5
207
100
AcDbEntity
8
SK2
62
256
6
ByLayer
370
18
48
1
60
0
100
AcDbMText
10
15.869177
20
53.653157
30
0
210
0
220
0
230
1
1
\W0.6740;35
40
3.000007
41
0
44
1.084337
50
0
71
7
72
5
7
iso_b_vert
0
LINE
5
208
100
AcDbEntity
8
SK2
62
256
6
ByLayer
370
13
48
1
60
0
100
AcDbLine
10
1.3E-05
20
27.047179
30
0
11
1.3E-05
21
55.943041
31
0
39
0
210
0
220
0
230
1
0
LINE
5
209
100
AcDbEntity
8
SK2
62
256
6
ByLayer
370
13
48
1
60
0
100
AcDbLine
10
35.004005
20
23.8125
30
0
11
35.004005
21
55.943041
31
0
39
0
210
0
220
0
230
1
0
LINE
5
20A
100
AcDbEntity
8
SK2
62
256
6
ByLayer
370
13
48
1
60
0
100
AcDbLine
10
1.3E-05
20
52.768041
30
0
11
35.004005
21
52.768041
31
0
39
0
210
0
220
0
230
1
0
SOLID
5
20B
100
AcDbEntity
8
SK2
62
256
6
ByLayer
370
18
48
1
60
0
100
AcDbTrace
10
1.3E-05
20
52.768041
30
0
11
3.175012
21
53.270912
31
0
12
3.175015
22
52.26517
32
0
13
3.175015
23
52.26517
33
0
39
0
210
0
220
0
230
1
0
SOLID
5
20C
100
AcDbEntity
8
SK2
62
256
6
ByLayer
370
18
48
1
60
0
100
AcDbTrace
10
35.004005
20
52.768041
30
0
11
31.829006
21
52.26517
31
0
12
31.829003
22
53.270912
32
0
13
31.829003
23
53.270912
33
0
39
0
210
0
220
0
230
1
0
ENDBLK
5
20E
100
AcDbEntity
8
0
100
AcDbBlockEnd
0
BLOCK
5
213
100
AcDbEntity
8
0
100
AcDbBlockBegin
2
*D22
70
1
10
0
20
0
30
0
3
*D22
0
LINE
5
215
100
AcDbEntity
8
0
62
256
6
ByLayer
370
-2
48
1
60
0
100
AcDbLine
10
105
20
14.973398
30
0
11
105
21
43.757476
31
0
39
0
210
0
220
0
230
1
0
LINE
5
216
100
AcDbEntity
8
0
62
256
6
ByLayer
370
-2
48
1
60
0
100
AcDbLine
10
38.594005
20
18.5875
30
0
11
38.594005
21
43.757476
31
0
39
0
210
0
220
0
230
1
0
LINE
5
217
100
AcDbEntity
8
0
62
256
6
ByLayer
370
-2
48
1
60
0
100
AcDbLine
10
101.825
20
40.582476
30
0
11
41.769005
21
40.582476
31
0
39
0
210
0
220
0
230
1
0
SOLID
5
218
100
AcDbEntity
8
0
62
256
6
ByLayer
370
-1
48
1
60
0
100
AcDbTrace
10
101.825
20
40.053309
30
0
11
101.825
21
41.111643
31
0
12
105
22
40.582476
32
0
13
105
23
40.582476
33
0
39
0
210
0
220
0
230
1
0
SOLID
5
219
100
AcDbEntity
8
0
62
256
6
ByLayer
370
-1
48
1
60
0
100
AcDbTrace
10
41.769005
20
41.111643
30
0
11
41.769005
21
40.053309
31
0
12
38.594005
22
40.582476
32
0
13
38.594005
23
40.582476
33
0
39
0
210
0
220
0
230
1
0
MTEXT
5
21A
100
AcDbEntity
8
0
62
256
6
ByLayer
370
18
48
1
60
0
100
AcDbMText
10
71.797003
20
49.702496
30
0
210
0
220
0
230
1
1
\A1;66.4
40
3.000007
41
0
44
1
50
0
71
5
72
5
7
iso_b_vert
0
POINT
5
21B
100
AcDbEntity
8
Defpoints
62
0
6
ByLayer
370
-1
48
1
60
0
100
AcDbPoint
10
105
20
13.385898
30
0
39
0
210
0
220
0
230
1
50
360
0
POINT
5
21C
100
AcDbEntity
8
Defpoints
62
0
6
ByLayer
370
-1
48
1
60
0
100
AcDbPoint
10
38.594005
20
17
30
0
39
0
210
0
220
0
230
1
50
360
0
POINT
5
21D
100
AcDbEntity
8
Defpoints
62
0
6
ByLayer
370
-1
48
1
60
0
100
AcDbPoint
10
38.594005
20
40.582476
30
0
39
0
210
0
220
0
230
1
50
360
0
ENDBLK
5
214
100
AcDbEntity
8
0
100
AcDbBlockEnd
0
BLOCK
5
225
100
AcDbEntity
8
0
100
AcDbBlockBegin
2
_U10
70
0
10
0
20
0
30
0
3
_U10
0
MTEXT
5
21F
100
AcDbEntity
8
SK2
62
256
6
ByLayer
370
18
48
1
60
0
100
AcDbMText
10
68.277596
20
41.467592
30
0
210
0
220
0
230
1
1
\W0.7528;66.4
40
3.000007
41
0
44
1.084337
50
0
71
7
72
5
7
iso_b_vert
0
LINE
5
220
100
AcDbEntity
8
SK2
62
256
6
ByLayer
370
13
48
1
60
0
100
AcDbLine
10
105
20
14.973398
30
0
11
105
21
43.757476
31
0
39
0
210
0
220
0
230
1
0
LINE
5
221
100
AcDbEntity
8
SK2
62
256
6
ByLayer
370
13
48
1
60
0
100
AcDbLine
10
38.594005
20
18.5875
30
0
11
38.594005
21
43.757476
31
0
39
0
210
0
220
0
230
1
0
LINE
5
222
100
AcDbEntity
8
SK2
62
256
6
ByLayer
370
13
48
1
60
0
100
AcDbLine
10
105
20
40.582476
30
0
11
38.594005
21
40.582476
31
0
39
0
210
0
220
0
230
1
0
SOLID
5
223
100
AcDbEntity
8
SK2
62
256
6
ByLayer
370
18
48
1
60
0
100
AcDbTrace
10
105
20
40.582476
30
0
11
101.825002
21
40.079605
31
0
12
101.824998
22
41.085347
32
0
13
101.824998
23
41.085347
33
0
39
0
210
0
220
0
230
1
0
SOLID
5
224
100
AcDbEntity
8
SK2
62
256
6
ByLayer
370
18
48
1
60
0
100
AcDbTrace
10
38.594005
20
40.582476
30
0
11
41.769004
21
41.085347
31
0
12
41.769007
22
40.079605
32
0
13
41.769007
23
40.079605
33
0
39
0
210
0
220
0
230
1
0
ENDBLK
5
226
100
AcDbEntity
8
0
100
AcDbBlockEnd
0
ENDSEC
0
SECTION
2
ENTITIES
0
ARC
5
ED
100
AcDbEntity
8
SK3
62
256
6
ByLayer
370
13
48
0.05
60
0
100
AcDbCircle
39
0
10
97
20
-11.75
30
0
40
1
210
0
220
0
230
1
100
AcDbArc
50
180
51
0
0
ARC
5
EE
100
AcDbEntity
8
SK3
62
256
6
ByLayer
370
13
48
0.05
60
0
100
AcDbCircle
39
0
10
97
20
11.75
30
0
40
1
210
0
220
0
230
1
100
AcDbArc
50
0
51
180
0
ARC
5
EF
100
AcDbEntity
8
1
62
256
6
ByLayer
370
18
48
1
60
0
100
AcDbCircle
39
0
10
86.8
20
-16.05
30
0
40
0.8
210
0
220
0
230
1
100
AcDbArc
50
180
51
270
0
ARC
5
F0
100
AcDbEntity
8
1
62
256
6
ByLayer
370
18
48
1
60
0
100
AcDbCircle
39
0
10
86.8
20
16.05
30
0
40
0.8
210
0
220
0
230
1
100
AcDbArc
50
90
51
180
0
ARC
5
F1
100
AcDbEntity
8
SK1
62
256
6
ByLayer
370
18
48
1
60
0
100
AcDbCircle
39
0
10
-67.25
20
11.385163
30
0
40
1
210
0
220
0
230
1
100
AcDbArc
50
98.297222
51
180
0
ARC
5
F2
100
AcDbEntity
8
SK1
62
256
6
ByLayer
370
18
48
1
60
0
100
AcDbCircle
39
0
10
67.25
20
-11.385163
30
0
40
1
210
0
220
0
230
-1
100
AcDbArc
50
278.297222
51
0
0
ARC
5
F3
100
AcDbEntity
8
1
62
256
6
ByLayer
370
18
48
1
60
0
100
AcDbCircle
39
0
10
-34.426231
20
-21.225
30
0
40
1
210
0
220
0
230
-1
100
AcDbArc
50
210
51
270
0
ARC
5
F4
100
AcDbEntity
8
1
62
256
6
ByLayer
370
18
48
1
60
0
100
AcDbCircle
39
0
10
20.05
20
-23.225
30
0
40
1
210
0
220
0
230
1
100
AcDbArc
50
90
51
180
0
ARC
5
F5
100
AcDbEntity
8
1
62
256
6
ByLayer
370
18
48
1
60
0
100
AcDbCircle
39
0
10
20.05
20
23.225
30
0
40
1
210
0
220
0
230
1
100
AcDbArc
50
180
51
270
0
ARC
5
F6
100
AcDbEntity
8
1
62
256
6
ByLayer
370
18
48
1
60
0
100
AcDbCircle
39
0
10
-34.426231
20
21.225
30
0
40
1
210
0
220
0
230
-1
100
AcDbArc
50
90
51
150
0
ARC
5
F7
100
AcDbEntity
8
1
62
256
6
ByLayer
370
18
48
1
60
0
100
AcDbCircle
39
0
10
76.767949
20
-12.25
30
0
40
1
210
0
220
0
230
1
100
AcDbArc
50
90
51
120
0
ARC
5
F8
100
AcDbEntity
8
1
62
256
6
ByLayer
370
18
48
1
60
0
100
AcDbCircle
39
0
10
76.767949
20
12.25
30
0
40
1
210
0
220
0
230
1
100
AcDbArc
50
240
51
270
0
ARC
5
F9
100
AcDbEntity
8
1
62
256
6
ByLayer
370
18
48
1
60
0
100
AcDbCircle
39
0
10
38.594005
20
-18
30
0
40
1
210
0
220
0
230
1
100
AcDbArc
50
90
51
150
0
ARC
5
FA
100
AcDbEntity
8
1
62
256
6
ByLayer
370
18
48
1
60
0
100
AcDbCircle
39
0
10
38.594005
20
18
30
0
40
1
210
0
220
0
230
1
100
AcDbArc
50
210
51
270
0
ARC
5
FB
100
AcDbEntity
8
1
62
256
6
ByLayer
370
18
48
1
60
0
100
AcDbCircle
39
0
10
-66.272759
20
-16
30
0
40
1
210
0
220
0
230
-1
100
AcDbArc
50
240
51
270
0
ARC
5
FC
100
AcDbEntity
8
1
62
256
6
ByLayer
370
18
48
1
60
0
100
AcDbCircle
39
0
10
-66.272759
20
16
30
0
40
1
210
0
220
0
230
-1
100
AcDbArc
50
90
51
120
0
POINT
5
70
100
AcDbEntity
8
81
62
256
6
ByLayer
370
13
48
1
60
0
100
AcDbPoint
10
93.5
20
0
30
0
39
0
210
0
220
0
230
1
50
360
0
POINT
5
72
100
AcDbEntity
8
80
62
256
6
ByLayer
370
18
48
1
60
0
100
AcDbPoint
10
0
20
0
30
0
39
0
210
0
220
0
230
1
50
360
0
SPLINE
5
FD
100
AcDbEntity
8
1
62
256
6
ByLayer
370
18
48
1
60
0
100
AcDbSpline
70
4
71
3
72
76
73
72
40
0
40
0
40
0
40
0
40
0.0147409513365277
40
0.0294824549507341
40
0.0442241932298954
40
0.0589658819922399
40
0.0737072713347978
40
0.0884481464874706
40
0.102486516472748
40
0.116525320974623
40
0.130564241791381
40
0.144602991927686
40
0.158641316314635
40
0.172680075013254
40
0.186719349000459
40
0.200758765307005
40
0.214797983183957
40
0.22883669482065
40
0.242875840806604
40
0.256915581536494
40
0.270955492761787
40
0.284995180607727
40
0.299034282237534
40
0.313243834189409
40
0.327454075590363
40
0.341664522922169
40
0.355874718796574
40
0.370084232563049
40
0.384450134606364
40
0.398816804373136
40
0.413183714293445
40
0.427550353989775
40
0.441916230811375
40
0.456282279612163
40
0.47064912190087
40
0.485016224839531
40
0.499383059679057
40
0.5137491022318
40
0.528115132971947
40
0.542481948620945
40
0.556849034678591
40
0.571215866823039
40
0.585581911398837
40
0.600210558457626
40
0.614839989924821
40
0.629469704329444
40
0.644099176343801
40
0.658727857411718
40
0.672881814239216
40
0.687036611295436
40
0.701191864677484
40
0.715347160471949
40
0.729502055405942
40
0.743656077489238
40
0.757809390199902
40
0.771963413756244
40
0.786117833942697
40
0.800272302392909
40
0.81442643733003
40
0.828579824298373
40
0.842732451545517
40
0.856885656518967
40
0.871039190757846
40
0.88519277230052
40
0.899346086438874
40
0.913498786465686
40
0.930798552368974
40
0.948098954036627
40
0.965399626848535
40
0.982700140321238
40
1
40
1
40
1
40
1
41
1
10
103
20
7.67609926981161
30
0
41
1
10
103.01943092513
20
7.60223430136471
30
0
41
1
10
103.057866241732
20
7.45439223829245
30
0
41
1
10
103.114252112409
20
7.23229840033221
30
0
41
1
10
103.169328936008
20
7.00987294967554
30
0
41
1
10
103.223068239917
20
6.78712094803629
30
0
41
1
10
103.275437499232
20
6.56404745199282
30
0
41
1
10
103.325596526083
20
6.34420272553103
30
0
41
1
10
103.373593081054
20
6.12760303675905
30
0
41
1
10
103.419477959747
20
5.91426493532682
30
0
41
1
10
103.464011808802
20
5.70063866063833
30
0
41
1
10
103.507166793286
20
5.48673205717549
30
0
41
1
10
103.548916307593
20
5.27254750112539
30
0
41
1
10
103.58923334797
20
5.05808586906905
30
0
41
1
10
103.628092750994
20
4.8433495311281
30
0
41
1
10
103.665468489249
20
4.62834751959876
30
0
41
1
10
103.701333900917
20
4.41309130963649
30
0
41
1
10
103.735663496763
20
4.19758618819886
30
0
41
1
10
103.768431334123
20
3.98183528018396
30
0
41
1
10
103.799615175061
20
3.76584340953233
30
0
41
1
10
103.829192083156
20
3.5496227470553
30
0
41
1
10
103.857138452048
20
3.33318858311954
30
0
41
1
10
103.883537857002
20
3.11567479501727
30
0
41
1
10
103.908343434076
20
2.8970839810351
30
0
41
1
10
103.931513293031
20
2.67742095948227
30
0
41
1
10
103.952929629628
20
2.45757664972219
30
0
41
1
10
103.972573315814
20
2.23757060299859
30
0
41
1
10
103.990491358245
20
2.0166091336306
30
0
41
1
10
104.006641636058
20
1.79469842523453
30
0
41
1
10
104.020989517493
20
1.57184665857046
30
0
41
1
10
104.033464750594
20
1.34887836129895
30
0
41
1
10
104.044055243324
20
1.1258166827093
30
0
41
1
10
104.052749292905
20
0.902677470922445
30
0
41
1
10
104.059534827844
20
0.679471000392092
30
0
41
1
10
104.064409425668
20
0.456208265883303
30
0
41
1
10
104.067370380743
20
0.232907872391036
30
0
41
1
10
104.068414743316
20
0.0095944277271834
30
0
41
1
10
104.067539538754
20
-0.213714201528037
30
0
41
1
10
104.064741501521
20
-0.437006911466636
30
0
41
1
10
104.06002736354
20
-0.660272773624033
30
0
41
1
10
104.053403556275
20
-0.883494279472685
30
0
41
1
10
104.044876629018
20
-1.10664717833367
30
0
41
1
10
104.034389227362
20
-1.33107324072482
30
0
41
1
10
104.021906565824
20
-1.5567599706567
30
0
41
1
10
104.007403708188
20
-1.78369479950253
30
0
41
1
10
103.990971515002
20
-2.01050233993125
30
0
41
1
10
103.97262611883
20
-2.23715920384534
30
0
41
1
10
103.952602030232
20
-2.46119913715227
30
0
41
1
10
103.930984242874
20
-2.68261965361578
30
0
41
1
10
103.907863094349
20
-2.90142170616127
30
0
41
1
10
103.883020781326
20
-3.12004195527062
30
0
41
1
10
103.856479032581
20
-3.33846285799414
30
0
41
1
10
103.828259665066
20
-3.55666687518914
30
0
41
1
10
103.798383753613
20
-3.7746398411472
30
0
41
1
10
103.766871823674
20
-3.99237768892337
30
0
41
1
10
103.733749964931
20
-4.20987848070992
30
0
41
1
10
103.699043254052
20
-4.42713801587095
30
0
41
1
10
103.662778281675
20
-4.64414341099185
30
0
41
1
10
103.624981630455
20
-4.86088178453736
30
0
41
1
10
103.585679258016
20
-5.07734243066411
30
0
41
1
10
103.544896207109
20
-5.29352403091863
30
0
41
1
10
103.502660207068
20
-5.50942718211968
30
0
41
1
10
103.458998000576
20
-5.72505142252029
30
0
41
1
10
103.413938047495
20
-5.9403884229429
30
0
41
1
10
103.367508796596
20
-6.15542988258586
30
0
41
1
10
103.316196550657
20
-6.38608921617915
30
0
41
1
10
103.25966488418
20
-6.6322869312301
30
0
41
1
10
103.197568026928
20
-6.89393438334731
30
0
41
1
10
103.133606384765
20
-7.15513587138164
30
0
41
1
10
103.067826023271
20
-7.4158832762126
30
0
41
1
10
103.022805475326
20
-7.58941189649997
30
0
41
1
10
103
20
-7.67609926981146
30
0
0
SPLINE
5
FE
100
AcDbEntity
8
1
62
256
6
ByLayer
370
18
48
1
60
0
100
AcDbSpline
70
4
71
3
72
79
73
75
40
0
40
0
40
0
40
0
40
0.0145240974131169
40
0.0290485729858156
40
0.0435731458417557
40
0.0580975665626361
40
0.0726216179698177
40
0.0871591482998435
40
0.101697143224199
40
0.11623526071843
40
0.130773194078843
40
0.145310672772963
40
0.1598356171549
40
0.174361116856251
40
0.188886767929677
40
0.203412203333116
40
0.217937093785729
40
0.232481481719659
40
0.247026519377873
40
0.261571741173928
40
0.276116717012954
40
0.290661053096233
40
0.305186850261761
40
0.319713376482467
40
0.334240118841161
40
0.348766593824659
40
0.363292348014899
40
0.377843132625165
40
0.392394711031309
40
0.406946536464123
40
0.42149808133594
40
0.436048837819114
40
0.448812902083575
40
0.46157733534759
40
0.47434176576773
40
0.487105826154066
40
0.499869903268684
40
0.512634352159559
40
0.525398801992933
40
0.538162880392813
40
0.550974466713908
40
0.563786423443456
40
0.576598384891803
40
0.589409977647811
40
0.602143569879949
40
0.614877512667428
40
0.62761146331595
40
0.640345066267986
40
0.653089620269556
40
0.665834506062327
40
0.678579402342323
40
0.691323970645025
40
0.704057352443564
40
0.716791040596132
40
0.729524740997108
40
0.742258139498423
40
0.755000942967685
40
0.767744025666788
40
0.780487121640523
40
0.793229943211949
40
0.807785604069374
40
0.822342089431701
40
0.836899127964664
40
0.851456409734314
40
0.866013587082924
40
0.8805702754963
40
0.895126054461881
40
0.910107270931485
40
0.92508916171226
40
0.940071515298903
40
0.955054081692577
40
0.970036573340143
40
0.985018666066584
40
1
40
1
40
1
40
1
41
1
10
103
20
-9.15233142186085
30
0
41
1
10
103.019144985086
20
-9.18872059888592
30
0
41
1
10
103.057020839787
20
-9.26155298308035
30
0
41
1
10
103.11260457043
20
-9.37096157204097
30
0
41
1
10
103.166917934598
20
-9.48053014079518
30
0
41
1
10
103.21993379157
20
-9.59025644463733
30
0
41
1
10
103.271637912559
20
-9.70017361644617
30
0
41
1
10
103.321999856464
20
-9.81028257819513
30
0
41
1
10
103.370988874232
20
-9.92058363690797
30
0
41
1
10
103.418559577644
20
-10.0310408887862
30
0
41
1
10
103.464681004469
20
-10.1416503626931
30
0
41
1
10
103.509310249555
20
-10.2523779857362
30
0
41
1
10
103.552418830021
20
-10.3632233400615
30
0
41
1
10
103.593980091955
20
-10.4741851946559
30
0
41
1
10
103.633977716911
20
-10.5852919438022
30
0
41
1
10
103.67238181078
20
-10.6965375933964
30
0
41
1
10
103.709179856298
20
-10.8079681044436
30
0
41
1
10
103.744340211977
20
-10.9195821789262
30
0
41
1
10
103.777835031848
20
-11.0313775304238
30
0
41
1
10
103.809622900216
20
-11.1432989785496
30
0
41
1
10
103.839676969977
20
-11.25533831073
30
0
41
1
10
103.867959239703
20
-11.367442213415
30
0
41
1
10
103.894446173494
20
-11.4796076004113
30
0
41
1
10
103.919120617945
20
-11.5918304500269
30
0
41
1
10
103.941973671307
20
-11.7041514711818
30
0
41
1
10
103.962984182889
20
-11.8165604168775
30
0
41
1
10
103.982142695578
20
-11.9291145969246
30
0
41
1
10
103.999424651647
20
-12.0418099490412
30
0
41
1
10
104.014813916033
20
-12.154641580656
30
0
41
1
10
104.028287911267
20
-12.2675364312722
30
0
41
1
10
104.039833395367
20
-12.3804825673395
30
0
41
1
10
104.049043980105
20
-12.4888468693324
30
0
41
1
10
104.05617775754
20
-12.5926175332794
30
0
41
1
10
104.061488055876
20
-12.6917862020562
30
0
41
1
10
104.065289179995
20
-12.7909721879985
30
9E-16
41
1
10
104.067577688871
20
-12.8901688662826
30
9E-16
41
1
10
104.068349911551
20
-12.9893714412707
30
9E-16
41
1
10
104.067607207178
20
-13.0885750791725
30
9E-16
41
1
10
104.065350772754
20
-13.1877729986857
30
9E-16
41
1
10
104.061577028642
20
-13.2870815263753
30
9E-16
41
1
10
104.056280302888
20
-13.3864957872625
30
9E-16
41
1
10
104.049459919637
20
-13.4860109449082
30
9E-16
41
1
10
104.041128252486
20
-13.5854973450684
30
9E-16
41
1
10
104.031310969586
20
-13.6847465942202
30
9E-16
41
1
10
104.020024181485
20
-13.7837543064862
30
9E-16
41
1
10
104.007288419991
20
-13.8825164903799
30
9E-16
41
1
10
103.993090557383
20
-13.9812288366325
30
9E-16
41
1
10
103.97743587885
20
-14.0799136624514
30
9E-16
41
1
10
103.960332402667
20
-14.1785667785196
30
9E-16
41
1
10
103.941792151308
20
-14.2771843543493
30
9E-16
41
1
10
103.921833516034
20
-14.3757327137385
30
9E-16
41
1
10
103.900476133219
20
-14.4741777517033
30
9E-16
41
1
10
103.877734460434
20
-14.5725159984745
30
9E-16
41
1
10
103.853626166065
20
-14.6707444419315
30
9E-16
41
1
10
103.828160906291
20
-14.7688872708546
30
9E-16
41
1
10
103.801348294462
20
-14.8669641641172
30
9E-16
41
1
10
103.773202995297
20
-14.9649722045745
30
9E-16
41
1
10
103.743742191124
20
-15.062908929758
30
9E-16
41
1
10
103.712991175808
20
-15.1607464856765
30
9E-16
41
1
10
103.679449961325
20
-15.2631159409624
30
9E-16
41
1
10
103.642918391368
20
-15.3699985947138
30
9E-16
41
1
10
103.603195762277
20
-15.4813736955465
30
9E-16
41
1
10
103.561894169336
20
-15.5926093638766
30
9E-16
41
1
10
103.51904411861
20
-15.703700296955
30
9E-16
41
1
10
103.474676156167
20
-15.8146412077107
30
9E-16
41
1
10
103.428820906809
20
-15.9254268164361
30
9E-16
41
1
10
103.381046205316
20
-16.0371330529584
30
9E-16
41
1
10
103.331331514099
20
-16.1497558067733
30
9E-16
41
1
10
103.279659543778
20
-16.2632916966738
30
9E-16
41
1
10
103.22653754902
20
-16.3766637198794
30
1.1E-15
41
1
10
103.17199871417
20
-16.4898690245813
30
1.1E-15
41
1
10
103.116077251077
20
-16.6029047510435
30
1.1E-15
41
1
10
103.058803184355
20
-16.7157680398701
30
1.1E-15
41
1
10
103.019747900728
20
-16.7908959341042
30
1E-15
41
1
10
103
20
-16.8284306916723
30
1E-15
0
SPLINE
5
FF
100
AcDbEntity
8
1
62
256
6
ByLayer
370
18
48
1
60
0
100
AcDbSpline
70
4
71
3
72
80
73
76
40
0
40
0
40
0
40
0
40
0.0149813331260067
40
0.0299634250449987
40
0.0449459158850933
40
0.0599284814712925
40
0.0749108342504706
40
0.089892724223807
40
0.104873939886009
40
0.119429718067116
40
0.133986405695969
40
0.148543582260029
40
0.163100863245125
40
0.177657900993546
40
0.192214385571361
40
0.206770045644319
40
0.219512866528979
40
0.232255961815933
40
0.244999043828256
40
0.257741846610753
40
0.27047524442581
40
0.283208944140513
40
0.295942631606807
40
0.308676012719089
40
0.321420580334931
40
0.334165475928049
40
0.346910361033944
40
0.359654914348654
40
0.372388516614421
40
0.385122466576655
40
0.397856408677847
40
0.410590000223717
40
0.423186330165788
40
0.435783369272384
40
0.448380755907928
40
0.460978134058035
40
0.473575153582302
40
0.486171470468756
40
0.498535710755146
40
0.510900623372064
40
0.523265875308622
40
0.535631130841062
40
0.547996051756397
40
0.560360297575366
40
0.572724378656617
40
0.585089102842967
40
0.59745416079875
40
0.60981923304208
40
0.622183990200556
40
0.634548093264378
40
0.649384711413948
40
0.664222099023089
40
0.67905977246783
40
0.693897215538908
40
0.708733880207368
40
0.72341224783977
40
0.73809127336736
40
0.752770552107315
40
0.767449641736673
40
0.782128063134278
40
0.796652952400292
40
0.811178386533487
40
0.825704036308582
40
0.840229534739292
40
0.854754477934298
40
0.869278928213151
40
0.883803831901292
40
0.898328919186376
40
0.912853884215947
40
0.927378385944075
40
0.941902436568493
40
0.95642685650659
40
0.970951428579737
40
0.985475903369649
40
1
40
1
40
1
40
1
41
1
10
103
20
9.15233142186084
30
0
41
1
10
103.019747900727
20
9.18986617942896
30
0
41
1
10
103.058803184355
20
9.26499407366302
30
0
41
1
10
103.116077251077
20
9.37785736248965
30
0
41
1
10
103.17199871417
20
9.49089308895187
30
0
41
1
10
103.22653754902
20
9.60409839365376
30
0
41
1
10
103.279659543778
20
9.71747041685934
30
0
41
1
10
103.331331514099
20
9.83100630675983
30
0
41
1
10
103.381046205316
20
9.94362906057474
30
0
41
1
10
103.428820906809
20
10.055335297097
30
0
41
1
10
103.474676156167
20
10.1661209058225
30
0
41
1
10
103.51904411861
20
10.2770618165782
30
0
41
1
10
103.561894169336
20
10.3881527496566
30
0
41
1
10
103.603195762277
20
10.4993884179866
30
0
41
1
10
103.642918391368
20
10.6107635188194
30
0
41
1
10
103.679449961325
20
10.7176461725708
30
0
41
1
10
103.712991175808
20
10.8200156278567
30
0
41
1
10
103.743742191124
20
10.9178531837752
30
0
41
1
10
103.773202995297
20
11.0157899089586
30
0
41
1
10
103.801348294462
20
11.113797949416
30
0
41
1
10
103.828160906291
20
11.2118748426786
30
0
41
1
10
103.853626166066
20
11.3100176716016
30
0
41
1
10
103.877734460432
20
11.4082461150587
30
0
41
1
10
103.900476133224
20
11.5065843618298
30
0
41
1
10
103.921833516018
20
11.6050293997949
30
0
41
1
10
103.94179215137
20
11.703577759183
30
0
41
1
10
103.960332402435
20
11.8021953350166
30
0
41
1
10
103.977435879715
20
11.9008484510702
30
0
41
1
10
103.993090554156
20
11.9995332769439
30
0
41
1
10
104.007288432036
20
12.0982456229919
30
0
41
1
10
104.020024136534
20
12.1970078076492
30
0
41
1
10
104.031247665483
20
12.2954587486022
30
0
41
1
10
104.040966498561
20
12.3935945750192
30
0
41
1
10
104.049193891138
20
12.4914113223844
30
0
41
1
10
104.055961084272
20
12.5892587666138
30
0
41
1
10
104.061263408749
20
12.6871287497164
30
0
41
1
10
104.065096322423
20
12.7850131077491
30
-9E-16
41
1
10
104.067440813407
20
12.8823051915869
30
-9E-16
41
1
10
104.06832387365
20
12.9790019793247
30
-9E-16
41
1
10
104.067779134178
20
13.0751007771978
30
-9E-16
41
1
10
104.065814064745
20
13.1711975653199
30
-9E-16
41
1
10
104.062430630951
20
13.2672845047065
30
-9E-16
41
1
10
104.057630809572
20
13.3633537550329
30
-9E-16
41
1
10
104.051416379397
20
13.4593996854323
30
-9E-16
41
1
10
104.043788945013
20
13.5554196419916
30
-9E-16
41
1
10
104.034756438772
20
13.6514112162297
30
-9E-16
41
1
10
104.024326530182
20
13.7473699320788
30
-9E-16
41
1
10
104.01250716434
20
13.8432884433036
30
-9E-16
41
1
10
103.999306300841
20
13.939159420513
30
-9E-16
41
1
10
103.983759876039
20
14.0413650692332
30
-9E-16
41
1
10
103.965538019838
20
14.1498903302585
30
-9E-16
41
1
10
103.944298406586
20
14.2647154387577
30
-9E-16
41
1
10
103.921134434182
20
14.3794496246239
30
-9E-16
41
1
10
103.896068504703
20
14.4940819112925
30
-9E-16
41
1
10
103.869217781989
20
14.6081975459504
30
-9E-16
41
1
10
103.840626379025
20
14.7217937231489
30
-9E-16
41
1
10
103.810344223975
20
14.8348689213524
30
-9E-16
41
1
10
103.778295577314
20
14.9478241915153
30
-9E-16
41
1
10
103.744508023873
20
15.0606510845946
30
-9E-16
41
1
10
103.709131723042
20
15.172951259237
30
-9E-16
41
1
10
103.672213173324
20
15.2847237567411
30
-9E-16
41
1
10
103.633801871375
20
15.3959687808174
30
-9E-16
41
1
10
103.593797165016
20
15.5070748884036
30
-9E-16
41
1
10
103.552228952189
20
15.6180360882101
30
-9E-16
41
1
10
103.509126436483
20
15.7288476474134
30
-9E-16
41
1
10
103.464517852592
20
15.8395084886525
30
-9E-16
41
1
10
103.418433179362
20
15.9500183565932
30
-9E-16
41
1
10
103.370901906289
20
16.0603762689426
30
-9E-16
41
1
10
103.321954912543
20
16.1705782662004
30
-9E-16
41
1
10
103.271622458168
20
16.2806213511284
30
-9E-16
41
1
10
103.219933791589
20
16.3905056689248
30
-1.1E-15
41
1
10
103.166917934593
20
16.5002319727303
30
-1.1E-15
41
1
10
103.112604570431
20
16.6098005414943
30
-1.1E-15
41
1
10
103.057020839787
20
16.7192091304522
30
-1.1E-15
41
1
10
103.019144985086
20
16.7920415146472
30
-1E-15
41
1
10
103
20
16.8284306916723
30
-1E-15
0
LINE
5
74
100
AcDbEntity
8
1
62
256
6
ByLayer
370
18
48
1
60
0
100
AcDbLine
10
94
20
7.676099
30
0
11
103
21
7.676099
31
0
39
0
210
0
220
0
230
1
0
LINE
5
76
100
AcDbEntity
8
1
62
256
6
ByLayer
370
18
48
1
60
0
100
AcDbLine
10
103
20
9.152331
30
0
11
103
21
7.676099
31
0
39
0
210
0
220
0
230
1
0
LINE
5
77
100
AcDbEntity
8
1
62
256
6
ByLayer
370
18
48
1
60
0
100
AcDbLine
10
94
20
-9.152331
30
0
11
103
21
-9.152331
31
0
39
0
210
0
220
0
230
1
0
LINE
5
78
100
AcDbEntity
8
1
62
256
6
ByLayer
370
18
48
1
60
0
100
AcDbLine
10
103
20
-7.676099
30
0
11
103
21
-9.152331
31
0
39
0
210
0
220
0
230
1
0
LINE
5
79
100
AcDbEntity
8
1
62
256
6
ByLayer
370
18
48
1
60
0
100
AcDbLine
10
94
20
-7.676099
30
0
11
103
21
-7.676099
31
0
39
0
210
0
220
0
230
1
0
LINE
5
7A
100
AcDbEntity
8
1
62
256
6
ByLayer
370
18
48
1
60
0
100
AcDbLine
10
94
20
7.676099
30
0
11
94
21
-7.676099
31
0
39
0
210
0
220
0
230
1
0
LINE
5
7B
100
AcDbEntity
8
1
62
256
6
ByLayer
370
18
48
1
60
0
100
AcDbLine
10
94
20
9.152331
30
0
11
103
21
9.152331
31
0
39
0
210
0
220
0
230
1
0
LINE
5
7C
100
AcDbEntity
8
1
62
256
6
ByLayer
370
18
48
1
60
0
100
AcDbLine
10
94
20
16.828431
30
0
11
94
21
9.152331
31
0
39
0
210
0
220
0
230
1
0
LINE
5
7D
100
AcDbEntity
8
1
62
256
6
ByLayer
370
18
48
1
60
0
100
AcDbLine
10
94
20
-9.152331
30
0
11
94
21
-16.828431
31
0
39
0
210
0
220
0
230
1
0
LINE
5
7E
100
AcDbEntity
8
SK3
62
256
6
ByLayer
370
13
48
0.05
60
0
100
AcDbLine
10
70.918936
20
6.8072
30
0
11
67.1084
21
6.8072
31
0
39
0
210
0
220
0
230
1
0
LINE
5
80
100
AcDbEntity
8
SK3
62
256
6
ByLayer
370
13
48
0.05
60
0
100
AcDbLine
10
67.1084
20
-6.8072
30
0
11
70.918936
21
-6.8072
31
0
39
0
210
0
220
0
230
1
0
LINE
5
81
100
AcDbEntity
8
SK3
62
256
6
ByLayer
370
13
48
0.05
60
0
100
AcDbLine
10
70.918936
20
-6.8072
30
0
11
92.49577
21
-9.839626
31
0
39
0
210
0
220
0
230
1
0
LINE
5
82
100
AcDbEntity
8
SK3
62
256
6
ByLayer
370
13
48
0.05
60
0
100
AcDbLine
10
92.49577
20
9.839626
30
0
11
70.918936
21
6.8072
31
0
39
0
210
0
220
0
230
1
0
LINE
5
83
100
AcDbEntity
8
SK3
62
256
6
ByLayer
370
13
48
0.05
60
0
100
AcDbLine
10
86
20
-11.75
30
0
11
96
21
-11.75
31
0
39
0
210
0
220
0
230
1
0
LINE
5
84
100
AcDbEntity
8
SK3
62
256
6
ByLayer
370
13
48
0.05
60
0
100
AcDbLine
10
96
20
11.75
30
0
11
86
21
11.75
31
0
39
0
210
0
220
0
230
1
0
LINE
5
85
100
AcDbEntity
8
1
62
256
6
ByLayer
370
18
48
1
60
0
100
AcDbLine
10
103
20
16.85
30
0
11
105
21
13.385898
31
0
39
0
210
0
220
0
230
1
0
LINE
5
86
100
AcDbEntity
8
1
62
256
6
ByLayer
370
18
48
1
60
0
100
AcDbLine
10
105
20
-13.385898
30
0
11
103
21
-16.85
31
0
39
0
210
0
220
0
230
1
0
LINE
5
87
100
AcDbEntity
8
SK3
62
256
6
ByLayer
370
13
48
0.05
60
0
100
AcDbLine
10
104.188306
20
8
30
0
11
99.2
21
10.88
31
0
39
0
210
0
220
0
230
1
0
LINE
5
88
100
AcDbEntity
8
SK3
62
256
6
ByLayer
370
13
48
0.05
60
0
100
AcDbLine
10
99.2
20
-10.88
30
0
11
104.188306
21
-8
31
0
39
0
210
0
220
0
230
1
0
LINE
5
89
100
AcDbEntity
8
SK3
62
256
6
ByLayer
370
13
48
0.05
60
0
100
AcDbLine
10
98
20
-9
30
0
11
99.2
21
-9
31
0
39
0
210
0
220
0
230
1
0
LINE
5
8A
100
AcDbEntity
8
SK3
62
256
6
ByLayer
370
13
48
0.05
60
0
100
AcDbLine
10
99.2
20
9
30
0
11
98
21
9
31
0
39
0
210
0
220
0
230
1
0
LINE
5
8B
100
AcDbEntity
8
1
62
256
6
ByLayer
370
18
48
1
60
0
100
AcDbLine
10
82.56
20
-12.4333
30
0
11
82.56
21
12.4333
31
0
39
0
210
0
220
0
230
1
0
LINE
5
8C
100
AcDbEntity
8
1
62
256
6
ByLayer
370
18
48
1
60
0
100
AcDbLine
10
86
20
-16.05
30
0
11
86
21
16.05
31
0
39
0
210
0
220
0
230
1
0
LINE
5
8D
100
AcDbEntity
8
1
62
256
6
ByLayer
370
18
48
1
60
0
100
AcDbLine
10
105
20
-13.385898
30
0
11
105
21
13.385898
31
0
39
0
210
0
220
0
230
1
0
LINE
5
8E
100
AcDbEntity
8
SK3
62
256
6
ByLayer
370
13
48
0.05
60
0
100
AcDbLine
10
99.2
20
-10.88
30
0
11
99.2
21
10.88
31
0
39
0
210
0
220
0
230
1
0
LINE
5
8F
100
AcDbEntity
8
SK3
62
256
6
ByLayer
370
13
48
0.05
60
0
100
AcDbLine
10
98
20
11.75
30
0
11
98
21
-11.75
31
0
39
0
210
0
220
0
230
1
0
LINE
5
90
100
AcDbEntity
8
SK3
62
256
6
ByLayer
370
13
48
0.05
60
0
100
AcDbLine
10
93.5006
20
-11.1633
30
0
11
93.5006
21
11.1633
31
0
39
0
210
0
220
0
230
1
0
LINE
5
91
100
AcDbEntity
8
SK3
62
256
6
ByLayer
370
13
48
0.05
60
0
100
AcDbLine
10
67.1084
20
-6.8072
30
0
11
67.1084
21
6.8072
31
0
39
0
210
0
220
0
230
1
0
LINE
5
92
100
AcDbEntity
8
1
62
256
6
ByLayer
370
18
48
1
60
0
100
AcDbLine
10
86
20
-12.4333
30
0
11
82.56
21
-12.4333
31
0
39
0
210
0
220
0
230
1
0
LINE
5
93
100
AcDbEntity
8
1
62
256
6
ByLayer
370
13
48
0.05
60
0
100
AcDbLine
10
86
20
-12.4333
30
0
11
92.3306
21
-12.4333
31
0
39
0
210
0
220
0
230
1
0
LINE
5
94
100
AcDbEntity
8
1
62
256
6
ByLayer
370
13
48
0.05
60
0
100
AcDbLine
10
86
20
12.4333
30
0
11
92.3306
21
12.4333
31
0
39
0
210
0
220
0
230
1
0
LINE
5
95
100
AcDbEntity
8
81
62
256
6
ByLayer
370
13
48
1
60
0
100
AcDbLine
10
93.5
20
0
30
0
11
101.5
21
0
31
0
39
0
210
0
220
0
230
1
0
LINE
5
96
100
AcDbEntity
8
1
62
256
6
ByLayer
370
18
48
1
60
0
100
AcDbLine
10
14.621837
20
31.75
30
0
11
18.3
21
31.75
31
0
39
0
210
0
220
0
230
1
0
LINE
5
97
100
AcDbEntity
8
SK1
62
256
6
ByLayer
370
18
48
1
60
0
100
AcDbLine
10
1.3E-05
20
22.225002
30
0
11
-67.544308
21
12.374695
31
0
39
0
210
0
220
0
230
1
0
LINE
5
99
100
AcDbEntity
8
1
62
256
6
ByLayer
370
18
48
1
60
0
100
AcDbLine
10
19.05
20
0
30
0
11
19.05
21
30.95
31
0
39
0
210
0
220
0
230
1
0
LINE
5
9A
100
AcDbEntity
8
SK1
62
256
6
ByLayer
370
18
48
1
60
0
100
AcDbLine
10
-68.25
20
0
30
0
11
-68.25
21
11.385163
31
0
39
0
210
0
220
0
230
1
0
LINE
5
9B
100
AcDbEntity
8
SK1
62
256
6
ByLayer
370
18
48
1
60
0
100
AcDbLine
10
-68.25
20
0
30
0
11
-68.25
21
-11.385163
31
0
39
0
210
0
220
0
230
1
0
LINE
5
9C
100
AcDbEntity
8
1
62
256
6
ByLayer
370
18
48
1
60
0
100
AcDbLine
10
19.05
20
0
30
0
11
19.05
21
-30.95
31
0
39
0
210
0
220
0
230
1
0
LINE
5
9D
100
AcDbEntity
8
SK1
62
256
6
ByLayer
370
18
48
1
60
0
100
AcDbLine
10
1.3E-05
20
-22.225002
30
0
11
-67.544308
21
-12.374695
31
0
39
0
210
0
220
0
230
1
0
LINE
5
9E
100
AcDbEntity
8
1
62
256
6
ByLayer
370
18
48
1
60
0
100
AcDbLine
10
9.1875
20
-28
30
0
11
13.0125
21
-28
31
0
39
0
210
0
220
0
230
1
0
LINE
5
9F
100
AcDbEntity
8
1
62
256
6
ByLayer
370
18
48
1
60
0
100
AcDbLine
10
13.0125
20
-28.962547
30
0
11
14.621837
21
-31.75
31
0
39
0
210
0
220
0
230
1
0
LINE
5
A0
100
AcDbEntity
8
1
62
256
6
ByLayer
370
18
48
1
60
0
100
AcDbLine
10
7.578163
20
-31.75
30
0
11
9.1875
21
-28.962547
31
0
39
0
210
0
220
0
230
1
0
LINE
5
A1
100
AcDbEntity
8
1
62
256
6
ByLayer
370
18
48
1
60
0
100
AcDbLine
10
14.621837
20
-31.75
30
0
11
18.3
21
-31.75
31
0
39
0
210
0
220
0
230
1
0
LINE
5
A2
100
AcDbEntity
8
1
62
256
6
ByLayer
370
18
48
1
60
0
100
AcDbLine
10
1.3E-05
20
-26.615393
30
0
11
1.3E-05
21
-19.560198
31
0
39
0
210
0
220
0
230
1
0
LINE
5
A3
100
AcDbEntity
8
1
62
256
6
ByLayer
370
18
48
1
60
0
100
AcDbLine
10
1.3E-05
20
18.85691
30
0
11
1.3E-05
21
25.459679
31
0
39
0
210
0
220
0
230
1
0
LINE
5
A4
100
AcDbEntity
8
1
62
256
6
ByLayer
370
18
48
1
60
0
100
AcDbLine
10
1
20
30.95
30
0
11
1.8
21
31.75
31
0
39
0
210
0
220
0
230
1
0
LINE
5
A5
100
AcDbEntity
8
1
62
256
6
ByLayer
370
18
48
1
60
0
100
AcDbLine
10
19.05
20
30.95
30
0
11
18.25
21
31.75
31
0
39
0
210
0
220
0
230
1
0
LINE
5
A6
100
AcDbEntity
8
1
62
256
6
ByLayer
370
18
48
1
60
0
100
AcDbLine
10
1.8
20
-31.75
30
0
11
1
21
-30.95
31
0
39
0
210
0
220
0
230
1
0
LINE
5
A7
100
AcDbEntity
8
1
62
256
6
ByLayer
370
18
48
1
60
0
100
AcDbLine
10
18.25
20
-31.75
30
0
11
19.05
21
-30.95
31
0
39
0
210
0
220
0
230
1
0
LINE
5
A8
100
AcDbEntity
8
1
62
256
6
ByLayer
370
18
48
1
60
0
100
AcDbLine
10
13.0125
20
28.962547
30
0
11
14.621837
21
31.75
31
0
39
0
210
0
220
0
230
1
0
LINE
5
A9
100
AcDbEntity
8
1
62
256
6
ByLayer
370
18
48
1
60
0
100
AcDbLine
10
103
20
16.85
30
0
11
86.8
21
16.85
31
0
39
0
210
0
220
0
230
1
0
LINE
5
AA
100
AcDbEntity
8
1
62
256
6
ByLayer
370
18
48
1
60
0
100
AcDbLine
10
86.8
20
-16.85
30
0
11
103
21
-16.85
31
0
39
0
210
0
220
0
230
1
0
LINE
5
AB
100
AcDbEntity
8
SK3
62
256
6
ByLayer
370
13
48
0.05
60
0
100
AcDbLine
10
104.188306
20
8
30
0
11
104.188306
21
-8
31
0
39
0
210
0
220
0
230
1
0
LINE
5
AC
100
AcDbEntity
8
SK4
62
256
6
ByLayer
370
13
48
0.05
60
0
100
AcDbLine
10
107.5
20
0
30
0
11
-71
21
0
31
0
39
0
210
0
220
0
230
1
0
LINE
5
AE
100
AcDbEntity
8
1
62
256
6
ByLayer
370
18
48
1
60
0
100
AcDbLine
10
0.527013
20
21.919783
30
0
11
1.3E-05
21
22.225002
31
0
39
0
210
0
220
0
230
1
0
LINE
5
AF
100
AcDbEntity
8
1
62
256
6
ByLayer
370
18
48
1
60
0
100
AcDbLine
10
0.527013
20
-21.919783
30
0
11
1.3E-05
21
-22.225002
31
0
39
0
210
0
220
0
230
1
0
LINE
5
B0
100
AcDbEntity
8
1
62
256
6
ByLayer
370
18
48
1
60
0
100
AcDbLine
10
1.3E-05
20
22.225002
30
0
11
1.3E-05
21
-22.439604
31
0
39
0
210
0
220
0
230
1
0
LINE
5
B1
100
AcDbEntity
8
1
62
256
6
ByLayer
370
18
48
1
60
0
100
AcDbLine
10
0.527013
20
21.919783
30
0
11
0.527013
21
-21.919783
31
0
39
0
210
0
220
0
230
1
0
LINE
5
B2
100
AcDbEntity
8
1
62
256
6
ByLayer
370
18
48
1
60
0
100
AcDbLine
10
9.1665
20
28.962547
30
0
11
7.557163
21
31.75
31
0
39
0
210
0
220
0
230
1
0
LINE
5
B3
100
AcDbEntity
8
1
62
256
6
ByLayer
370
18
48
1
60
0
100
AcDbLine
10
9.1665
20
28
30
0
11
13.0125
21
28
31
0
39
0
210
0
220
0
230
1
0
LINE
5
B4
100
AcDbEntity
8
1
62
256
6
ByLayer
370
18
48
1
60
0
100
AcDbLine
10
1
20
-8.095
30
0
11
1
21
-30.95
31
0
39
0
210
0
220
0
230
1
0
LINE
5
B5
100
AcDbEntity
8
1
62
256
6
ByLayer
370
18
48
1
60
0
100
AcDbLine
10
19.05
20
8.095
30
0
11
19.1
21
8.095
31
0
39
0
210
0
220
0
230
1
0
LINE
5
B6
100
AcDbEntity
8
80
62
256
6
ByLayer
370
13
48
1
60
0
100
AcDbLine
10
0
20
0
30
0
11
-6
21
0
31
0
39
0
210
0
220
0
230
1
0
LINE
5
B7
100
AcDbEntity
8
1
62
256
6
ByLayer
370
18
48
1
60
0
100
AcDbLine
10
1
20
-8.095
30
0
11
1
21
30.95
31
0
39
0
210
0
220
0
230
1
0
LINE
5
B8
100
AcDbEntity
8
1
62
256
6
ByLayer
370
18
48
1
60
0
100
AcDbLine
10
1.8
20
31.75
30
0
11
1.8
21
0
31
0
39
0
210
0
220
0
230
1
0
LINE
5
B9
100
AcDbEntity
8
1
62
256
6
ByLayer
370
18
48
1
60
0
100
AcDbLine
10
7.578163
20
31.75
30
0
11
7.578163
21
0
31
0
39
0
210
0
220
0
230
1
0
LINE
5
BA
100
AcDbEntity
8
1
62
256
6
ByLayer
370
18
48
1
60
0
100
AcDbLine
10
9.1665
20
28.962547
30
0
11
9.1665
21
0
31
0
39
0
210
0
220
0
230
1
0
LINE
5
BB
100
AcDbEntity
8
1
62
256
6
ByLayer
370
18
48
1
60
0
100
AcDbLine
10
13.0125
20
28.962547
30
0
11
13.0125
21
0
31
0
39
0
210
0
220
0
230
1
0
LINE
5
BC
100
AcDbEntity
8
1
62
256
6
ByLayer
370
18
48
1
60
0
100
AcDbLine
10
14.621837
20
31.75
30
0
11
14.621837
21
0
31
0
39
0
210
0
220
0
230
1
0
LINE
5
BD
100
AcDbEntity
8
1
62
256
6
ByLayer
370
18
48
1
60
0
100
AcDbLine
10
18.25
20
0
30
0
11
18.25
21
31.75
31
0
39
0
210
0
220
0
230
1
0
LINE
5
BE
100
AcDbEntity
8
1
62
256
6
ByLayer
370
18
48
1
60
0
100
AcDbLine
10
18.25
20
0
30
0
11
18.25
21
-31.75
31
0
39
0
210
0
220
0
230
1
0
LINE
5
BF
100
AcDbEntity
8
1
62
256
6
ByLayer
370
18
48
1
60
0
100
AcDbLine
10
14.621837
20
-31.75
30
0
11
14.621837
21
0
31
0
39
0
210
0
220
0
230
1
0
LINE
5
C0
100
AcDbEntity
8
1
62
256
6
ByLayer
370
18
48
1
60
0
100
AcDbLine
10
13.0125
20
-28.962547
30
0
11
13.0125
21
0
31
0
39
0
210
0
220
0
230
1
0
LINE
5
C1
100
AcDbEntity
8
1
62
256
6
ByLayer
370
18
48
1
60
0
100
AcDbLine
10
9.1875
20
-28.962547
30
0
11
9.1875
21
0
31
0
39
0
210
0
220
0
230
1
0
LINE
5
C2
100
AcDbEntity
8
1
62
256
6
ByLayer
370
18
48
1
60
0
100
AcDbLine
10
7.578163
20
-31.75
30
0
11
7.578163
21
0
31
0
39
0
210
0
220
0
230
1
0
LINE
5
C3
100
AcDbEntity
8
1
62
256
6
ByLayer
370
18
48
1
60
0
100
AcDbLine
10
1.8
20
-31.75
30
0
11
1.8
21
0
31
0
39
0
210
0
220
0
230
1
0
LINE
5
C4
100
AcDbEntity
8
SK3
62
256
6
ByLayer
370
13
48
0.05
60
0
100
AcDbLine
10
92.3306
20
12.4333
30
0
11
93.5006
21
11.2633
31
0
39
0
210
0
220
0
230
1
0
LINE
5
C5
100
AcDbEntity
8
SK3
62
256
6
ByLayer
370
13
48
0.05
60
0
100
AcDbLine
10
93.5006
20
10.419765
30
0
11
92.49577
21
9.839626
31
0
39
0
210
0
220
0
230
1
0
LINE
5
C6
100
AcDbEntity
8
SK3
62
256
6
ByLayer
370
13
48
0.05
60
0
100
AcDbLine
10
92.49577
20
-9.839626
30
0
11
93.5006
21
-10.419765
31
0
39
0
210
0
220
0
230
1
0
LINE
5
C7
100
AcDbEntity
8
SK3
62
256
6
ByLayer
370
13
48
0.05
60
0
100
AcDbLine
10
93.5006
20
-11.2633
30
0
11
92.3306
21
-12.4333
31
0
39
0
210
0
220
0
230
1
0
LINE
5
C8
100
AcDbEntity
8
4
62
256
6
ByLayer
370
13
48
0.05
60
0
100
AcDbLine
10
-2.18
20
0
30
0
11
92.32
21
0
31
0
39
0
210
0
220
0
230
1
0
LINE
5
CA
100
AcDbEntity
8
1
62
256
6
ByLayer
370
18
48
1
60
0
100
AcDbLine
10
1.8
20
31.75
30
0
11
7.578163
21
31.75
31
0
39
0
210
0
220
0
230
1
0
LINE
5
CB
100
AcDbEntity
8
1
62
256
6
ByLayer
370
18
48
1
60
0
100
AcDbLine
10
1.8
20
-31.75
30
0
11
7.578163
21
-31.75
31
0
39
0
210
0
220
0
230
1
0
LINE
5
CC
100
AcDbEntity
8
SK3
62
256
6
ByLayer
370
13
48
0.05
60
0
100
AcDbLine
10
1
20
-22.42
30
0
11
19.05
21
-22.42
31
0
39
0
210
0
220
0
230
1
0
LINE
5
CD
100
AcDbEntity
8
1
62
256
6
ByLayer
370
18
48
1
60
0
100
AcDbLine
10
1
20
-21.919783
30
0
11
0.527013
21
-21.919783
31
0
39
0
210
0
220
0
230
1
0
LINE
5
CE
100
AcDbEntity
8
1
62
256
6
ByLayer
370
18
48
1
60
0
100
AcDbLine
10
1
20
21.919783
30
0
11
0.527013
21
21.919783
31
0
39
0
210
0
220
0
230
1
0
LINE
5
CF
100
AcDbEntity
8
SK3
62
256
6
ByLayer
370
13
48
0.05
60
0
100
AcDbLine
10
1
20
24.82
30
0
11
19.05
21
24.82
31
0
39
0
210
0
220
0
230
1
0
LINE
5
D0
100
AcDbEntity
8
1
62
256
6
ByLayer
370
13
48
0.05
60
0
100
AcDbLine
10
92.3306
20
12.4333
30
0
11
93.5006
21
11.2633
31
0
39
0
210
0
220
0
230
1
0
LINE
5
D1
100
AcDbEntity
8
1
62
256
6
ByLayer
370
13
48
0.05
60
0
100
AcDbLine
10
93.5006
20
-11.2633
30
0
11
92.3306
21
-12.4333
31
0
39
0
210
0
220
0
230
1
0
LINE
5
D2
100
AcDbEntity
8
SK3
62
256
6
ByLayer
370
13
48
0.05
60
0
100
AcDbLine
10
86
20
12.4333
30
0
11
96.3
21
12.4333
31
0
39
0
210
0
220
0
230
1
0
LINE
5
D3
100
AcDbEntity
8
SK3
62
256
6
ByLayer
370
13
48
0.05
60
0
100
AcDbLine
10
86
20
-12.4333
30
0
11
96.3
21
-12.4333
31
0
39
0
210
0
220
0
230
1
0
LINE
5
D4
100
AcDbEntity
8
1
62
256
6
ByLayer
370
13
48
0.05
60
0
100
AcDbLine
10
93.5006
20
-11.1633
30
0
11
93.5006
21
-9.980846
31
0
39
0
210
0
220
0
230
1
0
LINE
5
D5
100
AcDbEntity
8
1
62
256
6
ByLayer
370
13
48
0.05
60
0
100
AcDbLine
10
93.5006
20
9.980846
30
0
11
93.5006
21
11.1633
31
0
39
0
210
0
220
0
230
1
0
LINE
5
D6
100
AcDbEntity
8
SK3
62
256
6
ByLayer
370
13
48
0.05
60
0
100
AcDbLine
10
105
20
8
30
0
11
104.188306
21
8
31
0
39
0
210
0
220
0
230
1
0
LINE
5
D7
100
AcDbEntity
8
SK3
62
256
6
ByLayer
370
13
48
0.05
60
0
100
AcDbLine
10
105
20
-8
30
0
11
104.188306
21
-8
31
0
39
0
210
0
220
0
230
1
0
LINE
5
D8
100
AcDbEntity
8
1
62
256
6
ByLayer
370
18
48
1
60
0
100
AcDbLine
10
20.05
20
22.225
30
0
11
34.426231
21
22.225
31
0
39
0
210
0
220
0
230
1
0
LINE
5
D9
100
AcDbEntity
8
1
62
256
6
ByLayer
370
18
48
1
60
0
100
AcDbLine
10
80.5
20
-11.25
30
0
11
76.767949
21
-11.25
31
0
39
0
210
0
220
0
230
1
0
LINE
5
DA
100
AcDbEntity
8
1
62
256
6
ByLayer
370
18
48
1
60
0
100
AcDbLine
10
34.426231
20
-22.225
30
0
11
20.05
21
-22.225
31
0
39
0
210
0
220
0
230
1
0
LINE
5
DB
100
AcDbEntity
8
1
62
256
6
ByLayer
370
18
48
1
60
0
100
AcDbLine
10
82.56
20
-12.4333
30
0
11
80.5
21
-11.25
31
0
39
0
210
0
220
0
230
1
0
LINE
5
DC
100
AcDbEntity
8
1
62
256
6
ByLayer
370
18
48
1
60
0
100
AcDbLine
10
76.767949
20
11.25
30
0
11
80.5
21
11.25
31
0
39
0
210
0
220
0
230
1
0
LINE
5
DD
100
AcDbEntity
8
1
62
256
6
ByLayer
370
18
48
1
60
0
100
AcDbLine
10
86
20
-12.4333
30
0
11
82.56
21
-12.4333
31
0
39
0
210
0
220
0
230
1
0
LINE
5
DE
100
AcDbEntity
8
1
62
256
6
ByLayer
370
18
48
1
60
0
100
AcDbLine
10
86
20
12.4333
30
0
11
82.56
21
12.4333
31
0
39
0
210
0
220
0
230
1
0
LINE
5
DF
100
AcDbEntity
8
1
62
256
6
ByLayer
370
18
48
1
60
0
100
AcDbLine
10
82.56
20
12.4333
30
0
11
80.5
21
11.25
31
0
39
0
210
0
220
0
230
1
0
LINE
5
E0
100
AcDbEntity
8
1
62
256
6
ByLayer
370
18
48
1
60
0
100
AcDbLine
10
80.5
20
11.25
30
0
11
80.5
21
-11.25
31
0
39
0
210
0
220
0
230
1
0
LINE
5
E1
100
AcDbEntity
8
1
62
256
6
ByLayer
370
18
48
1
60
0
100
AcDbLine
10
76.34
20
11.25
30
0
11
76.34
21
-11.25
31
0
39
0
210
0
220
0
230
1
0
LINE
5
E2
100
AcDbEntity
8
1
62
256
6
ByLayer
370
18
48
1
60
0
100
AcDbLine
10
35.003581
20
21.825
30
0
11
35.003581
21
-21.895
31
0
39
0
210
0
220
0
230
1
0
LINE
5
E3
100
AcDbEntity
8
1
62
256
6
ByLayer
370
13
48
1
60
0
100
AcDbLine
10
86
20
11.75
30
0
11
81.370447
21
11.75
31
0
39
0
210
0
220
0
230
1
0
LINE
5
E4
100
AcDbEntity
8
1
62
256
6
ByLayer
370
13
48
1
60
0
100
AcDbLine
10
86
20
-11.75
30
0
11
81.370447
21
-11.75
31
0
39
0
210
0
220
0
230
1
0
LINE
5
E5
100
AcDbEntity
8
1
62
256
6
ByLayer
370
18
48
1
60
0
100
AcDbLine
10
76.267949
20
-11.383975
30
0
11
66.772759
21
-16.866025
31
0
39
0
210
0
220
0
230
1
0
LINE
5
E6
100
AcDbEntity
8
1
62
256
6
ByLayer
370
18
48
1
60
0
100
AcDbLine
10
66.772759
20
16.866025
30
0
11
76.267949
21
11.383975
31
0
39
0
210
0
220
0
230
1
0
LINE
5
E7
100
AcDbEntity
8
1
62
256
6
ByLayer
370
18
48
1
60
0
100
AcDbLine
10
37.72798
20
-17.5
30
0
11
35.292256
21
-21.725
31
0
39
0
210
0
220
0
230
1
0
LINE
5
E8
100
AcDbEntity
8
1
62
256
6
ByLayer
370
18
48
1
60
0
100
AcDbLine
10
35.292256
20
21.725
30
0
11
37.72798
21
17.5
31
0
39
0
210
0
220
0
230
1
0
LINE
5
E9
100
AcDbEntity
8
1
62
256
6
ByLayer
370
18
48
1
60
0
100
AcDbLine
10
66.272759
20
-17
30
0
11
38.594005
21
-17
31
0
39
0
210
0
220
0
230
1
0
LINE
5
EA
100
AcDbEntity
8
1
62
256
6
ByLayer
370
18
48
1
60
0
100
AcDbLine
10
38.594005
20
17
30
0
11
66.272759
21
17
31
0
39
0
210
0
220
0
230
1
0
LINE
5
EB
100
AcDbEntity
8
1
62
256
6
ByLayer
370
18
48
1
60
0
100
AcDbLine
10
38.016231
20
17
30
0
11
38.016231
21
-17
31
0
39
0
210
0
220
0
230
1
0
LINE
5
EC
100
AcDbEntity
8
1
62
256
6
ByLayer
370
18
48
1
60
0
100
AcDbLine
10
66.540708
20
16.91
30
0
11
66.540708
21
-16.89
31
0
39
0
210
0
220
0
230
1
0
MTEXT
5
100
100
AcDbEntity
8
SK6
62
256
6
ByLayer
370
18
48
1
60
0
100
AcDbMText
10
29.431309
20
-56.381568
30
0
210
0
220
0
230
1
1
\W0.7684;A392.54514-4020105
40
3.5
41
0
44
1.084337
50
0
71
7
72
5
7
iso_b_vert
0
DIMENSION
5
105
100
AcDbEntity
8
SK2
62
256
6
ByLayer
370
18
48
1
60
0
100
AcDbDimension
2
_U0
10
105
20
62.099955
30
0
11
52.500007
21
62.099955
31
0
70
32
71
1
72
1
41
1
210
0
220
0
230
1
3
Standard
100
AcDbAlignedDimension
13
1.3E-05
23
25.459679
33
0
14
105
24
13.385898
34
0
50
0
100
AcDbRotatedDimension
1001
ACAD
1000
DSTYLE
1002
{
1070
   371
1070
    13
1070
   372
1070
    13
1070
   170
1070
     0
1070
   144
1040
1.0
1070
   277
1070
     2
1070
   284
1070
     8
1070
   278
1070
    46
1070
   146
1040
1.166664
1070
   345
1005
16
1070
   347
1005
16
1070
   346
1005
16
1070
   344
1005
0
1070
   343
1005
0
1070
   172
1070
     1
1070
    76
1070
     0
1070
    75
1070
     0
1070
   282
1070
     0
1070
   281
1070
     0
1070
    71
1070
     0
1070
    74
1070
     0
1070
   279
1070
     0
1070
   173
1070
     1
1070
   340
1005
101
1070
   271
1070
     3
1070
   272
1070
     3
1070
    77
1070
     1
1070
    73
1070
     1
1070
   171
1070
     4
1070
   274
1070
     4
1070
   177
1070
     7
1070
   176
1070
     7
1070
   178
1070
     7
1070
    78
1070
     8
1070
    48
1040
-0.1
1070
    41
1040
3.175
1070
   147
1040
1.500003
1070
    42
1040
1.5875
1070
    44
1040
3.175
1070
   140
1040
3.000007
1002
}
1001
ACAD_DSTYLE_DIM_LINETYPE
1070
   380
1005
16
1001
ACAD_DSTYLE_DIM_EXT1_LINETYPE
1070
   381
1005
16
1001
ACAD_DSTYLE_DIM_EXT2_LINETYPE
1070
   382
1005
16
0
DIMENSION
5
11F
100
AcDbEntity
8
SK2
62
256
6
ByLayer
370
18
48
1
60
0
100
AcDbDimension
2
_U1
10
105
20
27.607406
30
0
11
95.5
21
27.607406
31
0
70
32
71
1
72
1
41
1
210
0
220
0
230
1
3
Standard
100
AcDbAlignedDimension
13
86
23
16.05
33
0
14
105
24
13.385898
34
0
50
0
100
AcDbRotatedDimension
1001
ACAD
1000
DSTYLE
1002
{
1070
   371
1070
    13
1070
   372
1070
    13
1070
   170
1070
     0
1070
   144
1040
1.0
1070
   277
1070
     2
1070
   284
1070
     8
1070
   278
1070
    46
1070
   146
1040
1.166664
1070
   345
1005
16
1070
   347
1005
16
1070
   346
1005
16
1070
   344
1005
0
1070
   343
1005
0
1070
   172
1070
     1
1070
    76
1070
     0
1070
    75
1070
     0
1070
   282
1070
     0
1070
   281
1070
     0
1070
    71
1070
     0
1070
    74
1070
     0
1070
   279
1070
     0
1070
   173
1070
     1
1070
   340
1005
101
1070
   271
1070
     3
1070
   272
1070
     3
1070
    77
1070
     1
1070
    73
1070
     1
1070
   171
1070
     4
1070
   274
1070
     4
1070
   177
1070
     7
1070
   176
1070
     7
1070
   178
1070
     7
1070
    78
1070
     8
1070
    48
1040
-0.1
1070
    41
1040
3.175
1070
   147
1040
1.500003
1070
    42
1040
1.5875
1070
    44
1040
3.175
1070
   140
1040
3.000007
1002
}
1001
ACAD_DSTYLE_DIM_LINETYPE
1070
   380
1005
16
1001
ACAD_DSTYLE_DIM_EXT1_LINETYPE
1070
   381
1005
16
1001
ACAD_DSTYLE_DIM_EXT2_LINETYPE
1070
   382
1005
16
0
DIMENSION
5
138
100
AcDbEntity
8
SK2
62
256
6
ByLayer
370
18
48
1
60
0
100
AcDbDimension
2
_U2
10
123.718121
20
-8
30
0
11
123.718121
21
24.184308
31
0
70
32
71
1
72
1
41
1
210
0
220
0
230
1
3
Standard
100
AcDbAlignedDimension
13
105
23
8
33
0
14
105
24
-8
34
0
50
90
100
AcDbRotatedDimension
1001
ACAD
1000
DSTYLE
1002
{
1070
   371
1070
    13
1070
   372
1070
    13
1070
     3
1000

1070
   170
1070
     0
1070
   144
1040
1.0
1070
   277
1070
     2
1070
   284
1070
     8
1070
   278
1070
    46
1070
   146
1040
1.166664
1070
   345
1005
16
1070
   347
1005
16
1070
   346
1005
16
1070
   344
1005
0
1070
   343
1005
0
1070
   172
1070
     1
1070
    76
1070
     0
1070
    75
1070
     0
1070
   282
1070
     0
1070
   281
1070
     0
1070
    71
1070
     0
1070
    74
1070
     0
1070
   279
1070
     0
1070
   173
1070
     1
1070
   340
1005
101
1070
   271
1070
     3
1070
   272
1070
     3
1070
    77
1070
     1
1070
    73
1070
     0
1070
   171
1070
     4
1070
   274
1070
     4
1070
   177
1070
     7
1070
   176
1070
     7
1070
   178
1070
     7
1070
    78
1070
     8
1070
    48
1040
-0.1
1070
    41
1040
3.175
1070
   147
1040
1.500003
1070
    42
1040
1.5875
1070
    44
1040
3.175
1070
   140
1040
3.000007
1002
}
1001
ACAD_DSTYLE_DIM_LINETYPE
1070
   380
1005
16
1001
ACAD_DSTYLE_DIM_EXT1_LINETYPE
1070
   381
1005
16
1001
ACAD_DSTYLE_DIM_EXT2_LINETYPE
1070
   382
1005
16
0
DIMENSION
5
152
100
AcDbEntity
8
SK2
62
256
6
ByLayer
370
18
48
1
60
0
100
AcDbDimension
2
_U3
10
134.159811
20
16.85
30
0
11
134.159811
21
0
31
0
70
32
71
1
72
1
41
1
210
0
220
0
230
1
3
Standard
100
AcDbAlignedDimension
13
103
23
-16.85
33
0
14
103
24
16.85
34
0
50
90
100
AcDbRotatedDimension
1001
ACAD
1000
DSTYLE
1002
{
1070
   371
1070
    13
1070
   372
1070
    13
1070
     3
1000

1070
   170
1070
     0
1070
   144
1040
1.0
1070
   277
1070
     2
1070
   284
1070
     8
1070
   278
1070
    46
1070
   146
1040
1.166664
1070
   345
1005
16
1070
   347
1005
16
1070
   346
1005
16
1070
   344
1005
0
1070
   343
1005
0
1070
   172
1070
     1
1070
    76
1070
     0
1070
    75
1070
     0
1070
   282
1070
     0
1070
   281
1070
     0
1070
    71
1070
     0
1070
    74
1070
     0
1070
   279
1070
     0
1070
   173
1070
     1
1070
   340
1005
101
1070
   271
1070
     0
1070
   272
1070
     3
1070
    77
1070
     1
1070
    73
1070
     0
1070
   171
1070
     4
1070
   274
1070
     4
1070
   177
1070
     7
1070
   176
1070
     7
1070
   178
1070
     7
1070
    78
1070
     8
1070
    48
1040
-0.1
1070
    41
1040
3.175
1070
   147
1040
1.500003
1070
    42
1040
1.5875
1070
    44
1040
3.175
1070
   140
1040
3.000007
1002
}
1001
ACAD_DSTYLE_DIM_LINETYPE
1070
   380
1005
16
1001
ACAD_DSTYLE_DIM_EXT1_LINETYPE
1070
   381
1005
16
1001
ACAD_DSTYLE_DIM_EXT2_LINETYPE
1070
   382
1005
16
0
DIMENSION
5
16A
100
AcDbEntity
8
SK2
62
256
6
ByLayer
370
18
48
1
60
0
100
AcDbDimension
2
_U4
10
-9.508568
20
-16.73522
30
0
11
-9.508568
21
9.837331
31
0
70
32
71
1
72
1
41
1
210
0
220
0
230
1
3
Standard
100
AcDbAlignedDimension
13
1.3E-05
23
22.225002
33
0
14
1.3E-05
24
-22.225002
34
0
50
90
100
AcDbRotatedDimension
1001
ACAD
1000
DSTYLE
1002
{
1070
   371
1070
    18
1070
   372
1070
    18
1070
     3
1000

1070
   170
1070
     0
1070
   144
1040
1.0
1070
   277
1070
     2
1070
   278
1070
    46
1070
   146
1040
1.166669
1070
   345
1005
16
1070
   347
1005
16
1070
   346
1005
16
1070
   344
1005
16B
1070
   343
1005
16B
1070
   172
1070
     1
1070
    76
1070
     0
1070
    75
1070
     0
1070
   282
1070
     0
1070
   281
1070
     0
1070
    71
1070
     0
1070
    74
1070
     0
1070
   279
1070
     0
1070
   173
1070
     1
1070
   340
1005
101
1070
   271
1070
     0
1070
   272
1070
     2
1070
    77
1070
     1
1070
    73
1070
     0
1070
   171
1070
     4
1070
   274
1070
     4
1070
   177
1070
     7
1070
   176
1070
     7
1070
   178
1070
     7
1070
    41
1040
2.999994
1070
   147
1040
1.499997
1070
    42
1040
1.499997
1070
    44
1040
2.999994
1070
   140
1040
2.999994
1002
}
1001
ACAD_DSTYLE_DIM_LINETYPE
1070
   380
1005
16
1001
ACAD_DSTYLE_DIM_EXT1_LINETYPE
1070
   381
1005
16
1001
ACAD_DSTYLE_DIM_EXT2_LINETYPE
1070
   382
1005
16
0
DIMENSION
5
18D
100
AcDbEntity
8
SK2
62
256
6
ByLayer
370
18
48
1
60
0
100
AcDbDimension
2
_U5
10
-76.88724
20
31.75
30
0
11
-76.88724
21
0
31
0
70
32
71
1
72
1
41
1
210
0
220
0
230
1
3
Standard
100
AcDbAlignedDimension
13
1.8
23
-31.75
33
0
14
1.8
24
31.75
34
0
50
90
100
AcDbRotatedDimension
1001
ACAD
1000
DSTYLE
1002
{
1070
   371
1070
    18
1070
   372
1070
    18
1070
     3
1000

1070
   170
1070
     0
1070
   144
1040
1.0
1070
   277
1070
     2
1070
   278
1070
    46
1070
   146
1040
1.166667
1070
   345
1005
16
1070
   347
1005
16
1070
   346
1005
16
1070
   344
1005
16B
1070
   343
1005
16B
1070
   172
1070
     1
1070
    76
1070
     0
1070
    75
1070
     0
1070
   282
1070
     0
1070
   281
1070
     0
1070
    71
1070
     0
1070
    74
1070
     0
1070
   279
1070
     0
1070
   173
1070
     1
1070
   340
1005
101
1070
   271
1070
     2
1070
   272
1070
     2
1070
    77
1070
     1
1070
    73
1070
     0
1070
   171
1070
     4
1070
   274
1070
     4
1070
   177
1070
     7
1070
   176
1070
     7
1070
   178
1070
     7
1070
    41
1040
3.0
1070
   147
1040
1.5
1070
    42
1040
1.5
1070
    44
1040
3.0
1070
   140
1040
3.0
1002
}
1001
ACAD_DSTYLE_DIM_LINETYPE
1070
   380
1005
16
1001
ACAD_DSTYLE_DIM_EXT1_LINETYPE
1070
   381
1005
16
1001
ACAD_DSTYLE_DIM_EXT2_LINETYPE
1070
   382
1005
16
0
DIMENSION
5
1A9
100
AcDbEntity
8
SK2
62
256
6
ByLayer
370
18
48
1
60
0
100
AcDbDimension
2
_U6
10
1.3E-05
20
52.999757
30
0
11
-34.124993
21
52.999757
31
0
70
32
71
1
72
1
41
1
210
0
220
0
230
1
3
Standard
100
AcDbAlignedDimension
13
-68.25
23
11.385163
33
0
14
1.3E-05
24
22.158295
34
0
50
0
100
AcDbRotatedDimension
1001
ACAD
1000
DSTYLE
1002
{
1070
   371
1070
    18
1070
   372
1070
    18
1070
   170
1070
     0
1070
   144
1040
1.0
1070
   277
1070
     2
1070
   278
1070
    46
1070
   146
1040
1.166667
1070
   345
1005
16
1070
   347
1005
16
1070
   346
1005
16
1070
   344
1005
16B
1070
   343
1005
16B
1070
   172
1070
     1
1070
    76
1070
     0
1070
    75
1070
     0
1070
   282
1070
     0
1070
   281
1070
     0
1070
    71
1070
     0
1070
    74
1070
     0
1070
   279
1070
     0
1070
   173
1070
     1
1070
   340
1005
101
1070
   271
1070
     2
1070
   272
1070
     2
1070
    77
1070
     1
1070
    73
1070
     1
1070
   171
1070
     4
1070
   274
1070
     4
1070
   177
1070
     7
1070
   176
1070
     7
1070
   178
1070
     7
1070
    41
1040
3.0
1070
   147
1040
1.5
1070
    42
1040
1.5
1070
    44
1040
3.0
1070
   140
1040
3.0
1002
}
1001
ACAD_DSTYLE_DIM_LINETYPE
1070
   380
1005
16
1001
ACAD_DSTYLE_DIM_EXT1_LINETYPE
1070
   381
1005
16
1001
ACAD_DSTYLE_DIM_EXT2_LINETYPE
1070
   382
1005
16
0
DIMENSION
5
1C5
100
AcDbEntity
8
SK2
62
256
6
ByLayer
370
18
48
1
60
0
100
AcDbDimension
2
_U7
10
19.05
20
42.803932
30
0
11
9.525007
21
42.803932
31
0
70
32
71
1
72
1
41
1
210
0
220
0
230
1
3
Standard
100
AcDbAlignedDimension
13
1.3E-05
23
25.459679
33
0
14
19.05
24
30.95
34
0
50
0
100
AcDbRotatedDimension
1001
ACAD
1000
DSTYLE
1002
{
1070
   371
1070
    13
1070
   372
1070
    13
1070
   170
1070
     0
1070
   144
1040
1.0
1070
   277
1070
     2
1070
   284
1070
     8
1070
   278
1070
    46
1070
   146
1040
1.166664
1070
   345
1005
16
1070
   347
1005
16
1070
   346
1005
16
1070
   344
1005
0
1070
   343
1005
0
1070
   172
1070
     1
1070
    76
1070
     0
1070
    75
1070
     0
1070
   282
1070
     0
1070
   281
1070
     0
1070
    71
1070
     0
1070
    74
1070
     0
1070
   279
1070
     0
1070
   173
1070
     1
1070
   340
1005
101
1070
   271
1070
     3
1070
   272
1070
     3
1070
    77
1070
     1
1070
    73
1070
     1
1070
   171
1070
     4
1070
   274
1070
     4
1070
   177
1070
     7
1070
   176
1070
     7
1070
   178
1070
     7
1070
    78
1070
     8
1070
    48
1040
-0.1
1070
    41
1040
3.175
1070
   147
1040
1.500003
1070
    42
1040
1.5875
1070
    44
1040
3.175
1070
   140
1040
3.000007
1002
}
1001
ACAD_DSTYLE_DIM_LINETYPE
1070
   380
1005
16
1001
ACAD_DSTYLE_DIM_EXT1_LINETYPE
1070
   381
1005
16
1001
ACAD_DSTYLE_DIM_EXT2_LINETYPE
1070
   382
1005
16
0
DIMENSION
5
1DE
100
AcDbEntity
8
2
62
256
6
ByLayer
370
18
48
1
60
0
100
AcDbDimension
2
_U8
10
93.5006
20
-44.629889
30
0
11
46.750307
21
-44.629889
31
0
70
32
71
1
72
1
41
1
210
0
220
0
230
1
3
Standard
100
AcDbAlignedDimension
13
1.3E-05
23
-26.615393
33
0
14
93.5006
24
-11.1633
34
0
50
0
100
AcDbRotatedDimension
1001
ACAD
1000
DSTYLE
1002
{
1070
   371
1070
    13
1070
   372
1070
    13
1070
   170
1070
     0
1070
   144
1040
1.0
1070
   277
1070
     2
1070
   284
1070
     8
1070
   278
1070
    46
1070
   146
1040
1.166664
1070
   345
1005
16
1070
   347
1005
16
1070
   346
1005
16
1070
   344
1005
0
1070
   343
1005
0
1070
   172
1070
     1
1070
    76
1070
     0
1070
    75
1070
     0
1070
   282
1070
     0
1070
   281
1070
     0
1070
    71
1070
     0
1070
    74
1070
     0
1070
   279
1070
     0
1070
   173
1070
     1
1070
   340
1005
101
1070
   271
1070
     1
1070
   272
1070
     3
1070
    77
1070
     1
1070
    73
1070
     1
1070
   171
1070
     4
1070
   274
1070
     4
1070
   177
1070
     7
1070
   176
1070
     7
1070
   178
1070
     7
1070
    78
1070
     8
1070
    48
1040
-0.1
1070
    41
1040
3.175
1070
   147
1040
1.500003
1070
    42
1040
1.5875
1070
    44
1040
3.175
1070
   140
1040
3.000007
1002
}
1001
ACAD_DSTYLE_DIM_LINETYPE
1070
   380
1005
16
1001
ACAD_DSTYLE_DIM_EXT1_LINETYPE
1070
   381
1005
16
1001
ACAD_DSTYLE_DIM_EXT2_LINETYPE
1070
   382
1005
16
0
DIMENSION
5
1F7
100
AcDbEntity
8
SK2
62
256
6
ByLayer
370
18
48
1
60
0
100
AcDbDimension
2
_U9
10
35.004005
20
52.768041
30
0
11
17.502009
21
52.768041
31
0
70
32
71
1
72
1
41
1
210
0
220
0
230
1
3
Standard
100
AcDbAlignedDimension
13
1.3E-05
23
25.459679
33
0
14
35.004005
24
22.225
34
0
50
0
100
AcDbRotatedDimension
1001
ACAD
1000
DSTYLE
1002
{
1070
   371
1070
    13
1070
   372
1070
    13
1070
   170
1070
     0
1070
   144
1040
1.0
1070
   277
1070
     2
1070
   284
1070
     8
1070
   278
1070
    46
1070
   146
1040
1.166664
1070
   345
1005
16
1070
   347
1005
16
1070
   346
1005
16
1070
   344
1005
0
1070
   343
1005
0
1070
   172
1070
     1
1070
    76
1070
     0
1070
    75
1070
     0
1070
   282
1070
     0
1070
   281
1070
     0
1070
    71
1070
     0
1070
    74
1070
     0
1070
   279
1070
     0
1070
   173
1070
     1
1070
   340
1005
101
1070
   271
1070
     0
1070
   272
1070
     3
1070
    77
1070
     1
1070
    73
1070
     1
1070
   171
1070
     4
1070
   274
1070
     4
1070
   177
1070
     7
1070
   176
1070
     7
1070
   178
1070
     7
1070
    78
1070
     8
1070
    48
1040
-0.1
1070
    41
1040
3.175
1070
   147
1040
1.500003
1070
    42
1040
1.5875
1070
    44
1040
3.175
1070
   140
1040
3.000007
1002
}
1001
ACAD_DSTYLE_DIM_LINETYPE
1070
   380
1005
16
1001
ACAD_DSTYLE_DIM_EXT1_LINETYPE
1070
   381
1005
16
1001
ACAD_DSTYLE_DIM_EXT2_LINETYPE
1070
   382
1005
16
0
DIMENSION
5
20F
100
AcDbEntity
8
SK2
62
256
6
ByLayer
370
18
48
1
60
0
100
AcDbDimension
2
_U10
10
38.594005
20
40.582476
30
0
11
71.797003
21
40.582476
31
0
70
32
71
1
72
1
41
1
210
0
220
0
230
1
3
Standard
100
AcDbAlignedDimension
13
105
23
13.385898
33
0
14
38.594005
24
17
34
0
50
0
100
AcDbRotatedDimension
1001
ACAD
1000
DSTYLE
1002
{
1070
   371
1070
    13
1070
   372
1070
    13
1070
   170
1070
     0
1070
   144
1040
1.0
1070
   277
1070
     2
1070
   284
1070
     8
1070
   278
1070
    46
1070
   146
1040
1.166664
1070
   345
1005
16
1070
   347
1005
16
1070
   346
1005
16
1070
   344
1005
0
1070
   343
1005
0
1070
   172
1070
     1
1070
    76
1070
     0
1070
    75
1070
     0
1070
   282
1070
     0
1070
   281
1070
     0
1070
    71
1070
     0
1070
    74
1070
     0
1070
   279
1070
     0
1070
   173
1070
     1
1070
   340
1005
101
1070
   271
1070
     1
1070
   272
1070
     3
1070
    77
1070
     1
1070
    73
1070
     1
1070
   171
1070
     4
1070
   274
1070
     4
1070
   177
1070
     7
1070
   176
1070
     7
1070
   178
1070
     7
1070
    78
1070
     8
1070
    48
1040
-0.1
1070
    41
1040
3.175
1070
   147
1040
1.500003
1070
    42
1040
1.5875
1070
    44
1040
3.175
1070
   140
1040
3.000007
1002
}
1001
ACAD_DSTYLE_DIM_LINETYPE
1070
   380
1005
16
1001
ACAD_DSTYLE_DIM_EXT1_LINETYPE
1070
   381
1005
16
1001
ACAD_DSTYLE_DIM_EXT2_LINETYPE
1070
   382
1005
16
0
ENDSEC
0
SECTION
2
OBJECTS
0
DICTIONARY
5
298
330
0
100
AcDbDictionary
280
0
281
1
3
ACAD_GROUP
350
299
3
ACAD_MLINESTYLE
350
29a
0
DICTIONARY
5
299
330
0
100
AcDbDictionary
280
0
281
1
0
DICTIONARY
5
29a
330
0
100
AcDbDictionary
280
0
281
1
3
Standard
350
18
0
MLINESTYLE
5
18
330
29a
100
AcDbMlineStyle
2
Standard
70
0
3

62
256
51
90
52
90
71
2
49
-0.5
62
256
6
ByLayer
49
0.5
62
256
6
ByLayer
0
RASTERVARIABLES
5
285
330

100
AcDbRasterVariables
90
0
70
1
71
1
72
1
0
ENDSEC
0
EOF
