0
SECTION
2
HEADER
9
$ACADVER
1
AC1015
9
$DWGCODEPAGE
3
ANSI_1252
9
$HANDSEED
5
280
9
$ANGBASE
50
0
9
$ANGDIR
70
0
9
$ATTMODE
70
1
9
$AUNITS
70
0
9
$AUPREC
70
0
9
$CECOLOR
62
256
9
$CELTSCALE
40
1
9
$CELTYPE
6
ByLayer
9
$CELWEIGHT
370
18
9
$CLAYER
8
0
9
$CMLJUST
70
0
9
$CMLSCALE
40
1
9
$CMLSTYLE
2
Standard
9
$DIMSTYLE
2
Standard
9
$TEXTSIZE
40
0.2
9
$TEXTSTYLE
7
Standard
9
$LUNITS
70
2
9
$LUPREC
70
4
9
$EXTNAMES
290
1
9
$INSUNITS
70
4
9
$LTSCALE
40
1
9
$LWDISPLAY
290
1
9
$PDMODE
70
0
9
$PDSIZE
40
0
9
$PLINEGEN
70
0
0
ENDSEC
0
SECTION
2
CLASSES
0
CLASS
1
RASTERVARIABLES
2
AcDbRasterVariables
3
ISM
90
0
280
0
281
0
0
ENDSEC
0
SECTION
2
TABLES
0
TABLE
2
VPORT
5
276
100
AcDbSymbolTable
0
VPORT
5
1
100
AcDbSymbolTableRecord
100
AcDbViewportTableRecord
2
*Active
70
0
10
0
20
0
11
1
21
1
12
-1
22
1
13
0
23
0
14
0.5
24
0.5
15
10
25
10
16
0
26
0
36
1
17
0
27
0
37
0
0
ENDTAB
0
TABLE
2
LTYPE
5
277
100
AcDbSymbolTable
0
LTYPE
5
14
100
AcDbSymbolTableRecord
100
AcDbLinetypeTableRecord
70
0
2
ByBlock
3

72
65
73
0
40
0
0
LTYPE
5
15
100
AcDbSymbolTableRecord
100
AcDbLinetypeTableRecord
70
0
2
ByLayer
3

72
65
73
0
40
0
0
LTYPE
5
16
100
AcDbSymbolTableRecord
100
AcDbLinetypeTableRecord
70
0
2
Continuous
3
Solid line
72
65
73
0
40
0
0
LTYPE
5
6E
100
AcDbSymbolTableRecord
100
AcDbLinetypeTableRecord
70
0
2
CENTER
3
____ _ ____ _ ____ _ ____
72
65
73
4
40
47.5
49
22
74
0
49
-8.5
74
0
49
8.5
74
0
49
-8.5
74
0
0
LTYPE
5
6F
100
AcDbSymbolTableRecord
100
AcDbLinetypeTableRecord
70
0
2
DASHED
3
__ __ __ __ __ __ __ __ __
72
65
73
2
40
25.72
49
12.86
74
0
49
-12.86
74
0
0
ENDTAB
0
TABLE
2
LAYER
5
278
100
AcDbSymbolTable
0
LAYER
5
10
100
AcDbSymbolTableRecord
100
AcDbLayerTableRecord
2
0
70
0
62
7
6
Continuous
290
1
370
-3
390
0
0
LAYER
5
71
100
AcDbSymbolTableRecord
100
AcDbLayerTableRecord
2
80
70
0
62
-6
6
Continuous
290
1
370
-3
390
0
0
LAYER
5
73
100
AcDbSymbolTableRecord
100
AcDbLayerTableRecord
2
1
70
0
62
4
6
Continuous
290
1
370
-3
390
0
0
LAYER
5
75
100
AcDbSymbolTableRecord
100
AcDbLayerTableRecord
2
81
70
0
62
-3
6
Continuous
290
1
370
-3
390
0
0
LAYER
5
7C
100
AcDbSymbolTableRecord
100
AcDbLayerTableRecord
2
4
70
0
62
-2
6
CENTER
290
1
370
-3
390
0
0
LAYER
5
BF
100
AcDbSymbolTableRecord
100
AcDbLayerTableRecord
2
2
70
0
62
7
6
Continuous
290
1
370
-3
390
0
0
LAYER
5
1BB
100
AcDbSymbolTableRecord
100
AcDbLayerTableRecord
2
Defpoints
70
0
62
7
6
Continuous
290
0
370
-3
390
0
0
LAYER
5
262
100
AcDbSymbolTableRecord
100
AcDbLayerTableRecord
2
SK4
70
0
62
2
6
CENTER
290
1
370
-3
390
0
0
LAYER
5
263
100
AcDbSymbolTableRecord
100
AcDbLayerTableRecord
2
SK1
70
0
62
4
6
Continuous
290
1
370
-3
390
0
0
LAYER
5
264
100
AcDbSymbolTableRecord
100
AcDbLayerTableRecord
2
SK2
70
0
62
7
6
Continuous
290
1
370
-3
390
0
0
LAYER
5
265
100
AcDbSymbolTableRecord
100
AcDbLayerTableRecord
2
SK6
70
0
62
5
6
Continuous
290
1
370
-3
390
0
0
ENDTAB
0
TABLE
2
STYLE
5
279
100
AcDbSymbolTable
0
STYLE
5
11
100
AcDbSymbolTableRecord
100
AcDbTextStyleTableRecord
2
Standard
3
txt
70
0
71
0
40
0
41
1
42
0
50
0
0
STYLE
5
197
100
AcDbSymbolTableRecord
100
AcDbTextStyleTableRecord
2
iso_b_vert
3
simplex.shx
70
0
71
0
40
0
41
1
42
0
50
0
0
STYLE
5
198
100
AcDbSymbolTableRecord
100
AcDbTextStyleTableRecord
2
DWGDirectTextStyle
3
simplex
70
0
71
0
40
0
41
1
42
0
50
0
0
ENDTAB
0
TABLE
2
DIMSTYLE
5
27a
100
AcDbSymbolTable
100
AcDbDimStyleTable
0
DIMSTYLE
105
27
100
AcDbSymbolTableRecord
100
AcDbDimStyleTableRecord
2
Standard
70
0
3
<>
41
0.18
42
0.0625
44
0.18
140
0.18
147
0.09
73
0
74
0
77
1
271
2
275
0
278
52
280
0
340
11
0
ENDTAB
0
TABLE
2
VIEW
5
27b
100
AcDbSymbolTable
0
ENDTAB
0
TABLE
2
UCS
5
27c
100
AcDbSymbolTable
0
ENDTAB
0
TABLE
2
APPID
5
27d
100
AcDbSymbolTable
0
APPID
5
12
100
AcDbSymbolTableRecord
100
AcDbRegAppTableRecord
2
ACAD
70
0
0
APPID
5
1B7
100
AcDbSymbolTableRecord
100
AcDbRegAppTableRecord
2
ACAD_DSTYLE_DIMBREAK
70
0
0
APPID
5
221
100
AcDbSymbolTableRecord
100
AcDbRegAppTableRecord
2
ACAD_DSTYLE_DIM_LINETYPE
70
0
0
APPID
5
222
100
AcDbSymbolTableRecord
100
AcDbRegAppTableRecord
2
ACAD_DSTYLE_DIM_EXT1_LINETYPE
70
0
0
APPID
5
223
100
AcDbSymbolTableRecord
100
AcDbRegAppTableRecord
2
ACAD_DSTYLE_DIM_EXT2_LINETYPE
70
0
0
APPID
5
25E
100
AcDbSymbolTableRecord
100
AcDbRegAppTableRecord
2
ACAD_MLEADERVER
70
0
0
ENDTAB
0
TABLE
2
BLOCK_RECORD
5
27e
100
AcDbSymbolTable
0
BLOCK_RECORD
5
1F
100
AcDbSymbolTableRecord
100
AcDbBlockTableRecord
2
*Model_Space
340
0
70
0
0
BLOCK_RECORD
5
1B
100
AcDbSymbolTableRecord
100
AcDbBlockTableRecord
2
*Paper_Space
340
0
70
0
0
BLOCK_RECORD
5
23
100
AcDbSymbolTableRecord
100
AcDbBlockTableRecord
2
*Paper_Space0
340
0
70
0
0
BLOCK_RECORD
5
1BC
100
AcDbSymbolTableRecord
100
AcDbBlockTableRecord
2
*D1
340
0
70
0
0
BLOCK_RECORD
5
1C9
100
AcDbSymbolTableRecord
100
AcDbBlockTableRecord
2
_U0
340
0
70
0
0
BLOCK_RECORD
5
1D5
100
AcDbSymbolTableRecord
100
AcDbBlockTableRecord
2
*D3
340
0
70
0
0
BLOCK_RECORD
5
1E1
100
AcDbSymbolTableRecord
100
AcDbBlockTableRecord
2
_U1
340
0
70
0
0
BLOCK_RECORD
5
1ED
100
AcDbSymbolTableRecord
100
AcDbBlockTableRecord
2
*D5
340
0
70
0
0
BLOCK_RECORD
5
1F9
100
AcDbSymbolTableRecord
100
AcDbBlockTableRecord
2
_U2
340
0
70
0
0
ENDTAB
0
ENDSEC
0
SECTION
2
BLOCKS
0
BLOCK
5
20
100
AcDbEntity
8
0
100
AcDbBlockBegin
2
*Model_Space
70
0
10
0
20
0
30
0
3
*Model_Space
0
ENDBLK
5
21
100
AcDbEntity
8
0
100
AcDbBlockEnd
0
BLOCK
5
1C
100
AcDbEntity
8
0
100
AcDbBlockBegin
2
*Paper_Space
70
0
10
0
20
0
30
0
3
*Paper_Space
0
ENDBLK
5
1D
100
AcDbEntity
8
0
100
AcDbBlockEnd
0
BLOCK
5
24
100
AcDbEntity
8
0
100
AcDbBlockBegin
2
*Paper_Space0
70
0
10
0
20
0
30
0
3
*Paper_Space0
0
ENDBLK
5
25
100
AcDbEntity
8
0
100
AcDbBlockEnd
0
BLOCK
5
1BD
100
AcDbEntity
8
0
100
AcDbBlockBegin
2
*D1
70
1
10
0
20
0
30
0
3
*D1
0
LINE
5
1BF
100
AcDbEntity
8
0
62
256
6
ByLayer
370
-2
48
1
60
0
100
AcDbLine
10
83.312
20
9.525
30
0
11
83.312
21
22.1875
31
0
39
0
210
0
220
0
230
1
0
LINE
5
1C0
100
AcDbEntity
8
0
62
256
6
ByLayer
370
-2
48
1
60
0
100
AcDbLine
10
74.312
20
9.525
30
0
11
74.312
21
22.1875
31
0
39
0
210
0
220
0
230
1
0
LINE
5
1C1
100
AcDbEntity
8
0
62
256
6
ByLayer
370
-2
48
1
60
0
100
AcDbLine
10
86.812
20
20.1875
30
0
11
90.312
21
20.1875
31
0
39
0
210
0
220
0
230
1
0
LINE
5
1C2
100
AcDbEntity
8
0
62
256
6
ByLayer
370
-2
48
1
60
0
100
AcDbLine
10
70.812
20
20.1875
30
0
11
67.312
21
20.1875
31
0
39
0
210
0
220
0
230
1
0
SOLID
5
1C3
100
AcDbEntity
8
0
62
256
6
ByLayer
370
-1
48
1
60
0
100
AcDbTrace
10
86.812
20
20.770833
30
0
11
86.812
21
19.604167
31
0
12
83.312
22
20.1875
32
0
13
83.312
23
20.1875
33
0
39
0
210
0
220
0
230
1
0
SOLID
5
1C4
100
AcDbEntity
8
0
62
256
6
ByLayer
370
-1
48
1
60
0
100
AcDbTrace
10
70.812
20
19.604167
30
0
11
70.812
21
20.770833
31
0
12
74.312
22
20.1875
32
0
13
74.312
23
20.1875
33
0
39
0
210
0
220
0
230
1
0
MTEXT
5
1C5
100
AcDbEntity
8
0
62
256
6
ByLayer
370
18
48
1
60
0
100
AcDbMText
10
78.812
20
27.1875
30
0
210
0
220
0
230
1
1
\A1;9
40
3.5
41
0
44
1
50
0
71
5
72
5
7
iso_b_vert
0
POINT
5
1C6
100
AcDbEntity
8
Defpoints
62
0
6
ByLayer
370
-1
48
1
60
0
100
AcDbPoint
10
83.312
20
7.9375
30
0
39
0
210
0
220
0
230
1
50
360
0
POINT
5
1C7
100
AcDbEntity
8
Defpoints
62
0
6
ByLayer
370
-1
48
1
60
0
100
AcDbPoint
10
74.312
20
7.9375
30
0
39
0
210
0
220
0
230
1
50
360
0
POINT
5
1C8
100
AcDbEntity
8
Defpoints
62
0
6
ByLayer
370
-1
48
1
60
0
100
AcDbPoint
10
74.312
20
20.1875
30
0
39
0
210
0
220
0
230
1
50
360
0
ENDBLK
5
1BE
100
AcDbEntity
8
0
100
AcDbBlockEnd
0
BLOCK
5
1D0
100
AcDbEntity
8
0
100
AcDbBlockBegin
2
_U0
70
0
10
0
20
0
30
0
3
_U0
0
MTEXT
5
1CA
100
AcDbEntity
8
2
62
256
6
ByLayer
370
18
48
1
60
0
100
AcDbMText
10
78.214767
20
21.220134
30
0
210
0
220
0
230
1
1
\W0.5742;9
40
3.5
41
0
44
1.084337
50
0
71
7
72
5
7
iso_b_vert
0
LINE
5
1CB
100
AcDbEntity
8
2
62
256
6
ByLayer
370
13
48
1
60
0
100
AcDbLine
10
83.312
20
9.525
30
0
11
83.312
21
22.1875
31
0
39
0
210
0
220
0
230
1
0
LINE
5
1CC
100
AcDbEntity
8
2
62
256
6
ByLayer
370
13
48
1
60
0
100
AcDbLine
10
74.312
20
9.525
30
0
11
74.312
21
22.1875
31
0
39
0
210
0
220
0
230
1
0
LINE
5
1CD
100
AcDbEntity
8
2
62
256
6
ByLayer
370
13
48
1
60
0
100
AcDbLine
10
83.312
20
20.1875
30
0
11
74.312
21
20.1875
31
0
39
0
210
0
220
0
230
1
0
SOLID
5
1CE
100
AcDbEntity
8
2
62
256
6
ByLayer
370
18
48
1
60
0
100
AcDbTrace
10
83.312
20
20.1875
30
0
11
79.812002
21
19.726716
31
0
12
79.811998
22
20.648284
32
0
13
79.811998
23
20.648284
33
0
39
0
210
0
220
0
230
1
0
SOLID
5
1CF
100
AcDbEntity
8
2
62
256
6
ByLayer
370
18
48
1
60
0
100
AcDbTrace
10
74.312
20
20.1875
30
0
11
77.811998
21
20.648284
31
0
12
77.812002
22
19.726716
32
0
13
77.812002
23
19.726716
33
0
39
0
210
0
220
0
230
1
0
ENDBLK
5
1D1
100
AcDbEntity
8
0
100
AcDbBlockEnd
0
BLOCK
5
1D6
100
AcDbEntity
8
0
100
AcDbBlockBegin
2
*D3
70
1
10
0
20
0
30
0
3
*D3
0
LINE
5
1D8
100
AcDbEntity
8
0
62
256
6
ByLayer
370
-2
48
1
60
0
100
AcDbLine
10
83.312
20
9.525
30
0
11
83.312
21
32.1875
31
0
39
0
210
0
220
0
230
1
0
LINE
5
1D9
100
AcDbEntity
8
0
62
256
6
ByLayer
370
-2
48
1
60
0
100
AcDbLine
10
57.912
20
9.525
30
0
11
57.912
21
32.1875
31
0
39
0
210
0
220
0
230
1
0
LINE
5
1DA
100
AcDbEntity
8
0
62
256
6
ByLayer
370
-2
48
1
60
0
100
AcDbLine
10
79.812
20
30.1875
30
0
11
61.412
21
30.1875
31
0
39
0
210
0
220
0
230
1
0
SOLID
5
1DB
100
AcDbEntity
8
0
62
256
6
ByLayer
370
-1
48
1
60
0
100
AcDbTrace
10
79.812
20
29.604167
30
0
11
79.812
21
30.770833
31
0
12
83.312
22
30.1875
32
0
13
83.312
23
30.1875
33
0
39
0
210
0
220
0
230
1
0
SOLID
5
1DC
100
AcDbEntity
8
0
62
256
6
ByLayer
370
-1
48
1
60
0
100
AcDbTrace
10
61.412
20
30.770833
30
0
11
61.412
21
29.604167
31
0
12
57.912
22
30.1875
32
0
13
57.912
23
30.1875
33
0
39
0
210
0
220
0
230
1
0
MTEXT
5
1DD
100
AcDbEntity
8
0
62
256
6
ByLayer
370
18
48
1
60
0
100
AcDbMText
10
70.612
20
37.1875
30
0
210
0
220
0
230
1
1
\A1;25.4
40
3.5
41
0
44
1
50
0
71
5
72
5
7
iso_b_vert
0
POINT
5
1DE
100
AcDbEntity
8
Defpoints
62
0
6
ByLayer
370
-1
48
1
60
0
100
AcDbPoint
10
83.312
20
7.9375
30
0
39
0
210
0
220
0
230
1
50
360
0
POINT
5
1DF
100
AcDbEntity
8
Defpoints
62
0
6
ByLayer
370
-1
48
1
60
0
100
AcDbPoint
10
57.912
20
7.9375
30
0
39
0
210
0
220
0
230
1
50
360
0
POINT
5
1E0
100
AcDbEntity
8
Defpoints
62
0
6
ByLayer
370
-1
48
1
60
0
100
AcDbPoint
10
57.912
20
30.1875
30
0
39
0
210
0
220
0
230
1
50
360
0
ENDBLK
5
1D7
100
AcDbEntity
8
0
100
AcDbBlockEnd
0
BLOCK
5
1E8
100
AcDbEntity
8
0
100
AcDbBlockBegin
2
_U1
70
0
10
0
20
0
30
0
3
_U1
0
MTEXT
5
1E2
100
AcDbEntity
8
2
62
256
6
ByLayer
370
18
48
1
60
0
100
AcDbMText
10
66.506034
20
31.220134
30
0
210
0
220
0
230
1
1
\W0.7528;25.4
40
3.5
41
0
44
1.084337
50
0
71
7
72
5
7
iso_b_vert
0
LINE
5
1E3
100
AcDbEntity
8
2
62
256
6
ByLayer
370
13
48
1
60
0
100
AcDbLine
10
83.312
20
9.525
30
0
11
83.312
21
32.1875
31
0
39
0
210
0
220
0
230
1
0
LINE
5
1E4
100
AcDbEntity
8
2
62
256
6
ByLayer
370
13
48
1
60
0
100
AcDbLine
10
57.912
20
9.525
30
0
11
57.912
21
32.1875
31
0
39
0
210
0
220
0
230
1
0
LINE
5
1E5
100
AcDbEntity
8
2
62
256
6
ByLayer
370
13
48
1
60
0
100
AcDbLine
10
83.312
20
30.1875
30
0
11
57.912
21
30.1875
31
0
39
0
210
0
220
0
230
1
0
SOLID
5
1E6
100
AcDbEntity
8
2
62
256
6
ByLayer
370
18
48
1
60
0
100
AcDbTrace
10
83.312
20
30.1875
30
0
11
79.812002
21
29.726716
31
0
12
79.811998
22
30.648284
32
0
13
79.811998
23
30.648284
33
0
39
0
210
0
220
0
230
1
0
SOLID
5
1E7
100
AcDbEntity
8
2
62
256
6
ByLayer
370
18
48
1
60
0
100
AcDbTrace
10
57.912
20
30.1875
30
0
11
61.411998
21
30.648284
31
0
12
61.412002
22
29.726716
32
0
13
61.412002
23
29.726716
33
0
39
0
210
0
220
0
230
1
0
ENDBLK
5
1E9
100
AcDbEntity
8
0
100
AcDbBlockEnd
0
BLOCK
5
1EE
100
AcDbEntity
8
0
100
AcDbBlockBegin
2
*D5
70
1
10
0
20
0
30
0
3
*D5
0
LINE
5
1F0
100
AcDbEntity
8
0
62
256
6
ByLayer
370
-2
48
1
60
0
100
AcDbLine
10
83.312
20
-9.525
30
0
11
83.312
21
-25.6875
31
0
39
0
210
0
220
0
230
1
0
LINE
5
1F1
100
AcDbEntity
8
0
62
256
6
ByLayer
370
-2
48
1
60
0
100
AcDbLine
10
51.562
20
-11.10925
30
0
11
51.562
21
-25.6875
31
0
39
0
210
0
220
0
230
1
0
LINE
5
1F2
100
AcDbEntity
8
0
62
256
6
ByLayer
370
-2
48
1
60
0
100
AcDbLine
10
79.812
20
-23.6875
30
0
11
55.062
21
-23.6875
31
0
39
0
210
0
220
0
230
1
0
SOLID
5
1F3
100
AcDbEntity
8
0
62
256
6
ByLayer
370
-1
48
1
60
0
100
AcDbTrace
10
79.812
20
-24.270833
30
0
11
79.812
21
-23.104167
31
0
12
83.312
22
-23.6875
32
0
13
83.312
23
-23.6875
33
0
39
0
210
0
220
0
230
1
0
SOLID
5
1F4
100
AcDbEntity
8
0
62
256
6
ByLayer
370
-1
48
1
60
0
100
AcDbTrace
10
55.062
20
-23.104167
30
0
11
55.062
21
-24.270833
31
0
12
51.562
22
-23.6875
32
0
13
51.562
23
-23.6875
33
0
39
0
210
0
220
0
230
1
0
MTEXT
5
1F5
100
AcDbEntity
8
0
62
256
6
ByLayer
370
18
48
1
60
0
100
AcDbMText
10
67.437
20
-16.6875
30
0
210
0
220
0
230
1
1
\A1;31.75
40
3.5
41
0
44
1
50
0
71
5
72
5
7
iso_b_vert
0
POINT
5
1F6
100
AcDbEntity
8
Defpoints
62
0
6
ByLayer
370
-1
48
1
60
0
100
AcDbPoint
10
83.312
20
-7.9375
30
0
39
0
210
0
220
0
230
1
50
360
0
POINT
5
1F7
100
AcDbEntity
8
Defpoints
62
0
6
ByLayer
370
-1
48
1
60
0
100
AcDbPoint
10
51.562
20
-9.52175
30
0
39
0
210
0
220
0
230
1
50
360
0
POINT
5
1F8
100
AcDbEntity
8
Defpoints
62
0
6
ByLayer
370
-1
48
1
60
0
100
AcDbPoint
10
51.562
20
-23.6875
30
0
39
0
210
0
220
0
230
1
50
360
0
ENDBLK
5
1EF
100
AcDbEntity
8
0
100
AcDbBlockEnd
0
BLOCK
5
201
100
AcDbEntity
8
0
100
AcDbBlockBegin
2
_U2
70
0
10
0
20
0
30
0
3
_U2
0
MTEXT
5
1FA
100
AcDbEntity
8
SK2
62
256
6
ByLayer
370
18
48
1
60
0
100
AcDbMText
10
54.374469
20
-22.654866
30
0
210
0
220
0
230
1
1
\W0.7298;OHX =
40
3.5
41
0
44
1.084337
50
0
71
7
72
5
7
iso_b_vert
0
MTEXT
5
1FB
100
AcDbEntity
8
SK2
62
256
6
ByLayer
370
18
48
1
60
0
100
AcDbMText
10
70.915534
20
-22.654866
30
0
210
0
220
0
230
1
1
\W0.6864;31.75
40
3.5
41
0
44
1.084337
50
0
71
7
72
5
7
iso_b_vert
0
LINE
5
1FC
100
AcDbEntity
8
SK2
62
256
6
ByLayer
370
13
48
1
60
0
100
AcDbLine
10
83.312
20
-9.525
30
0
11
83.312
21
-25.6875
31
0
39
0
210
0
220
0
230
1
0
LINE
5
1FD
100
AcDbEntity
8
SK2
62
256
6
ByLayer
370
13
48
1
60
0
100
AcDbLine
10
51.562
20
-11.10925
30
0
11
51.562
21
-25.6875
31
0
39
0
210
0
220
0
230
1
0
LINE
5
1FE
100
AcDbEntity
8
SK2
62
256
6
ByLayer
370
13
48
1
60
0
100
AcDbLine
10
83.312
20
-23.6875
30
0
11
51.562
21
-23.6875
31
0
39
0
210
0
220
0
230
1
0
SOLID
5
1FF
100
AcDbEntity
8
SK2
62
256
6
ByLayer
370
18
48
1
60
0
100
AcDbTrace
10
83.312
20
-23.6875
30
0
11
79.812002
21
-24.148284
31
0
12
79.811998
22
-23.226716
32
0
13
79.811998
23
-23.226716
33
0
39
0
210
0
220
0
230
1
0
SOLID
5
200
100
AcDbEntity
8
SK2
62
256
6
ByLayer
370
18
48
1
60
0
100
AcDbTrace
10
51.562
20
-23.6875
30
0
11
55.061998
21
-23.226716
31
0
12
55.062002
22
-24.148284
32
0
13
55.062002
23
-24.148284
33
0
39
0
210
0
220
0
230
1
0
ENDBLK
5
202
100
AcDbEntity
8
0
100
AcDbBlockEnd
0
ENDSEC
0
SECTION
2
ENTITIES
0
ARC
5
D1
100
AcDbEntity
8
1
62
256
6
ByLayer
370
18
48
1
60
0
100
AcDbCircle
39
0
10
57.512
20
-7.9025
30
0
40
0.8
210
0
220
0
230
1
100
AcDbArc
50
90
51
180
0
ARC
5
D2
100
AcDbEntity
8
1
62
256
6
ByLayer
370
18
48
1
60
0
100
AcDbCircle
39
0
10
57.512
20
7.9025
30
0
40
0.8
210
0
220
0
230
1
100
AcDbArc
50
180
51
270
0
ELLIPSE
5
D3
100
AcDbEntity
8
1
62
256
6
ByLayer
370
13
48
1
60
0
100
AcDbEllipse
10
72.870377
20
4.534751
30
0
11
0.922026005824031
21
-0.387127943429797
31
0
210
0
220
0
230
1
40
0.19869
41
-1.81445357251191
42
-1.39543367226495
0
ELLIPSE
5
D4
100
AcDbEntity
8
1
62
256
6
ByLayer
370
13
48
1
60
0
100
AcDbEllipse
10
72.734219
20
4.027294
30
0
11
0.992183928395458
21
-0.124784022349643
31
0
210
0
220
0
230
1
40
0.249841
41
-1.89940919442053
42
-1.3404283108475
0
ELLIPSE
5
D5
100
AcDbEntity
8
1
62
256
6
ByLayer
370
18
48
1
60
0
100
AcDbEllipse
10
75.392323
20
-7.509136
30
0
11
3.03308532929961
21
2.22130584167341
31
0
210
0
220
0
230
1
40
0.314365
41
1.65266442908915
42
1.68712059505325
0
ELLIPSE
5
D6
100
AcDbEntity
8
1
62
256
6
ByLayer
370
18
48
1
60
0
100
AcDbEllipse
10
72.786675
20
-9.919222
30
0
11
12.1778689257734
21
12.0337814661194
31
0
210
0
220
0
230
1
40
0.065157
41
1.33598682589207
42
1.35763860964243
0
ELLIPSE
5
D7
100
AcDbEntity
8
1
62
256
6
ByLayer
370
18
48
1
60
0
100
AcDbEllipse
10
113.556779
20
-8.720387
30
0
11
57.6884254439338
21
-3.41963548575233
31
0
210
0
220
0
230
1
40
0.007529
41
2.15262063334329
42
2.27012063251678
0
ELLIPSE
5
D8
100
AcDbEntity
8
1
62
256
6
ByLayer
370
13
48
1
60
0
100
AcDbEllipse
10
79.038677
20
-2.287302
30
0
11
-1.75
21
6.43155504981979E-15
31
0
210
0
220
0
230
1
40
0.267161
41
0.119970739860594
42
0.602568424284966
0
ELLIPSE
5
D9
100
AcDbEntity
8
1
62
256
6
ByLayer
370
18
48
1
60
0
100
AcDbEllipse
10
78.885761
20
-2.597613
30
0
11
-1.16610218586238
21
0.574635268781064
31
0
210
0
220
0
230
1
40
0.955408
41
-2.70156967051393
42
0.440022983075807
0
ELLIPSE
5
DA
100
AcDbEntity
8
1
62
256
6
ByLayer
370
13
48
1
60
0
100
AcDbEllipse
10
79.038677
20
-2.287302
30
0
11
-1.75
21
6.43155504981979E-15
31
0
210
0
220
0
230
1
40
0.267161
41
2.27722484150574
42
3.00964233073592
0
ELLIPSE
5
DB
100
AcDbEntity
8
1
62
256
6
ByLayer
370
18
48
1
60
0
100
AcDbEllipse
10
79.038677
20
-2.287302
30
0
11
1.569752942507
21
-0.773547477205286
31
0
210
0
220
0
230
1
40
0.955408
41
3.14157715895208
42
-3.12360126804813
0
ELLIPSE
5
DC
100
AcDbEntity
8
1
62
256
6
ByLayer
370
13
48
1
60
0
100
AcDbEllipse
10
79.038677
20
-2.287302
30
0
11
1.569752942507
21
-0.773547477205286
31
0
210
0
220
0
230
1
40
0.955408
41
0.441599657581846
42
3.1415775956833
0
ELLIPSE
5
DD
100
AcDbEntity
8
1
62
256
6
ByLayer
370
18
48
1
60
0
100
AcDbEllipse
10
78.958734
20
-2.907149
30
0
11
-0.941851765504201
21
0.464128486323153
31
0
210
0
220
0
230
1
40
0.955408
41
0
42
6.28318530717959
0
ELLIPSE
5
DE
100
AcDbEntity
8
1
62
256
6
ByLayer
370
18
48
1
60
0
100
AcDbEllipse
10
78.338734
20
4.165309
30
0
11
0.891978472016547
21
0.439551777904523
31
0
210
0
220
0
230
1
40
0.955408
41
0.096812974604445
42
0.607174568120759
0
ELLIPSE
5
DF
100
AcDbEntity
8
1
62
256
6
ByLayer
370
18
48
1
60
0
100
AcDbEllipse
10
78.338734
20
4.165309
30
0
11
0.891978472016547
21
0.439551777904523
31
0
210
0
220
0
230
1
40
0.955408
41
0.607174568120734
42
1.65437211931734
0
ELLIPSE
5
E0
100
AcDbEntity
8
1
62
256
6
ByLayer
370
18
48
1
60
0
100
AcDbEllipse
10
78.338734
20
4.165309
30
0
11
0.891978472016547
21
0.439551777904523
31
0
210
0
220
0
230
1
40
0.955408
41
1.65437211931736
42
2.70156967051394
0
ELLIPSE
5
E1
100
AcDbEntity
8
1
62
256
6
ByLayer
370
18
48
1
60
0
100
AcDbEllipse
10
78.338734
20
4.165309
30
0
11
-0.891978472016547
21
-0.439551777904523
31
0
210
0
220
0
230
1
40
0.955408
41
-0.440022983075846
42
0.00184564454183984
0
ELLIPSE
5
E2
100
AcDbEntity
8
1
62
256
6
ByLayer
370
18
48
1
60
0
100
AcDbEllipse
10
77.772768
20
5.098205
30
0
11
0.259972593750958
21
0.15429161633631
31
0
210
0
220
0
230
1
40
0.465658
41
-2.85316673820724
42
-1.56628207764868
0
ELLIPSE
5
E3
100
AcDbEntity
8
1
62
256
6
ByLayer
370
18
48
1
60
0
100
AcDbEllipse
10
77.772768
20
5.098205
30
0
11
0.259972593752804
21
0.154291616335843
31
0
210
0
220
0
230
1
40
0.465658
41
-1.56628207763831
42
-0.27939741708446
0
ELLIPSE
5
E4
100
AcDbEntity
8
1
62
256
6
ByLayer
370
18
48
1
60
0
100
AcDbEllipse
10
78.338734
20
5.265558
30
0
11
0.299744173847574
21
0.013582438445806
31
0
210
0
220
0
230
1
40
0.472695
41
0.745292306237343
42
-3.00213574778025
0
ELLIPSE
5
E5
100
AcDbEntity
8
1
62
256
6
ByLayer
370
18
48
1
60
0
100
AcDbEllipse
10
77.358409
20
4.680953
30
0
11
0.153213708348759
21
0.255781217010963
31
0
210
0
220
0
230
1
40
0.478717
41
-0.134301980514573
42
2.11643462503825
0
ELLIPSE
5
E6
100
AcDbEntity
8
1
62
256
6
ByLayer
370
18
48
1
60
0
100
AcDbEllipse
10
78.904701
20
5.138017
30
0
11
0.261586535614036
21
-0.133007926000801
31
0
210
0
220
0
230
1
40
0.49417
41
-2.56460115425772
42
-1.59877212345887
0
ELLIPSE
5
E7
100
AcDbEntity
8
1
62
256
6
ByLayer
370
18
48
1
60
0
100
AcDbEllipse
10
78.904701
20
5.138017
30
0
11
0.261586535614162
21
-0.133007926001379
31
0
210
0
220
0
230
1
40
0.49417
41
-1.59877212345535
42
-0.311887462896963
0
ELLIPSE
5
E8
100
AcDbEntity
8
1
62
256
6
ByLayer
370
18
48
1
60
0
100
AcDbEllipse
10
77.206802
20
4.125496
30
0
11
0.0034361301569131
21
0.291448501749038
31
0
210
0
220
0
230
1
40
0.500944
41
-2.83415009636052
42
-1.54726543579135
0
ELLIPSE
5
E9
100
AcDbEntity
8
1
62
256
6
ByLayer
370
18
48
1
60
0
100
AcDbEllipse
10
77.206802
20
4.125496
30
0
11
0.0034361301548443
21
0.291448501749962
31
0
210
0
220
0
230
1
40
0.500944
41
-1.54726543580732
42
-0.714589430585839
0
ELLIPSE
5
EA
100
AcDbEntity
8
1
62
256
6
ByLayer
370
18
48
1
60
0
100
AcDbEllipse
10
79.31906
20
4.749914
30
0
11
0.150565153988006
21
-0.246697035127164
31
0
210
0
220
0
230
1
40
0.509489
41
2.22658111145048
42
-2.98594389578932
0
ELLIPSE
5
EB
100
AcDbEntity
8
1
62
256
6
ByLayer
370
18
48
1
60
0
100
AcDbEllipse
10
77.358409
20
3.580704
30
0
11
0.150565153987992
21
-0.246697035127168
31
0
210
0
220
0
230
1
40
0.509489
41
2.9754952877958
42
-2.60679465443667
0
ELLIPSE
5
EC
100
AcDbEntity
8
1
62
256
6
ByLayer
370
18
48
1
60
0
100
AcDbEllipse
10
78.149471
20
4.549378
30
0
11
1.15628001745065
21
0.569795071709398
31
0
210
0
220
0
230
1
40
0.955408
41
-3.05801686106732
42
-2.8627638626856
0
ELLIPSE
5
ED
100
AcDbEntity
8
1
62
256
6
ByLayer
370
18
48
1
60
0
100
AcDbEllipse
10
78.149471
20
4.549378
30
0
11
1.15628001745065
21
0.569795071709398
31
0
210
0
220
0
230
1
40
0.955408
41
2.17797089491565
42
-3.05801686106732
0
ELLIPSE
5
EE
100
AcDbEntity
8
1
62
256
6
ByLayer
370
18
48
1
60
0
100
AcDbEllipse
10
78.149471
20
4.549378
30
0
11
1.15628001745065
21
0.569795071709398
31
0
210
0
220
0
230
1
40
0.955408
41
1.13077334371906
42
2.17797089491565
0
ELLIPSE
5
EF
100
AcDbEntity
8
1
62
256
6
ByLayer
370
18
48
1
60
0
100
AcDbEllipse
10
78.149471
20
4.549378
30
0
11
1.15628001745065
21
0.569795071709398
31
0
210
0
220
0
230
1
40
0.955408
41
0.0835757925224699
42
1.13077334371906
0
ELLIPSE
5
F0
100
AcDbEntity
8
1
62
256
6
ByLayer
370
18
48
1
60
0
100
AcDbEllipse
10
78.149471
20
4.549378
30
0
11
1.15628001745065
21
0.569795071709398
31
0
210
0
220
0
230
1
40
0.955408
41
-0.963621758674161
42
0.0835757925224699
0
ELLIPSE
5
F1
100
AcDbEntity
8
1
62
256
6
ByLayer
370
18
48
1
60
0
100
AcDbEllipse
10
78.149471
20
4.549378
30
0
11
1.15628001745065
21
0.569795071709398
31
0
210
0
220
0
230
1
40
0.955408
41
-1.26420002726601
42
-0.963621758674161
0
ELLIPSE
5
F2
100
AcDbEntity
8
1
62
256
6
ByLayer
370
13
48
1
60
0
100
AcDbEllipse
10
78.149471
20
4.549378
30
0
11
1.34550252214885
21
0.663040694747369
31
0
210
0
220
0
230
1
40
0.955408
41
-1.13441312347986
42
-0.440022904660361
0
ELLIPSE
5
F3
100
AcDbEntity
8
1
62
256
6
ByLayer
370
13
48
1
60
0
100
AcDbEllipse
10
78.149471
20
4.549378
30
0
11
1.34550252214885
21
0.663040694747369
31
0
210
0
220
0
230
1
40
0.955408
41
-0.440022904660354
42
0
0
ELLIPSE
5
F4
100
AcDbEntity
8
1
62
256
6
ByLayer
370
13
48
1
60
0
100
AcDbEllipse
10
78.149471
20
4.549378
30
0
11
1.34550252214885
21
0.663040694747369
31
0
210
0
220
0
230
1
40
0.955408
41
0
42
-2.98147319281257
0
ELLIPSE
5
F5
100
AcDbEntity
8
1
62
256
6
ByLayer
370
18
48
1
60
0
100
AcDbEllipse
10
78.157761
20
4.532557
30
0
11
1.79400336286514
21
0.884054259663159
31
0
210
0
220
0
230
1
40
0.955408
41
-0.947684747084114
42
-0.440023250566741
0
ELLIPSE
5
F6
100
AcDbEntity
8
1
62
256
6
ByLayer
370
18
48
1
60
0
100
AcDbEllipse
10
78.157761
20
4.532557
30
0
11
1.79400336286514
21
0.884054259663159
31
0
210
0
220
0
230
1
40
0.955408
41
-0.440022731707144
42
-4.64816298220302E-16
0
ELLIPSE
5
F7
100
AcDbEntity
8
1
62
256
6
ByLayer
370
18
48
1
60
0
100
AcDbEllipse
10
78.157761
20
4.532557
30
0
11
1.79400336286514
21
0.884054259663159
31
0
210
0
220
0
230
1
40
0.955408
41
0
42
3.11007463027054
0
ELLIPSE
5
F8
100
AcDbEntity
8
1
62
256
6
ByLayer
370
18
48
1
60
0
100
AcDbEllipse
10
78.332208
20
4.178552
30
0
11
1.71017263382956
21
0.842743906166268
31
0
210
0
220
0
230
1
40
0.955408
41
-0.771363040715804
42
-0.440022983266142
0
ELLIPSE
5
F9
100
AcDbEntity
8
1
62
256
6
ByLayer
370
18
48
1
60
0
100
AcDbEllipse
10
78.332208
20
4.178552
30
0
11
1.71017263382956
21
0.842743906166268
31
0
210
0
220
0
230
1
40
0.955408
41
-0.440022983266141
42
-0.228161619504355
0
ELLIPSE
5
FA
100
AcDbEntity
8
1
62
256
6
ByLayer
370
13
48
1
60
0
100
AcDbEllipse
10
78.320229
20
4.202862
30
0
11
1.78504940471632
21
0.879641901801318
31
0
210
0
220
0
230
1
40
0.955408
41
-0.552040219467087
42
-1.40144356775538E-15
0
ELLIPSE
5
FB
100
AcDbEntity
8
1
62
256
6
ByLayer
370
13
48
1
60
0
100
AcDbEllipse
10
78.320229
20
4.202862
30
0
11
1.78504940471632
21
0.879641901801318
31
0
210
0
220
0
230
1
40
0.955408
41
0
42
0.0706820866935625
0
ELLIPSE
5
FC
100
AcDbEntity
8
1
62
256
6
ByLayer
370
13
48
1
60
0
100
AcDbEllipse
10
78.282893
20
4.278626
30
0
11
1.90084090031114
21
0.936701975952954
31
0
210
0
220
0
230
1
40
0.955408
41
2.66288888008421
42
2.70156983760384
0
ELLIPSE
5
FD
100
AcDbEntity
8
1
62
256
6
ByLayer
370
13
48
1
60
0
100
AcDbEllipse
10
78.282893
20
4.278626
30
0
11
1.90084090031114
21
0.936701975952954
31
0
210
0
220
0
230
1
40
0.955408
41
-0.279310799505771
42
-4.38691108753633E-16
0
ELLIPSE
5
FE
100
AcDbEntity
8
1
62
256
6
ByLayer
370
13
48
1
60
0
100
AcDbEllipse
10
78.282893
20
4.278626
30
0
11
1.90084090031114
21
0.936701975952954
31
0
210
0
220
0
230
1
40
0.955408
41
0
42
0.478598536497986
0
ELLIPSE
5
FF
100
AcDbEntity
8
1
62
256
6
ByLayer
370
13
48
1
60
0
100
AcDbEllipse
10
78.282893
20
4.278626
30
0
11
1.90084090031114
21
0.936701975952954
31
0
210
0
220
0
230
1
40
0.955408
41
2.70156983760384
42
2.96104580888814
0
ELLIPSE
5
100
100
AcDbEntity
8
1
62
256
6
ByLayer
370
18
48
1
60
0
100
AcDbEllipse
10
78.152599
20
4.543032
30
0
11
-1.99495236840674
21
-0.983078502315868
31
0
210
0
220
0
230
1
40
0.955408
41
2.23965721293261
42
-0.0718679224357987
0
ELLIPSE
5
101
100
AcDbEntity
8
SK1
62
256
6
ByLayer
370
18
48
1
60
0
100
AcDbEllipse
10
27.554735
20
0
30
0
11
9.68940319403207
21
1.13507033512519E-14
31
0
210
0
220
0
230
1
40
0.982697
41
2.465132431679
42
-2.46513243167901
0
ELLIPSE
5
102
100
AcDbEntity
8
SK1
62
256
6
ByLayer
370
18
48
1
60
0
100
AcDbEllipse
10
24.025265
20
0
30
0
11
9.68940319403207
21
1.13507033512519E-14
31
0
210
0
220
0
230
1
40
0.982697
41
-0.676460221910793
42
0.67646022191079
0
POINT
5
70
100
AcDbEntity
8
80
62
256
6
ByLayer
370
18
48
1
60
0
100
AcDbPoint
10
0
20
0
30
0
39
0
210
0
220
0
230
1
50
360
0
POINT
5
72
100
AcDbEntity
8
1
62
256
6
ByLayer
370
18
48
1
60
0
100
AcDbPoint
10
51.562
20
0
30
0
39
0
210
0
220
0
230
1
50
360
0
POINT
5
74
100
AcDbEntity
8
81
62
256
6
ByLayer
370
18
48
1
60
0
100
AcDbPoint
10
83.312
20
7.9375
30
0
39
0
210
0
220
0
230
1
50
360
0
POINT
5
76
100
AcDbEntity
8
1
62
256
6
ByLayer
370
18
48
1
60
1
100
AcDbPoint
10
74.312
20
7.9375
30
0
39
0
210
0
220
0
230
1
50
360
0
POINT
5
77
100
AcDbEntity
8
1
62
256
6
ByLayer
370
18
48
1
60
1
100
AcDbPoint
10
57.912
20
7.9375
30
0
39
0
210
0
220
0
230
1
50
360
0
POINT
5
78
100
AcDbEntity
8
1
62
256
6
ByLayer
370
18
48
1
60
1
100
AcDbPoint
10
83.312
20
-7.9375
30
0
39
0
210
0
220
0
230
1
50
360
0
POINT
5
79
100
AcDbEntity
8
1
62
256
6
ByLayer
370
18
48
1
60
1
100
AcDbPoint
10
51.562
20
-9.52175
30
0
39
0
210
0
220
0
230
1
50
360
0
SPLINE
5
103
100
AcDbEntity
8
1
62
256
6
ByLayer
370
18
48
1
60
0
100
AcDbSpline
70
4
71
3
72
12
73
8
40
0
40
0
40
0
40
0
40
0.25
40
0.25
40
0.5
40
0.5
40
1
40
1
40
1
40
1
41
1
10
74.3467139505902
20
-6.81989243152347
30
0
41
1
10
74.3314421070747
20
-6.82780072633659
30
0
41
1
10
74.3161303356083
20
-6.83635003777016
30
0
41
1
10
74.2855225330194
20
-6.85468543042236
30
0
41
1
10
74.2703822082647
20
-6.86437672778069
30
0
41
1
10
74.2254272094741
20
-6.89493609535609
30
0
41
1
10
74.1960776229276
20
-6.9172850806068
30
0
41
1
10
74.1672962746723
20
-6.9414496900917
30
0
0
SPLINE
5
104
100
AcDbEntity
8
1
62
256
6
ByLayer
370
18
48
1
60
0
100
AcDbSpline
70
4
71
3
72
8
73
4
40
0
40
0
40
0
40
0
40
1
40
1
40
1
40
1
41
1
10
81.9079984059902
20
-6.4794194402665
30
0
41
1
10
81.8972613418203
20
-6.47923320868389
30
0
41
1
10
81.8864861441913
20
-6.47884667002927
30
0
41
1
10
81.8756728837824
20
-6.47825940925017
30
0
0
SPLINE
5
105
100
AcDbEntity
8
1
62
256
6
ByLayer
370
18
48
1
60
0
100
AcDbSpline
70
4
71
3
72
18
73
14
40
0
40
0
40
0
40
0
40
0.249999999999962
40
0.249999999999962
40
0.312499999999952
40
0.312499999999952
40
0.374999999999942
40
0.374999999999942
40
0.499999999999921
40
0.499999999999921
40
0.74999999999996
40
0.74999999999996
40
1
40
1
40
1
40
1
41
1
10
81.9079984060269
20
-6.47941944035358
30
0
41
1
10
81.9449707199933
20
-6.48006071551214
30
0
41
1
10
81.9813672618574
20
-6.47714077259869
30
0
41
1
10
82.0261397547363
20
-6.46907120036835
30
0
41
1
10
82.0350577362752
20
-6.46723417340604
30
0
41
1
10
82.0528190979507
20
-6.4631059376384
30
0
41
1
10
82.0616644715412
20
-6.46081240056074
30
0
41
1
10
82.0877843119426
20
-6.45332959648394
30
0
41
1
10
82.1047470150992
20
-6.44751767054373
30
0
41
1
10
82.1543160210415
20
-6.4276816654754
30
0
41
1
10
82.185645885471
20
-6.41126325761346
30
0
41
1
10
82.2445369439367
20
-6.37192163323479
30
0
41
1
10
82.2711375844048
20
-6.34964901881955
30
0
41
1
10
82.2949971932207
20
-6.32489797005175
30
0
0
SPLINE
5
106
100
AcDbEntity
8
1
62
256
6
ByLayer
370
18
48
1
60
0
100
AcDbSpline
70
4
71
3
72
15
73
11
40
0
40
0
40
0
40
0
40
0.250000000000057
40
0.250000000000057
40
0.375000000000061
40
0.375000000000061
40
0.500000000000065
40
0.500000000000065
40
0.750000000000033
40
1
40
1
40
1
40
1
41
1
10
76.0498376593297
20
-5.97647226772523
30
0
41
1
10
76.0922595127148
20
-5.98993912171306
30
0
41
1
10
76.1325193097315
20
-6.00451449452365
30
0
41
1
10
76.1896532137375
20
-6.02804684702645
30
0
41
1
10
76.2081534074808
20
-6.03617010757955
30
0
41
1
10
76.2440399391773
20
-6.05298771930447
30
0
41
1
10
76.2614878568108
20
-6.06171646301451
30
0
41
1
10
76.3115354758148
20
-6.08848172905434
30
0
41
1
10
76.3722262290348
20
-6.12569348305826
30
0
41
1
10
76.4210605967962
20
-6.16589854787378
30
0
41
1
10
76.4423995432782
20
-6.18677822448947
30
0
0
SPLINE
5
107
100
AcDbEntity
8
1
62
256
6
ByLayer
370
18
48
1
60
0
100
AcDbSpline
70
4
71
3
72
14
73
10
40
0
40
0
40
0
40
0
40
0.250000000000052
40
0.250000000000052
40
0.375000000000043
40
0.375000000000043
40
0.500000000000034
40
0.500000000000034
40
1
40
1
40
1
40
1
41
1
10
74.8573778142468
20
-6.34776732050901
30
0
41
1
10
74.8274517419695
20
-6.36401178338969
30
0
41
1
10
74.798752018596
20
-6.38113472787458
30
0
41
1
10
74.7574775138042
20
-6.40834250442364
30
0
41
1
10
74.7440153450077
20
-6.41766592011817
30
0
41
1
10
74.7176736130355
20
-6.43685950228635
30
0
41
1
10
74.7047674881214
20
-6.44675248497663
30
0
41
1
10
74.6421876751921
20
-6.49725868773041
30
0
41
1
10
74.5980556067988
20
-6.54113781503796
30
0
41
1
10
74.558678944401
20
-6.58950601726454
30
0
0
SPLINE
5
108
100
AcDbEntity
8
1
62
256
6
ByLayer
370
18
48
1
60
0
100
AcDbSpline
70
4
71
3
72
10
73
6
40
0
40
0
40
0
40
0
40
0.939379939559902
40
0.939379939559902
40
1
40
1
40
1
40
1
41
1
10
74.8573778142446
20
-6.3477673205046
30
0
41
1
10
74.8145513985362
20
-6.15730099290602
30
0
41
1
10
74.7671000966203
20
-5.96726838401011
30
0
41
1
10
74.7118892865933
20
-5.76541310918853
30
0
41
1
10
74.7085232862382
20
-5.75317599141457
30
0
41
1
10
74.7051387962857
20
-5.74094036731285
30
0
0
SPLINE
5
109
100
AcDbEntity
8
1
62
256
6
ByLayer
370
18
48
1
60
0
100
AcDbSpline
70
4
71
3
72
8
73
4
40
0
40
0
40
0
40
0
40
1
40
1
40
1
40
1
41
1
10
79.4402088801653
20
-6.00072661314252
30
0
41
1
10
79.4396469109483
20
-6.00071508805655
30
0
41
1
10
79.4390848458095
20
-6.00070451806477
30
0
41
1
10
79.4385227108016
20
-6.00069490437093
30
0
0
SPLINE
5
10A
100
AcDbEntity
8
1
62
256
6
ByLayer
370
18
48
1
60
0
100
AcDbSpline
70
4
71
3
72
93
73
89
40
0
40
0
40
0
40
0
40
0.0104423813712133
40
0.0104423813712133
40
0.062524361299039
40
0.062524361299039
40
0.114606341226865
40
0.114606341226865
40
0.127626836208821
40
0.127626836208821
40
0.134137083699799
40
0.134137083699799
40
0.140647331190777
40
0.166688321154687
40
0.166688321154687
40
0.218770301082508
40
0.218770301082508
40
0.244811291046418
40
0.244811291046418
40
0.251321538537396
40
0.251321538537396
40
0.254576662282885
40
0.254576662282885
40
0.257831786028374
40
0.257831786028374
40
0.264342033519352
40
0.264342033519352
40
0.270852281010329
40
0.270852281010329
40
0.29689327097424
40
0.29689327097424
40
0.309913765956195
40
0.309913765956195
40
0.316424013447172
40
0.316424013447172
40
0.322934260938149
40
0.322934260938149
40
0.348975250902061
40
0.348975250902061
40
0.361995745884016
40
0.361995745884016
40
0.368505993374994
40
0.368505993374994
40
0.375016240865973
40
0.375016240865973
40
0.401057230829887
40
0.401057230829887
40
0.427098220793801
40
0.427098220793801
40
0.433608468284779
40
0.433608468284779
40
0.440118715775758
40
0.453139210757715
40
0.453139210757715
40
0.479180200721626
40
0.479180200721626
40
0.505221190685537
40
0.505221190685537
40
0.518241685667492
40
0.518241685667492
40
0.531262180649446
40
0.531262180649446
40
0.557303170613354
40
0.557303170613354
40
0.583344160577263
40
0.583344160577263
40
0.596364655559217
40
0.596364655559217
40
0.609385150541172
40
0.609385150541172
40
0.622405645523126
40
0.622405645523126
40
0.63542614050508
40
0.63542614050508
40
0.63868126425057
40
0.63868126425057
40
0.64193638799606
40
0.648446635487043
40
0.661467130469006
40
0.687508120432929
40
0.687508120432929
40
0.79167208028862
40
0.79167208028862
40
0.895836040144312
40
0.895836040144312
40
0.947918020072156
40
0.947918020072156
40
1
40
1
40
1
40
1
41
1
10
65.1685893932549
20
-6.58354819324632
30
0
41
1
10
65.1438580610462
20
-6.59972603895648
30
0
41
1
10
65.1196075588227
20
-6.61560658548223
30
0
41
1
10
64.9772255984052
20
-6.70884614661554
30
0
41
1
10
64.8703101330453
20
-6.77884968552601
30
0
41
1
10
64.6779342675956
20
-6.90073892722603
30
0
41
1
10
64.5924690460438
20
-6.9526353153021
30
0
41
1
10
64.4981802133159
20
-7.00422066689902
30
0
41
1
10
64.47995118735
20
-7.01387210232676
30
0
41
1
10
64.4535398635563
20
-7.02730893890407
30
0
41
1
10
64.444898276882
20
-7.03161080552806
30
0
41
1
10
64.4279882361167
20
-7.03983084169073
30
0
41
1
10
64.3866069123192
20
-7.05944189159311
30
0
41
1
10
64.3496000513366
20
-7.07435080037513
30
0
41
1
10
64.268611838618
20
-7.100996584417
30
0
41
1
10
64.2250320094751
20
-7.10660005867874
30
0
41
1
10
64.1736547787883
20
-7.09601093624465
30
0
41
1
10
64.1588358311407
20
-7.08931121370819
30
0
41
1
10
64.1432068405925
20
-7.07685216356134
30
0
41
1
10
64.1402319575807
20
-7.07415590218275
30
0
41
1
10
64.1359895333806
20
-7.06980217738601
30
0
41
1
10
64.1346037291333
20
-7.06829951143263
30
0
41
1
10
64.1318625334664
20
-7.06519140529244
30
0
41
1
10
64.1305745616726
20
-7.0635848293758
30
0
41
1
10
64.1273457388872
20
-7.0585985659223
30
0
41
1
10
64.1258395773689
20
-7.05505519246324
30
0
41
1
10
64.1243331025398
20
-7.04751875148321
30
0
41
1
10
64.1243281972838
20
-7.04355889822006
30
0
41
1
10
64.1279421689828
20
-7.022824138055
30
0
41
1
10
64.142218365772
20
-7.00324000983903
30
0
41
1
10
64.1805905750687
20
-6.96978960814502
30
0
41
1
10
64.1962124800068
20
-6.95795994824056
30
0
41
1
10
64.2239266324641
20
-6.93924578306019
30
0
41
1
10
64.2339027025682
20
-6.93283185056475
30
0
41
1
10
64.255192121527
20
-6.91975611297877
30
0
41
1
10
64.2664654028645
20
-6.91311755396583
30
0
41
1
10
64.3258739969017
20
-6.87947099268146
30
0
41
1
10
64.3830693170167
20
-6.85110654626291
30
0
41
1
10
64.4819835836697
20
-6.80722717335993
30
0
41
1
10
64.5171628044367
20
-6.79237890525482
30
0
41
1
10
64.5731425289175
20
-6.76986975233569
30
0
41
1
10
64.5923809126992
20
-6.76231099707204
30
0
41
1
10
64.6316403973063
20
-6.74723667322226
30
0
41
1
10
64.6516689051528
20
-6.73971722089578
30
0
41
1
10
64.7537269885297
20
-6.70224331705063
30
0
41
1
10
64.8414835333385
20
-6.67266902706086
30
0
41
1
10
65.0277153890184
20
-6.61509218232717
30
0
41
1
10
65.1262224475855
20
-6.58709506355729
30
0
41
1
10
65.2556436756687
20
-6.55354602995448
30
0
41
1
10
65.2818535618722
20
-6.54690631698895
30
0
41
1
10
65.3345545191509
20
-6.53386558968546
30
0
41
1
10
65.4141520060979
20
-6.51462880439749
30
0
41
1
10
65.495341685897
20
-6.49639538490729
30
0
41
1
10
65.6597231845828
20
-6.46131990853121
30
0
41
1
10
65.7719623496061
20
-6.43978072776179
30
0
41
1
10
66.0013942555931
20
-6.40075092617451
30
0
41
1
10
66.1185872565522
20
-6.38325834970243
30
0
41
1
10
66.2979788934678
20
-6.36032497374237
30
0
41
1
10
66.3585112818119
20
-6.35322221037518
30
0
41
1
10
66.4797213091811
20
-6.34028444808402
30
0
41
1
10
66.5404834536214
20
-6.33443426283924
30
0
41
1
10
66.7232260929844
20
-6.31873917281274
30
0
41
1
10
66.8456626243181
20
-6.31075345200352
30
0
41
1
10
67.0917160989586
20
-6.29980482183646
30
0
41
1
10
67.2153312267156
20
-6.29683360342534
30
0
41
1
10
67.401644578771
20
-6.29622577493046
30
0
41
1
10
67.4638975074191
20
-6.29666375871804
30
0
41
1
10
67.588704409688
20
-6.29883554354279
30
0
41
1
10
67.6508384949522
20
-6.30056221926537
30
0
41
1
10
67.7745096132232
20
-6.30526513740176
30
0
41
1
10
67.8360578359714
20
-6.30824131234195
30
0
41
1
10
67.958586767771
20
-6.31540691312594
30
0
41
1
10
68.0195779232372
20
-6.31957373507433
30
0
41
1
10
68.095442308133
20
-6.32556550555472
30
0
41
1
10
68.1105894482582
20
-6.32681809529524
30
0
41
1
10
68.1408872822803
20
-6.32931257217118
30
0
41
1
10
68.1863301448153
20
-6.33305824935965
30
0
41
1
10
68.292345415765
20
-6.34180588988593
30
0
41
1
10
68.504300324785
20
-6.35933700761942
30
0
41
1
10
68.6858396413595
20
-6.37443149933119
30
0
41
1
10
69.2906370999015
20
-6.42492228803354
30
0
41
1
10
69.773402608989
20
-6.46590748606448
30
0
41
1
10
70.7362822410502
20
-6.54878923815619
30
0
41
1
10
71.216385279556
20
-6.59069863428874
30
0
41
1
10
71.9344284275188
20
-6.65320055245618
30
0
41
1
10
72.1734274471697
20
-6.6739647867727
30
0
41
1
10
72.6507785599017
20
-6.71504315210083
30
0
41
1
10
72.889117210146
20
-6.73537377144419
30
0
41
1
10
73.1272649169765
20
-6.75517635678386
30
0
0
SPLINE
5
10B
100
AcDbEntity
8
1
62
256
6
ByLayer
370
18
48
1
60
0
100
AcDbSpline
70
4
71
3
72
8
73
4
40
0
40
0
40
0
40
0
40
1
40
1
40
1
40
1
41
1
10
73.4936095178135
20
-6.81709027430188
30
0
41
1
10
73.3724072675845
20
-6.78601429110677
30
0
41
1
10
73.2502892011241
20
-6.76540613778033
30
0
41
1
10
73.1272649169765
20
-6.75517635678386
30
0
0
SPLINE
5
10C
100
AcDbEntity
8
1
62
256
6
ByLayer
370
18
48
1
60
0
100
AcDbSpline
70
4
71
3
72
8
73
4
40
0
40
0
40
0
40
0
40
1
40
1
40
1
40
1
41
1
10
79.4385227108016
20
-4.33824615623416
30
0
41
1
10
79.4390848809395
20
-4.33810208575682
30
0
41
1
10
79.4396469373697
20
-4.3379571289988
30
0
41
1
10
79.4402088801654
20
-4.33781128661519
30
0
0
SPLINE
5
10D
100
AcDbEntity
8
1
62
256
6
ByLayer
370
18
48
1
60
0
100
AcDbSpline
70
4
71
3
72
16
73
12
40
0
40
0
40
0
40
0
40
0.0920442880542627
40
0.0920442880542627
40
0.319033216040697
40
0.319033216040697
40
0.546022144027132
40
0.546022144027132
40
0.773011072013566
40
0.773011072013566
40
1
40
1
40
1
40
1
41
1
10
80.0348371149158
20
-3.20679635757449
30
0
41
1
10
80.0428576546503
20
-3.19057053950374
30
0
41
1
10
80.0505687310586
20
-3.17422555484092
30
0
41
1
10
80.0762144986455
20
-3.11715503902815
30
0
41
1
10
80.0925700563588
20
-3.07582000962267
30
0
41
1
10
80.1212802887206
20
-2.99159689284628
30
0
41
1
10
80.1336372347045
20
-2.9487096850842
30
0
41
1
10
80.1539033053832
20
-2.86120018198264
30
0
41
1
10
80.1616137365022
20
-2.81738426212846
30
0
41
1
10
80.1719753841871
20
-2.73002746854289
30
0
41
1
10
80.1746389390075
20
-2.68643459423561
30
0
41
1
10
80.1746389390075
20
-2.64294644062429
30
0
0
SPLINE
5
10E
100
AcDbEntity
8
1
62
256
6
ByLayer
370
18
48
1
60
0
100
AcDbSpline
70
4
71
3
72
9
73
5
40
0
40
0
40
0
40
0
40
0.5
40
1
40
1
40
1
40
1
41
1
10
72.5732885027399
20
4.45036024006001
30
0
41
1
10
72.5300462712804
20
4.35011438752494
30
0
41
1
10
72.455253756669
20
4.14700492849369
30
0
41
1
10
72.403973317054
20
3.93857015775524
30
0
41
1
10
72.3845027440925
20
3.83294129736714
30
0
0
SPLINE
5
10F
100
AcDbEntity
8
1
62
256
6
ByLayer
370
18
48
1
60
0
100
AcDbSpline
70
4
71
3
72
10
73
6
40
0
40
0
40
0
40
0
40
0.0388655558898378
40
0.0388655558898378
40
1
40
1
40
1
40
1
41
1
10
73.1136382540144
20
5.69868172626104
30
0
41
1
10
73.1066152221952
20
5.68252024896395
30
0
41
1
10
73.0995931732095
20
5.66635830572713
30
0
41
1
10
72.9189425928026
20
5.25050421942243
30
0
41
1
10
72.7459072436316
20
4.8505318375972
30
0
41
1
10
72.5732885027399
20
4.45036024005998
30
0
0
SPLINE
5
110
100
AcDbEntity
8
1
62
256
6
ByLayer
370
18
48
1
60
0
100
AcDbSpline
70
4
71
3
72
8
73
4
40
0
40
0
40
0
40
0
40
1
40
1
40
1
40
1
41
1
10
73.4936095178135
20
6.81709027430131
30
0
41
1
10
73.3724072675846
20
6.78601429110623
30
0
41
1
10
73.2502892011242
20
6.76540613777976
30
0
41
1
10
73.1272649169766
20
6.75517635678332
30
0
0
SPLINE
5
111
100
AcDbEntity
8
1
62
256
6
ByLayer
370
18
48
1
60
0
100
AcDbSpline
70
4
71
3
72
54
73
50
40
0
40
0
40
0
40
0
40
0.0598122002601272
40
0.0598122002601272
40
0.119624400520254
40
0.119624400520254
40
0.179436600780382
40
0.179436600780382
40
0.239248801040509
40
0.239248801040509
40
0.299061001300636
40
0.299061001300636
40
0.358873201560764
40
0.358873201560764
40
0.373826251625796
40
0.373826251625796
40
0.388779301690829
40
0.418685401820893
40
0.418685401820893
40
0.478497602081023
40
0.478497602081023
40
0.538309802341153
40
0.538309802341153
40
0.568215902471219
40
0.568215902471219
40
0.598122002601284
40
0.598122002601284
40
0.657934202861414
40
0.657934202861414
40
0.717746403121544
40
0.717746403121544
40
0.732699453186577
40
0.732699453186577
40
0.747652503251611
40
0.747652503251611
40
0.777558603381676
40
0.777558603381676
40
0.837370803641807
40
0.837370803641807
40
0.897183003901939
40
0.897183003901939
40
0.912136053966972
40
0.912136053966972
40
0.919612578999489
40
0.919612578999489
40
0.927089104032005
40
0.956995204162073
40
0.956995204162073
40
1
40
1
40
1
40
1
41
1
10
73.1272649169766
20
3.71328845297273
30
0
41
1
10
72.8819184177307
20
3.74204403052542
30
0
41
1
10
72.6379521943724
20
3.7747656237444
30
0
41
1
10
72.152935238375
20
3.84831157721933
30
0
41
1
10
71.9118731179328
20
3.88910251340096
30
0
41
1
10
71.4327548471085
20
3.97867573699762
30
0
41
1
10
71.194743578263
20
4.02759289229027
30
0
41
1
10
70.7223756611748
20
4.13476913787193
30
0
41
1
10
70.4880097648723
20
4.19300066739891
30
0
41
1
10
70.0231804098478
20
4.31879058861128
30
0
41
1
10
69.7926972888025
20
4.38629540719774
30
0
41
1
10
69.3358531391805
20
4.53033657565317
30
0
41
1
10
69.1094910896228
20
4.6068744337976
30
0
41
1
10
68.8293744095867
20
4.70816370994848
30
0
41
1
10
68.7735105259986
20
4.72869738608469
30
0
41
1
10
68.6624829195448
20
4.77017095159286
30
0
41
1
10
68.4968422300606
20
4.8330439631909
30
0
41
1
10
68.3339462722701
20
4.89784897682924
30
0
41
1
10
68.0119306850337
20
5.02985895981394
30
0
41
1
10
67.8022811242612
20
5.12107201232067
30
0
41
1
10
67.393800591324
20
5.30882051824599
30
0
41
1
10
67.194967012087
20
5.40535871066953
30
0
41
1
10
66.9054590762288
20
5.55300965661803
30
0
41
1
10
66.8103847970517
20
5.60271342602141
30
0
41
1
10
66.6233952613787
20
5.70275394558061
30
0
41
1
10
66.532172160964
20
5.75271890290014
30
0
41
1
10
66.2653417510629
20
5.90195533828972
30
0
41
1
10
66.0965820842755
20
6.00058900015773
30
0
41
1
10
65.7776335658673
20
6.19328593677628
30
0
41
1
10
65.6274508918369
20
6.28735817877939
30
0
41
1
10
65.4514635736467
20
6.39992035191955
30
0
41
1
10
65.416852663054
20
6.42217946196371
30
0
41
1
10
65.3488063287649
20
6.46612868865935
30
0
41
1
10
65.3153269067953
20
6.4878476353872
30
0
41
1
10
65.2173585093197
20
6.55159399533213
30
0
41
1
10
65.155129080755
20
6.59234513363739
30
0
41
1
10
64.9772255984049
20
6.70884614661534
30
0
41
1
10
64.870310133045
20
6.77884968552578
30
0
41
1
10
64.6779342675953
20
6.90073892722577
30
0
41
1
10
64.5924690460436
20
6.95263531530182
30
0
41
1
10
64.4981802133156
20
7.0042206668987
30
0
41
1
10
64.4799511873497
20
7.01387210232647
30
0
41
1
10
64.453539863556
20
7.02730893890376
30
0
41
1
10
64.4448982768817
20
7.03161080552772
30
0
41
1
10
64.4279882361165
20
7.03983084169039
30
0
41
1
10
64.3866069123189
20
7.05944189159277
30
0
41
1
10
64.3496000513364
20
7.07435080037476
30
0
41
1
10
64.2837837894758
20
7.09600488855753
30
0
41
1
10
64.2503463139959
20
7.10249065710684
30
0
41
1
10
64.2218886525143
20
7.10250325684504
30
0
0
SPLINE
5
112
100
AcDbEntity
8
1
62
256
6
ByLayer
370
18
48
1
60
0
100
AcDbSpline
70
4
71
3
72
48
73
44
40
0
40
0
40
0
40
0
40
0.0074441481753489
40
0.0074441481753489
40
0.0187231919460911
40
0.0187231919460911
40
0.0300022357168335
40
0.0525603232583175
40
0.0525603232583175
40
0.097676498341291
40
0.097676498341291
40
0.142792673424264
40
0.142792673424264
40
0.165350760965748
40
0.165350760965748
40
0.187908848507232
40
0.187908848507232
40
0.233025023590196
40
0.233025023590196
40
0.278141198673159
40
0.278141198673159
40
0.300699286214641
40
0.300699286214641
40
0.323257373756122
40
0.323257373756122
40
0.345815461297604
40
0.345815461297604
40
0.368373548839086
40
0.368373548839086
40
0.374013070724455
40
0.374013070724455
40
0.379652592609824
40
0.390931636380557
40
0.413489723922019
40
0.458605899004943
40
0.458605899004943
40
0.639070599336627
40
0.639070599336627
40
0.819535299668311
40
0.819535299668311
40
0.909767649834155
40
0.909767649834155
40
1
40
1
40
1
40
1
41
1
10
65.1789212056581
20
6.57363414056141
30
0
41
1
10
65.1957292598252
20
6.56914428033227
30
0
41
1
10
65.2126758754811
20
6.56468429678768
30
0
41
1
10
65.2556436756697
20
6.55354602995371
30
0
41
1
10
65.2818535618732
20
6.54690631698818
30
0
41
1
10
65.334554519152
20
6.53386558968472
30
0
41
1
10
65.414152006099
20
6.51462880439678
30
0
41
1
10
65.4953416858981
20
6.49639538490658
30
0
41
1
10
65.6597231845839
20
6.46131990853053
30
0
41
1
10
65.7719623496071
20
6.43978072776108
30
0
41
1
10
66.0013942555941
20
6.40075092617386
30
0
41
1
10
66.1185872565533
20
6.38325834970175
30
0
41
1
10
66.2979788934688
20
6.36032497374174
30
0
41
1
10
66.358511281813
20
6.35322221037455
30
0
41
1
10
66.4797213091823
20
6.34028444808339
30
0
41
1
10
66.5404834536225
20
6.33443426283864
30
0
41
1
10
66.7232260929854
20
6.31873917281214
30
0
41
1
10
66.8456626243192
20
6.31075345200296
30
0
41
1
10
67.0917160989597
20
6.29980482183592
30
0
41
1
10
67.2153312267166
20
6.29683360342483
30
0
41
1
10
67.4016445787721
20
6.29622577492995
30
0
41
1
10
67.4638975074201
20
6.29666375871756
30
0
41
1
10
67.588704409689
20
6.29883554354231
30
0
41
1
10
67.6508384949532
20
6.30056221926489
30
0
41
1
10
67.7745096132242
20
6.30526513740128
30
0
41
1
10
67.8360578359723
20
6.30824131234149
30
0
41
1
10
67.9585867677719
20
6.31540691312549
30
0
41
1
10
68.0195779232382
20
6.31957373507387
30
0
41
1
10
68.0954423081339
20
6.32556550555427
30
0
41
1
10
68.110589448259
20
6.32681809529478
30
0
41
1
10
68.1408872822812
20
6.32931257217072
30
0
41
1
10
68.1863301448162
20
6.3330582493592
30
0
41
1
10
68.2923454157659
20
6.34180588988548
30
0
41
1
10
68.5043003247859
20
6.35933700761896
30
0
41
1
10
68.6858396413603
20
6.37443149933074
30
0
41
1
10
69.2906370999022
20
6.42492228803309
30
0
41
1
10
69.7734026089896
20
6.46590748606403
30
0
41
1
10
70.7362822410506
20
6.54878923815571
30
0
41
1
10
71.2163852795563
20
6.59069863428823
30
0
41
1
10
71.9344284275191
20
6.65320055245564
30
0
41
1
10
72.17342744717
20
6.67396478677216
30
0
41
1
10
72.6507785599019
20
6.71504315210029
30
0
41
1
10
72.8891172101461
20
6.73537377144362
30
0
41
1
10
73.1272649169766
20
6.7551763567833
30
0
0
SPLINE
5
113
100
AcDbEntity
8
1
62
256
6
ByLayer
370
18
48
1
60
0
100
AcDbSpline
70
4
71
3
72
8
73
4
40
0
40
0
40
0
40
0
40
1
40
1
40
1
40
1
41
1
10
73.1272649169766
20
3.71328845297273
30
0
41
1
10
73.2505526476843
20
3.69883864458924
30
0
41
1
10
73.3726639554702
20
3.68942911269556
30
0
41
1
10
73.4936095178135
20
3.68502544697407
30
0
0
SPLINE
5
114
100
AcDbEntity
8
1
62
256
6
ByLayer
370
18
48
1
60
0
100
AcDbSpline
70
4
71
3
72
17
73
13
40
0
40
0
40
0
40
0
40
0.125000000000009
40
0.125000000000009
40
0.250000000000019
40
0.250000000000019
40
0.500000000000037
40
0.750000000000054
40
0.750000000000054
40
0.875000000000027
40
0.875000000000027
40
1
40
1
40
1
40
1
41
1
10
74.1672962746682
20
-6.94144969008829
30
0
41
1
10
74.1443683479471
20
-6.93619487792014
30
0
41
1
10
74.1212246550807
20
-6.93106417502318
30
0
41
1
10
74.0750440348814
20
-6.92117462448041
30
0
41
1
10
74.0519674463301
20
-6.91640593691946
30
0
41
1
10
73.9827773739831
20
-6.90262483595592
30
0
41
1
10
73.8906292538651
20
-6.88564792079367
30
0
41
1
10
73.798690075626
20
-6.87148376809668
30
0
41
1
10
73.7298206236385
20
-6.86194715231326
30
0
41
1
10
73.7068783713833
20
-6.8589496277165
30
0
41
1
10
73.6610244641862
20
-6.85332605516007
30
0
41
1
10
73.6381682581743
20
-6.85070753648537
30
0
41
1
10
73.6155172705995
20
-6.84829726735319
30
0
0
SPLINE
5
115
100
AcDbEntity
8
1
62
256
6
ByLayer
370
18
48
1
60
0
100
AcDbSpline
70
4
71
3
72
14
73
10
40
0
40
0
40
0
40
0
40
0.25
40
0.25
40
0.5
40
0.5
40
0.75
40
0.75
40
1
40
1
40
1
40
1
41
1
10
74.5586789444012
20
-6.58950601726437
30
0
41
1
10
74.5198899267863
20
-6.62397569058217
30
0
41
1
10
74.4823157346874
20
-6.65712390564821
30
0
41
1
10
74.409969816414
20
-6.72081590767172
30
0
41
1
10
74.3751959947332
20
-6.75135945741278
30
0
41
1
10
74.3090131904802
20
-6.80990552083486
30
0
41
1
10
74.277600238626
20
-6.837907458643
30
0
41
1
10
74.2189798910154
20
-6.89147011945738
30
0
41
1
10
74.1917643426514
20
-6.91702950803816
30
0
41
1
10
74.1672962746754
20
-6.94144969008815
30
0
0
SPLINE
5
116
100
AcDbEntity
8
1
62
256
6
ByLayer
370
18
48
1
60
0
100
AcDbSpline
70
4
71
3
72
62
73
58
40
0
40
0
40
0
40
0
40
0.0624999999999774
40
0.0624999999999774
40
0.124999999999955
40
0.124999999999955
40
0.140624999999949
40
0.140624999999949
40
0.156249999999943
40
0.156249999999943
40
0.187499999999931
40
0.187499999999931
40
0.249999999999902
40
0.249999999999902
40
0.265624999999896
40
0.265624999999896
40
0.281249999999889
40
0.281249999999889
40
0.312499999999876
40
0.312499999999876
40
0.374999999999848
40
0.374999999999848
40
0.390624999999841
40
0.390624999999841
40
0.406249999999834
40
0.406249999999834
40
0.437499999999821
40
0.437499999999821
40
0.4999999999998
40
0.4999999999998
40
0.515624999999795
40
0.515624999999795
40
0.531249999999789
40
0.562499999999779
40
0.593749999999768
40
0.593749999999768
40
0.609374999999768
40
0.609374999999768
40
0.624999999999768
40
0.624999999999768
40
0.687499999999802
40
0.687499999999802
40
0.71874999999982
40
0.71874999999982
40
0.749999999999837
40
0.749999999999837
40
0.812499999999871
40
0.812499999999871
40
0.843749999999889
40
0.843749999999889
40
0.874999999999906
40
0.874999999999906
40
0.937499999999953
40
0.937499999999953
40
0.968749999999976
40
0.968749999999976
40
1
40
1
40
1
40
1
41
1
10
74.5586789444011
20
-6.58950601726434
30
0
41
1
10
74.5147686798605
20
-6.56052324376626
30
0
41
1
10
74.4751326229749
20
-6.53062784743892
30
0
41
1
10
74.4044349224893
20
-6.46871352298925
30
0
41
1
10
74.3733681361838
20
-6.43669662453789
30
0
41
1
10
74.3403055638732
20
-6.39508517330447
30
0
41
1
10
74.3339834503543
20
-6.38668295755116
30
0
41
1
10
74.3219387351148
20
-6.36971015634907
30
0
41
1
10
74.3162338966511
20
-6.36116203302925
30
0
41
1
10
74.3001966863377
20
-6.33551657501351
30
0
41
1
10
74.2908867407616
20
-6.31834445073753
30
0
41
1
10
74.2670824237167
20
-6.26657547538869
30
0
41
1
10
74.2566798811563
20
-6.23172422511055
30
0
41
1
10
74.2509109303935
20
-6.18767495828848
30
0
41
1
10
74.2501215267264
20
-6.17884098887143
30
0
41
1
10
74.249293245442
20
-6.16112386171031
30
0
41
1
10
74.2492553444583
20
-6.15222046938464
30
0
41
1
10
74.2503019879466
20
-6.12557876418356
30
0
41
1
10
74.2525320772135
20
-6.10802874337324
30
0
41
1
10
74.2637599847396
20
-6.0560281756791
30
0
41
1
10
74.2772544535406
20
-6.02221566016789
30
0
41
1
10
74.3020254818326
20
-5.9812310183386
30
0
41
1
10
74.3073781057237
20
-5.97309905213976
30
0
41
1
10
74.3189041217593
20
-5.95697436544307
30
0
41
1
10
74.3250986579242
20
-5.94895789608921
30
0
41
1
10
74.3447477098358
20
-5.92537867463489
30
0
41
1
10
74.3592770703415
20
-5.91025047769665
30
0
41
1
10
74.4070750767519
20
-5.86668548209673
30
0
41
1
10
74.4445178426207
20
-5.8400495428572
30
0
41
1
10
74.4985701262873
20
-5.81018569385952
30
0
41
1
10
74.5097821794746
20
-5.80436902359989
30
0
41
1
10
74.53274396493
20
-5.79319908184942
30
0
41
1
10
74.5679792138343
20
-5.77713828650201
30
0
41
1
10
74.6305638617393
20
-5.75381130471729
30
0
41
1
10
74.6846233216604
20
-5.73882977792459
30
0
41
1
10
74.7266526126045
20
-5.72900409413759
30
0
41
1
10
74.7409101379358
20
-5.72596419636398
30
0
41
1
10
74.7699225908292
20
-5.72036330717236
30
0
41
1
10
74.784661284804
20
-5.71780725640576
30
0
41
1
10
74.858798958593
20
-5.7063511934449
30
0
41
1
10
74.9201181785881
20
-5.70127987640015
30
0
41
1
10
75.0147988248283
20
-5.69941708001323
30
0
41
1
10
75.0468669473365
20
-5.6997601936107
30
0
41
1
10
75.1116561384253
20
-5.70233957261223
30
0
41
1
10
75.144075770529
20
-5.70455993455792
30
0
41
1
10
75.2414009710691
20
-5.71381882501407
30
0
41
1
10
75.306371806116
20
-5.72344254440972
30
0
41
1
10
75.4039475120284
20
-5.74257070182179
30
0
41
1
10
75.4365834646123
20
-5.74975752934813
30
0
41
1
10
75.5011240191974
20
-5.7654575372859
30
0
41
1
10
75.53309941998
20
-5.77398022230153
30
0
41
1
10
75.6281999217285
20
-5.80142370943756
30
0
41
1
10
75.6905037109368
20
-5.82221052501592
30
0
41
1
10
75.7824550691444
20
-5.85676303074868
30
0
41
1
10
75.8128934886946
20
-5.86886201529262
30
0
41
1
10
75.8730880776597
20
-5.89407610985867
30
0
41
1
10
75.9027879673469
20
-5.90716561519801
30
0
41
1
10
75.932102267016
20
-5.9207151277013
30
0
0
SPLINE
5
117
100
AcDbEntity
8
1
62
256
6
ByLayer
370
18
48
1
60
0
100
AcDbSpline
70
4
71
3
72
16
73
12
40
0
40
0
40
0
40
0
40
0.249999999999996
40
0.249999999999996
40
0.499999999999992
40
0.499999999999992
40
0.624999999999998
40
0.624999999999998
40
0.750000000000004
40
0.750000000000004
40
1
40
1
40
1
40
1
41
1
10
75.9321022670161
20
3.70889934054242
30
0
41
1
10
75.7280960548421
20
3.69984832790451
30
0
41
1
10
75.5240668290527
20
3.69053263330937
30
0
41
1
10
75.1165327975019
20
3.67678946626492
30
0
41
1
10
74.9129974274235
20
3.67206293174948
30
0
41
1
10
74.6081307865123
20
3.66884984286179
30
0
41
1
10
74.5065833847992
20
3.66844296068626
30
0
41
1
10
74.3036315203461
20
3.66885122793843
30
0
41
1
10
74.2022235194672
20
3.66963290523077
30
0
41
1
10
73.8981632926792
20
3.673278456064
30
0
41
1
10
73.6956974490961
20
3.67766736224172
30
0
41
1
10
73.4936095178135
20
3.68502544697404
30
0
0
SPLINE
5
118
100
AcDbEntity
8
1
62
256
6
ByLayer
370
18
48
1
60
0
100
AcDbSpline
70
4
71
3
72
8
73
4
40
0
40
0
40
0
40
0
40
1
40
1
40
1
40
1
41
1
10
73.4936095178135
20
-6.81709027430188
30
0
41
1
10
73.5342469527112
20
-6.82750962082051
30
0
41
1
10
73.5748824140716
20
-6.83791241278149
30
0
41
1
10
73.6155172705996
20
-6.84829726735319
30
0
0
SPLINE
5
119
100
AcDbEntity
8
1
62
256
6
ByLayer
370
18
48
1
60
0
100
AcDbSpline
70
4
71
3
72
26
73
22
40
0
40
0
40
0
40
0
40
0.124999999999967
40
0.124999999999967
40
0.249999999999934
40
0.249999999999934
40
0.374999999999901
40
0.374999999999901
40
0.499999999999868
40
0.499999999999868
40
0.624999999999835
40
0.624999999999835
40
0.687499999999849
40
0.687499999999849
40
0.749999999999863
40
0.749999999999863
40
0.874999999999891
40
0.874999999999891
40
0.937499999999946
40
0.937499999999946
40
1
40
1
40
1
40
1
41
1
10
81.9638346558463
20
-6.19467573121443
30
0
41
1
10
81.9570954626901
20
-6.18676745167701
30
0
41
1
10
81.9499814216923
20
-6.17891090603251
30
0
41
1
10
81.9348448488029
20
-6.16332319834015
30
0
41
1
10
81.9268216317883
20
-6.15559298393976
30
0
41
1
10
81.9097746560504
20
-6.14040260606137
30
0
41
1
10
81.9007408291714
20
-6.13292923790698
30
0
41
1
10
81.8813749584994
20
-6.11829239325891
30
0
41
1
10
81.8710471895555
20
-6.11112789633472
30
0
41
1
10
81.8486438389973
20
-6.09721611517642
30
0
41
1
10
81.8366027342291
20
-6.09049366492894
30
0
41
1
10
81.8170739347233
20
-6.08105236878791
30
0
41
1
10
81.8103079463757
20
-6.07800688534991
30
0
41
1
10
81.7961527408916
20
-6.07216292472486
30
0
41
1
10
81.7887301909772
20
-6.06935280824746
30
0
41
1
10
81.7655400824379
20
-6.06147297339041
30
0
41
1
10
81.749016450033
20
-6.05697594554204
30
0
41
1
10
81.7218545451478
20
-6.05192007356217
30
0
41
1
10
81.7125162576038
20
-6.05054906116055
30
0
41
1
10
81.6935637641
20
-6.04856275281801
30
0
41
1
10
81.683899547917
20
-6.04793749826831
30
0
41
1
10
81.6740248644351
20
-6.04772417686709
30
0
0
SPLINE
5
11A
100
AcDbEntity
8
1
62
256
6
ByLayer
370
18
48
1
60
0
100
AcDbSpline
70
4
71
3
72
22
73
18
40
0
40
0
40
0
40
0
40
0.124999999999996
40
0.124999999999996
40
0.249999999999992
40
0.249999999999992
40
0.499999999999986
40
0.499999999999986
40
0.624999999999984
40
0.624999999999984
40
0.749999999999981
40
0.749999999999981
40
0.874999999999979
40
0.874999999999979
40
0.937499999999989
40
0.937499999999989
40
1
40
1
40
1
40
1
41
1
10
81.9638346558452
20
-6.19467573121594
30
0
41
1
10
81.9756859002204
20
-6.20858287873568
30
0
41
1
10
81.987832795614
20
-6.22185479339299
30
0
41
1
10
82.0127314356945
20
-6.2469729104732
30
0
41
1
10
82.0254084109191
20
-6.25874399747016
30
0
41
1
10
82.0641268957383
20
-6.29144616314431
30
0
41
1
10
82.0908367130741
20
-6.30983421185894
30
0
41
1
10
82.1325211667756
20
-6.33047734667855
30
0
41
1
10
82.1466973172092
20
-6.33617901593985
30
0
41
1
10
82.1753218194573
20
-6.34456955949392
30
0
41
1
10
82.1898107239981
20
-6.34728838557882
30
0
41
1
10
82.2192189769631
20
-6.34897563596414
30
0
41
1
10
82.2341374442796
20
-6.34796207366642
30
0
41
1
10
82.2569343979316
20
-6.34255246930081
30
0
41
1
10
82.264598500367
20
-6.34008768201085
30
0
41
1
10
82.2798317921192
20
-6.33367864019633
30
0
41
1
10
82.2874291670595
20
-6.32973022340684
30
0
41
1
10
82.2949971932208
20
-6.32489797005226
30
0
0
SPLINE
5
11B
100
AcDbEntity
8
1
62
256
6
ByLayer
370
18
48
1
60
0
100
AcDbSpline
70
4
71
3
72
18
73
14
40
0
40
0
40
0
40
0
40
0.125000000000013
40
0.125000000000013
40
0.250000000000027
40
0.250000000000027
40
0.500000000000048
40
0.500000000000048
40
0.625000000000046
40
0.625000000000046
40
0.750000000000044
40
0.750000000000044
40
1
40
1
40
1
40
1
41
1
10
82.4191883764243
20
-5.9332077979229
30
0
41
1
10
82.4197260085111
20
-5.95155009594743
30
0
41
1
10
82.4195680746019
20
-5.96981089661244
30
0
41
1
10
82.4177864979598
20
-6.00618759816987
30
0
41
1
10
82.4161499640998
20
-6.0243449413573
30
0
41
1
10
82.4090758966015
20
-6.07758595424974
30
0
41
1
10
82.4014851776008
20
-6.11178812967108
30
0
41
1
10
82.3857754309022
20
-6.1613451715244
30
0
41
1
10
82.3798153860193
20
-6.17757126793492
30
0
41
1
10
82.3664093199386
20
-6.20944772381492
30
0
41
1
10
82.3589608949834
20
-6.2250799493107
30
0
41
1
10
82.3347918696896
20
-6.2702958769712
30
0
41
1
10
82.3161416527995
20
-6.29850888254845
30
0
41
1
10
82.2949971932217
20
-6.32489797004794
30
0
0
SPLINE
5
11C
100
AcDbEntity
8
1
62
256
6
ByLayer
370
18
48
1
60
0
100
AcDbSpline
70
4
71
3
72
34
73
30
40
0
40
0
40
0
40
0
40
0.125000000000003
40
0.125000000000003
40
0.1875
40
0.1875
40
0.249999999999997
40
0.249999999999997
40
0.374999999999991
40
0.374999999999991
40
0.406249999999985
40
0.406249999999985
40
0.437499999999979
40
0.437499999999979
40
0.499999999999989
40
0.499999999999989
40
0.625000000000034
40
0.625000000000034
40
0.656250000000044
40
0.656250000000044
40
0.687500000000055
40
0.750000000000077
40
0.812500000000099
40
0.812500000000099
40
0.843750000000094
40
0.843750000000094
40
0.875000000000088
40
0.875000000000088
40
1
40
1
40
1
40
1
41
1
10
82.4191883764243
20
3.36792485040931
30
0
41
1
10
82.4206206483002
20
3.38555149970352
30
0
41
1
10
82.4171072360622
20
3.40298776911254
30
0
41
1
10
82.4046943212126
20
3.4288672115764
30
0
41
1
10
82.3993573433706
20
3.43744752390967
30
0
41
1
10
82.3862239763248
20
3.45451347305385
30
0
41
1
10
82.3783878462801
20
3.46302331722205
30
0
41
1
10
82.3516539095126
20
3.48785688044114
30
0
41
1
10
82.3294580911138
20
3.50366764954976
30
0
41
1
10
82.2962619725848
20
3.5225025160841
30
0
41
1
10
82.2893476915033
20
3.52622263548881
30
0
41
1
10
82.2749591490983
20
3.53356748601473
30
0
41
1
10
82.2674641541021
20
3.53720160173469
30
0
41
1
10
82.2442763521398
20
3.54788506568363
30
0
41
1
10
82.2279463185392
20
3.55469119475717
30
0
41
1
10
82.1764172325575
20
3.57418843785933
30
0
41
1
10
82.1387042177517
20
3.58596748584807
30
0
41
1
10
82.0872316138656
20
3.59911989184496
30
0
41
1
10
82.0766883587391
20
3.60167762207607
30
0
41
1
10
82.055366270316
20
3.60658259017251
30
0
41
1
10
82.0229969516446
20
3.61363470086837
30
0
41
1
10
81.9671563780205
20
3.6238925232926
30
0
41
1
10
81.9204919825451
20
3.63052384361126
30
0
41
1
10
81.884733776277
20
3.63489650780531
30
0
41
1
10
81.8726874890761
20
3.63625374024542
30
0
41
1
10
81.8483360061484
20
3.63876349818992
30
0
41
1
10
81.8360277706976
20
3.63991555530268
30
0
41
1
10
81.7744399435658
20
3.64510472443044
30
0
41
1
10
81.7245470202081
20
3.64749796066383
30
0
41
1
10
81.6740248644351
20
3.64811455414781
30
0
0
SPLINE
5
11D
100
AcDbEntity
8
1
62
256
6
ByLayer
370
18
48
1
60
0
100
AcDbSpline
70
4
71
3
72
8
73
4
40
0
40
0
40
0
40
0
40
1
40
1
40
1
40
1
41
1
10
80.7734645061174
20
-2.34881388057283
30
0
41
1
10
80.7735451672655
20
-2.34776552163592
30
0
41
1
10
80.7736247630599
20
-2.34671687813815
30
0
41
1
10
80.7737032926428
20
-2.34566794981742
30
0
0
SPLINE
5
11E
100
AcDbEntity
8
1
62
256
6
ByLayer
370
18
48
1
60
0
100
AcDbSpline
70
4
71
3
72
35
73
31
40
0
40
0
40
0
40
0
40
0.0624999999999976
40
0.0624999999999976
40
0.124999999999995
40
0.124999999999995
40
0.187499999999993
40
0.187499999999993
40
0.218749999999998
40
0.218749999999998
40
0.250000000000003
40
0.250000000000003
40
0.375000000000002
40
0.375000000000002
40
0.406250000000006
40
0.406250000000006
40
0.437500000000009
40
0.500000000000008
40
0.500000000000008
40
0.625
40
0.625
40
0.656249999999999
40
0.656249999999999
40
0.687499999999998
40
0.687499999999998
40
0.749999999999997
40
0.749999999999997
40
0.874999999999999
40
0.874999999999999
40
1
40
1
40
1
40
1
41
1
10
79.4402088801654
20
-4.33781128661519
30
0
41
1
10
79.4956697056346
20
-4.32341740338543
30
0
41
1
10
79.5494281256563
20
-4.30634696859707
30
0
41
1
10
79.6538036372526
20
-4.26718152962783
30
0
41
1
10
79.7044193448011
20
-4.24508438211024
30
0
41
1
10
79.8026548795841
20
-4.19599418032203
30
0
41
1
10
79.8502739587613
20
-4.16900003929794
30
0
41
1
10
79.919502671924
20
-4.12482370990091
30
0
41
1
10
79.9421653967813
20
-4.10950723473709
30
0
41
1
10
79.9862680387274
20
-4.07801523112741
30
0
41
1
10
80.0077719787691
20
-4.06179962941653
30
0
41
1
10
80.1126819134154
20
-3.97844531860287
30
0
41
1
10
80.1883171326189
20
-3.90452447668073
30
0
41
1
10
80.2738286220714
20
-3.80366929453632
30
0
41
1
10
80.2904918825522
20
-3.78304793558405
30
0
41
1
10
80.3226555477912
20
-3.74133367553475
30
0
41
1
10
80.3692672874128
20
-3.67792940115655
30
0
41
1
10
80.4112692993571
20
-3.61211786946751
30
0
41
1
10
80.489743163704
20
-3.47746870725928
30
0
41
1
10
80.5347118537046
20
-3.38367757643857
30
0
41
1
10
80.5832053420814
20
-3.26180093027205
30
0
41
1
10
80.5925159425265
20
-3.23719288586463
30
0
41
1
10
80.6103898084925
20
-3.18751829993158
30
0
41
1
10
80.6189608608249
20
-3.1624248208837
30
0
41
1
10
80.6434662337483
20
-3.08687356043848
30
0
41
1
10
80.65823806905
20
-3.03603594202465
30
0
41
1
10
80.6983683881808
20
-2.88217794273223
30
0
41
1
10
80.7195607682776
20
-2.7778152007171
30
0
41
1
10
80.7529103573358
20
-2.5657649363298
30
0
41
1
10
80.7650578291726
20
-2.45807608556476
30
0
41
1
10
80.7734645061173
20
-2.34881388057283
30
0
0
SPLINE
5
11F
100
AcDbEntity
8
1
62
256
6
ByLayer
370
18
48
1
60
0
100
AcDbSpline
70
4
71
3
72
8
73
4
40
0
40
0
40
0
40
0
40
1
40
1
40
1
40
1
41
1
10
81.6740248644351
20
-6.04772417686709
30
0
41
1
10
80.929460880172
20
-6.03163946562566
30
0
41
1
10
80.1848531377489
20
-6.01599807079759
30
0
41
1
10
79.4402088801653
20
-6.00072661314255
30
0
0
SPLINE
5
120
100
AcDbEntity
8
1
62
256
6
ByLayer
370
18
48
1
60
0
100
AcDbSpline
70
4
71
3
72
8
73
4
40
0
40
0
40
0
40
0
40
1
40
1
40
1
40
1
41
1
10
81.6740248644351
20
3.64811455414781
30
0
41
1
10
80.9294195346718
20
3.65720202849309
30
0
41
1
10
80.1848144925124
20
3.66631352549072
30
0
41
1
10
79.4402088801654
20
3.67537805720056
30
0
0
SPLINE
5
121
100
AcDbEntity
8
1
62
256
6
ByLayer
370
18
48
1
60
0
100
AcDbSpline
70
4
71
3
72
8
73
4
40
0
40
0
40
0
40
0
40
1
40
1
40
1
40
1
41
1
10
79.4402088801654
20
3.67537805720056
30
0
41
1
10
79.4396468256255
20
3.67538489942834
30
0
41
1
10
79.4390847687627
20
3.67539157423343
30
0
41
1
10
79.4385227108016
20
3.67539808160225
30
0
0
SPLINE
5
122
100
AcDbEntity
8
1
62
256
6
ByLayer
370
18
48
1
60
0
100
AcDbSpline
70
4
71
3
72
19
73
15
40
0
40
0
40
0
40
0
40
0.250000000000013
40
0.250000000000013
40
0.31250000000001
40
0.31250000000001
40
0.375000000000007
40
0.500000000000002
40
0.500000000000002
40
0.75
40
0.75
40
0.875
40
0.875
40
1
40
1
40
1
40
1
41
1
10
77.4558821754622
20
-1.54086063320736
30
0
41
1
10
77.4261517566962
20
-1.6037425749343
30
0
41
1
10
77.4002976383119
20
-1.6684013086751
30
0
41
1
10
77.3730290973654
20
-1.75150846005903
30
0
41
1
10
77.3678361207354
20
-1.76822605219218
30
0
41
1
10
77.3580317167943
20
-1.80164608957315
30
0
41
1
10
77.3441689593539
20
-1.85183979990097
30
0
41
1
10
77.3328042466444
20
-1.90221837913541
30
0
41
1
10
77.3133552655216
20
-2.00321082507861
30
0
41
1
10
77.3047502202415
20
-2.07085123077087
30
0
41
1
10
77.2984221284371
20
-2.17276541084846
30
0
41
1
10
77.2974125640863
20
-2.20681280197681
30
0
41
1
10
77.2976400682503
20
-2.27506213997347
30
0
41
1
10
77.2988893102568
20
-2.30934757653662
30
0
41
1
10
77.3012556999007
20
-2.34325744648092
30
0
0
SPLINE
5
123
100
AcDbEntity
8
1
62
256
6
ByLayer
370
18
48
1
60
0
100
AcDbSpline
70
4
71
3
72
20
73
16
40
0
40
0
40
0
40
0
40
0.250000000000017
40
0.250000000000017
40
0.375000000000018
40
0.375000000000018
40
0.50000000000002
40
0.50000000000002
40
0.75000000000001
40
0.75000000000001
40
0.875000000000012
40
0.875000000000012
40
0.937500000000006
40
0.937500000000006
40
1
40
1
40
1
40
1
41
1
10
79.4385227108017
20
3.67539808160225
30
0
41
1
10
79.1775745188437
20
3.67841927558774
30
0
41
1
10
78.916625726536
20
3.68139204076633
30
0
41
1
10
78.525203556013
20
3.68593262590952
30
0
41
1
10
78.3947316770843
20
3.68762099138917
30
0
41
1
10
78.1337790051015
20
3.69028179366956
30
0
41
1
10
78.0032983955307
20
3.69126898495836
30
0
41
1
10
77.611851047925
20
3.6937873863979
30
0
41
1
10
77.3508782101333
20
3.69482882395894
30
0
41
1
10
76.9594478881826
20
3.6987140858688
30
0
41
1
10
76.8289756654538
20
3.70037457825194
30
0
41
1
10
76.6332794677033
20
3.70383946757301
30
0
41
1
10
76.5680492048353
20
3.70513915133921
30
0
41
1
10
76.4375944102287
20
3.70819846257314
30
0
41
1
10
76.3723703687566
20
3.70999743550692
30
0
41
1
10
76.3071467768527
20
3.71183238501251
30
0
0
SPLINE
5
124
100
AcDbEntity
8
1
62
256
6
ByLayer
370
18
48
1
60
0
100
AcDbSpline
70
4
71
3
72
8
73
4
40
0
40
0
40
0
40
0
40
1
40
1
40
1
40
1
41
1
10
79.4385227108016
20
-6.00069490437093
30
0
41
1
10
78.3947648917224
20
-5.98284444503361
30
0
41
1
10
77.3509709050302
20
-5.96547439395755
30
0
41
1
10
76.3071467768528
20
-5.94850470710915
30
0
0
SPLINE
5
125
100
AcDbEntity
8
1
62
256
6
ByLayer
370
18
48
1
60
0
100
AcDbSpline
70
4
71
3
72
48
73
44
40
0
40
0
40
0
40
0
40
0.124999999999966
40
0.124999999999966
40
0.249999999999933
40
0.249999999999933
40
0.312499999999914
40
0.312499999999914
40
0.343749999999905
40
0.343749999999905
40
0.374999999999895
40
0.374999999999895
40
0.437499999999881
40
0.437499999999881
40
0.499999999999867
40
0.499999999999867
40
0.51562499999986
40
0.51562499999986
40
0.531249999999853
40
0.562499999999846
40
0.562499999999846
40
0.624999999999832
40
0.624999999999832
40
0.65624999999983
40
0.65624999999983
40
0.671874999999834
40
0.671874999999834
40
0.687499999999838
40
0.687499999999838
40
0.749999999999884
40
0.749999999999884
40
0.81249999999993
40
0.81249999999993
40
0.828124999999938
40
0.828124999999938
40
0.843749999999947
40
0.874999999999953
40
0.874999999999953
40
0.937499999999976
40
0.937499999999976
40
0.968749999999988
40
0.968749999999988
40
1
40
1
40
1
40
1
41
1
10
77.3012556999007
20
-2.34325744648092
30
0
41
1
10
77.3111467152552
20
-2.48499363314644
30
0
41
1
10
77.3272347910453
20
-2.62395916410245
30
0
41
1
10
77.3752484137243
20
-2.89591313311189
30
0
41
1
10
77.4071331978382
20
-3.02890776364143
30
0
41
1
10
77.4705823790547
20
-3.22340210622343
30
0
41
1
10
77.4943511297022
20
-3.28739817334974
30
0
41
1
10
77.5346322671212
20
-3.38203846603039
30
0
41
1
10
77.5488359695752
20
-3.41335203525637
30
0
41
1
10
77.5786031091518
20
-3.47487074996352
30
0
41
1
10
77.5941990858192
20
-3.50515570777631
30
0
41
1
10
77.6432341649482
20
-3.59455603384095
30
0
41
1
10
77.678913123338
20
-3.65222013596764
30
0
41
1
10
77.7569795012777
20
-3.76344378717369
30
0
41
1
10
77.7993618546481
20
-3.81700561034651
30
0
41
1
10
77.8571673576814
20
-3.88116724079921
30
0
41
1
10
77.8689753425798
20
-3.89386277940568
30
0
41
1
10
77.8929391261188
20
-3.91880884762691
30
0
41
1
10
77.9294602064177
20
-3.95562112907021
30
0
41
1
10
77.9677315392258
20
-3.99060773966798
30
0
41
1
10
78.0466908490687
20
-4.05811436530425
30
0
41
1
10
78.102541975596
20
-4.09983990975027
30
0
41
1
10
78.1916247267147
20
-4.15723127049239
30
0
41
1
10
78.2222056768211
20
-4.1754933429369
30
0
41
1
10
78.2694964092562
20
-4.20152292002732
30
0
41
1
10
78.2855029833547
20
-4.20997310267637
30
0
41
1
10
78.3177079319094
20
-4.22626177911795
30
0
41
1
10
78.333941570527
20
-4.23412030523136
30
0
41
1
10
78.4157654170666
20
-4.2719948252153
30
0
41
1
10
78.4833143483822
20
-4.29777633164872
30
0
41
1
10
78.6227139617999
20
-4.34027520389949
30
0
41
1
10
78.6945616546486
20
-4.3569986408198
30
0
41
1
10
78.7872909795554
20
-4.37185737553995
30
0
41
1
10
78.8060126387674
20
-4.37452712244706
30
0
41
1
10
78.8433682447348
20
-4.37919871726049
30
0
41
1
10
78.8994001739586
20
-4.38522754943725
30
0
41
1
10
78.955427777747
20
-4.38836928225425
30
0
41
1
10
79.0674773639308
20
-4.39086623167202
30
0
41
1
10
79.1421696464062
20
-4.38750484106441
30
0
41
1
10
79.2541965177173
20
-4.37476332126079
30
0
41
1
10
79.2916419922512
20
-4.36920236027103
30
0
41
1
10
79.365635630878
20
-4.35559087665928
30
0
41
1
10
79.4022620869236
20
-4.34753886859897
30
0
41
1
10
79.4385227108016
20
-4.33824615623416
30
0
0
SPLINE
5
126
100
AcDbEntity
8
1
62
256
6
ByLayer
370
18
48
1
60
0
100
AcDbSpline
70
4
71
3
72
14
73
10
40
0
40
0
40
0
40
0
40
0.499999999999919
40
0.499999999999919
40
0.624999999999973
40
0.624999999999973
40
0.750000000000028
40
0.750000000000028
40
1
40
1
40
1
40
1
41
1
10
76.3071467768528
20
-5.94850470710915
30
0
41
1
10
76.2617718045966
20
-5.94776703583949
30
0
41
1
10
76.2175365956623
20
-5.94996493345116
30
0
41
1
10
76.1635122555133
20
-5.95598246398126
30
0
41
1
10
76.1527713757503
20
-5.95735077795669
30
0
41
1
10
76.131415560428
20
-5.9604117871875
30
0
41
1
10
76.1207770540987
20
-5.9621097494132
30
0
41
1
10
76.0895034043635
20
-5.96759808562101
30
0
41
1
10
76.0693621273397
20
-5.97179900858171
30
0
41
1
10
76.0498376593297
20
-5.97647226772523
30
0
0
SPLINE
5
127
100
AcDbEntity
8
1
62
256
6
ByLayer
370
18
48
1
60
0
100
AcDbSpline
70
4
71
3
72
10
73
6
40
0
40
0
40
0
40
0
40
0.5
40
0.5
40
1
40
1
40
1
40
1
41
1
10
76.3071467768528
20
3.71183238501251
30
0
41
1
10
76.2440767267709
20
3.71360674845738
30
0
41
1
10
76.181295020011
20
3.71434627725131
30
0
41
1
10
76.0562791584828
20
3.71334233294056
30
0
41
1
10
75.994047342807
20
3.71164761794958
30
0
41
1
10
75.9321022670161
20
3.70889934054242
30
0
0
SPLINE
5
128
100
AcDbEntity
8
1
62
256
6
ByLayer
370
18
48
1
60
0
100
AcDbSpline
70
4
71
3
72
8
73
4
40
0
40
0
40
0
40
0
40
1
40
1
40
1
40
1
41
1
10
75.932102267016
20
-5.9207151277013
30
0
41
1
10
75.9725141656059
20
-5.93939411820782
30
0
41
1
10
76.0117742717827
20
-5.95792045879963
30
0
41
1
10
76.0498376593297
20
-5.97647226772523
30
0
0
SPLINE
5
129
100
AcDbEntity
8
1
62
256
6
ByLayer
370
18
48
1
60
0
100
AcDbSpline
70
4
71
3
72
36
73
32
40
0
40
0
40
0
40
0
40
0.124999999999984
40
0.124999999999984
40
0.187499999999983
40
0.187499999999983
40
0.21874999999999
40
0.21874999999999
40
0.249999999999997
40
0.249999999999997
40
0.375000000000024
40
0.375000000000024
40
0.406250000000028
40
0.406250000000028
40
0.437500000000032
40
0.437500000000032
40
0.50000000000003
40
0.50000000000003
40
0.625000000000034
40
0.625000000000034
40
0.656250000000032
40
0.656250000000032
40
0.68750000000003
40
0.750000000000025
40
0.812500000000021
40
0.812500000000021
40
0.843750000000018
40
0.843750000000018
40
0.875000000000014
40
0.875000000000014
40
1
40
1
40
1
40
1
41
1
10
79.4402088801654
20
-0.461250773637147
30
0
41
1
10
79.5461446009259
20
-0.481989813173016
30
0
41
1
10
79.6483112418514
20
-0.512691401664995
30
0
41
1
10
79.7960285418268
20
-0.573319896542557
30
0
41
1
10
79.8443392244488
20
-0.595975132586375
30
0
41
1
10
79.915370380705
20
-0.63372916588952
30
0
41
1
10
79.9388663094244
20
-0.646978977892076
30
0
41
1
10
79.9850761079649
20
-0.674591959724495
30
0
41
1
10
80.007737869476
20
-0.688919375914537
30
0
41
1
10
80.1188736688455
20
-0.763105370995646
30
0
41
1
10
80.2008803770402
20
-0.830550786249063
30
0
41
1
10
80.294894762913
20
-0.9247261149238
30
0
41
1
10
80.3132697798412
20
-0.944058261743407
30
0
41
1
10
80.3491549289073
20
-0.983724802183218
30
0
41
1
10
80.3667070625902
20
-1.00411364236587
30
0
41
1
10
80.4175578626754
20
-1.06619082690008
30
0
41
1
10
80.4491644509762
20
-1.10888801190134
30
0
41
1
10
80.5374340200524
20
-1.2406852393915
30
0
41
1
10
80.5875853830396
20
-1.33346856129458
30
0
41
1
10
80.6398139149122
20
-1.4552356308443
30
0
41
1
10
80.6497256549059
20
-1.47987120002588
30
0
41
1
10
80.6683319875161
20
-1.52924460304663
30
0
41
1
10
80.6944918222726
20
-1.60363314728267
30
0
41
1
10
80.7296663133637
20
-1.72916601435702
30
0
41
1
10
80.7493170899721
20
-1.83110163784823
30
0
41
1
10
80.7609961339153
20
-1.90807951074507
30
0
41
1
10
80.7643787140603
20
-1.93382663525446
30
0
41
1
10
80.7701370779272
20
-1.98549146638354
30
0
41
1
10
80.772510861357
20
-2.01140968284395
30
0
41
1
10
80.7818507528069
20
-2.14062475060783
30
0
41
1
10
80.7813572197161
20
-2.24343359976055
30
0
41
1
10
80.7737032926428
20
-2.34566794981742
30
0
0
SPLINE
5
12A
100
AcDbEntity
8
1
62
256
6
ByLayer
370
18
48
1
60
0
100
AcDbSpline
70
4
71
3
72
8
73
4
40
0
40
0
40
0
40
0
40
1
40
1
40
1
40
1
41
1
10
79.4385227108094
20
-0.460922023650966
30
0
41
1
10
79.4390848185854
20
-0.461031166611264
30
0
41
1
10
79.4396468750489
20
-0.461140749877018
30
0
41
1
10
79.4402088801654
20
-0.461250773637147
30
0
0
SPLINE
5
12B
100
AcDbEntity
8
1
62
256
6
ByLayer
370
18
48
1
60
0
100
AcDbSpline
70
4
71
3
72
37
73
33
40
0
40
0
40
0
40
0
40
0.062500000000005
40
0.062500000000005
40
0.0937500000000074
40
0.0937500000000074
40
0.12500000000001
40
0.12500000000001
40
0.250000000000019
40
0.250000000000019
40
0.375000000000029
40
0.375000000000029
40
0.406250000000025
40
0.406250000000025
40
0.437500000000021
40
0.500000000000013
40
0.500000000000013
40
0.624999999999981
40
0.624999999999981
40
0.656249999999981
40
0.656249999999981
40
0.687499999999982
40
0.687499999999982
40
0.749999999999982
40
0.749999999999982
40
0.874999999999982
40
0.874999999999982
40
0.906249999999987
40
0.906249999999987
40
0.937499999999991
40
0.937499999999991
40
1
40
1
40
1
40
1
41
1
10
77.4558821754622
20
-1.54086063320736
30
0
41
1
10
77.4771537677171
20
-1.49586970875589
30
0
41
1
10
77.5000613391503
20
-1.45143598440322
30
0
41
1
10
77.5370042968861
20
-1.38568329499191
30
0
41
1
10
77.5497493279993
20
-1.36391556082211
30
0
41
1
10
77.576128060009
20
-1.32069252305632
30
0
41
1
10
77.5897402799719
20
-1.2992766145139
30
0
41
1
10
77.6594544193355
20
-1.19392468841704
30
0
41
1
10
77.7209035371722
20
-1.1144604052422
30
0
41
1
10
77.8553674822578
20
-0.965484915065502
30
0
41
1
10
77.9283748301431
20
-0.895966674305811
30
0
41
1
10
78.0274672084529
20
-0.815901405417861
30
0
41
1
10
78.0477322323415
20
-0.800193747845043
30
0
41
1
10
78.0887868623179
20
-0.769701412543014
30
0
41
1
10
78.1511011893457
20
-0.725377100504772
30
0
41
1
10
78.2155885778621
20
-0.685254408269572
30
0
41
1
10
78.3474471111332
20
-0.610598400204793
30
0
41
1
10
78.4391770692461
20
-0.568240320358854
30
0
41
1
10
78.5588614634178
20
-0.525066264136314
30
0
41
1
10
78.5830510834041
20
-0.516923292543083
30
0
41
1
10
78.6319490246551
20
-0.501647556758769
30
0
41
1
10
78.6566573279805
20
-0.494519002607916
30
0
41
1
10
78.7307769327879
20
-0.474887363636583
30
0
41
1
10
78.7804437321904
20
-0.464049459798446
30
0
41
1
10
78.9301939920053
20
-0.438186811480563
30
0
41
1
10
79.0310212538527
20
-0.429759628556354
30
0
41
1
10
79.1583471741956
20
-0.430686856682485
30
0
41
1
10
79.1838774332256
20
-0.431449624907657
30
0
41
1
10
79.2350714176305
20
-0.434159203962338
30
0
41
1
10
79.2607272550915
20
-0.436108454745351
30
0
41
1
10
79.3373215222918
20
-0.443712437886376
30
0
41
1
10
79.3880777834194
20
-0.451127267302013
30
0
41
1
10
79.4385227108093
20
-0.460922023650909
30
0
0
SPLINE
5
12C
100
AcDbEntity
8
1
62
256
6
ByLayer
370
18
48
1
60
0
100
AcDbSpline
70
4
71
3
72
38
73
34
40
0
40
0
40
0
40
0
40
0.0625000000000457
40
0.0625000000000457
40
0.0937500000000685
40
0.0937500000000685
40
0.125000000000091
40
0.125000000000091
40
0.187500000000077
40
0.187500000000077
40
0.250000000000062
40
0.250000000000062
40
0.312500000000048
40
0.312500000000048
40
0.375000000000033
40
0.375000000000033
40
0.437500000000019
40
0.437500000000019
40
0.500000000000004
40
0.500000000000004
40
0.624999999999974
40
0.624999999999974
40
0.749999999999943
40
0.749999999999943
40
0.812499999999947
40
0.812499999999947
40
0.87499999999995
40
0.87499999999995
40
0.906249999999963
40
0.906249999999963
40
0.937499999999975
40
0.937499999999975
40
1
40
1
40
1
40
1
41
1
10
77.3660841869022
20
5.2768352779706
30
0
41
1
10
77.3776089038248
20
5.26965769647697
30
0
41
1
10
77.3899817868642
20
5.26454003994448
30
0
41
1
10
77.4094033676782
20
5.25891980697332
30
0
41
1
10
77.4160262129087
20
5.25740378330704
30
0
41
1
10
77.4293381426007
20
5.25502178606823
30
0
41
1
10
77.4360534691212
20
5.25414805413823
30
0
41
1
10
77.4563588981322
20
5.25235395900444
30
0
41
1
10
77.4699622326392
20
5.25226380291417
30
0
41
1
10
77.4972208744888
20
5.25382805909337
30
0
41
1
10
77.5108344552202
20
5.25548828085181
30
0
41
1
10
77.5378330387454
20
5.26026569871908
30
0
41
1
10
77.5512900549715
20
5.26339984259124
30
0
41
1
10
77.5778262993013
20
5.27093354725881
30
0
41
1
10
77.5909200727297
20
5.27533276175399
30
0
41
1
10
77.616788440301
20
5.28531292480267
30
0
41
1
10
77.6295516397914
20
5.29089417331249
30
0
41
1
10
77.6545177397439
20
5.30308750606812
30
0
41
1
10
77.666753710592
20
5.30971195301044
30
0
41
1
10
77.702723069058
20
5.33116342078475
30
0
41
1
10
77.725406228514
20
5.34735620610954
30
0
41
1
10
77.7677976534784
20
5.38354039444928
30
0
41
1
10
77.7873743267916
20
5.40342582321361
30
0
41
1
10
77.8132127961212
20
5.43583624780561
30
0
41
1
10
77.8212577062082
20
5.44710995228761
30
0
41
1
10
77.8357745307986
20
5.47043214845405
30
0
41
1
10
77.8422977491574
20
5.48255343526165
30
0
41
1
10
77.8505414321127
20
5.50135023892994
30
0
41
1
10
77.8530265200623
20
5.50770618029341
30
0
41
1
10
77.8573896039622
20
5.52062988840262
30
0
41
1
10
77.8592718363848
20
5.52722173965512
30
0
41
1
10
77.8637572904615
20
5.54707378639566
30
0
41
1
10
77.8652794749743
20
5.56046670690466
30
0
41
1
10
77.8645866623908
20
5.5741112190812
30
0
0
SPLINE
5
12D
100
AcDbEntity
8
1
62
256
6
ByLayer
370
18
48
1
60
0
100
AcDbSpline
70
4
71
3
72
8
73
4
40
0
40
0
40
0
40
0
40
1
40
1
40
1
40
1
41
1
10
77.8645866623908
20
5.5741112190812
30
0
41
1
10
77.8642104774387
20
5.58151994733126
30
0
41
1
10
77.8638340136082
20
5.58892813613045
30
0
41
1
10
77.863457284924
20
5.59633581057156
30
0
0
SPLINE
5
12E
100
AcDbEntity
8
1
62
256
6
ByLayer
370
18
48
1
60
0
100
AcDbSpline
70
4
71
3
72
30
73
26
40
0
40
0
40
0
40
0
40
0.25000000000004
40
0.25000000000004
40
0.37500000000001
40
0.37500000000001
40
0.49999999999998
40
0.49999999999998
40
0.62499999999995
40
0.62499999999995
40
0.687499999999935
40
0.687499999999935
40
0.74999999999992
40
0.74999999999992
40
0.781249999999912
40
0.781249999999912
40
0.812499999999905
40
0.812499999999905
40
0.874999999999939
40
0.874999999999939
40
0.906249999999956
40
0.906249999999956
40
0.937499999999972
40
0.937499999999972
40
1
40
1
40
1
40
1
41
1
10
78.1494712853048
20
5.79157378617919
30
0
41
1
10
78.1163309051755
20
5.79040815804186
30
0
41
1
10
78.0833176937703
20
5.78649324616197
30
0
41
1
10
78.034724463045
20
5.77598371130597
30
0
41
1
10
78.0187135546214
20
5.77170348211581
30
0
41
1
10
77.987275996629
20
5.76132210480523
30
0
41
1
10
77.9718516520406
20
5.75522573814578
30
0
41
1
10
77.9420937676403
20
5.74077646225652
30
0
41
1
10
77.9278266696625
20
5.7324650165356
30
0
41
1
10
77.9080914191994
20
5.71787755657769
30
0
41
1
10
77.9017797492771
20
5.71265110204916
30
0
41
1
10
77.8898541908832
20
5.70125434331163
30
0
41
1
10
77.8843002364293
20
5.6951299694297
30
0
41
1
10
77.8769189756458
20
5.68533709522626
30
0
41
1
10
77.8746094249242
20
5.68196351766929
30
0
41
1
10
77.8703357528368
20
5.67496723292956
30
0
41
1
10
77.8683640370119
20
5.67132464633519
30
0
41
1
10
77.8631606116158
20
5.66020813048959
30
0
41
1
10
77.8605975410345
20
5.65250327493993
30
0
41
1
10
77.8583503454873
20
5.64043394520522
30
0
41
1
10
77.8578779994579
20
5.63634500972839
30
0
41
1
10
77.8575098951037
20
5.62824724549162
30
0
41
1
10
77.8576078379625
20
5.62420866823561
30
0
41
1
10
77.8587299571235
20
5.61212395221594
30
0
41
1
10
77.8606154864198
20
5.60405768329943
30
0
41
1
10
77.863457284924
20
5.59633581057156
30
0
0
SPLINE
5
12F
100
AcDbEntity
8
1
62
256
6
ByLayer
370
18
48
1
60
0
100
AcDbSpline
70
4
71
3
72
8
73
4
40
0
40
0
40
0
40
0
40
1
40
1
40
1
40
1
41
1
10
77.3473031413474
20
5.28853351001229
30
0
41
1
10
77.3535628121326
20
5.28463405716604
30
0
41
1
10
77.3598231495176
20
5.28073464542271
30
0
41
1
10
77.3660841869022
20
5.2768352779706
30
0
0
SPLINE
5
130
100
AcDbEntity
8
1
62
256
6
ByLayer
370
18
48
1
60
0
100
AcDbSpline
70
4
71
3
72
28
73
24
40
0
40
0
40
0
40
0
40
0.250000000000049
40
0.250000000000049
40
0.37500000000004
40
0.37500000000004
40
0.500000000000031
40
0.500000000000031
40
0.625000000000022
40
0.625000000000022
40
0.687500000000018
40
0.687500000000018
40
0.750000000000014
40
0.750000000000014
40
0.812500000000009
40
0.812500000000009
40
0.843750000000007
40
0.843750000000007
40
0.875000000000005
40
0.875000000000005
40
0.937500000000002
40
0.937500000000002
40
1
40
1
40
1
40
1
41
1
10
77.0426717679617
20
5.13154723803336
30
0
41
1
10
77.0592498304948
20
5.16003943926759
30
0
41
1
10
77.0782013867045
20
5.18712865799461
30
0
41
1
10
77.1102225756177
20
5.22468460599498
30
0
41
1
10
77.1215131480112
20
5.23669260952963
30
0
41
1
10
77.1453685742177
20
5.25927640125829
30
0
41
1
10
77.157978402164
20
5.2698975921727
30
0
41
1
10
77.1845569764973
20
5.28902872039313
30
0
41
1
10
77.1986580543372
20
5.29763103041384
30
0
41
1
10
77.2207307264273
20
5.30794033856429
30
0
41
1
10
77.2282524380127
20
5.31095120614594
30
0
41
1
10
77.2437056873183
20
5.31589260500809
30
0
41
1
10
77.2517125429708
20
5.31783260593716
30
0
41
1
10
77.2677603237124
20
5.32017709565827
30
0
41
1
10
77.2758163063019
20
5.32060206359819
30
0
41
1
10
77.287954312411
20
5.31981443725365
30
0
41
1
10
77.2920255508431
20
5.31930618871218
30
0
41
1
10
77.2999679437826
20
5.31778675333447
30
0
41
1
10
77.3038634073698
20
5.3167760203203
30
0
41
1
10
77.3153103445439
20
5.31295540442989
30
0
41
1
10
77.3227099910737
20
5.30927404803987
30
0
41
1
10
77.3359765303088
20
5.30017165786168
30
0
41
1
10
77.3419439783028
20
5.29474983335786
30
0
41
1
10
77.3473031413474
20
5.28853351001231
30
0
0
SPLINE
5
131
100
AcDbEntity
8
1
62
256
6
ByLayer
370
18
48
1
60
0
100
AcDbSpline
70
4
71
3
72
38
73
34
40
0
40
0
40
0
40
0
40
0.0625000000000457
40
0.0625000000000457
40
0.0937500000000584
40
0.0937500000000584
40
0.125000000000071
40
0.125000000000071
40
0.187500000000066
40
0.187500000000066
40
0.250000000000061
40
0.250000000000061
40
0.312500000000056
40
0.312500000000056
40
0.375000000000051
40
0.375000000000051
40
0.437500000000046
40
0.437500000000046
40
0.500000000000041
40
0.500000000000041
40
0.62500000000003
40
0.62500000000003
40
0.75000000000002
40
0.75000000000002
40
0.812500000000015
40
0.812500000000015
40
0.87500000000001
40
0.87500000000001
40
0.906250000000008
40
0.906250000000008
40
0.937500000000005
40
0.937500000000005
40
1
40
1
40
1
40
1
41
1
10
78.4571091522652
20
5.59495168269422
30
0
41
1
10
78.4581938046879
20
5.58132820142529
30
0
41
1
10
78.4613745729961
20
5.56809068720153
30
0
41
1
10
78.4682300575649
20
5.54860725440091
30
0
41
1
10
78.4708770217165
20
5.54217832198188
30
0
41
1
10
78.476707277099
20
5.52961344266575
30
0
41
1
10
78.4798997134609
20
5.52345108145585
30
0
41
1
10
78.4901969047257
20
5.50527332191092
30
0
41
1
10
78.4979396742072
20
5.4936928827245
30
0
41
1
10
78.5147521264905
20
5.47142680432088
30
0
41
1
10
78.5238023291193
20
5.46077965711837
30
0
41
1
10
78.542830374184
20
5.44046434907955
30
0
41
1
10
78.5528621232068
20
5.43074426283926
30
0
41
1
10
78.5736078936648
20
5.41230727688125
30
0
41
1
10
78.5843301468042
20
5.40357785391751
30
0
41
1
10
78.6064162833764
20
5.38702803367707
30
0
41
1
10
78.6177737531552
20
5.37921746177432
30
0
41
1
10
78.6408746769236
20
5.36462877230011
30
0
41
1
10
78.6526461181202
20
5.35782928198088
30
0
41
1
10
78.688616565086
20
5.33891050029646
30
0
41
1
10
78.7131383982847
20
5.32842066446673
30
0
41
1
10
78.7631028402513
20
5.31201620493567
30
0
41
1
10
78.7883937724542
20
5.30615598118115
30
0
41
1
10
78.8262006307584
20
5.30174602274013
30
0
41
1
10
78.8388218878243
20
5.30101074398999
30
0
41
1
10
78.8637667032278
20
5.30128926219629
30
0
41
1
10
78.8761712737946
20
5.30229886157306
30
0
41
1
10
78.8944073743575
20
5.30544800172513
30
0
41
1
10
78.9004122418051
20
5.30676866391138
30
0
41
1
10
78.9122581201457
20
5.31003737550674
30
0
41
1
10
78.9181191573651
20
5.31199480934103
30
0
41
1
10
78.9351526644796
20
5.31888990973349
30
0
41
1
10
78.9458588362767
20
5.32481285458138
30
0
41
1
10
78.9556116277539
20
5.33274284158048
30
0
0
SPLINE
5
132
100
AcDbEntity
8
1
62
256
6
ByLayer
370
18
48
1
60
0
100
AcDbSpline
70
4
71
3
72
8
73
4
40
0
40
0
40
0
40
0
40
1
40
1
40
1
40
1
41
1
10
78.9556116277539
20
5.33274284158048
30
0
41
1
10
78.9609072206486
20
5.33704868395452
30
0
41
1
10
78.9662015912293
20
5.34135450300735
30
0
41
1
10
78.9714947992285
20
5.34566029882632
30
0
0
SPLINE
5
133
100
AcDbEntity
8
1
62
256
6
ByLayer
370
18
48
1
60
0
100
AcDbSpline
70
4
71
3
72
28
73
24
40
0
40
0
40
0
40
0
40
0.250000000000038
40
0.250000000000038
40
0.375000000000006
40
0.375000000000006
40
0.499999999999974
40
0.499999999999974
40
0.624999999999942
40
0.624999999999942
40
0.687499999999928
40
0.687499999999928
40
0.749999999999914
40
0.749999999999914
40
0.8124999999999
40
0.8124999999999
40
0.843749999999916
40
0.843749999999916
40
0.874999999999933
40
0.874999999999933
40
0.937499999999967
40
0.937499999999967
40
1
40
1
40
1
40
1
41
1
10
78.1494712853048
20
5.79157378617919
30
0
41
1
10
78.182627410371
20
5.79273996810443
30
0
41
1
10
78.2158820025635
20
5.79114926809655
30
0
41
1
10
78.2651526744462
20
5.78407807056655
30
0
41
1
10
78.2814869720357
20
5.78092622813105
30
0
41
1
10
78.3136760409467
20
5.77277830188328
30
0
41
1
10
78.3295934767048
20
5.76776838342948
30
0
41
1
10
78.3604661716888
20
5.75546834416352
30
0
41
1
10
78.3755721355812
20
5.74811547376632
30
0
41
1
10
78.3966645903533
20
5.7349169924436
30
0
41
1
10
78.4034461872624
20
5.73015056760366
30
0
41
1
10
78.4163816909344
20
5.71969166564716
30
0
41
1
10
78.4225869165915
20
5.71394038765774
30
0
41
1
10
78.4337973597142
20
5.70158620124838
30
0
41
1
10
78.4388276409259
20
5.69498149407582
30
0
41
1
10
78.4452813088827
20
5.68426463183903
30
0
41
1
10
78.4472536027819
20
5.68053921775211
30
0
41
1
10
78.4506865597173
20
5.67298840028002
30
0
41
1
10
78.452161748113
20
5.66914262292431
30
0
41
1
10
78.4558302903412
20
5.65738553025304
30
0
41
1
10
78.457252755943
20
5.64913558499313
30
0
41
1
10
78.4578494156741
20
5.63300228788259
30
0
41
1
10
78.4570814378034
20
5.62503323528097
30
0
41
1
10
78.4553406556518
20
5.61715379480268
30
0
0
SPLINE
5
134
100
AcDbEntity
8
1
62
256
6
ByLayer
370
18
48
1
60
0
100
AcDbSpline
70
4
71
3
72
8
73
4
40
0
40
0
40
0
40
0
40
1
40
1
40
1
40
1
41
1
10
78.4553406556518
20
5.61715379480268
30
0
41
1
10
78.4559303897537
20
5.6097536122825
30
0
41
1
10
78.4565198927274
20
5.60235291659049
30
0
41
1
10
78.4571091522652
20
5.59495168269422
30
0
0
SPLINE
5
135
100
AcDbEntity
8
1
62
256
6
ByLayer
370
18
48
1
60
0
100
AcDbSpline
70
4
71
3
72
30
73
26
40
0
40
0
40
0
40
0
40
0.250000000000067
40
0.250000000000067
40
0.375000000000068
40
0.375000000000068
40
0.500000000000069
40
0.500000000000069
40
0.625000000000069
40
0.625000000000069
40
0.687500000000112
40
0.687500000000112
40
0.750000000000155
40
0.750000000000155
40
0.781250000000131
40
0.781250000000131
40
0.812500000000106
40
0.812500000000106
40
0.875000000000148
40
0.875000000000148
40
0.906250000000128
40
0.906250000000128
40
0.937500000000109
40
0.937500000000109
40
1
40
1
40
1
40
1
41
1
10
79.2562708026478
20
5.20940492432291
30
0
41
1
10
79.2397006125832
20
5.23671796725264
30
0
41
1
10
79.2209759880992
20
5.2624521291078
30
0
41
1
10
79.1896389518815
20
5.29778780046939
30
0
41
1
10
79.1786643615843
20
5.30899249674994
30
0
41
1
10
79.1555671876932
20
5.3299326424486
30
0
41
1
10
79.1434490358328
20
5.33966873172105
30
0
41
1
10
79.1180003223703
20
5.35700926456238
30
0
41
1
10
79.1047330149528
20
5.36457996209094
30
0
41
1
10
79.0840426262839
20
5.37339096972545
30
0
41
1
10
79.0770011231534
20
5.37590723015032
30
0
41
1
10
79.0625548862474
20
5.37984315087436
30
0
41
1
10
79.055214248196
20
5.38123692773394
30
0
41
1
10
79.0442257678909
20
5.38219956424163
30
0
41
1
10
79.0405568711076
20
5.38233426200102
30
0
41
1
10
79.033207361782
20
5.382177902866
30
0
41
1
10
79.0295081570087
20
5.38188256033135
30
0
41
1
10
79.0186298411614
20
5.38029387000438
30
0
41
1
10
79.0116169969675
20
5.3783115464835
30
0
41
1
10
79.0015322802423
20
5.37371303900221
30
0
41
1
10
78.9982629360864
20
5.37191101452183
30
0
41
1
10
78.9920782916192
20
5.36786297657503
30
0
41
1
10
78.9891377459962
20
5.36560627070307
30
0
41
1
10
78.9807634331745
20
5.35815305087726
30
0
41
1
10
78.9757562268152
20
5.35221796152493
30
0
41
1
10
78.9714947992285
20
5.34566029882632
30
0
0
SPLINE
5
136
100
AcDbEntity
8
1
62
256
6
ByLayer
370
18
48
1
60
0
100
AcDbSpline
70
4
71
3
72
38
73
34
40
0
40
0
40
0
40
0
40
0.062499999999964
40
0.062499999999964
40
0.0937499999999675
40
0.0937499999999675
40
0.124999999999971
40
0.124999999999971
40
0.187499999999975
40
0.187499999999975
40
0.24999999999998
40
0.24999999999998
40
0.312499999999984
40
0.312499999999984
40
0.374999999999988
40
0.374999999999988
40
0.437499999999993
40
0.437499999999993
40
0.499999999999997
40
0.499999999999997
40
0.625000000000006
40
0.625000000000006
40
0.750000000000014
40
0.750000000000014
40
0.812500000000019
40
0.812500000000019
40
0.875000000000023
40
0.875000000000023
40
0.906250000000027
40
0.906250000000027
40
0.937500000000031
40
0.937500000000031
40
1
40
1
40
1
40
1
41
1
10
77.069822941965
20
4.20817549463982
30
0
41
1
10
77.0811515552602
20
4.21281827033152
30
0
41
1
10
77.091173749516
20
4.21925365510478
30
0
41
1
10
77.1049200350465
20
4.23072190742573
30
0
41
1
10
77.1092780047595
20
4.23485944714741
30
0
41
1
10
77.1174922620173
20
4.24355570523255
30
0
41
1
10
77.1213672533738
20
4.24812981871637
30
0
41
1
10
77.1323925569253
20
4.26244956063042
30
0
41
1
10
77.1388719629347
20
4.27268403528049
30
0
41
1
10
77.1504481765473
20
4.29422122222331
30
0
41
1
10
77.155520557365
20
4.30549567654975
30
0
41
1
10
77.1643965091742
20
4.32875105528558
30
0
41
1
10
77.1682203482856
20
4.34079646700738
30
0
41
1
10
77.1746933391473
20
4.36538213204005
30
0
41
1
10
77.1773495412015
20
4.37793306735173
30
0
41
1
10
77.1815892667632
20
4.40353466103718
30
0
41
1
10
77.183167236194
20
4.41657695693578
30
0
41
1
10
77.1852615212532
20
4.44289405058487
30
0
41
1
10
77.185783549784
20
4.4562013058873
30
0
41
1
10
77.1857823268946
20
4.49657182806158
30
0
41
1
10
77.1837142391224
20
4.52371999704422
30
0
41
1
10
77.175225197259
20
4.57816752593212
30
0
41
1
10
77.1688262164263
20
4.60530267853522
30
0
41
1
10
77.1554983547269
20
4.64488182734942
30
0
41
1
10
77.1504116373635
20
4.65792650061536
30
0
41
1
10
77.138855686154
20
4.68325913846917
30
0
41
1
10
77.132353370244
20
4.69563094195905
30
0
41
1
10
77.121345583474
20
4.71333908498991
30
0
41
1
10
77.1174740286509
20
4.71908821867243
30
0
41
1
10
77.1092585855809
20
4.7302299724644
30
0
41
1
10
77.1048974462319
20
4.73564025795261
30
0
41
1
10
77.0911709588422
20
4.75098859053873
30
0
41
1
10
77.0811575662902
20
4.76014167085472
30
0
41
1
10
77.069822941965
20
4.76766027686412
30
0
0
SPLINE
5
137
100
AcDbEntity
8
1
62
256
6
ByLayer
370
18
48
1
60
0
100
AcDbSpline
70
4
71
3
72
8
73
4
40
0
40
0
40
0
40
0
40
1
40
1
40
1
40
1
41
1
10
77.069822941965
20
4.76766027686412
30
0
41
1
10
77.0636684418732
20
4.77174274665288
30
0
41
1
10
77.0575146240599
20
4.7758252302759
30
0
41
1
10
77.0513614559835
20
4.77990772602041
30
0
0
SPLINE
5
138
100
AcDbEntity
8
1
62
256
6
ByLayer
370
18
48
1
60
0
100
AcDbSpline
70
4
71
3
72
30
73
26
40
0
40
0
40
0
40
0
40
0.249999999999982
40
0.249999999999982
40
0.374999999999971
40
0.374999999999971
40
0.499999999999959
40
0.499999999999959
40
0.624999999999947
40
0.624999999999947
40
0.687499999999945
40
0.687499999999945
40
0.749999999999942
40
0.749999999999942
40
0.781249999999958
40
0.781249999999958
40
0.812499999999974
40
0.812499999999974
40
0.875000000000012
40
0.875000000000012
40
0.90625000000003
40
0.90625000000003
40
0.937500000000049
40
0.937500000000049
40
1
40
1
40
1
40
1
41
1
10
77.0426717679617
20
5.13154723803336
30
0
41
1
10
77.0261015778971
20
5.10306856696627
30
0
41
1
10
77.0119136926907
20
5.07321514014629
30
0
41
1
10
76.9949997817426
20
5.0266753409781
30
0
41
1
10
76.9901099934403
20
5.01089306385248
30
0
41
1
10
76.9821484291488
20
4.97880280520823
30
0
41
1
10
76.9790741379309
20
4.96249975362645
30
0
41
1
10
76.9753514308301
20
4.92951983910282
30
0
41
1
10
76.9747041385883
20
4.91292237418386
30
0
41
1
10
76.9763244888601
20
4.88817399772495
30
0
41
1
10
76.9772993878573
20
4.87993397296893
30
0
41
1
10
76.9803746230704
20
4.86347593657854
30
0
41
1
10
76.9824686957651
20
4.85533400390523
30
0
41
1
10
76.9865872800125
20
4.84354078535219
30
0
41
1
10
76.9881258854484
20
4.83966874059928
30
0
41
1
10
76.9915809173277
20
4.83205931871746
30
0
41
1
10
76.9935094869477
20
4.82830402345826
30
0
41
1
10
76.9998106693822
20
4.81750526924739
30
0
41
1
10
77.0047107276534
20
4.81086897860814
30
0
41
1
10
77.0132844338784
20
4.80190422265613
30
0
41
1
10
77.016335885289
20
4.79910095189751
30
0
41
1
10
77.0226666512808
20
4.79400771165385
30
0
41
1
10
77.0259667130815
20
4.79169503188456
30
0
41
1
10
77.0362613302904
20
4.78544378558581
30
0
41
1
10
77.0437081239252
20
4.7821882611446
30
0
41
1
10
77.0513614559835
20
4.77990772602041
30
0
0
SPLINE
5
139
100
AcDbEntity
8
1
62
256
6
ByLayer
370
18
48
1
60
0
100
AcDbSpline
70
4
71
3
72
8
73
4
40
0
40
0
40
0
40
0
40
1
40
1
40
1
40
1
41
1
10
77.0513614559835
20
4.20061192948478
30
0
41
1
10
77.0575146240599
20
4.20313204203634
30
0
41
1
10
77.0636684418732
20
4.20565321210833
30
0
41
1
10
77.069822941965
20
4.20817549463979
30
0
0
SPLINE
5
13A
100
AcDbEntity
8
1
62
256
6
ByLayer
370
18
48
1
60
0
100
AcDbSpline
70
4
71
3
72
28
73
24
40
0
40
0
40
0
40
0
40
0.250000000000018
40
0.250000000000018
40
0.375000000000044
40
0.375000000000044
40
0.500000000000071
40
0.500000000000071
40
0.625000000000097
40
0.625000000000097
40
0.68750000000011
40
0.68750000000011
40
0.750000000000123
40
0.750000000000123
40
0.812500000000137
40
0.812500000000137
40
0.843750000000115
40
0.843750000000115
40
0.875000000000093
40
0.875000000000093
40
0.937500000000047
40
0.937500000000047
40
1
40
1
40
1
40
1
41
1
10
77.0426717679617
20
3.88935182803124
30
0
41
1
10
77.0260937054286
20
3.9166778473402
30
0
41
1
10
77.0118916182183
20
3.94515291163822
30
0
41
1
10
76.9949845794585
20
3.98908513821209
30
0
41
1
10
76.9900877609055
20
4.00394686785205
30
0
41
1
10
76.9821331548634
20
4.03390941013643
30
0
41
1
10
76.9790581613121
20
4.04906847747642
30
0
41
1
10
76.975349846537
20
4.07931087436529
30
0
41
1
10
76.9747008799711
20
4.09454379056805
30
0
41
1
10
76.9763488746026
20
4.11669646554125
30
0
41
1
10
76.9773342489112
20
4.12397605479555
30
0
41
1
10
76.9804035637492
20
4.13825706118533
30
0
41
1
10
76.9825147446078
20
4.14532017131944
30
0
41
1
10
76.988036229494
20
4.15863051354989
30
0
41
1
10
76.9914364246454
20
4.16490023181359
30
0
41
1
10
76.9977477634317
20
4.17355710095507
30
0
41
1
10
77.0000677490896
20
4.17632570973259
30
0
41
1
10
77.0050322020999
20
4.18143372990593
30
0
41
1
10
77.0076876193818
20
4.18379160251695
30
0
41
1
10
77.0161960965723
20
4.19024652996126
30
0
41
1
10
77.0227010256915
20
4.19374416417034
30
0
41
1
10
77.0364350054199
20
4.19861570208192
30
0
41
1
10
77.0437116589074
20
4.20006462182982
30
0
41
1
10
77.0513614559835
20
4.20061192948478
30
0
0
SPLINE
5
13B
100
AcDbEntity
8
1
62
256
6
ByLayer
370
18
48
1
60
0
100
AcDbSpline
70
4
71
3
72
38
73
34
40
0
40
0
40
0
40
0
40
0.0625000000000349
40
0.0625000000000349
40
0.0937500000000353
40
0.0937500000000353
40
0.125000000000036
40
0.125000000000036
40
0.187500000000037
40
0.187500000000037
40
0.250000000000038
40
0.250000000000038
40
0.312500000000039
40
0.312500000000039
40
0.37500000000004
40
0.37500000000004
40
0.43750000000004
40
0.43750000000004
40
0.500000000000041
40
0.500000000000041
40
0.625000000000039
40
0.625000000000039
40
0.750000000000037
40
0.750000000000037
40
0.812500000000029
40
0.812500000000029
40
0.87500000000002
40
0.87500000000002
40
0.906250000000015
40
0.906250000000015
40
0.937500000000011
40
0.937500000000011
40
1
40
1
40
1
40
1
41
1
10
79.2518728726911
20
4.84440830408698
30
0
41
1
10
79.2423213569863
20
4.83615928022817
30
0
41
1
10
79.2339593217797
20
4.82635494961886
30
0
41
1
10
79.2225734148197
20
4.81009680228087
30
0
41
1
10
79.218979622375
20
4.80440852449709
30
0
41
1
10
79.2122305310139
20
4.7927390184276
30
0
41
1
10
79.2090597420532
20
4.78673587335163
30
0
41
1
10
79.2000685701124
20
4.76828828644341
30
0
41
1
10
79.1948268460708
20
4.75554219490112
30
0
41
1
10
79.1855106805508
20
4.72941871267832
30
0
41
1
10
79.1814563051632
20
4.71607842908284
30
0
41
1
10
79.1743911800514
20
4.68914835600654
30
0
41
1
10
79.1713644847562
20
4.67548530750344
30
0
41
1
10
79.1662565278744
20
4.64812959128497
30
0
41
1
10
79.1641696893506
20
4.63442325167884
30
0
41
1
10
79.1608449529139
20
4.60696487878604
30
0
41
1
10
79.1596114629216
20
4.59322353385946
30
0
41
1
10
79.1579753956125
20
4.56597658304881
30
0
41
1
10
79.1575683648404
20
4.55243596382823
30
0
41
1
10
79.1575693189507
20
4.51206598708498
30
0
41
1
10
79.1591785786637
20
4.48584891375862
30
0
41
1
10
79.1658355708049
20
4.4351191469049
30
0
41
1
10
79.1708651077517
20
4.41076299447025
30
0
41
1
10
79.1814740240011
20
4.3767013772185
30
0
41
1
10
79.1855400005956
20
4.36572808402019
30
0
41
1
10
79.1948400310124
20
4.34497336595368
30
0
41
1
10
79.2001004195184
20
4.33512179458185
30
0
41
1
10
79.2090774679636
20
4.3215346105803
30
0
41
1
10
79.2122454721365
20
4.31721318590837
30
0
41
1
10
79.2189956179478
20
4.30904494667266
30
0
41
1
10
79.2225920881926
20
4.30518639732441
30
0
41
1
10
79.2339617068785
20
4.29462083721435
30
0
41
1
10
79.242316288895
20
4.28883396620813
30
0
41
1
10
79.2518728726911
20
4.28492352186265
30
0
0
SPLINE
5
13C
100
AcDbEntity
8
1
62
256
6
ByLayer
370
18
48
1
60
0
100
AcDbSpline
70
4
71
3
72
8
73
4
40
0
40
0
40
0
40
0
40
1
40
1
40
1
40
1
41
1
10
79.2518728726911
20
4.28492352186268
30
0
41
1
10
79.2570619282929
20
4.28280021989937
30
0
41
1
10
79.262249779302
20
4.28067796402971
30
0
41
1
10
79.2674364845923
20
4.2785567025299
30
0
0
SPLINE
5
13D
100
AcDbEntity
8
1
62
256
6
ByLayer
370
18
48
1
60
0
100
AcDbSpline
70
4
71
3
72
28
73
24
40
0
40
0
40
0
40
0
40
0.249999999999964
40
0.249999999999964
40
0.374999999999968
40
0.374999999999968
40
0.499999999999971
40
0.499999999999971
40
0.624999999999974
40
0.624999999999974
40
0.687499999999979
40
0.687499999999979
40
0.749999999999983
40
0.749999999999983
40
0.812499999999987
40
0.812499999999987
40
0.843749999999989
40
0.843749999999989
40
0.874999999999991
40
0.874999999999991
40
0.937499999999996
40
0.937499999999996
40
1
40
1
40
1
40
1
41
1
10
79.2562708026478
20
5.20940492432291
30
0
41
1
10
79.2728488651809
20
5.18207890501392
30
0
41
1
10
79.2872528499365
20
5.15319413184216
30
0
41
1
10
79.3048447771154
20
5.10787206735532
30
0
41
1
10
79.3100354089544
20
5.09241410505496
30
0
41
1
10
79.3187480883214
20
5.06091321138638
30
0
41
1
10
79.3222883103938
20
5.04481005999006
30
0
41
1
10
79.3271682369199
20
5.01219012190606
30
0
41
1
10
79.3285290424591
20
4.99551267727301
30
0
41
1
10
79.3282166024545
20
4.97064977329987
30
0
41
1
10
79.3277217474105
20
4.96237477771095
30
0
41
1
10
79.3257555709815
20
4.94585518246345
30
0
41
1
10
79.3242634918493
20
4.93753573476067
30
0
41
1
10
79.3201103014976
20
4.92144872473017
30
0
41
1
10
79.3174590938935
20
4.91365909276888
30
0
41
1
10
79.3124017563752
20
4.90245749012584
30
0
41
1
10
79.3105238529672
20
4.89879176781253
30
0
41
1
10
79.3064694339695
20
4.89183702379708
30
0
41
1
10
79.3042843008683
20
4.88852480772499
30
0
41
1
10
79.2972359881669
20
4.87910678160759
30
0
41
1
10
79.2917865554301
20
4.87346723807687
30
0
41
1
10
79.2801807761506
20
4.86427696212374
30
0
41
1
10
79.2739865779085
20
4.86063142567605
30
0
41
1
10
79.2674364845923
20
4.85785249906553
30
0
0
SPLINE
5
13E
100
AcDbEntity
8
1
62
256
6
ByLayer
370
18
48
1
60
0
100
AcDbSpline
70
4
71
3
72
8
73
4
40
0
40
0
40
0
40
0
40
1
40
1
40
1
40
1
41
1
10
79.2674364845923
20
4.85785249906553
30
0
41
1
10
79.262249779302
20
4.85337115226926
30
0
41
1
10
79.2570619282929
20
4.84888975444392
30
0
41
1
10
79.2518728726911
20
4.84440830408698
30
0
0
SPLINE
5
13F
100
AcDbEntity
8
1
62
256
6
ByLayer
370
18
48
1
60
0
100
AcDbSpline
70
4
71
3
72
30
73
26
40
0
40
0
40
0
40
0
40
0.25000000000006
40
0.25000000000006
40
0.375000000000091
40
0.375000000000091
40
0.500000000000121
40
0.500000000000121
40
0.625000000000151
40
0.625000000000151
40
0.687500000000166
40
0.687500000000166
40
0.750000000000181
40
0.750000000000181
40
0.781250000000173
40
0.781250000000173
40
0.812500000000165
40
0.812500000000165
40
0.875000000000112
40
0.875000000000112
40
0.906250000000084
40
0.906250000000084
40
0.937500000000056
40
0.937500000000056
40
1
40
1
40
1
40
1
41
1
10
79.2562708026478
20
3.96720951432079
30
0
41
1
10
79.2728409927124
20
3.99568818538788
30
0
41
1
10
79.2872302813486
20
4.02513290603795
30
0
41
1
10
79.3048287594157
20
4.07028351930492
30
0
41
1
10
79.3100116073661
20
4.08547109312073
30
0
41
1
10
79.3187308112773
20
4.11602388049494
30
0
41
1
10
79.3222689055152
20
4.13138574077698
30
0
41
1
10
79.3271645402901
20
4.16198544371451
30
0
41
1
10
79.3285168291689
20
4.17715226529455
30
0
41
1
10
79.3282269030293
20
4.19920082402049
30
0
41
1
10
79.3277421356099
20
4.20644622917118
30
0
41
1
10
79.3257760137989
20
4.220653551704
30
0
41
1
10
79.3242967192984
20
4.22754792051364
30
0
41
1
10
79.3212008645028
20
4.23726572338293
30
0
41
1
10
79.320020777815
20
4.24041022926278
30
0
41
1
10
79.3173241352183
20
4.24648065859029
30
0
41
1
10
79.3157977269414
20
4.2494198514506
30
0
41
1
10
79.3107491284735
20
4.25767674827696
30
0
41
1
10
79.3067496395196
20
4.26248552169528
30
0
41
1
10
79.2996483033884
20
4.26846241025012
30
0
41
1
10
79.2971057585459
20
4.27023296148434
30
0
41
1
10
79.2918034443117
20
4.2732391738206
30
0
41
1
10
79.289026529149
20
4.2744902368195
30
0
41
1
10
79.2803282823924
20
4.27750198290846
30
0
41
1
10
79.273989604716
20
4.27850881759559
30
0
41
1
10
79.2674364845923
20
4.2785567025299
30
0
0
SPLINE
5
140
100
AcDbEntity
8
1
62
256
6
ByLayer
370
18
48
1
60
0
100
AcDbSpline
70
4
71
3
72
8
73
4
40
0
40
0
40
0
40
0
40
1
40
1
40
1
40
1
41
1
10
77.3660841869022
20
3.71984095714629
30
0
41
1
10
77.3598231495176
20
3.71749428259773
30
0
41
1
10
77.3535628121326
20
3.71514869129825
30
0
41
1
10
77.3473031413474
20
3.71280412972399
30
0
0
SPLINE
5
141
100
AcDbEntity
8
1
62
256
6
ByLayer
370
18
48
1
60
0
100
AcDbSpline
70
4
71
3
72
20
73
16
40
0
40
0
40
0
40
0
40
0.333132130482178
40
0.333132130482178
40
0.499698195723267
40
0.499698195723267
40
0.666264260964356
40
0.666264260964356
40
0.832830326205444
40
0.832830326205444
40
0.916113358825988
40
0.916113358825988
40
0.999396391446531
40
0.999396391446531
40
1
40
1
40
1
40
1
41
1
10
77.0426717679617
20
3.88935182803124
30
0
41
1
10
77.0592419580264
20
3.8620387851015
30
0
41
1
10
77.0781679859402
20
3.83589591707644
30
0
41
1
10
77.1101895892767
20
3.79917105981363
30
0
41
1
10
77.1214572392222
20
3.7873716602233
30
0
41
1
10
77.1453120527328
20
3.76489404325454
30
0
41
1
10
77.1578940076133
20
3.75421676268238
30
0
41
1
10
77.1845156487497
20
3.73449601825496
30
0
41
1
10
77.1984879528044
20
3.7254946773875
30
0
41
1
10
77.2205087656055
20
3.71398385201997
30
0
41
1
10
77.2280404003139
20
3.71047297198979
30
0
41
1
10
77.2435957506219
20
3.70428633740818
30
0
41
1
10
77.2515511668676
20
3.70164499668493
30
0
41
1
10
77.2596166756211
20
3.69960494934247
30
0
41
1
10
77.2596747161788
20
3.69959030173897
30
0
41
1
10
77.2597327617204
20
3.69957568580912
30
0
0
SPLINE
5
142
100
AcDbEntity
8
1
62
256
6
ByLayer
370
18
48
1
60
0
100
AcDbSpline
70
4
71
3
72
22
73
18
40
0
40
0
40
0
40
0
40
0.0923831526868588
40
0.0923831526868588
40
0.184766305373718
40
0.184766305373718
40
0.369532610747608
40
0.369532610747608
40
0.461915763434642
40
0.461915763434642
40
0.554298916121676
40
0.554298916121676
40
0.739065221495923
40
0.739065221495923
40
0.92383152687017
40
0.92383152687017
40
1
40
1
40
1
40
1
41
1
10
77.3660841869022
20
3.71984095714632
30
0
41
1
10
77.3718719761255
20
3.72201025543168
30
0
41
1
10
77.3779087030571
20
3.72373659483574
30
0
41
1
10
77.3903894446326
20
3.72647392976512
30
0
41
1
10
77.3968341742746
20
3.72747934466813
30
0
41
1
10
77.4163084269916
20
3.72956003111628
30
0
41
1
10
77.4296114375069
20
3.72974917746257
30
0
41
1
10
77.4499361233897
20
3.72874963641849
30
0
41
1
10
77.4567803320857
20
3.72819553210101
30
0
41
1
10
77.4703896557838
20
3.72672300954309
30
0
41
1
10
77.4771806489424
20
3.72580368105895
30
0
41
1
10
77.4975207773026
20
3.72256808590169
30
0
41
1
10
77.5110374589387
20
3.71977849898235
30
0
41
1
10
77.5380126349426
20
3.71315753487607
30
0
41
1
10
77.551527076609
20
3.70930242945903
30
0
41
1
10
77.5702180504019
20
3.70331912917774
30
0
41
1
10
77.5756357559154
20
3.70150596047509
30
0
41
1
10
77.5810166975902
20
3.6996294466486
30
0
0
SPLINE
5
143
100
AcDbEntity
8
1
62
256
6
ByLayer
370
18
48
1
60
0
100
AcDbSpline
70
4
71
3
72
26
73
22
40
0
40
0
40
0
40
0
40
0.039269952237277
40
0.039269952237277
40
0.159361208207563
40
0.159361208207563
40
0.279452464177849
40
0.279452464177849
40
0.51963497611842
40
0.51963497611842
40
0.579680604103618
40
0.579680604103618
40
0.639726232088816
40
0.639726232088816
40
0.75981748805921
40
0.75981748805921
40
0.819863116044408
40
0.819863116044408
40
0.879908744029605
40
0.879908744029605
40
1
40
1
40
1
40
1
41
1
10
78.6532434384759
20
3.68488494721367
30
0
41
1
10
78.6571228140855
20
3.68727575544747
30
0
41
1
10
78.6610255409593
20
3.68964059669773
30
0
41
1
10
78.6769569861787
20
3.69913206065792
30
0
41
1
10
78.6890943669766
20
3.70599180803842
30
0
41
1
10
78.7136371502412
20
3.71911787690772
30
0
41
1
10
78.7260895168531
20
3.72540586622728
30
0
41
1
10
78.7634745917146
20
3.74311320021792
30
0
41
1
10
78.788412090178
20
3.75342080510001
30
0
41
1
10
78.8197369094116
20
3.76393737851527
30
0
41
1
10
78.8260100112757
20
3.76591914680904
30
0
41
1
10
78.8385784426507
20
3.76961066530231
30
0
41
1
10
78.8448927049273
20
3.77132462306335
30
0
41
1
10
78.8636548849603
20
3.77594536590505
30
0
41
1
10
78.875968144289
20
3.77835663801
30
0
41
1
10
78.8941162157258
20
3.78068969956988
30
0
41
1
10
78.9001115599188
20
3.78125159044521
30
0
41
1
10
78.9119816525626
20
3.78185910803612
30
0
41
1
10
78.9178846742885
20
3.78190213322944
30
0
41
1
10
78.9350287542987
20
3.78108774968356
30
0
41
1
10
78.945802279034
20
3.77934247049933
30
0
41
1
10
78.9556116277539
20
3.77574852075617
30
0
0
SPLINE
5
144
100
AcDbEntity
8
1
62
256
6
ByLayer
370
18
48
1
60
0
100
AcDbSpline
70
4
71
3
72
28
73
24
40
0
40
0
40
0
40
0
40
0.249999999999933
40
0.249999999999933
40
0.374999999999899
40
0.374999999999899
40
0.499999999999865
40
0.499999999999865
40
0.624999999999832
40
0.624999999999832
40
0.687499999999815
40
0.687499999999815
40
0.749999999999798
40
0.749999999999798
40
0.812499999999781
40
0.812499999999781
40
0.843749999999818
40
0.843749999999818
40
0.874999999999854
40
0.874999999999854
40
0.937499999999927
40
0.937499999999927
40
1
40
1
40
1
40
1
41
1
10
79.2562708026478
20
3.96720951432079
30
0
41
1
10
79.2396927401147
20
3.93871731308659
30
0
41
1
10
79.2209430814503
20
3.91121838548577
30
0
41
1
10
79.1896067809562
20
3.87227259957243
30
0
41
1
10
79.1786100218487
20
3.85966836337738
30
0
41
1
10
79.1555126689671
20
3.83554622026449
30
0
41
1
10
79.143368069542
20
3.82398094529381
30
0
41
1
10
79.1179611069596
20
3.80247227587822
30
0
41
1
10
79.104571868093
20
3.79242543742723
30
0
41
1
10
79.0838347506298
20
3.77940590027683
30
0
41
1
10
79.076803558309
20
3.77539962636055
30
0
41
1
10
79.0624534474124
20
3.76821963864069
30
0
41
1
10
79.0550656934863
20
3.76502330014296
30
0
41
1
10
79.0403862072792
20
3.7599021426218
30
0
41
1
10
79.0330792122371
20
3.75795726098431
30
0
41
1
10
79.022195207396
20
3.75620015382725
30
0
41
1
10
79.0185660512136
20
3.75581128883292
30
0
41
1
10
79.0115336922868
20
3.75548400036854
30
0
41
1
10
79.0081085128804
20
3.75554038992163
30
0
41
1
10
78.9981217401953
20
3.75639790713896
30
0
41
1
10
78.991777590048
20
3.75793735420734
30
0
41
1
10
78.9806392512617
20
3.76272100634395
30
0
41
1
10
78.975754258513
20
3.76594621414805
30
0
41
1
10
78.9714947992285
20
3.769930918538
30
0
0
SPLINE
5
145
100
AcDbEntity
8
1
62
256
6
ByLayer
370
18
48
1
60
0
100
AcDbSpline
70
4
71
3
72
8
73
4
40
0
40
0
40
0
40
0
40
1
40
1
40
1
40
1
41
1
10
78.9714947992285
20
3.769930918538
30
0
41
1
10
78.9662015912293
20
3.77186913713953
30
0
41
1
10
78.9609072206486
20
3.77380832112954
30
0
41
1
10
78.9556116277539
20
3.77574852075617
30
0
0
SPLINE
5
146
100
AcDbEntity
8
1
62
256
6
ByLayer
370
18
48
1
60
0
100
AcDbSpline
70
4
71
3
72
12
73
8
40
0
40
0
40
0
40
0
40
0.504520149752385
40
0.684132196614844
40
0.863744243477303
40
0.953550266908533
40
1
40
1
40
1
40
1
41
1
10
82.4215964703285
20
-1.71810182948968
30
0
41
1
10
82.4432334718563
20
-1.74449202316165
30
0
41
1
10
82.4695471390484
20
-1.78262497641847
30
0
41
1
10
82.4965799495698
20
-1.83325908961251
30
0
41
1
10
82.5090623464716
20
-1.86053862300327
30
0
41
1
10
82.5170766897399
20
-1.88037912641786
30
0
41
1
10
82.5200492406454
20
-1.88827806321504
30
0
41
1
10
82.5210270301618
20
-1.890908725982
30
0
0
SPLINE
5
147
100
AcDbEntity
8
1
62
256
6
ByLayer
370
18
48
1
60
0
100
AcDbSpline
70
4
71
3
72
13
73
9
40
0
40
0
40
0
40
0
40
0.0057614727139833
40
0.0296295181346313
40
0.220573881499815
40
0.602462608230184
40
0.984351334960552
40
1
40
1
40
1
40
1
41
1
10
82.5210270301618
20
-1.89090872598197
30
0
41
1
10
82.5219397012009
20
-1.89336419280858
30
0
41
1
10
82.5264739826284
20
-1.90571370856361
30
0
41
1
10
82.5574537540976
20
-1.98932969163576
30
0
41
1
10
82.6440859841429
20
-2.22399894757103
30
0
41
1
10
82.7807982008084
20
-2.59376275403008
30
0
41
1
10
82.8920167577951
20
-2.89454789743289
30
0
41
1
10
82.9497392973853
20
-3.05086913299255
30
0
41
1
10
82.9520083630877
20
-3.05703018216411
30
0
0
SPLINE
5
148
100
AcDbEntity
8
1
62
256
6
ByLayer
370
13
48
1
60
0
100
AcDbSpline
70
4
71
3
72
9
73
5
40
0
40
0
40
0
40
0
40
0.462983659220564
40
1
40
1
40
1
40
1
41
1
10
82.5210199681925
20
-1.89091000620422
30
0
41
1
10
82.5054134291198
20
-1.88579411900602
30
0
41
1
10
82.4716674426928
20
-1.87477029351655
30
0
41
1
10
82.437843848271
20
-1.86380346066406
30
0
41
1
10
82.4196592031916
20
-1.85793094821926
30
0
0
SPLINE
5
149
100
AcDbEntity
8
1
62
256
6
ByLayer
370
18
48
1
60
0
100
AcDbSpline
70
4
71
3
72
17
73
13
40
0
40
0
40
0
40
0
40
0.0295634678907721
40
0.0735446958500544
40
0.161507151768619
40
0.337432063605748
40
0.513356975442877
40
0.689281887280006
40
0.865206799117135
40
0.953169255035699
40
0.997150482994981
40
1
40
1
40
1
40
1
41
1
10
82.9520083630877
20
-3.05703018216411
30
0
41
1
10
82.9566610588404
20
-3.0696633497638
30
0
41
1
10
82.9682028321506
20
-3.10117042318564
30
0
41
1
10
82.9928233898109
20
-3.17116108568007
30
0
41
1
10
83.0371342704249
20
-3.30531155889696
30
0
41
1
10
83.0926574453919
20
-3.49895530352998
30
0
41
1
10
83.1467316248105
20
-3.73378602770268
30
0
41
1
10
83.1881809916751
20
-3.97096996033252
30
0
41
1
10
83.2119454422191
20
-4.16930073453298
30
0
41
1
10
83.2231067814784
20
-4.30879014891374
30
0
41
1
10
83.2265804097423
20
-4.36959860320974
30
0
41
1
10
83.2277085815163
20
-4.39062049015689
30
0
41
1
10
83.2277769575633
20
-4.39189922594085
30
0
0
SPLINE
5
14A
100
AcDbEntity
8
1
62
256
6
ByLayer
370
13
48
1
60
0
100
AcDbSpline
70
4
71
3
72
11
73
7
40
0
40
0
40
0
40
0
40
0.24925588703822
40
0.499007732287038
40
0.749255712187893
40
1
40
1
40
1
40
1
41
1
10
82.7817896316941
20
-2.9455975427978
30
0
41
1
10
82.7960308667486
20
-2.95482579427986
30
0
41
1
10
82.8245416734299
20
-2.97330065920582
30
0
41
1
10
82.867129922965
20
-3.00110799572772
30
0
41
1
10
82.9096564336164
20
-3.02901525079653
30
0
41
1
10
82.9378899722123
20
-3.04768286547025
30
0
41
1
10
82.9520207262856
20
-3.0570259193419
30
0
0
SPLINE
5
14B
100
AcDbEntity
8
1
62
256
6
ByLayer
370
18
48
1
60
0
100
AcDbSpline
70
4
71
3
72
8
73
4
40
0
40
0
40
0
40
0
40
1
40
1
40
1
40
1
41
1
10
82.7817896316949
20
-2.94559754280016
30
0
41
1
10
82.6625667392247
20
-2.64414613451558
30
0
41
1
10
82.5425184615249
20
-2.34297459690944
30
0
41
1
10
82.4206213222976
20
-2.04245657567068
30
0
0
SPLINE
5
14C
100
AcDbEntity
8
1
62
256
6
ByLayer
370
18
48
1
60
0
100
AcDbSpline
70
4
71
3
72
18
73
14
40
0
40
0
40
0
40
0
40
0.125
40
0.25
40
0.3125
40
0.34375
40
0.359375
40
0.375
40
0.4375
40
0.5
40
0.625
40
0.75
40
1
40
1
40
1
40
1
41
1
10
82.5422279355039
20
-3.06775103465122
30
0
41
1
10
82.5453214293806
20
-3.06460706958904
30
0
41
1
10
82.5555034472923
20
-3.05714799878328
30
0
41
1
10
82.5778855419734
20
-3.0450923890877
30
0
41
1
10
82.5984782875691
20
-3.03531408763587
30
0
41
1
10
82.6099252080688
20
-3.03011862605575
30
0
41
1
10
82.6168537086662
20
-3.02704806165761
30
0
41
1
10
82.6275313556103
20
-3.02236770022327
30
0
41
1
10
82.6432355366969
20
-3.01542856458838
30
0
41
1
10
82.669683568632
20
-3.00347877463204
30
0
41
1
10
82.7000370261536
20
-2.98925984263505
30
0
41
1
10
82.7427285226526
20
-2.96809627287482
30
0
41
1
10
82.7680263628243
20
-2.95406978570691
30
0
41
1
10
82.7817896316949
20
-2.94559754280016
30
0
0
SPLINE
5
14D
100
AcDbEntity
8
1
62
256
6
ByLayer
370
18
48
1
60
0
100
AcDbSpline
70
4
71
3
72
28
73
24
40
0
40
0
40
0
40
0
40
0.03125
40
0.0625
40
0.09375
40
0.125
40
0.15625
40
0.1875
40
0.21875
40
0.25
40
0.3125
40
0.375
40
0.4375
40
0.5
40
0.5625
40
0.625
40
0.6875
40
0.75
40
0.8125
40
0.875
40
0.9375
40
0.96875
40
1
40
1
40
1
40
1
41
1
10
82.7817896316946
20
-2.94559754279902
30
0
41
1
10
82.7871549476022
20
-2.95916357867304
30
0
41
1
10
82.7978686230281
20
-2.98630153052832
30
0
41
1
10
82.8138664250806
20
-3.02703329587268
30
0
41
1
10
82.8297696741283
20
-3.06779709601821
30
0
41
1
10
82.845556528253
20
-3.10860012820453
30
0
41
1
10
82.8612051455361
20
-3.14944958967135
30
0
41
1
10
82.8766930470811
20
-3.19035192114544
30
0
41
1
10
82.8919977539913
20
-3.23131356335355
30
0
41
1
10
82.9121297984963
20
-3.28601675491208
30
0
41
1
10
82.9367244730573
20
-3.35457622482906
30
0
41
1
10
82.965136215594
20
-3.4371779094962
30
0
41
1
10
82.99225683397
20
-3.52015146694671
30
0
41
1
10
83.0178850608385
20
-3.60352237728793
30
0
41
1
10
83.0418196288527
20
-3.6873161206272
30
0
41
1
10
83.0638497013503
20
-3.77154067603502
30
0
41
1
10
83.0837612849243
20
-3.8561934421229
30
0
41
1
10
83.1013372761449
20
-3.94125665034753
30
0
41
1
10
83.116360191697
20
-4.02669582647292
30
0
41
1
10
83.1286155150776
20
-4.11245815545215
30
0
41
1
10
83.1363492522604
20
-4.18413581135306
30
0
41
1
10
83.1409513447874
20
-4.2415572239392
30
0
41
1
10
83.1427093543891
20
-4.27028504959063
30
0
41
1
10
83.1434489156273
20
-4.28465091477338
30
0
0
SPLINE
5
14E
100
AcDbEntity
8
1
62
256
6
ByLayer
370
18
48
1
60
0
100
AcDbSpline
70
4
71
3
72
32
73
28
40
0
40
0
40
0
40
0
40
0.0201722500279436
40
0.030957120221128
40
0.106451211573419
40
0.192730173118894
40
0.365288096209843
40
0.451567057755318
40
0.494706538528056
40
0.537846019300793
40
0.543238454397386
40
0.548630889493978
40
0.55402332459057
40
0.556719542138866
40
0.559415759687162
40
0.564808194783754
40
0.570200629880346
40
0.580985500073531
40
0.624124980846268
40
0.710403942391743
40
0.796682903937218
40
0.882961865482693
40
0.969240827028168
40
0.980025697221353
40
0.990810567414537
40
0.996203002511129
40
1
40
1
40
1
40
1
41
1
10
83.2277769575633
20
-4.39189922594085
30
0
41
1
10
83.2287639401989
20
-4.41035729815431
30
0
41
1
10
83.2301922742695
20
-4.43856036062849
30
0
41
1
10
83.2351657131148
20
-4.53492074095149
30
0
41
1
10
83.2432501789173
20
-4.69113697383352
30
0
41
1
10
83.2589805009194
20
-4.99383579534316
30
0
41
1
10
83.2752999378428
20
-5.30629787041335
30
0
41
1
10
83.2895931583833
20
-5.57970076679933
30
0
41
1
10
83.2977144159282
20
-5.73592948443607
30
0
41
1
10
83.3021192165929
20
-5.81892788481383
30
0
41
1
10
83.3046586948353
20
-5.86774880155363
30
0
41
1
10
83.3054015340268
20
-5.88239509056862
30
0
41
1
10
83.3060615162636
20
-5.8946022994634
30
0
41
1
10
83.3065643593279
20
-5.90436507513451
30
0
41
1
10
83.3068679256222
20
-5.91413109112346
30
0
41
1
10
83.3070201223028
20
-5.92634376794396
30
0
41
1
10
83.307275815099
20
-5.94588366064457
30
0
41
1
10
83.3081406630432
20
-5.99961241381646
30
0
41
1
10
83.3100468682113
20
-6.12659485811392
30
0
41
1
10
83.3117328957471
20
-6.32192051041329
30
0
41
1
10
83.3122196384446
20
-6.55625311889122
30
0
41
1
10
83.3111181538863
20
-6.79052772597205
30
0
41
1
10
83.3091762943732
20
-6.95643127745777
30
0
41
1
10
83.3076519733415
20
-7.05400801185093
30
0
41
1
10
83.3072284532905
20
-7.07846488762081
30
0
41
1
10
83.3069774949013
20
-7.09635950788163
30
0
41
1
10
83.3068272849699
20
-7.10487122811614
30
0
41
1
10
83.3067462273
20
-7.10849709576752
30
0
0
SPLINE
5
14F
100
AcDbEntity
8
1
62
256
6
ByLayer
370
13
48
1
60
0
100
AcDbSpline
70
4
71
3
72
9
73
5
40
0
40
0
40
0
40
0
40
0.253089698189939
40
1
40
1
40
1
40
1
41
1
10
83.2277937728202
20
-4.39189896694117
30
0
41
1
10
83.2206723232022
20
-4.3828437426447
30
0
41
1
10
83.1925425706774
20
-4.34707557293456
30
0
41
1
10
83.164439491423
20
-4.31134131941553
30
0
41
1
10
83.1434489156273
20
-4.28465091477338
30
0
0
SPLINE
5
150
100
AcDbEntity
8
1
62
256
6
ByLayer
370
18
48
1
60
0
100
AcDbSpline
70
4
71
3
72
21
73
17
40
0
40
0
40
0
40
0
40
0.0039822658528485
40
0.0174419649629451
40
0.0309016640730418
40
0.0847404605134284
40
0.138579256953815
40
0.246256849834588
40
0.353934442715361
40
0.461612035596134
40
0.569289628476907
40
0.676967221357681
40
0.784644814238454
40
0.892322407119227
40
0.946161203559613
40
1
40
1
40
1
40
1
41
1
10
83.3067462273
20
-7.10849709576752
30
0
41
1
10
83.3067121681638
20
-7.11002062735494
30
0
41
1
10
83.3065483057059
20
-7.11677776617358
30
0
41
1
10
83.3061111023404
20
-7.12955715864982
30
0
41
1
10
83.3042827023372
20
-7.16342074140411
30
0
41
1
10
83.2988423995329
20
-7.21283366640856
30
0
41
1
10
83.2818055072771
20
-7.29985215463594
30
0
41
1
10
83.2474603295786
20
-7.4036591394308
30
0
41
1
10
83.1857882881189
20
-7.52076906845079
30
0
41
1
10
83.1058540638742
20
-7.62561446412354
30
0
41
1
10
83.0090393978021
20
-7.71661049021074
30
0
41
1
10
82.8980689721195
20
-7.79075385199081
30
0
41
1
10
82.7755752056539
20
-7.84608500703672
30
0
41
1
10
82.6663934527007
20
-7.8749506472374
30
0
41
1
10
82.5769959461756
20
-7.88714187965698
30
0
41
1
10
82.5315235072525
20
-7.88950663514282
30
0
41
1
10
82.5095471107103
20
-7.88972250713047
30
0
0
SPLINE
5
151
100
AcDbEntity
8
1
62
256
6
ByLayer
370
18
48
1
60
0
100
AcDbSpline
70
4
71
3
72
8
73
4
40
0
40
0
40
0
40
0
40
1
40
1
40
1
40
1
41
1
10
82.5095471107103
20
-7.88972250713047
30
0
41
1
10
82.5092210416672
20
-7.88972571007471
30
0
41
1
10
82.5088958315682
20
-7.88972890389664
30
0
41
1
10
82.5085714549219
20
-7.88973208884764
30
0
0
SPLINE
5
152
100
AcDbEntity
8
1
62
256
6
ByLayer
370
13
48
1
60
0
100
AcDbSpline
70
4
71
3
72
8
73
4
40
0
40
0
40
0
40
0
40
1
40
1
40
1
40
1
41
1
10
83.306728590509
20
-7.10849612335127
30
0
41
1
10
83.2786144360996
20
-7.07117808630821
30
0
41
1
10
83.2505002457642
20
-7.03386010339665
30
0
41
1
10
83.2223860254909
20
-6.99654218256521
30
0
0
SPLINE
5
153
100
AcDbEntity
8
1
62
256
6
ByLayer
370
18
48
1
60
0
100
AcDbSpline
70
4
71
3
72
19
73
15
40
0
40
0
40
0
40
0
40
0.125
40
0.25
40
0.3125
40
0.34375
40
0.359375
40
0.375
40
0.4375
40
0.46875
40
0.5
40
0.625
40
0.75
40
1
40
1
40
1
40
1
41
1
10
82.8556710821392
20
-4.19725205072365
30
0
41
1
10
82.8611532148882
20
-4.20147647240634
30
0
41
1
10
82.8758864510763
20
-4.20968132854128
30
0
41
1
10
82.9033484081676
20
-4.21916643540763
30
0
41
1
10
82.9271200013818
20
-4.22531654059958
30
0
41
1
10
82.9400993931561
20
-4.22826066509617
30
0
41
1
10
82.9478224355542
20
-4.22990439096642
30
0
41
1
10
82.959710141918
20
-4.23233073730864
30
0
41
1
10
82.9744542447775
20
-4.23504523404532
30
0
41
1
10
82.9924896668833
20
-4.23797306957371
30
0
41
1
10
83.018337382843
20
-4.24254214388768
30
0
41
1
10
83.053640512611
20
-4.24988303642272
30
0
41
1
10
83.1056932390234
20
-4.26421071071812
30
0
41
1
10
83.1319610639665
20
-4.27623629426679
30
0
41
1
10
83.1434489156273
20
-4.28465091477338
30
0
0
SPLINE
5
154
100
AcDbEntity
8
1
62
256
6
ByLayer
370
18
48
1
60
0
100
AcDbSpline
70
4
71
3
72
32
73
28
40
0
40
0
40
0
40
0
40
0.250000000000051
40
0.375000000000077
40
0.500000000000102
40
0.531250000000108
40
0.546875000000112
40
0.546875000000112
40
0.554687500000114
40
0.554687500000114
40
0.555664062500115
40
0.555664062500115
40
0.556640625000116
40
0.556640625000116
40
0.558593750000116
40
0.558593750000116
40
0.560546875000116
40
0.562500000000116
40
0.562500000000116
40
0.566406250000115
40
0.566406250000115
40
0.570312500000114
40
0.578125000000112
40
0.593750000000108
40
0.625000000000099
40
0.750000000000066
40
1
40
1
40
1
40
1
41
1
10
83.1434489156273
20
-4.28465091477338
30
0
41
1
10
83.1551074157455
20
-4.5111106195923
30
0
41
1
10
83.1727045421644
20
-4.85079697564763
30
0
41
1
10
83.196339733035
20
-5.30370415430011
30
0
41
1
10
83.2097036891802
20
-5.55774950487466
30
0
41
1
10
83.217857361035
20
-5.71467838406696
30
0
41
1
10
83.2201101450758
20
-5.75599267327104
30
0
41
1
10
83.2212090998639
20
-5.7781392984607
30
0
41
1
10
83.2215628124256
20
-5.78577495055058
30
0
41
1
10
83.222002431096
20
-5.79245999040114
30
0
41
1
10
83.2220511944429
20
-5.79315081929806
30
0
41
1
10
83.2221410642717
20
-5.79473012035405
30
0
41
1
10
83.222183369881
20
-5.79561051814667
30
0
41
1
10
83.2222922645341
20
-5.79779373063491
30
0
41
1
10
83.222338110765
20
-5.79878456168291
30
0
41
1
10
83.2224151081066
20
-5.8014655671472
30
0
41
1
10
83.2224795605144
20
-5.80482181897784
30
0
41
1
10
83.2225353506799
20
-5.80868228832554
30
0
41
1
10
83.2226194083692
20
-5.8145681435476
30
0
41
1
10
83.2226760195452
20
-5.81847214423826
30
0
41
1
10
83.2227900235966
20
-5.82604416521113
30
0
41
1
10
83.2229621451262
20
-5.83715830436077
30
0
41
1
10
83.223366452048
20
-5.86182849525073
30
0
41
1
10
83.2241448807799
20
-5.909673240563
30
0
41
1
10
83.2262494588948
20
-6.06502494125237
30
0
41
1
10
83.2289540599911
20
-6.43213942702397
30
0
41
1
10
83.2263844662784
20
-6.77083050619569
30
0
41
1
10
83.2223860254909
20
-6.99654218256521
30
0
0
SPLINE
5
155
100
AcDbEntity
8
1
62
256
6
ByLayer
370
18
48
1
60
0
100
AcDbSpline
70
4
71
3
72
17
73
13
40
0
40
0
40
0
40
0
40
0.125
40
0.25
40
0.3125
40
0.375
40
0.4375
40
0.46875
40
0.5
40
0.625
40
0.75
40
1
40
1
40
1
40
1
41
1
10
82.9963037008116
20
-6.81040448828279
30
0
41
1
10
83.0017396090477
20
-6.818759337655
30
0
41
1
10
83.0155550769683
20
-6.8351208643895
30
0
41
1
10
83.03991080705
20
-6.85448637030868
30
0
41
1
10
83.0634194159913
20
-6.86921419626205
30
0
41
1
10
83.0833512132647
20
-6.87976915225127
30
0
41
1
10
83.098982472325
20
-6.88877633388057
30
0
41
1
10
83.1109519218246
20
-6.89609265416001
30
0
41
1
10
83.1283793789767
20
-6.90717307730782
30
0
41
1
10
83.1525785280329
20
-6.92417362633461
30
0
41
1
10
83.189829466825
20
-6.95541206284119
30
0
41
1
10
83.2111818336971
20
-6.97987199594701
30
0
41
1
10
83.2223860254909
20
-6.99654218256521
30
0
0
SPLINE
5
156
100
AcDbEntity
8
1
62
256
6
ByLayer
370
13
48
1
60
0
100
AcDbSpline
70
4
71
3
72
26
73
22
40
0
40
0
40
0
40
0
40
0.00390625
40
0.0078125
40
0.015625
40
0.03125
40
0.0625
40
0.125
40
0.1875
40
0.25
40
0.3125
40
0.375
40
0.4375
40
0.5
40
0.625
40
0.6875
40
0.75
40
0.8125
40
0.875
40
0.9375
40
1
40
1
40
1
40
1
41
1
10
83.2223860254909
20
-6.99654218256521
30
0
41
1
10
83.2223579575818
20
-6.99812639121387
30
0
41
1
10
83.2222929105447
20
-7.00129435292715
30
0
41
1
10
83.222127171292
20
-7.00762826061475
30
0
41
1
10
83.2217435582111
20
-7.01870680007167
30
0
41
1
10
83.2206020481287
20
-7.04083662154656
30
0
41
1
10
83.2168218413626
20
-7.08495474311295
30
0
41
1
10
83.2071435790078
20
-7.14739061781188
30
0
41
1
10
83.1886839859173
20
-7.22077551362716
30
0
41
1
10
83.1635137581278
20
-7.29203085330232
30
0
41
1
10
83.1317679392052
20
-7.36056523452081
30
0
41
1
10
83.0936817849936
20
-7.42580347734784
30
0
41
1
10
83.049490551337
20
-7.48717040184869
30
0
41
1
10
82.982862446479
20
-7.563077628131
30
0
41
1
10
82.9053251205638
20
-7.62898147190919
30
0
41
1
10
82.8186318335723
20
-7.68268818406796
30
0
41
1
10
82.7496218286399
20
-7.71639930154814
30
0
41
1
10
82.6772233434105
20
-7.7430835195768
30
0
41
1
10
82.6021568067256
20
-7.76241468184958
30
0
41
1
10
82.5251886066777
20
-7.77418211682382
30
0
41
1
10
82.4731411805748
20
-7.77694793983491
30
0
41
1
10
82.4470649813491
20
-7.77707934143982
30
0
0
SPLINE
5
157
100
AcDbEntity
8
1
62
256
6
ByLayer
370
18
48
1
60
0
100
AcDbSpline
70
4
71
3
72
11
73
7
40
0
40
0
40
0
40
0
40
0.0122875871277983
40
0.0631820294687195
40
0.470337568196089
40
1
40
1
40
1
40
1
41
1
10
73.6928032382569
20
-7.3805656477625
30
0
41
1
10
73.6918904062858
20
-7.37810975137705
30
0
41
1
10
73.6873560106805
20
-7.3657600526505
30
0
41
1
10
73.6563746713024
20
-7.28214546034815
30
0
41
1
10
73.5891225114303
20
-7.09997883234718
30
0
41
1
10
73.5260063845072
20
-6.92921155012857
30
0
41
1
10
73.4904230328405
20
-6.83296025041264
30
0
0
SPLINE
5
158
100
AcDbEntity
8
1
62
256
6
ByLayer
370
18
48
1
60
0
100
AcDbSpline
70
4
71
3
72
17
73
13
40
0
40
0
40
0
40
0
40
0.0600950229142412
40
0.18403891646519
40
0.431926703567088
40
0.679814490668986
40
0.927702277770884
40
0.989674224546358
40
0.993547471219825
40
0.997420717893292
40
0.999357341230026
40
1
40
1
40
1
40
1
41
1
10
82.01334623842
20
-7.89395302213731
30
0
41
1
10
81.857964303788
20
-7.89506165352617
30
0
41
1
10
81.3820969061479
20
-7.89779774190635
30
0
41
1
10
80.2650773201489
20
-7.89973225462538
30
0
41
1
10
78.6619578562847
20
-7.88946058209862
30
0
41
1
10
76.7377037363705
20
-7.85655150251028
30
0
41
1
10
75.2915324772714
20
-7.81654028378122
30
0
41
1
10
74.4838424865281
20
-7.78892089296193
30
0
41
1
10
74.3015926299059
20
-7.78244925760319
30
0
41
1
10
74.2766905639569
20
-7.78155897203658
30
0
41
1
10
74.2605293950813
20
-7.78097698967508
30
0
41
1
10
74.2532078551186
20
-7.78071093256693
30
0
41
1
10
74.2513445650042
20
-7.78063958285392
30
0
0
SPLINE
5
159
100
AcDbEntity
8
1
62
256
6
ByLayer
370
18
48
1
60
0
100
AcDbSpline
70
4
71
3
72
11
73
7
40
0
40
0
40
0
40
0
40
0.0589687449404319
40
0.484373627158147
40
0.970550635406964
40
1
40
1
40
1
40
1
41
1
10
82.5085714549219
20
-7.88973208884764
30
0
41
1
10
82.4979646653651
20
-7.88983623353684
30
0
41
1
10
82.4181596661481
20
-7.89061377521492
30
0
41
1
10
82.2582399064249
20
-7.89207768628722
30
0
41
1
10
82.1031695734104
20
-7.89330846724857
30
0
41
1
10
82.0181992203571
20
-7.89391839669568
30
0
41
1
10
82.01334623842
20
-7.89395302213728
30
0
0
SPLINE
5
15A
100
AcDbEntity
8
1
62
256
6
ByLayer
370
13
48
1
60
0
100
AcDbSpline
70
4
71
3
72
8
73
4
40
0
40
0
40
0
40
0
40
1
40
1
40
1
40
1
41
1
10
82.4470649813491
20
-7.77707934143982
30
0
41
1
10
82.4675669812466
20
-7.81480301582488
30
0
41
1
10
82.4880691629484
20
-7.85235405005827
30
0
41
1
10
82.5085714614826
20
-7.88973203679845
30
0
0
SPLINE
5
15B
100
AcDbEntity
8
1
62
256
6
ByLayer
370
18
48
1
60
0
100
AcDbSpline
70
4
71
3
72
20
73
16
40
0
40
0
40
0
40
0
40
0.0166268555036293
40
0.041511583580431
40
0.0663963116572327
40
0.165935223964439
40
0.265474136271646
40
0.31524359242525
40
0.46455196088606
40
0.663629785500473
40
0.862707610114887
40
0.91247706626849
40
0.962246522422093
40
0.987131250498895
40
1
40
1
40
1
40
1
41
1
10
74.2513445650042
20
-7.78063958285392
30
0
41
1
10
74.2475929140529
20
-7.78049592341162
30
0
41
1
10
74.2378311653654
20
-7.78008605618208
30
0
41
1
10
74.2218144031037
20
-7.77898322578309
30
0
41
1
10
74.1854081650054
20
-7.77538334312072
30
0
41
1
10
74.131960499553
20
-7.76610624709318
30
0
41
1
10
74.0740316740949
20
-7.74885927636896
30
0
41
1
10
74.0059441214069
20
-7.72201161971373
30
0
41
1
10
73.9200298733857
20
-7.67595618404786
30
0
41
1
10
73.816774443361
20
-7.5900362770771
30
0
41
1
10
73.7509767906357
20
-7.50139071656051
30
0
41
1
10
73.7172491992737
20
-7.43821514989145
30
0
41
1
10
73.7047671036476
20
-7.4109350086415
30
0
41
1
10
73.6967531839466
20
-7.39109428487433
30
0
41
1
10
73.6937808536795
20
-7.3831958384861
30
0
41
1
10
73.6928032382569
20
-7.3805656477625
30
0
0
SPLINE
5
15C
100
AcDbEntity
8
1
62
256
6
ByLayer
370
13
48
1
60
0
100
AcDbSpline
70
4
71
3
72
9
73
5
40
0
40
0
40
0
40
0
40
0.501219718031175
40
1
40
1
40
1
40
1
41
1
10
74.4637828989675
20
-7.63968506175516
30
0
41
1
10
74.4282865413404
20
-7.66316566358267
30
0
41
1
10
74.3574665868372
20
-7.71001258716296
30
0
41
1
10
74.286661206733
20
-7.75714206789135
30
0
41
1
10
74.2513448792797
20
-7.78064932357813
30
0
0
SPLINE
5
15D
100
AcDbEntity
8
1
62
256
6
ByLayer
370
13
48
1
60
0
100
AcDbSpline
70
4
71
3
72
9
73
5
40
0
40
0
40
0
40
0
40
0.25178666102105
40
1
40
1
40
1
40
1
41
1
10
73.6928074401878
20
-7.38056479725466
30
0
41
1
10
73.7171828440539
20
-7.36788789788042
30
0
41
1
10
73.8140593209375
20
-7.31749635760193
30
0
41
1
10
73.911184752068
20
-7.26693944496515
30
0
41
1
10
73.9839546008686
20
-7.22904054263554
30
0
0
SPLINE
5
15E
100
AcDbEntity
8
1
62
256
6
ByLayer
370
18
48
1
60
0
100
AcDbSpline
70
4
71
3
72
8
73
4
40
0
40
0
40
0
40
0
40
1
40
1
40
1
40
1
41
1
10
73.8441547482098
20
-6.88496207714687
30
0
41
1
10
73.8904881645103
20
-6.99974907744795
30
0
41
1
10
73.9370691383893
20
-7.11444882730976
30
0
41
1
10
73.9839546008684
20
-7.2290405426352
30
0
0
SPLINE
5
15F
100
AcDbEntity
8
1
62
256
6
ByLayer
370
18
48
1
60
0
100
AcDbSpline
70
4
71
3
72
16
73
12
40
0
40
0
40
0
40
0
40
0.25
40
0.5
40
0.625
40
0.6875
40
0.75
40
0.78125
40
0.8125
40
0.875
40
1
40
1
40
1
40
1
41
1
10
82.4470649813396
20
-7.7770793414403
30
0
41
1
10
82.43903318371
20
-7.76271660177403
30
0
41
1
10
82.4228995732075
20
-7.72960856820598
30
0
41
1
10
82.4027071443063
20
-7.67760428491999
30
0
41
1
10
82.3886364139393
20
-7.63585124145717
30
0
41
1
10
82.3806259848286
20
-7.61047978222967
30
0
41
1
10
82.3756343173969
20
-7.59399985972564
30
0
41
1
10
82.3716528400469
20
-7.58038288480034
30
0
41
1
10
82.3676681374854
20
-7.56689168833947
30
0
41
1
10
82.3606510550543
20
-7.54495694325124
30
0
41
1
10
82.3545956263448
20
-7.52872500885985
30
0
41
1
10
82.3505592581169
20
-7.51913607045321
30
0
0
SPLINE
5
160
100
AcDbEntity
8
1
62
256
6
ByLayer
370
18
48
1
60
0
100
AcDbSpline
70
4
71
3
72
47
73
43
40
0
40
0
40
0
40
0
40
0.0248207090807093
40
0.0496506043499381
40
0.0744896876533751
40
0.0993379606766002
40
0.124195424944881
40
0.149062081822942
40
0.173937932514775
40
0.198822978063434
40
0.223717219350834
40
0.248620657097551
40
0.273533291862635
40
0.298455124043422
40
0.323386153875326
40
0.348326381431686
40
0.373275806623568
40
0.398234429199582
40
0.423202248745722
40
0.448179264685186
40
0.473165476278214
40
0.498160882621923
40
0.523165482804096
40
0.548179276888424
40
0.573202265356142
40
0.598234448633268
40
0.6232758270885
40
0.64832640103314
40
0.673386170721071
40
0.698455136348685
40
0.723533298054838
40
0.748620655920813
40
0.773717209970267
40
0.798822960169178
40
0.823937906425842
40
0.849062048590785
40
0.874195386456767
40
0.899337919758728
40
0.924489648173766
40
0.949650571321103
40
0.974820688762053
40
1
40
1
40
1
40
1
41
1
10
82.4470649813395
20
-7.77707934144061
30
0
41
1
10
82.3810533552315
20
-7.7773905056394
30
0
41
1
10
82.2490056719953
20
-7.77801294919942
30
0
41
1
10
82.0508857353336
20
-7.77866405072925
30
0
41
1
10
81.8526842257172
20
-7.77910869166635
30
0
41
1
10
81.6544005337892
20
-7.77932664559859
30
0
41
1
10
81.4560351473638
20
-7.7793234665626
30
0
41
1
10
81.2575882609154
20
-7.77909779788774
30
0
41
1
10
81.0590601483723
20
-7.77865013662455
30
0
41
1
10
80.8604510631712
20
-7.77798048381808
30
0
41
1
10
80.661761265053
20
-7.77708897446257
30
0
41
1
10
80.4629910128787
20
-7.77597570860993
30
0
41
1
10
80.264140566556
20
-7.77464079664719
30
0
41
1
10
80.0652101865228
20
-7.77308434715556
30
0
41
1
10
79.8662001338858
20
-7.77130647016398
30
0
41
1
10
79.6671106703834
20
-7.76930727627197
30
0
41
1
10
79.4679420583965
20
-7.76708687689364
30
0
41
1
10
79.2686945609441
20
-7.76464538414947
30
0
41
1
10
79.0693684416891
20
-7.76198291104481
30
0
41
1
10
78.869963964923
20
-7.75909957085469
30
0
41
1
10
78.6704813956187
20
-7.7559954793966
30
0
41
1
10
78.4709209988288
20
-7.75267074653374
30
0
41
1
10
78.2712830373671
20
-7.7491255078119
30
0
41
1
10
78.0715677646093
20
-7.74535968251922
30
0
41
1
10
77.8717754294562
20
-7.74137314417354
30
0
41
1
10
77.671906280415
20
-7.73716577836945
30
0
41
1
10
77.4719605665168
20
-7.73273746774044
30
0
41
1
10
77.2719385374157
20
-7.72808809599348
30
0
41
1
10
77.0718404433635
20
-7.72321754682932
30
0
41
1
10
76.8716665352181
20
-7.71812570421454
30
0
41
1
10
76.6714170644409
20
-7.71281245236307
30
0
41
1
10
76.4710922830992
20
-7.70727767552765
30
0
41
1
10
76.2706924438629
20
-7.70152125884275
30
0
41
1
10
76.0702178000181
20
-7.69554308514915
30
0
41
1
10
75.8696686054186
20
-7.68934304684851
30
0
41
1
10
75.6690451146694
20
-7.68292100162771
30
0
41
1
10
75.4683475824422
20
-7.67627693778016
30
0
41
1
10
75.2675762660366
20
-7.66941035687159
30
0
41
1
10
75.0667314158155
20
-7.66232257891861
30
0
41
1
10
74.8658133109238
20
-7.65500813461722
30
0
41
1
10
74.6648221259129
20
-7.64748690759129
30
0
41
1
10
74.5308041318368
20
-7.64228599359586
30
0
41
1
10
74.4637828989675
20
-7.63968506175516
30
0
0
SPLINE
5
161
100
AcDbEntity
8
1
62
256
6
ByLayer
370
18
48
1
60
0
100
AcDbSpline
70
4
71
3
72
16
73
12
40
0
40
0
40
0
40
0
40
0.25
40
0.375
40
0.5
40
0.5625
40
0.625
40
0.75
40
0.8125
40
0.875
40
1
40
1
40
1
40
1
41
1
10
74.4637828989675
20
-7.63968506175525
30
0
41
1
10
74.4935389218896
20
-7.62203088961758
30
0
41
1
10
74.5381558995454
20
-7.59385802809032
30
0
41
1
10
74.5975260514731
20
-7.55294800261069
30
0
41
1
10
74.6345647024684
20
-7.52599054812538
30
0
41
1
10
74.6641441784163
20
-7.50359471079199
30
0
41
1
10
74.6936865748229
20
-7.48065699990988
30
0
41
1
10
74.7231691774535
20
-7.45692354212667
30
0
41
1
10
74.7525843180466
20
-7.43243662075975
30
0
41
1
10
74.7819260972949
20
-7.40712726471745
30
0
41
1
10
74.8042000760669
20
-7.39126648721657
30
0
41
1
10
74.8190716950022
20
-7.38201258607404
30
0
0
SPLINE
5
162
100
AcDbEntity
8
1
62
256
6
ByLayer
370
18
48
1
60
0
100
AcDbSpline
70
4
71
3
72
18
73
14
40
0
40
0
40
0
40
0
40
0.25
40
0.375
40
0.5
40
0.5625
40
0.625
40
0.640625
40
0.65625
40
0.6875
40
0.75
40
0.875
40
1
40
1
40
1
40
1
41
1
10
73.9839546008684
20
-7.2290405426352
30
0
41
1
10
74.0183827351352
20
-7.19971049071717
30
0
41
1
10
74.0707515028926
20
-7.15568568281822
30
0
41
1
10
74.1419177392761
20
-7.09694843086604
30
0
41
1
10
74.1870184703044
20
-7.06022632448844
30
0
41
1
10
74.2234428592419
20
-7.03084116516462
30
0
41
1
10
74.2429041014464
20
-7.01433559725035
30
0
41
1
10
74.2555033373343
20
-7.0033511381265
30
0
41
1
10
74.2638017587863
20
-6.99603393271207
30
0
41
1
10
74.2780558312505
20
-6.98324562477117
30
0
41
1
10
74.3054684471927
20
-6.95774951327115
30
0
41
1
10
74.3413685661293
20
-6.92163249932926
30
0
41
1
10
74.3664805070515
20
-6.89322375947583
30
0
41
1
10
74.3780968829061
20
-6.87918010975062
30
0
0
SPLINE
5
163
100
AcDbEntity
8
1
62
256
6
ByLayer
370
18
48
1
60
0
100
AcDbSpline
70
4
71
3
72
18
73
14
40
0
40
0
40
0
40
0
40
0.125
40
0.25
40
0.375
40
0.5
40
0.625
40
0.6875
40
0.75
40
0.8125
40
0.875
40
0.9375
40
1
40
1
40
1
40
1
41
1
10
73.9839546008684
20
-7.2290405426352
30
0
41
1
10
73.9943439754068
20
-7.25443298171049
30
0
41
1
10
74.0173336309067
20
-7.30445146821546
30
0
41
1
10
74.0587394811097
20
-7.37624771691981
30
0
41
1
10
74.1073879593281
20
-7.44383371432696
30
0
41
1
10
74.1638013154667
20
-7.50561592850505
30
0
41
1
10
74.2176200692443
20
-7.5504386080805
30
0
41
1
10
74.264713541583
20
-7.58082098837053
30
0
41
1
10
74.3018924498382
20
-7.60045094148174
30
0
41
1
10
74.3407697314372
20
-7.61650511206554
30
0
41
1
10
74.3809747881131
20
-7.62867245717297
30
0
41
1
10
74.4221370215987
20
-7.63664193385509
30
0
41
1
10
74.4499000972648
20
-7.63914192155008
30
0
41
1
10
74.4637828989675
20
-7.63968506175525
30
0
0
SPLINE
5
164
100
AcDbEntity
8
1
62
256
6
ByLayer
370
13
48
1
60
0
100
AcDbSpline
70
4
71
3
72
8
73
4
40
0
40
0
40
0
40
0
40
1
40
1
40
1
40
1
41
1
10
82.419494365828
20
-2.73567937430727
30
0
41
1
10
82.4604055557201
20
-2.84636992775523
30
0
41
1
10
82.501316745612
20
-2.95706048120323
30
0
41
1
10
82.5422279355039
20
-3.06775103465122
30
0
0
SPLINE
5
165
100
AcDbEntity
8
1
62
256
6
ByLayer
370
18
48
1
60
0
100
AcDbSpline
70
4
71
3
72
11
73
7
40
0
40
0
40
0
40
0
40
0.25
40
0.5
40
0.75
40
1
40
1
40
1
40
1
41
1
10
82.5422279355038
20
-3.06775103465094
30
0
41
1
10
82.5763594185065
20
-3.1600982079712
30
0
41
1
10
82.6466228542334
20
-3.34413993624455
30
0
41
1
10
82.7450996149033
20
-3.6224767826574
30
0
41
1
10
82.8228872439818
20
-3.90656781255706
30
0
41
1
10
82.8504482792264
20
-4.10020500508256
30
0
41
1
10
82.8556710821392
20
-4.19725205072365
30
0
0
SPLINE
5
166
100
AcDbEntity
8
1
62
256
6
ByLayer
370
13
48
1
60
0
100
AcDbSpline
70
4
71
3
72
8
73
4
40
0
40
0
40
0
40
0
40
1
40
1
40
1
40
1
41
1
10
82.5422279355039
20
-3.06775103465094
30
0
41
1
10
82.5013179472754
20
-3.10932848035341
30
0
41
1
10
82.4604079590402
20
-3.15090592603443
30
0
41
1
10
82.4194979708042
20
-3.19248337171246
30
0
0
SPLINE
5
167
100
AcDbEntity
8
1
62
256
6
ByLayer
370
18
48
1
60
0
100
AcDbSpline
70
4
71
3
72
23
73
19
40
0
40
0
40
0
40
0
40
0.25
40
0.375
40
0.4375
40
0.5
40
0.515625
40
0.53125
40
0.546875
40
0.5546875
40
0.5625
40
0.5703125
40
0.578125
40
0.59375
40
0.625
40
0.75
40
0.875
40
1
40
1
40
1
40
1
41
1
10
82.8556710821392
20
-4.19725205072365
30
0
41
1
10
82.8673904670285
20
-4.41501475385357
30
0
41
1
10
82.8849695443626
20
-4.74165880854846
30
0
41
1
10
82.905478467919
20
-5.12274353902583
30
0
41
1
10
82.9171978528083
20
-5.34050624215578
30
0
41
1
10
82.9237900068086
20
-5.46299776266636
30
0
41
1
10
82.9281847761421
20
-5.54465877634007
30
0
41
1
10
82.9303821608089
20
-5.58548928317694
30
0
41
1
10
82.9322133146979
20
-5.61951470554101
30
0
41
1
10
82.933678237809
20
-5.64673504343224
30
0
41
1
10
82.9347769301424
20
-5.66715029685068
30
0
41
1
10
82.9358756224758
20
-5.68756555026908
30
0
41
1
10
82.9373405455869
20
-5.71478588816035
30
0
41
1
10
82.9399041610315
20
-5.76242147947002
30
0
41
1
10
82.9479612381429
20
-5.91213333787184
30
0
41
1
10
82.9611455461435
20
-6.15711637889299
30
0
41
1
10
82.9787246234775
20
-6.48376043358789
30
0
41
1
10
82.9904440083669
20
-6.70152313671784
30
0
41
1
10
82.9963037008116
20
-6.81040448828279
30
0
0
SPLINE
5
168
100
AcDbEntity
8
1
62
256
6
ByLayer
370
13
48
1
60
0
100
AcDbSpline
70
4
71
3
72
8
73
4
40
0
40
0
40
0
40
0
40
1
40
1
40
1
40
1
41
1
10
82.4195051584301
20
-3.86115132684023
30
0
41
1
10
82.5648937996665
20
-3.97318490146802
30
0
41
1
10
82.7102824409028
20
-4.08521847609583
30
0
41
1
10
82.8556710821392
20
-4.19725205072365
30
0
0
SPLINE
5
169
100
AcDbEntity
8
1
62
256
6
ByLayer
370
13
48
1
60
0
100
AcDbSpline
70
4
71
3
72
15
73
11
40
0
40
0
40
0
40
0
40
0.125
40
0.25
40
0.375
40
0.5
40
0.625
40
0.75
40
0.875
40
1
40
1
40
1
40
1
41
1
10
82.3505592581261
20
-7.51913607044449
30
0
41
1
10
82.3966730903087
20
-7.51997565084605
30
0
41
1
10
82.4887558275682
20
-7.51187424590984
30
0
41
1
10
82.6194519394111
20
-7.46976291451153
30
0
41
1
10
82.7362823578158
20
-7.40035492611202
30
0
41
1
10
82.834670209803
20
-7.30826279945282
30
0
41
1
10
82.9117420078217
20
-7.19853160103969
30
0
41
1
10
82.9656991344758
20
-7.07596328325909
30
0
41
1
10
82.9954110146966
20
-6.94509388543727
30
0
41
1
10
82.998717479945
20
-6.85525590956678
30
0
41
1
10
82.9963037008116
20
-6.81040448828276
30
0
0
SPLINE
5
16A
100
AcDbEntity
8
1
62
256
6
ByLayer
370
13
48
1
60
0
100
AcDbSpline
70
4
71
3
72
8
73
4
40
0
40
0
40
0
40
0
40
1
40
1
40
1
40
1
41
1
10
82.9963037008116
20
-6.81040448828276
30
0
41
1
10
82.8242440905384
20
-6.5459533488534
30
0
41
1
10
82.6521844802653
20
-6.28150220942402
30
0
41
1
10
82.4801248699922
20
-6.01705106999466
30
0
0
SPLINE
5
16B
100
AcDbEntity
8
1
62
256
6
ByLayer
370
13
48
1
60
0
100
AcDbSpline
70
4
71
3
72
8
73
4
40
0
40
0
40
0
40
0
40
1
40
1
40
1
40
1
41
1
10
82.4801248699921
20
-6.01705106999455
30
0
41
1
10
82.4757130851133
20
-6.01027027154765
30
0
41
1
10
82.4713013002345
20
-6.00348947310073
30
0
41
1
10
82.4668895153557
20
-5.99670867465383
30
0
0
SPLINE
5
16C
100
AcDbEntity
8
1
62
256
6
ByLayer
370
13
48
1
60
0
100
AcDbSpline
70
4
71
3
72
8
73
4
40
0
40
0
40
0
40
0
40
1
40
1
40
1
40
1
41
1
10
81.9346976681611
20
-6.53120064267469
30
0
41
1
10
81.9381631814108
20
-6.53943343790618
30
0
41
1
10
81.9416286946606
20
-6.54766623313768
30
0
41
1
10
81.9450942079104
20
-6.55589902836917
30
0
0
SPLINE
5
16D
100
AcDbEntity
8
1
62
256
6
ByLayer
370
18
48
1
60
0
100
AcDbSpline
70
4
71
3
72
8
73
4
40
0
40
0
40
0
40
0
40
1
40
1
40
1
40
1
41
1
10
82.3505592581263
20
-7.51913607046089
30
0
41
1
10
79.8400634037545
20
-7.47342824233064
30
0
41
1
10
77.3295675493458
20
-7.4277204141716
30
0
41
1
10
74.8190716950022
20
-7.38201258606304
30
0
0
SPLINE
5
16E
100
AcDbEntity
8
1
62
256
6
ByLayer
370
13
48
1
60
0
100
AcDbSpline
70
4
71
3
72
8
73
4
40
0
40
0
40
0
40
0
40
1
40
1
40
1
40
1
41
1
10
81.9450942079101
20
-6.5558990283686
30
0
41
1
10
82.0802492246488
20
-6.87697804239184
30
0
41
1
10
82.2154042413877
20
-7.19805705641181
30
0
41
1
10
82.3505592581261
20
-7.51913607044449
30
0
0
SPLINE
5
16F
100
AcDbEntity
8
1
62
256
6
ByLayer
370
13
48
1
60
0
100
AcDbSpline
70
4
71
3
72
12
73
8
40
0
40
0
40
0
40
0
40
0.130933762590391
40
0.130933762590391
40
0.846851358087277
40
0.846851358087277
40
1
40
1
40
1
40
1
41
1
10
79.5363238257187
20
-6.48753418562163
30
0
41
1
10
79.3499861413377
20
-6.51441150206011
30
0
41
1
10
79.1636484569567
20
-6.54128881849877
30
0
41
1
10
77.9584564731718
20
-6.71512550872825
30
0
41
1
10
76.939602173773
20
-6.8620848825276
30
0
41
1
10
75.7027952032398
20
-7.0404817131942
30
0
41
1
10
75.4848425320953
20
-7.07191917004465
30
0
41
1
10
75.2668898609512
20
-7.10335662689587
30
0
0
SPLINE
5
170
100
AcDbEntity
8
1
62
256
6
ByLayer
370
13
48
1
60
0
100
AcDbSpline
70
4
71
3
72
8
73
4
40
0
40
0
40
0
40
0
40
1
40
1
40
1
40
1
41
1
10
74.3780968829061
20
-6.87918010975062
30
0
41
1
10
74.3700835236089
20
-6.8574989223319
30
0
41
1
10
74.3620701643117
20
-6.83581773491321
30
0
41
1
10
74.3540568050145
20
-6.81413654749451
30
0
0
SPLINE
5
171
100
AcDbEntity
8
1
62
256
6
ByLayer
370
13
48
1
60
0
100
AcDbSpline
70
4
71
3
72
10
73
6
40
0
40
0
40
0
40
0
40
0.525210305152619
40
0.525210305152619
40
1
40
1
40
1
40
1
41
1
10
79.2272823678764
20
-6.47156935890069
30
0
41
1
10
78.5524534769518
20
-6.56890656529333
30
0
41
1
10
77.8776245860288
20
-6.66624377168856
30
0
41
1
10
76.5927509186641
20
-6.8515737346514
30
0
41
1
10
75.9827061422216
20
-6.93956649121779
30
0
41
1
10
75.3726613657827
20
-7.02755924778995
30
0
0
SPLINE
5
172
100
AcDbEntity
8
1
62
256
6
ByLayer
370
18
48
1
60
0
100
AcDbSpline
70
4
71
3
72
8
73
4
40
0
40
0
40
0
40
0
40
1
40
1
40
1
40
1
41
1
10
76.3608548213272
20
-6.22473817713589
30
0
41
1
10
76.3479617617662
20
-6.23521266359413
30
0
41
1
10
76.3350687022051
20
-6.24568715005236
30
0
41
1
10
76.3221756426441
20
-6.2561616365106
30
0
0
SPLINE
5
173
100
AcDbEntity
8
1
62
256
6
ByLayer
370
18
48
1
60
0
100
AcDbSpline
70
4
71
3
72
8
73
4
40
0
40
0
40
0
40
0
40
1
40
1
40
1
40
1
41
1
10
74.3780968009287
20
-6.87917992339507
30
0
41
1
10
74.6937989068635
20
-6.49751107373788
30
0
41
1
10
75.0095010127975
20
-6.11584222408194
30
0
41
1
10
75.3252031187309
20
-5.73417337442683
30
0
0
SPLINE
5
174
100
AcDbEntity
8
1
62
256
6
ByLayer
370
18
48
1
60
0
100
AcDbSpline
70
4
71
3
72
18
73
14
40
0
40
0
40
0
40
0
40
0.125
40
0.25
40
0.375
40
0.5
40
0.625
40
0.6875
40
0.75
40
0.8125
40
0.875
40
0.9375
40
1
40
1
40
1
40
1
41
1
10
74.3780932420122
20
-6.87918073010937
30
0
41
1
10
74.3882604579044
20
-6.90668902081231
30
0
41
1
10
74.4091403904552
20
-6.96154974764249
30
0
41
1
10
74.4434819028533
20
-7.04275779257281
30
0
41
1
10
74.4822714519661
20
-7.12222693622999
30
0
41
1
10
74.5275287070177
20
-7.19862890274212
30
0
41
1
10
74.5728371678644
20
-7.25772698993737
30
0
41
1
10
74.615294990637
20
-7.29985564572067
30
0
41
1
10
74.6504497922969
20
-7.32782813722429
30
0
41
1
10
74.6890695193552
20
-7.35109563516559
30
0
41
1
10
74.7307032713506
20
-7.3684622532854
30
0
41
1
10
74.7744414676977
20
-7.37913802608108
30
0
41
1
10
74.8042106293909
20
-7.38174202952564
30
0
41
1
10
74.8190716950023
20
-7.38201258608504
30
0
0
SPLINE
5
175
100
AcDbEntity
8
1
62
256
6
ByLayer
370
18
48
1
60
0
100
AcDbSpline
70
4
71
3
72
15
73
11
40
0
40
0
40
0
40
0
40
0.105547317957898
40
0.211094635915796
40
0.422189271831592
40
0.633283907747389
40
0.844378543663185
40
0.897152202642134
40
0.949925861621083
40
1
40
1
40
1
40
1
41
1
10
74.8190716950023
20
-7.38201258608504
30
0
41
1
10
74.8348270021952
20
-7.37220880777133
30
0
41
1
10
74.8663376300787
20
-7.35260193417713
30
0
41
1
10
74.9293589195398
20
-7.31338989215055
30
0
41
1
10
75.008135556486
20
-7.26437611122506
30
0
41
1
10
75.1026674392313
20
-7.20555544686053
30
0
41
1
10
75.1735667895067
20
-7.16144709845233
30
0
41
1
10
75.2208313460921
20
-7.13199674747082
30
0
41
1
10
75.2440613951035
20
-7.11754448248607
30
0
41
1
10
75.2594162128065
20
-7.10805961835732
30
0
41
1
10
75.2668900394662
20
-7.10336352547162
30
0
0
SPLINE
5
176
100
AcDbEntity
8
1
62
256
6
ByLayer
370
18
48
1
60
0
100
AcDbSpline
70
4
71
3
72
13
73
9
40
0
40
0
40
0
40
0
40
0.0113848368123325
40
0.233982789263991
40
0.456580741715649
40
0.679178694167307
40
0.901776646618966
40
1
40
1
40
1
40
1
41
1
10
75.2668894545978
20
-7.10336332995615
30
0
41
1
10
75.2672923128534
20
-7.10311019841308
30
0
41
1
10
75.275571789686
20
-7.09790313683078
30
0
41
1
10
75.29172259783
20
-7.08754312606072
30
0
41
1
10
75.3153112296979
20
-7.07131445184203
30
0
41
1
10
75.3388534137729
20
-7.05414416598538
30
0
41
1
10
75.3579627534586
20
-7.0394029650266
30
0
41
1
10
75.3692166167936
20
-7.0303492188747
30
0
41
1
10
75.3726609352693
20
-7.02756258998258
30
0
0
SPLINE
5
177
100
AcDbEntity
8
1
62
256
6
ByLayer
370
18
48
1
60
0
100
AcDbSpline
70
4
71
3
72
8
73
4
40
0
40
0
40
0
40
0
40
1
40
1
40
1
40
1
41
1
10
76.3221756426441
20
-6.25616163651063
30
0
41
1
10
76.005670848387
20
-6.51329417869587
30
0
41
1
10
75.6891660541299
20
-6.77042672088115
30
0
41
1
10
75.3726612598728
20
-7.02755926306642
30
0
0
SPLINE
5
178
100
AcDbEntity
8
1
62
256
6
ByLayer
370
18
48
1
60
0
100
AcDbSpline
70
4
71
3
72
24
73
20
40
0
40
0
40
0
40
0
40
0.16781346495028
40
0.16781346495028
40
0.335626929900561
40
0.335626929900561
40
0.377580296138142
40
0.377580296138142
40
0.419533662375723
40
0.419533662375723
40
0.503440394850886
40
0.503440394850886
40
0.671253859801211
40
0.671253859801211
40
0.755160592276392
40
0.755160592276392
40
0.839067324751574
40
0.839067324751574
40
1
40
1
40
1
40
1
41
1
10
76.3608548213261
20
-6.22473817713674
30
0
41
1
10
76.3117555743983
20
-6.22056479873672
30
0
41
1
10
76.2634428699727
20
-6.212989123429
30
0
41
1
10
76.1683040821721
20
-6.19140719062838
30
0
41
1
10
76.1214782784099
20
-6.17739972363194
30
0
41
1
10
76.0639114124071
20
-6.15571446934945
30
0
41
1
10
76.0524466619549
20
-6.15116709416085
30
0
41
1
10
76.0296156341161
20
-6.14164638510309
30
0
41
1
10
76.0182445249192
20
-6.13666967208997
30
0
41
1
10
75.9845601240662
20
-6.12122373392725
30
0
41
1
10
75.9625803762476
20
-6.11020181329084
30
0
41
1
10
75.8980389553478
20
-6.07501042529893
30
0
41
1
10
75.8568651683541
20
-6.04873044194494
30
0
41
1
10
75.7979323405545
20
-6.00501023766674
30
0
41
1
10
75.778762056109
20
-5.98971605185722
30
0
41
1
10
75.741386528405
20
-5.9576601715697
30
0
41
1
10
75.7231689883014
20
-5.94087421912127
30
0
41
1
10
75.6723125722768
20
-5.89056425986615
30
0
41
1
10
75.6414754112901
20
-5.85559051293347
30
0
41
1
10
75.6132096327198
20
-5.81872590964667
30
0
0
SPLINE
5
179
100
AcDbEntity
8
1
62
256
6
ByLayer
370
18
48
1
60
0
100
AcDbSpline
70
4
71
3
72
8
73
4
40
0
40
0
40
0
40
0
40
1
40
1
40
1
40
1
41
1
10
79.5363238257229
20
-6.48753418562103
30
0
41
1
10
79.4332666399118
20
-6.48565785504292
30
0
41
1
10
79.3302159285038
20
-6.48043307933062
30
0
41
1
10
79.2272823678655
20
-6.47156935889663
30
0
0
SPLINE
5
17A
100
AcDbEntity
8
1
62
256
6
ByLayer
370
18
48
1
60
0
100
AcDbSpline
70
4
71
3
72
8
73
4
40
0
40
0
40
0
40
0
40
1
40
1
40
1
40
1
41
1
10
81.934697668158
20
-6.53120064266926
30
0
41
1
10
81.1352397206813
20
-6.51664515698738
30
0
41
1
10
80.3357817732003
20
-6.50208967130212
30
0
41
1
10
79.5363238257202
20
-6.48753418561756
30
0
0
SPLINE
5
17B
100
AcDbEntity
8
1
62
256
6
ByLayer
370
18
48
1
60
0
100
AcDbSpline
70
4
71
3
72
15
73
11
40
0
40
0
40
0
40
0
40
0.125
40
0.25
40
0.375
40
0.5
40
0.625
40
0.75
40
0.875
40
1
40
1
40
1
40
1
41
1
10
81.934697666425
20
-6.53120063855044
30
0
41
1
10
81.9709274836738
20
-6.53186026591436
30
0
41
1
10
82.0432585376786
20
-6.52610241970325
30
0
41
1
10
82.1470530693981
20
-6.49660999650942
30
0
41
1
10
82.2420080796668
20
-6.44742062368439
30
0
41
1
10
82.3243084722399
20
-6.38046301302396
30
0
41
1
10
82.3906217809644
20
-6.29839048416326
30
0
41
1
10
82.4382528000495
20
-6.20448856589184
30
0
41
1
10
82.4652619942277
20
-6.10253704872414
30
0
41
1
10
82.4687859237866
20
-6.03194665612807
30
0
41
1
10
82.4668895131455
20
-5.99670867125676
30
0
0
SPLINE
5
17C
100
AcDbEntity
8
1
62
256
6
ByLayer
370
18
48
1
60
0
100
AcDbSpline
70
4
71
3
72
8
73
4
40
0
40
0
40
0
40
0
40
1
40
1
40
1
40
1
41
1
10
82.4194964160728
20
-5.11607803518825
30
0
41
1
10
82.4352941158328
20
-5.40962158167466
30
0
41
1
10
82.4510918155928
20
-5.70316512816296
30
0
41
1
10
82.4668895153526
20
-5.99670867465389
30
0
0
SPLINE
5
17D
100
AcDbEntity
8
1
62
256
6
ByLayer
370
18
48
1
60
0
100
AcDbSpline
70
4
71
3
72
14
73
10
40
0
40
0
40
0
40
0
40
0.154508397919725
40
0.32360671833578
40
0.492705038751835
40
0.66180335916789
40
0.830901679583945
40
0.915450839791973
40
1
40
1
40
1
40
1
41
1
10
74.2669044588872
20
3.67544914966035
30
0
41
1
10
74.2695167872029
20
3.73197046072894
30
0
41
1
10
74.2749677410746
20
3.85028263592733
30
0
41
1
10
74.283223926712
20
4.03032527949222
30
0
41
1
10
74.2917039381869
20
4.21574444617568
30
0
41
1
10
74.3001640660462
20
4.40119212429855
30
0
41
1
10
74.3071982460203
20
4.55574177350204
30
0
41
1
10
74.3128164199171
20
4.67937913806639
30
0
41
1
10
74.3156225144818
20
4.74119565120594
30
0
41
1
10
74.3167924499096
20
4.76698466626993
30
0
0
SPLINE
5
17E
100
AcDbEntity
8
1
62
256
6
ByLayer
370
18
48
1
60
0
100
AcDbSpline
70
4
71
3
72
8
73
4
40
0
40
0
40
0
40
0
40
1
40
1
40
1
40
1
41
1
10
74.3167924499096
20
4.76698466626993
30
0
41
1
10
74.3168701013964
20
4.76869634651717
30
0
41
1
10
74.3169481716418
20
4.77040239720611
30
0
41
1
10
74.3170266736085
20
4.77210300375029
30
0
0
SPLINE
5
17F
100
AcDbEntity
8
1
62
256
6
ByLayer
370
18
48
1
60
0
100
AcDbSpline
70
4
71
3
72
18
73
14
40
0
40
0
40
0
40
0
40
0.121162915242481
40
0.246484790770075
40
0.497128541825262
40
0.622450417352855
40
0.747772292880449
40
0.873094168408042
40
0.935755106171839
40
0.967085575053738
40
0.982750809494687
40
0.998416043935636
40
1
40
1
40
1
40
1
41
1
10
74.3170266736085
20
4.77210300375029
30
0
41
1
10
74.319313669994
20
4.82164674363889
30
0
41
1
10
74.3247115722622
20
4.91303500083072
30
0
41
1
10
74.3413321232425
20
5.09705247047287
30
0
41
1
10
74.36837795276
20
5.28160256053681
30
0
41
1
10
74.4089608131367
20
5.46467504141276
30
0
41
1
10
74.4469883168163
20
5.60024951769785
30
0
41
1
10
74.4853932284979
20
5.71038498791052
30
0
41
1
10
74.5171865245433
20
5.78791734679183
30
0
41
1
10
74.5329150862111
20
5.82373597701564
30
0
41
1
10
74.5442492760122
20
5.84836109569525
30
0
41
1
10
74.5489976795211
20
5.85847703310924
30
0
41
1
10
74.5507590170969
20
5.8622117677773
30
0
41
1
10
74.5509151970253
20
5.86254274349272
30
0
0
SPLINE
5
180
100
AcDbEntity
8
1
62
256
6
ByLayer
370
18
48
1
60
0
100
AcDbSpline
70
4
71
3
72
18
73
14
40
0
40
0
40
0
40
0
40
0.0140665171124701
40
0.0610129553067925
40
0.123608206232556
40
0.186203457158319
40
0.248798708084082
40
0.499179711787135
40
0.749560715490188
40
0.874751217341714
40
0.937346468267477
40
0.999941719193241
40
1
40
1
40
1
40
1
41
1
10
74.5509151970253
20
5.86254274349272
30
0
41
1
10
74.552303627612
20
5.86548509858051
30
0
41
1
10
74.5564199841663
20
5.87414182245263
30
0
41
1
10
74.5633132699025
20
5.88863472054797
30
0
41
1
10
74.5708136352469
20
5.90432258748808
30
0
41
1
10
74.5808080042301
20
5.92521851724501
30
0
41
1
10
74.6023074020236
20
5.97009246883451
30
0
41
1
10
74.632295305587
20
6.03215488857344
30
0
41
1
10
74.6671108415053
20
6.10341862892668
30
0
41
1
10
74.6913005986945
20
6.15246575721406
30
0
41
1
10
74.7055193204221
20
6.18116412008425
30
0
41
1
10
74.7124795943905
20
6.19518962326629
30
0
41
1
10
74.7158706893059
20
6.20197315815275
30
0
41
1
10
74.7158748999416
20
6.20198158104191
30
0
0
SPLINE
5
181
100
AcDbEntity
8
1
62
256
6
ByLayer
370
18
48
1
60
0
100
AcDbSpline
70
4
71
3
72
24
73
20
40
0
40
0
40
0
40
0
40
0.0624500259146311
40
0.12496061018842
40
0.249981778735998
40
0.265609424804445
40
0.281237070872893
40
0.300771628458452
40
0.312492363009787
40
0.343747655146681
40
0.375002947283576
40
0.500024115831154
40
0.75006645292631
40
0.875087621473888
40
0.937598205747677
40
0.968853497884571
40
0.984481143953019
40
0.992294966987242
40
1
40
1
40
1
40
1
41
1
10
74.7158748219856
20
6.20198142510108
30
0
41
1
10
74.719259983497
20
6.20875303947378
30
0
41
1
10
74.7258542237602
20
6.2218420348859
30
0
41
1
10
74.7390386341614
20
6.24721451240737
30
0
41
1
10
74.7504245368625
20
6.26820079646643
30
0
41
1
10
74.7594107166896
20
6.28415756956608
30
0
41
1
10
74.7623480184809
20
6.28933020597205
30
0
41
1
10
74.7650771679864
20
6.29409128252257
30
0
41
1
10
74.7687376487568
20
6.30042342965046
30
0
41
1
10
74.7731202774223
20
6.30791703837545
30
0
41
1
10
74.7843288075347
20
6.32675570296033
30
0
41
1
10
74.809381343926
20
6.36708395313269
30
0
41
1
10
74.8428048912145
20
6.415422366435
30
0
41
1
10
74.8751498319502
20
6.45565241549031
30
0
41
1
10
74.8931189287798
20
6.47422210041321
30
0
41
1
10
74.9026298911672
20
6.48297884514983
30
0
41
1
10
74.9076849036641
20
6.48703616658301
30
0
41
1
10
74.9107268211243
20
6.489198834403
30
0
41
1
10
74.9122419492913
20
6.49023221223496
30
0
41
1
10
74.9131047663236
20
6.49070625636341
30
0
0
SPLINE
5
182
100
AcDbEntity
8
1
62
256
6
ByLayer
370
18
48
1
60
0
100
AcDbSpline
70
4
71
3
72
30
73
26
40
0
40
0
40
0
40
0
40
0.0001094202677201
40
0.0079685106252573
40
0.0158276009827946
40
0.0315457816978692
40
0.0629821431280183
40
0.125854865988316
40
0.251600311708913
40
0.377345757429509
40
0.408782118859658
40
0.416641209217196
40
0.424500299574733
40
0.43235938993227
40
0.440218480289807
40
0.471654841719956
40
0.503091203150106
40
0.51880938386518
40
0.628836648870702
40
0.754582094591298
40
0.817454817451597
40
0.880327540311895
40
0.943200263172193
40
0.974636624602342
40
1
40
1
40
1
40
1
41
1
10
74.9131047663237
20
6.49070625636341
30
0
41
1
10
74.9131169487353
20
6.49071294955613
30
0
41
1
10
74.9140057357596
20
6.49119981353618
30
0
41
1
10
74.9160065745447
20
6.49208407302336
30
0
41
1
10
74.9198557355708
20
6.49387082533866
30
0
41
1
10
74.9266671673982
20
6.49693847024682
30
0
41
1
10
74.9403154225823
20
6.50292990159264
30
0
41
1
10
74.9678802461835
20
6.51428645789986
30
0
41
1
10
75.0078789971333
20
6.52879693075866
30
0
41
1
10
75.0444902778484
20
6.53990320851065
30
0
41
1
10
75.0660166960037
20
6.54571834932409
30
0
41
1
10
75.0721782782639
20
6.54733329096902
30
0
41
1
10
75.0752612570989
20
6.54813149972034
30
0
41
1
10
75.0783463759291
20
6.5489204897612
30
0
41
1
10
75.0845207981604
20
6.55048011914329
30
0
41
1
10
75.0937977658257
20
6.55275107329769
30
0
41
1
10
75.104130224169
20
6.55515490840429
30
0
41
1
10
75.1248283988189
20
6.55978687653922
30
0
41
1
10
75.1580707972401
20
6.56645480744896
30
0
41
1
10
75.1975667351714
20
6.57281859109651
30
0
41
1
10
75.2319802053318
20
6.57724288842715
30
0
41
1
10
75.2572364350931
20
6.58003356284252
30
0
41
1
10
75.2756207495237
20
6.58178927656124
30
0
41
1
10
75.293188509145
20
6.58313026171462
30
0
41
1
10
75.2909648905763
20
6.5830345344875
30
0
41
1
10
75.3073260069048
20
6.58408168858787
30
0
0
SPLINE
5
183
100
AcDbEntity
8
1
62
256
6
ByLayer
370
18
48
1
60
0
100
AcDbSpline
70
4
71
3
72
25
73
21
40
0
40
0
40
0
40
0
40
0.0059772068261529
40
0.0214474905650257
40
0.0369177743038984
40
0.0678583417816438
40
0.129739476737135
40
0.253501746648116
40
0.485556002731207
40
0.50102628647008
40
0.531966853947825
40
0.562907421425571
40
0.624788556381062
40
0.748550826292043
40
0.872313096203025
40
0.934194231158516
40
0.965134798636261
40
0.980605082375134
40
0.996075366114007
40
1
40
1
40
1
40
1
41
1
10
75.3073260069048
20
6.58408168858787
30
0
41
1
10
75.3112434993277
20
6.58433241831631
30
0
41
1
10
75.3288703071401
20
6.58545630017045
30
0
41
1
10
75.3871817283904
20
6.5891516632899
30
0
41
1
10
75.5406154842977
20
6.59878733308261
30
0
41
1
10
75.7471572564277
20
6.61140489321244
30
0
41
1
10
76.2038133000713
20
6.63830063119647
30
0
41
1
10
77.0576143559345
20
6.68417665954627
30
0
41
1
10
77.8240672651433
20
6.71839695548917
30
0
41
1
10
78.3990599654531
20
6.74055198681967
30
0
41
1
10
78.5587750402863
20
6.7465230327509
30
0
41
1
10
78.814261864188
20
6.7556876825758
30
0
41
1
10
79.2610916732068
20
6.77070897038246
30
0
41
1
10
79.8979468423399
20
6.78928745605134
30
0
41
1
10
80.5309828864437
20
6.80409137797258
30
0
41
1
10
80.986623238531
20
6.8127109463868
30
0
41
1
10
81.1949182567646
20
6.81625518760953
30
0
41
1
10
81.3456865277487
20
6.81861210618052
30
0
41
1
10
81.4033724529625
20
6.81948809328031
30
0
41
1
10
81.4235356059157
20
6.81978032017631
30
0
41
1
10
81.4271925477076
20
6.81983241573619
30
0
0
SPLINE
5
184
100
AcDbEntity
8
1
62
256
6
ByLayer
370
18
48
1
60
0
100
AcDbSpline
70
4
71
3
72
33
73
29
40
0
40
0
40
0
40
0
40
0.0273823410709149
40
0.0587425444385282
40
0.0901027478061414
40
0.121462951173755
40
0.184183357908981
40
0.246903764644208
40
0.309624171379434
40
0.372344578114661
40
0.403704781482274
40
0.435064984849887
40
0.497785391585114
40
0.529145594952727
40
0.56050579832034
40
0.591866001687954
40
0.623226205055567
40
0.685946611790793
40
0.717306815158407
40
0.74866701852602
40
0.764347120209827
40
0.811387425261247
40
0.874107831996473
40
0.9368282387317
40
0.968188442099313
40
0.98386854378312
40
0.999548645466926
40
1
40
1
40
1
40
1
41
1
10
81.4271925477076
20
6.81983241573619
30
0
41
1
10
81.4523657739171
20
6.82019102502986
30
0
41
1
10
81.4633546073396
20
6.82024493576273
30
0
41
1
10
81.4888172408026
20
6.82016074092553
30
0
41
1
10
81.5199844551342
20
6.81979614104534
30
0
41
1
10
81.5626500174178
20
6.81884427983641
30
0
41
1
10
81.6140600385671
20
6.81667825973082
30
0
41
1
10
81.675975523037
20
6.81242178770134
30
0
41
1
10
81.7376086350181
20
6.80636930225575
30
0
41
1
10
81.7886152943074
20
6.79927226431514
30
0
41
1
10
81.8293920585447
20
6.79184182776641
30
0
41
1
10
81.8695237317532
20
6.7816900239298
30
0
41
1
10
81.9073819168562
20
6.76544854411839
30
0
41
1
10
81.9399298433382
20
6.74085060948488
30
0
41
1
10
81.9609533490266
20
6.7191946314627
30
0
41
1
10
81.9793959854227
20
6.69514164633677
30
0
41
1
10
82.0009072996759
20
6.66112525150123
30
0
41
1
10
82.0184015666267
20
6.62465628883726
30
0
41
1
10
82.0311099745564
20
6.58665452557762
30
0
41
1
10
82.0376250460093
20
6.56250627088767
30
0
41
1
10
82.0445782705658
20
6.53334538288632
30
0
41
1
10
82.052343281062
20
6.4941237649077
30
0
41
1
10
82.0596243999441
20
6.4392656369524
30
0
41
1
10
82.0632093116017
20
6.3883638515203
30
0
41
1
10
82.0642580592809
20
6.35437199855841
30
0
41
1
10
82.0644117583385
20
6.33211919017961
30
0
41
1
10
82.064368123192
20
6.32249351442491
30
0
41
1
10
82.0643359671155
20
6.3183136054663
30
0
41
1
10
82.0643350599054
20
6.31819718668427
30
0
0
SPLINE
5
185
100
AcDbEntity
8
1
62
256
6
ByLayer
370
18
48
1
60
0
100
AcDbSpline
70
4
71
3
72
22
73
18
40
0
40
0
40
0
40
0
40
0.0112892879508303
40
0.0621620442639538
40
0.124774667418567
40
0.249999913727794
40
0.500450406346248
40
0.750900898964702
40
0.813513522119315
40
0.829166677907969
40
0.844819833696622
40
0.860472989485275
40
0.876126145273929
40
0.938738768428542
40
0.970045080005849
40
0.985698235794502
40
1
40
1
40
1
40
1
41
1
10
82.0643350599054
20
6.31819718668427
30
0
41
1
10
82.064312329689
20
6.31528030535557
30
0
41
1
10
82.0641612797664
20
6.30106541805253
30
0
41
1
10
82.0639175655106
20
6.27874892871898
30
0
41
1
10
82.0635051194621
20
6.24574791378498
30
0
41
1
10
82.0625042436664
20
6.16423710097342
30
0
41
1
10
82.0609221594051
20
6.05860598788573
30
0
41
1
10
82.0593270490873
20
5.96027260093993
30
0
41
1
10
82.0582032520892
20
5.90332502024376
30
0
41
1
10
82.0578751354264
20
5.88704676325639
30
0
41
1
10
82.0577100095576
20
5.87890427784532
30
0
41
1
10
82.0575441549753
20
5.87075658252849
30
0
41
1
10
82.0572116660317
20
5.85444706610673
30
0
41
1
10
82.0568234643812
20
5.83536728763428
30
0
41
1
10
82.0565060282606
20
5.81666323128508
30
0
41
1
10
82.0562603816814
20
5.80555305833346
30
0
41
1
10
82.0562941408011
20
5.80184706705029
30
0
41
1
10
82.0561294426125
20
5.79750933518423
30
0
0
SPLINE
5
186
100
AcDbEntity
8
1
62
256
6
ByLayer
370
18
48
1
60
0
100
AcDbSpline
70
4
71
3
72
21
73
17
40
0
40
0
40
0
40
0
40
0.0013467736322129
40
0.0169464397395092
40
0.0325461058468055
40
0.0637454380613981
40
0.126144102490583
40
0.250941431348954
40
0.375738760207324
40
0.500536089065695
40
0.625333417924065
40
0.750130746782436
40
0.874928075640806
40
0.937326740069992
40
0.999725404499177
40
1
40
1
40
1
40
1
41
1
10
82.0561294426126
20
5.79750933518423
30
0
41
1
10
82.0561138800748
20
5.79709945747618
30
0
41
1
10
82.0558977423875
20
5.79165342202472
30
0
41
1
10
82.0549363401076
20
5.7734612502363
30
0
41
1
10
82.0537066161209
20
5.74385588893458
30
0
41
1
10
82.0510525221507
20
5.68904553491643
30
0
41
1
10
82.0462037824974
20
5.58135197787769
30
0
41
1
10
82.039021100472
20
5.42658665605268
30
0
41
1
10
82.0304853734146
20
5.24136631190757
30
0
41
1
10
82.0219806901156
20
5.05590131187017
30
0
41
1
10
82.0134546029608
20
4.86944895800323
30
0
41
1
10
82.0050114367767
20
4.68438784571222
30
0
41
1
10
81.998131503121
20
4.53331178295431
30
0
41
1
10
81.9921761110475
20
4.40206903626634
30
0
41
1
10
81.9894112843041
20
4.34055118134526
30
0
41
1
10
81.9881748844796
20
4.31407702396123
30
0
41
1
10
81.9881694701672
20
4.31396111385519
30
0
0
SPLINE
5
187
100
AcDbEntity
8
1
62
256
6
ByLayer
370
18
48
1
60
0
100
AcDbSpline
70
4
71
3
72
14
73
10
40
0
40
0
40
0
40
0
40
0.0249014314006237
40
0.0502490480882358
40
0.10094428146346
40
0.202334748213908
40
0.405115681714805
40
0.810677548716599
40
1
40
1
40
1
40
1
41
1
10
81.9881694701672
20
4.31396111385519
30
0
41
1
10
81.9878672994537
20
4.30749221486059
30
0
41
1
10
81.9872753170114
20
4.2949620287288
30
0
41
1
10
81.9861106095669
20
4.2715499049381
30
0
41
1
10
81.9839998612728
20
4.23409578601246
30
0
41
1
10
81.9784869872707
20
4.15048488786979
30
0
41
1
10
81.9638800295643
20
3.98957762420878
30
0
41
1
10
81.9373038157298
20
3.80756714232592
30
0
41
1
10
81.9076952716953
20
3.67311566983545
30
0
41
1
10
81.8971935417741
20
3.63061531651039
30
0
0
SPLINE
5
188
100
AcDbEntity
8
1
62
256
6
ByLayer
370
18
48
1
60
0
100
AcDbSpline
70
4
71
3
72
21
73
17
40
0
40
0
40
0
40
0
40
0.0039822658528455
40
0.0174419649629421
40
0.0309016640730388
40
0.0847404605134256
40
0.138579256953812
40
0.246256849834586
40
0.353934442715359
40
0.461612035596133
40
0.569289628476906
40
0.67696722135768
40
0.784644814238453
40
0.892322407119227
40
0.946161203559613
40
1
40
1
40
1
40
1
41
1
10
83.3067462273001
20
7.10849709576689
30
0
41
1
10
83.3067121681638
20
7.11002062735432
30
0
41
1
10
83.306548305706
20
7.11677776617296
30
0
41
1
10
83.3061111023404
20
7.12955715864919
30
0
41
1
10
83.3042827023372
20
7.16342074140348
30
0
41
1
10
83.298842399533
20
7.21283366640793
30
0
41
1
10
83.2818055072771
20
7.29985215463535
30
0
41
1
10
83.2474603295786
20
7.40365913943018
30
0
41
1
10
83.185788288119
20
7.52076906845016
30
0
41
1
10
83.1058540638743
20
7.62561446412292
30
0
41
1
10
83.0090393978022
20
7.71661049021012
30
0
41
1
10
82.8980689721195
20
7.79075385199019
30
0
41
1
10
82.775575205654
20
7.84608500703609
30
0
41
1
10
82.6663934527008
20
7.8749506472368
30
0
41
1
10
82.5769959461756
20
7.88714187965635
30
0
41
1
10
82.5315235072526
20
7.88950663514223
30
0
41
1
10
82.5095471107104
20
7.88972250712987
30
0
0
SPLINE
5
189
100
AcDbEntity
8
1
62
256
6
ByLayer
370
18
48
1
60
0
100
AcDbSpline
70
4
71
3
72
8
73
4
40
0
40
0
40
0
40
0
40
1
40
1
40
1
40
1
41
1
10
82.5095471107104
20
7.88972250712987
30
0
41
1
10
82.5092210416673
20
7.88972571007409
30
0
41
1
10
82.5088958315682
20
7.88972890389601
30
0
41
1
10
82.5085714549219
20
7.88973208884701
30
0
0
SPLINE
5
18A
100
AcDbEntity
8
1
62
256
6
ByLayer
370
18
48
1
60
0
100
AcDbSpline
70
4
71
3
72
11
73
7
40
0
40
0
40
0
40
0
40
0.0589687449404355
40
0.484373627158177
40
0.970550635407024
40
1
40
1
40
1
40
1
41
1
10
82.508571454922
20
7.88973208884701
30
0
41
1
10
82.4979646653652
20
7.88983623353622
30
0
41
1
10
82.4181596661482
20
7.89061377521432
30
0
41
1
10
82.2582399064249
20
7.89207768628663
30
0
41
1
10
82.1031695734104
20
7.89330846724798
30
0
41
1
10
82.0181992203572
20
7.89391839669509
30
0
41
1
10
82.0133462384201
20
7.89395302213669
30
0
0
SPLINE
5
18B
100
AcDbEntity
8
1
62
256
6
ByLayer
370
18
48
1
60
0
100
AcDbSpline
70
4
71
3
72
17
73
13
40
0
40
0
40
0
40
0
40
0.0600950229142421
40
0.184038916465191
40
0.431926703567089
40
0.679814490668986
40
0.927702277770884
40
0.989674224546358
40
0.993547471219825
40
0.997420717893292
40
0.999357341230026
40
1
40
1
40
1
40
1
41
1
10
82.0133462384201
20
7.89395302213669
30
0
41
1
10
81.857964303788
20
7.89506165352554
30
0
41
1
10
81.382096906148
20
7.89779774190575
30
0
41
1
10
80.2650773201489
20
7.89973225462478
30
0
41
1
10
78.6619578562847
20
7.88946058209802
30
0
41
1
10
76.7377037363706
20
7.85655150250972
30
0
41
1
10
75.2915324772714
20
7.81654028378065
30
0
41
1
10
74.4838424865282
20
7.78892089296136
30
0
41
1
10
74.301592629906
20
7.78244925760262
30
0
41
1
10
74.2766905639569
20
7.78155897203604
30
0
41
1
10
74.2605293950813
20
7.78097698967454
30
0
41
1
10
74.2532078551187
20
7.78071093256639
30
0
41
1
10
74.2513445650042
20
7.78063958285338
30
0
0
SPLINE
5
18C
100
AcDbEntity
8
1
62
256
6
ByLayer
370
18
48
1
60
0
100
AcDbSpline
70
4
71
3
72
20
73
16
40
0
40
0
40
0
40
0
40
0.0166268555036293
40
0.041511583580431
40
0.0663963116572327
40
0.165935223964439
40
0.265474136271646
40
0.31524359242525
40
0.46455196088606
40
0.663629785500473
40
0.862707610114887
40
0.91247706626849
40
0.962246522422093
40
0.987131250498895
40
1
40
1
40
1
40
1
41
1
10
74.2513445650042
20
7.78063958285335
30
0
41
1
10
74.247592914053
20
7.78049592341105
30
0
41
1
10
74.2378311653655
20
7.78008605618154
30
0
41
1
10
74.2218144031037
20
7.77898322578253
30
0
41
1
10
74.1854081650055
20
7.77538334312018
30
0
41
1
10
74.1319604995531
20
7.76610624709264
30
0
41
1
10
74.074031674095
20
7.74885927636842
30
0
41
1
10
74.005944121407
20
7.72201161971319
30
0
41
1
10
73.9200298733857
20
7.67595618404732
30
0
41
1
10
73.8167744433611
20
7.59003627707656
30
0
41
1
10
73.7509767906357
20
7.50139071655994
30
0
41
1
10
73.7172491992737
20
7.43821514989088
30
0
41
1
10
73.7047671036476
20
7.41093500864096
30
0
41
1
10
73.6967531839466
20
7.39109428487376
30
0
41
1
10
73.6937808536795
20
7.38319583848553
30
0
41
1
10
73.692803238257
20
7.38056564776193
30
0
0
SPLINE
5
18D
100
AcDbEntity
8
1
62
256
6
ByLayer
370
18
48
1
60
0
100
AcDbSpline
70
4
71
3
72
13
73
9
40
0
40
0
40
0
40
0
40
0.0057624935460862
40
0.0296303931158608
40
0.220573589674057
40
0.602459982790451
40
0.984346375906845
40
1
40
1
40
1
40
1
41
1
10
73.6928032382569
20
7.38056564776193
30
0
41
1
10
73.6918904062858
20
7.37810975137648
30
0
41
1
10
73.6873560106806
20
7.36576005264996
30
0
41
1
10
73.6563746713025
20
7.28214546034761
30
0
41
1
10
73.5697411247279
20
7.0474802677164
30
0
41
1
10
73.4330277584922
20
6.67771876802797
30
0
41
1
10
73.321809927573
20
6.37692955271979
30
0
41
1
10
73.2640881564046
20
6.22060593316345
30
0
41
1
10
73.2618184190184
20
6.21444287617368
30
0
0
SPLINE
5
18E
100
AcDbEntity
8
1
62
256
6
ByLayer
370
18
48
1
60
0
100
AcDbSpline
70
4
71
3
72
17
73
13
40
0
40
0
40
0
40
0
40
0.0295588681041414
40
0.0735401813589747
40
0.161502807868641
40
0.337428060887974
40
0.513353313907308
40
0.689278566926641
40
0.865203819945974
40
0.95316644645564
40
0.997147759710474
40
1
40
1
40
1
40
1
41
1
10
73.2618184190184
20
6.21444287617368
30
0
41
1
10
73.2571665817377
20
6.20181166234164
30
0
41
1
10
73.245625857806
20
6.1703065098381
30
0
41
1
10
73.2210064487658
20
6.10031785719653
30
0
41
1
10
73.1766960272583
20
5.96616781266772
30
0
41
1
10
73.1211725476054
20
5.77252517375587
30
0
41
1
10
73.0670979418261
20
5.53769493053477
30
0
41
1
10
73.0256484998696
20
5.30051079387988
30
0
41
1
10
73.0018838911091
20
5.1021799889275
30
0
41
1
10
72.9907224266192
20
4.96269063784129
30
0
41
1
10
72.9872486922145
20
4.90188088632823
30
0
41
1
10
72.9861204467383
20
4.8808577743248
30
0
41
1
10
72.9860520052112
20
4.87957781904649
30
0
0
SPLINE
5
18F
100
AcDbEntity
8
1
62
256
6
ByLayer
370
18
48
1
60
0
100
AcDbSpline
70
4
71
3
72
13
73
9
40
0
40
0
40
0
40
0
40
0.0489938575554185
40
0.0751896120588712
40
0.25855989358304
40
0.468125929610662
40
0.887258001665905
40
1
40
1
40
1
40
1
41
1
10
72.9860520052112
20
4.87957781904649
30
0
41
1
10
72.9850650839574
20
4.86112096804877
30
0
41
1
10
72.9836367926902
20
4.8329191309939
30
0
41
1
10
72.9786633258609
20
4.73656014521293
30
0
41
1
10
72.9705785329525
20
4.58034458297172
30
0
41
1
10
72.9548472562597
20
4.27764770754297
30
0
41
1
10
72.9404120227663
20
4.00127827266667
30
0
41
1
10
72.9300491915583
20
3.80302327144818
30
0
41
1
10
72.9278549219189
20
3.76099876324713
30
0
0
SPLINE
5
190
100
AcDbEntity
8
1
62
256
6
ByLayer
370
18
48
1
60
0
100
AcDbSpline
70
4
71
3
72
12
73
8
40
0
40
0
40
0
40
0
40
0.504520149767504
40
0.684132196624483
40
0.863744243481461
40
0.95355026690995
40
1
40
1
40
1
40
1
41
1
10
82.4215964703246
20
1.71810182948428
30
0
41
1
10
82.443233471854
20
1.74449202315768
30
0
41
1
10
82.4695471390475
20
1.78262497641606
30
0
41
1
10
82.4965799495698
20
1.83325908961189
30
0
41
1
10
82.5090623464716
20
1.86053862300267
30
0
41
1
10
82.5170766897399
20
1.88037912641724
30
0
41
1
10
82.5200492406454
20
1.88827806321444
30
0
41
1
10
82.5210270301618
20
1.89090872598138
30
0
0
SPLINE
5
191
100
AcDbEntity
8
1
62
256
6
ByLayer
370
18
48
1
60
0
100
AcDbSpline
70
4
71
3
72
13
73
9
40
0
40
0
40
0
40
0
40
0.0057614727139833
40
0.0296295181346313
40
0.220573881499815
40
0.602462608230184
40
0.984351334960552
40
1
40
1
40
1
40
1
41
1
10
82.5210270301618
20
1.89090872598138
30
0
41
1
10
82.5219397012009
20
1.89336419280795
30
0
41
1
10
82.5264739826285
20
1.90571370856301
30
0
41
1
10
82.5574537540976
20
1.98932969163516
30
0
41
1
10
82.6440859841429
20
2.22399894757044
30
0
41
1
10
82.7807982008085
20
2.59376275402946
30
0
41
1
10
82.8920167577951
20
2.89454789743229
30
0
41
1
10
82.9497392973853
20
3.05086913299192
30
0
41
1
10
82.9520083630877
20
3.05703018216349
30
0
0
SPLINE
5
192
100
AcDbEntity
8
1
62
256
6
ByLayer
370
18
48
1
60
0
100
AcDbSpline
70
4
71
3
72
17
73
13
40
0
40
0
40
0
40
0
40
0.0295634678907721
40
0.0735446958500544
40
0.161507151768619
40
0.337432063605748
40
0.513356975442877
40
0.689281887280006
40
0.865206799117135
40
0.953169255035699
40
0.997150482994981
40
1
40
1
40
1
40
1
41
1
10
82.9520083630877
20
3.05703018216349
30
0
41
1
10
82.9566610588405
20
3.06966334976318
30
0
41
1
10
82.9682028321507
20
3.10117042318501
30
0
41
1
10
82.9928233898109
20
3.17116108567944
30
0
41
1
10
83.0371342704249
20
3.30531155889634
30
0
41
1
10
83.0926574453919
20
3.49895530352936
30
0
41
1
10
83.1467316248105
20
3.73378602770205
30
0
41
1
10
83.1881809916751
20
3.9709699603319
30
0
41
1
10
83.2119454422192
20
4.16930073453238
30
0
41
1
10
83.2231067814785
20
4.30879014891312
30
0
41
1
10
83.2265804097423
20
4.36959860320911
30
0
41
1
10
83.2277085815163
20
4.39062049015629
30
0
41
1
10
83.2277769575633
20
4.39189922594022
30
0
0
SPLINE
5
193
100
AcDbEntity
8
1
62
256
6
ByLayer
370
18
48
1
60
0
100
AcDbSpline
70
4
71
3
72
32
73
28
40
0
40
0
40
0
40
0
40
0.0201722500279436
40
0.030957120221128
40
0.106451211573418
40
0.192730173118893
40
0.365288096209843
40
0.451567057755318
40
0.494706538528055
40
0.537846019300793
40
0.543238454397385
40
0.548630889493977
40
0.554023324590569
40
0.556719542138865
40
0.559415759687161
40
0.564808194783754
40
0.570200629880346
40
0.58098550007353
40
0.624124980846268
40
0.710403942391742
40
0.796682903937217
40
0.882961865482692
40
0.969240827028167
40
0.980025697221351
40
0.990810567414536
40
0.996203002511128
40
1
40
1
40
1
40
1
41
1
10
83.2277769575633
20
4.39189922594022
30
0
41
1
10
83.2287639401989
20
4.41035729815368
30
0
41
1
10
83.2301922742696
20
4.43856036062786
30
0
41
1
10
83.2351657131148
20
4.53492074095087
30
0
41
1
10
83.2432501789173
20
4.6911369738329
30
0
41
1
10
83.2589805009194
20
4.99383579534253
30
0
41
1
10
83.2752999378428
20
5.30629787041272
30
0
41
1
10
83.2895931583833
20
5.57970076679871
30
0
41
1
10
83.2977144159282
20
5.73592948443545
30
0
41
1
10
83.302119216593
20
5.81892788481323
30
0
41
1
10
83.3046586948353
20
5.86774880155301
30
0
41
1
10
83.3054015340269
20
5.882395090568
30
0
41
1
10
83.3060615162636
20
5.8946022994628
30
0
41
1
10
83.3065643593279
20
5.90436507513388
30
0
41
1
10
83.3068679256222
20
5.91413109112284
30
0
41
1
10
83.3070201223029
20
5.92634376794334
30
0
41
1
10
83.3072758150991
20
5.94588366064394
30
0
41
1
10
83.3081406630433
20
5.99961241381584
30
0
41
1
10
83.3100468682113
20
6.12659485811329
30
0
41
1
10
83.3117328957472
20
6.32192051041267
30
0
41
1
10
83.3122196384447
20
6.5562531188906
30
0
41
1
10
83.3111181538864
20
6.79052772597146
30
0
41
1
10
83.3091762943732
20
6.95643127745714
30
0
41
1
10
83.3076519733416
20
7.0540080118503
30
0
41
1
10
83.3072284532905
20
7.07846488762021
30
0
41
1
10
83.3069774949014
20
7.096359507881
30
0
41
1
10
83.30682728497
20
7.10487122811551
30
0
41
1
10
83.3067462273001
20
7.10849709576689
30
0
0
SPLINE
5
194
100
AcDbEntity
8
1
62
256
6
ByLayer
370
18
48
1
60
0
100
AcDbSpline
70
4
71
3
72
57
73
53
40
0
40
0
40
0
40
0
40
0.0095682798800388
40
0.0191365597600776
40
0.0382731195201551
40
0.0574096792802327
40
0.0765462390403103
40
0.0956827988003879
40
0.114819358560465
40
0.133955918320543
40
0.153092478080621
40
0.162660757960659
40
0.172229037840698
40
0.174621107810708
40
0.177013177780718
40
0.179405247750727
40
0.181797317720737
40
0.186581457660756
40
0.191365597600776
40
0.229638717120931
40
0.267911836641086
40
0.306184956161241
40
0.344458075681396
40
0.363594635441474
40
0.368378775381493
40
0.370770845351503
40
0.373162915321513
40
0.374358950306518
40
0.375554985291522
40
0.377947055261532
40
0.380339125231542
40
0.382731195201552
40
0.401867754961629
40
0.421004314721707
40
0.459277434241862
40
0.535823673282172
40
0.574096792802327
40
0.607585772382463
40
0.612369912322482
40
0.621938192202521
40
0.63150647208256
40
0.650643031842638
40
0.688916151362793
40
0.727189270882948
40
0.765462390403103
40
0.803735509923258
40
0.822872069683336
40
0.832440349563374
40
0.842008629443413
40
0.918554868483724
40
0.995101107524034
40
1
40
1
40
1
40
1
41
1
10
82.4985077219746
20
7.6968941414506
30
0
41
1
10
82.5167669162184
20
7.69671477211034
30
0
41
1
10
82.5514670158055
20
7.69488311875659
30
0
41
1
10
82.6200861540012
20
7.6854274180146
30
0
41
1
10
82.7035043430643
20
7.66306244354564
30
0
41
1
10
82.7969850141399
20
7.62036116539107
30
0
41
1
10
82.8816574988967
20
7.56334315177494
30
0
41
1
10
82.9553347668159
20
7.49355497602755
30
0
41
1
10
83.016415513036
20
7.41296698509157
30
0
41
1
10
83.0632984326952
20
7.32354952590973
30
0
41
1
10
83.0896087854587
20
7.2437716079651
30
0
41
1
10
83.1025199214556
20
7.17707773128663
30
0
41
1
10
83.1066250877961
20
7.13938520332064
30
0
41
1
10
83.1079761185071
20
7.11489742648556
30
0
41
1
10
83.1084270891449
20
7.10205942273026
30
0
41
1
10
83.1087061197172
20
7.08790507327112
30
0
41
1
10
83.1089830046583
20
7.06822990521232
30
0
41
1
10
83.1094021266661
20
7.04391667647391
30
0
41
1
10
83.1112458817104
20
6.94732912913952
30
0
41
1
10
83.1139604046765
20
6.7818565847742
30
0
41
1
10
83.1159350510916
20
6.54880132009183
30
0
41
1
10
83.1149533322142
20
6.31555922110795
30
0
41
1
10
83.1113880468099
20
6.12118995954091
30
0
41
1
10
83.1078818200924
20
5.99485122363578
30
0
41
1
10
83.1062021158161
20
5.94140059587349
30
0
41
1
10
83.1055702613309
20
5.92196404904405
30
0
41
1
10
83.105166655575
20
5.90981622691024
30
0
41
1
10
83.1048385981597
20
5.9000979814937
30
0
41
1
10
83.1045071072743
20
5.89037974444074
30
0
41
1
10
83.1040863341682
20
5.87823196412484
30
0
41
1
10
83.1035712416634
20
5.86365465436575
30
0
41
1
10
83.1018206854634
20
5.81506371396688
30
0
41
1
10
83.0985901496228
20
5.73245984609147
30
0
41
1
10
83.0917917747274
20
5.57696913146142
30
0
41
1
10
83.0783648468968
20
5.30484828610219
30
0
41
1
10
83.0611383180463
20
4.99378307057574
30
0
41
1
10
83.045148589346
20
4.69239655288939
30
0
41
1
10
83.0370365947264
20
4.53667606230911
30
0
41
1
10
83.0320814086755
20
4.4397558728196
30
0
41
1
10
83.0296271610562
20
4.39138407244829
30
0
41
1
10
83.0252553094863
20
4.31480620095408
30
0
41
1
10
83.0145873030438
20
4.18158859468676
30
0
41
1
10
82.9917952361628
20
3.99132316099406
30
0
41
1
10
82.9521307842346
20
3.76438985268749
30
0
41
1
10
82.9003156330035
20
3.53939886542963
30
0
41
1
10
82.8471468178654
20
3.35398923435869
30
0
41
1
10
82.8047308987998
20
3.22559178530079
30
0
41
1
10
82.7790676919784
20
3.15264219107044
30
0
41
1
10
82.7114742805494
20
2.96957349999232
30
0
41
1
10
82.5943133566518
20
2.65278512738976
30
0
41
1
10
82.4806207843358
20
2.34502759898498
30
0
41
1
10
82.4229219459439
20
2.1889998757909
30
0
41
1
10
82.4194516836886
20
2.17961581908153
30
0
0
SPLINE
5
195
100
AcDbEntity
8
1
62
256
6
ByLayer
370
18
48
1
60
0
100
AcDbSpline
70
4
71
3
72
51
73
47
40
0
40
0
40
0
40
0
40
0.0142553458031962
40
0.0521686017338425
40
0.0711252296991657
40
0.0877122791688234
40
0.0900818576644888
40
0.0948210146558196
40
0.0995601716471504
40
0.109038485629812
40
0.127995113595135
40
0.146951741560458
40
0.165908369525781
40
0.184864997491105
40
0.194343311473766
40
0.199082468465097
40
0.203821625456428
40
0.241734881387074
40
0.27964813731772
40
0.298604765283044
40
0.300974343778709
40
0.302159133026542
40
0.303343922274374
40
0.30571350077004
40
0.308083079265705
40
0.317561393248367
40
0.327039707231028
40
0.334148442718024
40
0.33651802121369
40
0.341257178205021
40
0.345996335196351
40
0.347181124444184
40
0.348365913692017
40
0.349550702939849
40
0.350735492187682
40
0.353105070683348
40
0.355474649179013
40
0.393387905109659
40
0.545040928832244
40
0.69669395255483
40
0.848346976277415
40
0.924173488138707
40
0.962086744069354
40
0.981043372034677
40
0.997630421504335
40
1
40
1
40
1
40
1
41
1
10
73.1230982584553
20
3.71348676391986
30
0
41
1
10
73.1258663702714
20
3.7719531994365
30
0
41
1
10
73.1365305306364
20
3.98592228266551
30
0
41
1
10
73.1526893551189
20
4.27770059533327
30
0
41
1
10
73.1686800506105
20
4.57908513339459
30
0
41
1
10
73.1767924233142
20
4.73480485325811
30
0
41
1
10
73.1817477195759
20
4.83172481210002
30
0
41
1
10
73.1842019963604
20
4.88009654870277
30
0
41
1
10
73.1885738847754
20
4.95667437103799
30
0
41
1
10
73.1992420107316
20
5.08989202214821
30
0
41
1
10
73.2220341601035
20
5.2801575609717
30
0
41
1
10
73.2616988271989
20
5.50709076472262
30
0
41
1
10
73.3135142219593
20
5.73208122698122
30
0
41
1
10
73.366683190494
20
5.91748991207393
30
0
41
1
10
73.4090987716338
20
6.04588699200119
30
0
41
1
10
73.4347615433218
20
6.11883649896049
30
0
41
1
10
73.5023532795379
20
6.30190608177588
30
0
41
1
10
73.6195123765616
20
6.61869592058895
30
0
41
1
10
73.7572226800707
20
6.9914618239506
30
0
41
1
10
73.8414085986352
20
7.21900991317719
30
0
41
1
10
73.8750374180645
20
7.3101429880482
30
0
41
1
10
73.8811079523921
20
7.32645448764254
30
0
41
1
10
73.8870432573332
20
7.34133855079688
30
0
41
1
10
73.895338970814
20
7.35941142877792
30
0
41
1
10
73.9178701277851
20
7.4017325113652
30
0
41
1
10
73.9612965168265
20
7.46023825740713
30
0
41
1
10
74.0300911001834
20
7.51782089485599
30
0
41
1
10
74.087532592887
20
7.54867085089788
30
0
41
1
10
74.1328202915506
20
7.56658977498472
30
0
41
1
10
74.1717373324151
20
7.5781580978776
30
0
41
1
10
74.2079056376334
20
7.58442025543027
30
0
41
1
10
74.2314851573429
20
7.58678681884624
30
0
41
1
10
74.2435499040757
20
7.58762508694068
30
0
41
1
10
74.2571601733712
20
7.58816800137316
30
0
41
1
10
74.276867334412
20
7.58881389766088
30
0
41
1
10
74.3020045847793
20
7.58973196017624
30
0
41
1
10
74.4822299089229
20
7.59614034952907
30
0
41
1
10
75.2932441348889
20
7.62385887215007
30
0
41
1
10
76.7350256832575
20
7.66374060367576
30
0
41
1
10
78.6571244317942
20
7.69661369155725
30
0
41
1
10
80.2584498885331
20
7.7068741730823
30
0
41
1
10
81.3790509061816
20
7.7049335302394
30
0
41
1
10
81.9392516665507
20
7.70168959614938
30
0
41
1
10
82.2493395913709
20
7.69922845013011
30
0
41
1
10
82.4093693297408
20
7.69776352908244
30
0
41
1
10
82.4893781248526
20
7.69698382612074
30
0
41
1
10
82.4985077219746
20
7.6968941414506
30
0
0
LINE
5
7A
100
AcDbEntity
8
80
62
256
6
ByLayer
370
18
48
1
60
0
100
AcDbLine
10
0
20
0
30
0
11
-5
21
0
31
0
39
0
210
0
220
0
230
1
0
LINE
5
7B
100
AcDbEntity
8
4
62
256
6
ByLayer
370
18
48
0.05
60
0
100
AcDbLine
10
51.562
20
0
30
0
11
88.312
21
0
31
0
39
0
210
0
220
0
230
1
0
LINE
5
7D
100
AcDbEntity
8
SK4
62
256
6
ByLayer
370
18
48
0.05
60
0
100
AcDbLine
10
-5.038
20
0
30
0
11
88.312
21
0
31
0
39
0
210
0
220
0
230
1
0
LINE
5
7F
100
AcDbEntity
8
81
62
256
6
ByLayer
370
18
48
1
60
0
100
AcDbLine
10
83.312
20
7.9375
30
0
11
88.312
21
7.9375
31
0
39
0
210
0
220
0
230
1
0
LINE
5
80
100
AcDbEntity
8
1
62
256
6
ByLayer
370
18
48
1
60
0
100
AcDbLine
10
51.562
20
-9.52175
30
0
11
51.562
21
9.52175
31
0
39
0
210
0
220
0
230
1
0
LINE
5
81
100
AcDbEntity
8
1
62
256
6
ByLayer
370
13
48
1
60
0
100
AcDbLine
10
81.875673
20
-6.478259
30
0
11
81.963835
21
-6.194676
31
0
39
0
210
0
220
0
230
1
0
LINE
5
82
100
AcDbEntity
8
1
62
256
6
ByLayer
370
13
48
1
60
0
100
AcDbLine
10
73.127265
20
-6.755176
30
0
11
73.127265
21
3.713288
31
0
39
0
210
0
220
0
230
1
0
LINE
5
83
100
AcDbEntity
8
1
62
256
6
ByLayer
370
13
48
1
60
0
100
AcDbLine
10
73.49361
20
3.685025
30
0
11
73.49361
21
-6.81709
31
0
39
0
210
0
220
0
230
1
0
LINE
5
84
100
AcDbEntity
8
1
62
256
6
ByLayer
370
13
48
1
60
0
100
AcDbLine
10
79.440209
20
-4.337811
30
0
11
79.440209
21
-6.000727
31
0
39
0
210
0
220
0
230
1
0
LINE
5
85
100
AcDbEntity
8
1
62
256
6
ByLayer
370
13
48
1
60
0
100
AcDbLine
10
81.674025
20
-6.047724
30
0
11
81.674025
21
3.648115
31
0
39
0
210
0
220
0
230
1
0
LINE
5
86
100
AcDbEntity
8
1
62
256
6
ByLayer
370
13
48
1
60
0
100
AcDbLine
10
79.440209
20
3.675378
30
0
11
79.440209
21
-0.461251
31
0
39
0
210
0
220
0
230
1
0
LINE
5
87
100
AcDbEntity
8
1
62
256
6
ByLayer
370
13
48
1
60
0
100
AcDbLine
10
79.438523
20
-0.460922
30
0
11
79.438523
21
3.675398
31
0
39
0
210
0
220
0
230
1
0
LINE
5
88
100
AcDbEntity
8
1
62
256
6
ByLayer
370
13
48
1
60
0
100
AcDbLine
10
79.438523
20
-6.000695
30
0
11
79.438523
21
-4.338246
31
0
39
0
210
0
220
0
230
1
0
LINE
5
89
100
AcDbEntity
8
1
62
256
6
ByLayer
370
13
48
1
60
0
100
AcDbLine
10
76.307147
20
3.711832
30
0
11
76.307147
21
-5.948505
31
0
39
0
210
0
220
0
230
1
0
LINE
5
8A
100
AcDbEntity
8
1
62
256
6
ByLayer
370
13
48
1
60
0
100
AcDbLine
10
75.932102
20
-5.920715
30
0
11
75.932102
21
3.708899
31
0
39
0
210
0
220
0
230
1
0
LINE
5
8B
100
AcDbEntity
8
1
62
256
6
ByLayer
370
13
48
1
60
0
100
AcDbLine
10
57.512
20
7.1025
30
0
11
57.512
21
-7.1025
31
0
39
0
210
0
220
0
230
1
0
LINE
5
8C
100
AcDbEntity
8
1
62
256
6
ByLayer
370
18
48
1
60
0
100
AcDbLine
10
56.412
20
9.52175
30
0
11
56.412
21
-9.52175
31
0
39
0
210
0
220
0
230
1
0
LINE
5
8D
100
AcDbEntity
8
1
62
256
6
ByLayer
370
18
48
1
60
0
100
AcDbLine
10
56.712
20
9.22175
30
0
11
56.712
21
-9.22175
31
0
39
0
210
0
220
0
230
1
0
LINE
5
8E
100
AcDbEntity
8
1
62
256
6
ByLayer
370
18
48
1
60
0
100
AcDbLine
10
78.042793
20
5.232412
30
0
11
78.042473
21
5.213128
31
0
39
0
210
0
220
0
230
1
0
LINE
5
8F
100
AcDbEntity
8
1
62
256
6
ByLayer
370
18
48
1
60
0
100
AcDbLine
10
77.543971
20
4.915852
30
0
11
77.526638
21
4.92461
31
0
39
0
210
0
220
0
230
1
0
LINE
5
90
100
AcDbEntity
8
1
62
256
6
ByLayer
370
13
48
1
60
0
100
AcDbLine
10
77.366084
20
5.276835
30
0
11
77.543971
21
4.915852
31
0
39
0
210
0
220
0
230
1
0
LINE
5
91
100
AcDbEntity
8
1
62
256
6
ByLayer
370
13
48
1
60
0
100
AcDbLine
10
77.864587
20
5.574111
30
0
11
78.042473
21
5.213128
31
0
39
0
210
0
220
0
230
1
0
LINE
5
92
100
AcDbEntity
8
1
62
256
6
ByLayer
370
18
48
1
60
0
100
AcDbLine
10
77.863457
20
5.596336
30
0
11
78.042793
21
5.232412
31
0
39
0
210
0
220
0
230
1
0
LINE
5
93
100
AcDbEntity
8
1
62
256
6
ByLayer
370
18
48
1
60
0
100
AcDbLine
10
77.347303
20
5.288534
30
0
11
77.526638
21
4.92461
31
0
39
0
210
0
220
0
230
1
0
LINE
5
94
100
AcDbEntity
8
1
62
256
6
ByLayer
370
13
48
1
60
0
100
AcDbLine
10
78.955612
20
5.332743
30
0
11
79.133498
21
4.97176
31
0
39
0
210
0
220
0
230
1
0
LINE
5
95
100
AcDbEntity
8
1
62
256
6
ByLayer
370
18
48
1
60
0
100
AcDbLine
10
79.15083
20
4.981737
30
0
11
79.133498
21
4.97176
31
0
39
0
210
0
220
0
230
1
0
LINE
5
96
100
AcDbEntity
8
1
62
256
6
ByLayer
370
18
48
1
60
0
100
AcDbLine
10
77.247709
20
3.847192
30
0
11
77.230697
21
3.836688
31
0
39
0
210
0
220
0
230
1
0
LINE
5
97
100
AcDbEntity
8
1
62
256
6
ByLayer
370
13
48
1
60
0
100
AcDbLine
10
77.069823
20
4.208175
30
0
11
77.247709
21
3.847192
31
0
39
0
210
0
220
0
230
1
0
LINE
5
98
100
AcDbEntity
8
1
62
256
6
ByLayer
370
18
48
1
60
0
100
AcDbLine
10
78.971495
20
5.34566
30
0
11
79.15083
21
4.981737
31
0
39
0
210
0
220
0
230
1
0
LINE
5
99
100
AcDbEntity
8
1
62
256
6
ByLayer
370
18
48
1
60
0
100
AcDbLine
10
77.051361
20
4.200612
30
0
11
77.230697
21
3.836688
31
0
39
0
210
0
220
0
230
1
0
LINE
5
9A
100
AcDbEntity
8
1
62
256
6
ByLayer
370
13
48
1
60
0
100
AcDbLine
10
79.251873
20
4.284924
30
0
11
79.323102
21
4.140378
31
0
39
0
210
0
220
0
230
1
0
LINE
5
9B
100
AcDbEntity
8
1
62
256
6
ByLayer
370
18
48
1
60
0
100
AcDbLine
10
79.267436
20
4.278557
30
0
11
79.325785
21
4.160151
31
0
39
0
210
0
220
0
230
1
0
LINE
5
9C
100
AcDbEntity
8
1
62
256
6
ByLayer
370
18
48
1
60
0
100
AcDbLine
10
76.360855
20
-6.224738
30
0
11
79.227282
21
-6.471569
31
0
39
0
210
0
220
0
230
1
0
LINE
5
9D
100
AcDbEntity
8
SK1
62
256
6
ByLayer
370
18
48
1
60
0
100
AcDbLine
10
19.999
20
-5.960965
30
0
11
19.999
21
5.960965
31
0
39
0
210
0
220
0
230
1
0
LINE
5
9F
100
AcDbEntity
8
SK1
62
256
6
ByLayer
370
18
48
1
60
0
100
AcDbLine
10
31.581
20
-5.960965
30
0
11
31.581
21
5.960965
31
0
39
0
210
0
220
0
230
1
0
LINE
5
A0
100
AcDbEntity
8
SK1
62
256
6
ByLayer
370
18
48
1
60
0
100
AcDbLine
10
0
20
8.52175
30
0
11
0
21
-8.52175
31
0
39
0
210
0
220
0
230
1
0
LINE
5
A1
100
AcDbEntity
8
SK1
62
256
6
ByLayer
370
18
48
1
60
0
100
AcDbLine
10
51.562
20
-9.52175
30
0
11
51.562
21
9.52175
31
0
39
0
210
0
220
0
230
1
0
LINE
5
A2
100
AcDbEntity
8
SK1
62
256
6
ByLayer
370
18
48
1
60
0
100
AcDbLine
10
31.581
20
5.960965
30
0
11
19.999
21
5.960965
31
0
39
0
210
0
220
0
230
1
0
LINE
5
A3
100
AcDbEntity
8
SK1
62
256
6
ByLayer
370
18
48
1
60
0
100
AcDbLine
10
19.999
20
-5.960965
30
0
11
31.581
21
-5.960965
31
0
39
0
210
0
220
0
230
1
0
LINE
5
A4
100
AcDbEntity
8
SK1
62
256
6
ByLayer
370
18
48
1
60
0
100
AcDbLine
10
1
20
9.52175
30
0
11
1
21
-9.52175
31
0
39
0
210
0
220
0
230
1
0
LINE
5
A5
100
AcDbEntity
8
1
62
256
6
ByLayer
370
18
48
1
60
0
100
AcDbLine
10
51.562
20
-9.52175
30
0
11
56.412
21
-9.52175
31
0
39
0
210
0
220
0
230
1
0
LINE
5
A6
100
AcDbEntity
8
1
62
256
6
ByLayer
370
18
48
1
60
0
100
AcDbLine
10
56.412
20
9.52175
30
0
11
51.562
21
9.52175
31
0
39
0
210
0
220
0
230
1
0
LINE
5
A7
100
AcDbEntity
8
1
62
256
6
ByLayer
370
18
48
1
60
0
100
AcDbLine
10
57.512
20
-7.1025
30
0
11
64.224165
21
-7.1025
31
0
39
0
210
0
220
0
230
1
0
LINE
5
A8
100
AcDbEntity
8
1
62
256
6
ByLayer
370
18
48
1
60
0
100
AcDbLine
10
64.224165
20
7.1025
30
0
11
57.512
21
7.1025
31
0
39
0
210
0
220
0
230
1
0
LINE
5
A9
100
AcDbEntity
8
1
62
256
6
ByLayer
370
18
48
1
60
0
100
AcDbLine
10
82.419498
20
-5.952111
30
0
11
82.419498
21
3.376918
31
0
39
0
210
0
220
0
230
1
0
LINE
5
AA
100
AcDbEntity
8
1
62
256
6
ByLayer
370
18
48
1
60
0
100
AcDbLine
10
56.712
20
9.22175
30
0
11
56.412
21
9.52175
31
0
39
0
210
0
220
0
230
1
0
LINE
5
AB
100
AcDbEntity
8
1
62
256
6
ByLayer
370
18
48
1
60
0
100
AcDbLine
10
56.412
20
-9.52175
30
0
11
56.712
21
-9.22175
31
0
39
0
210
0
220
0
230
1
0
LINE
5
AC
100
AcDbEntity
8
1
62
256
6
ByLayer
370
18
48
1
60
0
100
AcDbLine
10
78.476205
20
5.530849
30
0
11
78.650185
21
5.177794
31
0
39
0
210
0
220
0
230
1
0
LINE
5
AD
100
AcDbEntity
8
1
62
256
6
ByLayer
370
18
48
1
60
0
100
AcDbLine
10
77.311809
20
4.331712
30
0
11
77.139964
21
4.680434
31
0
39
0
210
0
220
0
230
1
0
LINE
5
AE
100
AcDbEntity
8
1
62
256
6
ByLayer
370
18
48
1
60
0
100
AcDbLine
10
79.193815
20
4.347629
30
0
11
79.31449
21
4.102744
31
0
39
0
210
0
220
0
230
1
0
LINE
5
AF
100
AcDbEntity
8
1
62
256
6
ByLayer
370
18
48
1
60
0
100
AcDbLine
10
80.180202
20
4.629775
30
0
11
80.096341
21
5.005898
31
0
39
0
210
0
220
0
230
1
0
LINE
5
B0
100
AcDbEntity
8
SK1
62
256
6
ByLayer
370
18
48
1
60
0
100
AcDbLine
10
0
20
-8.52175
30
0
11
1
21
-9.52175
31
0
39
0
210
0
220
0
230
1
0
LINE
5
B1
100
AcDbEntity
8
SK1
62
256
6
ByLayer
370
18
48
1
60
0
100
AcDbLine
10
1
20
9.52175
30
0
11
0
21
8.52175
31
0
39
0
210
0
220
0
230
1
0
LINE
5
B2
100
AcDbEntity
8
SK1
62
256
6
ByLayer
370
18
48
1
60
0
100
AcDbLine
10
1
20
-9.52175
30
0
11
51.562
21
-9.52175
31
0
39
0
210
0
220
0
230
1
0
LINE
5
B3
100
AcDbEntity
8
SK1
62
256
6
ByLayer
370
18
48
1
60
0
100
AcDbLine
10
51.562
20
9.52175
30
0
11
1
21
9.52175
31
0
39
0
210
0
220
0
230
1
0
LINE
5
B4
100
AcDbEntity
8
SK2
62
256
6
ByLayer
370
18
48
1
60
0
100
AcDbLine
10
83.312
20
40.1875
30
0
11
0
21
40.1875
31
0
39
0
210
0
220
0
230
1
0
LINE
5
B6
100
AcDbEntity
8
SK2
62
256
6
ByLayer
370
18
48
1
60
0
100
AcDbLine
10
0
20
10.10925
30
0
11
0
21
42.1875
31
0
39
0
210
0
220
0
230
1
0
LINE
5
B7
100
AcDbEntity
8
SK2
62
256
6
ByLayer
370
18
48
1
60
0
100
AcDbLine
10
83.312
20
9.525
30
0
11
83.312
21
42.1875
31
0
39
0
210
0
220
0
230
1
0
LINE
5
B8
100
AcDbEntity
8
1
62
256
6
ByLayer
370
18
48
1
60
1
100
AcDbLine
10
0
20
40.1875
30
0
11
3.499998
21
40.648284
31
0
39
0
210
0
220
0
230
1
0
LINE
5
B9
100
AcDbEntity
8
1
62
256
6
ByLayer
370
18
48
1
60
1
100
AcDbLine
10
3.499998
20
40.648284
30
0
11
3.500002
21
39.726716
31
0
39
0
210
0
220
0
230
1
0
LINE
5
BA
100
AcDbEntity
8
1
62
256
6
ByLayer
370
18
48
1
60
1
100
AcDbLine
10
3.500002
20
39.726716
30
0
11
0
21
40.1875
31
0
39
0
210
0
220
0
230
1
0
LINE
5
BB
100
AcDbEntity
8
1
62
256
6
ByLayer
370
18
48
1
60
1
100
AcDbLine
10
83.312
20
40.1875
30
0
11
79.812002
21
39.726716
31
0
39
0
210
0
220
0
230
1
0
LINE
5
BC
100
AcDbEntity
8
1
62
256
6
ByLayer
370
18
48
1
60
1
100
AcDbLine
10
79.812002
20
39.726716
30
0
11
79.811998
21
40.648284
31
0
39
0
210
0
220
0
230
1
0
LINE
5
BD
100
AcDbEntity
8
1
62
256
6
ByLayer
370
18
48
1
60
1
100
AcDbLine
10
79.811998
20
40.648284
30
0
11
83.312
21
40.1875
31
0
39
0
210
0
220
0
230
1
0
LINE
5
BE
100
AcDbEntity
8
2
62
256
6
ByLayer
370
13
48
1
60
0
100
AcDbLine
10
92.414095
20
-9.352499
30
0
11
92.414095
21
9.352499
31
0
39
0
210
0
220
0
230
1
0
LINE
5
C0
100
AcDbEntity
8
2
62
256
6
ByLayer
370
13
48
1
60
0
100
AcDbLine
10
84.8995
20
-7.9375
30
0
11
94.414095
21
-7.9375
31
0
39
0
210
0
220
0
230
1
0
LINE
5
C1
100
AcDbEntity
8
2
62
256
6
ByLayer
370
13
48
1
60
0
100
AcDbLine
10
84.8995
20
7.9375
30
0
11
94.414095
21
7.9375
31
0
39
0
210
0
220
0
230
1
0
LINE
5
C2
100
AcDbEntity
8
1
62
256
6
ByLayer
370
18
48
1
60
1
100
AcDbLine
10
92.414095
20
-7.9375
30
0
11
91.953311
21
-4.437502
31
0
39
0
210
0
220
0
230
1
0
LINE
5
C3
100
AcDbEntity
8
1
62
256
6
ByLayer
370
18
48
1
60
1
100
AcDbLine
10
91.953311
20
-4.437502
30
0
11
92.874878
21
-4.437498
31
0
39
0
210
0
220
0
230
1
0
LINE
5
C4
100
AcDbEntity
8
1
62
256
6
ByLayer
370
18
48
1
60
1
100
AcDbLine
10
92.874878
20
-4.437498
30
0
11
92.414095
21
-7.9375
31
0
39
0
210
0
220
0
230
1
0
LINE
5
C5
100
AcDbEntity
8
1
62
256
6
ByLayer
370
18
48
1
60
1
100
AcDbLine
10
92.414095
20
7.9375
30
0
11
92.874878
21
4.437502
31
0
39
0
210
0
220
0
230
1
0
LINE
5
C6
100
AcDbEntity
8
1
62
256
6
ByLayer
370
18
48
1
60
1
100
AcDbLine
10
92.874878
20
4.437502
30
0
11
91.953311
21
4.437498
31
0
39
0
210
0
220
0
230
1
0
LINE
5
C7
100
AcDbEntity
8
1
62
256
6
ByLayer
370
18
48
1
60
1
100
AcDbLine
10
91.953311
20
4.437498
30
0
11
92.414095
21
7.9375
31
0
39
0
210
0
220
0
230
1
0
LINE
5
C8
100
AcDbEntity
8
SK2
62
256
6
ByLayer
370
18
48
1
60
0
100
AcDbLine
10
-16.6
20
9.52175
30
0
11
-16.6
21
-9.52175
31
0
39
0
210
0
220
0
230
1
0
LINE
5
C9
100
AcDbEntity
8
SK2
62
256
6
ByLayer
370
18
48
1
60
0
100
AcDbLine
10
-0.5875
20
-9.52175
30
0
11
-18.6
21
-9.52175
31
0
39
0
210
0
220
0
230
1
0
LINE
5
CA
100
AcDbEntity
8
SK2
62
256
6
ByLayer
370
18
48
1
60
0
100
AcDbLine
10
-0.5875
20
9.52175
30
0
11
-18.6
21
9.52175
31
0
39
0
210
0
220
0
230
1
0
LINE
5
CB
100
AcDbEntity
8
1
62
256
6
ByLayer
370
18
48
1
60
1
100
AcDbLine
10
-16.6
20
-9.52175
30
0
11
-17.060784
21
-6.021752
31
0
39
0
210
0
220
0
230
1
0
LINE
5
CC
100
AcDbEntity
8
1
62
256
6
ByLayer
370
18
48
1
60
1
100
AcDbLine
10
-17.060784
20
-6.021752
30
0
11
-16.139216
21
-6.021748
31
0
39
0
210
0
220
0
230
1
0
LINE
5
CD
100
AcDbEntity
8
1
62
256
6
ByLayer
370
18
48
1
60
1
100
AcDbLine
10
-16.139216
20
-6.021748
30
0
11
-16.6
21
-9.52175
31
0
39
0
210
0
220
0
230
1
0
LINE
5
CE
100
AcDbEntity
8
1
62
256
6
ByLayer
370
18
48
1
60
1
100
AcDbLine
10
-16.6
20
9.52175
30
0
11
-16.139216
21
6.021752
31
0
39
0
210
0
220
0
230
1
0
LINE
5
CF
100
AcDbEntity
8
1
62
256
6
ByLayer
370
18
48
1
60
1
100
AcDbLine
10
-16.139216
20
6.021752
30
0
11
-17.060784
21
6.021748
31
0
39
0
210
0
220
0
230
1
0
LINE
5
D0
100
AcDbEntity
8
1
62
256
6
ByLayer
370
18
48
1
60
1
100
AcDbLine
10
-17.060784
20
6.021748
30
0
11
-16.6
21
9.52175
31
0
39
0
210
0
220
0
230
1
0
LINE
5
199
100
AcDbEntity
8
1
62
256
6
ByLayer
370
18
48
1
60
1
100
AcDbLine
10
0
20
40.1875
30
0
11
3.499998
21
40.648284
31
0
39
0
210
0
220
0
230
1
0
LINE
5
19A
100
AcDbEntity
8
1
62
256
6
ByLayer
370
18
48
1
60
1
100
AcDbLine
10
3.499998
20
40.648284
30
0
11
3.500002
21
39.726716
31
0
39
0
210
0
220
0
230
1
0
LINE
5
19B
100
AcDbEntity
8
1
62
256
6
ByLayer
370
18
48
1
60
1
100
AcDbLine
10
3.500002
20
39.726716
30
0
11
0
21
40.1875
31
0
39
0
210
0
220
0
230
1
0
LINE
5
19D
100
AcDbEntity
8
1
62
256
6
ByLayer
370
18
48
1
60
1
100
AcDbLine
10
83.312
20
40.1875
30
0
11
79.812002
21
39.726716
31
0
39
0
210
0
220
0
230
1
0
LINE
5
19E
100
AcDbEntity
8
1
62
256
6
ByLayer
370
18
48
1
60
1
100
AcDbLine
10
79.812002
20
39.726716
30
0
11
79.811998
21
40.648284
31
0
39
0
210
0
220
0
230
1
0
LINE
5
19F
100
AcDbEntity
8
1
62
256
6
ByLayer
370
18
48
1
60
1
100
AcDbLine
10
79.811998
20
40.648284
30
0
11
83.312
21
40.1875
31
0
39
0
210
0
220
0
230
1
0
LINE
5
1A3
100
AcDbEntity
8
1
62
256
6
ByLayer
370
18
48
1
60
1
100
AcDbLine
10
92.414095
20
-7.9375
30
0
11
91.953311
21
-4.437502
31
0
39
0
210
0
220
0
230
1
0
LINE
5
1A4
100
AcDbEntity
8
1
62
256
6
ByLayer
370
18
48
1
60
1
100
AcDbLine
10
91.953311
20
-4.437502
30
0
11
92.874878
21
-4.437498
31
0
39
0
210
0
220
0
230
1
0
LINE
5
1A5
100
AcDbEntity
8
1
62
256
6
ByLayer
370
18
48
1
60
1
100
AcDbLine
10
92.874878
20
-4.437498
30
0
11
92.414095
21
-7.9375
31
0
39
0
210
0
220
0
230
1
0
LINE
5
1A7
100
AcDbEntity
8
1
62
256
6
ByLayer
370
18
48
1
60
1
100
AcDbLine
10
92.414095
20
7.9375
30
0
11
92.874878
21
4.437502
31
0
39
0
210
0
220
0
230
1
0
LINE
5
1A8
100
AcDbEntity
8
1
62
256
6
ByLayer
370
18
48
1
60
1
100
AcDbLine
10
92.874878
20
4.437502
30
0
11
91.953311
21
4.437498
31
0
39
0
210
0
220
0
230
1
0
LINE
5
1A9
100
AcDbEntity
8
1
62
256
6
ByLayer
370
18
48
1
60
1
100
AcDbLine
10
91.953311
20
4.437498
30
0
11
92.414095
21
7.9375
31
0
39
0
210
0
220
0
230
1
0
LINE
5
1AD
100
AcDbEntity
8
1
62
256
6
ByLayer
370
18
48
1
60
1
100
AcDbLine
10
-16.6
20
-9.52175
30
0
11
-17.060784
21
-6.021752
31
0
39
0
210
0
220
0
230
1
0
LINE
5
1AE
100
AcDbEntity
8
1
62
256
6
ByLayer
370
18
48
1
60
1
100
AcDbLine
10
-17.060784
20
-6.021752
30
0
11
-16.139216
21
-6.021748
31
0
39
0
210
0
220
0
230
1
0
LINE
5
1AF
100
AcDbEntity
8
1
62
256
6
ByLayer
370
18
48
1
60
1
100
AcDbLine
10
-16.139216
20
-6.021748
30
0
11
-16.6
21
-9.52175
31
0
39
0
210
0
220
0
230
1
0
LINE
5
1B1
100
AcDbEntity
8
1
62
256
6
ByLayer
370
18
48
1
60
1
100
AcDbLine
10
-16.6
20
9.52175
30
0
11
-16.139216
21
6.021752
31
0
39
0
210
0
220
0
230
1
0
LINE
5
1B2
100
AcDbEntity
8
1
62
256
6
ByLayer
370
18
48
1
60
1
100
AcDbLine
10
-16.139216
20
6.021752
30
0
11
-17.060784
21
6.021748
31
0
39
0
210
0
220
0
230
1
0
LINE
5
1B3
100
AcDbEntity
8
1
62
256
6
ByLayer
370
18
48
1
60
1
100
AcDbLine
10
-17.060784
20
6.021748
30
0
11
-16.6
21
9.52175
31
0
39
0
210
0
220
0
230
1
0
MTEXT
5
196
100
AcDbEntity
8
SK2
62
256
6
ByLayer
370
18
48
1
60
0
100
AcDbMText
10
36.864001
20
41.220134
30
0
210
0
220
0
230
1
1
\W0.7373;83.31
40
3.5
41
0
44
1.084337
50
0
71
7
72
5
7
iso_b_vert
0
MTEXT
5
1A1
100
AcDbEntity
8
2
62
256
6
ByLayer
370
18
48
1
60
0
100
AcDbMText
10
90.849461
20
-7.417655
30
0
210
0
220
0
230
1
1
%%c
40
3.5
41
0
44
1.084337
50
90
71
7
72
5
7
iso_b_vert
0
MTEXT
5
1A2
100
AcDbEntity
8
2
62
256
6
ByLayer
370
18
48
1
60
0
100
AcDbMText
10
90.849461
20
-0.444999
30
0
210
0
220
0
230
1
1
\W0.6864;15.88
40
3.5
41
0
44
1.084337
50
90
71
7
72
5
7
iso_b_vert
0
MTEXT
5
1AB
100
AcDbEntity
8
SK2
62
256
6
ByLayer
370
18
48
1
60
0
100
AcDbMText
10
-18.164634
20
-4.093189
30
0
210
0
220
0
230
1
1
%%c
40
3.5
41
0
44
1.084337
50
90
71
7
72
5
7
iso_b_vert
0
MTEXT
5
1AC
100
AcDbEntity
8
SK2
62
256
6
ByLayer
370
18
48
1
60
0
100
AcDbMText
10
-18.164634
20
2.879467
30
0
210
0
220
0
230
1
1
\W0.5469;19
40
3.5
41
0
44
1.084337
50
90
71
7
72
5
7
iso_b_vert
0
MTEXT
5
1B5
100
AcDbEntity
8
SK6
62
256
6
ByLayer
370
18
48
1
60
0
100
AcDbMText
10
19.905351
20
-34.154866
30
0
210
0
220
0
230
1
1
\W0.7413;MS20-AR016M19-10L
40
3.5
41
0
44
1.084337
50
0
71
7
72
5
7
iso_b_vert
0
HATCH
5
19C
100
AcDbEntity
8
SK2
62
256
6
ByLayer
370
13
48
1
60
0
100
AcDbHatch
10
0
20
0
30
0
210
0
220
0
230
1
2
ANSI31
70
0
71
0
91
1
92
5
93
3
72
1
10
0
20
40.1874999999997
11
3.49999830744682
21
40.6482837415525
72
1
10
3.49999830744682
20
40.6482837415525
11
3.50000169255318
21
39.7267162584469
72
1
10
3.50000169255318
20
39.7267162584469
11
0
21
40.1874999999997
97
0
75
0
76
1
52
0
41
0.0062
77
0
78
1
53
45
43
0
44
0
45
-0.0139193969876572
46
0.0139193969876572
79
0
47
0
98
1
10
0
20
0
0
HATCH
5
1A0
100
AcDbEntity
8
SK2
62
256
6
ByLayer
370
13
48
1
60
0
100
AcDbHatch
10
0
20
0
30
0
210
0
220
0
230
1
2
ANSI31
70
0
71
0
91
1
92
5
93
3
72
1
10
83.312
20
40.1874999999997
11
79.8120016925532
21
39.7267162584469
72
1
10
79.8120016925532
20
39.7267162584469
11
79.8119983074469
21
40.6482837415525
72
1
10
79.8119983074469
20
40.6482837415525
11
83.312
21
40.1874999999997
97
0
75
0
76
1
52
0
41
0.0062
77
0
78
1
53
45
43
0
44
0
45
-0.0139193969876572
46
0.0139193969876572
79
0
47
0
98
1
10
0
20
0
0
HATCH
5
1A6
100
AcDbEntity
8
2
62
256
6
ByLayer
370
13
48
1
60
0
100
AcDbHatch
10
0
20
0
30
0
210
0
220
0
230
1
2
ANSI31
70
0
71
0
91
1
92
5
93
3
72
1
10
92.4140946384447
20
-7.93750000000028
11
91.9533108968919
21
-4.43750169255347
72
1
10
91.9533108968919
20
-4.43750169255347
11
92.8748783799975
21
-4.4374983074471
72
1
10
92.8748783799975
20
-4.4374983074471
11
92.4140946384447
21
-7.93750000000028
97
0
75
0
76
1
52
0
41
0.0062
77
0
78
1
53
45
43
0
44
0
45
-0.0139193969876572
46
0.0139193969876572
79
0
47
0
98
1
10
0
20
0
0
HATCH
5
1AA
100
AcDbEntity
8
2
62
256
6
ByLayer
370
13
48
1
60
0
100
AcDbHatch
10
0
20
0
30
0
210
0
220
0
230
1
2
ANSI31
70
0
71
0
91
1
92
5
93
3
72
1
10
92.4140946384447
20
7.93749999999972
11
92.8748783799975
21
4.4375016925529
72
1
10
92.8748783799975
20
4.4375016925529
11
91.9533108968919
21
4.43749830744653
72
1
10
91.9533108968919
20
4.43749830744653
11
92.4140946384447
21
7.93749999999972
97
0
75
0
76
1
52
0
41
0.0062
77
0
78
1
53
45
43
0
44
0
45
-0.0139193969876572
46
0.0139193969876572
79
0
47
0
98
1
10
0
20
0
0
HATCH
5
1B0
100
AcDbEntity
8
SK2
62
256
6
ByLayer
370
13
48
1
60
0
100
AcDbHatch
10
0
20
0
30
0
210
0
220
0
230
1
2
ANSI31
70
0
71
0
91
1
92
5
93
3
72
1
10
-16.6
20
-9.5217500000002
11
-17.0607837415528
21
-6.02175169255338
72
1
10
-17.0607837415528
20
-6.02175169255338
11
-16.1392162584472
21
-6.02174830744701
72
1
10
-16.1392162584472
20
-6.02174830744701
11
-16.6
21
-9.5217500000002
97
0
75
0
76
1
52
0
41
0.0062
77
0
78
1
53
45
43
0
44
0
45
-0.0139193969876572
46
0.0139193969876572
79
0
47
0
98
1
10
0
20
0
0
HATCH
5
1B4
100
AcDbEntity
8
SK2
62
256
6
ByLayer
370
13
48
1
60
0
100
AcDbHatch
10
0
20
0
30
0
210
0
220
0
230
1
2
ANSI31
70
0
71
0
91
1
92
5
93
3
72
1
10
-16.6
20
9.5217499999998
11
-16.1392162584472
21
6.02175169255298
72
1
10
-16.1392162584472
20
6.02175169255298
11
-17.0607837415528
21
6.02174830744661
72
1
10
-17.0607837415528
20
6.02174830744661
11
-16.6
21
9.5217499999998
97
0
75
0
76
1
52
0
41
0.0062
77
0
78
1
53
45
43
0
44
0
45
-0.0139193969876572
46
0.0139193969876572
79
0
47
0
98
1
10
0
20
0
0
DIMENSION
5
1B8
100
AcDbEntity
8
2
62
256
6
ByLayer
370
18
48
1
60
0
100
AcDbDimension
2
_U0
10
74.312
20
20.1875
30
0
11
78.812
21
20.1875
31
0
70
32
71
1
72
1
41
1
210
0
220
0
230
1
3
Standard
100
AcDbAlignedDimension
13
83.312
23
7.9375
33
0
14
74.312
24
7.9375
34
0
50
0
100
AcDbRotatedDimension
1001
ACAD
1000
DSTYLE
1002
{
1070
   371
1070
    13
1070
   372
1070
    13
1070
   170
1070
     0
1070
   144
1040
1.0
1070
   277
1070
     2
1070
   284
1070
     8
1070
   278
1070
    46
1070
   146
1040
1.0
1070
   345
1005
16
1070
   347
1005
16
1070
   346
1005
16
1070
   344
1005
0
1070
   343
1005
0
1070
   172
1070
     1
1070
    76
1070
     0
1070
    75
1070
     0
1070
   282
1070
     0
1070
   281
1070
     0
1070
    71
1070
     0
1070
    74
1070
     0
1070
   279
1070
     0
1070
   173
1070
     1
1070
   340
1005
197
1070
   271
1070
     2
1070
   272
1070
     2
1070
    77
1070
     1
1070
    73
1070
     1
1070
   171
1070
     3
1070
   274
1070
     4
1070
   177
1070
     2
1070
   176
1070
     2
1070
   178
1070
     2
1070
    78
1070
     8
1070
    48
1040
-0.1
1070
    41
1040
3.5
1070
   147
1040
1.75
1070
    42
1040
1.5875
1070
    44
1040
2.0
1070
   140
1040
3.5
1002
}
1001
ACAD_DSTYLE_DIM_LINETYPE
1070
   380
1005
16
1001
ACAD_DSTYLE_DIM_EXT1_LINETYPE
1070
   381
1005
16
1001
ACAD_DSTYLE_DIM_EXT2_LINETYPE
1070
   382
1005
16
0
DIMENSION
5
1D2
100
AcDbEntity
8
2
62
256
6
ByLayer
370
18
48
1
60
0
100
AcDbDimension
2
_U1
10
57.912
20
30.1875
30
0
11
70.612
21
30.1875
31
0
70
32
71
1
72
1
41
1
210
0
220
0
230
1
3
Standard
100
AcDbAlignedDimension
13
83.312
23
7.9375
33
0
14
57.912
24
7.9375
34
0
50
0
100
AcDbRotatedDimension
1001
ACAD
1000
DSTYLE
1002
{
1070
   371
1070
    13
1070
   372
1070
    13
1070
   170
1070
     0
1070
   144
1040
1.0
1070
   277
1070
     2
1070
   284
1070
     8
1070
   278
1070
    46
1070
   146
1040
1.0
1070
   345
1005
16
1070
   347
1005
16
1070
   346
1005
16
1070
   344
1005
0
1070
   343
1005
0
1070
   172
1070
     1
1070
    76
1070
     0
1070
    75
1070
     0
1070
   282
1070
     0
1070
   281
1070
     0
1070
    71
1070
     0
1070
    74
1070
     0
1070
   279
1070
     0
1070
   173
1070
     1
1070
   340
1005
197
1070
   271
1070
     2
1070
   272
1070
     2
1070
    77
1070
     1
1070
    73
1070
     1
1070
   171
1070
     3
1070
   274
1070
     4
1070
   177
1070
     2
1070
   176
1070
     2
1070
   178
1070
     2
1070
    78
1070
     8
1070
    48
1040
-0.1
1070
    41
1040
3.5
1070
   147
1040
1.75
1070
    42
1040
1.5875
1070
    44
1040
2.0
1070
   140
1040
3.5
1002
}
1001
ACAD_DSTYLE_DIM_LINETYPE
1070
   380
1005
16
1001
ACAD_DSTYLE_DIM_EXT1_LINETYPE
1070
   381
1005
16
1001
ACAD_DSTYLE_DIM_EXT2_LINETYPE
1070
   382
1005
16
0
DIMENSION
5
1EA
100
AcDbEntity
8
SK2
62
256
6
ByLayer
370
18
48
1
60
0
100
AcDbDimension
2
_U2
10
51.562
20
-23.6875
30
0
11
67.437
21
-23.6875
31
0
70
32
71
1
72
1
41
1
210
0
220
0
230
1
3
Standard
100
AcDbAlignedDimension
13
83.312
23
-7.9375
33
0
14
51.562
24
-9.52175
34
0
50
0
100
AcDbRotatedDimension
1001
ACAD
1000
DSTYLE
1002
{
1070
   371
1070
    13
1070
   372
1070
    13
1070
   170
1070
     0
1070
   144
1040
1.0
1070
   277
1070
     2
1070
   284
1070
     8
1070
   278
1070
    46
1070
   146
1040
1.0
1070
   345
1005
16
1070
   347
1005
16
1070
   346
1005
16
1070
   344
1005
0
1070
   343
1005
0
1070
   172
1070
     1
1070
    76
1070
     0
1070
    75
1070
     0
1070
   282
1070
     0
1070
   281
1070
     0
1070
    71
1070
     0
1070
    74
1070
     0
1070
   279
1070
     0
1070
   173
1070
     1
1070
   340
1005
197
1070
   271
1070
     2
1070
   272
1070
     2
1070
    77
1070
     1
1070
    73
1070
     1
1070
   171
1070
     3
1070
   274
1070
     4
1070
   177
1070
     2
1070
   176
1070
     2
1070
   178
1070
     2
1070
    78
1070
     8
1070
    48
1040
-0.1
1070
    41
1040
3.5
1070
   147
1040
1.75
1070
    42
1040
1.5875
1070
    44
1040
2.0
1070
   140
1040
3.5
1002
}
1001
ACAD_DSTYLE_DIM_LINETYPE
1070
   380
1005
16
1001
ACAD_DSTYLE_DIM_EXT1_LINETYPE
1070
   381
1005
16
1001
ACAD_DSTYLE_DIM_EXT2_LINETYPE
1070
   382
1005
16
0
ENDSEC
0
SECTION
2
OBJECTS
0
DICTIONARY
5
273
330
0
100
AcDbDictionary
280
0
281
1
3
ACAD_GROUP
350
274
3
ACAD_MLINESTYLE
350
275
0
DICTIONARY
5
274
330
0
100
AcDbDictionary
280
0
281
1
0
DICTIONARY
5
275
330
0
100
AcDbDictionary
280
0
281
1
3
Standard
350
18
0
MLINESTYLE
5
18
330
275
100
AcDbMlineStyle
2
Standard
70
0
3

62
256
51
90
52
90
71
2
49
-0.5
62
256
6
ByLayer
49
0.5
62
256
6
ByLayer
0
RASTERVARIABLES
5
261
330

100
AcDbRasterVariables
90
0
70
1
71
1
72
1
0
ENDSEC
0
EOF
