0
SECTION
2
HEADER
9
$ACADVER
1
AC1015
9
$DWGCODEPAGE
3
ANSI_1252
9
$HANDSEED
5
2d7
9
$ANGBASE
50
0
9
$ANGDIR
70
0
9
$ATTMODE
70
1
9
$AUNITS
70
0
9
$AUPREC
70
0
9
$CECOLOR
62
256
9
$CELTSCALE
40
1
9
$CELTYPE
6
ByLayer
9
$CELWEIGHT
370
18
9
$CLAYER
8
0
9
$CMLJUST
70
0
9
$CMLSCALE
40
1
9
$CMLSTYLE
2
Standard
9
$DIMSTYLE
2
Standard
9
$TEXTSIZE
40
0.2
9
$TEXTSTYLE
7
Standard
9
$LUNITS
70
2
9
$LUPREC
70
4
9
$EXTNAMES
290
1
9
$INSUNITS
70
4
9
$LTSCALE
40
1
9
$LWDISPLAY
290
1
9
$PDMODE
70
0
9
$PDSIZE
40
0
9
$PLINEGEN
70
0
0
ENDSEC
0
SECTION
2
CLASSES
0
CLASS
1
RASTERVARIABLES
2
AcDbRasterVariables
3
ISM
90
0
280
0
281
0
0
ENDSEC
0
SECTION
2
TABLES
0
TABLE
2
VPORT
5
2cd
100
AcDbSymbolTable
0
VPORT
5
1
100
AcDbSymbolTableRecord
100
AcDbViewportTableRecord
2
*Active
70
0
10
0
20
0
11
1
21
1
12
-1
22
1
13
0
23
0
14
0.5
24
0.5
15
10
25
10
16
0
26
0
36
1
17
0
27
0
37
0
0
ENDTAB
0
TABLE
2
LTYPE
5
2ce
100
AcDbSymbolTable
0
LTYPE
5
14
100
AcDbSymbolTableRecord
100
AcDbLinetypeTableRecord
70
0
2
ByBlock
3

72
65
73
0
40
0
0
LTYPE
5
15
100
AcDbSymbolTableRecord
100
AcDbLinetypeTableRecord
70
0
2
ByLayer
3

72
65
73
0
40
0
0
LTYPE
5
16
100
AcDbSymbolTableRecord
100
AcDbLinetypeTableRecord
70
0
2
Continuous
3
Solid line
72
65
73
0
40
0
0
LTYPE
5
6E
100
AcDbSymbolTableRecord
100
AcDbLinetypeTableRecord
70
0
2
CENTER
3
____ _ ____ _ ____ _ ____
72
65
73
4
40
47.5
49
22
74
0
49
-8.5
74
0
49
8.5
74
0
49
-8.5
74
0
0
LTYPE
5
6F
100
AcDbSymbolTableRecord
100
AcDbLinetypeTableRecord
70
0
2
DASHED
3
__ __ __ __ __ __ __ __ __
72
65
73
2
40
25.72
49
12.86
74
0
49
-12.86
74
0
0
ENDTAB
0
TABLE
2
LAYER
5
2cf
100
AcDbSymbolTable
0
LAYER
5
10
100
AcDbSymbolTableRecord
100
AcDbLayerTableRecord
2
0
70
0
62
7
6
Continuous
290
1
370
-3
390
0
0
LAYER
5
71
100
AcDbSymbolTableRecord
100
AcDbLayerTableRecord
2
80
70
0
62
-6
6
Continuous
290
1
370
-3
390
0
0
LAYER
5
73
100
AcDbSymbolTableRecord
100
AcDbLayerTableRecord
2
1
70
0
62
4
6
Continuous
290
1
370
-3
390
0
0
LAYER
5
75
100
AcDbSymbolTableRecord
100
AcDbLayerTableRecord
2
81
70
0
62
-3
6
Continuous
290
1
370
-3
390
0
0
LAYER
5
BD
100
AcDbSymbolTableRecord
100
AcDbLayerTableRecord
2
4
70
0
62
-2
6
CENTER
290
1
370
-3
390
0
0
LAYER
5
C3
100
AcDbSymbolTableRecord
100
AcDbLayerTableRecord
2
2
70
0
62
7
6
Continuous
290
1
370
-3
390
0
0
LAYER
5
213
100
AcDbSymbolTableRecord
100
AcDbLayerTableRecord
2
Defpoints
70
0
62
7
6
Continuous
290
0
370
-3
390
0
0
LAYER
5
2b9
100
AcDbSymbolTableRecord
100
AcDbLayerTableRecord
2
SK1
70
0
62
4
6
Continuous
290
1
370
-3
390
0
0
LAYER
5
2ba
100
AcDbSymbolTableRecord
100
AcDbLayerTableRecord
2
SK4
70
0
62
2
6
CENTER
290
1
370
-3
390
0
0
LAYER
5
2bb
100
AcDbSymbolTableRecord
100
AcDbLayerTableRecord
2
SK2
70
0
62
7
6
Continuous
290
1
370
-3
390
0
0
LAYER
5
2bc
100
AcDbSymbolTableRecord
100
AcDbLayerTableRecord
2
SK6
70
0
62
5
6
Continuous
290
1
370
-3
390
0
0
ENDTAB
0
TABLE
2
STYLE
5
2d0
100
AcDbSymbolTable
0
STYLE
5
11
100
AcDbSymbolTableRecord
100
AcDbTextStyleTableRecord
2
Standard
3
txt
70
0
71
0
40
0
41
1
42
0
50
0
0
STYLE
5
1EF
100
AcDbSymbolTableRecord
100
AcDbTextStyleTableRecord
2
iso_b_vert
3
simplex.shx
70
0
71
0
40
0
41
1
42
0
50
0
0
STYLE
5
1F0
100
AcDbSymbolTableRecord
100
AcDbTextStyleTableRecord
2
DWGDirectTextStyle
3
simplex
70
0
71
0
40
0
41
1
42
0
50
0
0
ENDTAB
0
TABLE
2
DIMSTYLE
5
2d1
100
AcDbSymbolTable
100
AcDbDimStyleTable
0
DIMSTYLE
105
27
100
AcDbSymbolTableRecord
100
AcDbDimStyleTableRecord
2
Standard
70
0
3
<>
41
0.18
42
0.0625
44
0.18
140
0.18
147
0.09
73
0
74
0
77
1
271
2
275
0
278
52
280
0
340
11
0
ENDTAB
0
TABLE
2
VIEW
5
2d2
100
AcDbSymbolTable
0
ENDTAB
0
TABLE
2
UCS
5
2d3
100
AcDbSymbolTable
0
ENDTAB
0
TABLE
2
APPID
5
2d4
100
AcDbSymbolTable
0
APPID
5
12
100
AcDbSymbolTableRecord
100
AcDbRegAppTableRecord
2
ACAD
70
0
0
APPID
5
20F
100
AcDbSymbolTableRecord
100
AcDbRegAppTableRecord
2
ACAD_DSTYLE_DIMBREAK
70
0
0
APPID
5
278
100
AcDbSymbolTableRecord
100
AcDbRegAppTableRecord
2
ACAD_DSTYLE_DIM_LINETYPE
70
0
0
APPID
5
279
100
AcDbSymbolTableRecord
100
AcDbRegAppTableRecord
2
ACAD_DSTYLE_DIM_EXT1_LINETYPE
70
0
0
APPID
5
27A
100
AcDbSymbolTableRecord
100
AcDbRegAppTableRecord
2
ACAD_DSTYLE_DIM_EXT2_LINETYPE
70
0
0
APPID
5
2B5
100
AcDbSymbolTableRecord
100
AcDbRegAppTableRecord
2
ACAD_MLEADERVER
70
0
0
ENDTAB
0
TABLE
2
BLOCK_RECORD
5
2d5
100
AcDbSymbolTable
0
BLOCK_RECORD
5
1F
100
AcDbSymbolTableRecord
100
AcDbBlockTableRecord
2
*Model_Space
340
0
70
0
0
BLOCK_RECORD
5
1B
100
AcDbSymbolTableRecord
100
AcDbBlockTableRecord
2
*Paper_Space
340
0
70
0
0
BLOCK_RECORD
5
23
100
AcDbSymbolTableRecord
100
AcDbBlockTableRecord
2
*Paper_Space0
340
0
70
0
0
BLOCK_RECORD
5
214
100
AcDbSymbolTableRecord
100
AcDbBlockTableRecord
2
*D1
340
0
70
0
0
BLOCK_RECORD
5
221
100
AcDbSymbolTableRecord
100
AcDbBlockTableRecord
2
_U0
340
0
70
0
0
BLOCK_RECORD
5
22D
100
AcDbSymbolTableRecord
100
AcDbBlockTableRecord
2
*D3
340
0
70
0
0
BLOCK_RECORD
5
239
100
AcDbSymbolTableRecord
100
AcDbBlockTableRecord
2
_U1
340
0
70
0
0
BLOCK_RECORD
5
245
100
AcDbSymbolTableRecord
100
AcDbBlockTableRecord
2
*D5
340
0
70
0
0
BLOCK_RECORD
5
251
100
AcDbSymbolTableRecord
100
AcDbBlockTableRecord
2
_U2
340
0
70
0
0
ENDTAB
0
ENDSEC
0
SECTION
2
BLOCKS
0
BLOCK
5
20
100
AcDbEntity
8
0
100
AcDbBlockBegin
2
*Model_Space
70
0
10
0
20
0
30
0
3
*Model_Space
0
ENDBLK
5
21
100
AcDbEntity
8
0
100
AcDbBlockEnd
0
BLOCK
5
1C
100
AcDbEntity
8
0
100
AcDbBlockBegin
2
*Paper_Space
70
0
10
0
20
0
30
0
3
*Paper_Space
0
ENDBLK
5
1D
100
AcDbEntity
8
0
100
AcDbBlockEnd
0
BLOCK
5
24
100
AcDbEntity
8
0
100
AcDbBlockBegin
2
*Paper_Space0
70
0
10
0
20
0
30
0
3
*Paper_Space0
0
ENDBLK
5
25
100
AcDbEntity
8
0
100
AcDbBlockEnd
0
BLOCK
5
215
100
AcDbEntity
8
0
100
AcDbBlockBegin
2
*D1
70
1
10
0
20
0
30
0
3
*D1
0
LINE
5
217
100
AcDbEntity
8
0
62
256
6
ByLayer
370
-2
48
1
60
0
100
AcDbLine
10
30
20
11.5875
30
0
11
30
21
24.25
31
0
39
0
210
0
220
0
230
1
0
LINE
5
218
100
AcDbEntity
8
0
62
256
6
ByLayer
370
-2
48
1
60
0
100
AcDbLine
10
21
20
11.5875
30
0
11
21
21
24.25
31
0
39
0
210
0
220
0
230
1
0
LINE
5
219
100
AcDbEntity
8
0
62
256
6
ByLayer
370
-2
48
1
60
0
100
AcDbLine
10
33.5
20
22.25
30
0
11
37
21
22.25
31
0
39
0
210
0
220
0
230
1
0
LINE
5
21A
100
AcDbEntity
8
0
62
256
6
ByLayer
370
-2
48
1
60
0
100
AcDbLine
10
17.5
20
22.25
30
0
11
14
21
22.25
31
0
39
0
210
0
220
0
230
1
0
SOLID
5
21B
100
AcDbEntity
8
0
62
256
6
ByLayer
370
-1
48
1
60
0
100
AcDbTrace
10
33.5
20
22.833333
30
0
11
33.5
21
21.666667
31
0
12
30
22
22.25
32
0
13
30
23
22.25
33
0
39
0
210
0
220
0
230
1
0
SOLID
5
21C
100
AcDbEntity
8
0
62
256
6
ByLayer
370
-1
48
1
60
0
100
AcDbTrace
10
17.5
20
21.666667
30
0
11
17.5
21
22.833333
31
0
12
21
22
22.25
32
0
13
21
23
22.25
33
0
39
0
210
0
220
0
230
1
0
MTEXT
5
21D
100
AcDbEntity
8
0
62
256
6
ByLayer
370
18
48
1
60
0
100
AcDbMText
10
25.5
20
29.25
30
0
210
0
220
0
230
1
1
\A1;9
40
3.5
41
0
44
1
50
0
71
5
72
5
7
iso_b_vert
0
POINT
5
21E
100
AcDbEntity
8
Defpoints
62
0
6
ByLayer
370
-1
48
1
60
0
100
AcDbPoint
10
30
20
10
30
0
39
0
210
0
220
0
230
1
50
360
0
POINT
5
21F
100
AcDbEntity
8
Defpoints
62
0
6
ByLayer
370
-1
48
1
60
0
100
AcDbPoint
10
21
20
10
30
0
39
0
210
0
220
0
230
1
50
360
0
POINT
5
220
100
AcDbEntity
8
Defpoints
62
0
6
ByLayer
370
-1
48
1
60
0
100
AcDbPoint
10
21
20
22.25
30
0
39
0
210
0
220
0
230
1
50
360
0
ENDBLK
5
216
100
AcDbEntity
8
0
100
AcDbBlockEnd
0
BLOCK
5
228
100
AcDbEntity
8
0
100
AcDbBlockBegin
2
_U0
70
0
10
0
20
0
30
0
3
_U0
0
MTEXT
5
222
100
AcDbEntity
8
2
62
256
6
ByLayer
370
18
48
1
60
0
100
AcDbMText
10
24.902767
20
23.282634
30
0
210
0
220
0
230
1
1
\W0.5742;9
40
3.5
41
0
44
1.084337
50
0
71
7
72
5
7
iso_b_vert
0
LINE
5
223
100
AcDbEntity
8
2
62
256
6
ByLayer
370
13
48
1
60
0
100
AcDbLine
10
30
20
11.5875
30
0
11
30
21
24.25
31
0
39
0
210
0
220
0
230
1
0
LINE
5
224
100
AcDbEntity
8
2
62
256
6
ByLayer
370
13
48
1
60
0
100
AcDbLine
10
21
20
11.5875
30
0
11
21
21
24.25
31
0
39
0
210
0
220
0
230
1
0
LINE
5
225
100
AcDbEntity
8
2
62
256
6
ByLayer
370
13
48
1
60
0
100
AcDbLine
10
30
20
22.25
30
0
11
21
21
22.25
31
0
39
0
210
0
220
0
230
1
0
SOLID
5
226
100
AcDbEntity
8
2
62
256
6
ByLayer
370
18
48
1
60
0
100
AcDbTrace
10
30
20
22.25
30
0
11
26.500002
21
21.789216
31
0
12
26.499998
22
22.710784
32
0
13
26.499998
23
22.710784
33
0
39
0
210
0
220
0
230
1
0
SOLID
5
227
100
AcDbEntity
8
2
62
256
6
ByLayer
370
18
48
1
60
0
100
AcDbTrace
10
21
20
22.25
30
0
11
24.499998
21
22.710784
31
0
12
24.500002
22
21.789216
32
0
13
24.500002
23
21.789216
33
0
39
0
210
0
220
0
230
1
0
ENDBLK
5
229
100
AcDbEntity
8
0
100
AcDbBlockEnd
0
BLOCK
5
22E
100
AcDbEntity
8
0
100
AcDbBlockBegin
2
*D3
70
1
10
0
20
0
30
0
3
*D3
0
LINE
5
230
100
AcDbEntity
8
0
62
256
6
ByLayer
370
-2
48
1
60
0
100
AcDbLine
10
30
20
11.5875
30
0
11
30
21
34.25
31
0
39
0
210
0
220
0
230
1
0
LINE
5
231
100
AcDbEntity
8
0
62
256
6
ByLayer
370
-2
48
1
60
0
100
AcDbLine
10
10.8
20
11.5875
30
0
11
10.8
21
34.25
31
0
39
0
210
0
220
0
230
1
0
LINE
5
232
100
AcDbEntity
8
0
62
256
6
ByLayer
370
-2
48
1
60
0
100
AcDbLine
10
26.5
20
32.25
30
0
11
14.3
21
32.25
31
0
39
0
210
0
220
0
230
1
0
SOLID
5
233
100
AcDbEntity
8
0
62
256
6
ByLayer
370
-1
48
1
60
0
100
AcDbTrace
10
26.5
20
31.666667
30
0
11
26.5
21
32.833333
31
0
12
30
22
32.25
32
0
13
30
23
32.25
33
0
39
0
210
0
220
0
230
1
0
SOLID
5
234
100
AcDbEntity
8
0
62
256
6
ByLayer
370
-1
48
1
60
0
100
AcDbTrace
10
14.3
20
32.833333
30
0
11
14.3
21
31.666667
31
0
12
10.8
22
32.25
32
0
13
10.8
23
32.25
33
0
39
0
210
0
220
0
230
1
0
MTEXT
5
235
100
AcDbEntity
8
0
62
256
6
ByLayer
370
18
48
1
60
0
100
AcDbMText
10
20.4
20
39.25
30
0
210
0
220
0
230
1
1
\A1;19.2
40
3.5
41
0
44
1
50
0
71
5
72
5
7
iso_b_vert
0
POINT
5
236
100
AcDbEntity
8
Defpoints
62
0
6
ByLayer
370
-1
48
1
60
0
100
AcDbPoint
10
30
20
10
30
0
39
0
210
0
220
0
230
1
50
360
0
POINT
5
237
100
AcDbEntity
8
Defpoints
62
0
6
ByLayer
370
-1
48
1
60
0
100
AcDbPoint
10
10.8
20
10
30
0
39
0
210
0
220
0
230
1
50
360
0
POINT
5
238
100
AcDbEntity
8
Defpoints
62
0
6
ByLayer
370
-1
48
1
60
0
100
AcDbPoint
10
10.8
20
32.25
30
0
39
0
210
0
220
0
230
1
50
360
0
ENDBLK
5
22F
100
AcDbEntity
8
0
100
AcDbBlockEnd
0
BLOCK
5
240
100
AcDbEntity
8
0
100
AcDbBlockBegin
2
_U1
70
0
10
0
20
0
30
0
3
_U1
0
MTEXT
5
23A
100
AcDbEntity
8
2
62
256
6
ByLayer
370
18
48
1
60
0
100
AcDbMText
10
16.915734
20
33.282634
30
0
210
0
220
0
230
1
1
\W0.6563;19.2
40
3.5
41
0
44
1.084337
50
0
71
7
72
5
7
iso_b_vert
0
LINE
5
23B
100
AcDbEntity
8
2
62
256
6
ByLayer
370
13
48
1
60
0
100
AcDbLine
10
30
20
11.5875
30
0
11
30
21
34.25
31
0
39
0
210
0
220
0
230
1
0
LINE
5
23C
100
AcDbEntity
8
2
62
256
6
ByLayer
370
13
48
1
60
0
100
AcDbLine
10
10.8
20
11.5875
30
0
11
10.8
21
34.25
31
0
39
0
210
0
220
0
230
1
0
LINE
5
23D
100
AcDbEntity
8
2
62
256
6
ByLayer
370
13
48
1
60
0
100
AcDbLine
10
30
20
32.25
30
0
11
10.8
21
32.25
31
0
39
0
210
0
220
0
230
1
0
SOLID
5
23E
100
AcDbEntity
8
2
62
256
6
ByLayer
370
18
48
1
60
0
100
AcDbTrace
10
30
20
32.25
30
0
11
26.500002
21
31.789216
31
0
12
26.499998
22
32.710784
32
0
13
26.499998
23
32.710784
33
0
39
0
210
0
220
0
230
1
0
SOLID
5
23F
100
AcDbEntity
8
2
62
256
6
ByLayer
370
18
48
1
60
0
100
AcDbTrace
10
10.8
20
32.25
30
0
11
14.299998
21
32.710784
31
0
12
14.300002
22
31.789216
32
0
13
14.300002
23
31.789216
33
0
39
0
210
0
220
0
230
1
0
ENDBLK
5
241
100
AcDbEntity
8
0
100
AcDbBlockEnd
0
BLOCK
5
246
100
AcDbEntity
8
0
100
AcDbBlockBegin
2
*D5
70
1
10
0
20
0
30
0
3
*D5
0
LINE
5
248
100
AcDbEntity
8
0
62
256
6
ByLayer
370
-2
48
1
60
0
100
AcDbLine
10
-19.5
20
1.5875
30
0
11
-19.5
21
54.25
31
0
39
0
210
0
220
0
230
1
0
LINE
5
249
100
AcDbEntity
8
0
62
256
6
ByLayer
370
-2
48
1
60
0
100
AcDbLine
10
30
20
11.5875
30
0
11
30
21
54.25
31
0
39
0
210
0
220
0
230
1
0
LINE
5
24A
100
AcDbEntity
8
0
62
256
6
ByLayer
370
-2
48
1
60
0
100
AcDbLine
10
-16
20
52.25
30
0
11
26.5
21
52.25
31
0
39
0
210
0
220
0
230
1
0
SOLID
5
24B
100
AcDbEntity
8
0
62
256
6
ByLayer
370
-1
48
1
60
0
100
AcDbTrace
10
-16
20
52.833333
30
0
11
-16
21
51.666667
31
0
12
-19.5
22
52.25
32
0
13
-19.5
23
52.25
33
0
39
0
210
0
220
0
230
1
0
SOLID
5
24C
100
AcDbEntity
8
0
62
256
6
ByLayer
370
-1
48
1
60
0
100
AcDbTrace
10
26.5
20
51.666667
30
0
11
26.5
21
52.833333
31
0
12
30
22
52.25
32
0
13
30
23
52.25
33
0
39
0
210
0
220
0
230
1
0
MTEXT
5
24D
100
AcDbEntity
8
0
62
256
6
ByLayer
370
18
48
1
60
0
100
AcDbMText
10
5.25
20
59.25
30
0
210
0
220
0
230
1
1
\A1;49.5
40
3.5
41
0
44
1
50
0
71
5
72
5
7
iso_b_vert
0
POINT
5
24E
100
AcDbEntity
8
Defpoints
62
0
6
ByLayer
370
-1
48
1
60
0
100
AcDbPoint
10
-19.5
20
0
30
0
39
0
210
0
220
0
230
1
50
360
0
POINT
5
24F
100
AcDbEntity
8
Defpoints
62
0
6
ByLayer
370
-1
48
1
60
0
100
AcDbPoint
10
30
20
10
30
0
39
0
210
0
220
0
230
1
50
360
0
POINT
5
250
100
AcDbEntity
8
Defpoints
62
0
6
ByLayer
370
-1
48
1
60
0
100
AcDbPoint
10
30
20
52.25
30
0
39
0
210
0
220
0
230
1
50
360
0
ENDBLK
5
247
100
AcDbEntity
8
0
100
AcDbBlockEnd
0
BLOCK
5
258
100
AcDbEntity
8
0
100
AcDbBlockBegin
2
_U2
70
0
10
0
20
0
30
0
3
_U2
0
MTEXT
5
252
100
AcDbEntity
8
SK2
62
256
6
ByLayer
370
18
48
1
60
0
100
AcDbMText
10
1.144034
20
53.282634
30
0
210
0
220
0
230
1
1
\W0.7640;49.5
40
3.5
41
0
44
1.084337
50
0
71
7
72
5
7
iso_b_vert
0
LINE
5
253
100
AcDbEntity
8
SK2
62
256
6
ByLayer
370
13
48
1
60
0
100
AcDbLine
10
-19.5
20
1.5875
30
0
11
-19.5
21
54.25
31
0
39
0
210
0
220
0
230
1
0
LINE
5
254
100
AcDbEntity
8
SK2
62
256
6
ByLayer
370
13
48
1
60
0
100
AcDbLine
10
30
20
11.5875
30
0
11
30
21
54.25
31
0
39
0
210
0
220
0
230
1
0
LINE
5
255
100
AcDbEntity
8
SK2
62
256
6
ByLayer
370
13
48
1
60
0
100
AcDbLine
10
-19.5
20
52.25
30
0
11
30
21
52.25
31
0
39
0
210
0
220
0
230
1
0
SOLID
5
256
100
AcDbEntity
8
SK2
62
256
6
ByLayer
370
18
48
1
60
0
100
AcDbTrace
10
-19.5
20
52.25
30
0
11
-16.000002
21
52.710784
31
0
12
-15.999998
22
51.789216
32
0
13
-15.999998
23
51.789216
33
0
39
0
210
0
220
0
230
1
0
SOLID
5
257
100
AcDbEntity
8
SK2
62
256
6
ByLayer
370
18
48
1
60
0
100
AcDbTrace
10
30
20
52.25
30
0
11
26.500002
21
51.789216
31
0
12
26.499998
22
52.710784
32
0
13
26.499998
23
52.710784
33
0
39
0
210
0
220
0
230
1
0
ENDBLK
5
259
100
AcDbEntity
8
0
100
AcDbBlockEnd
0
ENDSEC
0
SECTION
2
ENTITIES
0
ARC
5
DF
100
AcDbEntity
8
1
62
256
6
ByLayer
370
18
48
1
60
0
100
AcDbCircle
39
0
10
10.688298
20
9.665
30
0
40
0.5
210
0
220
0
230
1
100
AcDbArc
50
219.050123
51
270
0
ARC
5
E0
100
AcDbEntity
8
1
62
256
6
ByLayer
370
18
48
1
60
0
100
AcDbCircle
39
0
10
10.688298
20
-9.665
30
0
40
0.5
210
0
220
0
230
1
100
AcDbArc
50
90
51
140.949877
0
ARC
5
E1
100
AcDbEntity
8
SK1
62
256
6
ByLayer
370
18
48
1
60
0
100
AcDbCircle
39
0
10
-16
20
-5.1
30
0
40
0.5
210
0
220
0
230
1
100
AcDbArc
50
0
51
90
0
ARC
5
E2
100
AcDbEntity
8
SK1
62
256
6
ByLayer
370
18
48
1
60
0
100
AcDbCircle
39
0
10
-16
20
5.1
30
0
40
0.5
210
0
220
0
230
1
100
AcDbArc
50
270
51
315.938964
0
ARC
5
E3
100
AcDbEntity
8
SK1
62
256
6
ByLayer
370
18
48
1
60
0
100
AcDbCircle
39
0
10
-0.4
20
-7.750053
30
0
40
0.4
210
0
220
0
230
1
100
AcDbArc
50
0
51
87.8
0
ARC
5
E4
100
AcDbEntity
8
SK1
62
256
6
ByLayer
370
18
48
1
60
0
100
AcDbCircle
39
0
10
-0.4
20
7.750053
30
0
40
0.4
210
0
220
0
230
1
100
AcDbArc
50
272.2
51
0
0
ELLIPSE
5
E5
100
AcDbEntity
8
1
62
256
6
ByLayer
370
13
48
1
60
0
100
AcDbEllipse
10
19.632677
20
6.523985
30
0
11
0.924656685057923
21
-0.380801805113491
31
0
210
0
220
0
230
1
40
0.143337
41
-1.83966628953046
42
-1.42138570283642
0
ELLIPSE
5
E6
100
AcDbEntity
8
1
62
256
6
ByLayer
370
13
48
1
60
0
100
AcDbEllipse
10
19.49743
20
6.010388
30
0
11
0.992460106398571
21
-0.122568092125716
31
0
210
0
220
0
230
1
40
0.202929
41
-1.91238979666677
42
-1.34880660531553
0
ELLIPSE
5
E7
100
AcDbEntity
8
1
62
256
6
ByLayer
370
18
48
1
60
0
100
AcDbEllipse
10
22.216454
20
-9.62245
30
0
11
3.20282474413638
21
2.03182852905561
31
0
210
0
220
0
230
1
40
0.31915
41
1.6717669516965
42
1.70622311217878
0
ELLIPSE
5
E8
100
AcDbEntity
8
1
62
256
6
ByLayer
370
18
48
1
60
0
100
AcDbEllipse
10
19.377753
20
-11.790031
30
0
11
13.3916864522787
21
10.7796094023316
31
0
210
0
220
0
230
1
40
0.068074
41
1.34219516117487
42
1.35921517537793
0
ELLIPSE
5
E9
100
AcDbEntity
8
1
62
256
6
ByLayer
370
18
48
1
60
0
100
AcDbEllipse
10
25.940744
20
-4.852814
30
0
11
-1.02361791654575
21
0.801377789139717
31
0
210
0
220
0
230
1
40
0.959505
41
-2.4973340719311
42
0.644258581658695
0
ELLIPSE
5
EA
100
AcDbEntity
8
1
62
256
6
ByLayer
370
13
48
1
60
0
100
AcDbEllipse
10
26.14418
20
-4.592961
30
0
11
-1.75
21
6.43155504981979E-15
31
0
210
0
220
0
230
1
40
0.225226
41
2.2335916102058
42
2.96705972839035
0
ELLIPSE
5
EB
100
AcDbEntity
8
1
62
256
6
ByLayer
370
13
48
1
60
0
100
AcDbEllipse
10
26.14418
20
-4.592961
30
0
11
-1.75
21
6.43155504981979E-15
31
0
210
0
220
0
230
1
40
0.225226
41
1.02293633637381E-05
42
0.558935192985154
0
ELLIPSE
5
EC
100
AcDbEntity
8
1
62
256
6
ByLayer
370
13
48
1
60
0
100
AcDbEllipse
10
26.14418
20
-4.592961
30
0
11
1.37794719535007
21
-1.07877779307273
31
0
210
0
220
0
230
1
40
0.959505
41
0.644258581658703
42
3.05896498511433
0
ELLIPSE
5
ED
100
AcDbEntity
8
1
62
256
6
ByLayer
370
18
48
1
60
0
100
AcDbEllipse
10
26.707573
20
-0.015746
30
0
11
0.391471486072479
21
9.56643324284777
31
0
210
0
220
0
230
1
40
0.171522
41
-2.1491285955945
42
-2.05393779389882
0
ELLIPSE
5
EE
100
AcDbEntity
8
1
62
256
6
ByLayer
370
18
48
1
60
0
100
AcDbEllipse
10
23.166136
20
0.000287
30
0
11
0.392034328880526
21
9.58067318860176
31
0
210
0
220
0
230
1
40
0.171518
41
-2.07036435347296
42
-2.05264650774522
0
ELLIPSE
5
EF
100
AcDbEntity
8
1
62
256
6
ByLayer
370
18
48
1
60
0
100
AcDbEllipse
10
25.962994
20
-5.194384
30
0
11
-0.826768317210048
21
0.647266675843632
31
0
210
0
220
0
230
1
40
0.959505
41
0
42
6.28318530717959
0
ELLIPSE
5
F0
100
AcDbEntity
8
1
62
256
6
ByLayer
370
18
48
1
60
0
100
AcDbEllipse
10
25.138165
20
6.247957
30
0
11
0.782988966317787
21
0.612992364246574
31
0
210
0
220
0
230
1
40
0.959505
41
-0.0527558736181162
42
0.402938969537905
0
ELLIPSE
5
F1
100
AcDbEntity
8
1
62
256
6
ByLayer
370
18
48
1
60
0
100
AcDbEllipse
10
25.138165
20
6.247957
30
0
11
0.782988966317787
21
0.612992364246574
31
0
210
0
220
0
230
1
40
0.959505
41
0.402938969537904
42
1.4501365207345
0
ELLIPSE
5
F2
100
AcDbEntity
8
1
62
256
6
ByLayer
370
18
48
1
60
0
100
AcDbEllipse
10
25.138165
20
6.247957
30
0
11
0.782988966317787
21
0.612992364246574
31
0
210
0
220
0
230
1
40
0.959505
41
1.4501365207345
42
2.4973340719311
0
ELLIPSE
5
F3
100
AcDbEntity
8
1
62
256
6
ByLayer
370
18
48
1
60
0
100
AcDbEllipse
10
25.138165
20
6.247957
30
0
11
-0.782988966317787
21
-0.612992364246573
31
0
210
0
220
0
230
1
40
0.959505
41
-0.6442585816587
42
-0.0895549536644564
0
ELLIPSE
5
F4
100
AcDbEntity
8
1
62
256
6
ByLayer
370
18
48
1
60
0
100
AcDbEllipse
10
24.575988
20
7.188968
30
0
11
0.257473542543713
21
0.158273509412891
31
0
210
0
220
0
230
1
40
0.467903
41
-2.86360099569469
42
-1.57671633513434
0
ELLIPSE
5
F5
100
AcDbEntity
8
1
62
256
6
ByLayer
370
18
48
1
60
0
100
AcDbEllipse
10
24.575988
20
7.188968
30
0
11
0.2574735425433
21
0.158273509412738
31
0
210
0
220
0
230
1
40
0.467903
41
-1.57671633513489
42
-0.289831674573106
0
ELLIPSE
5
F6
100
AcDbEntity
8
1
62
256
6
ByLayer
370
18
48
1
60
0
100
AcDbEllipse
10
24.164403
20
6.765493
30
0
11
0.151162453458834
21
0.259813626050734
31
0
210
0
220
0
230
1
40
0.473029
41
-0.142690255569201
42
2.45015982763576
0
ELLIPSE
5
F7
100
AcDbEntity
8
1
62
256
6
ByLayer
370
18
48
1
60
0
100
AcDbEllipse
10
25.138165
20
7.360371
30
0
11
0.297713875952699
21
0.0153900695455098
31
0
210
0
220
0
230
1
40
0.480922
41
1.09803339555888
42
-3.00557531823596
0
ELLIPSE
5
F8
100
AcDbEntity
8
1
62
256
6
ByLayer
370
18
48
1
60
0
100
AcDbEllipse
10
24.01381
20
6.203305
30
0
11
0.00374215101906695
21
0.294680832625608
31
0
210
0
220
0
230
1
40
0.492105
41
-2.8318812499933
42
-1.54499658943413
0
ELLIPSE
5
F9
100
AcDbEntity
8
1
62
256
6
ByLayer
370
18
48
1
60
0
100
AcDbEllipse
10
24.01381
20
6.203305
30
0
11
0.00374215101941058
21
0.29468083262535
31
0
210
0
220
0
230
1
40
0.492105
41
-1.5449965894315
42
-0.485328671078673
0
ELLIPSE
5
FA
100
AcDbEntity
8
1
62
256
6
ByLayer
370
18
48
1
60
0
100
AcDbEllipse
10
25.700343
20
7.23362
30
0
11
0.259303078136592
21
-0.134508501060846
31
0
210
0
220
0
230
1
40
0.500872
41
-2.33945347422186
42
-1.59074717273476
0
ELLIPSE
5
FB
100
AcDbEntity
8
1
62
256
6
ByLayer
370
18
48
1
60
0
100
AcDbEllipse
10
25.700343
20
7.23362
30
0
11
0.259303078136299
21
-0.134508501061235
31
0
210
0
220
0
230
1
40
0.500872
41
-1.5907471727311
42
-0.303862512171715
0
ELLIPSE
5
FC
100
AcDbEntity
8
1
62
256
6
ByLayer
370
18
48
1
60
0
100
AcDbEllipse
10
24.164403
20
5.653078
30
0
11
0.148052312819069
21
-0.249755755551474
31
0
210
0
220
0
230
1
40
0.507011
41
2.98746365188933
42
-2.10081538964497
0
ELLIPSE
5
FD
100
AcDbEntity
8
1
62
256
6
ByLayer
370
18
48
1
60
0
100
AcDbEllipse
10
26.111928
20
6.842836
30
0
11
0.148052312819068
21
-0.249755755551475
31
0
210
0
220
0
230
1
40
0.507011
41
2.62704093057584
42
-2.97397553169564
0
ELLIPSE
5
FE
100
AcDbEntity
8
1
62
256
6
ByLayer
370
18
48
1
60
0
100
AcDbEllipse
10
24.886376
20
6.569574
30
0
11
1.01499590409488
21
0.794627722377359
31
0
210
0
220
0
230
1
40
0.959505
41
3.02093284752942
42
-2.92983301168358
0
ELLIPSE
5
FF
100
AcDbEntity
8
1
62
256
6
ByLayer
370
18
48
1
60
0
100
AcDbEllipse
10
24.886376
20
6.569574
30
0
11
1.01499590409488
21
0.794627722377359
31
0
210
0
220
0
230
1
40
0.959505
41
1.9737352963328
42
3.02093284752942
0
ELLIPSE
5
100
100
AcDbEntity
8
1
62
256
6
ByLayer
370
18
48
1
60
0
100
AcDbEllipse
10
24.886376
20
6.569574
30
0
11
1.01499590409488
21
0.794627722377359
31
0
210
0
220
0
230
1
40
0.959505
41
0.926537745136206
42
1.9737352963328
0
ELLIPSE
5
101
100
AcDbEntity
8
1
62
256
6
ByLayer
370
18
48
1
60
0
100
AcDbEllipse
10
24.886376
20
6.569574
30
0
11
1.01499590409488
21
0.794627722377359
31
0
210
0
220
0
230
1
40
0.959505
41
-0.120659806060376
42
0.926537745136206
0
ELLIPSE
5
102
100
AcDbEntity
8
1
62
256
6
ByLayer
370
18
48
1
60
0
100
AcDbEllipse
10
24.886376
20
6.569574
30
0
11
1.01499590409488
21
0.794627722377359
31
0
210
0
220
0
230
1
40
0.959505
41
-1.167857357257
42
-0.120659806060376
0
ELLIPSE
5
103
100
AcDbEntity
8
1
62
256
6
ByLayer
370
18
48
1
60
0
100
AcDbEllipse
10
24.886376
20
6.569574
30
0
11
1.01499590409488
21
0.794627722377359
31
0
210
0
220
0
230
1
40
0.959505
41
-1.59154673156325
42
-1.167857357257
0
ELLIPSE
5
104
100
AcDbEntity
8
1
62
256
6
ByLayer
370
18
48
1
60
0
100
AcDbEllipse
10
25.129483
20
6.259047
30
0
11
1.50120921613715
21
1.17527810252076
31
0
210
0
220
0
230
1
40
0.959505
41
-0.841099086780432
42
-0.644258648850666
0
ELLIPSE
5
105
100
AcDbEntity
8
1
62
256
6
ByLayer
370
18
48
1
60
0
100
AcDbEllipse
10
25.129483
20
6.259047
30
0
11
1.50120921613715
21
1.17527810252076
31
0
210
0
220
0
230
1
40
0.959505
41
-0.64425864885066
42
-0.240465841314317
0
ELLIPSE
5
106
100
AcDbEntity
8
1
62
256
6
ByLayer
370
13
48
1
60
0
100
AcDbEllipse
10
24.886376
20
6.569574
30
0
11
1.18109759601436
21
0.924666679776609
31
0
210
0
220
0
230
1
40
0.959505
41
-1.42955827479535
42
-0.644258584715013
0
ELLIPSE
5
107
100
AcDbEntity
8
1
62
256
6
ByLayer
370
13
48
1
60
0
100
AcDbEllipse
10
24.886376
20
6.569574
30
0
11
1.18109759601436
21
0.924666679776609
31
0
210
0
220
0
230
1
40
0.959505
41
-0.644258584715008
42
0
0
ELLIPSE
5
108
100
AcDbEntity
8
1
62
256
6
ByLayer
370
13
48
1
60
0
100
AcDbEllipse
10
24.886376
20
6.569574
30
0
11
1.18109759601436
21
0.924666679776609
31
0
210
0
220
0
230
1
40
0.959505
41
0
42
-3.09892229602126
0
ELLIPSE
5
109
100
AcDbEntity
8
1
62
256
6
ByLayer
370
18
48
1
60
0
100
AcDbEllipse
10
24.897404
20
6.555487
30
0
11
1.57479679468581
21
1.23288890636881
31
0
210
0
220
0
230
1
40
0.959505
41
-1.22191888201352
42
-0.644258413653153
0
ELLIPSE
5
10A
100
AcDbEntity
8
1
62
256
6
ByLayer
370
18
48
1
60
0
100
AcDbEllipse
10
24.897404
20
6.555487
30
0
11
1.57479679468581
21
1.23288890636881
31
0
210
0
220
0
230
1
40
0.959505
41
-0.644258413653145
42
-4.62831574457729E-16
0
ELLIPSE
5
10B
100
AcDbEntity
8
1
62
256
6
ByLayer
370
18
48
1
60
0
100
AcDbEllipse
10
24.897404
20
6.555487
30
0
11
1.57479679468581
21
1.23288890636881
31
0
210
0
220
0
230
1
40
0.959505
41
0
42
2.9508033437307
0
ELLIPSE
5
10C
100
AcDbEntity
8
1
62
256
6
ByLayer
370
13
48
1
60
0
100
AcDbEllipse
10
25.113546
20
6.279404
30
0
11
1.56693690719375
21
1.22673549779764
31
0
210
0
220
0
230
1
40
0.959505
41
-0.597331192189471
42
-1.39545952984302E-15
0
ELLIPSE
5
10D
100
AcDbEntity
8
1
62
256
6
ByLayer
370
13
48
1
60
0
100
AcDbEllipse
10
25.113546
20
6.279404
30
0
11
1.56693690719375
21
1.22673549779764
31
0
210
0
220
0
230
1
40
0.959505
41
0
42
0.0644650914075914
0
ELLIPSE
5
10E
100
AcDbEntity
8
1
62
256
6
ByLayer
370
13
48
1
60
0
100
AcDbEllipse
10
25.063876
20
6.342848
30
0
11
1.6685800143858
21
1.30631062754696
31
0
210
0
220
0
230
1
40
0.959505
41
0.0114505432772956
42
0.498004848364739
0
ELLIPSE
5
10F
100
AcDbEntity
8
1
62
256
6
ByLayer
370
18
48
1
60
0
100
AcDbEllipse
10
25.063876
20
6.342848
30
0
11
1.6685800143858
21
1.30631062754696
31
0
210
0
220
0
230
1
40
0.959505
41
-0.302316043693242
42
-4.36817937198962E-16
0
ELLIPSE
5
110
100
AcDbEntity
8
1
62
256
6
ByLayer
370
18
48
1
60
0
100
AcDbEllipse
10
25.063876
20
6.342848
30
0
11
1.6685800143858
21
1.30631062754696
31
0
210
0
220
0
230
1
40
0.959505
41
0
42
0.0114508723433045
0
ELLIPSE
5
111
100
AcDbEntity
8
1
62
256
6
ByLayer
370
18
48
1
60
0
100
AcDbEllipse
10
24.890536
20
6.564259
30
0
11
-1.75119214397704
21
-1.37098664063528
31
0
210
0
220
0
230
1
40
0.959505
41
1.97425871670366
42
-0.222107064517853
0
POINT
5
70
100
AcDbEntity
8
80
62
256
6
ByLayer
370
18
48
1
60
0
100
AcDbPoint
10
0
20
0
30
0
39
0
210
0
220
0
230
1
50
360
0
POINT
5
72
100
AcDbEntity
8
1
62
256
6
ByLayer
370
18
48
1
60
0
100
AcDbPoint
10
0
20
0
30
0
39
0
210
0
220
0
230
1
50
360
0
POINT
5
74
100
AcDbEntity
8
81
62
256
6
ByLayer
370
18
48
1
60
0
100
AcDbPoint
10
30
20
10
30
0
39
0
210
0
220
0
230
1
50
360
0
POINT
5
76
100
AcDbEntity
8
1
62
256
6
ByLayer
370
18
48
1
60
1
100
AcDbPoint
10
21
20
10
30
0
39
0
210
0
220
0
230
1
50
360
0
POINT
5
77
100
AcDbEntity
8
1
62
256
6
ByLayer
370
18
48
1
60
1
100
AcDbPoint
10
10.8
20
10
30
0
39
0
210
0
220
0
230
1
50
360
0
POINT
5
78
100
AcDbEntity
8
1
62
256
6
ByLayer
370
18
48
1
60
1
100
AcDbPoint
10
-19.5
20
0
30
0
39
0
210
0
220
0
230
1
50
360
0
SPLINE
5
112
100
AcDbEntity
8
1
62
256
6
ByLayer
370
18
48
1
60
0
100
AcDbSpline
70
4
71
3
72
12
73
8
40
0
40
0
40
0
40
0
40
0.250000000000013
40
0.250000000000013
40
0.500000000000026
40
0.500000000000026
40
1
40
1
40
1
40
1
41
1
10
21.1415090684991
20
-8.88394986960975
30
0
41
1
10
21.1320665296389
20
-8.88911681817132
30
0
41
1
10
21.1226044448321
20
-8.89452908589635
30
0
41
1
10
21.1036419759724
20
-8.90584641988525
30
0
41
1
10
21.0941224632332
20
-8.91176470334526
30
0
41
1
10
21.0657775378944
20
-8.93008443047134
30
0
41
1
10
21.0470952477468
20
-8.94308796779779
30
0
41
1
10
21.0286145020379
20
-8.956831619247
30
0
0
SPLINE
5
113
100
AcDbEntity
8
1
62
256
6
ByLayer
370
18
48
1
60
0
100
AcDbSpline
70
4
71
3
72
13
73
9
40
0
40
0
40
0
40
0
40
0.500000000000022
40
0.500000000000022
40
0.625000000000021
40
0.625000000000021
40
0.750000000000021
40
1
40
1
40
1
40
1
41
1
10
21.6977904364424
20
-8.4592932802494
30
0
41
1
10
21.6509436792288
20
-8.48560059286675
30
0
41
1
10
21.6073077375974
20
-8.51429792327986
30
0
41
1
10
21.5565134993456
20
-8.55382105643216
30
0
41
1
10
21.5465294927781
20
-8.56192087156055
30
0
41
1
10
21.5270682853447
20
-8.5783864797807
30
0
41
1
10
21.4985895063054
20
-8.60351824762378
30
0
41
1
10
21.4721475011677
20
-8.63000082753143
30
0
41
1
10
21.4553421615944
20
-8.64830939052641
30
0
0
SPLINE
5
114
100
AcDbEntity
8
1
62
256
6
ByLayer
370
18
48
1
60
0
100
AcDbSpline
70
4
71
3
72
8
73
4
40
0
40
0
40
0
40
0
40
1
40
1
40
1
40
1
41
1
10
21.6977904364402
20
-8.45929328024499
30
0
41
1
10
21.6599082070784
20
-8.2806396750224
30
0
41
1
10
21.6176601389878
20
-8.10201812891782
30
0
41
1
10
21.5712341181318
20
-7.92342726225166
30
0
0
SPLINE
5
115
100
AcDbEntity
8
1
62
256
6
ByLayer
370
18
48
1
60
0
100
AcDbSpline
70
4
71
3
72
8
73
4
40
0
40
0
40
0
40
0
40
1
40
1
40
1
40
1
41
1
10
26.2905795635433
20
-8.58645515197401
30
0
41
1
10
26.3046702063476
20
-8.5874374411124
30
0
41
1
10
26.3187279761743
20
-8.58822349357095
30
0
41
1
10
26.33275331096
20
-8.58881500734188
30
0
0
SPLINE
5
116
100
AcDbEntity
8
1
62
256
6
ByLayer
370
18
48
1
60
0
100
AcDbSpline
70
4
71
3
72
8
73
4
40
0
40
0
40
0
40
0
40
1
40
1
40
1
40
1
41
1
10
26.2905795635433
20
-6.78239337945652
30
0
41
1
10
26.3046916546603
20
-6.78141952473061
30
0
41
1
10
26.3187492594385
20
-6.7799627446712
30
0
41
1
10
26.3327533109601
20
-6.77803149172451
30
0
0
SPLINE
5
117
100
AcDbEntity
8
1
62
256
6
ByLayer
370
18
48
1
60
0
100
AcDbSpline
70
4
71
3
72
75
73
71
40
0
40
0
40
0
40
0
40
0.0624999999999989
40
0.0624999999999989
40
0.0781249999999985
40
0.0781249999999985
40
0.0937499999999981
40
0.0937499999999981
40
0.124999999999997
40
0.124999999999997
40
0.156249999999996
40
0.156249999999996
40
0.187499999999996
40
0.187499999999996
40
0.249999999999994
40
0.249999999999994
40
0.265624999999994
40
0.265624999999994
40
0.281249999999994
40
0.281249999999994
40
0.312499999999994
40
0.312499999999994
40
0.374999999999996
40
0.374999999999996
40
0.390624999999996
40
0.390624999999996
40
0.406249999999997
40
0.406249999999997
40
0.437499999999995
40
0.468749999999993
40
0.468749999999993
40
0.484374999999992
40
0.484374999999992
40
0.499999999999991
40
0.499999999999991
40
0.56249999999999
40
0.56249999999999
40
0.578124999999989
40
0.578124999999989
40
0.593749999999989
40
0.593749999999989
40
0.624999999999991
40
0.624999999999991
40
0.64062499999999
40
0.64062499999999
40
0.65624999999999
40
0.65624999999999
40
0.687499999999991
40
0.687499999999991
40
0.718749999999993
40
0.718749999999993
40
0.734374999999994
40
0.734374999999994
40
0.749999999999994
40
0.749999999999994
40
0.812499999999994
40
0.812499999999994
40
0.843749999999995
40
0.843749999999995
40
0.859374999999996
40
0.859374999999996
40
0.874999999999996
40
0.874999999999996
40
0.906249999999997
40
0.906249999999997
40
0.937499999999998
40
0.937499999999998
40
0.968749999999999
40
0.968749999999999
40
1
40
1
40
1
40
1
41
1
10
24.660494409659
20
-4.80197069691116
30
0
41
1
10
24.660494409659
20
-4.88982387360383
30
0
41
1
10
24.667791760781
20
-4.97758258276585
30
0
41
1
10
24.6853182629221
20
-5.08705756436734
30
0
41
1
10
24.6892511147332
20
-5.10894052642644
30
0
41
1
10
24.6979815665744
20
-5.15267667700007
30
0
41
1
10
24.7027937589362
20
-5.17458101839671
30
0
41
1
10
24.7183466971773
20
-5.23942044114992
30
0
41
1
10
24.7302385802144
20
-5.28172772249613
30
0
41
1
10
24.7570122177547
20
-5.36471317190774
30
0
41
1
10
24.7718950390052
20
-5.40539044080688
30
0
41
1
10
24.8047407431153
20
-5.48522681210915
30
0
41
1
10
24.8227586176313
20
-5.52446394043486
30
0
41
1
10
24.88077318432
20
-5.63819473937045
30
0
41
1
10
24.9249011119571
20
-5.70937750066264
30
0
41
1
10
24.9877446021318
20
-5.79282596338081
30
0
41
1
10
25.000701405635
20
-5.80923506585071
30
0
41
1
10
25.0274300256455
20
-5.84148264422421
30
0
41
1
10
25.0412186480407
20
-5.85733563608952
30
0
41
1
10
25.0834458344015
20
-5.90356493811729
30
0
41
1
10
25.112865514983
20
-5.93277026886381
30
0
41
1
10
25.2051253535779
20
-6.01552935831785
30
0
41
1
10
25.2719144160147
20
-6.06429298951764
30
0
41
1
10
25.3632880940576
20
-6.11626735943105
30
0
41
1
10
25.3819613226335
20
-6.12620785185118
30
0
41
1
10
25.4201563654418
20
-6.14513152233732
30
0
41
1
10
25.4396493912485
20
-6.15409442218933
30
0
41
1
10
25.4986129555026
20
-6.17912917465486
30
0
41
1
10
25.5790372625886
20
-6.20783838896108
30
0
41
1
10
25.6632037829253
20
-6.22702255508096
30
0
41
1
10
25.7278176679103
20
-6.23765484397501
30
0
41
1
10
25.7496831550982
20
-6.24057867497655
30
0
41
1
10
25.79351405814
20
-6.24508484868753
30
0
41
1
10
25.8154393486237
20
-6.24666884272207
30
0
41
1
10
25.9251144208175
20
-6.25131530329838
30
0
41
1
10
26.0130121766183
20
-6.24465306999932
30
0
41
1
10
26.1230517329082
20
-6.22350456776272
30
0
41
1
10
26.1450122241186
20
-6.21863404465998
30
0
41
1
10
26.1883787496789
20
-6.20775264440334
30
0
41
1
10
26.2098527480547
20
-6.20172933130527
30
0
41
1
10
26.2736690876709
20
-6.18197326613233
30
0
41
1
10
26.3154074393166
20
-6.16655902145763
30
0
41
1
10
26.3768612947754
20
-6.14022626171658
30
0
41
1
10
26.3971532017662
20
-6.13091223909524
30
0
41
1
10
26.4373558724135
20
-6.11122331841659
30
0
41
1
10
26.4573076454954
20
-6.10082361997684
30
0
41
1
10
26.5160485086085
20
-6.06835199934338
30
0
41
1
10
26.553868519443
20
-6.04495347196624
30
0
41
1
10
26.6270287035734
20
-5.99488127620754
30
0
41
1
10
26.6623682176625
20
-5.96820689239382
30
0
41
1
10
26.7135945183238
20
-5.92580699641002
30
0
41
1
10
26.7303720953004
20
-5.9112746692993
30
0
41
1
10
26.7633363936576
20
-5.8814118079882
30
0
41
1
10
26.7795363157127
20
-5.86606521966183
30
0
41
1
10
26.8584088625735
20
-5.78798849454202
30
0
41
1
10
26.9153265302486
20
-5.72082333819318
30
0
41
1
10
26.9918626896485
20
-5.61293597047518
30
0
41
1
10
27.0158863227629
20
-5.57577094046167
30
0
41
1
10
27.0495906177713
20
-5.51807247015321
30
0
41
1
10
27.0604502492905
20
-5.49848103106109
30
0
41
1
10
27.0811687427119
20
-5.45898399572692
30
0
41
1
10
27.0910515324218
20
-5.43904058419648
30
0
41
1
10
27.1192509955618
20
-5.37861295294644
30
0
41
1
10
27.1361253353648
20
-5.33753410821637
30
0
41
1
10
27.1657733716747
20
-5.25365979289887
30
0
41
1
10
27.1785493896857
20
-5.21086528807004
30
0
41
1
10
27.1995161002472
20
-5.12333175191054
30
0
41
1
10
27.2075009549451
20
-5.07939847690949
30
0
41
1
10
27.2182338541695
20
-4.99157169585146
30
0
41
1
10
27.2209945674907
20
-4.9476260894146
30
0
41
1
10
27.2209945674907
20
-4.90365710958054
30
0
0
SPLINE
5
118
100
AcDbEntity
8
1
62
256
6
ByLayer
370
18
48
1
60
0
100
AcDbSpline
70
4
71
3
72
8
73
4
40
0
40
0
40
0
40
0
40
1
40
1
40
1
40
1
41
1
10
19.1415312326036
20
5.86168451208016
30
0
41
1
10
19.1351201674226
20
5.82583270180007
30
0
41
1
10
19.1287373976375
20
5.7899743360062
30
0
41
1
10
19.1223817532361
20
5.75410963688003
30
0
0
SPLINE
5
119
100
AcDbEntity
8
1
62
256
6
ByLayer
370
18
48
1
60
0
100
AcDbSpline
70
4
71
3
72
10
73
6
40
0
40
0
40
0
40
0
40
0.5
40
0.5
40
1
40
1
40
1
40
1
41
1
10
19.3344269413648
20
6.49736604895929
30
0
41
1
10
19.2898012030708
20
6.3943870198392
30
0
41
1
10
19.2513883290594
20
6.28993781784769
30
0
41
1
10
19.1869973724319
20
6.0780732459763
30
0
41
1
10
19.1610180519306
20
5.97065825197964
30
0
41
1
10
19.1415312326024
20
5.86168451208022
30
0
0
SPLINE
5
11A
100
AcDbEntity
8
1
62
256
6
ByLayer
370
18
48
1
60
0
100
AcDbSpline
70
4
71
3
72
10
73
6
40
0
40
0
40
0
40
0
40
0.053758684733972
40
0.053758684733972
40
1
40
1
40
1
40
1
41
1
10
19.8816177457444
20
7.74971976541411
30
0
41
1
10
19.8717347017027
20
7.7273142223269
30
0
41
1
10
19.8618564365708
20
7.70490649050376
30
0
41
1
10
19.6781902007893
20
7.28804660064361
30
0
41
1
10
19.5058421867648
20
6.89292646370436
30
0
41
1
10
19.334426941363
20
6.49736604895992
30
0
0
SPLINE
5
11B
100
AcDbEntity
8
1
62
256
6
ByLayer
370
18
48
1
60
0
100
AcDbSpline
70
4
71
3
72
8
73
4
40
0
40
0
40
0
40
0
40
1
40
1
40
1
40
1
41
1
10
20.1360794200846
20
8.81146746286888
30
0
41
1
10
20.1707062285092
20
8.81890632868434
30
0
41
1
10
20.2053259055163
20
8.82633720209463
30
0
41
1
10
20.2399390318765
20
8.83375942394673
30
0
0
SPLINE
5
11C
100
AcDbEntity
8
1
62
256
6
ByLayer
370
18
48
1
60
0
100
AcDbSpline
70
4
71
3
72
8
73
4
40
0
40
0
40
0
40
0
40
1
40
1
40
1
40
1
41
1
10
20.1360794200846
20
8.81146746286888
30
0
41
1
10
20.0453637306605
20
8.79197904127631
30
0
41
1
10
19.9542147684883
20
8.7783892672297
30
0
41
1
10
19.8626305601018
20
8.77070186694681
30
0
0
SPLINE
5
11D
100
AcDbEntity
8
1
62
256
6
ByLayer
370
18
48
1
60
0
100
AcDbSpline
70
4
71
3
72
53
73
49
40
0
40
0
40
0
40
0
40
0.0017456975358213
40
0.0017456975358213
40
0.0130894964274598
40
0.0130894964274598
40
0.0244332953190985
40
0.0244332953190985
40
0.0471208931023758
40
0.0471208931023758
40
0.0924960886689303
40
0.0924960886689303
40
0.115183686452208
40
0.115183686452208
40
0.137871284235485
40
0.137871284235485
40
0.18324647980204
40
0.18324647980204
40
0.205934077585318
40
0.205934077585318
40
0.217277876476957
40
0.217277876476957
40
0.228621675368596
40
0.228621675368596
40
0.273996870935151
40
0.273996870935151
40
0.319372066501705
40
0.319372066501705
40
0.342059664284982
40
0.353403463176621
40
0.353403463176621
40
0.36474726206826
40
0.36474726206826
40
0.410122457634816
40
0.410122457634816
40
0.432810055418095
40
0.432810055418095
40
0.438481954863914
40
0.438481954863914
40
0.444153854309733
40
0.455497653201372
40
0.636998435467581
40
0.636998435467581
40
0.818499217733791
40
0.818499217733791
40
0.909249608866895
40
0.909249608866895
40
1
40
1
40
1
40
1
41
1
10
11.8778131711125
20
-8.72418430564383
30
0
41
1
10
11.8811306309898
20
-8.72305719638126
30
0
41
1
10
11.8844594662139
20
-8.72193026511053
30
0
41
1
10
11.909504690052
20
-8.71348188057962
30
0
41
1
10
11.9317060623576
20
-8.70616553812178
30
0
41
1
10
11.976733072761
20
-8.691672791602
30
0
41
1
10
11.9995988382703
20
-8.684482937159
30
0
41
1
10
12.0692155392462
20
-8.66309520952294
30
0
41
1
10
12.1169831387194
20
-8.64907864426115
30
0
41
1
10
12.2641402018965
20
-8.6078615208443
30
0
41
1
10
12.3673802465072
20
-8.58149757124593
30
0
41
1
10
12.5295311575183
20
-8.54409763916064
30
0
41
1
10
12.5849037219191
20
-8.53196634527441
30
0
41
1
10
12.6968522608234
20
-8.50873114423194
30
0
41
1
10
12.7535493908008
20
-8.49759697409843
30
0
41
1
10
12.9257313553573
20
-8.46571275311487
30
0
41
1
10
13.0432888706291
20
-8.44647066757895
30
0
41
1
10
13.2235455483485
20
-8.42084854329548
30
0
41
1
10
13.2842890081704
20
-8.41285058994936
30
0
41
1
10
13.3763890844928
20
-8.40170886677768
30
0
41
1
10
13.4072529096142
20
-8.39813709404979
30
0
41
1
10
13.4693069950209
20
-8.39128300661736
30
0
41
1
10
13.500504809937
20
-8.38800043508485
30
0
41
1
10
13.656515221347
20
-8.37240096642623
30
0
41
1
10
13.7820169567362
20
-8.36244750131556
30
0
41
1
10
14.0343479535065
20
-8.34764553297009
30
0
41
1
10
14.1611737712506
20
-8.34278267291239
30
0
41
1
10
14.3523946890108
20
-8.33936178156677
30
0
41
1
10
14.4482523977533
20
-8.33862473849888
30
0
41
1
10
14.5444830689806
20
-8.3393597055165
30
0
41
1
10
14.6087204004679
20
-8.34017880670825
30
0
41
1
10
14.6409242243859
20
-8.34075406146599
30
0
41
1
10
14.8015073722095
20
-8.34444389156016
30
0
41
1
10
14.9285691492183
20
-8.34999301647173
30
0
41
1
10
15.1171151327015
20
-8.36198809459754
30
0
41
1
10
15.1796370808744
20
-8.36657113131466
30
0
41
1
10
15.2573331959533
20
-8.37309834105952
30
0
41
1
10
15.2728411194983
20
-8.37445903164601
30
0
41
1
10
15.303862756111
20
-8.37716642592491
30
0
41
1
10
15.350391716131
20
-8.38122875984124
30
0
41
1
10
15.8931534347666
20
-8.4285799987241
30
0
41
1
10
16.4195163231687
20
-8.47422116184774
30
0
41
1
10
17.407977069936
20
-8.55993088475844
30
0
41
1
10
17.9010410077518
20
-8.60267756611444
30
0
41
1
10
18.6384427051985
20
-8.66634567038079
30
0
41
1
10
18.8839007782159
20
-8.68748765357859
30
0
41
1
10
19.3739722629737
20
-8.72942317091378
30
0
41
1
10
19.6185324360926
20
-8.75021274528913
30
0
41
1
10
19.8626305601017
20
-8.77070186694695
30
0
0
SPLINE
5
11E
100
AcDbEntity
8
1
62
256
6
ByLayer
370
18
48
1
60
0
100
AcDbSpline
70
4
71
3
72
59
73
55
40
0
40
0
40
0
40
0
40
0.058640688846243
40
0.058640688846243
40
0.117281377692486
40
0.117281377692486
40
0.146601722115607
40
0.146601722115607
40
0.175922066538729
40
0.175922066538729
40
0.234562755384971
40
0.234562755384971
40
0.293203444231213
40
0.293203444231213
40
0.351844133077455
40
0.351844133077455
40
0.381164477500577
40
0.381164477500577
40
0.410484821923698
40
0.410484821923698
40
0.46912551076994
40
0.46912551076994
40
0.527766199616182
40
0.527766199616182
40
0.557086544039303
40
0.557086544039303
40
0.564416630145084
40
0.564416630145084
40
0.571746716250864
40
0.571746716250864
40
0.586406888462425
40
0.645047577308667
40
0.645047577308667
40
0.70368826615491
40
0.70368826615491
40
0.733008610578032
40
0.747668782789593
40
0.754998868895373
40
0.754998868895373
40
0.762328955001153
40
0.762328955001153
40
0.820969643847397
40
0.820969643847397
40
0.87961033269364
40
0.87961033269364
40
0.908930677116762
40
0.908930677116762
40
0.923590849328323
40
0.923590849328323
40
0.938251021539883
40
0.938251021539883
40
0.996891710386127
40
0.996891710386127
40
1
40
1
40
1
40
1
41
1
10
19.8626305601018
20
5.64911734237981
30
0
41
1
10
19.607908995157
20
5.67705647585819
30
0
41
1
10
19.3539847108621
20
5.70953224772384
30
0
41
1
10
18.8490022033968
20
5.78372842289315
30
0
41
1
10
18.5978529642243
20
5.82546731426095
30
0
41
1
10
18.2232668895054
20
5.89516090773074
30
0
41
1
10
18.0987235824136
20
5.9195499406261
30
0
41
1
10
17.8505241127466
20
5.97077750642373
30
0
41
1
10
17.7271463662376
20
5.99757197789634
30
0
41
1
10
17.3593827472539
20
6.08173461776144
30
0
41
1
10
17.1173671759007
20
6.14289070284426
30
0
41
1
10
16.6401920496567
20
6.27537058619956
30
0
41
1
10
16.4049991444543
20
6.34663628518197
30
0
41
1
10
15.9417947412671
20
6.49878038358202
30
0
41
1
10
15.7137821030348
20
6.57966178109029
30
0
41
1
10
15.3776534646778
20
6.70797436926799
30
0
41
1
10
15.266595571618
20
6.75191272381488
30
0
41
1
10
15.0465631034489
20
6.84209026008651
30
0
41
1
10
14.9383020549704
20
6.88803757666091
30
0
41
1
10
14.6190045539277
20
7.02816314057264
30
0
41
1
10
14.4133949947119
20
7.12464666351721
30
0
41
1
10
14.0174674619648
20
7.32224926318162
30
0
41
1
10
13.8271524873184
20
7.42337476005588
30
0
41
1
10
13.5537923725737
20
7.57710653900031
30
0
41
1
10
13.4646914689416
20
7.62868725998106
30
0
41
1
10
13.35590962623
20
7.69340132879574
30
0
41
1
10
13.3342829839564
20
7.70635595529492
30
0
41
1
10
13.2912909616339
20
7.73228386814003
30
0
41
1
10
13.269907828444
20
7.74526804482528
30
0
41
1
10
13.206301090231
20
7.78415015239165
30
0
41
1
10
12.9979852504959
20
7.91322612430386
30
0
41
1
10
12.8079911967977
20
8.03913842788188
30
0
41
1
10
12.5265968851795
20
8.23385271854451
30
0
41
1
10
12.3972032611979
20
8.32784103934895
30
0
41
1
10
12.219329460855
20
8.46157558294792
30
0
41
1
10
12.1344425448775
20
8.52662725605899
30
0
41
1
10
12.042322319264
20
8.59882756835418
30
0
41
1
10
12.0043062417427
20
8.62892134810593
30
0
41
1
10
11.9792856270866
20
8.64878863835466
30
0
41
1
10
11.9669262351813
20
8.65863332023116
30
0
41
1
10
11.8574403453955
20
8.74608606498171
30
0
41
1
10
11.7724135473841
20
8.81571186347563
30
0
41
1
10
11.6236308928886
20
8.93733954385499
30
0
41
1
10
11.559885404662
20
8.98934721968334
30
0
41
1
10
11.4783728653301
20
9.05303838946966
30
0
41
1
10
11.4535588673884
20
9.07188095879727
30
0
41
1
10
11.4196933663609
20
9.09640892376066
30
0
41
1
10
11.4089644842771
20
9.10396212856716
30
0
41
1
10
11.3886004590625
20
9.11779539093303
30
0
41
1
10
11.3789800411066
20
9.12406458146688
30
0
41
1
10
11.3337778579268
20
9.15203674022021
30
0
41
1
10
11.3066508702618
20
9.16377278963412
30
0
41
1
10
11.2862916957928
20
9.16496905125291
30
0
41
1
10
11.2852887718198
20
9.16499948904882
30
0
41
1
10
11.2843076434082
20
9.16500012391933
30
0
0
SPLINE
5
11F
100
AcDbEntity
8
1
62
256
6
ByLayer
370
18
48
1
60
0
100
AcDbSpline
70
4
71
3
72
51
73
47
40
0
40
0
40
0
40
0
40
0.0112737635300576
40
0.0112737635300576
40
0.0226384329147696
40
0.0226384329147696
40
0.0453677716841932
40
0.0453677716841932
40
0.0908264492230398
40
0.0908264492230398
40
0.113555787992463
40
0.113555787992463
40
0.136285126761886
40
0.136285126761886
40
0.181743804300733
40
0.181743804300733
40
0.204473143070156
40
0.204473143070156
40
0.215837812454867
40
0.215837812454867
40
0.227202481839579
40
0.227202481839579
40
0.272661159378425
40
0.272661159378425
40
0.318119836917271
40
0.318119836917271
40
0.340849175686694
40
0.352213845071406
40
0.352213845071406
40
0.363578514456118
40
0.363578514456118
40
0.409037191994964
40
0.409037191994964
40
0.431766530764387
40
0.431766530764387
40
0.437448865456743
40
0.437448865456743
40
0.443131200149098
40
0.45449586953381
40
0.636330579689206
40
0.636330579689206
40
0.818165289844603
40
0.818165289844603
40
0.909082644922302
40
0.909082644922302
40
1
40
1
40
1
40
1
41
1
10
11.8883206048544
20
8.72062783899909
30
0
41
1
10
11.9098598870468
20
8.71336483838476
30
0
41
1
10
11.9318861476163
20
8.70610757446872
30
0
41
1
10
11.9767330727605
20
8.69167279160209
30
0
41
1
10
11.9995988382699
20
8.68448293715906
30
0
41
1
10
12.0692155392457
20
8.66309520952302
30
0
41
1
10
12.1169831387188
20
8.64907864426124
30
0
41
1
10
12.264140201896
20
8.60786152084435
30
0
41
1
10
12.3673802465066
20
8.58149757124599
30
0
41
1
10
12.5295311575178
20
8.5440976391607
30
0
41
1
10
12.5849037219186
20
8.53196634527441
30
0
41
1
10
12.6968522608229
20
8.50873114423194
30
0
41
1
10
12.7535493908003
20
8.49759697409846
30
0
41
1
10
12.9257313553568
20
8.46571275311487
30
0
41
1
10
13.0432888706286
20
8.44647066757892
30
0
41
1
10
13.223545548348
20
8.42084854329545
30
0
41
1
10
13.2842890081699
20
8.41285058994933
30
0
41
1
10
13.3763890844923
20
8.40170886677763
30
0
41
1
10
13.4072529096138
20
8.39813709404973
30
0
41
1
10
13.4693069950205
20
8.3912830066173
30
0
41
1
10
13.5005048099366
20
8.38800043508479
30
0
41
1
10
13.6565152213466
20
8.37240096642617
30
0
41
1
10
13.7820169567358
20
8.3624475013155
30
0
41
1
10
14.0343479535061
20
8.34764553297001
30
0
41
1
10
14.1611737712502
20
8.34278267291231
30
0
41
1
10
14.3523946890105
20
8.33936178156665
30
0
41
1
10
14.448252397753
20
8.33862473849877
30
0
41
1
10
14.5444830689804
20
8.33935970551636
30
0
41
1
10
14.6087204004677
20
8.34017880670811
30
0
41
1
10
14.6409242243857
20
8.34075406146587
30
0
41
1
10
14.8015073722093
20
8.34444389156005
30
0
41
1
10
14.9285691492181
20
8.34999301647161
30
0
41
1
10
15.1171151327013
20
8.36198809459742
30
0
41
1
10
15.1796370808742
20
8.36657113131452
30
0
41
1
10
15.2573331959531
20
8.37309834105938
30
0
41
1
10
15.2728411194981
20
8.37445903164587
30
0
41
1
10
15.3038627561108
20
8.37716642592477
30
0
41
1
10
15.3503917161308
20
8.38122875984109
30
0
41
1
10
15.8931534347664
20
8.42857999872396
30
0
41
1
10
16.4195163231685
20
8.47422116184757
30
0
41
1
10
17.4079770699359
20
8.55993088475827
30
0
41
1
10
17.9010410077517
20
8.60267756611429
30
0
41
1
10
18.6384427051985
20
8.66634567038065
30
0
41
1
10
18.8839007782159
20
8.68748765357844
30
0
41
1
10
19.3739722629737
20
8.72942317091361
30
0
41
1
10
19.6185324360927
20
8.75021274528899
30
0
41
1
10
19.8626305601018
20
8.77070186694678
30
0
0
SPLINE
5
120
100
AcDbEntity
8
1
62
256
6
ByLayer
370
18
48
1
60
0
100
AcDbSpline
70
4
71
3
72
8
73
4
40
0
40
0
40
0
40
0
40
1
40
1
40
1
40
1
41
1
10
20.1360794200845
20
-8.81146746286902
30
0
41
1
10
20.0453637306605
20
-8.79197904127645
30
0
41
1
10
19.9542147684882
20
-8.77838926722987
30
0
41
1
10
19.8626305601017
20
-8.77070186694695
30
0
0
SPLINE
5
121
100
AcDbEntity
8
1
62
256
6
ByLayer
370
18
48
1
60
0
100
AcDbSpline
70
4
71
3
72
8
73
4
40
0
40
0
40
0
40
0
40
1
40
1
40
1
40
1
41
1
10
19.8626305601018
20
5.64911734237981
30
0
41
1
10
19.9544518947741
20
5.63904591978107
30
0
41
1
10
20.045598043529
20
5.63160198301179
30
0
41
1
10
20.1360794200846
20
5.62672248268569
30
0
0
SPLINE
5
122
100
AcDbEntity
8
1
62
256
6
ByLayer
370
18
48
1
60
0
100
AcDbSpline
70
4
71
3
72
30
73
26
40
0
40
0
40
0
40
0
40
0.124999999999995
40
0.124999999999995
40
0.187499999999992
40
0.187499999999992
40
0.249999999999989
40
0.312499999999987
40
0.312499999999987
40
0.374999999999984
40
0.374999999999984
40
0.499999999999977
40
0.499999999999977
40
0.562499999999979
40
0.562499999999979
40
0.624999999999982
40
0.624999999999982
40
0.749999999999987
40
0.749999999999987
40
0.81249999999999
40
0.81249999999999
40
0.874999999999993
40
0.937499999999997
40
0.937499999999997
40
1
40
1
40
1
40
1
41
1
10
29.2842762740069
20
-8.19321366300784
30
0
41
1
10
29.2852849963645
20
-8.22615832878338
30
0
41
1
10
29.2829341894279
20
-8.25893062765346
30
0
41
1
10
29.2741576448136
20
-8.30780773345012
30
0
41
1
10
29.2703842363998
20
-8.32384634688336
30
0
41
1
10
29.2612388270583
20
-8.35523155087517
30
0
41
1
10
29.2504829251269
20
-8.38599038320626
30
0
41
1
10
29.2365347230492
20
-8.41549908572037
30
0
41
1
10
29.2209598915694
20
-8.44436590178759
30
0
41
1
10
29.212309907659
20
-8.45853896410992
30
0
41
1
10
29.1844127578318
20
-8.49921796405576
30
0
41
1
10
29.1631487695369
20
-8.52413025248708
30
0
41
1
10
29.127338048506
20
-8.5582184663925
30
0
41
1
10
29.1147349716668
20
-8.56903789840376
30
0
41
1
10
29.0882109401559
20
-8.58950502854856
30
0
41
1
10
29.0744919033401
20
-8.59899847448639
30
0
41
1
10
29.032018145882
20
-8.62533333075254
30
0
41
1
10
29.001958225261
20
-8.64004807480777
30
0
41
1
10
28.9542473781138
20
-8.65779679001395
30
0
41
1
10
28.9378544299555
20
-8.6629918809721
30
0
41
1
10
28.9048691485666
20
-8.67170596082647
30
0
41
1
10
28.8715300282306
20
-8.67881196854208
30
0
41
1
10
28.8375048548534
20
-8.68276951868367
30
0
41
1
10
28.8031380997546
20
-8.68514455067043
30
0
41
1
10
28.7857504639766
20
-8.6855399929411
30
0
41
1
10
28.7682593704354
20
-8.68512061807039
30
0
0
SPLINE
5
123
100
AcDbEntity
8
1
62
256
6
ByLayer
370
18
48
1
60
0
100
AcDbSpline
70
4
71
3
72
32
73
28
40
0
40
0
40
0
40
0
40
0.124999999999997
40
0.124999999999997
40
0.187499999999995
40
0.187499999999995
40
0.218749999999995
40
0.218749999999995
40
0.249999999999995
40
0.249999999999995
40
0.374999999999997
40
0.374999999999997
40
0.437500000000001
40
0.437500000000001
40
0.500000000000005
40
0.500000000000005
40
0.625000000000013
40
0.625000000000013
40
0.687500000000012
40
0.687500000000012
40
0.750000000000011
40
0.750000000000011
40
0.875000000000011
40
0.875000000000011
40
0.937500000000005
40
0.937500000000005
40
1
40
1
40
1
40
1
41
1
10
29.2842762740065
20
5.32120767950644
30
0
41
1
10
29.2852776009489
20
5.33257276114895
30
0
41
1
10
29.2829548480267
20
5.34383927676052
30
0
41
1
10
29.2746446486871
20
5.36059593993301
30
0
41
1
10
29.2710647773921
20
5.36615748072586
30
0
41
1
10
29.2644508965096
20
5.37446289987082
30
0
41
1
10
29.2620385776688
20
5.37722521397873
30
0
41
1
10
29.2567891900822
20
5.38273724644102
30
0
41
1
10
29.2539449999613
20
5.38549257588565
30
0
41
1
10
29.2387918432027
20
5.39909976228188
30
0
41
1
10
29.2236424806688
20
5.40953532313509
30
0
41
1
10
29.1964099951248
20
5.42451810990892
30
0
41
1
10
29.1865761406741
20
5.42939987654233
30
0
41
1
10
29.1653373586493
20
5.43892973905162
30
0
41
1
10
29.1538753781627
20
5.4435951942377
30
0
41
1
10
29.1178155986836
20
5.45692734533696
30
0
41
1
10
29.0913888889888
20
5.46502815915522
30
0
41
1
10
29.0481271850098
20
5.47598481239305
30
0
41
1
10
29.0330989527074
20
5.47943659718274
30
0
41
1
10
29.0017654004232
20
5.48591893119826
30
0
41
1
10
28.9856610277116
20
5.48890604762744
30
0
41
1
10
28.9364347864394
20
5.49705215946301
30
0
41
1
10
28.9022529811084
20
5.50143646050785
30
0
41
1
10
28.8488720700704
20
5.50639590881258
30
0
41
1
10
28.8306636671654
20
5.5077790363047
30
0
41
1
10
28.7941432267886
20
5.50993886997986
30
0
41
1
10
28.7757679195204
20
5.51072340636728
30
0
41
1
10
28.7572763840334
20
5.51120963426919
30
0
0
SPLINE
5
124
100
AcDbEntity
8
1
62
256
6
ByLayer
370
18
48
1
60
0
100
AcDbSpline
70
4
71
3
72
8
73
4
40
0
40
0
40
0
40
0
40
1
40
1
40
1
40
1
41
1
10
28.7572763840335
20
-8.68478589017255
30
0
41
1
10
28.7609457778073
20
-8.68492155457301
30
0
41
1
10
28.7646067487958
20
-8.6850330410573
30
0
41
1
10
28.7682593704354
20
-8.68512061807039
30
0
0
SPLINE
5
125
100
AcDbEntity
8
1
62
256
6
ByLayer
370
18
48
1
60
0
100
AcDbSpline
70
4
71
3
72
18
73
14
40
0
40
0
40
0
40
0
40
0.249999999999988
40
0.249999999999988
40
0.499999999999977
40
0.499999999999977
40
0.624999999999971
40
0.624999999999971
40
0.687499999999975
40
0.687499999999975
40
0.74999999999998
40
0.74999999999998
40
1
40
1
40
1
40
1
41
1
10
21.028614502037
20
-8.95683161924691
30
0
41
1
10
20.9755675801302
20
-8.9454866511131
30
0
41
1
10
20.9220917151617
20
-8.93498887389029
30
0
41
1
10
20.8143045238229
20
-8.915696035651
30
0
41
1
10
20.7599930995574
20
-8.90690102348927
30
0
41
1
10
20.6778798355802
20
-8.89504414020851
30
0
41
1
10
20.650400697111
20
-8.8913149834288
30
0
41
1
10
20.6090139198833
20
-8.88606858837827
30
0
41
1
10
20.5951675566501
20
-8.88437519711539
30
0
41
1
10
20.5676113813271
20
-8.88112913150209
30
0
41
1
10
20.553884859442
20
-8.87957413252076
30
0
41
1
10
20.4855085043196
20
-8.87213607372453
30
0
41
1
10
20.431623335146
20
-8.86726058301946
30
0
41
1
10
20.3785670279166
20
-8.86344530951388
30
0
0
SPLINE
5
126
100
AcDbEntity
8
1
62
256
6
ByLayer
370
18
48
1
60
0
100
AcDbSpline
70
4
71
3
72
12
73
8
40
0
40
0
40
0
40
0
40
0.532303576898986
40
0.532303576898986
40
0.798455365348479
40
0.798455365348479
40
1
40
1
40
1
40
1
41
1
10
21.4553421615944
20
-8.64830939052641
30
0
41
1
10
21.3732769074112
20
-8.70737831873649
30
0
41
1
10
21.2954413845434
20
-8.76250990991045
30
0
41
1
10
21.1875241898175
20
-8.83952013430888
30
0
41
1
10
21.1530407992525
20
-8.86424418311415
30
0
41
1
10
21.0957010527897
20
-8.90609243352432
30
0
41
1
10
21.0720501452548
20
-8.92360401665684
30
0
41
1
10
21.0496996606697
20
-8.9406198243698
30
0
0
SPLINE
5
127
100
AcDbEntity
8
1
62
256
6
ByLayer
370
18
48
1
60
0
100
AcDbSpline
70
4
71
3
72
63
73
59
40
0
40
0
40
0
40
0
40
0.0156249999999991
40
0.0156249999999991
40
0.0312499999999981
40
0.0312499999999981
40
0.0624999999999968
40
0.0624999999999968
40
0.124999999999992
40
0.124999999999992
40
0.156249999999989
40
0.156249999999989
40
0.187499999999987
40
0.187499999999987
40
0.249999999999981
40
0.249999999999981
40
0.26562499999998
40
0.26562499999998
40
0.281249999999978
40
0.281249999999978
40
0.312499999999977
40
0.312499999999977
40
0.374999999999973
40
0.374999999999973
40
0.390624999999973
40
0.390624999999973
40
0.406249999999972
40
0.406249999999972
40
0.437499999999972
40
0.468749999999971
40
0.468749999999971
40
0.499999999999971
40
0.499999999999971
40
0.562499999999968
40
0.562499999999968
40
0.593749999999968
40
0.593749999999968
40
0.609374999999969
40
0.609374999999969
40
0.62499999999997
40
0.62499999999997
40
0.687499999999978
40
0.687499999999978
40
0.703124999999979
40
0.703124999999979
40
0.718749999999981
40
0.749999999999983
40
0.781249999999986
40
0.781249999999986
40
0.812499999999989
40
0.812499999999989
40
0.87499999999999
40
0.87499999999999
40
0.906249999999993
40
0.906249999999993
40
0.937499999999995
40
0.937499999999995
40
1
40
1
40
1
40
1
41
1
10
21.4553421615944
20
-8.64830939052641
30
0
41
1
10
21.4437429930903
20
-8.64216677515341
30
0
41
1
10
21.4323626967148
20
-8.63592837578304
30
0
41
1
10
21.4100517761802
20
-8.62325027431885
30
0
41
1
10
21.3991243704365
20
-8.61681090374401
30
0
41
1
10
21.3673414418541
20
-8.59736897949875
30
0
41
1
10
21.3473730425496
20
-8.58418139453116
30
0
41
1
10
21.2911001411311
20
-8.5438931761195
30
0
41
1
10
21.2584000243725
20
-8.51607180797518
30
0
41
1
10
21.2169323377613
20
-8.47263818409468
30
0
41
1
10
21.2043634996473
20
-8.45785325026984
30
0
41
1
10
21.1819910538106
20
-8.42774719663245
30
0
41
1
10
21.1723354987502
20
-8.41263080885096
30
0
41
1
10
21.1478911471475
20
-8.36706700706745
30
0
41
1
10
21.1375850161829
20
-8.33640320229446
30
0
41
1
10
21.1325271734229
20
-8.29766053348885
30
0
41
1
10
21.1319100116789
20
-8.28989149564586
30
0
41
1
10
21.1314866506051
20
-8.27431166291794
30
0
41
1
10
21.1316819209424
20
-8.26648400521049
30
0
41
1
10
21.1335173013149
20
-8.2430541533727
30
0
41
1
10
21.1363864099884
20
-8.22763238913043
30
0
41
1
10
21.1498469261546
20
-8.18197324950359
30
0
41
1
10
21.1652444223336
20
-8.15233112261899
30
0
41
1
10
21.1929288420238
20
-8.11646691514699
30
0
41
1
10
21.1988913758318
20
-8.10935436653673
30
0
41
1
10
21.2116942604765
20
-8.09525847544199
30
0
41
1
10
21.2185069545373
20
-8.08830821369244
30
0
41
1
10
21.2400243917238
20
-8.06789974477459
30
0
41
1
10
21.2716958078272
20
-8.04174482930333
30
0
41
1
10
21.3092367081071
20
-8.01776008208816
30
0
41
1
10
21.3497471293299
20
-7.99492288968719
30
0
41
1
10
21.3715265088829
20
-7.98406056700964
30
0
41
1
10
21.4412496614203
20
-7.95345177468835
30
0
41
1
10
21.4921346846547
20
-7.9362687307007
30
0
41
1
10
21.5746634322967
20
-7.91533418234729
30
0
41
1
10
21.6032137987184
20
-7.90916741440134
30
0
41
1
10
21.6476103498963
20
-7.90117608761275
30
0
41
1
10
21.6626732068217
20
-7.89872397307019
30
0
41
1
10
21.6929882727737
20
-7.89429289688635
30
0
41
1
10
21.7082812902682
20
-7.89230612133611
30
0
41
1
10
21.7854025602759
20
-7.88349286453848
30
0
41
1
10
21.8491836856258
20
-7.88000735335083
30
0
41
1
10
21.9313468130115
20
-7.87996302698014
30
0
41
1
10
21.9479325114274
20
-7.88017191766474
30
0
41
1
10
21.9812053777285
20
-7.88102070782037
30
0
41
1
10
22.0311356067196
20
-7.8829348522747
30
0
41
1
10
22.1144514384567
20
-7.88921744511876
30
0
41
1
10
22.1812019714665
20
-7.89737221906438
30
0
41
1
10
22.2479999202871
20
-7.90703721515897
30
0
41
1
10
22.2814788551848
20
-7.91263567685104
30
0
41
1
10
22.3816257924101
20
-7.93158580240711
30
0
41
1
10
22.4469606955288
20
-7.9468674518956
30
0
41
1
10
22.5430374884081
20
-7.97330178036324
30
0
41
1
10
22.5747401287543
20
-7.98270197937833
30
0
41
1
10
22.6375145335753
20
-8.00263910712235
30
0
41
1
10
22.6686183003549
20
-8.01318767391652
30
0
41
1
10
22.7607817464657
20
-8.04643417757447
30
0
41
1
10
22.8200653984245
20
-8.0704865679636
30
0
41
1
10
22.87725112661
20
-8.09628588034329
30
0
0
SPLINE
5
128
100
AcDbEntity
8
1
62
256
6
ByLayer
370
18
48
1
60
0
100
AcDbSpline
70
4
71
3
72
24
73
20
40
0
40
0
40
0
40
0
40
0.124999999999997
40
0.124999999999997
40
0.187499999999997
40
0.187499999999997
40
0.249999999999997
40
0.249999999999997
40
0.374999999999998
40
0.374999999999998
40
0.499999999999998
40
0.499999999999998
40
0.624999999999998
40
0.624999999999998
40
0.749999999999999
40
0.749999999999999
40
0.874999999999999
40
0.874999999999999
40
1
40
1
40
1
40
1
41
1
10
22.87725112661
20
5.61008120322074
30
0
41
1
10
22.7626288328826
20
5.60782332217008
30
0
41
1
10
22.6480996422028
20
5.60650358773776
30
0
41
1
10
22.4762318503712
20
5.60371752343002
30
0
41
1
10
22.4189278170711
20
5.60263111321098
30
0
41
1
10
22.3043141337683
20
5.600416279059
30
0
41
1
10
22.2470046969429
20
5.59928183269537
30
0
41
1
10
22.0750875458654
20
5.59595604983676
30
0
41
1
10
21.9604890133916
20
5.59382667076684
30
0
41
1
10
21.7314492128889
20
5.5908261538259
30
0
41
1
10
21.6170132958278
20
5.58999874196056
30
0
41
1
10
21.3883319798922
20
5.58984444039478
30
0
41
1
10
21.2740856852404
20
5.59051027278517
30
0
41
1
10
21.0458088834573
20
5.59350811104625
30
0
41
1
10
20.9317819084655
20
5.59586876817374
30
0
41
1
10
20.7039517576761
20
5.60226725739901
30
0
41
1
10
20.5901693106132
20
5.60620526140724
30
0
41
1
10
20.3628953758433
20
5.615380165434
30
0
41
1
10
20.2493943766963
20
5.62061160784285
30
0
41
1
10
20.1360794200846
20
5.62672248268569
30
0
0
SPLINE
5
129
100
AcDbEntity
8
1
62
256
6
ByLayer
370
18
48
1
60
0
100
AcDbSpline
70
4
71
3
72
8
73
4
40
0
40
0
40
0
40
0
40
1
40
1
40
1
40
1
41
1
10
20.1360794200845
20
-8.81146746286902
30
0
41
1
10
20.2169450506752
20
-8.8288397995762
30
0
41
1
10
20.2977717875989
20
-8.84616854692081
30
0
41
1
10
20.3785670279165
20
-8.86344530951393
30
0
0
SPLINE
5
12A
100
AcDbEntity
8
1
62
256
6
ByLayer
370
18
48
1
60
0
100
AcDbSpline
70
4
71
3
72
10
73
6
40
0
40
0
40
0
40
0
40
0.5
40
0.5
40
1
40
1
40
1
40
1
41
1
10
22.8772511266099
20
-8.09628588034329
30
0
41
1
10
22.9279499993949
20
-8.11915865118633
30
0
41
1
10
22.9760349306429
20
-8.14165005627822
30
0
41
1
10
23.0667808721653
20
-8.18681140162496
30
0
41
1
10
23.1094445987424
20
-8.20947714411429
30
0
41
1
10
23.1491706563353
20
-8.23269725811559
30
0
0
SPLINE
5
12B
100
AcDbEntity
8
1
62
256
6
ByLayer
370
18
48
1
60
0
100
AcDbSpline
70
4
71
3
72
8
73
4
40
0
40
0
40
0
40
0
40
1
40
1
40
1
40
1
41
1
10
23.1491706563354
20
5.61053628114141
30
0
41
1
10
23.0579882255166
20
5.612070398924
30
0
41
1
10
22.9673459981202
20
5.61185593217206
30
0
41
1
10
22.87725112661
20
5.61008120322074
30
0
0
SPLINE
5
12C
100
AcDbEntity
8
1
62
256
6
ByLayer
370
18
48
1
60
0
100
AcDbSpline
70
4
71
3
72
46
73
42
40
0
40
0
40
0
40
0
40
0.0625000000000088
40
0.125000000000018
40
0.125000000000018
40
0.156250000000022
40
0.156250000000022
40
0.171875000000024
40
0.171875000000024
40
0.187500000000027
40
0.250000000000026
40
0.312500000000025
40
0.312500000000025
40
0.343750000000024
40
0.343750000000024
40
0.375000000000023
40
0.375000000000023
40
0.437500000000022
40
0.437500000000022
40
0.46875000000002
40
0.48437500000002
40
0.48437500000002
40
0.500000000000019
40
0.500000000000019
40
0.562500000000018
40
0.562500000000018
40
0.625000000000017
40
0.625000000000017
40
0.656250000000016
40
0.656250000000016
40
0.687500000000014
40
0.687500000000014
40
0.750000000000011
40
0.750000000000011
40
0.875000000000007
40
0.875000000000007
40
0.906250000000005
40
0.906250000000005
40
0.937500000000003
40
0.937500000000003
40
1
40
1
40
1
40
1
41
1
10
26.3327533109601
20
-2.5245134011229
30
0
41
1
10
26.3983918184257
20
-2.52128687932716
30
0
41
1
10
26.5286320417334
20
-2.52275169953646
30
0
41
1
10
26.6568296726647
20
-2.53980294531766
30
0
41
1
10
26.7521894782048
20
-2.55857524101455
30
0
41
1
10
26.7838443222813
20
-2.565832400977
30
0
41
1
10
26.8311226637759
20
-2.57825876510225
30
0
41
1
10
26.8468730043335
20
-2.58266586482961
30
0
41
1
10
26.8780943380586
20
-2.59193813447237
30
0
41
1
10
26.955538705759
20
-2.6162863033255
30
0
41
1
10
27.0895516180988
20
-2.67042382332991
30
0
41
1
10
27.2011687665573
20
-2.73277842242621
30
0
41
1
10
27.2820128661255
20
-2.78492204836465
30
0
41
1
10
27.3085609217844
20
-2.80326551526807
30
0
41
1
10
27.3600195748538
20
-2.84127346251538
30
0
41
1
10
27.3849909663661
20
-2.86096925821553
30
0
41
1
10
27.4577023091466
20
-2.9220502440412
30
0
41
1
10
27.5032453452201
20
-2.96542368350867
30
0
41
1
10
27.5673241056099
20
-3.03424811655236
30
0
41
1
10
27.5983021937577
20
-3.06960353350044
30
0
41
1
10
27.627699137906
20
-3.10635086446854
30
0
41
1
10
27.6469457115955
20
-3.13115693404834
30
0
41
1
10
27.656404104083
20
-3.14372942571356
30
0
41
1
10
27.702558896377
20
-3.20699622135845
30
0
41
1
10
27.7360299466492
20
-3.25911054856775
30
0
41
1
10
27.7966309722833
20
-3.36600369720085
30
0
41
1
10
27.8237584777454
20
-3.42078380270479
30
0
41
1
10
27.8599555897028
20
-3.50477916441019
30
0
41
1
10
27.8712708605792
20
-3.53308250696037
30
0
41
1
10
27.8924296773658
20
-3.590277068734
30
0
41
1
10
27.9022443160482
20
-3.61910129400834
30
0
41
1
10
27.9292828917182
20
-3.70554625539404
30
0
41
1
10
27.9442073111179
20
-3.76340090817129
30
0
41
1
10
27.9805710735294
20
-3.93746751575765
30
0
41
1
10
27.993659252948
20
-4.05417277481502
30
0
41
1
10
27.9978280463161
20
-4.20051111774367
30
0
41
1
10
27.9980466487793
20
-4.22983850821808
30
0
41
1
10
27.9972836718907
20
-4.28836232874011
30
0
41
1
10
27.9963045136637
20
-4.31750954456262
30
0
41
1
10
27.9916509155707
20
-4.4046141022458
30
0
41
1
10
27.9862637596561
20
-4.46223460965197
30
0
41
1
10
27.9787501860438
20
-4.51942106149127
30
0
0
SPLINE
5
12D
100
AcDbEntity
8
1
62
256
6
ByLayer
370
18
48
1
60
0
100
AcDbSpline
70
4
71
3
72
33
73
29
40
0
40
0
40
0
40
0
40
0.124999999999998
40
0.124999999999998
40
0.187499999999996
40
0.187499999999996
40
0.218749999999996
40
0.218749999999996
40
0.249999999999995
40
0.249999999999995
40
0.374999999999993
40
0.374999999999993
40
0.406249999999995
40
0.406249999999995
40
0.437499999999997
40
0.437499999999997
40
0.499999999999997
40
0.499999999999997
40
0.624999999999996
40
0.624999999999996
40
0.656249999999997
40
0.656249999999997
40
0.687499999999998
40
0.749999999999997
40
0.749999999999997
40
0.874999999999999
40
0.874999999999999
40
1
40
1
40
1
40
1
41
1
10
26.33275331096
20
-6.77803149172448
30
0
41
1
10
26.4406253467253
20
-6.76315521205535
30
0
41
1
10
26.5446455180003
20
-6.74040037834175
30
0
41
1
10
26.695361478087
20
-6.69514136141677
30
0
41
1
10
26.7447072180584
20
-6.67818407050976
30
0
41
1
10
26.8173879107247
20
-6.64989559951033
30
0
41
1
10
26.8414535390002
20
-6.6399620837835
30
0
41
1
10
26.888807931438
20
-6.61926980961064
30
0
41
1
10
26.9120651651625
20
-6.60852856461815
30
0
41
1
10
27.0263241673461
20
-6.55288972915855
30
0
41
1
10
27.1112903035626
20
-6.5022390499671
30
0
41
1
10
27.2100868020087
20
-6.4314371231018
30
0
41
1
10
27.2294728616597
20
-6.41689966289562
30
0
41
1
10
27.2675046771172
20
-6.3870653518141
30
0
41
1
10
27.2861723097163
20
-6.37174702042068
30
0
41
1
10
27.3406193885534
20
-6.3250417935669
30
0
41
1
10
27.3749966000291
20
-6.29279491155
30
0
41
1
10
27.4727610970611
20
-6.19282457568823
30
0
41
1
10
27.5308074622903
20
-6.12188462977721
30
0
41
1
10
27.5952414202482
20
-6.02792229003944
30
0
41
1
10
27.6077428471212
20
-6.00882642226324
30
0
41
1
10
27.6318042264499
20
-5.97032450137937
30
0
41
1
10
27.6664865221576
20
-5.91211502537695
30
0
41
1
10
27.6971346218059
20
-5.85255977903972
30
0
41
1
10
27.7534621238914
20
-5.73169934962172
30
0
41
1
10
27.7844109337958
20
-5.64879662215935
30
0
41
1
10
27.8345894214826
20
-5.47844227410877
30
0
41
1
10
27.8538108162155
20
-5.39098944867607
30
0
41
1
10
27.8675933998479
20
-5.30125466387875
30
0
0
SPLINE
5
12E
100
AcDbEntity
8
1
62
256
6
ByLayer
370
18
48
1
60
0
100
AcDbSpline
70
4
71
3
72
8
73
4
40
0
40
0
40
0
40
0
40
1
40
1
40
1
40
1
41
1
10
26.3327533109601
20
-8.58881500734174
30
0
41
1
10
27.1414552067337
20
-8.62292173742924
30
0
41
1
10
27.9496900596439
20
-8.65492790237482
30
0
41
1
10
28.7572763840334
20
-8.68478589017226
30
0
0
SPLINE
5
12F
100
AcDbEntity
8
1
62
256
6
ByLayer
370
18
48
1
60
0
100
AcDbSpline
70
4
71
3
72
12
73
8
40
0
40
0
40
0
40
0
40
0.161274571000189
40
0.161274571000189
40
0.806372855004779
40
0.806372855004779
40
1
40
1
40
1
40
1
41
1
10
28.7572763840334
20
5.51120963426916
30
0
41
1
10
28.6269384150754
20
5.51463682165607
30
0
41
1
10
28.4966004453072
20
5.51806399955467
30
0
41
1
10
27.8449105928757
20
5.53519997536134
30
0
41
1
10
27.3235586994786
20
5.54890903984517
30
0
41
1
10
26.6457223042829
20
5.56673538505999
30
0
41
1
10
26.4892378079481
20
5.57085096233851
30
0
41
1
10
26.3327533109601
20
5.57496667345248
30
0
0
SPLINE
5
130
100
AcDbEntity
8
1
62
256
6
ByLayer
370
18
48
1
60
0
100
AcDbSpline
70
4
71
3
72
40
73
36
40
0
40
0
40
0
40
0
40
0.124999999999996
40
0.124999999999996
40
0.187499999999994
40
0.187499999999994
40
0.218749999999993
40
0.218749999999993
40
0.249999999999991
40
0.249999999999991
40
0.37499999999999
40
0.37499999999999
40
0.437499999999991
40
0.437499999999991
40
0.468749999999991
40
0.468749999999991
40
0.499999999999991
40
0.499999999999991
40
0.624999999999993
40
0.624999999999993
40
0.687499999999992
40
0.687499999999992
40
0.718749999999992
40
0.718749999999992
40
0.749999999999992
40
0.749999999999992
40
0.812499999999995
40
0.812499999999995
40
0.874999999999997
40
0.874999999999997
40
0.9375
40
0.9375
40
0.96875
40
0.96875
40
1
40
1
40
1
40
1
41
1
10
24.4406128335511
20
-4.49916810460701
30
0
41
1
10
24.4552129751994
20
-4.38780013144358
30
0
41
1
10
24.4771400892268
20
-4.27663032984171
30
0
41
1
10
24.5217879148939
20
-4.11043287710243
30
0
41
1
10
24.5386381414254
20
-4.05512804731873
30
0
41
1
10
24.5670446649524
20
-3.97236050988377
30
0
41
1
10
24.5770360143579
20
-3.94480307273611
30
0
41
1
10
24.5981023309024
20
-3.889761410944
30
0
41
1
10
24.6091856908067
20
-3.86226325692999
30
0
41
1
10
24.666961773316
20
-3.72601573367885
30
0
41
1
10
24.7209858397864
20
-3.62015794084599
30
0
41
1
10
24.8145739040566
20
-3.46678539715333
30
0
41
1
10
24.8478703067054
20
-3.41656781722008
30
0
41
1
10
24.9011644928127
20
-3.34273792530993
30
0
41
1
10
24.9194882282052
20
-3.31837776857762
30
0
41
1
10
24.9572971796807
20
-3.27018534383223
30
0
41
1
10
24.9768032263911
20
-3.24632866971984
30
0
41
1
10
25.077143219484
20
-3.12870799098511
30
0
41
1
10
25.1647467961732
20
-3.04173830333642
30
0
41
1
10
25.3078025094868
20
-2.92299489482869
30
0
41
1
10
25.3574389137368
20
-2.8853750400016
30
0
41
1
10
25.4350119602056
20
-2.83212750486669
30
0
41
1
10
25.4613902825675
20
-2.81490963448283
30
0
41
1
10
25.5152330393508
20
-2.78159001476311
30
0
41
1
10
25.5425904854042
20
-2.76555900102949
30
0
41
1
10
25.6253853517642
20
-2.71971573839031
30
0
41
1
10
25.6817775028058
20
-2.69200169475943
30
0
41
1
10
25.7969806229972
20
-2.64238309990594
30
0
41
1
10
25.8557911190472
20
-2.62047735801846
30
0
41
1
10
25.9759325297188
20
-2.58275933175739
30
0
41
1
10
26.0372624246478
20
-2.56694456943311
30
0
41
1
10
26.1312954843596
20
-2.54817364400449
30
0
41
1
10
26.1630281821101
20
-2.54274092078563
30
0
41
1
10
26.2266162552883
20
-2.53369228100837
30
0
41
1
10
26.2585345401459
20
-2.53006108104472
30
0
41
1
10
26.2905795635433
20
-2.52734181727163
30
0
0
SPLINE
5
131
100
AcDbEntity
8
1
62
256
6
ByLayer
370
18
48
1
60
0
100
AcDbSpline
70
4
71
3
72
20
73
16
40
0
40
0
40
0
40
0
40
0.250000000000002
40
0.250000000000002
40
0.375000000000001
40
0.375000000000001
40
0.5
40
0.5
40
0.5625
40
0.5625
40
0.624999999999999
40
0.624999999999999
40
0.749999999999998
40
0.749999999999998
40
1
40
1
40
1
40
1
41
1
10
26.2905795635433
20
5.57578807810069
30
0
41
1
10
26.0288037870855
20
5.57910164143127
30
0
41
1
10
25.7670280151579
20
5.5824137737026
30
0
41
1
10
25.3743641568183
20
5.58736884020914
30
0
41
1
10
25.2434761413718
20
5.58901680419922
30
0
41
1
10
24.9817001421684
20
5.59231353599193
30
0
41
1
10
24.8508132445686
20
5.59401932874175
30
0
41
1
10
24.6544803066843
20
5.59644130907128
30
0
41
1
10
24.5890351446003
20
5.59720393252715
30
0
41
1
10
24.4581406145365
20
5.59850828050114
30
0
41
1
10
24.3926915733937
20
5.59907106086155
30
0
41
1
10
24.1963420501501
20
5.60060305899208
30
0
41
1
10
24.0654393599122
20
5.60142005134247
30
0
41
1
10
23.6727346106381
20
5.60409609764938
30
0
41
1
10
23.4109351555044
20
5.60613216985129
30
0
41
1
10
23.1491706563354
20
5.61053628114141
30
0
0
SPLINE
5
132
100
AcDbEntity
8
1
62
256
6
ByLayer
370
18
48
1
60
0
100
AcDbSpline
70
4
71
3
72
10
73
6
40
0
40
0
40
0
40
0
40
0.5
40
0.5
40
1
40
1
40
1
40
1
41
1
10
23.1491706563353
20
-8.23269725811559
30
0
41
1
10
23.1881571660363
20
-8.25548510203018
30
0
41
1
10
23.2237555117082
20
-8.27906890638764
30
0
41
1
10
23.2882337191537
20
-8.32765289663055
30
0
41
1
10
23.3171153053168
20
-8.3526532709397
30
0
41
1
10
23.342424733145
20
-8.37833848645695
30
0
0
SPLINE
5
133
100
AcDbEntity
8
1
62
256
6
ByLayer
370
18
48
1
60
0
100
AcDbSpline
70
4
71
3
72
8
73
4
40
0
40
0
40
0
40
0
40
1
40
1
40
1
40
1
41
1
10
23.342424733145
20
-8.37833848645695
30
0
41
1
10
24.3259483428669
20
-8.44810303314051
30
0
41
1
10
25.3085824875188
20
-8.51799801520039
30
0
41
1
10
26.2905795635433
20
-8.58645515197398
30
0
0
SPLINE
5
134
100
AcDbEntity
8
1
62
256
6
ByLayer
370
18
48
1
60
0
100
AcDbSpline
70
4
71
3
72
50
73
46
40
0
40
0
40
0
40
0
40
0.125000000000002
40
0.125000000000002
40
0.250000000000004
40
0.250000000000004
40
0.281250000000005
40
0.281250000000005
40
0.312500000000006
40
0.312500000000006
40
0.375000000000008
40
0.375000000000008
40
0.43750000000001
40
0.43750000000001
40
0.468750000000011
40
0.468750000000011
40
0.484375000000012
40
0.484375000000012
40
0.500000000000012
40
0.562500000000014
40
0.562500000000014
40
0.625000000000016
40
0.625000000000016
40
0.640625000000016
40
0.640625000000016
40
0.656250000000015
40
0.656250000000015
40
0.687500000000013
40
0.687500000000013
40
0.750000000000005
40
0.750000000000005
40
0.812499999999997
40
0.812499999999997
40
0.828124999999996
40
0.828124999999996
40
0.843749999999995
40
0.874999999999996
40
0.874999999999996
40
0.937499999999998
40
0.937499999999998
40
0.953124999999999
40
0.953124999999999
40
0.968749999999999
40
0.968749999999999
40
1
40
1
40
1
40
1
41
1
10
24.4207662643051
20
-4.6483230583722
30
0
41
1
10
24.4024084036607
20
-4.78426600519393
30
0
41
1
10
24.3932282472261
20
-4.91820460190428
30
0
41
1
10
24.3952860912821
20
-5.18208521388428
30
0
41
1
10
24.4064838461714
20
-5.31202727955088
30
0
41
1
10
24.436003976005
20
-5.4719446000033
30
0
41
1
10
24.4427115437303
20
-5.50387878501755
30
0
41
1
10
24.4576928932705
20
-5.56705127651699
30
0
41
1
10
24.4659598584917
20
-5.59828231438931
30
0
41
1
10
24.493159735515
20
-5.69090845849271
30
0
41
1
10
24.5144851068697
20
-5.75123818446315
30
0
41
1
10
24.5640323338276
20
-5.86901369899874
30
0
41
1
10
24.5922511355643
20
-5.92646012443535
30
0
41
1
10
24.640315940185
20
-6.01039233679919
30
0
41
1
10
24.6572958110662
20
-6.03799632763631
30
0
41
1
10
24.6842985630373
20
-6.07882711166488
30
0
41
1
10
24.6935663884399
20
-6.09235617954141
30
0
41
1
10
24.7125206872342
20
-6.1190668830171
30
0
41
1
10
24.7610048177652
20
-6.18505342662203
30
0
41
1
10
24.8150112496939
20
-6.24711540479902
30
0
41
1
10
24.9089389930558
20
-6.34135505015053
30
0
41
1
10
24.95965711584
20
-6.38594727668843
30
0
41
1
10
25.0282320076274
20
-6.43839147673401
30
0
41
1
10
25.0422068544398
20
-6.44871496426984
30
0
41
1
10
25.0706928896024
20
-6.46902539039979
30
0
41
1
10
25.0852039433559
20
-6.47901024704004
30
0
41
1
10
25.1291944205215
20
-6.50821217989278
30
0
41
1
10
25.159247033821
20
-6.52676212210361
30
0
41
1
10
25.2515884466596
20
-6.57970642826308
30
0
41
1
10
25.3160517241407
20
-6.61140696333399
30
0
41
1
10
25.4510176247355
20
-6.66761121857962
30
0
41
1
10
25.5215158821974
20
-6.6921195765444
30
0
41
1
10
25.613770075172
20
-6.71798949536819
30
0
41
1
10
25.6324072866291
20
-6.72291620485581
30
0
41
1
10
25.6697329645128
20
-6.73219382343819
30
0
41
1
10
25.725930063233
20
-6.74528377407145
30
0
41
1
10
25.7827465644991
20
-6.75593336779971
30
0
41
1
10
25.8971998738055
20
-6.77403002712961
30
0
41
1
10
25.9745915353414
20
-6.781843861971
30
0
41
1
10
26.0727363356953
20
-6.78618453454996
30
0
41
1
10
26.0924358955717
20
-6.78677980125644
30
0
41
1
10
26.1319787274578
20
-6.7874153187058
30
0
41
1
10
26.1518532282897
20
-6.78745489009145
30
0
41
1
10
26.2114123425656
20
-6.78672809348643
30
0
41
1
10
26.251036750879
20
-6.78512217100618
30
0
41
1
10
26.2905795635433
20
-6.78239337945647
30
0
0
SPLINE
5
135
100
AcDbEntity
8
1
62
256
6
ByLayer
370
18
48
1
60
0
100
AcDbSpline
70
4
71
3
72
8
73
4
40
0
40
0
40
0
40
0
40
1
40
1
40
1
40
1
41
1
10
26.2905795635433
20
-2.5273418172716
30
0
41
1
10
26.3046218274707
20
-2.52615022445806
30
0
41
1
10
26.3186795989727
20
-2.52520520750647
30
0
41
1
10
26.3327533109601
20
-2.52451340112287
30
0
0
SPLINE
5
136
100
AcDbEntity
8
1
62
256
6
ByLayer
370
18
48
1
60
0
100
AcDbSpline
70
4
71
3
72
8
73
4
40
0
40
0
40
0
40
0
40
1
40
1
40
1
40
1
41
1
10
26.3327533109601
20
5.57496667345248
30
0
41
1
10
26.3187005378449
20
5.57533627654803
30
0
41
1
10
26.304642621462
20
5.57561006761529
30
0
41
1
10
26.2905795635433
20
5.57578807810069
30
0
0
SPLINE
5
137
100
AcDbEntity
8
1
62
256
6
ByLayer
370
18
48
1
60
0
100
AcDbSpline
70
4
71
3
72
30
73
26
40
0
40
0
40
0
40
0
40
0.0312499999999964
40
0.0312499999999964
40
0.0624999999999928
40
0.0624999999999928
40
0.124999999999991
40
0.124999999999991
40
0.187499999999989
40
0.187499999999989
40
0.249999999999988
40
0.249999999999988
40
0.374999999999989
40
0.374999999999989
40
0.437499999999989
40
0.437499999999989
40
0.49999999999999
40
0.49999999999999
40
0.624999999999992
40
0.624999999999992
40
0.749999999999995
40
0.749999999999995
40
0.874999999999997
40
0.874999999999997
40
1
40
1
40
1
40
1
41
1
10
7.75000000000003
20
5.3965266607328
30
0
41
1
10
7.75474831937635
20
5.3965266607328
30
0
41
1
10
7.75950808958993
20
5.39627634592864
30
0
41
1
10
7.76905105719786
20
5.3952635015273
30
0
41
1
10
7.77380570367922
20
5.39450023902964
30
0
41
1
10
7.78770585324415
20
5.39153766418511
30
0
41
1
10
7.79665036570808
20
5.38864453162628
30
0
41
1
10
7.81378408320376
20
5.381325729548
30
0
41
1
10
7.82176241787957
20
5.37700159072602
30
0
41
1
10
7.83680107148305
20
5.36731202527918
30
0
41
1
10
7.84389523732003
20
5.36191076508078
30
0
41
1
10
7.8637545771418
20
5.34460901598723
30
0
41
1
10
7.87494720315976
20
5.33185064429182
30
0
41
1
10
7.88970091697044
20
5.31147454950911
30
0
41
1
10
7.89428306993258
20
5.30444435850225
30
0
41
1
10
7.90276071932419
20
5.29013081200699
30
0
41
1
10
7.90664466369356
20
5.28287315182254
30
0
41
1
10
7.91739161848255
20
5.26083879501726
30
0
41
1
10
7.92335880537735
20
5.24580310513576
30
0
41
1
10
7.93338186967176
20
5.2151627446674
30
0
41
1
10
7.93743263315963
20
5.19955356522496
30
0
41
1
10
7.94384141753323
20
5.16783241372317
30
0
41
1
10
7.94616641593959
20
5.15188116863297
30
0
41
1
10
7.94924637692125
20
5.11980925719857
30
0
41
1
10
7.95000000000002
20
5.1037247541864
30
0
41
1
10
7.95000000000002
20
5.08748464371143
30
0
0
SPLINE
5
138
100
AcDbEntity
8
1
62
256
6
ByLayer
370
18
48
1
60
0
100
AcDbSpline
70
4
71
3
72
26
73
22
40
0
40
0
40
0
40
0
40
0.25
40
0.25
40
0.375000000000002
40
0.375000000000002
40
0.500000000000005
40
0.500000000000005
40
0.625000000000008
40
0.625000000000008
40
0.750000000000011
40
0.750000000000011
40
0.812500000000015
40
0.812500000000015
40
0.875000000000018
40
0.875000000000018
40
0.906250000000015
40
0.906250000000015
40
0.937500000000012
40
0.937500000000012
40
1
40
1
40
1
40
1
41
1
10
7.94999999999999
20
-5.08748464371149
30
0
41
1
10
7.94999999999999
20
-5.1199267688547
30
0
41
1
10
7.94703433444789
20
-5.1518547618212
30
0
41
1
10
7.93757866603704
20
-5.19891577696549
30
0
41
1
10
7.93358087690888
20
-5.21446279244046
30
0
41
1
10
7.92357260682923
20
-5.24523741407026
30
0
41
1
10
7.91752165772417
20
-5.26054949084866
30
0
41
1
10
7.90310178403678
20
-5.2901594981814
30
0
41
1
10
7.8947346948955
20
-5.3045152997621
30
0
41
1
10
7.874906336609
20
-5.33191424476021
30
0
41
1
10
7.86367062508671
20
-5.34467835494229
30
0
41
1
10
7.84397396935552
20
-5.36184406791233
30
0
41
1
10
7.83686658453635
20
-5.3672701587094
30
0
41
1
10
7.82168760269519
20
-5.37704945053864
30
0
41
1
10
7.81367962024063
20
-5.38137455145622
30
0
41
1
10
7.80089794495944
20
-5.38682802312098
30
0
41
1
10
7.79647968801913
20
-5.38848096475891
30
0
41
1
10
7.78749881489347
20
-5.39134491513317
30
0
41
1
10
7.78295243559515
20
-5.39255395130604
30
0
41
1
10
7.76913930921859
20
-5.39548834670728
30
0
41
1
10
7.75968491047655
20
-5.39652666073283
30
0
41
1
10
7.74999999999997
20
-5.39652666073283
30
0
0
SPLINE
5
139
100
AcDbEntity
8
1
62
256
6
ByLayer
370
18
48
1
60
0
100
AcDbSpline
70
4
71
3
72
30
73
26
40
0
40
0
40
0
40
0
40
0.062500000000002
40
0.062500000000002
40
0.093750000000005
40
0.093750000000005
40
0.125000000000008
40
0.125000000000008
40
0.187500000000011
40
0.187500000000011
40
0.250000000000015
40
0.250000000000015
40
0.312500000000018
40
0.312500000000018
40
0.375000000000021
40
0.375000000000021
40
0.500000000000017
40
0.500000000000017
40
0.562500000000014
40
0.562500000000014
40
0.625000000000011
40
0.625000000000011
40
0.750000000000006
40
0.750000000000006
40
1
40
1
40
1
40
1
41
1
10
2.24999999999997
20
-5.39652666073283
30
0
41
1
10
2.24031103408748
20
-5.39652666073283
30
0
41
1
10
2.2308379007267
20
-5.39548997477752
30
0
41
1
10
2.21692173713234
20
-5.39252393833252
30
0
41
1
10
2.21230432043455
20
-5.39128922371884
30
0
41
1
10
2.20331272740469
20
-5.38840735346005
30
0
41
1
10
2.19895099589343
20
-5.38676826335308
30
0
41
1
10
2.18622240921451
20
-5.38132314306355
30
0
41
1
10
2.17820969269494
20
-5.37699291814468
30
0
41
1
10
2.16297460080079
20
-5.36715803647843
30
0
41
1
10
2.15593012938541
20
-5.36176809551856
30
0
41
1
10
2.1427932569122
20
-5.35030393237162
30
0
41
1
10
2.13668976869553
20
-5.34421868091982
30
0
41
1
10
2.12525124185279
20
-5.33146024868094
30
0
41
1
10
2.11990338225817
20
-5.32476111777711
30
0
41
1
10
2.10512611780246
20
-5.30428411923174
30
0
41
1
10
2.09683020383906
20
-5.29002525128664
30
0
41
1
10
2.08608663416231
20
-5.26795610036996
30
0
41
1
10
2.08279452194264
20
-5.26048412812696
30
0
41
1
10
2.07673074856018
20
-5.24532966142451
30
0
41
1
10
2.07395261991832
20
-5.23762497844052
30
0
41
1
10
2.06640135145972
20
-5.21441354213545
30
0
41
1
10
2.06239499903356
20
-5.19880995335501
30
0
41
1
10
2.05293670086769
20
-5.15165978457253
30
0
41
1
10
2.04999999999998
20
-5.11977828660145
30
0
41
1
10
2.04999999999998
20
-5.08748464371149
30
0
0
SPLINE
5
13A
100
AcDbEntity
8
1
62
256
6
ByLayer
370
18
48
1
60
0
100
AcDbSpline
70
4
71
3
72
30
73
26
40
0
40
0
40
0
40
0
40
0.250000000000003
40
0.250000000000003
40
0.375000000000005
40
0.375000000000005
40
0.500000000000007
40
0.500000000000007
40
0.562500000000006
40
0.562500000000006
40
0.625000000000005
40
0.625000000000005
40
0.687500000000004
40
0.687500000000004
40
0.750000000000003
40
0.750000000000003
40
0.812500000000002
40
0.812500000000002
40
0.875000000000002
40
0.875000000000002
40
0.937500000000001
40
0.937500000000001
40
0.96875
40
0.96875
40
1
40
1
40
1
40
1
41
1
10
2.05000000000001
20
5.08748464371146
30
0
41
1
10
2.05000000000001
20
5.11961835364281
30
0
41
1
10
2.05290172546108
20
5.15154885864476
30
0
41
1
10
2.06246315109081
20
5.1991177281142
30
0
41
1
10
2.06652443820323
20
5.21484130856945
30
0
41
1
10
2.07657507003941
20
5.245635431925
30
0
41
1
10
2.08256764094108
20
5.26075701274064
30
0
41
1
10
2.09338557313262
20
5.28293427101886
30
0
41
1
10
2.09731170698294
20
5.29026034820418
30
0
41
1
10
2.10577687822627
20
5.30453820719163
30
0
41
1
10
2.11032192068004
20
5.31150711491372
30
0
41
1
10
2.12013374018005
20
5.32505599460052
30
0
41
1
10
2.12539949726482
20
5.33163649433465
30
0
41
1
10
2.13680188373848
20
5.34433259872125
30
0
41
1
10
2.14298123704057
20
5.35048598125795
30
0
41
1
10
2.15621169249789
20
5.36199515246398
30
0
41
1
10
2.16324230813714
20
5.36734478107769
30
0
41
1
10
2.17832546989391
20
5.3770533699024
30
0
41
1
10
2.18646473498975
20
5.38144466120525
30
0
41
1
10
2.2034581325984
20
5.38867796173008
30
0
41
1
10
2.21233247751704
20
5.39155309782853
30
0
41
1
10
2.22632841584019
20
5.39452513221633
30
0
41
1
10
2.23106823903098
20
5.39527869294147
30
0
41
1
10
2.24051702350678
20
5.39627644245792
30
0
41
1
10
2.24525278854986
20
5.3965266607328
30
0
41
1
10
2.25000000000003
20
5.3965266607328
30
0
0
SPLINE
5
13B
100
AcDbEntity
8
1
62
256
6
ByLayer
370
18
48
1
60
0
100
AcDbSpline
70
4
71
3
72
38
73
34
40
0
40
0
40
0
40
0
40
0.0625000000000185
40
0.0625000000000185
40
0.09375000000002
40
0.09375000000002
40
0.125000000000022
40
0.125000000000022
40
0.187500000000024
40
0.187500000000024
40
0.250000000000027
40
0.250000000000027
40
0.312500000000029
40
0.312500000000029
40
0.375000000000032
40
0.375000000000032
40
0.437500000000035
40
0.437500000000035
40
0.500000000000037
40
0.500000000000037
40
0.625000000000027
40
0.625000000000027
40
0.750000000000017
40
0.750000000000017
40
0.812500000000011
40
0.812500000000011
40
0.875000000000004
40
0.875000000000004
40
0.906250000000004
40
0.906250000000004
40
0.937500000000004
40
0.937500000000004
40
1
40
1
40
1
40
1
41
1
10
24.1120674625944
20
7.30599435563735
30
0
41
1
10
24.1238145271565
20
7.29909188939266
30
0
41
1
10
24.1363843719597
20
7.29425504161739
30
0
41
1
10
24.1560737375346
20
7.28905947768195
30
0
41
1
10
24.1627810355314
20
7.28768559971181
30
0
41
1
10
24.176250777994
20
7.28558432701047
30
0
41
1
10
24.1830398304684
20
7.28484975017281
30
0
41
1
10
24.203552144251
20
7.28346920928871
30
0
41
1
10
24.2172730023483
20
7.28364660751168
30
0
41
1
10
24.2447300557629
20
7.28572794113944
30
0
41
1
10
24.2584240688847
20
7.28763682818774
30
0
41
1
10
24.2855470965572
20
7.29288755566927
30
0
41
1
10
24.2990483709445
20
7.29624756438307
30
0
41
1
10
24.3256370239919
20
7.30420557077022
30
0
41
1
10
24.3387390989151
20
7.30880353159804
30
0
41
1
10
24.3645884990983
20
7.31915402307703
30
0
41
1
10
24.3773243128215
20
7.32490661298314
30
0
41
1
10
24.4022005047451
20
7.33741163841523
30
0
41
1
10
24.4143739442031
20
7.34417692132467
30
0
41
1
10
24.4501024648277
20
7.36600530828846
30
0
41
1
10
24.4725564472206
20
7.38238532522115
30
0
41
1
10
24.5143553282062
20
7.41881506821886
30
0
41
1
10
24.5335701522095
20
7.43875779525533
30
0
41
1
10
24.5587774186908
20
7.47115316533524
30
0
41
1
10
24.5665964452328
20
7.48240490329687
30
0
41
1
10
24.580635893007
20
7.50564825049582
30
0
41
1
10
24.586906137495
20
7.51771248326696
30
0
41
1
10
24.5947523889613
20
7.53639526500129
30
0
41
1
10
24.5971022697293
20
7.54270853450822
30
0
41
1
10
24.6011891954676
20
7.55553674009684
30
0
41
1
10
24.6029299560142
20
7.56207553415166
30
0
41
1
10
24.6069881740871
20
7.58175378756573
30
0
41
1
10
24.608220605246
20
7.59501163023381
30
0
41
1
10
24.6072327732267
20
7.60849446053658
30
0
0
SPLINE
5
13C
100
AcDbEntity
8
1
62
256
6
ByLayer
370
18
48
1
60
0
100
AcDbSpline
70
4
71
3
72
8
73
4
40
0
40
0
40
0
40
0
40
1
40
1
40
1
40
1
41
1
10
24.6072327732267
20
7.60849446053658
30
0
41
1
10
24.6066963979504
20
7.61581539839514
30
0
41
1
10
24.6061596576357
20
7.62313569873356
30
0
41
1
10
24.6056225706516
20
7.63045539156556
30
0
0
SPLINE
5
13D
100
AcDbEntity
8
1
62
256
6
ByLayer
370
18
48
1
60
0
100
AcDbSpline
70
4
71
3
72
28
73
24
40
0
40
0
40
0
40
0
40
0.250000000000011
40
0.250000000000011
40
0.375000000000024
40
0.375000000000024
40
0.500000000000038
40
0.500000000000038
40
0.625000000000051
40
0.625000000000051
40
0.687500000000047
40
0.687500000000047
40
0.750000000000042
40
0.750000000000042
40
0.812500000000037
40
0.812500000000037
40
0.843750000000022
40
0.843750000000022
40
0.875000000000007
40
0.875000000000007
40
0.937500000000004
40
0.937500000000004
40
1
40
1
40
1
40
1
41
1
10
23.7869854310185
20
7.1538779707042
30
0
41
1
10
23.8034525137062
20
7.18274962312381
30
0
41
1
10
23.8223112272745
20
7.2102471887371
30
0
41
1
10
23.8542334800597
20
7.24846216983045
30
0
41
1
10
23.8654979861242
20
7.26069801968552
30
0
41
1
10
23.8893214749445
20
7.28375632389768
30
0
41
1
10
23.9019252939802
20
7.29462502652558
30
0
41
1
10
23.9285233957513
20
7.31427514106687
30
0
41
1
10
23.9426500435319
20
7.32315141203765
30
0
41
1
10
23.964800036962
20
7.33389322628719
30
0
41
1
10
23.9723540637287
20
7.337052095416
30
0
41
1
10
23.9878897776474
20
7.34230042306334
30
0
41
1
10
23.9959473710498
20
7.3444008783259
30
0
41
1
10
24.012118323776
20
7.34707210203604
30
0
41
1
10
24.0202466052064
20
7.34766359880734
30
0
41
1
10
24.0325146947008
20
7.34713296436038
30
0
41
1
10
24.0366331838868
20
7.34671195782451
30
0
41
1
10
24.0446757776221
20
7.34536517628251
30
0
41
1
10
24.048624421605
20
7.34444036104694
30
0
41
1
10
24.0602408136189
20
7.34087644411346
30
0
41
1
10
24.0677688094131
20
7.3373670779865
30
0
41
1
10
24.081305208065
20
7.32858647554625
30
0
41
1
10
24.0874151364454
20
7.32331652985062
30
0
41
1
10
24.0929237588998
20
7.31724394276972
30
0
0
SPLINE
5
13E
100
AcDbEntity
8
1
62
256
6
ByLayer
370
18
48
1
60
0
100
AcDbSpline
70
4
71
3
72
8
73
4
40
0
40
0
40
0
40
0
40
1
40
1
40
1
40
1
41
1
10
24.0929237588998
20
7.31724394276972
30
0
41
1
10
24.099304405337
20
7.31349412308825
30
0
41
1
10
24.1056856303223
20
7.3097442611226
30
0
41
1
10
24.1120674625944
20
7.30599435563735
30
0
0
SPLINE
5
13F
100
AcDbEntity
8
1
62
256
6
ByLayer
370
18
48
1
60
0
100
AcDbSpline
70
4
71
3
72
30
73
26
40
0
40
0
40
0
40
0
40
0.25
40
0.25
40
0.374999999999999
40
0.374999999999999
40
0.499999999999999
40
0.499999999999999
40
0.624999999999999
40
0.624999999999999
40
0.687500000000011
40
0.687500000000011
40
0.750000000000023
40
0.750000000000023
40
0.781250000000021
40
0.781250000000021
40
0.812500000000019
40
0.812500000000019
40
0.875000000000012
40
0.875000000000012
40
0.906250000000008
40
0.906250000000008
40
0.937500000000004
40
0.937500000000004
40
1
40
1
40
1
40
1
41
1
10
24.8863756121318
20
7.82550346217343
30
0
41
1
10
24.8534570862907
20
7.82419615243049
30
0
41
1
10
24.8206988208556
20
7.82014475325698
30
0
41
1
10
24.7725462633878
20
7.80944946732055
30
0
41
1
10
24.7566919281021
20
7.80511076040924
30
0
41
1
10
24.7255925118615
20
7.7946244552453
30
0
41
1
10
24.7103495895153
20
7.7884815648824
30
0
41
1
10
24.6809885919746
20
7.77396128226934
30
0
41
1
10
24.6669358181228
20
7.7656253508147
30
0
41
1
10
24.6475569024535
20
7.75103175346268
30
0
41
1
10
24.6413700882832
20
7.7458083962382
30
0
41
1
10
24.6297112856169
20
7.73443256229726
30
0
41
1
10
24.6242981214698
20
7.72832602411378
30
0
41
1
10
24.6171386366683
20
7.7185744149175
30
0
41
1
10
24.6149049689709
20
7.71521703898367
30
0
41
1
10
24.6107877196112
20
7.70825895159606
30
0
41
1
10
24.6088969804054
20
7.70463851062692
30
0
41
1
10
24.6039394896607
20
7.69359714424542
30
0
41
1
10
24.6015453523294
20
7.68595407664094
30
0
41
1
10
24.5995613423857
20
7.67399915139836
30
0
41
1
10
24.5991779256506
20
7.66995185544315
30
0
41
1
10
24.59898561294
20
7.66194235068474
30
0
41
1
10
24.5991710672754
20
7.6579506675979
30
0
41
1
10
24.6005547146422
20
7.6460148890497
30
0
41
1
10
24.6026143748995
20
7.63805986882335
30
0
41
1
10
24.6056225706516
20
7.63045539156556
30
0
0
SPLINE
5
140
100
AcDbEntity
8
1
62
256
6
ByLayer
370
18
48
1
60
0
100
AcDbSpline
70
4
71
3
72
38
73
34
40
0
40
0
40
0
40
0
40
0.0625000000000119
40
0.0625000000000119
40
0.0937500000000113
40
0.0937500000000113
40
0.125000000000011
40
0.125000000000011
40
0.18750000000001
40
0.18750000000001
40
0.250000000000009
40
0.250000000000009
40
0.312500000000008
40
0.312500000000008
40
0.375000000000007
40
0.375000000000007
40
0.437500000000006
40
0.437500000000006
40
0.500000000000005
40
0.500000000000005
40
0.625000000000003
40
0.625000000000003
40
0.75
40
0.75
40
0.812500000000002
40
0.812500000000002
40
0.875000000000003
40
0.875000000000003
40
0.906250000000003
40
0.906250000000003
40
0.937500000000002
40
0.937500000000002
40
1
40
1
40
1
40
1
41
1
10
23.8177895029235
20
6.22436758527596
30
0
41
1
10
23.8293417766505
20
6.22941540572714
30
0
41
1
10
23.8395766690733
20
6.23625019980361
30
0
41
1
10
23.8536287319462
20
6.24831000381525
30
0
41
1
10
23.8580863163623
20
6.25264339577288
30
0
41
1
10
23.8664925121456
20
6.26172305384105
30
0
41
1
10
23.8704602437381
20
6.26648551802322
30
0
41
1
10
23.8817545567448
20
6.28136091116156
30
0
41
1
10
23.8883991766268
20
6.29194940846673
30
0
41
1
10
23.9002787859338
20
6.31416355650847
30
0
41
1
10
23.9054887771773
20
6.32575978199949
30
0
41
1
10
23.9146104929118
20
6.34962234149242
30
0
41
1
10
23.9185430783298
20
6.36195470784602
30
0
41
1
10
23.9252027889461
20
6.38707523732319
30
0
41
1
10
23.9279371655609
20
6.39987448470851
30
0
41
1
10
23.9323027140768
20
6.42593506932712
30
0
41
1
10
23.9339281759175
20
6.43918773030612
30
0
41
1
10
23.9360856655613
20
6.46588378881029
30
0
41
1
10
23.9366235802798
20
6.47936024443325
30
0
41
1
10
23.9366223202789
20
6.52017707118631
30
0
41
1
10
23.9344907496908
20
6.54753740877234
30
0
41
1
10
23.9257497770132
20
6.60223468335064
30
0
41
1
10
23.9191628377627
20
6.62940634121307
30
0
41
1
10
23.9054659675066
20
6.66889748384699
30
0
41
1
10
23.9002412746985
20
6.68188873768693
30
0
41
1
10
23.8883824877341
20
6.70706342805826
30
0
41
1
10
23.8817143958256
20
6.71933032605776
30
0
41
1
10
23.8704380542149
20
6.73683759317666
30
0
41
1
10
23.8664738459906
20
6.74251264194487
30
0
41
1
10
23.8580664501946
20
6.75349030698209
30
0
41
1
10
23.8536056344711
20
6.75881020761574
30
0
41
1
10
23.8395738287289
20
6.77386417433223
30
0
41
1
10
23.829347906356
20
6.78279046821748
30
0
41
1
10
23.8177895029235
20
6.79003830394939
30
0
0
SPLINE
5
141
100
AcDbEntity
8
1
62
256
6
ByLayer
370
18
48
1
60
0
100
AcDbSpline
70
4
71
3
72
8
73
4
40
0
40
0
40
0
40
0
40
1
40
1
40
1
40
1
41
1
10
23.8177895029235
20
6.79003830394939
30
0
41
1
10
23.8115134947432
20
6.7939737502771
30
0
41
1
10
23.805238076247
20
6.79790912222262
30
0
41
1
10
23.7989632195492
20
6.80184442251661
30
0
0
SPLINE
5
142
100
AcDbEntity
8
1
62
256
6
ByLayer
370
18
48
1
60
0
100
AcDbSpline
70
4
71
3
72
30
73
26
40
0
40
0
40
0
40
0
40
0.250000000000016
40
0.250000000000016
40
0.375000000000021
40
0.375000000000021
40
0.500000000000025
40
0.500000000000025
40
0.62500000000003
40
0.62500000000003
40
0.687500000000028
40
0.687500000000028
40
0.750000000000027
40
0.750000000000027
40
0.781250000000026
40
0.781250000000026
40
0.812500000000025
40
0.812500000000025
40
0.875000000000029
40
0.875000000000029
40
0.906250000000021
40
0.906250000000021
40
0.937500000000014
40
0.937500000000014
40
1
40
1
40
1
40
1
41
1
10
23.7869854310185
20
7.1538779707042
30
0
41
1
10
23.7705261680979
20
7.12502002864269
30
0
41
1
10
23.75646720498
20
7.09481648675401
30
0
41
1
10
23.7397818938938
20
7.04781568405835
30
0
41
1
10
23.7349742297286
20
7.03189097710461
30
0
41
1
10
23.727193649973
20
6.99954700166691
30
0
41
1
10
23.7242181050506
20
6.98313257245746
30
0
41
1
10
23.7207179954466
20
6.94997794825596
30
0
41
1
10
23.7201938511799
20
6.93331731414915
30
0
41
1
10
23.7220275737453
20
6.90853345077545
30
0
41
1
10
23.7230785494354
20
6.90029152170152
30
0
41
1
10
23.7263201193678
20
6.88385674791738
30
0
41
1
10
23.7285037835715
20
6.87574006644786
30
0
41
1
10
23.7327671594716
20
6.86401068810414
30
0
41
1
10
23.7343558869132
20
6.86016428881311
30
0
41
1
10
23.7379156026413
20
6.85261632129431
30
0
41
1
10
23.7398990388887
20
6.84889708322404
30
0
41
1
10
23.7463691397612
20
6.83822170229874
30
0
41
1
10
23.7513881702643
20
6.83168801822546
30
0
41
1
10
23.7601526228674
20
6.82291404584552
30
0
41
1
10
23.7632694139342
20
6.82018032412014
30
0
41
1
10
23.7697311267879
20
6.81523459673588
30
0
41
1
10
23.7730972638653
20
6.81300033793246
30
0
41
1
10
23.7835920050951
20
6.80699817397775
30
0
41
1
10
23.7911757004756
20
6.80392870097006
30
0
41
1
10
23.7989632195492
20
6.80184442251661
30
0
0
SPLINE
5
143
100
AcDbEntity
8
1
62
256
6
ByLayer
370
18
48
1
60
0
100
AcDbSpline
70
4
71
3
72
8
73
4
40
0
40
0
40
0
40
0
40
1
40
1
40
1
40
1
41
1
10
23.7989632195492
20
6.21614364930161
30
0
41
1
10
23.805238076247
20
6.2188839589592
30
0
41
1
10
23.8115134947432
20
6.22162525392261
30
0
41
1
10
23.8177895029235
20
6.22436758527596
30
0
0
SPLINE
5
144
100
AcDbEntity
8
1
62
256
6
ByLayer
370
18
48
1
60
0
100
AcDbSpline
70
4
71
3
72
28
73
24
40
0
40
0
40
0
40
0
40
0.250000000000011
40
0.250000000000011
40
0.375000000000016
40
0.375000000000016
40
0.500000000000022
40
0.500000000000022
40
0.625000000000027
40
0.625000000000027
40
0.687500000000029
40
0.687500000000029
40
0.750000000000032
40
0.750000000000032
40
0.812500000000034
40
0.812500000000034
40
0.843750000000034
40
0.843750000000034
40
0.875000000000033
40
0.875000000000033
40
0.937500000000016
40
0.937500000000016
40
1
40
1
40
1
40
1
41
1
10
23.7869854310185
20
5.89794824279431
30
0
41
1
10
23.7705183483307
20
5.9255119643704
30
0
41
1
10
23.7564453615569
20
5.95428185274071
30
0
41
1
10
23.7397669308036
20
5.99875346129917
30
0
41
1
10
23.7349524104631
20
6.01381168019665
30
0
41
1
10
23.7271788154692
20
6.0442066943211
30
0
41
1
10
23.7242028131581
20
6.05960249024017
30
0
41
1
10
23.7207167777566
20
6.09036902075522
30
0
41
1
10
23.7201921235294
20
6.1058918858491
30
0
41
1
10
23.7220541700471
20
6.12852863629104
30
0
41
1
10
23.7231156162607
20
6.13597802191472
30
0
41
1
10
23.7263502984714
20
6.15062109251113
30
0
41
1
10
23.7285516849657
20
6.15787838814023
30
0
41
1
10
23.7342668088578
20
6.17159579970132
30
0
41
1
10
23.7377704704591
20
6.17807857536275
30
0
41
1
10
23.7442508985542
20
6.18707421510081
30
0
41
1
10
23.7466298585169
20
6.18995949050117
30
0
41
1
10
23.7517144477837
20
6.19530186768574
30
0
41
1
10
23.7544313468022
20
6.19777808381437
30
0
41
1
10
23.7631289499992
20
6.20459190185917
30
0
41
1
10
23.769768217961
20
6.20833742359955
30
0
41
1
10
23.783768927882
20
6.21368706842855
30
0
41
1
10
23.7911792974372
20
6.21536892126284
30
0
41
1
10
23.7989632195492
20
6.21614364930161
30
0
0
SPLINE
5
145
100
AcDbEntity
8
1
62
256
6
ByLayer
370
18
48
1
60
0
100
AcDbSpline
70
4
71
3
72
38
73
34
40
0
40
0
40
0
40
0
40
0.0624999999999973
40
0.0624999999999973
40
0.0937499999999933
40
0.0937499999999933
40
0.124999999999989
40
0.124999999999989
40
0.187499999999985
40
0.187499999999985
40
0.24999999999998
40
0.24999999999998
40
0.312499999999976
40
0.312499999999976
40
0.374999999999971
40
0.374999999999971
40
0.437499999999966
40
0.437499999999966
40
0.499999999999962
40
0.499999999999962
40
0.624999999999967
40
0.624999999999967
40
0.749999999999973
40
0.749999999999973
40
0.812499999999976
40
0.812499999999976
40
0.87499999999998
40
0.87499999999998
40
0.906249999999987
40
0.906249999999987
40
0.937499999999995
40
0.937499999999995
40
1
40
1
40
1
40
1
41
1
10
25.1957886925683
20
7.6318680736606
30
0
41
1
10
25.1971655823864
20
7.61840786528432
30
0
41
1
10
25.2006048479648
20
7.60532565928884
30
0
41
1
10
25.2078122395141
20
7.58606478146055
30
0
41
1
10
25.2105702724897
20
7.57970822371007
30
0
41
1
10
25.2166084258115
20
7.56728240590428
30
0
41
1
10
25.2198981716917
20
7.56118703507383
30
0
41
1
10
25.2304692466718
20
7.54320278886618
30
0
41
1
10
25.2383687725912
20
7.53174008583918
30
0
41
1
10
25.255449567199
20
7.50968700793936
30
0
41
1
10
25.264610751204
20
7.49913471504627
30
0
41
1
10
25.2838165982268
20
7.47898430321547
30
0
41
1
10
25.2939155354501
20
7.46933464752686
30
0
41
1
10
25.3147524782566
20
7.45101231508724
30
0
41
1
10
25.325498908748
20
7.44232726537396
30
0
41
1
10
25.3475913976224
20
7.42583974620842
30
0
41
1
10
25.3589308921226
20
7.41804698610414
30
0
41
1
10
25.3819543940596
20
7.40346662555848
30
0
41
1
10
25.3936664136041
20
7.39665774430605
30
0
41
1
10
25.4293960154417
20
7.37766953288656
30
0
41
1
10
25.453676362797
20
7.36707905825958
30
0
41
1
10
25.5029975641334
20
7.35036813876943
30
0
41
1
10
25.5278883936078
20
7.34430276419633
30
0
41
1
10
25.5649839281232
20
7.33951716003409
30
0
41
1
10
25.5773486658399
20
7.33864492270331
30
0
41
1
10
25.601746295497
20
7.33863033623143
30
0
41
1
10
25.6138585201882
20
7.33948288210851
30
0
41
1
10
25.6316302962245
20
7.3423838257832
30
0
41
1
10
25.63747639375
20
7.34361982257298
30
0
41
1
10
25.6489960212616
20
7.34671536177325
30
0
41
1
10
25.6546889509752
20
7.34858396090831
30
0
41
1
10
25.6712112206542
20
7.35521077530768
30
0
41
1
10
25.6815661579992
20
7.36095174246168
30
0
41
1
10
25.6909540032006
20
7.36869745988642
30
0
0
SPLINE
5
146
100
AcDbEntity
8
1
62
256
6
ByLayer
370
18
48
1
60
0
100
AcDbSpline
70
4
71
3
72
8
73
4
40
0
40
0
40
0
40
0
40
1
40
1
40
1
40
1
41
1
10
25.6909540032007
20
7.36869745988642
30
0
41
1
10
25.6960514367367
20
7.37290324714792
30
0
41
1
10
25.7011475681144
20
7.3771089150591
30
0
41
1
10
25.7062424611045
20
7.38131446852924
30
0
0
SPLINE
5
147
100
AcDbEntity
8
1
62
256
6
ByLayer
370
18
48
1
60
0
100
AcDbSpline
70
4
71
3
72
28
73
24
40
0
40
0
40
0
40
0
40
0.249999999999987
40
0.249999999999987
40
0.374999999999979
40
0.374999999999979
40
0.49999999999997
40
0.49999999999997
40
0.624999999999961
40
0.624999999999961
40
0.687499999999968
40
0.687499999999968
40
0.749999999999974
40
0.749999999999974
40
0.812499999999981
40
0.812499999999981
40
0.843749999999984
40
0.843749999999984
40
0.874999999999987
40
0.874999999999987
40
0.937499999999994
40
0.937499999999994
40
1
40
1
40
1
40
1
41
1
10
24.8863756121318
20
7.82550346217343
30
0
41
1
10
24.9193097775072
20
7.82681139301695
30
0
41
1
10
24.9523757771046
20
7.82536752679357
30
0
41
1
10
25.0014320382703
20
7.81852897975446
30
0
41
1
10
25.0177065049193
20
7.81545697048241
30
0
41
1
10
25.0498078478755
20
7.80747615899992
30
0
41
1
10
25.0656971323404
20
7.80255378149127
30
0
41
1
10
25.096560608288
20
7.79044189853067
30
0
41
1
10
25.1116854150324
20
7.78319048613281
30
0
41
1
10
25.1328617530913
20
7.77016078790069
30
0
41
1
10
25.1396806197903
20
7.76545349875573
30
0
41
1
10
25.1527154428209
20
7.75512146760761
30
0
41
1
10
25.1589834670231
20
7.74943860372719
30
0
41
1
10
25.1703494651052
20
7.73722983617668
30
0
41
1
10
25.1754723003517
20
7.73070217550193
30
0
41
1
10
25.1820941048118
20
7.72011043158028
30
0
41
1
10
25.1841277005966
20
7.7164285317956
30
0
41
1
10
25.1876910462047
20
7.70896615718431
30
0
41
1
10
25.1892356172372
20
7.70516554603094
30
0
41
1
10
25.1931256858344
20
7.69354717349239
30
0
41
1
10
25.1947165142193
20
7.68539547676099
30
0
41
1
10
25.1956678503515
20
7.66945699115129
30
0
41
1
10
25.1950874423654
20
7.66158547799697
30
0
41
1
10
25.1935436493528
20
7.65380379294837
30
0
0
SPLINE
5
148
100
AcDbEntity
8
1
62
256
6
ByLayer
370
18
48
1
60
0
100
AcDbSpline
70
4
71
3
72
8
73
4
40
0
40
0
40
0
40
0
40
1
40
1
40
1
40
1
41
1
10
25.1935436493528
20
7.65380379294837
30
0
41
1
10
25.1942923158156
20
7.64649250267718
30
0
41
1
10
25.1950406691086
20
7.6391806062299
30
0
41
1
10
25.1957886925683
20
7.63186807366063
30
0
0
SPLINE
5
149
100
AcDbEntity
8
1
62
256
6
ByLayer
370
18
48
1
60
0
100
AcDbSpline
70
4
71
3
72
30
73
26
40
0
40
0
40
0
40
0
40
0.250000000000038
40
0.250000000000038
40
0.375000000000057
40
0.375000000000057
40
0.500000000000076
40
0.500000000000076
40
0.625000000000095
40
0.625000000000095
40
0.687500000000095
40
0.687500000000095
40
0.750000000000095
40
0.750000000000095
40
0.781250000000084
40
0.781250000000084
40
0.812500000000072
40
0.812500000000072
40
0.875000000000049
40
0.875000000000049
40
0.906250000000038
40
0.906250000000038
40
0.937500000000026
40
0.937500000000026
40
1
40
1
40
1
40
1
41
1
10
25.985765793245
20
7.2411992257328
30
0
41
1
10
25.9693065303245
20
7.26874985805136
30
0
41
1
10
25.9507411985844
20
7.29473087712825
30
0
41
1
10
25.9197293161058
20
7.33045474730824
30
0
41
1
10
25.9088775839205
20
7.34179174745404
30
0
41
1
10
25.8860627180832
20
7.36300568465779
30
0
41
1
10
25.8741038555554
20
7.37288315047249
30
0
41
1
10
25.849023181726
20
7.39052090699207
30
0
41
1
10
25.8359635054569
20
7.3982466050017
30
0
41
1
10
25.8156358456398
20
7.40730646813944
30
0
41
1
10
25.8087240840418
20
7.40990859673923
30
0
41
1
10
25.7945614772425
20
7.41402517169445
30
0
41
1
10
25.7873735902363
20
7.41551296498179
30
0
41
1
10
25.7766310340104
20
7.41662176588531
30
0
41
1
10
25.7730471202299
20
7.41680617162697
30
0
41
1
10
25.7658746244545
20
7.41675168173259
30
0
41
1
10
25.7622679607673
20
7.4165087800242
30
0
41
1
10
25.7516735694429
20
7.41507852905002
30
0
41
1
10
25.7448594469732
20
7.4132039713696
30
0
41
1
10
25.7350903831941
20
7.408772010381
30
0
41
1
10
25.7319286925
20
7.40702604061784
30
0
41
1
10
25.7259587778044
20
7.40308843300821
30
0
41
1
10
25.7231260844538
20
7.4008865140301
30
0
41
1
10
25.7150768725595
20
7.39359653365872
30
0
41
1
10
25.7102899397508
20
7.38776946903616
30
0
41
1
10
25.7062424611045
20
7.38131446852924
30
0
0
SPLINE
5
14A
100
AcDbEntity
8
1
62
256
6
ByLayer
370
18
48
1
60
0
100
AcDbSpline
70
4
71
3
72
8
73
4
40
0
40
0
40
0
40
0
40
1
40
1
40
1
40
1
41
1
10
24.1120674625944
20
5.73178514671201
30
0
41
1
10
24.1056856303223
20
5.72921995091187
30
0
41
1
10
24.0993044053369
20
5.72665576203718
30
0
41
1
10
24.0929237588998
20
5.72409253043134
30
0
0
SPLINE
5
14B
100
AcDbEntity
8
1
62
256
6
ByLayer
370
18
48
1
60
0
100
AcDbSpline
70
4
71
3
72
30
73
26
40
0
40
0
40
0
40
0
40
0.25000000000005
40
0.25000000000005
40
0.375000000000067
40
0.375000000000067
40
0.500000000000083
40
0.500000000000083
40
0.6250000000001
40
0.6250000000001
40
0.687500000000095
40
0.687500000000095
40
0.75000000000009
40
0.75000000000009
40
0.781250000000088
40
0.781250000000088
40
0.812500000000085
40
0.812500000000085
40
0.87500000000008
40
0.87500000000008
40
0.906250000000066
40
0.906250000000066
40
0.937500000000052
40
0.937500000000052
40
1
40
1
40
1
40
1
41
1
10
23.7869854310185
20
5.89794824279431
30
0
41
1
10
23.803444693939
20
5.87039761047575
30
0
41
1
10
23.8222779668332
20
5.8440743441223
30
0
41
1
10
23.8542005771179
20
5.80718718078379
30
0
41
1
10
23.8654421871735
20
5.79535218084473
30
0
41
1
10
23.8892649943062
20
5.77285077750102
30
0
41
1
10
23.901840886626
20
5.76218516562258
30
0
41
1
10
23.9284819886703
20
5.74255423896534
30
0
41
1
10
23.9424795715711
20
5.73363053167057
30
0
41
1
10
23.9645771882234
20
5.722309862765
30
0
41
1
10
23.9721410063462
20
5.71887484766583
30
0
41
1
10
23.9877791447443
20
5.71287354293472
30
0
41
1
10
23.9957849144397
20
5.71034104964994
30
0
41
1
10
24.0078880796171
20
5.70749431225863
30
0
41
1
10
24.0119489561146
20
5.70670067128586
30
0
41
1
10
24.0201303905147
20
5.70546642112905
30
0
41
1
10
24.0242720777338
20
5.70502592521842
30
0
41
1
10
24.036532869644
20
5.7043276451567
30
0
41
1
10
24.0445450828429
20
5.70467185453864
30
0
41
1
10
24.0562729441575
20
5.70660179927538
30
0
41
1
10
24.0601116690672
20
5.70748297797181
30
0
41
1
10
24.0674498055003
20
5.70967292511048
30
0
41
1
10
24.0709784776335
20
5.71098585469926
30
0
41
1
10
24.0811514534651
20
5.71556310351485
30
0
41
1
10
24.0874125909031
20
5.71950713332956
30
0
41
1
10
24.0929237588998
20
5.72409253043134
30
0
0
SPLINE
5
14C
100
AcDbEntity
8
1
62
256
6
ByLayer
370
18
48
1
60
0
100
AcDbSpline
70
4
71
3
72
28
73
24
40
0
40
0
40
0
40
0
40
0.0436233492741562
40
0.0436233492741562
40
0.0872466985483125
40
0.0872466985483125
40
0.174493397096604
40
0.174493397096604
40
0.218116746370751
40
0.218116746370751
40
0.261740095644896
40
0.261740095644896
40
0.348986794193209
40
0.348986794193209
40
0.436233492741522
40
0.436233492741522
40
0.523480191289835
40
0.523480191289835
40
0.69797358838644
40
0.69797358838644
40
0.872466985483045
40
0.872466985483045
40
1
40
1
40
1
40
1
41
1
10
24.1120674625944
20
5.73178514671204
30
0
41
1
10
24.117966916276
20
5.73415644905316
30
0
41
1
10
24.1241093241214
20
5.73607639849422
30
0
41
1
10
24.1367913193423
20
5.73918699443539
30
0
41
1
10
24.1433315104299
20
5.74037189126801
30
0
41
1
10
24.1630734375833
20
5.74296284709197
30
0
41
1
10
24.1765325150744
20
5.74345924421513
30
0
41
1
10
24.1970637475649
20
5.74288190086779
30
0
41
1
10
24.2039721444246
20
5.74246201640696
30
0
41
1
10
24.2176992564842
20
5.74124210255536
30
0
41
1
10
24.2245441238194
20
5.74044171585592
30
0
41
1
10
24.2450318010078
20
5.73754275790245
30
0
41
1
10
24.2586281743486
20
5.73495082381729
30
0
41
1
10
24.2857273521488
20
5.72867643286392
30
0
41
1
10
24.2992860393718
20
5.72497052338505
30
0
41
1
10
24.3258078832382
20
5.71674314135231
30
0
41
1
10
24.3388254914815
20
5.71221222458095
30
0
41
1
10
24.3772159324253
20
5.69751131641377
30
0
41
1
10
24.4019367833082
20
5.68625383282031
30
0
41
1
10
24.4496626069595
20
5.66093828487172
30
0
41
1
10
24.4722662369277
20
5.6470755568225
30
0
41
1
10
24.5085102465463
20
5.62118121387638
30
0
41
1
10
24.5228898305918
20
5.60969831609341
30
0
41
1
10
24.5361067581494
20
5.59762223171808
30
0
0
SPLINE
5
14D
100
AcDbEntity
8
1
62
256
6
ByLayer
370
18
48
1
60
0
100
AcDbSpline
70
4
71
3
72
38
73
34
40
0
40
0
40
0
40
0
40
0.0624999999999978
40
0.0624999999999978
40
0.0937499999999952
40
0.0937499999999952
40
0.124999999999993
40
0.124999999999993
40
0.187499999999994
40
0.187499999999994
40
0.249999999999995
40
0.249999999999995
40
0.312499999999996
40
0.312499999999996
40
0.374999999999998
40
0.374999999999998
40
0.437499999999999
40
0.437499999999999
40
0.5
40
0.5
40
0.625000000000003
40
0.625000000000003
40
0.750000000000005
40
0.750000000000005
40
0.812500000000006
40
0.812500000000006
40
0.875000000000008
40
0.875000000000008
40
0.906250000000008
40
0.906250000000008
40
0.937500000000009
40
0.937500000000009
40
1
40
1
40
1
40
1
41
1
10
25.9852319628715
20
6.87611502132248
30
0
41
1
10
25.9760438871103
20
6.86804735751048
30
0
41
1
10
25.9680176210835
20
6.8583914351465
30
0
41
1
10
25.9571057359053
20
6.84232061137249
30
0
41
1
10
25.9536647902789
20
6.83668864376943
30
0
41
1
10
25.9472078077805
20
6.82511921162868
30
0
41
1
10
25.9441769261847
20
6.81916008782525
30
0
41
1
10
25.9355887615865
20
6.80082807031647
30
0
41
1
10
25.9305907171126
20
6.78813636512172
30
0
41
1
10
25.921717808806
20
6.76208169010835
30
0
41
1
10
25.9178621418157
20
6.74875555571654
30
0
41
1
10
25.911149496251
20
6.72181583658485
30
0
41
1
10
25.9082774073409
20
6.70812887413362
30
0
41
1
10
25.9034336974753
20
6.6806887259572
30
0
41
1
10
25.9014567852268
20
6.66692195226031
30
0
41
1
10
25.8983085111251
20
6.63930651558991
30
0
41
1
10
25.8971413345197
20
6.62546847654809
30
0
41
1
10
25.8955934441902
20
6.59799376309681
30
0
41
1
10
25.8952085190817
20
6.58432189039598
30
0
41
1
10
25.8952094215068
20
6.54350552038252
30
0
41
1
10
25.8967305808435
20
6.51692487484917
30
0
41
1
10
25.9030342488678
20
6.46534082445174
30
0
41
1
10
25.9077993205594
20
6.44049627909507
30
0
41
1
10
25.9178789863715
20
6.4056254732447
30
0
41
1
10
25.9217457159127
20
6.39436877649985
30
0
41
1
10
25.9306032927143
20
6.37302759952954
30
0
41
1
10
25.935619161212
20
6.36287112374086
30
0
41
1
10
25.9441938687413
20
6.34881471474049
30
0
41
1
10
25.9472220940321
20
6.34433521807438
30
0
41
1
10
25.9536801017828
20
6.33584755033488
30
0
41
1
10
25.9571236243929
20
6.3318270611291
30
0
41
1
10
25.9680199218631
20
6.32077814981616
30
0
41
1
10
25.9760390118624
20
6.31467069267319
30
0
41
1
10
25.9852319628715
20
6.31044430264907
30
0
0
SPLINE
5
14E
100
AcDbEntity
8
1
62
256
6
ByLayer
370
18
48
1
60
0
100
AcDbSpline
70
4
71
3
72
8
73
4
40
0
40
0
40
0
40
0
40
1
40
1
40
1
40
1
41
1
10
25.9852319628715
20
6.31044430264907
30
0
41
1
10
25.9902235723157
20
6.30814944778268
30
0
41
1
10
25.9952138972043
20
6.30585555487366
30
0
41
1
10
26.0002030004551
20
6.30356257644397
30
0
0
SPLINE
5
14F
100
AcDbEntity
8
1
62
256
6
ByLayer
370
18
48
1
60
0
100
AcDbSpline
70
4
71
3
72
28
73
24
40
0
40
0
40
0
40
0
40
0.25
40
0.25
40
0.375000000000004
40
0.375000000000004
40
0.500000000000009
40
0.500000000000009
40
0.625000000000014
40
0.625000000000014
40
0.687500000000016
40
0.687500000000016
40
0.750000000000018
40
0.750000000000018
40
0.81250000000002
40
0.81250000000002
40
0.843750000000019
40
0.843750000000019
40
0.875000000000017
40
0.875000000000017
40
0.937500000000008
40
0.937500000000008
40
1
40
1
40
1
40
1
41
1
10
25.985765793245
20
7.2411992257328
30
0
41
1
10
26.0022328759328
20
7.21363550415671
30
0
41
1
10
26.016574461217
20
7.18452252885368
30
0
41
1
10
26.0341640472249
20
7.13888708114723
30
0
41
1
10
26.0393694480532
20
7.1233295817905
30
0
41
1
10
26.0481515613311
20
7.09164636452559
30
0
41
1
10
26.0517464898786
20
7.07546000017157
30
0
41
1
10
26.05679120283
20
7.04270253568288
30
0
41
1
10
26.0582628665302
20
7.02597003403943
30
0
41
1
10
26.0581776023058
20
7.00106375951802
30
0
41
1
10
26.0577687283841
20
6.99278082859419
30
0
41
1
10
26.0560016288183
20
6.97626318159968
30
0
41
1
10
26.0546238769123
20
6.9679538389428
30
0
41
1
10
26.0507290915162
20
6.95191126798261
30
0
41
1
10
26.0482218607497
20
6.94415572875195
30
0
41
1
10
26.0434097187762
20
6.93302914954057
30
0
41
1
10
26.0416188919364
20
6.92939263844332
30
0
41
1
10
26.0377449849489
20
6.92250382948939
30
0
41
1
10
26.0356537380666
20
6.91922845378235
30
0
41
1
10
26.0288986944303
20
6.909933360617
30
0
41
1
10
26.0236636275735
20
6.90439422114855
30
0
41
1
10
26.0124942124551
20
6.89542809963862
30
0
41
1
10
26.0065239092772
20
6.89190681755554
30
0
41
1
10
26.0002030004551
20
6.88926334965896
30
0
0
SPLINE
5
150
100
AcDbEntity
8
1
62
256
6
ByLayer
370
18
48
1
60
0
100
AcDbSpline
70
4
71
3
72
8
73
4
40
0
40
0
40
0
40
0
40
1
40
1
40
1
40
1
41
1
10
26.0002030004551
20
6.88926334965896
30
0
41
1
10
25.9952138972043
20
6.88488071813708
30
0
41
1
10
25.9902235723157
20
6.88049794413718
30
0
41
1
10
25.9852319628715
20
6.87611502132248
30
0
0
SPLINE
5
151
100
AcDbEntity
8
1
62
256
6
ByLayer
370
18
48
1
60
0
100
AcDbSpline
70
4
71
3
72
30
73
26
40
0
40
0
40
0
40
0
40
0.250000000000005
40
0.250000000000005
40
0.375
40
0.375
40
0.499999999999995
40
0.499999999999995
40
0.62499999999999
40
0.62499999999999
40
0.687499999999988
40
0.687499999999988
40
0.749999999999985
40
0.749999999999985
40
0.781249999999984
40
0.781249999999984
40
0.812499999999982
40
0.812499999999982
40
0.874999999999979
40
0.874999999999979
40
0.906249999999984
40
0.906249999999984
40
0.937499999999989
40
0.937499999999989
40
1
40
1
40
1
40
1
41
1
10
25.985765793245
20
5.98526949782288
30
0
41
1
10
26.0022250561655
20
6.01412743988439
30
0
41
1
10
26.0165519604375
20
6.04398873449654
30
0
41
1
10
26.0341479993298
20
6.08982624403367
30
0
41
1
10
26.0393455413654
20
6.10525295119413
30
0
41
1
10
26.0481340624165
20
6.13630946049187
30
0
41
1
10
26.0517266371308
20
6.15193574363761
30
0
41
1
10
26.0567871749497
20
6.18309719770144
30
0
41
1
10
26.0582492258482
20
6.19855982252312
30
0
41
1
10
26.0581854601179
20
6.22108288012899
30
0
41
1
10
26.0577865409526
20
6.22849192270357
30
0
41
1
10
26.056020502619
20
6.24304196671179
30
0
41
1
10
26.0546547211044
20
6.25011394818387
30
0
41
1
10
26.0517519541559
20
6.26010539003983
30
0
41
1
10
26.0506401894312
20
6.26334255409972
30
0
41
1
10
26.048089412328
20
6.26960178156736
30
0
41
1
10
26.0466409996125
20
6.27263762201855
30
0
41
1
10
26.0418372993256
20
6.28118447190798
30
0
41
1
10
26.0380163595518
20
6.28618780768278
30
0
41
1
10
26.0312107044842
20
6.29245976381083
30
0
41
1
10
26.0287709476329
20
6.2943286944695
30
0
41
1
10
26.0236774565168
20
6.29752676138281
30
0
41
1
10
26.021007298222
20
6.2988720307969
30
0
41
1
10
26.0126363209295
20
6.3021614631958
30
0
41
1
10
26.0065268301782
20
6.30334790139565
30
0
41
1
10
26.0002030004551
20
6.30356257644397
30
0
0
SPLINE
5
152
100
AcDbEntity
8
1
62
256
6
ByLayer
370
18
48
1
60
0
100
AcDbSpline
70
4
71
3
72
34
73
30
40
0
40
0
40
0
40
0
40
0.0662396075178133
40
0.0662396075178133
40
0.144052973558003
40
0.144052973558003
40
0.221866339598192
40
0.221866339598192
40
0.299679705638382
40
0.299679705638382
40
0.377493071678571
40
0.377493071678571
40
0.45530643771876
40
0.45530643771876
40
0.53311980375895
40
0.53311980375895
40
0.688746535839327
40
0.688746535839327
40
0.727653218859417
40
0.727653218859417
40
0.766559901879508
40
0.766559901879508
40
0.844373267919672
40
0.844373267919672
40
0.883279950939754
40
0.883279950939754
40
0.922186633959836
40
0.922186633959836
40
1
40
1
40
1
40
1
41
1
10
25.2508509056815
20
5.58861614308535
30
0
41
1
10
25.2582865277549
20
5.59684409232611
30
0
41
1
10
25.2661528092103
20
5.6049038381181
30
0
41
1
10
25.2839574382946
20
5.62204598422184
30
0
41
1
10
25.2940716556115
20
5.63110887035685
30
0
41
1
10
25.3149386481908
20
5.64870817431563
30
0
41
1
10
25.3257005949984
20
5.65725570162803
30
0
41
1
10
25.3478252120632
20
5.6739071128508
30
0
41
1
10
25.3591799343731
20
5.6820017723048
30
0
41
1
10
25.3822348233704
20
5.69761684899461
30
0
41
1
10
25.3939644073289
20
5.70515937019599
30
0
41
1
10
25.4178141594865
20
5.7197152488755
30
0
41
1
10
25.4298504977107
20
5.72667754713825
30
0
41
1
10
25.4541508413878
20
5.73996332641534
30
0
41
1
10
25.4664611694982
20
5.74630855913063
30
0
41
1
10
25.5033636666661
20
5.76411675470197
30
0
41
1
10
25.5279061132204
20
5.7743993707245
30
0
41
1
10
25.5586418821695
20
5.78476170546747
30
0
41
1
10
25.5647923311393
20
5.78670636255069
30
0
41
1
10
25.5771052560576
20
5.79031034367517
30
0
41
1
10
25.5832862331507
20
5.79197368012959
30
0
41
1
10
25.6016370897256
20
5.79642298714006
30
0
41
1
10
25.613660222084
20
5.79869401077258
30
0
41
1
10
25.6313467158775
20
5.80077174175347
30
0
41
1
10
25.6371837719096
20
5.80124097310335
30
0
41
1
10
25.6487273785745
20
5.80164591341065
30
0
41
1
10
25.654461321574
20
5.80157838679955
30
0
41
1
10
25.6710913881071
20
5.80040880209933
30
0
41
1
10
25.6815117171101
20
5.79839546158533
30
0
41
1
10
25.6909540032006
20
5.79448825096108
30
0
0
SPLINE
5
153
100
AcDbEntity
8
1
62
256
6
ByLayer
370
18
48
1
60
0
100
AcDbSpline
70
4
71
3
72
28
73
24
40
0
40
0
40
0
40
0
40
0.250000000000003
40
0.250000000000003
40
0.375000000000002
40
0.375000000000002
40
0.500000000000001
40
0.500000000000001
40
0.625
40
0.625
40
0.687499999999988
40
0.687499999999988
40
0.749999999999977
40
0.749999999999977
40
0.812499999999966
40
0.812499999999966
40
0.843749999999971
40
0.843749999999971
40
0.874999999999977
40
0.874999999999977
40
0.937499999999989
40
0.937499999999989
40
1
40
1
40
1
40
1
41
1
10
25.985765793245
20
5.98526949782288
30
0
41
1
10
25.9692987105573
20
5.95639784540327
30
0
41
1
10
25.9507085954995
20
5.92855719285728
30
0
41
1
10
25.9196974979688
20
5.88917837261596
30
0
41
1
10
25.9088238723921
20
5.87644324230166
30
0
41
1
10
25.8860089018558
20
5.85209673494899
30
0
41
1
10
25.8740240090565
20
5.84043746388613
30
0
41
1
10
25.8489845848352
20
5.81879641537122
30
0
41
1
10
25.8358049465277
20
5.80871050785089
30
0
41
1
10
25.8154317353909
20
5.79569916952184
30
0
41
1
10
25.808530280916
20
5.79170675509289
30
0
41
1
10
25.7944621496424
20
5.7845838510475
30
0
41
1
10
25.7872281908282
20
5.78143134875711
30
0
41
1
10
25.772877576598
20
5.77643496564787
30
0
41
1
10
25.7657457260025
20
5.77457070530738
30
0
41
1
10
25.7551459226296
20
5.772970400281
30
0
41
1
10
25.7516155665665
20
5.77264017111997
30
0
41
1
10
25.7447836551105
20
5.77244052089262
30
0
41
1
10
25.7414606632638
20
5.77256617654976
30
0
41
1
10
25.7317868308107
20
5.77364881836272
30
0
41
1
10
25.7256630361215
20
5.77536456676162
30
0
41
1
10
25.7149579322723
20
5.78052869252093
30
0
41
1
10
25.710288070269
20
5.78395920896773
30
0
41
1
10
25.7062424611045
20
5.78816305619085
30
0
0
SPLINE
5
154
100
AcDbEntity
8
1
62
256
6
ByLayer
370
18
48
1
60
0
100
AcDbSpline
70
4
71
3
72
8
73
4
40
0
40
0
40
0
40
0
40
1
40
1
40
1
40
1
41
1
10
25.7062424611045
20
5.78816305619085
30
0
41
1
10
25.7011475681144
20
5.79027055400806
30
0
41
1
10
25.6960514367367
20
5.79237893693718
30
0
41
1
10
25.6909540032006
20
5.79448825096108
30
0
0
SPLINE
5
155
100
AcDbEntity
8
1
62
256
6
ByLayer
370
18
48
1
60
0
100
AcDbSpline
70
4
71
3
72
11
73
7
40
0
40
0
40
0
40
0
40
0.0682463938505045
40
0.524769712524455
40
0.981293031198405
40
1
40
1
40
1
40
1
41
1
10
29.2842993899015
20
-4.07682215866114
30
0
41
1
10
29.2924925697413
20
-4.09943269939916
30
0
41
1
10
29.3555961693129
20
-4.27360847040356
30
0
41
1
10
29.4723538231715
20
-4.59550189237282
30
0
41
1
10
29.5828280457588
20
-4.90004510474381
30
0
41
1
10
29.6401643348883
20
-5.05831920365472
30
0
41
1
10
29.6424182170793
20
-5.06455719738213
30
0
0
SPLINE
5
156
100
AcDbEntity
8
1
62
256
6
ByLayer
370
18
48
1
60
0
100
AcDbSpline
70
4
71
3
72
17
73
13
40
0
40
0
40
0
40
0
40
0.0295634678907721
40
0.0735446958500544
40
0.161507151768619
40
0.337432063605748
40
0.513356975442877
40
0.689281887280006
40
0.865206799117135
40
0.953169255035699
40
0.997150482994981
40
1
40
1
40
1
40
1
41
1
10
29.6424182170793
20
-5.06455719738213
30
0
41
1
10
29.647039779199
20
-5.07734813899768
30
0
41
1
10
29.6585043198625
20
-5.10924845837798
30
0
41
1
10
29.6829601069213
20
-5.18010870533504
30
0
41
1
10
29.7269743944518
20
-5.3159146596347
30
0
41
1
10
29.7821258243301
20
-5.51191515062848
30
0
41
1
10
29.8358379725655
20
-5.74955238748191
30
0
41
1
10
29.8770098820058
20
-5.98951984751187
30
0
41
1
10
29.9006152452046
20
-6.1901358204272
30
0
41
1
10
29.9117018658022
20
-6.33121087377378
30
0
41
1
10
29.9151522414679
20
-6.39270515681051
30
0
41
1
10
29.9162728604076
20
-6.413963855975
30
0
41
1
10
29.9163407786904
20
-6.41525699578563
30
0
0
SPLINE
5
157
100
AcDbEntity
8
1
62
256
6
ByLayer
370
13
48
1
60
0
100
AcDbSpline
70
4
71
3
72
11
73
7
40
0
40
0
40
0
40
0
40
0.249255887038225
40
0.499007732287026
40
0.749255712187888
40
1
40
1
40
1
40
1
41
1
10
29.4909373721604
20
-4.96942794039262
30
0
41
1
10
29.5036233752634
20
-4.97730401800899
30
0
41
1
10
29.5290206235108
20
-4.99307184470854
30
0
41
1
10
29.5669302251054
20
-5.01680915827234
30
0
41
1
10
29.604766373962
20
-5.0406347155502
30
0
41
1
10
29.6298675117362
20
-5.05657494302872
30
0
41
1
10
29.6424305138424
20
-5.06455295235989
30
0
0
SPLINE
5
158
100
AcDbEntity
8
1
62
256
6
ByLayer
370
18
48
1
60
0
100
AcDbSpline
70
4
71
3
72
8
73
4
40
0
40
0
40
0
40
0
40
1
40
1
40
1
40
1
41
1
10
29.4909373721613
20
-4.96942794039507
30
0
41
1
10
29.4230009785245
20
-4.79431735564967
30
0
41
1
10
29.3547947740008
20
-4.61929883735607
30
0
41
1
10
29.2861268296307
20
-4.44444295522996
30
0
0
SPLINE
5
159
100
AcDbEntity
8
1
62
256
6
ByLayer
370
18
48
1
60
0
100
AcDbSpline
70
4
71
3
72
32
73
28
40
0
40
0
40
0
40
0
40
0.0201722500279436
40
0.030957120221128
40
0.106451211573419
40
0.192730173118894
40
0.365288096209843
40
0.451567057755318
40
0.494706538528056
40
0.537846019300793
40
0.543238454397386
40
0.548630889493978
40
0.55402332459057
40
0.556719542138866
40
0.559415759687162
40
0.564808194783754
40
0.570200629880346
40
0.580985500073531
40
0.624124980846268
40
0.710403942391743
40
0.796682903937218
40
0.882961865482693
40
0.969240827028168
40
0.980025697221353
40
0.990810567414537
40
0.996203002511129
40
1
40
1
40
1
40
1
41
1
10
29.9163407786904
20
-6.41525699578563
30
0
41
1
10
29.9173211536699
20
-6.43392298473063
30
0
41
1
10
29.9187399242412
20
-6.46244342321532
30
0
41
1
10
29.9236800535386
20
-6.55988852321869
30
0
41
1
10
29.9317103432822
20
-6.71786332020244
30
0
41
1
10
29.9473351989014
20
-7.0239698932252
30
0
41
1
10
29.9635452387462
20
-7.33994997009046
30
0
41
1
10
29.9777428493141
20
-7.61643136686922
30
0
41
1
10
29.9858101308772
20
-7.77441939118711
30
0
41
1
10
29.990185148471
20
-7.85835227504339
30
0
41
1
10
29.9927078385915
20
-7.90772306816311
30
0
41
1
10
29.9934458055127
20
-7.92253428459116
30
0
41
1
10
29.9941010398286
20
-7.934878686269
30
0
41
1
10
29.9946008047996
20
-7.9447516560808
30
0
41
1
10
29.9949024973315
20
-7.9546269934701
30
0
41
1
10
29.9950534818412
20
-7.96697509119812
30
0
41
1
10
29.9953071875954
20
-7.98673173547576
30
0
41
1
10
29.9961660883449
20
-8.04105773806555
30
0
41
1
10
29.9980602686218
20
-8.16945233126992
30
0
41
1
10
29.999734637012
20
-8.36694376671488
30
0
41
1
10
30.0002180588471
20
-8.60386909781627
30
0
41
1
10
29.999124040854
20
-8.84072977439374
30
0
41
1
10
29.9971951943509
20
-9.00846010365865
30
0
41
1
10
29.9956810801439
20
-9.10710977252378
30
0
41
1
10
29.9952603919522
20
-9.13183540604325
30
0
41
1
10
29.9950111240628
20
-9.14992691349076
30
0
41
1
10
29.9948619194974
20
-9.15853215948721
30
0
41
1
10
29.9947814012943
20
-9.16219779821162
30
0
0
SPLINE
5
15A
100
AcDbEntity
8
1
62
256
6
ByLayer
370
13
48
1
60
0
100
AcDbSpline
70
4
71
3
72
9
73
5
40
0
40
0
40
0
40
0
40
0.253089698189949
40
1
40
1
40
1
40
1
41
1
10
29.9163574812786
20
-6.41525679916734
30
0
41
1
10
29.9107695752505
20
-6.40761018917297
30
0
41
1
10
29.8886973256192
20
-6.37740605120467
30
0
41
1
10
29.8666460053965
20
-6.34723055348613
30
0
41
1
10
29.850175571522
20
-6.32469205988204
30
0
0
SPLINE
5
15B
100
AcDbEntity
8
1
62
256
6
ByLayer
370
18
48
1
60
0
100
AcDbSpline
70
4
71
3
72
18
73
14
40
0
40
0
40
0
40
0
40
0.125
40
0.25
40
0.3125
40
0.34375
40
0.359375
40
0.375
40
0.4375
40
0.5
40
0.625
40
0.75
40
1
40
1
40
1
40
1
41
1
10
29.2793768593317
20
-5.11929634438724
30
0
41
1
10
29.2812064490876
20
-5.11484415995605
30
0
41
1
10
29.2888924656928
20
-5.10483177035442
30
0
41
1
10
29.3082881364575
20
-5.08979677991172
30
0
41
1
10
29.326889770169
20
-5.07807410277809
30
0
41
1
10
29.337368133972
20
-5.07194341978641
30
0
41
1
10
29.3437530763094
20
-5.06835174512491
30
0
41
1
10
29.3536228392383
20
-5.06289968058056
30
0
41
1
10
29.3681068669944
20
-5.05479190445752
30
0
41
1
10
29.3923483245411
20
-5.04071422487996
30
0
41
1
10
29.419878743208
20
-5.023747093342
30
0
41
1
10
29.4579287100189
20
-4.99801155112033
30
0
41
1
10
29.4796204710903
20
-4.98037467495041
30
0
41
1
10
29.4909373721613
20
-4.96942794039507
30
0
0
SPLINE
5
15C
100
AcDbEntity
8
1
62
256
6
ByLayer
370
18
48
1
60
0
100
AcDbSpline
70
4
71
3
72
28
73
24
40
0
40
0
40
0
40
0
40
0.03125
40
0.0625
40
0.09375
40
0.125
40
0.15625
40
0.1875
40
0.21875
40
0.25
40
0.3125
40
0.375
40
0.4375
40
0.5
40
0.5625
40
0.625
40
0.6875
40
0.75
40
0.8125
40
0.875
40
0.9375
40
0.96875
40
1
40
1
40
1
40
1
41
1
10
29.4909373721609
20
-4.96942794039387
30
0
41
1
10
29.4962667706066
20
-4.98316482026363
30
0
41
1
10
29.5069087246211
20
-5.01064445922586
30
0
41
1
10
29.5227994313122
20
-5.05188874726889
30
0
41
1
10
29.5385962179722
20
-5.09316505684296
30
0
41
1
10
29.5542773889009
20
-5.13448057987944
30
0
41
1
10
29.569821248398
20
-5.1758425083097
30
0
41
1
10
29.5852054680492
20
-5.21725726671232
30
0
41
1
10
29.6004077194401
20
-5.25873127966588
30
0
41
1
10
29.6204049923949
20
-5.31411753577657
30
0
41
1
10
29.6448350208655
20
-5.38353061518509
30
0
41
1
10
29.6730565644095
20
-5.46715600123093
30
0
41
1
10
29.6999956270682
20
-5.5511523539557
30
0
41
1
10
29.7254522888548
20
-5.63554465299959
30
0
41
1
10
29.7492266297825
20
-5.72035787800274
30
0
41
1
10
29.7711092246099
20
-5.80559927687909
30
0
41
1
10
29.7908875124828
20
-5.89126538783285
30
0
41
1
10
29.8083458433444
20
-5.97733740213138
30
0
41
1
10
29.8232681897956
20
-6.06377961916675
30
0
41
1
10
29.835441471388
20
-6.15053780626511
30
0
41
1
10
29.8431234359975
20
-6.22303802098048
30
0
41
1
10
29.8476947203697
20
-6.28111219785862
30
0
41
1
10
29.8494409611876
20
-6.31016448452615
30
0
41
1
10
29.850175571522
20
-6.32469205988204
30
0
0
SPLINE
5
15D
100
AcDbEntity
8
1
62
256
6
ByLayer
370
18
48
1
60
0
100
AcDbSpline
70
4
71
3
72
21
73
17
40
0
40
0
40
0
40
0
40
0.0039822658528485
40
0.0174419649629451
40
0.0309016640730418
40
0.0847404605134284
40
0.138579256953815
40
0.246256849834588
40
0.353934442715361
40
0.461612035596134
40
0.569289628476907
40
0.676967221357681
40
0.784644814238454
40
0.892322407119227
40
0.946161203559613
40
1
40
1
40
1
40
1
41
1
10
29.9947814012943
20
-9.16219779821162
30
0
41
1
10
29.9947475688334
20
-9.16373804096776
30
0
41
1
10
29.9945847951262
20
-9.17056924470006
30
0
41
1
10
29.9941504799158
20
-9.18348819329483
30
0
41
1
10
29.9923341129566
20
-9.21771886859338
30
0
41
1
10
29.9869295674009
20
-9.2676562995396
30
0
41
1
10
29.9700053443401
20
-9.35556926666445
30
0
41
1
10
29.9358891590728
20
-9.46038955723986
30
0
41
1
10
29.8746313194986
20
-9.57855602552681
30
0
41
1
10
29.7952353671714
20
-9.68425326308662
30
0
41
1
10
29.6990721733957
20
-9.77588260598705
30
0
41
1
10
29.588846344678
20
-9.85041624449136
30
0
41
1
10
29.4671715497885
20
-9.90588203491549
30
0
41
1
10
29.3587182442505
20
-9.93463997310386
30
0
41
1
10
29.2699162473044
20
-9.94661551948249
30
0
41
1
10
29.2247478472672
20
-9.94882931727668
30
0
41
1
10
29.202918998571
20
-9.94896261303111
30
0
0
SPLINE
5
15E
100
AcDbEntity
8
1
62
256
6
ByLayer
370
18
48
1
60
0
100
AcDbSpline
70
4
71
3
72
8
73
4
40
0
40
0
40
0
40
0
40
1
40
1
40
1
40
1
41
1
10
29.202918998571
20
-9.94896261303111
30
0
41
1
10
29.2025951187305
20
-9.94896459077205
30
0
41
1
10
29.2022720920487
20
-9.94896656259147
30
0
41
1
10
29.2019498932054
20
-9.948968528645
30
0
0
SPLINE
5
15F
100
AcDbEntity
8
1
62
256
6
ByLayer
370
13
48
1
60
0
100
AcDbSpline
70
4
71
3
72
8
73
4
40
0
40
0
40
0
40
0
40
1
40
1
40
1
40
1
41
1
10
29.9947638793257
20
-9.16219674314647
30
0
41
1
10
29.9727040450188
20
-9.13042247929835
30
0
41
1
10
29.9506441658104
20
-9.09864826051117
30
0
41
1
10
29.9285842463992
20
-9.06687409355274
30
0
0
SPLINE
5
160
100
AcDbEntity
8
1
62
256
6
ByLayer
370
18
48
1
60
0
100
AcDbSpline
70
4
71
3
72
19
73
15
40
0
40
0
40
0
40
0
40
0.125
40
0.25
40
0.3125
40
0.34375
40
0.359375
40
0.375
40
0.4375
40
0.46875
40
0.5
40
0.625
40
0.75
40
1
40
1
40
1
40
1
41
1
10
29.5907216985265
20
-6.26250381204244
30
0
41
1
10
29.5949293621191
20
-6.26551637578416
30
0
41
1
10
29.6071414229414
20
-6.27136426216271
30
0
41
1
10
29.6315717751334
20
-6.27811634033631
30
0
41
1
10
29.6533107486572
20
-6.28248962067073
30
0
41
1
10
29.6652991522273
20
-6.28458188805433
30
0
41
1
10
29.6724635712213
20
-6.28574963730867
30
0
41
1
10
29.6835212084562
20
-6.28747299485485
30
0
41
1
10
29.6973204534546
20
-6.28939986868338
30
0
41
1
10
29.7143128291195
20
-6.29147648563369
30
0
41
1
10
29.7385585878295
20
-6.29471900473951
30
0
41
1
10
29.7713577898473
20
-6.29993353682363
30
0
41
1
10
29.8187125309873
20
-6.31012445114567
30
0
41
1
10
29.8412327071319
20
-6.31869178908761
30
0
41
1
10
29.850175571522
20
-6.32469205988204
30
0
0
SPLINE
5
161
100
AcDbEntity
8
1
62
256
6
ByLayer
370
18
48
1
60
0
100
AcDbSpline
70
4
71
3
72
32
73
28
40
0
40
0
40
0
40
0
40
0.250000000000092
40
0.375000000000138
40
0.500000000000185
40
0.531250000000197
40
0.546875000000203
40
0.546875000000203
40
0.554687500000206
40
0.554687500000206
40
0.555664062500206
40
0.555664062500206
40
0.556640625000206
40
0.556640625000206
40
0.558593750000205
40
0.558593750000205
40
0.560546875000204
40
0.562500000000203
40
0.562500000000203
40
0.566406250000201
40
0.566406250000201
40
0.570312500000198
40
0.578125000000195
40
0.593750000000187
40
0.625000000000173
40
0.750000000000115
40
1
40
1
40
1
40
1
41
1
10
29.850175571522
20
-6.32469205988204
30
0
41
1
10
29.8617559689356
20
-6.55370086395072
30
0
41
1
10
29.8792352086809
20
-6.89721125813261
30
0
41
1
10
29.9027120670581
20
-7.35521773974793
30
0
41
1
10
29.9159868989628
20
-7.61212422673546
30
0
41
1
10
29.9240852542368
20
-7.7708191180854
30
0
41
1
10
29.9263235897357
20
-7.81259960719095
30
0
41
1
10
29.927414669612
20
-7.83499483143089
30
0
41
1
10
29.9277656432617
20
-7.84271589800349
30
0
41
1
10
29.9282030118977
20
-7.84947727591762
30
0
41
1
10
29.9282515439979
20
-7.85017603089651
30
0
41
1
10
29.9283408849036
20
-7.85177321790931
30
0
41
1
10
29.9283828971373
20
-7.85266350371037
30
0
41
1
10
29.9284911538611
20
-7.85487137220844
30
0
41
1
10
29.9285368499865
20
-7.85587349868038
30
0
41
1
10
29.9286134985954
20
-7.85858461827073
30
0
41
1
10
29.928677557831
20
-7.86197826853893
30
0
41
1
10
29.9287329135277
20
-7.86588157487262
30
0
41
1
10
29.928816290362
20
-7.87183271149399
30
0
41
1
10
29.9288724445638
20
-7.87578001607741
30
0
41
1
10
29.9289855811477
20
-7.88343609223213
30
0
41
1
10
29.9291564443491
20
-7.89467367394963
30
0
41
1
10
29.929558057017
20
-7.91961821450676
30
0
41
1
10
29.9303315985072
20
-7.96799531473116
30
0
41
1
10
29.9324220845168
20
-8.12507283521862
30
0
41
1
10
29.9351085372636
20
-8.49625678442661
30
0
41
1
10
29.9325560346776
20
-8.83868249653256
30
0
41
1
10
29.9285842463992
20
-9.06687409355274
30
0
0
SPLINE
5
162
100
AcDbEntity
8
1
62
256
6
ByLayer
370
18
48
1
60
0
100
AcDbSpline
70
4
71
3
72
17
73
13
40
0
40
0
40
0
40
0
40
0.125
40
0.25
40
0.3125
40
0.375
40
0.4375
40
0.46875
40
0.5
40
0.625
40
0.75
40
1
40
1
40
1
40
1
41
1
10
29.7304128690502
20
-8.90509507883584
30
0
41
1
10
29.7346378659818
20
-8.91234895834938
30
0
41
1
10
29.7460537961855
20
-8.92655955481925
30
0
41
1
10
29.7674982935208
20
-8.94339216766298
30
0
41
1
10
29.7887485424017
20
-8.9562017472069
30
0
41
1
10
29.8070344352338
20
-8.96538694726758
30
0
41
1
10
29.8212733904043
20
-8.97322300450304
30
0
41
1
10
29.8321183702315
20
-8.97958687131447
30
0
41
1
10
29.8478490623235
20
-8.98922368990515
30
0
41
1
10
29.8694674592553
20
-9.00400522675653
30
0
41
1
10
29.9020404050045
20
-9.03115456565305
30
0
41
1
10
29.9197993332612
20
-9.05240006059321
30
0
41
1
10
29.9285842463992
20
-9.06687409355277
30
0
0
SPLINE
5
163
100
AcDbEntity
8
1
62
256
6
ByLayer
370
13
48
1
60
0
100
AcDbSpline
70
4
71
3
72
26
73
22
40
0
40
0
40
0
40
0
40
0.00390625
40
0.0078125
40
0.015625
40
0.03125
40
0.0625
40
0.125
40
0.1875
40
0.25
40
0.3125
40
0.375
40
0.4375
40
0.5
40
0.625
40
0.6875
40
0.75
40
0.8125
40
0.875
40
0.9375
40
1
40
1
40
1
40
1
41
1
10
29.9285842463992
20
-9.06687409355274
30
0
41
1
10
29.9285563663873
20
-9.06847570890378
30
0
41
1
10
29.9284917547998
20
-9.07167844435276
30
0
41
1
10
29.9283271250686
20
-9.07808173869651
30
0
41
1
10
29.9279460800392
20
-9.08928127704536
30
0
41
1
10
29.9268122116588
20
-9.11165134034852
30
0
41
1
10
29.9230573110322
20
-9.15624256230799
30
0
41
1
10
29.9134438386405
20
-9.21933114572337
30
0
41
1
10
29.8951078210754
20
-9.29345568097929
30
0
41
1
10
29.870106092348
20
-9.36540103506516
30
0
41
1
10
29.8385727919915
20
-9.43456979165353
30
0
41
1
10
29.8007416009578
20
-9.5003813256175
30
0
41
1
10
29.756846200199
20
-9.56225501183027
30
0
41
1
10
29.6906641291743
20
-9.63874256780906
30
0
41
1
10
29.6136458675603
20
-9.70507374237573
30
0
41
1
10
29.52753293835
20
-9.75903734497061
30
0
41
1
10
29.4589849125943
20
-9.79285299459514
30
0
41
1
10
29.3870710903152
20
-9.81955088325165
30
0
41
1
10
29.3125070775303
20
-9.83880404830387
30
0
41
1
10
29.236054131839
20
-9.85040246734502
30
0
41
1
10
29.1843551309692
20
-9.85299659811338
30
0
41
1
10
29.1584534957224
20
-9.8530281123158
30
0
0
SPLINE
5
164
100
AcDbEntity
8
1
62
256
6
ByLayer
370
18
48
1
60
0
100
AcDbSpline
70
4
71
3
72
11
73
7
40
0
40
0
40
0
40
0
40
0.0120314446921688
40
0.0618649605643074
40
0.460533087541416
40
1
40
1
40
1
40
1
41
1
10
20.4451980159537
20
-9.39991191822497
30
0
41
1
10
20.4442912947685
20
-9.39742532064255
30
0
41
1
10
20.4397872481677
20
-9.38492144938786
30
0
41
1
10
20.4090131122029
20
-9.30026176609971
30
0
41
1
10
20.3407710782178
20
-9.11184391170428
30
0
41
1
10
20.2766681170113
20
-8.93506128420617
30
0
41
1
10
20.2399105167831
20
-8.83371500800598
30
0
0
SPLINE
5
165
100
AcDbEntity
8
1
62
256
6
ByLayer
370
18
48
1
60
0
100
AcDbSpline
70
4
71
3
72
17
73
13
40
0
40
0
40
0
40
0
40
0.0600950229142426
40
0.184038916465191
40
0.431926703567089
40
0.679814490668986
40
0.927702277770884
40
0.989674224546358
40
0.993547471219825
40
0.997420717893292
40
0.999357341230026
40
1
40
1
40
1
40
1
41
1
10
28.7100397530834
20
-9.95131137665439
30
0
41
1
10
28.5556972380191
20
-9.95182761079454
30
0
41
1
10
28.0830171766913
20
-9.95274633864344
30
0
41
1
10
26.9734740636116
20
-9.95035982991922
30
0
41
1
10
25.3810871040858
20
-9.93374500137975
30
0
41
1
10
23.4697146874101
20
-9.89299382736652
30
0
41
1
10
22.03322452542
20
-9.84691982598031
30
0
41
1
10
21.2309415253114
20
-9.81585613390675
30
0
41
1
10
21.0499117184877
20
-9.80860466527002
30
0
41
1
10
21.0251763564305
20
-9.80760775908473
30
0
41
1
10
21.0091233765718
20
-9.80695653471662
30
0
41
1
10
21.0018508497698
20
-9.80665908215556
30
0
41
1
10
21.0000000332285
20
-9.80657970224047
30
0
0
SPLINE
5
166
100
AcDbEntity
8
1
62
256
6
ByLayer
370
18
48
1
60
0
100
AcDbSpline
70
4
71
3
72
11
73
7
40
0
40
0
40
0
40
0
40
0.0589687449404119
40
0.484373627158153
40
0.970550635406999
40
1
40
1
40
1
40
1
41
1
10
29.2019498932054
20
-9.948968528645
30
0
41
1
10
29.1914143156139
20
-9.9490328166147
30
0
41
1
10
29.1121449489499
20
-9.94951024283876
30
0
41
1
10
28.9532960286057
20
-9.95036912672947
30
0
41
1
10
28.7992622419939
20
-9.95100925800804
30
0
41
1
10
28.7148602712441
20
-9.95129525331959
30
0
41
1
10
28.7100397530834
20
-9.95131137665439
30
0
0
SPLINE
5
167
100
AcDbEntity
8
1
62
256
6
ByLayer
370
13
48
1
60
0
100
AcDbSpline
70
4
71
3
72
8
73
4
40
0
40
0
40
0
40
0
40
1
40
1
40
1
40
1
41
1
10
29.1584534957224
20
-9.8530281123158
30
0
41
1
10
29.1729521831409
20
-9.88518296586003
30
0
41
1
10
29.1874509992341
20
-9.91716321748729
30
0
41
1
10
29.2019498980551
20
-9.94896847432199
30
0
0
SPLINE
5
168
100
AcDbEntity
8
1
62
256
6
ByLayer
370
18
48
1
60
0
100
AcDbSpline
70
4
71
3
72
20
73
16
40
0
40
0
40
0
40
0
40
0.0166268555036238
40
0.0415115835804257
40
0.0663963116572276
40
0.165935223964435
40
0.265474136271643
40
0.315243592425247
40
0.464551960886058
40
0.663629785500473
40
0.862707610114888
40
0.912477066268492
40
0.962246522422096
40
0.987131250498898
40
1
40
1
40
1
40
1
41
1
10
21.0000000332285
20
-9.80657970224044
30
0
41
1
10
20.9962734972564
20
-9.80641987434691
30
0
41
1
10
20.9865770974645
20
-9.80596753827049
30
0
41
1
10
20.9706675580601
20
-9.80479026889614
30
0
41
1
10
20.9345050396355
20
-9.80100910075794
30
0
41
1
10
20.8814151809284
20
-9.791421726381
30
0
41
1
10
20.8238741667725
20
-9.77375894947616
30
0
41
1
10
20.7562424360395
20
-9.74634986121575
30
0
41
1
10
20.670903353885
20
-9.69945134870284
30
0
41
1
10
20.5683392016485
20
-9.61218023488124
30
0
41
1
10
20.5029819832265
20
-9.52229881410787
30
0
41
1
10
20.4694802384274
20
-9.45829373498609
30
0
41
1
10
20.4570817459027
20
-9.43066350656505
30
0
41
1
10
20.4491215157439
20
-9.41057231222038
30
0
41
1
10
20.4461690869093
20
-9.40257498900164
30
0
41
1
10
20.4451980159537
20
-9.39991191822497
30
0
0
SPLINE
5
169
100
AcDbEntity
8
1
62
256
6
ByLayer
370
13
48
1
60
0
100
AcDbSpline
70
4
71
3
72
9
73
5
40
0
40
0
40
0
40
0
40
0.50121971803117
40
1
40
1
40
1
40
1
41
1
10
21.2286145349165
20
-9.68308921056405
30
0
41
1
10
21.1904152972056
20
-9.7036509525413
30
0
41
1
10
21.1142027374504
20
-9.74467436251012
30
0
41
1
10
21.0380058500492
20
-9.78598474654277
30
0
41
1
10
21.0000003450661
20
-9.80658955153879
30
0
0
SPLINE
5
16A
100
AcDbEntity
8
1
62
256
6
ByLayer
370
13
48
1
60
0
100
AcDbSpline
70
4
71
3
72
9
73
5
40
0
40
0
40
0
40
0
40
0.251786661021046
40
1
40
1
40
1
40
1
41
1
10
20.4452020917681
20
-9.39991097332367
30
0
41
1
10
20.4708920270012
20
-9.38871661395549
30
0
41
1
10
20.5729885352505
20
-9.3442125816286
30
0
41
1
10
20.675330059926
20
-9.29953996754136
30
0
41
1
10
20.7519983896397
20
-9.26603964307802
30
0
0
SPLINE
5
16B
100
AcDbEntity
8
1
62
256
6
ByLayer
370
18
48
1
60
0
100
AcDbSpline
70
4
71
3
72
8
73
4
40
0
40
0
40
0
40
0
40
1
40
1
40
1
40
1
41
1
10
20.600568420912
20
-8.8858594412782
30
0
41
1
10
20.6507340040253
20
-9.01269678950646
30
0
41
1
10
20.7011861780015
20
-9.13943252524206
30
0
41
1
10
20.7519983896396
20
-9.26603964307765
30
0
0
SPLINE
5
16C
100
AcDbEntity
8
1
62
256
6
ByLayer
370
18
48
1
60
0
100
AcDbSpline
70
4
71
3
72
16
73
12
40
0
40
0
40
0
40
0
40
0.25
40
0.5
40
0.625
40
0.6875
40
0.75
40
0.78125
40
0.8125
40
0.875
40
1
40
1
40
1
40
1
41
1
10
29.1584534957128
20
-9.85302811231614
30
0
41
1
10
29.1527090611224
20
-9.84078492452079
30
0
41
1
10
29.1411481632509
20
-9.81186470035536
30
0
41
1
10
29.1266243396219
20
-9.76492859875123
30
0
41
1
10
29.116475237756
20
-9.72661684792061
30
0
41
1
10
29.1106891228041
20
-9.70317826036458
30
0
41
1
10
29.1070800742001
20
-9.68789182236543
30
0
41
1
10
29.1041989730115
20
-9.67521906190711
30
0
41
1
10
29.1013162434291
20
-9.66267508685303
30
0
41
1
10
29.0962491432303
20
-9.64243828500238
30
0
41
1
10
29.091890367956
20
-9.62771579545094
30
0
41
1
10
29.0889912848491
20
-9.6191531785247
30
0
0
SPLINE
5
16D
100
AcDbEntity
8
1
62
256
6
ByLayer
370
18
48
1
60
0
100
AcDbSpline
70
4
71
3
72
47
73
43
40
0
40
0
40
0
40
0
40
0.0248207090807095
40
0.0496506043499387
40
0.0744896876533768
40
0.0993379606766049
40
0.124195424944884
40
0.149062081822945
40
0.173937932514777
40
0.198822978063436
40
0.223717219350835
40
0.248620657097553
40
0.273533291862639
40
0.298455124043424
40
0.323386153875329
40
0.34832638143169
40
0.37327580662357
40
0.398234429199583
40
0.423202248745724
40
0.448179264685188
40
0.47316547627822
40
0.498160882621924
40
0.523165482804099
40
0.548179276888426
40
0.573202265356144
40
0.598234448633272
40
0.6232758270885
40
0.648326401033142
40
0.673386170721074
40
0.698455136348687
40
0.723533298054842
40
0.748620655920816
40
0.773717209970267
40
0.798822960169181
40
0.823937906425842
40
0.849062048590785
40
0.874195386456768
40
0.89933791975873
40
0.92448964817377
40
0.949650571321105
40
0.974820688762053
40
1
40
1
40
1
40
1
41
1
10
29.1584534957129
20
-9.85302811231645
30
0
41
1
10
29.0928837762657
20
-9.85308617489477
30
0
41
1
10
28.9617200699018
20
-9.85320232154049
30
0
41
1
10
28.7649264198587
20
-9.85309066252091
30
0
41
1
10
28.5680517412176
20
-9.85276994137971
30
0
41
1
10
28.3710954287261
20
-9.8522197057292
30
0
41
1
10
28.1740579672317
20
-9.85144557321925
30
0
41
1
10
27.9769395501309
20
-9.85044617316643
30
0
41
1
10
27.7797404497604
20
-9.84922200943211
30
0
41
1
10
27.5824609180961
20
-9.84777308430162
30
0
41
1
10
27.3851012133761
20
-9.84609953551507
30
0
41
1
10
27.1876615929626
20
-9.84420146547885
30
0
41
1
10
26.9901423152566
20
-9.84207898705162
30
0
41
1
10
26.7925436391842
20
-9.83973221126689
30
0
41
1
10
26.5948658243349
20
-9.83716125062338
30
0
41
1
10
26.3971091309243
20
-9.83436621819783
30
0
41
1
10
26.1992738198048
20
-9.8313472278918
30
0
41
1
10
26.001360152462
20
-9.82810439432234
30
0
41
1
10
25.8033683910193
20
-9.82463783300256
30
0
41
1
10
25.6052987982232
20
-9.8209476597186
30
0
41
1
10
25.4071516374987
20
-9.81703399283214
30
0
41
1
10
25.2089271723367
20
-9.81289694467077
30
0
41
1
10
25.0106256640499
20
-9.80853665356747
30
0
41
1
10
24.812247364167
20
-9.80395303874695
30
0
41
1
10
24.6137925196834
20
-9.79914597304841
30
0
41
1
10
24.4152613772233
20
-9.79411534154048
30
0
41
1
10
24.2166541839232
20
-9.78886102629141
30
0
41
1
10
24.0179711875371
20
-9.78338291045651
30
0
41
1
10
23.8192126364109
20
-9.77768087718411
30
0
41
1
10
23.6203787794895
20
-9.77175480989155
30
0
41
1
10
23.4214698663151
20
-9.76560459224598
30
0
41
1
10
23.2224861470295
20
-9.75923010795378
30
0
41
1
10
23.0234278723707
20
-9.75263124161265
30
0
41
1
10
22.8242952936862
20
-9.74580787550124
30
0
41
1
10
22.6250886628852
20
-9.73875990156452
30
0
41
1
10
22.4258082326204
20
-9.73148717664898
30
0
41
1
10
22.2264542556097
20
-9.72398968965095
30
0
41
1
10
22.0270269871734
20
-9.71626693735968
30
0
41
1
10
21.8275266757597
20
-9.70832025511271
30
0
41
1
10
21.6279535983272
20
-9.70014411389101
30
0
41
1
10
21.4283079282245
20
-9.69175861780471
30
0
41
1
10
21.2951871019659
20
-9.68597936474114
30
0
41
1
10
21.2286145349165
20
-9.68308921056405
30
0
0
SPLINE
5
16E
100
AcDbEntity
8
1
62
256
6
ByLayer
370
18
48
1
60
0
100
AcDbSpline
70
4
71
3
72
16
73
12
40
0
40
0
40
0
40
0
40
0.25
40
0.375
40
0.5
40
0.5625
40
0.625
40
0.75
40
0.8125
40
0.875
40
1
40
1
40
1
40
1
41
1
10
21.2286145349165
20
-9.68308921056413
30
0
41
1
10
21.2603985929445
20
-9.66765847556658
30
0
41
1
10
21.3080493519585
20
-9.64279332956721
30
0
41
1
10
21.37144215107
20
-9.60623214994524
30
0
41
1
10
21.4109843739483
20
-9.58196569588307
30
0
41
1
10
21.4425596069316
20
-9.56170558538093
30
0
41
1
10
21.4740928776741
20
-9.54089216056511
30
0
41
1
10
21.5055588070139
20
-9.5192657400606
30
0
41
1
10
21.536949361685
20
-9.49686861438866
30
0
41
1
10
21.5682579375686
20
-9.47363025733307
30
0
41
1
10
21.5920389572698
20
-9.45939316178183
30
0
41
1
10
21.6079223592483
20
-9.4512438805279
30
0
0
SPLINE
5
16F
100
AcDbEntity
8
1
62
256
6
ByLayer
370
18
48
1
60
0
100
AcDbSpline
70
4
71
3
72
18
73
14
40
0
40
0
40
0
40
0
40
0.25
40
0.375
40
0.5
40
0.5625
40
0.625
40
0.640625
40
0.65625
40
0.6875
40
0.75
40
0.875
40
1
40
1
40
1
40
1
41
1
10
20.7519983896396
20
-9.26603964307765
30
0
41
1
10
20.788357080905
20
-9.23875363841273
30
0
41
1
10
20.8435930754493
20
-9.19777284390497
30
0
41
1
10
20.9185274257112
20
-9.1430516371336
30
0
41
1
10
20.9659570811801
20
-9.10881911873443
30
0
41
1
10
21.0042302962633
20
-9.08141446286896
30
0
41
1
10
21.0247741327624
20
-9.06605616310705
30
0
41
1
10
21.038109400607
20
-9.05584749884628
30
0
41
1
10
21.0469022976043
20
-9.04905037778155
30
0
41
1
10
21.0620315753384
20
-9.03717971366831
30
0
41
1
10
21.0912335395499
20
-9.01354820114994
30
0
41
1
10
21.129797952196
20
-8.98017479790713
30
0
41
1
10
21.157143709866
20
-8.95403317338332
30
0
41
1
10
21.169899599986
20
-8.94113807761411
30
0
0
SPLINE
5
170
100
AcDbEntity
8
1
62
256
6
ByLayer
370
18
48
1
60
0
100
AcDbSpline
70
4
71
3
72
18
73
14
40
0
40
0
40
0
40
0
40
0.125
40
0.25
40
0.375
40
0.5
40
0.625
40
0.6875
40
0.75
40
0.8125
40
0.875
40
0.9375
40
1
40
1
40
1
40
1
41
1
10
20.7519983896396
20
-9.26603964307765
30
0
41
1
10
20.7623182137599
20
-9.29175320968545
30
0
41
1
10
20.7851539677766
20
-9.34241406992768
30
0
41
1
10
20.8262826314962
20
-9.41516504899897
30
0
41
1
10
20.8746054383291
20
-9.48368737329386
30
0
41
1
10
20.9306411420412
20
-9.54637192164077
30
0
41
1
10
20.9840996126455
20
-9.5918993390703
30
0
41
1
10
21.0308778233986
20
-9.62280066168611
30
0
41
1
10
21.0678078419248
20
-9.64279214195929
30
0
41
1
10
21.1064248642388
20
-9.65917490451906
30
0
41
1
10
21.1463607729991
20
-9.67163302711356
30
0
41
1
10
21.1872474508641
20
-9.67985058749099
30
0
41
1
10
21.2148246699599
20
-9.68248611223905
30
0
41
1
10
21.2286145349165
20
-9.68308921056413
30
0
0
SPLINE
5
171
100
AcDbEntity
8
1
62
256
6
ByLayer
370
18
48
1
60
0
100
AcDbSpline
70
4
71
3
72
11
73
7
40
0
40
0
40
0
40
0
40
0.25
40
0.5
40
0.75
40
1
40
1
40
1
40
1
41
1
10
29.2793768593316
20
-5.11929634438695
30
0
41
1
10
29.3132798532271
20
-5.21279719865373
30
0
41
1
10
29.3830729188356
20
-5.39914684760262
30
0
41
1
10
29.4808904386772
20
-5.680943833257
30
0
41
1
10
29.55815732783
20
-5.96847821903768
30
0
41
1
10
29.5855338590395
20
-6.16436346952236
30
0
41
1
10
29.5907216985265
20
-6.26250381204244
30
0
0
SPLINE
5
172
100
AcDbEntity
8
1
62
256
6
ByLayer
370
18
48
1
60
0
100
AcDbSpline
70
4
71
3
72
23
73
19
40
0
40
0
40
0
40
0
40
0.25
40
0.375
40
0.4375
40
0.5
40
0.515625
40
0.53125
40
0.546875
40
0.5546875
40
0.5625
40
0.5703125
40
0.578125
40
0.59375
40
0.625
40
0.75
40
0.875
40
1
40
1
40
1
40
1
41
1
10
29.5907216985265
20
-6.26250381204244
30
0
41
1
10
29.6023626294035
20
-6.4827197509419
30
0
41
1
10
29.6198240257189
20
-6.81304365929108
30
0
41
1
10
29.6401956547536
20
-7.19842155236512
30
0
41
1
10
29.6518365856306
20
-7.41863749126455
30
0
41
1
10
29.6583846092489
20
-7.54250895689549
30
0
41
1
10
29.6627499583278
20
-7.62508993398279
30
0
41
1
10
29.6649326328672
20
-7.66638042252643
30
0
41
1
10
29.6667515283167
20
-7.70078916297948
30
0
41
1
10
29.6682066446764
20
-7.7283161553419
30
0
41
1
10
29.6692979819461
20
-7.74896139961373
30
0
41
1
10
29.6703893192158
20
-7.76960664388557
30
0
41
1
10
29.6718444355754
20
-7.79713363624799
30
0
41
1
10
29.6743908892047
20
-7.84530587288225
30
0
41
1
10
29.6823940291827
20
-7.99670433087562
30
0
41
1
10
29.6954900764193
20
-8.2444472621375
30
0
41
1
10
29.7129514727347
20
-8.57477117048668
30
0
41
1
10
29.7245924036117
20
-8.79498710938614
30
0
41
1
10
29.7304128690502
20
-8.90509507883584
30
0
0
SPLINE
5
173
100
AcDbEntity
8
1
62
256
6
ByLayer
370
13
48
1
60
0
100
AcDbSpline
70
4
71
3
72
8
73
4
40
0
40
0
40
0
40
0
40
1
40
1
40
1
40
1
41
1
10
29.2845016969192
20
-6.04325927085475
30
0
41
1
10
29.3865750307883
20
-6.11634078458397
30
0
41
1
10
29.4886483646574
20
-6.18942229831322
30
0
41
1
10
29.5907216985265
20
-6.26250381204244
30
0
0
SPLINE
5
174
100
AcDbEntity
8
1
62
256
6
ByLayer
370
13
48
1
60
0
100
AcDbSpline
70
4
71
3
72
15
73
11
40
0
40
0
40
0
40
0
40
0.125
40
0.25
40
0.375
40
0.5
40
0.625
40
0.75
40
0.875
40
1
40
1
40
1
40
1
41
1
10
29.0889912848583
20
-9.619153178516
30
0
41
1
10
29.1347964135386
20
-9.62018125446124
30
0
41
1
10
29.2262627139903
20
-9.6123481386785
30
0
41
1
10
29.3560838964341
20
-9.57027912972615
30
0
41
1
10
29.4721322076566
20
-9.50055777221914
30
0
41
1
10
29.5698614140039
20
-9.40782979599859
30
0
41
1
10
29.6464172641419
20
-9.2971848810158
30
0
41
1
10
29.7000131813023
20
-9.17347108239508
30
0
41
1
10
29.729526158915
20
-9.04127019835721
30
0
41
1
10
29.7328104894296
20
-8.95045177999296
30
0
41
1
10
29.7304128690502
20
-8.90509507883581
30
0
0
SPLINE
5
175
100
AcDbEntity
8
1
62
256
6
ByLayer
370
13
48
1
60
0
100
AcDbSpline
70
4
71
3
72
8
73
4
40
0
40
0
40
0
40
0
40
1
40
1
40
1
40
1
41
1
10
29.7304128690502
20
-8.90509507883581
30
0
41
1
10
29.5966815229924
20
-8.67549229161821
30
0
41
1
10
29.4629501769347
20
-8.44588950440061
30
0
41
1
10
29.329218830877
20
-8.21628671718301
30
0
0
SPLINE
5
176
100
AcDbEntity
8
1
62
256
6
ByLayer
370
13
48
1
60
0
100
AcDbSpline
70
4
71
3
72
8
73
4
40
0
40
0
40
0
40
0
40
1
40
1
40
1
40
1
41
1
10
29.329218830877
20
-8.2162867171829
30
0
41
1
10
29.3257898220037
20
-8.21039946622861
30
0
41
1
10
29.3223608131304
20
-8.20451221527432
30
0
41
1
10
29.3189318042572
20
-8.19862496432
30
0
0
SPLINE
5
177
100
AcDbEntity
8
1
62
256
6
ByLayer
370
13
48
1
60
0
100
AcDbSpline
70
4
71
3
72
8
73
4
40
0
40
0
40
0
40
0
40
1
40
1
40
1
40
1
41
1
10
28.7903026513651
20
-8.73695827255989
30
0
41
1
10
28.7927917233109
20
-8.74430989677626
30
0
41
1
10
28.7952807952567
20
-8.75166152099263
30
0
41
1
10
28.7977698672025
20
-8.759013145209
30
0
0
SPLINE
5
178
100
AcDbEntity
8
1
62
256
6
ByLayer
370
18
48
1
60
0
100
AcDbSpline
70
4
71
3
72
8
73
4
40
0
40
0
40
0
40
0
40
1
40
1
40
1
40
1
41
1
10
29.0889912848586
20
-9.6191531785326
30
0
41
1
10
26.5953016429913
20
-9.56318341252972
30
0
41
1
10
24.1016120010874
20
-9.5072136464976
30
0
41
1
10
21.6079223592483
20
-9.45124388051676
30
0
0
SPLINE
5
179
100
AcDbEntity
8
1
62
256
6
ByLayer
370
13
48
1
60
0
100
AcDbSpline
70
4
71
3
72
8
73
4
40
0
40
0
40
0
40
0
40
1
40
1
40
1
40
1
41
1
10
28.7977698672024
20
-8.75901314520846
30
0
41
1
10
28.8948436730877
20
-9.04572648964222
30
0
41
1
10
28.9919174789732
20
-9.33243983407269
30
0
41
1
10
29.0889912848583
20
-9.619153178516
30
0
0
SPLINE
5
17A
100
AcDbEntity
8
1
62
256
6
ByLayer
370
13
48
1
60
0
100
AcDbSpline
70
4
71
3
72
12
73
8
40
0
40
0
40
0
40
0
40
0.130933762590391
40
0.130933762590391
40
0.846851358087277
40
0.846851358087277
40
1
40
1
40
1
40
1
41
1
10
26.4079844341054
20
-8.6834881891335
30
0
41
1
10
26.2193622671454
20
-8.70628647813936
30
0
41
1
10
26.0307401001854
20
-8.72908476714534
30
0
41
1
10
24.8107725754225
20
-8.87653918703683
30
0
41
1
10
23.7794272176239
20
-9.00119531793024
30
0
41
1
10
22.5274571093298
20
-9.15251780998963
30
0
41
1
10
22.3068323588255
20
-9.17918417113998
30
0
41
1
10
22.0862076083215
20
-9.20585053229101
30
0
0
SPLINE
5
17B
100
AcDbEntity
8
1
62
256
6
ByLayer
370
13
48
1
60
0
100
AcDbSpline
70
4
71
3
72
8
73
4
40
0
40
0
40
0
40
0
40
1
40
1
40
1
40
1
41
1
10
21.169899599986
20
-8.94113807761411
30
0
41
1
10
21.1624768522603
20
-8.9206669282087
30
0
41
1
10
21.1550541045346
20
-8.90019577880329
30
0
41
1
10
21.1476313568089
20
-8.87972462939788
30
0
0
SPLINE
5
17C
100
AcDbEntity
8
1
62
256
6
ByLayer
370
13
48
1
60
0
100
AcDbSpline
70
4
71
3
72
10
73
6
40
0
40
0
40
0
40
0
40
0.525210305152619
40
0.525210305152619
40
1
40
1
40
1
40
1
41
1
10
26.1010118171276
20
-8.6661458160203
30
0
41
1
10
25.4179095871292
20
-8.74871067205569
30
0
41
1
10
24.7348073571321
20
-8.83127552809353
30
0
41
1
10
23.4341812588013
20
-8.98847894781665
30
0
41
1
10
22.816657390467
20
-9.06311751150079
30
0
41
1
10
22.1991335221357
20
-9.13775607519034
30
0
0
SPLINE
5
17D
100
AcDbEntity
8
1
62
256
6
ByLayer
370
18
48
1
60
0
100
AcDbSpline
70
4
71
3
72
8
73
4
40
0
40
0
40
0
40
0
40
1
40
1
40
1
40
1
41
1
10
23.2537732249808
20
-8.40544571699513
30
0
41
1
10
23.2400132346137
20
-8.41500024315332
30
0
41
1
10
23.2262532442466
20
-8.42455476931147
30
0
41
1
10
23.2124932538795
20
-8.43410929546965
30
0
0
SPLINE
5
17E
100
AcDbEntity
8
1
62
256
6
ByLayer
370
18
48
1
60
0
100
AcDbSpline
70
4
71
3
72
8
73
4
40
0
40
0
40
0
40
0
40
1
40
1
40
1
40
1
41
1
10
21.1698995176093
20
-8.94113788789915
30
0
41
1
10
21.2848781610646
20
-8.82490450377381
30
0
41
1
10
21.3998568045198
20
-8.70867111964861
30
0
41
1
10
21.514835447975
20
-8.59243773552356
30
0
0
SPLINE
5
17F
100
AcDbEntity
8
1
62
256
6
ByLayer
370
18
48
1
60
0
100
AcDbSpline
70
4
71
3
72
8
73
4
40
0
40
0
40
0
40
0
40
1
40
1
40
1
40
1
41
1
10
21.68769637881
20
-8.41769040532228
30
0
41
1
10
21.8565638918158
20
-8.24698007238035
30
0
41
1
10
22.0254314048215
20
-8.07626973943869
30
0
41
1
10
22.1942989178269
20
-7.90555940649719
30
0
0
SPLINE
5
180
100
AcDbEntity
8
1
62
256
6
ByLayer
370
18
48
1
60
0
100
AcDbSpline
70
4
71
3
72
18
73
14
40
0
40
0
40
0
40
0
40
0.125
40
0.25
40
0.375
40
0.5
40
0.625
40
0.6875
40
0.75
40
0.8125
40
0.875
40
0.9375
40
1
40
1
40
1
40
1
41
1
10
21.1698960469746
20
-8.94113875635134
30
0
41
1
10
21.1799951970169
20
-8.96899070235966
30
0
41
1
10
21.2007353460785
20
-9.02453913658252
30
0
41
1
10
21.2348469554142
20
-9.10677851085774
30
0
41
1
10
21.2733768246179
20
-9.18727704417762
30
0
41
1
10
21.318331102481
20
-9.26469962366937
30
0
41
1
10
21.3633362446713
20
-9.32462720409026
30
0
41
1
10
21.4055098333642
20
-9.36738665369407
30
0
41
1
10
21.440429291464
20
-9.39580504111649
30
0
41
1
10
21.4787904794358
20
-9.41947988005526
30
0
41
1
10
21.5201455153174
20
-9.43720030961001
30
0
41
1
10
21.5635909076011
20
-9.4481640951206
30
0
41
1
10
21.5931607805762
20
-9.4509125792068
30
0
41
1
10
21.6079223592484
20
-9.45124388053901
30
0
0
SPLINE
5
181
100
AcDbEntity
8
1
62
256
6
ByLayer
370
18
48
1
60
0
100
AcDbSpline
70
4
71
3
72
15
73
11
40
0
40
0
40
0
40
0
40
0.105547317957897
40
0.211094635915794
40
0.422189271831589
40
0.633283907747383
40
0.844378543663178
40
0.897152202642126
40
0.949925861621075
40
1
40
1
40
1
40
1
41
1
10
21.6079223592484
20
-9.45124388053901
30
0
41
1
10
21.6247495707663
20
-9.4426103598652
30
0
41
1
10
21.6584040111068
20
-9.42534401318477
30
0
41
1
10
21.7257129349848
20
-9.39081305402942
30
0
41
1
10
21.8098491220385
20
-9.3476506483513
30
0
41
1
10
21.9108124419085
20
-9.29585156398215
30
0
41
1
10
21.9865354308482
20
-9.25700954724888
30
0
41
1
10
22.0370154410083
20
-9.23106925482946
30
0
41
1
10
22.0618259458449
20
-9.21834249056485
30
0
41
1
10
22.0782257119752
20
-9.2099992087393
30
0
41
1
10
22.0862078266232
20
-9.20585755021017
30
0
0
SPLINE
5
182
100
AcDbEntity
8
1
62
256
6
ByLayer
370
18
48
1
60
0
100
AcDbSpline
70
4
71
3
72
13
73
9
40
0
40
0
40
0
40
0
40
0.0113848368123198
40
0.233982789263977
40
0.456580741715634
40
0.679178694167291
40
0.901776646618948
40
1
40
1
40
1
40
1
41
1
10
22.086207258534
20
-9.20585736356145
30
0
41
1
10
22.0866375148118
20
-9.20563411744513
30
0
41
1
10
22.0954800514882
20
-9.20104118331702
30
0
41
1
10
22.1127283764536
20
-9.19187603860379
30
0
41
1
10
22.1379153719523
20
-9.17737561687409
30
0
41
1
10
22.1630487053735
20
-9.16191521089624
30
0
41
1
10
22.1834462325302
20
-9.14854956839858
30
0
41
1
10
22.1954571791043
20
-9.14030019001049
30
0
41
1
10
22.199133142394
20
-9.13775950218127
30
0
0
SPLINE
5
183
100
AcDbEntity
8
1
62
256
6
ByLayer
370
18
48
1
60
0
100
AcDbSpline
70
4
71
3
72
8
73
4
40
0
40
0
40
0
40
0
40
1
40
1
40
1
40
1
41
1
10
23.2124932538795
20
-8.43410929546965
30
0
41
1
10
22.8747066408955
20
-8.66865822636257
30
0
41
1
10
22.5369200279114
20
-8.90320715725545
30
0
41
1
10
22.1991334149274
20
-9.13775608814834
30
0
0
SPLINE
5
184
100
AcDbEntity
8
1
62
256
6
ByLayer
370
18
48
1
60
0
100
AcDbSpline
70
4
71
3
72
25
73
21
40
0
40
0
40
0
40
0
40
0.165292587237119
40
0.165292587237119
40
0.330585174474237
40
0.330585174474237
40
0.371908321283513
40
0.371908321283513
40
0.41323146809279
40
0.41323146809279
40
0.49587776171134
40
0.49587776171134
40
0.661170348948451
40
0.661170348948451
40
0.743816642567009
40
0.743816642567009
40
0.826462936185567
40
0.826462936185567
40
0.991755523422684
40
1
40
1
40
1
40
1
41
1
10
23.2537732249797
20
-8.4054457169959
30
0
41
1
10
23.2050026670542
20
-8.40103538070386
30
0
41
1
10
23.1570133862167
20
-8.39318818680067
30
0
41
1
10
23.0625114935866
20
-8.37099789463116
30
0
41
1
10
23.0159991595349
20
-8.35665357457518
30
0
41
1
10
22.9588176679918
20
-8.3345048347569
30
0
41
1
10
22.9474296669324
20
-8.32986262597601
30
0
41
1
10
22.9247514786631
20
-8.32014792282388
30
0
41
1
10
22.9134564919889
20
-8.31507199316931
30
0
41
1
10
22.8799975873054
20
-8.29932436909883
30
0
41
1
10
22.8581649802646
20
-8.2880951645808
30
0
41
1
10
22.7940556241431
20
-8.25226385536035
30
0
41
1
10
22.7531574701136
20
-8.22553329352408
30
0
41
1
10
22.6946191610405
20
-8.18110066600946
30
0
41
1
10
22.6755772097583
20
-8.16556287852308
30
0
41
1
10
22.6384518880286
20
-8.13300731984174
30
0
41
1
10
22.6203563030557
20
-8.11596497467906
30
0
41
1
10
22.5684206750638
20
-8.06346605844837
30
0
41
1
10
22.535007640275
20
-8.02453375944148
30
0
41
1
10
22.5046548271467
20
-7.98332289673064
30
0
41
1
10
22.5032197314266
20
-7.98135988064681
30
0
0
SPLINE
5
185
100
AcDbEntity
8
1
62
256
6
ByLayer
370
18
48
1
60
0
100
AcDbSpline
70
4
71
3
72
8
73
4
40
0
40
0
40
0
40
0
40
1
40
1
40
1
40
1
41
1
10
26.4079844341096
20
-8.68348818913302
30
0
41
1
10
26.305617152232
20
-8.68119060056466
30
0
41
1
10
26.2032563014157
20
-8.67550756998261
30
0
41
1
10
26.1010118171171
20
-8.66614581601641
30
0
0
SPLINE
5
186
100
AcDbEntity
8
1
62
256
6
ByLayer
370
18
48
1
60
0
100
AcDbSpline
70
4
71
3
72
8
73
4
40
0
40
0
40
0
40
0
40
1
40
1
40
1
40
1
41
1
10
28.7903026513621
20
-8.73695827255438
30
0
41
1
10
27.9961965789464
20
-8.71913491141493
30
0
41
1
10
27.2020905065264
20
-8.70131155027207
30
0
41
1
10
26.4079844341073
20
-8.68348818912989
30
0
0
SPLINE
5
187
100
AcDbEntity
8
1
62
256
6
ByLayer
370
18
48
1
60
0
100
AcDbSpline
70
4
71
3
72
15
73
11
40
0
40
0
40
0
40
0
40
0.125
40
0.25
40
0.375
40
0.5
40
0.625
40
0.75
40
0.875
40
1
40
1
40
1
40
1
41
1
10
28.7903026501182
20
-8.73695826887706
30
0
41
1
10
28.8262899309514
20
-8.73776598950042
30
0
41
1
10
28.8981367730226
20
-8.73222558236239
30
0
41
1
10
29.0012364644647
20
-8.7028104542043
30
0
41
1
10
29.0955558098149
20
-8.65344624445649
30
0
41
1
10
29.1773052524576
20
-8.58606816296233
30
0
41
1
10
29.2431746349596
20
-8.50334591467308
30
0
41
1
10
29.2904867941874
20
-8.40859088029944
30
0
41
1
10
29.3173151787855
20
-8.30561710384686
30
0
41
1
10
29.3208155178875
20
-8.23425992462109
30
0
41
1
10
29.3189318025393
20
-8.1986249613706
30
0
0
SPLINE
5
188
100
AcDbEntity
8
1
62
256
6
ByLayer
370
18
48
1
60
0
100
AcDbSpline
70
4
71
3
72
8
73
4
40
0
40
0
40
0
40
0
40
1
40
1
40
1
40
1
41
1
10
29.2845005819522
20
-7.5472763714032
30
0
41
1
10
29.2959776560529
20
-7.76439256904092
30
0
41
1
10
29.3074547301535
20
-7.98150876667978
30
0
41
1
10
29.3189318042541
20
-8.19862496432006
30
0
0
SPLINE
5
189
100
AcDbEntity
8
1
62
256
6
ByLayer
370
18
48
1
60
0
100
AcDbSpline
70
4
71
3
72
15
73
11
40
0
40
0
40
0
40
0
40
0.0468405361323815
40
0.205700446776985
40
0.364560357421588
40
0.523420268066191
40
0.682280178710794
40
0.841140089355397
40
0.920570044677698
40
1
40
1
40
1
40
1
41
1
10
21.0276040395336
20
5.60044858711657
30
0
41
1
10
21.0284420178031
20
5.61889459115196
30
0
41
1
10
21.0321264189431
20
5.69991707397801
30
0
41
1
10
21.0386207439885
20
5.84338960082815
30
0
41
1
10
21.0470645041129
20
6.03084626758746
30
0
41
1
10
21.055487747171
20
6.21834847492156
30
0
41
1
10
21.0638912397219
20
6.4058794316575
30
0
41
1
10
21.0708783302243
20
6.56216519412823
30
0
41
1
10
21.0764588939317
20
6.68719138763282
30
0
41
1
10
21.0792462034338
20
6.74970227963001
30
0
41
1
10
21.0804083068696
20
6.77578097734823
30
0
0
SPLINE
5
18A
100
AcDbEntity
8
1
62
256
6
ByLayer
370
18
48
1
60
0
100
AcDbSpline
70
4
71
3
72
8
73
4
40
0
40
0
40
0
40
0
40
1
40
1
40
1
40
1
41
1
10
21.0804083068696
20
6.77578097734823
30
0
41
1
10
21.0804854385279
20
6.77751188454445
30
0
41
1
10
21.0805629861414
20
6.77923710156668
30
0
41
1
10
21.0806409625861
20
6.78095681592882
30
0
0
SPLINE
5
18B
100
AcDbEntity
8
1
62
256
6
ByLayer
370
18
48
1
60
0
100
AcDbSpline
70
4
71
3
72
18
73
14
40
0
40
0
40
0
40
0
40
0.121162915242483
40
0.246484790770075
40
0.497128541825261
40
0.622450417352854
40
0.747772292880447
40
0.87309416840804
40
0.935755106171836
40
0.967085575053734
40
0.982750809494683
40
0.998416043935632
40
1
40
1
40
1
40
1
41
1
10
21.0806409625861
20
6.78095681592882
30
0
41
1
10
21.0829126489494
20
6.8310572235348
30
0
41
1
10
21.0882744156102
20
6.92347689177302
30
0
41
1
10
21.1047837023112
20
7.10959354089547
30
0
41
1
10
21.1316484767762
20
7.29628921523445
30
0
41
1
10
21.1719596600758
20
7.48154355234178
30
0
41
1
10
21.2097325932064
20
7.61876479285564
30
0
41
1
10
21.2478804078265
20
7.73026722797195
30
0
41
1
10
21.279460867476
20
7.80878038106678
30
0
41
1
10
21.2950841361797
20
7.84505616562052
30
0
41
1
10
21.3063424506105
20
7.86999759981111
30
0
41
1
10
21.3110590665034
20
7.88024383773663
30
0
41
1
10
21.3128086130167
20
7.88402671055866
30
0
41
1
10
21.3129637474173
20
7.88436195266681
30
0
0
SPLINE
5
18C
100
AcDbEntity
8
1
62
256
6
ByLayer
370
18
48
1
60
0
100
AcDbSpline
70
4
71
3
72
18
73
14
40
0
40
0
40
0
40
0
40
0.0140665296237857
40
0.0610130095741352
40
0.123608316174601
40
0.186203622775067
40
0.248798929375533
40
0.499180155777397
40
0.749561382179261
40
0.874751995380193
40
0.937347301980659
40
0.999942608581125
40
1
40
1
40
1
40
1
41
1
10
21.3129637474173
20
7.88436195266681
30
0
41
1
10
21.3143428833224
20
7.88734223574087
30
0
41
1
10
21.318431683423
20
7.89611067001681
30
0
41
1
10
21.3252788228869
20
7.91079059811563
30
0
41
1
10
21.3327289779378
20
7.92668106651786
30
0
41
1
10
21.3426564408201
20
7.94784687309385
30
0
41
1
10
21.3640119134812
20
7.99330052632891
30
0
41
1
10
21.3937990666315
20
8.05616568077576
30
0
41
1
10
21.4283815341326
20
8.12835265180735
30
0
41
1
10
21.4524093559021
20
8.17803607799155
30
0
41
1
10
21.4665328921074
20
8.20710700233647
30
0
41
1
10
21.4734465222624
20
8.22131452721948
30
0
41
1
10
21.4768148893711
20
8.22818618963797
30
0
41
1
10
21.476818942769
20
8.2281944587512
30
0
0
SPLINE
5
18D
100
AcDbEntity
8
1
62
256
6
ByLayer
370
18
48
1
60
0
100
AcDbSpline
70
4
71
3
72
24
73
20
40
0
40
0
40
0
40
0
40
0.0624500259146228
40
0.124960610188412
40
0.249981778735992
40
0.265609424804439
40
0.281237070872887
40
0.300771628458446
40
0.312492363009781
40
0.343747655146676
40
0.375002947283571
40
0.50002411583115
40
0.750066452926309
40
0.875087621473888
40
0.937598205747678
40
0.968853497884573
40
0.98448114395302
40
0.992294966987244
40
1
40
1
40
1
40
1
41
1
10
21.4768190700114
20
8.22819471833276
30
0
41
1
10
21.4801815699662
20
8.23505435876785
30
0
41
1
10
21.4867316658812
20
8.24831369976715
30
0
41
1
10
21.499827814833
20
8.27401794649748
30
0
41
1
10
21.511137495978
20
8.29528051431083
30
0
41
1
10
21.5200635189052
20
8.31144863636862
30
0
41
1
10
21.522981157283
20
8.31668987923473
30
0
41
1
10
21.5256920368254
20
8.32151420289429
30
0
41
1
10
21.5293280129477
20
8.32793058709703
30
0
41
1
10
21.5336813026328
20
8.33552408107434
30
0
41
1
10
21.5448147985886
20
8.35461459496059
30
0
41
1
10
21.5696996237887
20
8.39548609589278
30
0
41
1
10
21.6028994211604
20
8.44448885658167
30
0
41
1
10
21.6350278325812
20
8.48528941119494
30
0
41
1
10
21.6528766374535
20
8.5041342451197
30
0
41
1
10
21.6623239298474
20
8.51302477126029
30
0
41
1
10
21.6673451021711
20
8.51714659777187
30
0
41
1
10
21.6703666558809
20
8.51934499894134
30
0
41
1
10
21.6718716412046
20
8.52039569056285
30
0
41
1
10
21.6727286822121
20
8.52087832913031
30
0
0
SPLINE
5
18E
100
AcDbEntity
8
1
62
256
6
ByLayer
370
18
48
1
60
0
100
AcDbSpline
70
4
71
3
72
30
73
26
40
0
40
0
40
0
40
0
40
0.000109420267779
40
0.0079685106253158
40
0.0158276009828525
40
0.031545781697926
40
0.062982143128073
40
0.125854865988367
40
0.251600311708955
40
0.377345757429543
40
0.40878211885969
40
0.416641209217226
40
0.424500299574763
40
0.4323593899323
40
0.440218480289837
40
0.471654841719984
40
0.50309120315013
40
0.518809383865204
40
0.628836648870718
40
0.754582094591306
40
0.8174548174516
40
0.880327540311894
40
0.943200263172188
40
0.974636624602335
40
1
40
1
40
1
40
1
41
1
10
21.6727286822121
20
8.52087832913031
30
0
41
1
10
21.67274078307
20
8.52088514367088
30
0
41
1
10
21.6736236202165
20
8.52138084475999
30
0
41
1
10
21.6756110646271
20
8.52228265693458
30
0
41
1
10
21.6794344579078
20
8.52410412349454
30
0
41
1
10
21.6862002914241
20
8.52723215712837
30
0
41
1
10
21.6997571800057
20
8.53334287403558
30
0
41
1
10
21.7271374742111
20
8.54493211946584
30
0
41
1
10
21.7668684583342
20
8.55975847480579
30
0
41
1
10
21.8032346492345
20
8.57112983183282
30
0
41
1
10
21.824616961373
20
8.5770929260519
30
0
41
1
10
21.8307372956619
20
8.57874966910907
30
0
41
1
10
21.8337996358659
20
8.57956868466266
30
0
41
1
10
21.8368641017392
20
8.58037838789591
30
0
41
1
10
21.8429971900437
20
8.58197925703104
30
0
41
1
10
21.8522120541649
20
8.58431137315105
30
0
41
1
10
21.8624753431087
20
8.58678194138577
30
0
41
1
10
21.8830349563182
20
8.59154556237993
30
0
41
1
10
21.916054817502
20
8.59841640751151
30
0
41
1
10
21.9552863546278
20
8.60500404578534
30
0
41
1
10
21.989469447952
20
8.60961100178136
30
0
41
1
10
22.0145566029212
20
8.61253068483887
30
0
41
1
10
22.0328178457704
20
8.61437725776366
30
0
41
1
10
22.0502680001382
20
8.61580134329529
30
0
41
1
10
22.0480592673165
20
8.61569591598604
30
0
41
1
10
22.0643108561198
20
8.6168182323332
30
0
0
SPLINE
5
18F
100
AcDbEntity
8
1
62
256
6
ByLayer
370
18
48
1
60
0
100
AcDbSpline
70
4
71
3
72
25
73
21
40
0
40
0
40
0
40
0
40
0.0059772068261442
40
0.0214474905650171
40
0.03691777430389
40
0.0678583417816357
40
0.129739476737127
40
0.25350174664811
40
0.485556002731203
40
0.501026286470076
40
0.531966853947822
40
0.562907421425568
40
0.624788556381059
40
0.748550826292042
40
0.872313096203025
40
0.934194231158517
40
0.965134798636263
40
0.980605082375136
40
0.996075366114008
40
1
40
1
40
1
40
1
41
1
10
22.0643108561198
20
8.6168182323332
30
0
41
1
10
22.0682021233609
20
8.61708695884906
30
0
41
1
10
22.0857109306288
20
8.61829177016122
30
0
41
1
10
22.1436319930839
20
8.62225460738523
30
0
41
1
10
22.2960386051692
20
8.63259310526701
30
0
41
1
10
22.5011977082509
20
8.64615285703283
30
0
41
1
10
22.9547967229424
20
8.6751206752096
30
0
41
1
10
23.8028821103426
20
8.7248220684699
30
0
41
1
10
24.5642040927488
20
8.76239939572528
30
0
41
1
10
25.1353475735935
20
8.78703398483893
30
0
41
1
10
25.2939934550706
20
8.79369175215598
30
0
41
1
10
25.5477699531627
20
8.80395063229344
30
0
41
1
10
25.9916085137751
20
8.82087452277167
30
0
41
1
10
26.624200332587
20
8.84213343903872
30
0
41
1
10
27.2529985930428
20
8.85956121583067
30
0
41
1
10
27.7055887156029
20
8.87004684690473
30
0
41
1
10
27.9124893278931
20
8.87443977438843
30
0
41
1
10
28.0622482988234
20
8.87740868472153
30
0
41
1
10
28.11954805255
20
8.87851854265773
30
0
41
1
10
28.1395762257012
20
8.87889236085746
30
0
41
1
10
28.1432086865362
20
8.87895924442753
30
0
0
SPLINE
5
190
100
AcDbEntity
8
1
62
256
6
ByLayer
370
18
48
1
60
0
100
AcDbSpline
70
4
71
3
72
33
73
29
40
0
40
0
40
0
40
0
40
0.0273823410709167
40
0.05874254443853
40
0.0901027478061432
40
0.121462951173756
40
0.184183357908983
40
0.246903764644209
40
0.309624171379436
40
0.372344578114663
40
0.403704781482276
40
0.435064984849889
40
0.497785391585116
40
0.529145594952729
40
0.560505798320342
40
0.591866001687955
40
0.623226205055569
40
0.685946611790795
40
0.717306815158409
40
0.748667018526022
40
0.764347120209828
40
0.811387425261248
40
0.874107831996475
40
0.936828238731701
40
0.968188442099315
40
0.983868543783121
40
0.999548645466928
40
1
40
1
40
1
40
1
41
1
10
28.1432086865362
20
8.87895924442753
30
0
41
1
10
28.1682133936109
20
8.87941964968829
30
0
41
1
10
28.17912866361
20
8.87951686251827
30
0
41
1
10
28.2044208405362
20
8.87953069251668
30
0
41
1
10
28.2353794097006
20
8.87928318695762
30
0
41
1
10
28.2777593525099
20
8.8784866131885
30
0
41
1
10
28.3288252154568
20
8.87649643988448
30
0
41
1
10
28.3903262141639
20
8.87243352910804
30
0
41
1
10
28.4515467306907
20
8.86655364992822
30
0
41
1
10
28.5022119320351
20
8.85957637146262
30
0
41
1
10
28.5427157211294
20
8.85222225160877
30
0
41
1
10
28.5825787376791
20
8.84211416867899
30
0
41
1
10
28.620183485716
20
8.82584024386483
30
0
41
1
10
28.6525135240194
20
8.80109683386996
30
0
41
1
10
28.673396290378
20
8.77928312069926
30
0
41
1
10
28.6917154647632
20
8.75503586788298
30
0
41
1
10
28.7130827741108
20
8.72072697088237
30
0
41
1
10
28.730459927796
20
8.68392277776931
30
0
41
1
10
28.7430832608175
20
8.64555023732942
30
0
41
1
10
28.7495547179082
20
8.62116030736513
30
0
41
1
10
28.7564613949394
20
8.59170402477199
30
0
41
1
10
28.7641744235069
20
8.5520789307206
30
0
41
1
10
28.7714067998146
20
8.4966425612632
30
0
41
1
10
28.7749677127124
20
8.44519191296621
30
0
41
1
10
28.7760094396764
20
8.41082830527068
30
0
41
1
10
28.7761621098142
20
8.38833005631875
30
0
41
1
10
28.7761187667779
20
8.37859778482152
30
0
41
1
10
28.7760868259664
20
8.37437153578361
30
0
41
1
10
28.7760859248295
20
8.37425382629309
30
0
0
SPLINE
5
191
100
AcDbEntity
8
1
62
256
6
ByLayer
370
18
48
1
60
0
100
AcDbSpline
70
4
71
3
72
22
73
18
40
0
40
0
40
0
40
0
40
0.0112892879508321
40
0.0621620442639553
40
0.124774667418569
40
0.249999913727795
40
0.500450406346248
40
0.750900898964701
40
0.813513522119314
40
0.829166677907968
40
0.844819833696621
40
0.860472989485274
40
0.876126145273927
40
0.938738768428541
40
0.970045080005847
40
0.985698235794501
40
1
40
1
40
1
40
1
41
1
10
28.7760859248295
20
8.37425382629309
30
0
41
1
10
28.7760633467778
20
8.37130460616601
30
0
41
1
10
28.7759133080407
20
8.3569319651134
30
0
41
1
10
28.7756712253007
20
8.33436778664696
30
0
41
1
10
28.7752615403226
20
8.30100029351297
30
0
41
1
10
28.7742673647697
20
8.21858436771058
30
0
41
1
10
28.7726958715812
20
8.11177919707845
30
0
41
1
10
28.7711114395376
20
8.0123523891821
30
0
41
1
10
28.7699951656634
20
7.95477080085149
30
0
41
1
10
28.7696692455381
20
7.93831128835709
30
0
41
1
10
28.7695052250845
20
7.93007813392796
30
0
41
1
10
28.7693404807959
20
7.92183970915784
30
0
41
1
10
28.7690102176595
20
7.90534857461742
30
0
41
1
10
28.7686246147782
20
7.88605633214192
30
0
41
1
10
28.7683093036955
20
7.86714424097343
30
0
41
1
10
28.7680653015678
20
7.85591027387531
30
0
41
1
10
28.7680988346912
20
7.85216343854464
30
0
41
1
10
28.7679352390548
20
7.84777710653231
30
0
0
SPLINE
5
192
100
AcDbEntity
8
1
62
256
6
ByLayer
370
18
48
1
60
0
100
AcDbSpline
70
4
71
3
72
21
73
17
40
0
40
0
40
0
40
0
40
0.0013467736322164
40
0.0169464397395127
40
0.032546105846809
40
0.0637454380614015
40
0.126144102490587
40
0.250941431348957
40
0.375738760207327
40
0.500536089065697
40
0.625333417924068
40
0.750130746782438
40
0.874928075640808
40
0.937326740069994
40
0.999725404499179
40
1
40
1
40
1
40
1
41
1
10
28.7679352390548
20
7.84777710653231
30
0
41
1
10
28.7679197806986
20
7.84736263653565
30
0
41
1
10
28.767705089919
20
7.84185554708336
30
0
41
1
10
28.7667501236311
20
7.82345849746756
30
0
41
1
10
28.7655286318837
20
7.7935210257705
30
0
41
1
10
28.7628923054264
20
7.73809434712652
30
0
41
1
10
28.7580760250774
20
7.62919123391609
30
0
41
1
10
28.750941426653
20
7.47268683711695
30
0
41
1
10
28.7424628409936
20
7.285385434072
30
0
41
1
10
28.734015091274
20
7.09783679074565
30
0
41
1
10
28.7255460809841
20
6.90928979374249
30
0
41
1
10
28.7171594365605
20
6.72214974281704
30
0
41
1
10
28.7103255597932
20
6.56937657190596
30
0
41
1
10
28.7044100353756
20
6.43665959693112
30
0
41
1
10
28.7016637174322
20
6.37445082564284
30
0
41
1
10
28.7004355945376
20
6.34767915203577
30
0
41
1
10
28.7004302164708
20
6.34756193932938
30
0
0
SPLINE
5
193
100
AcDbEntity
8
1
62
256
6
ByLayer
370
18
48
1
60
0
100
AcDbSpline
70
4
71
3
72
14
73
10
40
0
40
0
40
0
40
0
40
0.0205879121237693
40
0.0415447196468266
40
0.0834583346929412
40
0.167285564785171
40
0.334940024969629
40
0.670248945338546
40
1
40
1
40
1
40
1
41
1
10
28.7004302164708
20
6.34756193932938
30
0
41
1
10
28.7001300686028
20
6.34102034270489
30
0
41
1
10
28.6995420491157
20
6.32834931609955
30
0
41
1
10
28.6983851386651
20
6.30467381004061
30
0
41
1
10
28.6962885205216
20
6.2667973770946
30
0
41
1
10
28.6908125517914
20
6.18224061136189
30
0
41
1
10
28.6763033786064
20
6.0194975113734
30
0
41
1
10
28.6429712208695
20
5.78700823455551
30
0
41
1
10
28.5985721512175
20
5.60363987807941
30
0
41
1
10
28.5713762355286
20
5.5147848537182
30
0
0
SPLINE
5
194
100
AcDbEntity
8
1
62
256
6
ByLayer
370
18
48
1
60
0
100
AcDbSpline
70
4
71
3
72
21
73
17
40
0
40
0
40
0
40
0
40
0.0039822658528485
40
0.0174419649629451
40
0.0309016640730418
40
0.0847404605134284
40
0.138579256953815
40
0.246256849834588
40
0.353934442715361
40
0.461612035596134
40
0.569289628476907
40
0.676967221357681
40
0.784644814238454
40
0.892322407119227
40
0.946161203559613
40
1
40
1
40
1
40
1
41
1
10
29.9947814012944
20
9.16219779821139
30
0
41
1
10
29.9947475688335
20
9.16373804096753
30
0
41
1
10
29.9945847951263
20
9.17056924469983
30
0
41
1
10
29.9941504799159
20
9.18348819329461
30
0
41
1
10
29.9923341129566
20
9.21771886859315
30
0
41
1
10
29.986929567401
20
9.26765629953937
30
0
41
1
10
29.9700053443402
20
9.35556926666422
30
0
41
1
10
29.9358891590729
20
9.46038955723964
30
0
41
1
10
29.8746313194986
20
9.57855602552658
30
0
41
1
10
29.7952353671715
20
9.68425326308639
30
0
41
1
10
29.6990721733958
20
9.77588260598682
30
0
41
1
10
29.5888463446781
20
9.85041624449113
30
0
41
1
10
29.4671715497885
20
9.90588203491529
30
0
41
1
10
29.3587182442506
20
9.93463997310363
30
0
41
1
10
29.2699162473045
20
9.94661551948226
30
0
41
1
10
29.2247478472673
20
9.94882931727645
30
0
41
1
10
29.202918998571
20
9.94896261303091
30
0
0
SPLINE
5
195
100
AcDbEntity
8
1
62
256
6
ByLayer
370
18
48
1
60
0
100
AcDbSpline
70
4
71
3
72
8
73
4
40
0
40
0
40
0
40
0
40
1
40
1
40
1
40
1
41
1
10
29.202918998571
20
9.94896261303091
30
0
41
1
10
29.2025951187305
20
9.94896459077185
30
0
41
1
10
29.2022720920487
20
9.94896656259124
30
0
41
1
10
29.2019498932055
20
9.94896852864477
30
0
0
SPLINE
5
196
100
AcDbEntity
8
1
62
256
6
ByLayer
370
18
48
1
60
0
100
AcDbSpline
70
4
71
3
72
11
73
7
40
0
40
0
40
0
40
0
40
0.0589687449404058
40
0.484373627158149
40
0.970550635406999
40
1
40
1
40
1
40
1
41
1
10
29.2019498932055
20
9.94896852864477
30
0
41
1
10
29.1914143156139
20
9.94903281661448
30
0
41
1
10
29.11214494895
20
9.94951024283853
30
0
41
1
10
28.9532960286058
20
9.95036912672927
30
0
41
1
10
28.799262241994
20
9.95100925800784
30
0
41
1
10
28.7148602712442
20
9.95129525331936
30
0
41
1
10
28.7100397530835
20
9.95131137665419
30
0
0
SPLINE
5
197
100
AcDbEntity
8
1
62
256
6
ByLayer
370
18
48
1
60
0
100
AcDbSpline
70
4
71
3
72
17
73
13
40
0
40
0
40
0
40
0
40
0.0600950229142425
40
0.184038916465191
40
0.431926703567089
40
0.679814490668986
40
0.927702277770884
40
0.989674224546358
40
0.993547471219825
40
0.997420717893292
40
0.999357341230026
40
1
40
1
40
1
40
1
41
1
10
28.7100397530835
20
9.95131137665419
30
0
41
1
10
28.5556972380192
20
9.95182761079434
30
0
41
1
10
28.0830171766914
20
9.95274633864324
30
0
41
1
10
26.9734740636116
20
9.95035982991902
30
0
41
1
10
25.3810871040859
20
9.93374500137958
30
0
41
1
10
23.4697146874102
20
9.89299382736633
30
0
41
1
10
22.03322452542
20
9.84691982598014
30
0
41
1
10
21.2309415253114
20
9.81585613390661
30
0
41
1
10
21.0499117184878
20
9.80860466526985
30
0
41
1
10
21.0251763564305
20
9.80760775908456
30
0
41
1
10
21.0091233765719
20
9.80695653471648
30
0
41
1
10
21.0018508497699
20
9.80665908215542
30
0
41
1
10
21.0000000332286
20
9.8065797022403
30
0
0
SPLINE
5
198
100
AcDbEntity
8
1
62
256
6
ByLayer
370
18
48
1
60
0
100
AcDbSpline
70
4
71
3
72
20
73
16
40
0
40
0
40
0
40
0
40
0.0166268555036239
40
0.0415115835804258
40
0.0663963116572278
40
0.165935223964436
40
0.265474136271644
40
0.315243592425247
40
0.464551960886059
40
0.663629785500475
40
0.862707610114891
40
0.912477066268495
40
0.962246522422099
40
0.9871312504989
40
1
40
1
40
1
40
1
41
1
10
21.0000000332285
20
9.8065797022403
30
0
41
1
10
20.9962734972565
20
9.80641987434674
30
0
41
1
10
20.9865770974645
20
9.80596753827035
30
0
41
1
10
20.9706675580601
20
9.80479026889597
30
0
41
1
10
20.9345050396355
20
9.80100910075777
30
0
41
1
10
20.8814151809285
20
9.79142172638083
30
0
41
1
10
20.8238741667726
20
9.77375894947602
30
0
41
1
10
20.7562424360396
20
9.74634986121558
30
0
41
1
10
20.6709033538851
20
9.6994513487027
30
0
41
1
10
20.5683392016486
20
9.61218023488107
30
0
41
1
10
20.5029819832265
20
9.5222988141077
30
0
41
1
10
20.4694802384275
20
9.45829373498594
30
0
41
1
10
20.4570817459028
20
9.43066350656491
30
0
41
1
10
20.449121515744
20
9.41057231222021
30
0
41
1
10
20.4461690869094
20
9.40257498900149
30
0
41
1
10
20.4451980159537
20
9.3999119182248
30
0
0
SPLINE
5
199
100
AcDbEntity
8
1
62
256
6
ByLayer
370
18
48
1
60
0
100
AcDbSpline
70
4
71
3
72
13
73
9
40
0
40
0
40
0
40
0
40
0.0057624935460861
40
0.0296303931158606
40
0.220573589674056
40
0.602459982790447
40
0.984346375906838
40
1
40
1
40
1
40
1
41
1
10
20.4451980159537
20
9.3999119182248
30
0
41
1
10
20.4442912947686
20
9.39742532064241
30
0
41
1
10
20.4397872481678
20
9.38492144938772
30
0
41
1
10
20.409013112203
20
9.30026176609954
30
0
41
1
10
20.3229592477992
20
9.06266503067806
30
0
41
1
10
20.1871609056234
20
8.68828376335659
30
0
41
1
10
20.076687813943
20
8.38373686051639
30
0
41
1
10
20.0193526203678
20
8.22546069781492
30
0
41
1
10
20.0170980839436
20
8.21922068485421
30
0
0
SPLINE
5
19A
100
AcDbEntity
8
1
62
256
6
ByLayer
370
18
48
1
60
0
100
AcDbSpline
70
4
71
3
72
17
73
13
40
0
40
0
40
0
40
0
40
0.029558868104139
40
0.0735401813589724
40
0.161502807868639
40
0.337428060887973
40
0.513353313907306
40
0.68927856692664
40
0.865203819945973
40
0.95316644645564
40
0.997147759710474
40
1
40
1
40
1
40
1
41
1
10
20.0170980839436
20
8.21922068485421
30
0
41
1
10
20.0124774011047
20
8.20643174940344
30
0
41
1
10
20.0010139675248
20
8.17453344319006
30
0
41
1
10
19.9765594189165
20
8.10367533360821
30
0
41
1
10
19.9325456689732
20
7.96786989884876
30
0
41
1
10
19.8773938327037
20
7.77187041734371
30
0
41
1
10
19.8236811847721
20
7.53423358632151
30
0
41
1
10
19.7825092414957
20
7.29426596185809
30
0
41
1
10
19.75890372296
20
7.0936499591183
30
0
41
1
10
19.7478169771327
20
6.95257496841339
30
0
41
1
10
19.7443664984137
20
6.89107937586218
30
0
41
1
10
19.7432458054172
20
6.86981943693348
30
0
41
1
10
19.7431778220345
20
6.86852506383056
30
0
0
SPLINE
5
19B
100
AcDbEntity
8
1
62
256
6
ByLayer
370
18
48
1
60
0
100
AcDbSpline
70
4
71
3
72
13
73
9
40
0
40
0
40
0
40
0
40
0.0462602701138052
40
0.0709944457764175
40
0.244133675414703
40
0.442007080715601
40
0.837753891317398
40
1
40
1
40
1
40
1
41
1
10
19.7431778220345
20
6.86852506383056
30
0
41
1
10
19.7421975071869
20
6.84986030897466
30
0
41
1
10
19.7407787757551
20
6.82134110613214
30
0
41
1
10
19.7358385877427
20
6.72389738401088
30
0
41
1
10
19.7278078619395
20
6.5659231488878
30
0
41
1
10
19.7121817347679
20
6.25981820550493
30
0
41
1
10
19.6967002332497
20
5.95806268832757
30
0
41
1
10
19.6852622749911
20
5.73530114274868
30
0
41
1
10
19.6819452469447
20
5.67052895528715
30
0
0
SPLINE
5
19C
100
AcDbEntity
8
1
62
256
6
ByLayer
370
18
48
1
60
0
100
AcDbSpline
70
4
71
3
72
11
73
7
40
0
40
0
40
0
40
0
40
0.0682463938507253
40
0.524769712524566
40
0.981293031198406
40
1
40
1
40
1
40
1
41
1
10
29.2842993899015
20
4.07682215866069
30
0
41
1
10
29.2924925697413
20
4.09943269939879
30
0
41
1
10
29.355596169313
20
4.27360847040327
30
0
41
1
10
29.4723538231715
20
4.5955018923726
30
0
41
1
10
29.5828280457588
20
4.90004510474358
30
0
41
1
10
29.6401643348883
20
5.05831920365452
30
0
41
1
10
29.6424182170793
20
5.06455719738193
30
0
0
SPLINE
5
19D
100
AcDbEntity
8
1
62
256
6
ByLayer
370
18
48
1
60
0
100
AcDbSpline
70
4
71
3
72
17
73
13
40
0
40
0
40
0
40
0
40
0.0295634678907697
40
0.073544695850052
40
0.161507151768617
40
0.337432063605746
40
0.513356975442876
40
0.689281887280005
40
0.865206799117134
40
0.953169255035699
40
0.997150482994981
40
1
40
1
40
1
40
1
41
1
10
29.6424182170793
20
5.06455719738193
30
0
41
1
10
29.647039779199
20
5.07734813899745
30
0
41
1
10
29.6585043198626
20
5.10924845837778
30
0
41
1
10
29.6829601069213
20
5.18010870533482
30
0
41
1
10
29.7269743944518
20
5.31591465963447
30
0
41
1
10
29.7821258243301
20
5.51191515062825
30
0
41
1
10
29.8358379725656
20
5.74955238748171
30
0
41
1
10
29.8770098820059
20
5.98951984751164
30
0
41
1
10
29.9006152452047
20
6.19013582042697
30
0
41
1
10
29.9117018658022
20
6.33121087377358
30
0
41
1
10
29.9151522414679
20
6.39270515681028
30
0
41
1
10
29.9162728604077
20
6.41396385597477
30
0
41
1
10
29.9163407786905
20
6.4152569957854
30
0
0
SPLINE
5
19E
100
AcDbEntity
8
1
62
256
6
ByLayer
370
18
48
1
60
0
100
AcDbSpline
70
4
71
3
72
32
73
28
40
0
40
0
40
0
40
0
40
0.0201722500279436
40
0.030957120221128
40
0.106451211573419
40
0.192730173118894
40
0.365288096209843
40
0.451567057755318
40
0.494706538528056
40
0.537846019300793
40
0.543238454397386
40
0.548630889493978
40
0.55402332459057
40
0.556719542138866
40
0.559415759687162
40
0.564808194783754
40
0.570200629880346
40
0.580985500073531
40
0.624124980846268
40
0.710403942391743
40
0.796682903937218
40
0.882961865482693
40
0.969240827028168
40
0.980025697221353
40
0.990810567414537
40
0.996203002511129
40
1
40
1
40
1
40
1
41
1
10
29.9163407786905
20
6.4152569957854
30
0
41
1
10
29.91732115367
20
6.4339229847304
30
0
41
1
10
29.9187399242413
20
6.46244342321512
30
0
41
1
10
29.9236800535386
20
6.55988852321846
30
0
41
1
10
29.9317103432822
20
6.71786332020221
30
0
41
1
10
29.9473351989015
20
7.02396989322497
30
0
41
1
10
29.9635452387463
20
7.33994997009023
30
0
41
1
10
29.9777428493141
20
7.61643136686899
30
0
41
1
10
29.9858101308772
20
7.77441939118688
30
0
41
1
10
29.9901851484711
20
7.85835227504319
30
0
41
1
10
29.9927078385916
20
7.90772306816288
30
0
41
1
10
29.9934458055128
20
7.92253428459094
30
0
41
1
10
29.9941010398286
20
7.9348786862688
30
0
41
1
10
29.9946008047997
20
7.9447516560806
30
0
41
1
10
29.9949024973316
20
7.95462699346987
30
0
41
1
10
29.9950534818412
20
7.9669750911979
30
0
41
1
10
29.9953071875954
20
7.98673173547553
30
0
41
1
10
29.996166088345
20
8.04105773806532
30
0
41
1
10
29.9980602686218
20
8.1694523312697
30
0
41
1
10
29.999734637012
20
8.36694376671466
30
0
41
1
10
30.0002180588471
20
8.60386909781604
30
0
41
1
10
29.9991240408541
20
8.84072977439351
30
0
41
1
10
29.997195194351
20
9.00846010365842
30
0
41
1
10
29.995681080144
20
9.10710977252356
30
0
41
1
10
29.9952603919523
20
9.13183540604302
30
0
41
1
10
29.9950111240629
20
9.14992691349053
30
0
41
1
10
29.9948619194974
20
9.15853215948698
30
0
41
1
10
29.9947814012944
20
9.16219779821139
30
0
0
SPLINE
5
19F
100
AcDbEntity
8
1
62
256
6
ByLayer
370
18
48
1
60
0
100
AcDbSpline
70
4
71
3
72
56
73
52
40
0
40
0
40
0
40
0
40
0.0104019313126789
40
0.0208038626253577
40
0.0416077252507155
40
0.0624115878760732
40
0.083215450501431
40
0.104019313126789
40
0.124823175752147
40
0.145627038377504
40
0.166430901002862
40
0.176832832315541
40
0.18723476362822
40
0.189835246456389
40
0.192435729284559
40
0.195036212112729
40
0.197636694940899
40
0.202837660597238
40
0.208038626253577
40
0.249646351504293
40
0.291254076755008
40
0.332861802005724
40
0.374469527256439
40
0.395273389881797
40
0.400474355538136
40
0.403074838366306
40
0.405675321194476
40
0.406975562608561
40
0.408275804022646
40
0.410876286850815
40
0.413476769678985
40
0.416077252507155
40
0.436881115132512
40
0.45768497775787
40
0.499292703008586
40
0.582508153510017
40
0.624115878760732
40
0.660522638355108
40
0.665723604011448
40
0.676125535324127
40
0.686527466636805
40
0.707331329262163
40
0.748939054512879
40
0.790546779763594
40
0.83215450501431
40
0.873762230265025
40
0.894566092890383
40
0.904968024203062
40
0.915369955515741
40
0.998585406017172
40
1
40
1
40
1
40
1
41
1
10
29.1919535522889
20
9.75395938242178
30
0
41
1
10
29.2100901557787
20
9.75384862190023
30
0
41
1
10
29.2445579469942
20
9.75213155914133
30
0
41
1
10
29.3127194431742
20
9.74283976600714
30
0
41
1
10
29.3955828894742
20
9.72055551836601
30
0
41
1
10
29.4884391077009
20
9.67774679702265
30
0
41
1
10
29.5725434392635
20
9.62042605969501
30
0
41
1
10
29.6457239148311
20
9.55014891457279
30
0
41
1
10
29.7063921990195
20
9.46890359680066
30
0
41
1
10
29.7529599564446
20
9.37867834152323
30
0
41
1
10
29.7790949351384
20
9.29812139345427
30
0
41
1
10
29.7919212277157
20
9.23074193613118
30
0
41
1
10
29.7959996466018
20
9.19264937421787
30
0
41
1
10
29.7973418741753
20
9.1678963484915
30
0
41
1
10
29.7977898925992
20
9.15491822314729
30
0
41
1
10
29.7980670639677
20
9.14060846973118
30
0
41
1
10
29.7983420743367
20
9.12071681777235
30
0
41
1
10
29.7987583869782
20
9.0961363952384
30
0
41
1
10
29.8005898405964
20
8.99848813708778
30
0
41
1
10
29.8032861914984
20
8.83119659708507
30
0
41
1
10
29.8052476505575
20
8.5955722666497
30
0
41
1
10
29.8042724756355
20
8.35974748507246
30
0
41
1
10
29.8007309920676
20
8.16321525863455
30
0
41
1
10
29.7972481858315
20
8.03546598051199
30
0
41
1
10
29.7955797037817
20
7.98141782559031
30
0
41
1
10
29.7949520710103
20
7.96176391480452
30
0
41
1
10
29.7945511620371
20
7.9494802066092
30
0
41
1
10
29.7942252966758
20
7.93965323237512
30
0
41
1
10
29.7938960208297
20
7.92982625325408
30
0
41
1
10
29.7934780594334
20
7.91754252062384
30
0
41
1
10
29.7929664090393
20
7.9028020288907
30
0
41
1
10
29.7912275514095
20
7.85366701915524
30
0
41
1
10
29.7880186081229
20
7.77013725275319
30
0
41
1
10
29.7812656877373
20
7.61290087807848
30
0
41
1
10
29.7679285791165
20
7.33771908281071
30
0
41
1
10
29.7508174334019
20
7.02314769530918
30
0
41
1
10
29.7349349104233
20
6.71836693031125
30
0
41
1
10
29.7268772862349
20
6.56089326023928
30
0
41
1
10
29.7219552890856
20
6.46288223407979
30
0
41
1
10
29.7195174746557
20
6.41396607717888
30
0
41
1
10
29.7151748881776
20
6.3365245312323
30
0
41
1
10
29.7045782967943
20
6.20179254633075
30
0
41
1
10
29.681938796604
20
6.00933485571687
30
0
41
1
10
29.6425398786992
20
5.77973831900974
30
0
41
1
10
29.5910716205172
20
5.55205837542306
30
0
41
1
10
29.5382587696339
20
5.36439216761028
30
0
41
1
10
29.4961267679357
20
5.23441022033225
30
0
41
1
10
29.4706353150319
20
5.16055427773131
30
0
41
1
10
29.4034941967876
20
4.97519859122389
30
0
41
1
10
29.3409519685623
20
4.80282577930919
30
0
41
1
10
29.2852816868294
20
4.64930465535039
30
0
41
1
10
29.284351167368
20
4.64673855189773
30
0
0
SPLINE
5
1A0
100
AcDbEntity
8
1
62
256
6
ByLayer
370
18
48
1
60
0
100
AcDbSpline
70
4
71
3
72
51
73
47
40
0
40
0
40
0
40
0
40
0.0176074898796751
40
0.0553918171919953
40
0.0742839808481554
40
0.0908146240472954
40
0.0931761445043155
40
0.0978991854183555
40
0.102622226332395
40
0.112068308160475
40
0.130960471816636
40
0.149852635472796
40
0.168744799128956
40
0.187636962785116
40
0.197083044613196
40
0.201806085527236
40
0.206529126441276
40
0.244313453753596
40
0.282097781065916
40
0.300989944722077
40
0.303351465179097
40
0.304532225407606
40
0.305712985636116
40
0.308074506093137
40
0.310436026550157
40
0.319882108378237
40
0.329328190206317
40
0.336412751577377
40
0.338774272034397
40
0.343497312948437
40
0.348220353862477
40
0.349401114090987
40
0.350581874319497
40
0.351762634548007
40
0.352943394776517
40
0.355304915233537
40
0.357666435690557
40
0.395450763002877
40
0.546588072252158
40
0.697725381501438
40
0.848862690750719
40
0.92443134537536
40
0.96221567268768
40
0.98110783634384
40
0.99763847954298
40
1
40
1
40
1
40
1
41
1
10
19.8773576360489
20
5.6476175752139
30
0
41
1
10
19.8806753091572
20
5.72089198651781
30
0
41
1
10
19.8918786466201
20
5.9514175067356
30
0
41
1
10
19.9086993871278
20
6.26064053722217
30
0
41
1
10
19.9245831992064
20
6.56541964442843
30
0
41
1
10
19.9326413302504
20
6.72289267250025
30
0
41
1
10
19.9375634708761
20
6.82090350105017
30
0
41
1
10
19.9400013213217
20
6.86981960087604
30
0
41
1
10
19.9443439409565
20
6.94726109370464
30
0
41
1
10
19.9549406501264
20
7.08199312345067
30
0
41
1
10
19.9775802086926
20
7.27445089631414
30
0
41
1
10
20.0169793509696
20
7.5040473391534
30
0
41
1
10
20.0684478969565
20
7.73172680034972
30
0
41
1
10
20.1212609647971
20
7.91939211910582
30
0
41
1
10
20.1633925693877
20
8.04937362832456
30
0
41
1
10
20.1888834995269
20
8.12322938737472
30
0
41
1
10
20.2560225482292
20
8.30858554963081
30
0
41
1
10
20.3723971196946
20
8.62933306260317
30
0
41
1
10
20.5091857415909
20
9.00675584303733
30
0
41
1
10
20.5928083851283
20
9.23714729517778
30
0
41
1
10
20.6262122463881
20
9.32941884538414
30
0
41
1
10
20.6322421615725
20
9.34593430483366
30
0
41
1
10
20.6381377393915
20
9.36100600615998
30
0
41
1
10
20.6463779092145
20
9.37931093711057
30
0
41
1
10
20.6687581872143
20
9.42218745687251
30
0
41
1
10
20.7118937594154
20
9.48150873180651
30
0
41
1
10
20.7802277769494
20
9.53999535842905
30
0
41
1
10
20.8372847354267
20
9.57140964314524
30
0
41
1
10
20.8822692534355
20
9.58970268184922
30
0
41
1
10
20.9209257536417
20
9.60155013778947
30
0
41
1
10
20.9568519177041
20
9.6080220767638
30
0
41
1
10
20.9802735789692
20
9.61050643496125
30
0
41
1
10
20.9922575571934
20
9.61140085612638
30
0
41
1
10
21.0057767138336
20
9.61200266668018
30
0
41
1
10
21.0253519480225
20
9.6127322928657
30
0
41
1
10
21.0503209199625
20
9.61375819698935
30
0
41
1
10
21.2293397473221
20
9.62093785240322
30
0
41
1
10
22.0349247289443
20
9.65211469132586
30
0
41
1
10
23.4670545665034
20
9.69804071395612
30
0
41
1
10
25.3762860410205
20
9.73874712223139
30
0
41
1
10
26.9668910040443
20
9.75534366485246
30
0
41
1
10
28.0799915774974
20
9.7577378985651
30
0
41
1
10
28.6364401131106
20
9.75663311568744
30
0
41
1
10
28.9444552978224
20
9.75535306827808
30
0
41
1
10
29.1034134604766
20
9.75449359055537
30
0
41
1
10
29.1828852505441
20
9.75401476268254
30
0
41
1
10
29.1919535522889
20
9.75395938242178
30
0
0
SPLINE
5
1A1
100
AcDbEntity
8
SK1
62
256
6
ByLayer
370
18
48
1
60
0
100
AcDbSpline
70
4
71
3
72
39
73
35
40
0
40
0
40
0
40
0
40
0.0679582974536613
40
0.0679582974536613
40
0.135916594907323
40
0.135916594907323
40
0.203874892360984
40
0.203874892360984
40
0.237854041087815
40
0.237854041087815
40
0.25484361545123
40
0.25484361545123
40
0.271833189814645
40
0.271833189814645
40
0.407749784721968
40
0.407749784721968
40
0.54366637962929
40
0.54366637962929
40
0.577645528356121
40
0.577645528356121
40
0.611624677082952
40
0.611624677082952
40
0.679582974536613
40
0.679582974536613
40
0.815499569443936
40
0.815499569443936
40
0.849478718170767
40
0.866468292534182
40
0.866468292534182
40
0.883457866897598
40
0.883457866897598
40
0.951416164351259
40
0.951416164351259
40
1
40
1
40
1
40
1
41
1
10
-15.5
20
-2.7415559402188
30
0
41
1
10
-15.5
20
-2.85410133734985
30
0
41
1
10
-15.5
20
-2.96383999708533
30
0
41
1
10
-15.5
20
-3.17784340131527
30
0
41
1
10
-15.5
20
-3.2821055423403
30
0
41
1
10
-15.5
20
-3.48510589096958
30
0
41
1
10
-15.5
20
-3.58383559323073
30
0
41
1
10
-15.5
20
-3.72775569824049
30
0
41
1
10
-15.5
20
-3.77503508901989
30
0
41
1
10
-15.5
20
-3.84490425018737
30
0
41
1
10
-15.5
20
-3.86804067844235
30
0
41
1
10
-15.5
20
-3.91380233588603
30
0
41
1
10
-15.5
20
-3.93643775725278
30
0
41
1
10
-15.5
20
-4.13796754697762
30
0
41
1
10
-15.5
20
-4.30162224856616
30
0
41
1
10
-15.5
20
-4.59878128280769
30
0
41
1
10
-15.5
20
-4.73231904330686
30
0
41
1
10
-15.5
20
-4.88006939325714
30
0
41
1
10
-15.5
20
-4.90867701878096
30
0
41
1
10
-15.5
20
-4.96353090744094
30
0
41
1
10
-15.5
20
-4.98983488779515
30
0
41
1
10
-15.5
20
-5.06543775583052
30
0
41
1
10
-15.5
20
-5.11143488690911
30
0
41
1
10
-15.5
20
-5.23643352220699
30
0
41
1
10
-15.5
20
-5.30246279330095
30
0
41
1
10
-15.5
20
-5.3632306032153
30
0
41
1
10
-15.5
20
-5.37982220003659
30
0
41
1
10
-15.5
20
-5.39393233214994
30
0
41
1
10
-15.5
20
-5.40278486853566
30
0
41
1
10
-15.5
20
-5.40693601271153
30
0
41
1
10
-15.5
20
-5.42623262399658
30
0
41
1
10
-15.5
20
-5.43707608546586
30
0
41
1
10
-15.5
20
-5.44808984550585
30
0
41
1
10
-15.5
20
-5.45043097171092
30
0
41
1
10
-15.5
20
-5.45051994020545
30
0
0
SPLINE
5
1A2
100
AcDbEntity
8
SK1
62
256
6
ByLayer
370
18
48
1
60
0
100
AcDbSpline
70
4
71
3
72
71
73
67
40
0
40
0
40
0
40
0
40
0.0389452627362284
40
0.0389452627362284
40
0.0789892101222191
40
0.0789892101222191
40
0.0990111838152144
40
0.0990111838152144
40
0.109022170661712
40
0.109022170661712
40
0.11903315750821
40
0.11903315750821
40
0.1590771048942
40
0.1590771048942
40
0.199121052280191
40
0.239164999666182
40
0.239164999666182
40
0.259186973359177
40
0.259186973359177
40
0.269197960205675
40
0.269197960205675
40
0.279208947052172
40
0.279208947052172
40
0.359296841824153
40
0.359296841824153
40
0.399340789210144
40
0.399340789210144
40
0.419362762903139
40
0.419362762903139
40
0.429373749749637
40
0.429373749749637
40
0.439384736596134
40
0.439384736596134
40
0.479428683982125
40
0.479428683982125
40
0.519472631368115
40
0.519472631368115
40
0.559516578754106
40
0.559516578754106
40
0.579538552447101
40
0.579538552447101
40
0.589549539293598
40
0.589549539293598
40
0.599560526140096
40
0.639604473526086
40
0.639604473526086
40
0.679648420912077
40
0.679648420912077
40
0.719692368298067
40
0.719692368298067
40
0.739714341991062
40
0.739714341991062
40
0.74972532883756
40
0.74972532883756
40
0.759736315684057
40
0.759736315684057
40
0.839824210456038
40
0.839824210456038
40
0.919912105228019
40
0.919912105228019
40
0.929923092074517
40
0.929923092074517
40
0.939934078921014
40
0.95995605261401
40
0.95995605261401
40
1
40
1
40
1
40
1
41
1
10
-15.630732156224
20
4.76258284998883
30
0
41
1
10
-15.6291750023162
20
4.76266575376596
30
0
41
1
10
-15.6275500640965
20
4.7571041343752
30
0
41
1
10
-15.6241520095986
20
4.73453533750737
30
0
41
1
10
-15.6223314198835
20
4.71722556478827
30
0
41
1
10
-15.6194716893106
20
4.68230303357495
30
0
41
1
10
-15.6185003880172
20
4.66916317164825
30
0
41
1
10
-15.6170239073491
20
4.64715868581243
30
0
41
1
10
-15.6165278311548
20
4.63943159872647
30
0
41
1
10
-15.6155319931281
20
4.62325640548377
30
0
41
1
10
-15.6150324968343
20
4.61481361690619
30
0
41
1
10
-15.6125242247546
20
4.57084523879317
30
0
41
1
10
-15.6104738321686
20
4.53007661146253
30
0
41
1
10
-15.60624882127
20
4.43769893121851
30
0
41
1
10
-15.6019189064725
20
4.33446034868004
30
0
41
1
10
-15.5975502328762
20
4.20940062841024
30
0
41
1
10
-15.5942133032288
20
4.10733976880556
30
0
41
1
10
-15.5930894922613
20
4.07194188341822
30
0
41
1
10
-15.5913815330225
20
4.01675106179775
30
0
41
1
10
-15.5908081704655
20
3.99799114637901
30
0
41
1
10
-15.5896594837738
20
3.95994664254647
30
0
41
1
10
-15.5890835598189
20
3.94064295535333
30
0
41
1
10
-15.583888313384
20
3.76439992707512
30
0
41
1
10
-15.5792402672859
20
3.58996242730416
30
0
41
1
10
-15.5723423480615
20
3.3022833666767
30
0
41
1
10
-15.5700269160755
20
3.20206350839206
30
0
41
1
10
-15.5665440130692
20
3.0451170452184
30
0
41
1
10
-15.5653839565863
20
2.99169397728247
30
0
41
1
10
-15.5636475336019
20
2.9098665929198
30
0
41
1
10
-15.5630696485574
20
2.88232664010681
30
0
41
1
10
-15.5619201187186
20
2.82694275210397
30
0
41
1
10
-15.5613478273094
20
2.79906823842319
30
0
41
1
10
-15.5584972534415
20
2.65879278072097
30
0
41
1
10
-15.556246291547
20
2.54369267601257
30
0
41
1
10
-15.5517824975768
20
2.30789693252774
30
0
41
1
10
-15.5495746839881
20
2.18719689363999
30
0
41
1
10
-15.545247372614
20
1.94017443668469
30
0
41
1
10
-15.5431213683117
20
1.81385824996465
30
0
41
1
10
-15.5399830618156
20
1.62011255087572
30
0
41
1
10
-15.5389456282926
20
1.55481763193293
30
0
41
1
10
-15.5374029108389
20
1.45578797015531
30
0
41
1
10
-15.5368915563862
20
1.42264018300867
30
0
41
1
10
-15.5358776243823
20
1.35627873428939
30
0
41
1
10
-15.5333625315558
20
1.19005551046709
30
0
41
1
10
-15.5309422371966
20
1.02225575620622
30
0
41
1
10
-15.5271972524429
20
0.751806190028134
30
0
41
1
10
-15.5253876763628
20
0.615596716510737
30
0
41
1
10
-15.5219020803205
20
0.341215792210448
30
0
41
1
10
-15.5202317863672
20
0.203041174079829
30
0
41
1
10
-15.5178387480919
20
-0.005720618498998
30
0
41
1
10
-15.5170587390965
20
-0.0755575118140825
30
0
41
1
10
-15.5159139221175
20
-0.180691400602882
30
0
41
1
10
-15.515536759228
20
-0.215781272690691
30
0
41
1
10
-15.5147945842912
20
-0.285748618404739
30
0
41
1
10
-15.5144291204021
20
-0.320667470771639
30
0
41
1
10
-15.5111912065925
20
-0.634360032841414
30
0
41
1
10
-15.5086823601524
20
-0.909119579137297
30
0
41
1
10
-15.5045544035206
20
-1.45072919691103
30
0
41
1
10
-15.5029278871675
20
-1.7175706626995
30
0
41
1
10
-15.5016384390069
20
-2.01319332800875
30
0
41
1
10
-15.5015028038617
20
-2.04599262195853
30
0
41
1
10
-15.5012482311915
20
-2.11123780833304
30
0
41
1
10
-15.5008910623636
20
-2.20865302823734
30
0
41
1
10
-15.5006100754572
20
-2.30471840541802
30
0
41
1
10
-15.5001567719236
20
-2.49504435126377
30
0
41
1
10
-15.5
20
-2.61951652706057
30
0
41
1
10
-15.5
20
-2.74155594021877
30
0
0
SPLINE
5
1A3
100
AcDbEntity
8
SK1
62
256
6
ByLayer
370
13
48
1
60
0
100
AcDbSpline
70
4
71
3
72
28
73
24
40
0
40
0
40
0
40
0
40
0.0124371082982827
40
0.06748034639093
40
0.122523584483578
40
0.177566822576225
40
0.232610060668872
40
0.287653298761519
40
0.342696536854167
40
0.397739774946814
40
0.452783013039461
40
0.507826251132109
40
0.562869489224756
40
0.617912727317403
40
0.672955965410051
40
0.727999203502698
40
0.783042441595345
40
0.838085679687992
40
0.89312891778064
40
0.920650536826963
40
0.948172155873287
40
0.975693774919611
40
1
40
1
40
1
40
1
41
1
10
-6.23691907119238
20
-5.73202694780127
30
0
41
1
10
-6.24389656770938
20
-5.73129594584793
30
0
41
1
10
-6.28174530438193
20
-5.71948411969592
30
0
41
1
10
-6.35039712831468
20
-5.62098039986628
30
0
41
1
10
-6.44289499548444
20
-5.32284796693881
30
0
41
1
10
-6.53511049167537
20
-4.87073521670033
30
0
41
1
10
-6.62701716601444
20
-4.27971684395652
30
0
41
1
10
-6.71867636099327
20
-3.56860263019735
30
0
41
1
10
-6.81028931839617
20
-2.75687728273789
30
0
41
1
10
-6.90224817992151
20
-1.86544396270193
30
0
41
1
10
-6.99444035252219
20
-0.91954601003593
30
0
41
1
10
-7.08639735681908
20
0.0470697697030573
30
0
41
1
10
-7.17848893897082
20
1.01075220559858
30
0
41
1
10
-7.27093629539993
20
1.94479982648474
30
0
41
1
10
-7.36401991384614
20
2.82493997722574
30
0
41
1
10
-7.45751312413904
20
3.62069346678226
30
0
41
1
10
-7.55149284589683
20
4.30798753385173
30
0
41
1
10
-7.64616617263397
20
4.86592532985608
30
0
41
1
10
-7.72608124444315
20
5.20810858131347
30
0
41
1
10
-7.79095664286189
20
5.39879853017473
30
0
41
1
10
-7.84004073649115
20
5.49872710204991
30
0
41
1
10
-7.88751026749387
20
5.55057838355521
30
0
41
1
10
-7.91862416837589
20
5.55666488543889
30
0
41
1
10
-7.93323904556763
20
5.5533545416279
30
0
0
SPLINE
5
1A4
100
AcDbEntity
8
SK1
62
256
6
ByLayer
370
13
48
1
60
0
100
AcDbSpline
70
4
71
3
72
28
73
24
40
0
40
0
40
0
40
0
40
0.0194642052430772
40
0.076857023656859
40
0.134249842070641
40
0.162946251277532
40
0.191642660484423
40
0.220339069691314
40
0.249035478898205
40
0.306428297311987
40
0.363821115725769
40
0.421213934139551
40
0.478606752553333
40
0.535999570967114
40
0.593392389380897
40
0.650785207794679
40
0.708178026208461
40
0.765570844622243
40
0.822963663036024
40
0.880356481449807
40
0.937749299863589
40
0.99514211827737
40
1
40
1
40
1
40
1
41
1
10
-9.61718404658836
20
-5.37674233981213
30
0
41
1
10
-9.62817312236589
20
-5.37554996124999
30
0
41
1
10
-9.67153035149016
20
-5.35756475516325
30
0
41
1
10
-9.74707145886217
20
-5.23507790466124
30
0
41
1
10
-9.82788279810524
20
-4.96369857006954
30
0
41
1
10
-9.89280974465649
20
-4.66668653351704
30
0
41
1
10
-9.9416914870435
20
-4.40443337025425
30
0
41
1
10
-9.99060543922351
20
-4.10652720381913
30
0
41
1
10
-10.0556818388585
20
-3.66612503656987
30
0
41
1
10
-10.1367903636585
20
-3.04077612196738
30
0
41
1
10
-10.2337374807887
20
-2.19813111389519
30
0
41
1
10
-10.330273483266
20
-1.2915476952671
30
0
41
1
10
-10.426465158038
20
-0.350527392396629
30
0
41
1
10
-10.5224987340579
20
0.596412080128346
30
0
41
1
10
-10.6187252510848
20
1.52329660242526
30
0
41
1
10
-10.7157539133508
20
2.40388172769465
30
0
41
1
10
-10.8138305731686
20
3.21305159081393
30
0
41
1
10
-10.9119040247117
20
3.91151302587289
30
0
41
1
10
-11.0101339458395
20
4.47895069125838
30
0
41
1
10
-11.1084525398515
20
4.89587741815529
30
0
41
1
10
-11.2066056845622
20
5.1478496409749
30
0
41
1
10
-11.2749889372489
20
5.20396734258702
30
0
41
1
10
-11.3107181800513
20
5.19877820715382
30
0
41
1
10
-11.3135073593838
20
5.19816354090943
30
0
0
SPLINE
5
1A5
100
AcDbEntity
8
SK1
62
256
6
ByLayer
370
13
48
1
60
0
100
AcDbSpline
70
4
71
3
72
27
73
23
40
0
40
0
40
0
40
0
40
0.0116123799265014
40
0.0740547950925312
40
0.136497210258562
40
0.19893962542459
40
0.26138204059062
40
0.32382445575665
40
0.386266870922679
40
0.448709286088709
40
0.511151701254739
40
0.542372908837754
40
0.573594116420768
40
0.604815324003783
40
0.636036531586798
40
0.667257739169812
40
0.698478946752828
40
0.760921361918858
40
0.823363777084887
40
0.885806192250916
40
0.948248607416946
40
1
40
1
40
1
40
1
41
1
10
-12.9973950510332
20
-5.02153019643308
30
0
41
1
10
-13.0042968868682
20
-5.02077715164
30
0
41
1
10
-13.0482561321843
20
-5.00808063124191
30
0
41
1
10
-13.1285821553963
20
-4.89244196694995
30
0
41
1
10
-13.2375902290582
20
-4.53562107726589
30
0
41
1
10
-13.3457929082687
20
-4.00018274394682
30
0
41
1
10
-13.4533335879116
20
-3.31093092719397
30
0
41
1
10
-13.5599391772157
20
-2.50091735197546
30
0
41
1
10
-13.665535630625
20
-1.60585598417808
30
0
41
1
10
-13.7704788592464
20
-0.659701646023422
30
0
41
1
10
-13.8579194905825
20
0.146438247826069
30
0
41
1
10
-13.9281660027275
20
0.784620254860101
30
0
41
1
10
-13.9810408464952
20
1.25816747678488
30
0
41
1
10
-14.0338498537115
20
1.71671972787479
30
0
41
1
10
-14.0864404315699
20
2.15594657601216
30
0
41
1
10
-14.1388950684347
20
2.5726576156714
30
0
41
1
10
-14.2086912154495
20
3.09395888752817
30
0
41
1
10
-14.295748793446
20
3.67135854202641
30
0
41
1
10
-14.4001911006201
20
4.2236535090633
30
0
41
1
10
-14.5044069450311
20
4.61401950379346
30
0
41
1
10
-14.6022492541921
20
4.81759447002636
30
0
41
1
10
-14.6654886050297
20
4.84916490292778
30
0
41
1
10
-14.6941997641921
20
4.84281091032756
30
0
0
SPLINE
5
1A6
100
AcDbEntity
8
SK1
62
256
6
ByLayer
370
18
48
1
60
0
100
AcDbSpline
70
4
71
3
72
58
73
54
40
0
40
0
40
0
40
0
40
0.0031854173785792
40
0.0031854173785792
40
0.0465251818403798
40
0.0465251818403798
40
0.06819506407128
40
0.0790300051867302
40
0.0790300051867302
40
0.0898649463021802
40
0.0898649463021802
40
0.133204710763981
40
0.133204710763981
40
0.176544475225781
40
0.176544475225781
40
0.219884239687582
40
0.219884239687582
40
0.263224004149382
40
0.263224004149382
40
0.284893886380283
40
0.284893886380283
40
0.295728827495733
40
0.295728827495733
40
0.306563768611183
40
0.306563768611183
40
0.393243297534785
40
0.393243297534785
40
0.479922826458388
40
0.479922826458388
40
0.501592708689288
40
0.501592708689288
40
0.523262590920189
40
0.523262590920189
40
0.56660235538199
40
0.56660235538199
40
0.653281884305591
40
0.653281884305591
40
0.696621648767392
40
0.707456589882842
40
0.707456589882842
40
0.718291530998292
40
0.718291530998292
40
0.739961413229193
40
0.739961413229193
40
0.826640942152795
40
0.826640942152795
40
0.913320471076398
40
0.913320471076398
40
0.934990353307298
40
0.934990353307298
40
0.956660235538199
40
0.956660235538199
40
1
40
1
40
1
40
1
41
1
10
-15.399352287077
20
4.78221448080862
30
0
41
1
10
-15.3986606610594
20
4.78191174477084
30
0
41
1
10
-15.3979686561304
20
4.7815862215557
30
0
41
1
10
-15.3878556941166
20
4.77649890139975
30
0
41
1
10
-15.3783843362905
20
4.76754627320474
30
0
41
1
10
-15.364213572161
20
4.74774207867452
30
0
41
1
10
-15.3571401302098
20
4.73624505574179
30
0
41
1
10
-15.3500473958785
20
4.72231811063662
30
0
41
1
10
-15.345310482647
20
4.71248849478769
30
0
41
1
10
-15.3429362786371
20
4.70729702794023
30
0
41
1
10
-15.3310845985508
20
4.6800772109446
30
0
41
1
10
-15.3216192628048
20
4.65420110735639
30
0
41
1
10
-15.3027159137937
20
4.59449500089184
30
0
41
1
10
-15.2933012896987
20
4.56067167707653
30
0
41
1
10
-15.2745538212571
20
4.48520477279982
30
0
41
1
10
-15.2652032025658
20
4.44356210654013
30
0
41
1
10
-15.2463361518868
20
4.35240528892174
30
0
41
1
10
-15.2368211575909
20
4.30289034209022
30
0
41
1
10
-15.2224400987433
20
4.22261618653386
30
0
41
1
10
-15.2176300574715
20
4.19485737170712
30
0
41
1
10
-15.2104035763669
20
4.15170049920644
30
0
41
1
10
-15.2079904173631
20
4.1370469239674
30
0
41
1
10
-15.2031753393765
20
4.10733515594762
30
0
41
1
10
-15.200772419885
20
4.09227151175733
30
0
41
1
10
-15.179179726058
20
3.95484784796469
30
0
41
1
10
-15.1602030590842
20
3.81962337635142
30
0
41
1
10
-15.1219307415231
20
3.52381062213942
30
0
41
1
10
-15.1027015222302
20
3.36320489430756
30
0
41
1
10
-15.0783766743863
20
3.146349379811
30
0
41
1
10
-15.0734934791664
20
3.10215798193093
30
0
41
1
10
-15.0636823777676
20
3.01216363158539
30
0
41
1
10
-15.0587832185169
20
2.96661811213204
30
0
41
1
10
-15.0440961981428
20
2.82836613388272
30
0
41
1
10
-15.0343118930461
20
2.73404600593489
30
0
41
1
10
-15.0049378381
20
2.44482033275958
30
0
41
1
10
-14.9853481278336
20
2.24368729654054
30
0
41
1
10
-14.9555360858743
20
1.9295209118348
30
0
41
1
10
-14.9430364788522
20
1.79601526529328
30
0
41
1
10
-14.9304185530225
20
1.65919671692765
30
0
41
1
10
-14.9253596586861
20
1.60420197198692
30
0
41
1
10
-14.9228218960404
20
1.57654324518487
30
0
41
1
10
-14.9152112095941
20
1.49341000700417
30
0
41
1
10
-14.9101413283217
20
1.43778445350179
30
0
41
1
10
-14.884789348503
20
1.15866019668857
30
0
41
1
10
-14.8644739563753
20
0.932190162319017
30
0
41
1
10
-14.8232996354202
20
0.473147516624181
30
0
41
1
10
-14.8025088827494
20
0.240565263052702
30
0
41
1
10
-14.7759397535926
20
-0.0540601252702686
30
0
41
1
10
-14.7705903500054
20
-0.113255385369428
30
0
41
1
10
-14.7598638481787
20
-0.231622816990239
30
0
41
1
10
-14.7544886650039
20
-0.290774148418876
30
0
41
1
10
-14.7383146140779
20
-0.468130369992821
30
0
41
1
10
-14.7274673940455
20
-0.586237647110494
30
0
41
1
10
-14.7165162762784
20
-0.70421054265725
30
0
0
SPLINE
5
1A7
100
AcDbEntity
8
SK1
62
256
6
ByLayer
370
13
48
1
60
0
100
AcDbSpline
70
4
71
3
72
28
73
24
40
0
40
0
40
0
40
0
40
0.0124139999931122
40
0.0676404483748644
40
0.122866896756616
40
0.178093345138369
40
0.233319793520121
40
0.288546241901873
40
0.343772690283625
40
0.398999138665377
40
0.454225587047129
40
0.509452035428881
40
0.564678483810633
40
0.619904932192385
40
0.675131380574137
40
0.73035782895589
40
0.785584277337642
40
0.840810725719394
40
0.896037174101146
40
0.923650398292023
40
0.951263622482898
40
0.978876846673774
40
1
40
1
40
1
40
1
41
1
10
-6.86798732527129
20
-5.6657156127479
30
0
41
1
10
-6.87492864113838
20
-5.66499064279245
30
0
41
1
10
-6.91274083816123
20
-5.6533335605429
30
0
41
1
10
-6.98135732759712
20
-5.55610904432069
30
0
41
1
10
-7.07385475922391
20
-5.26157066786069
30
0
41
1
10
-7.16607085363043
20
-4.81487201318751
30
0
41
1
10
-7.25797653655209
20
-4.23088803903556
30
0
41
1
10
-7.34963626989278
20
-3.52823374463026
30
0
41
1
10
-7.44125082562795
20
-2.72609413766722
30
0
41
1
10
-7.53320660061345
20
-1.84531093933336
30
0
41
1
10
-7.62539990412287
20
-0.910576733441218
30
0
41
1
10
-7.71735438546949
20
0.0445572735972064
30
0
41
1
10
-7.80944859287459
20
0.996905255657282
30
0
41
1
10
-7.90189487468786
20
1.91990736246447
30
0
41
1
10
-7.99497877632152
20
2.78973718204122
30
0
41
1
10
-8.08847173481362
20
3.57616559892378
30
0
41
1
10
-8.18245055733684
20
4.25544986682254
30
0
41
1
10
-8.2771266084024
20
4.80699665153324
30
0
41
1
10
-8.35704282338875
20
5.14529083573746
30
0
41
1
10
-8.42190690039808
20
5.33391064468853
30
0
41
1
10
-8.47100028710344
20
5.43280690316837
30
0
41
1
10
-8.51652155165593
20
5.48208747408816
30
0
41
1
10
-8.54567584785431
20
5.48944106180736
30
0
41
1
10
-8.55832927393485
20
5.48806471406172
30
0
0
SPLINE
5
1A8
100
AcDbEntity
8
SK1
62
256
6
ByLayer
370
13
48
1
60
0
100
AcDbSpline
70
4
71
3
72
28
73
24
40
0
40
0
40
0
40
0
40
0.0204845722986371
40
0.0780210636131771
40
0.135557554927716
40
0.164325800584986
40
0.193094046242256
40
0.221862291899526
40
0.250630537556795
40
0.308167028871335
40
0.365703520185873
40
0.423240011500414
40
0.480776502814952
40
0.538312994129492
40
0.595849485444031
40
0.65338597675857
40
0.710922468073109
40
0.768458959387649
40
0.825995450702188
40
0.883531942016727
40
0.941068433331266
40
0.998604924645806
40
1
40
1
40
1
40
1
41
1
10
-10.2464950559558
20
-5.31060697649113
30
0
41
1
10
-10.2580322792634
20
-5.30978777714839
30
0
41
1
10
-10.301937671948
20
-5.29272595355962
30
0
41
1
10
-10.3780226493746
20
-5.17135103659132
30
0
41
1
10
-10.4588343252553
20
-4.90381632837375
30
0
41
1
10
-10.5237602224408
20
-4.61090397470875
30
0
41
1
10
-10.5726417884322
20
-4.35217137602743
30
0
41
1
10
-10.6215554928255
20
-4.05823580324321
30
0
41
1
10
-10.6866319081651
20
-3.62368260859356
30
0
41
1
10
-10.7677402886932
20
-3.0065130766076
30
0
41
1
10
-10.8646871672444
20
-2.17477952727489
30
0
41
1
10
-10.9612223352926
20
-1.27982776324046
30
0
41
1
10
-11.0574136349486
20
-0.350768877490879
30
0
41
1
10
-11.1534458855353
20
0.584220149465551
30
0
41
1
10
-11.2496724909547
20
1.49956235045576
30
0
41
1
10
-11.3466994499053
20
2.3691824348457
30
0
41
1
10
-11.4447799734901
20
3.16859196392622
30
0
41
1
10
-11.5428496493524
20
3.85863669753672
30
0
41
1
10
-11.6410798955444
20
4.41949785909887
30
0
41
1
10
-11.7393970939391
20
4.83183326987174
30
0
41
1
10
-11.8375491844659
20
5.08137177227286
30
0
41
1
10
-11.903951913457
20
5.13573721952616
30
0
41
1
10
-11.9376836858042
20
5.13298132913883
30
0
41
1
10
-11.9384822870338
20
5.13289912209038
30
0
0
SPLINE
5
1A9
100
AcDbEntity
8
SK1
62
256
6
ByLayer
370
13
48
1
60
0
100
AcDbSpline
70
4
71
3
72
27
73
23
40
0
40
0
40
0
40
0
40
0.0112668680440097
40
0.0739762826432604
40
0.136685697242512
40
0.199395111841764
40
0.262104526441016
40
0.324813941040266
40
0.387523355639518
40
0.450232770238771
40
0.512942184838022
40
0.544296892137648
40
0.575651599437273
40
0.6070063067369
40
0.638361014036525
40
0.669715721336152
40
0.701070428635777
40
0.763779843235028
40
0.826489257834279
40
0.889198672433531
40
0.951908087032784
40
1
40
1
40
1
40
1
41
1
10
-13.6290279539725
20
-4.95522281925713
30
0
41
1
10
-13.6356952542541
20
-4.95450062739874
30
0
41
1
10
-13.679418214003
20
-4.94227567423204
30
0
41
1
10
-13.7595117825645
20
-4.82943082452772
30
0
41
1
10
-13.8685205946856
20
-4.47857760071579
30
0
41
1
10
-13.9767209411243
20
-3.95142601362403
30
0
41
1
10
-14.0842612304025
20
-3.27236430912924
30
0
41
1
10
-14.1908651597421
20
-2.47401217053158
30
0
41
1
10
-14.2964610641447
20
-1.59155339329459
30
0
41
1
10
-14.4014019991332
20
-0.658494059377631
30
0
41
1
10
-14.488843294395
20
0.136772916453509
30
0
41
1
10
-14.5590876558716
20
0.766338726936141
30
0
41
1
10
-14.6119617897889
20
1.23367258578256
30
0
41
1
10
-14.6647706302754
20
1.68619478484939
30
0
41
1
10
-14.7173610032804
20
2.11971870977115
30
0
41
1
10
-14.769813710293
20
2.53109455677546
30
0
41
1
10
-14.8396117847783
20
3.04583448760351
30
0
41
1
10
-14.9266678422676
20
3.61614831404853
30
0
41
1
10
-15.0311078126566
20
4.1620524414831
30
0
41
1
10
-15.1353235250681
20
4.54839281883167
30
0
41
1
10
-15.2310246845182
20
4.74610247005523
30
0
41
1
10
-15.2921224292014
20
4.78029452856788
30
0
41
1
10
-15.318682688255
20
4.77768984804291
30
0
0
SPLINE
5
1AA
100
AcDbEntity
8
SK1
62
256
6
ByLayer
370
13
48
1
60
0
100
AcDbSpline
70
4
71
3
72
26
73
22
40
0
40
0
40
0
40
0
40
0.0437724248431238
40
0.0988830972388699
40
0.153993769634616
40
0.209104442030362
40
0.264215114426108
40
0.319325786821854
40
0.3744364592176
40
0.429547131613346
40
0.484657804009092
40
0.539768476404838
40
0.594879148800584
40
0.64998982119633
40
0.705100493592075
40
0.760211165987822
40
0.815321838383567
40
0.870432510779314
40
0.92554318317506
40
0.980653855570805
40
1
40
1
40
1
40
1
41
1
10
-7.0394724034775
20
-5.67187980399376
30
0
41
1
10
-7.0640576831419
20
-5.74140506342769
30
0
41
1
10
-7.11968263142663
20
-5.85853378157609
30
0
41
1
10
-7.20600078879707
20
-5.89408833463656
30
0
41
1
10
-7.29852707612557
20
-5.75867011847069
30
0
41
1
10
-7.39102391763652
20
-5.4538769162813
30
0
41
1
10
-7.48324040499145
20
-4.99128697068352
30
0
41
1
10
-7.57514501233942
20
-4.38634046261984
30
0
41
1
10
-7.66680506288873
20
-3.65825888973231
30
0
41
1
10
-7.75842093193378
20
-2.82698076314827
30
0
41
1
10
-7.85037370568583
20
-1.91398136722296
30
0
41
1
10
-7.94256789288397
20
-0.945002082635938
30
0
41
1
10
-8.03451987934912
20
0.0453374450074477
30
0
41
1
10
-8.12661636936122
20
1.03292155149995
30
0
41
1
10
-8.21906148612561
20
1.99026793658953
30
0
41
1
10
-8.31214550793317
20
2.89249355238937
30
0
41
1
10
-8.40563810555037
20
3.70844658847923
30
0
41
1
10
-8.49961587709885
20
4.41336995703693
30
0
41
1
10
-8.59429461927311
20
4.98596392838118
30
0
41
1
10
-8.66944953151196
20
5.31633857110324
30
0
41
1
10
-8.7131979215732
20
5.45450991681864
30
0
41
1
10
-8.72460294936207
20
5.48681878408337
30
0
0
SPLINE
5
1AB
100
AcDbEntity
8
SK1
62
256
6
ByLayer
370
13
48
1
60
0
100
AcDbSpline
70
4
71
3
72
27
73
23
40
0
40
0
40
0
40
0
40
0.0571585709521799
40
0.114869296551094
40
0.172580022150009
40
0.230290747748924
40
0.259146110548382
40
0.288001473347839
40
0.316856836147296
40
0.345712198946754
40
0.403422924545668
40
0.461133650144583
40
0.518844375743498
40
0.576555101342413
40
0.634265826941327
40
0.691976552540242
40
0.749687278139157
40
0.807398003738072
40
0.865108729336987
40
0.922819454935901
40
0.980530180534816
40
1
40
1
40
1
40
1
41
1
10
-10.4040083965375
20
-5.28561475938531
30
0
41
1
10
-10.4364162008328
20
-5.38097346213974
30
0
41
1
10
-10.5013556980001
20
-5.51369596352004
30
0
41
1
10
-10.5983000597418
20
-5.53272603030405
30
0
41
1
10
-10.6951794979738
20
-5.3728430162007
30
0
41
1
10
-10.7759913101058
20
-5.09544959888746
30
0
41
1
10
-10.8409160737855
20
-4.79146527518583
30
0
41
1
10
-10.8897974483704
20
-4.52299020324963
30
0
41
1
10
-10.938710891168
20
-4.21788819566851
30
0
41
1
10
-11.0037873904379
20
-3.76664840993422
30
0
41
1
10
-11.0848957216234
20
-3.12576368411078
30
0
41
1
10
-11.1818423207386
20
-2.26174978949561
30
0
41
1
10
-11.2783766794677
20
-1.33188297219004
30
0
41
1
10
-11.3745675749394
20
-0.366365848165287
30
0
41
1
10
-11.470598537809
20
0.605515023201917
30
0
41
1
10
-11.5668252175773
20
1.55707363580976
30
0
41
1
10
-11.6638505814323
20
2.46156261743187
30
0
41
1
10
-11.7619346107604
20
3.29298492503833
30
0
41
1
10
-11.8600008217442
20
4.01097577900853
30
0
41
1
10
-11.9582313339744
20
4.59480343250991
30
0
41
1
10
-12.0348315102552
20
4.92938658230952
30
0
41
1
10
-12.0786106016425
20
5.07039766904623
30
0
41
1
10
-12.0896540578301
20
5.10271879650099
30
0
0
SPLINE
5
1AC
100
AcDbEntity
8
SK1
62
256
6
ByLayer
370
13
48
1
60
0
100
AcDbSpline
70
4
71
3
72
17
73
13
40
0
40
0
40
0
40
0
40
0.0244227494964823
40
0.0819396549787568
40
0.196973465943311
40
0.312007276907868
40
0.427041087872422
40
0.542074898836979
40
0.657108709801534
40
0.77214252076609
40
0.887176331730644
40
1
40
1
40
1
40
1
41
1
10
-13.7741554956317
20
-4.91683240188203
30
0
41
1
10
-13.7821387744177
20
-4.94017355394874
30
0
41
1
10
-13.808916647219
20
-5.01299203817976
30
0
41
1
10
-13.8732015118443
20
-5.14333923312216
30
0
41
1
10
-13.9664128233401
20
-5.19216817329351
30
0
41
1
10
-14.0766489327725
20
-5.03137952070182
30
0
41
1
10
-14.1856585647846
20
-4.66684315195303
30
0
41
1
10
-14.2938568381241
20
-4.11850929177757
30
0
41
1
10
-14.4013968922781
20
-3.41172937102763
30
0
41
1
10
-14.5079993635852
20
-2.58042521107887
30
0
41
1
10
-14.6129186531489
20
-1.66714480184899
30
0
41
1
10
-14.6822100319359
20
-1.02556877838774
30
0
41
1
10
-14.7165162762784
20
-0.704210542657762
30
0
0
SPLINE
5
1AD
100
AcDbEntity
8
SK1
62
256
6
ByLayer
370
18
48
1
60
0
100
AcDbSpline
70
4
71
3
72
57
73
53
40
0
40
0
40
0
40
0
40
0.0713101361193032
40
0.0713101361193032
40
0.142620272238606
40
0.142620272238606
40
0.160447806268432
40
0.160447806268432
40
0.178275340298258
40
0.178275340298258
40
0.21393040835791
40
0.21393040835791
40
0.285240544477213
40
0.285240544477213
40
0.356550680596517
40
0.36546444761143
40
0.36546444761143
40
0.374378214626343
40
0.374378214626343
40
0.392205748656169
40
0.392205748656169
40
0.42786081671582
40
0.42786081671582
40
0.499170952835123
40
0.499170952835123
40
0.570481088954426
40
0.570481088954426
40
0.588308622984251
40
0.588308622984251
40
0.606136157014077
40
0.606136157014077
40
0.641791225073729
40
0.641791225073729
40
0.713101361193031
40
0.713101361193031
40
0.784411497312334
40
0.784411497312334
40
0.80223903134216
40
0.80223903134216
40
0.820066565371985
40
0.820066565371985
40
0.855721633431637
40
0.855721633431637
40
0.927031769550939
40
0.927031769550939
40
0.96268683761059
40
0.96268683761059
40
0.980514371640416
40
0.980514371640416
40
0.998341905670242
40
0.998341905670242
40
1
40
1
40
1
40
1
41
1
10
-14.7165162762784
20
-0.704210542657734
30
0
41
1
10
-14.6959581505325
20
-0.92567666811064
30
0
41
1
10
-14.675761868409
20
-1.14375197489042
30
0
41
1
10
-14.6357095520353
20
-1.57332246711417
30
0
41
1
10
-14.6158575914946
20
-1.7848135781332
30
0
41
1
10
-14.5911365980246
20
-2.04507253163988
30
0
41
1
10
-14.5861967485539
20
-2.09691821162511
30
0
41
1
10
-14.5763224910443
20
-2.20019437205116
30
0
41
1
10
-14.5713800415975
20
-2.25170829158526
30
0
41
1
10
-14.5566364025049
20
-2.40474350639465
30
0
41
1
10
-14.5469055136704
20
-2.5048872692974
30
0
41
1
10
-14.5179207292126
20
-2.79977128043637
30
0
41
1
10
-14.4988655960338
20
-2.98898032653892
30
0
41
1
10
-14.461072625175
20
-3.35311104961616
30
0
41
1
10
-14.4399837443242
20
-3.5498519622634
30
0
41
1
10
-14.4188959439252
20
-3.73722345529617
30
0
41
1
10
-14.4142100724117
20
-3.77863002466927
30
0
41
1
10
-14.4118650794646
20
-3.79923556273542
30
0
41
1
10
-14.4048490221147
20
-3.86053412786492
30
0
41
1
10
-14.4001961593035
20
-3.9007169641271
30
0
41
1
10
-14.3863042208287
20
-4.01925119786949
30
0
41
1
10
-14.3771321773628
20
-4.09559229644549
30
0
41
1
10
-14.3498246314619
20
-4.31671587423068
30
0
41
1
10
-14.3318966267972
20
-4.45359865212924
30
0
41
1
10
-14.296288783967
20
-4.70657427816195
30
0
41
1
10
-14.2786157744648
20
-4.8226842558928
30
0
41
1
10
-14.2565661035707
20
-4.95447966503278
30
0
41
1
10
-14.2521568590944
20
-4.9801747627273
30
0
41
1
10
-14.243399681214
20
-5.02987466478984
30
0
41
1
10
-14.2390440437517
20
-5.05392644484596
30
0
41
1
10
-14.2260392650123
20
-5.12372405743974
30
0
41
1
10
-14.2174520602691
20
-5.16711450854376
30
0
41
1
10
-14.1918905608424
20
-5.28805978045202
30
0
41
1
10
-14.175123781167
20
-5.35642470838889
30
0
41
1
10
-14.1418802174075
20
-5.46882523890463
30
0
41
1
10
-14.1253985763794
20
-5.51287049464247
30
0
41
1
10
-14.1048548692378
20
-5.55229219004303
30
0
41
1
10
-14.1007533153104
20
-5.55938226194235
30
0
41
1
10
-14.0926057019749
20
-5.57191999043022
30
0
41
1
10
-14.0885536513414
20
-5.57737971478227
30
0
41
1
10
-14.0764571024508
20
-5.59136766084714
30
0
41
1
10
-14.0684723082869
20
-5.5975082911178
30
0
41
1
10
-14.0447088699707
20
-5.60652892021835
30
0
41
1
10
-14.029110076159
20
-5.6000206392701
30
0
41
1
10
-14.0059043847275
20
-5.57123873158329
30
0
41
1
10
-13.9982055736105
20
-5.55847900375269
30
0
41
1
10
-13.9867026003068
20
-5.53458908964629
30
0
41
1
10
-13.9828837809745
20
-5.52584814303185
30
0
41
1
10
-13.9752931074044
20
-5.50687275552329
30
0
41
1
10
-13.9715181831822
20
-5.49663202865173
30
0
41
1
10
-13.9674123895434
20
-5.48462382194435
30
0
41
1
10
-13.967063167803
20
-5.48359556071884
30
0
41
1
10
-13.9667140989367
20
-5.48256085838361
30
0
0
SPLINE
5
1AE
100
AcDbEntity
8
SK1
62
256
6
ByLayer
370
13
48
1
60
0
100
AcDbSpline
70
4
71
3
72
27
73
23
40
0
40
0
40
0
40
0
40
0.0388085443722669
40
0.0935378527347372
40
0.148267161097207
40
0.202996469459677
40
0.257725777822148
40
0.312455086184618
40
0.367184394547088
40
0.421913702909558
40
0.476643011272028
40
0.531372319634498
40
0.586101627996968
40
0.640830936359438
40
0.695560244721909
40
0.750289553084379
40
0.805018861446849
40
0.859748169809319
40
0.914477478171789
40
0.969206786534259
40
0.996571440715495
40
1
40
1
40
1
40
1
41
1
10
-7.26030367453092
20
-6.32750387025993
30
0
41
1
10
-7.28225961919563
20
-6.39295869668982
30
0
41
1
10
-7.33523628957437
20
-6.5127792839908
30
0
41
1
10
-7.41891997430304
20
-6.5522052183739
30
0
41
1
10
-7.51144716042316
20
-6.40276597986778
30
0
41
1
10
-7.60394280380717
20
-6.06502831041567
30
0
41
1
10
-7.69615975424594
20
-5.55155506993958
30
0
41
1
10
-7.78806239241595
20
-4.8796040432164
30
0
41
1
10
-7.87972275656622
20
-4.07032584286085
30
0
41
1
10
-7.9713406088743
20
-3.14611835360827
30
0
41
1
10
-8.06328823561347
20
-2.13031779778117
30
0
41
1
10
-8.15548369708321
20
-1.05223385228911
30
0
41
1
10
-8.24743135837784
20
0.0502756498542567
30
0
41
1
10
-8.3395314613025
20
1.14995639640486
30
0
41
1
10
-8.43197444586272
20
2.21655995691057
30
0
41
1
10
-8.5250585004259
20
3.22172629873404
30
0
41
1
10
-8.61855034954937
20
4.13141899529657
30
0
41
1
10
-8.71252612146324
20
4.91764998377562
30
0
41
1
10
-8.80720952579426
20
5.55678942425362
30
0
41
1
10
-8.88712600881189
20
5.94917043742848
30
0
41
1
10
-8.93778486332826
20
6.12071198246321
30
0
41
1
10
-8.95612780659476
20
6.17200684911245
30
0
41
1
10
-8.95817133806264
20
6.17758744418956
30
0
0
SPLINE
5
1AF
100
AcDbEntity
8
SK1
62
256
6
ByLayer
370
13
48
1
60
0
100
AcDbSpline
70
4
71
3
72
27
73
23
40
0
40
0
40
0
40
0
40
0.0474156220807747
40
0.104531478997718
40
0.161647335914663
40
0.218763192831608
40
0.24732112129008
40
0.275879049748552
40
0.304436978207024
40
0.332994906665496
40
0.39011076358244
40
0.447226620499385
40
0.504342477416329
40
0.561458334333273
40
0.618574191250217
40
0.675690048167162
40
0.732805905084106
40
0.789921762001051
40
0.847037618917995
40
0.90415347583494
40
0.961269332751884
40
1
40
1
40
1
40
1
41
1
10
-10.6326288557922
20
-5.96102753507608
30
0
41
1
10
-10.6597667250581
20
-6.04183900836907
30
0
41
1
10
-10.7194466786741
20
-6.16913172870241
30
0
41
1
10
-10.8111965088932
20
-6.19041385469538
30
0
41
1
10
-10.9080728349276
20
-6.01266825051093
30
0
41
1
10
-10.9888846672935
20
-5.70317999864966
30
0
41
1
10
-11.0538073606726
20
-5.36338795113096
30
0
41
1
10
-11.1026883847899
20
-5.06349917893652
30
0
41
1
10
-11.1516013558861
20
-4.72246213298573
30
0
41
1
10
-11.2166780757844
20
-4.21761449759677
30
0
41
1
10
-11.2977864239278
20
-3.50068634273725
30
0
41
1
10
-11.394732490819
20
-2.53340578917221
30
0
41
1
10
-11.4912654638807
20
-1.49202879521087
30
0
41
1
10
-11.5874556221416
20
-0.410273144594981
30
0
41
1
10
-11.6834843778306
20
0.679062280630802
30
0
41
1
10
-11.7797111721471
20
1.74571940472373
30
0
41
1
10
-11.8767338687625
20
2.76086384574262
30
0
41
1
10
-11.9748236296987
20
3.69354484934925
30
0
41
1
10
-12.0728841291312
20
4.4998185828583
30
0
41
1
10
-12.1711150417126
20
5.15582851177663
30
0
41
1
10
-12.2588799126543
20
5.58686865308775
30
0
41
1
10
-12.3137964624231
20
5.76799919644773
30
0
41
1
10
-12.335997383673
20
5.82626876245732
30
0
0
SPLINE
5
1B0
100
AcDbEntity
8
SK1
62
256
6
ByLayer
370
13
48
1
60
0
100
AcDbSpline
70
4
71
3
72
10
73
6
40
0
40
0
40
0
40
0
40
0.842042531382067
40
0.842042531382067
40
1
40
1
40
1
40
1
41
1
10
-4.01169929459957
20
6.05659597183168
30
0
41
1
10
-4.12289637459986
20
6.04411161086929
30
0
41
1
10
-4.23409345460013
20
6.0316272499069
30
0
41
1
10
-4.36614982450553
20
6.01680096679516
30
0
41
1
10
-4.38673548880124
20
6.001052228025
30
0
41
1
10
-4.4070826934371
20
5.9728703991606
30
0
0
SPLINE
5
1B1
100
AcDbEntity
8
SK1
62
256
6
ByLayer
370
13
48
1
60
0
100
AcDbSpline
70
4
71
3
72
28
73
24
40
0
40
0
40
0
40
0
40
0.0359976080654858
40
0.09136043238548
40
0.146723256705474
40
0.202086081025468
40
0.257448905345463
40
0.312811729665457
40
0.368174553985451
40
0.423537378305446
40
0.47890020262544
40
0.534263026945434
40
0.589625851265428
40
0.644988675585423
40
0.700351499905416
40
0.755714324225411
40
0.811077148545405
40
0.866439972865399
40
0.894121385025397
40
0.921802797185393
40
0.94948420934539
40
0.977165621505388
40
1
40
1
40
1
40
1
41
1
10
-6.08844252923399
20
-5.80733683867689
30
0
41
1
10
-6.10850276436506
20
-5.78371349461031
30
0
41
1
10
-6.15939521932873
20
-5.69313596320973
30
0
41
1
10
-6.24110822685017
20
-5.42481530860221
30
0
41
1
10
-6.3333235657802
20
-4.96409935004996
30
0
41
1
10
-6.42523034408151
20
-4.36178660905432
30
0
41
1
10
-6.51688938408662
20
-3.63700922399445
30
0
41
1
10
-6.60850201856655
20
-2.80968155694612
30
0
41
1
10
-6.70046133197664
20
-1.90097172759562
30
0
41
1
10
-6.79265325927432
20
-0.936788633480148
30
0
41
1
10
-6.88461061756269
20
0.048627604744496
30
0
41
1
10
-6.97670171564931
20
1.03104734373954
30
0
41
1
10
-7.06914918505507
20
1.98335697575607
30
0
41
1
10
-7.16223270474734
20
2.88066821420517
30
0
41
1
10
-7.25572590906634
20
3.69203482864486
30
0
41
1
10
-7.34970569727949
20
4.39284278215041
30
0
41
1
10
-7.44437864069553
20
4.96178103536172
30
0
41
1
10
-7.52429328019716
20
5.31073391544112
30
0
41
1
10
-7.58917063440785
20
5.50523375256049
30
0
41
1
10
-7.6382530605799
20
5.60713268274466
30
0
41
1
10
-7.68764652467183
20
5.66218302134291
30
0
41
1
10
-7.73432993464402
20
5.6688766642979
30
0
41
1
10
-7.76458569865014
20
5.64632940583874
30
0
41
1
10
-7.7782808118541
20
5.63066331977677
30
0
0
SPLINE
5
1B2
100
AcDbEntity
8
SK1
62
256
6
ByLayer
370
13
48
1
60
0
100
AcDbSpline
70
4
71
3
72
27
73
23
40
0
40
0
40
0
40
0
40
0.0420852719472385
40
0.0998298971344756
40
0.128702209728095
40
0.157574522321713
40
0.186446834915333
40
0.215319147508951
40
0.273063772696189
40
0.330808397883426
40
0.388553023070664
40
0.446297648257902
40
0.504042273445139
40
0.561786898632376
40
0.619531523819613
40
0.677276149006852
40
0.735020774194089
40
0.792765399381327
40
0.850510024568565
40
0.908254649755802
40
0.965999274943039
40
1
40
1
40
1
40
1
41
1
10
-9.47465062138366
20
-5.44647988289267
30
0
41
1
10
-9.49821202889331
20
-5.41747470220298
30
0
41
1
10
-9.55405032578292
20
-5.31163159644345
30
0
41
1
10
-9.62609569780048
20
-5.06471239891545
30
0
41
1
10
-9.69102275621256
20
-4.76154071085128
30
0
41
1
10
-9.73990451708295
20
-4.49391142022765
30
0
41
1
10
-9.78881849791364
20
-4.18987596749949
30
0
41
1
10
-9.85389492059804
20
-3.74035718822108
30
0
41
1
10
-9.93500350009535
20
-3.10211897386907
30
0
41
1
10
-10.0319506346362
20
-2.24204169535622
30
0
41
1
10
-10.128486760034
20
-1.31668930733881
30
0
41
1
10
-10.2246784751655
20
-0.356163641683679
30
0
41
1
10
-10.3207122456354
20
0.61043573307407
30
0
41
1
10
-10.4169387454382
20
1.55652452879477
30
0
41
1
10
-10.5139676796517
20
2.45552468021495
30
0
41
1
10
-10.6120436810402
20
3.28144625814761
30
0
41
1
10
-10.7101177615815
20
3.99447896155002
30
0
41
1
10
-10.8083476166431
20
4.57371942534144
30
0
41
1
10
-10.9066664327613
20
4.99927983661107
30
0
41
1
10
-11.0048197455822
20
5.25644422617702
30
0
41
1
10
-11.0897412970607
20
5.32749125824705
30
0
41
1
10
-11.1421801658734
20
5.29574298362166
30
0
41
1
10
-11.1616759102715
20
5.27352414080306
30
0
0
SPLINE
5
1B3
100
AcDbEntity
8
SK1
62
256
6
ByLayer
370
13
48
1
60
0
100
AcDbSpline
70
4
71
3
72
27
73
23
40
0
40
0
40
0
40
0
40
0.0414214766769926
40
0.103745002002869
40
0.166068527328746
40
0.228392052654624
40
0.290715577980501
40
0.353039103306377
40
0.415362628632254
40
0.477686153958131
40
0.50884791662107
40
0.540009679284008
40
0.571171441946947
40
0.602333204609885
40
0.633494967272824
40
0.664656729935763
40
0.726980255261639
40
0.789303780587517
40
0.851627305913394
40
0.91395083123927
40
0.976274356565147
40
1
40
1
40
1
40
1
41
1
10
-12.8534449640594
20
-5.09485521367063
30
0
41
1
10
-12.8779311383775
20
-5.06702129227745
30
0
41
1
10
-12.9389851595291
20
-4.95805342137916
30
0
41
1
10
-13.0358068035499
20
-4.63395687166647
30
0
41
1
10
-13.1440098963559
20
-4.08651011459366
30
0
41
1
10
-13.2515506864806
20
-3.3818748984811
30
0
41
1
10
-13.3581565764256
20
-2.55380204011226
30
0
41
1
10
-13.4637531794586
20
-1.63881895079379
30
0
41
1
10
-13.5686968217118
20
-0.671592984037545
30
0
41
1
10
-13.656137315916
20
0.152429424593862
30
0
41
1
10
-13.7263841552805
20
0.804918618624413
30
0
41
1
10
-13.7792591421038
20
1.28888134428206
30
0
41
1
10
-13.8320682073159
20
1.75765072279526
30
0
41
1
10
-13.8846588481589
20
2.20665060323986
30
0
41
1
10
-13.937113806443
20
2.63261655335717
30
0
41
1
10
-14.00690976619
20
3.1654393667616
30
0
41
1
10
-14.0939676936855
20
3.75563530040259
30
0
41
1
10
-14.1984104580839
20
4.32007081011352
30
0
41
1
10
-14.3026263884909
20
4.71894077408743
30
0
41
1
10
-14.4063908523924
20
4.93938776340494
30
0
41
1
10
-14.4887136081399
20
4.9686736810645
30
0
41
1
10
-14.5366313794073
20
4.9269495003156
30
0
41
1
10
-14.5498636002102
20
4.91097207760362
30
0
0
SPLINE
5
1B4
100
AcDbEntity
8
SK1
62
256
6
ByLayer
370
13
48
1
60
0
100
AcDbSpline
70
4
71
3
72
10
73
6
40
0
40
0
40
0
40
0
40
0.587664101693262
40
0.587664101693262
40
1
40
1
40
1
40
1
41
1
10
-3.39999999999998
20
7.09868796163499
30
0
41
1
10
-3.42606730410506
20
7.0957613621128
30
0
41
1
10
-3.45213460821012
20
7.09283476259063
30
0
41
1
10
-3.49649209751391
20
7.08785470763448
30
0
41
1
10
-3.51457206928822
20
7.07365519902388
30
0
41
1
10
-3.53246549335481
20
7.04807559616381
30
0
0
SPLINE
5
1B5
100
AcDbEntity
8
SK1
62
256
6
ByLayer
370
13
48
1
60
0
100
AcDbSpline
70
4
71
3
72
28
73
24
40
0
40
0
40
0
40
0
40
0.0399821816446844
40
0.0954308001907534
40
0.150879418736822
40
0.206328037282891
40
0.26177665582896
40
0.317225274375029
40
0.372673892921097
40
0.428122511467166
40
0.483571130013235
40
0.539019748559304
40
0.594468367105373
40
0.649916985651442
40
0.70536560419751
40
0.76081422274358
40
0.816262841289648
40
0.871711459835717
40
0.899435769108752
40
0.927160078381786
40
0.95488438765482
40
0.982608696927855
40
1
40
1
40
1
40
1
41
1
10
-5.21478012962311
20
-6.88119467363833
30
0
41
1
10
-5.23702812774906
20
-6.8540049826029
30
0
41
1
10
-5.2901059883572
20
-6.74709119121096
30
0
41
1
10
-5.37400279346261
20
-6.42233339817275
30
0
41
1
10
-5.46621768787085
20
-5.87798454041342
30
0
41
1
10
-5.55812346580296
20
-5.16571865576512
30
0
41
1
10
-5.64978195666009
20
-4.30781910426563
30
0
41
1
10
-5.74139448176325
20
-3.328313317583
30
0
41
1
10
-5.83335210248066
20
-2.25117379738882
30
0
41
1
10
-5.92554376592352
20
-1.1084929334738
30
0
41
1
10
-6.01749957005683
20
0.0604441522625621
30
0
41
1
10
-6.10959100223931
20
1.22600441902947
30
0
41
1
10
-6.20203739054182
20
2.35681212469424
30
0
41
1
10
-6.29512043027299
20
3.4221220891686
30
0
41
1
10
-6.38861302151321
20
4.38635272862223
30
0
41
1
10
-6.4825915936832
20
5.21960514129657
30
0
41
1
10
-6.57726620339031
20
5.89663496461716
30
0
41
1
10
-6.65717853220798
20
6.31220228344932
30
0
41
1
10
-6.72205298492304
20
6.54444970076366
30
0
41
1
10
-6.77113710461657
20
6.66595370809384
30
0
41
1
10
-6.82052972932766
20
6.73212944278251
30
0
41
1
10
-6.86394744536798
20
6.74006605160011
30
0
41
1
10
-6.89091761651881
20
6.71958834102156
30
0
41
1
10
-6.90132519242908
20
6.70792729356302
30
0
0
SPLINE
5
1B6
100
AcDbEntity
8
SK1
62
256
6
ByLayer
370
13
48
1
60
0
100
AcDbSpline
70
4
71
3
72
27
73
23
40
0
40
0
40
0
40
0
40
0.050702765675962
40
0.108275905035639
40
0.137062474715477
40
0.165849044395315
40
0.194635614075153
40
0.223422183754991
40
0.280995323114668
40
0.338568462474344
40
0.396141601834021
40
0.453714741193696
40
0.511287880553373
40
0.56886101991305
40
0.626434159272726
40
0.684007298632403
40
0.741580437992078
40
0.799153577351755
40
0.856726716711432
40
0.914299856071108
40
0.971872995430784
40
1
40
1
40
1
40
1
41
1
10
-8.59279472280903
20
-6.52902796995508
30
0
41
1
10
-8.62127746483222
20
-6.49679246642816
30
0
41
1
10
-8.68201542608679
20
-6.36942528845464
30
0
41
1
10
-8.75896869932205
20
-6.05468778911464
30
0
41
1
10
-8.82389471909545
20
-5.69212237664334
30
0
41
1
10
-8.87277630182385
20
-5.37252925091735
30
0
41
1
10
-8.92169006220362
20
-5.00915641178941
30
0
41
1
10
-8.98676677456245
20
-4.47125663835325
30
0
41
1
10
-9.06787564721401
20
-3.70786755697253
30
0
41
1
10
-9.16482245667342
20
-2.67820108808237
30
0
41
1
10
-9.2613581328439
20
-1.57000249985785
30
0
41
1
10
-9.35754948082521
20
-0.419181790346698
30
0
41
1
10
-9.45358252884836
20
0.739449960812294
30
0
41
1
10
-9.54980902963871
20
1.87340553606464
30
0
41
1
10
-9.64683728002765
20
2.95277512940814
30
0
41
1
10
-9.74491437190272
20
3.94323994402228
30
0
41
1
10
-9.84298722692876
20
4.79955748650423
30
0
41
1
10
-9.94121705541042
20
5.49538289577518
30
0
41
1
10
-10.0395353033072
20
6.00670096808614
30
0
41
1
10
-10.1376881907091
20
6.31614979500054
30
0
41
1
10
-10.2193209022305
20
6.39857423121103
30
0
41
1
10
-10.2684312923043
20
6.36832804052807
30
0
41
1
10
-10.2845899892255
20
6.34976814235142
30
0
0
SPLINE
5
1B7
100
AcDbEntity
8
SK1
62
256
6
ByLayer
370
13
48
1
60
0
100
AcDbSpline
70
4
71
3
72
27
73
23
40
0
40
0
40
0
40
0
40
0.04868736277026
40
0.111031509270646
40
0.17337565577103
40
0.235719802271418
40
0.298063948771803
40
0.360408095272188
40
0.422752241772575
40
0.485096388272961
40
0.516268461523153
40
0.547440534773345
40
0.578612608023539
40
0.609784681273733
40
0.640956754523926
40
0.672128827774118
40
0.734472974274504
40
0.79681712077489
40
0.859161267275276
40
0.921505413775662
40
0.983849560276048
40
1
40
1
40
1
40
1
41
1
10
-11.9734449577192
20
-6.17383797971294
30
0
41
1
10
-12.0022626704084
20
-6.14211215255352
30
0
41
1
10
-12.0676254035496
20
-6.00955698780459
30
0
41
1
10
-12.168674593588
20
-5.60040371239094
30
0
41
1
10
-12.2768772061326
20
-4.93780624558383
30
0
41
1
10
-12.384418373496
20
-4.08473278553387
30
0
41
1
10
-12.4910239919104
20
-3.08174727758419
30
0
41
1
10
-12.5966210616525
20
-1.97324508518054
30
0
41
1
10
-12.7015643090471
20
-0.800819440138127
30
0
41
1
10
-12.7890047246195
20
0.19786808623752
30
0
41
1
10
-12.859250521478
20
0.990280785212065
30
0
41
1
10
-12.9121255528781
20
1.57623502560429
30
0
41
1
10
-12.9649348990461
20
2.14519445909269
30
0
41
1
10
-13.0175257933668
20
2.690170781468
30
0
41
1
10
-13.0699801243849
20
3.20716694123027
30
0
41
1
10
-13.1397781936732
20
3.85348910446015
30
0
41
1
10
-13.2268366942284
20
4.5701794068186
30
0
41
1
10
-13.3312794533988
20
5.25534792041597
30
0
41
1
10
-13.4354960506472
20
5.73976582842499
30
0
41
1
10
-13.5392609911915
20
6.00734391437052
30
0
41
1
10
-13.6173771581751
20
6.0407828233952
30
0
41
1
10
-13.6610592765301
20
5.99997347807678
30
0
41
1
10
-13.6700553154496
20
5.98905815237282
30
0
0
SPLINE
5
1B8
100
AcDbEntity
8
SK1
62
256
6
ByLayer
370
18
48
1
60
0
100
AcDbSpline
70
4
71
3
72
131
73
127
40
0
40
0
40
0
40
0
40
0.0275057748771764
40
0.0275057748771764
40
0.0550115497543527
40
0.0550115497543527
40
0.0825173246315289
40
0.0825173246315289
40
0.0962702120701171
40
0.0962702120701171
40
0.103146655789411
40
0.103146655789411
40
0.110023099508705
40
0.110023099508705
40
0.137528874385882
40
0.137528874385882
40
0.15128176182447
40
0.15128176182447
40
0.165034649263058
40
0.165034649263058
40
0.192540424140235
40
0.192540424140235
40
0.199416867859529
40
0.199416867859529
40
0.206293311578823
40
0.206293311578823
40
0.220046199017411
40
0.220046199017411
40
0.247551973894587
40
0.247551973894587
40
0.261304861333175
40
0.261304861333175
40
0.275057748771763
40
0.275057748771763
40
0.30256352364894
40
0.30256352364894
40
0.309439967368234
40
0.309439967368234
40
0.316316411087528
40
0.330069298526116
40
0.330069298526116
40
0.357575073403292
40
0.357575073403292
40
0.364451517122586
40
0.364451517122586
40
0.37132796084188
40
0.37132796084188
40
0.385080848280469
40
0.385080848280469
40
0.412586623157645
40
0.412586623157645
40
0.426339510596233
40
0.426339510596233
40
0.440092398034821
40
0.440092398034821
40
0.453845285473409
40
0.453845285473409
40
0.460721729192703
40
0.460721729192703
40
0.467598172911998
40
0.467598172911998
40
0.495103947789174
40
0.495103947789174
40
0.508856835227762
40
0.508856835227762
40
0.515733278947056
40
0.515733278947056
40
0.52260972266635
40
0.52260972266635
40
0.550115497543527
40
0.550115497543527
40
0.563868384982115
40
0.563868384982115
40
0.577621272420703
40
0.577621272420703
40
0.605127047297879
40
0.605127047297879
40
0.618879934736468
40
0.618879934736468
40
0.632632822175056
40
0.632632822175056
40
0.660138597052233
40
0.660138597052233
40
0.673891484490821
40
0.673891484490821
40
0.680767928210115
40
0.680767928210115
40
0.687644371929409
40
0.687644371929409
40
0.715150146806585
40
0.715150146806585
40
0.728903034245173
40
0.728903034245173
40
0.742655921683762
40
0.742655921683762
40
0.770161696560939
40
0.770161696560939
40
0.783914583999527
40
0.783914583999527
40
0.790791027718821
40
0.790791027718821
40
0.797667471438115
40
0.797667471438115
40
0.825173246315292
40
0.825173246315292
40
0.83892613375388
40
0.83892613375388
40
0.852679021192469
40
0.852679021192469
40
0.880184796069646
40
0.880184796069646
40
0.893937683508234
40
0.893937683508234
40
0.907690570946822
40
0.907690570946822
40
0.935196345823999
40
0.935196345823999
40
0.942072789543293
40
0.942072789543293
40
0.948949233262587
40
0.948949233262587
40
0.962702120701175
40
0.962702120701175
40
0.990207895578352
40
0.990207895578352
40
1
40
1
40
1
40
1
41
1
10
-13.4383082712704
20
6.13040517833994
30
0
41
1
10
-13.4224619110696
20
6.13204142873445
30
0
41
1
10
-13.4068669120119
20
6.12577278086323
30
0
41
1
10
-13.37588879209
20
6.09788310369709
30
0
41
1
10
-13.3604410542873
20
6.07626816637401
30
0
41
1
10
-13.3292666008215
20
6.0178168352781
30
0
41
1
10
-13.3136625651045
20
5.98096662070964
30
0
41
1
10
-13.2902206229267
20
5.91405069081947
30
0
41
1
10
-13.2823942731631
20
5.88980329041979
30
0
41
1
10
-13.2705772948428
20
5.85047544431984
30
0
41
1
10
-13.2666279922294
20
5.83688246938959
30
0
41
1
10
-13.2587154161565
20
5.80880475696554
30
0
41
1
10
-13.2547460698046
20
5.79431044668735
30
0
41
1
10
-13.2348567687369
20
5.71956727699992
30
0
41
1
10
-13.2189170219883
20
5.65250356652464
30
0
41
1
10
-13.1954311119364
20
5.54094002870613
30
0
41
1
10
-13.1876542726393
20
5.50190008379701
30
0
41
1
10
-13.1721346101589
20
5.42024344949721
30
0
41
1
10
-13.1644098160928
20
5.37772742134456
30
0
41
1
10
-13.1410378930921
20
5.24519433043398
30
0
41
1
10
-13.1251268914941
20
5.15021216917009
30
0
41
1
10
-13.1055044942609
20
5.02309189139933
30
0
41
1
10
-13.1015896612244
20
4.99724789855523
30
0
41
1
10
-13.0937797441559
20
4.94471640863179
30
0
41
1
10
-13.0898835207995
20
4.91802042792077
30
0
41
1
10
-13.0782418193873
20
4.83685672892148
30
0
41
1
10
-13.0705376665116
20
4.78125599876455
30
0
41
1
10
-13.047392602093
20
4.61003396168078
30
0
41
1
10
-13.0317259148257
20
4.49002781143142
30
0
41
1
10
-13.0081121509894
20
4.30116345403488
30
0
41
1
10
-13.0002295122416
20
4.23666271035736
30
0
41
1
10
-12.9845492420532
20
4.10525923678568
30
0
41
1
10
-12.9767449550964
20
4.03830666617614
30
0
41
1
10
-12.9533757152936
20
3.8337239290762
30
0
41
1
10
-12.9377617010124
20
3.69238813391092
30
0
41
1
10
-12.9181280188551
20
3.50950439509143
30
0
41
1
10
-12.9141990857463
20
3.47259322566481
30
0
41
1
10
-12.9063613860896
20
3.39828273549105
30
0
41
1
10
-12.8946350075335
20
3.28607749463794
30
0
41
1
10
-12.8829965729677
20
3.17166428587569
30
0
41
1
10
-12.859831266227
20
2.9399061521641
30
0
41
1
10
-12.8445654811397
20
2.78149320029849
30
0
41
1
10
-12.8252785872556
20
2.57860457562839
30
0
41
1
10
-12.8214117406079
20
2.53780241205828
30
0
41
1
10
-12.8136687124906
20
2.45600399150536
30
0
41
1
10
-12.8097892432531
20
2.41497309231278
30
0
41
1
10
-12.7981029056989
20
2.29149164378876
30
0
41
1
10
-12.7902390315834
20
2.20865351898482
30
0
41
1
10
-12.7662957353641
20
1.95862503610766
30
0
41
1
10
-12.7501127341406
20
1.78989657813213
30
0
41
1
10
-12.7267184099553
20
1.53363789352846
30
0
41
1
10
-12.7190461880955
20
1.447692154257
30
0
41
1
10
-12.7039536835281
20
1.27474474134846
30
0
41
1
10
-12.6965318412671
20
1.18774319867475
30
0
41
1
10
-12.6816635278432
20
1.01270669325788
30
0
41
1
10
-12.6741724296448
20
0.924676886163837
30
0
41
1
10
-12.6627925784837
20
0.791860995189126
30
0
41
1
10
-12.6589801020807
20
0.747459917246943
30
0
41
1
10
-12.6513194235883
20
0.658396884767598
30
0
41
1
10
-12.6474682409244
20
0.613700425944529
30
0
41
1
10
-12.6281562424048
20
0.389980968875221
30
0
41
1
10
-12.6125205839406
20
0.210850015089505
30
0
41
1
10
-12.5890290622037
20
-0.0580985736574746
30
0
41
1
10
-12.5811971323212
20
-0.147790630992205
30
0
41
1
10
-12.5694636115766
20
-0.282394230935722
30
0
41
1
10
-12.5655545703192
20
-0.32727299685638
30
0
41
1
10
-12.5577401841961
20
-0.417052363383505
30
0
41
1
10
-12.5538332050307
20
-0.461971806594505
30
0
41
1
10
-12.5343445585983
20
-0.686113741072177
30
0
41
1
10
-12.5188451460151
20
-0.864312653025735
30
0
41
1
10
-12.4955944759148
20
-1.12994154580099
30
0
41
1
10
-12.4878552933553
20
-1.21820667290186
30
0
41
1
10
-12.4723933396849
20
-1.39417820696741
30
0
41
1
10
-12.4646618240669
20
-1.48198235182107
30
0
41
1
10
-12.441530613191
20
-1.74347818084141
30
0
41
1
10
-12.4261693256907
20
-1.91543752395177
30
0
41
1
10
-12.4028578824993
20
-2.16982245185059
30
0
41
1
10
-12.3950644747898
20
-2.25402539848005
30
0
41
1
10
-12.3794911829195
20
-2.42124362580915
30
0
41
1
10
-12.3717066781418
20
-2.50430656875167
30
0
41
1
10
-12.3484816041147
20
-2.75055423018185
30
0
41
1
10
-12.333159424463
20
-2.9111710219799
30
0
41
1
10
-12.3099280909162
20
-3.14678061090765
30
0
41
1
10
-12.3021178502269
20
-3.22442942695272
30
0
41
1
10
-12.2903935425169
20
-3.3395652422648
30
0
41
1
10
-12.2864814065088
20
-3.37775078219127
30
0
41
1
10
-12.2786907642923
20
-3.45343120616639
30
0
41
1
10
-12.2748102460769
20
-3.49094619684826
30
0
41
1
10
-12.255491542122
20
-3.67691031597695
30
0
41
1
10
-12.2403588955609
20
-3.82053571148066
30
0
41
1
10
-12.2176460952483
20
-4.02843638106705
30
0
41
1
10
-12.2100566728966
20
-4.09647864143236
30
0
41
1
10
-12.1946804546419
20
-4.23005832534813
30
0
41
1
10
-12.1869223414416
20
-4.29559572822666
30
0
41
1
10
-12.1636943626575
20
-4.48844353116411
30
0
41
1
10
-12.1483269557706
20
-4.61199605965481
30
0
41
1
10
-12.1255283600399
20
-4.78965256361053
30
0
41
1
10
-12.1179566330154
20
-4.84759101941449
30
0
41
1
10
-12.1065285748366
20
-4.93254457274264
30
0
41
1
10
-12.102708258792
20
-4.96052393039753
30
0
41
1
10
-12.0950420202973
20
-5.015632536829
30
0
41
1
10
-12.0911924780455
20
-5.04278624563656
30
0
41
1
10
-12.071911529892
20
-5.17655761593247
30
0
41
1
10
-12.0564290121921
20
-5.27719336235461
30
0
41
1
10
-12.033452109522
20
-5.41856766429274
30
0
41
1
10
-12.0258243882491
20
-5.46409396611398
30
0
41
1
10
-12.0105724574847
20
-5.55192652476563
30
0
41
1
10
-12.0029739891116
20
-5.59408164675332
30
0
41
1
10
-11.9800766979853
20
-5.71529242895414
30
0
41
1
10
-11.9646105037832
20
-5.7891181698196
30
0
41
1
10
-11.9415200732053
20
-5.8893553383428
30
0
41
1
10
-11.9338315203772
20
-5.92103517060781
30
0
41
1
10
-11.9184972767857
20
-5.98077190693732
30
0
41
1
10
-11.9108671083188
20
-6.00876970833878
30
0
41
1
10
-11.8880017613138
20
-6.08719788616824
30
0
41
1
10
-11.8726998133557
20
-6.13208033715065
30
0
41
1
10
-11.8534873270078
20
-6.17891443858616
30
0
41
1
10
-11.8496447135459
20
-6.18781666954794
30
0
41
1
10
-11.8419619411241
20
-6.20468806685858
30
0
41
1
10
-11.8381199246189
20
-6.21266048248353
30
0
41
1
10
-11.8266208629861
20
-6.23512446528704
30
0
41
1
10
-11.8189863031815
20
-6.24817840095773
30
0
41
1
10
-11.7961026083064
20
-6.28161812354188
30
0
41
1
10
-11.7808685364687
20
-6.29629176208488
30
0
41
1
10
-11.7597093004012
20
-6.30588093732013
30
0
41
1
10
-11.7541245051455
20
-6.30743127732634
30
0
41
1
10
-11.7485496171898
20
-6.30800563046753
30
0
0
SPLINE
5
1B9
100
AcDbEntity
8
SK1
62
256
6
ByLayer
370
18
48
1
60
0
100
AcDbSpline
70
4
71
3
72
127
73
123
40
0
40
0
40
0
40
0
40
0.0078307374390199
40
0.0078307374390199
40
0.020881481104003
40
0.020881481104003
40
0.0339322247689858
40
0.0339322247689858
40
0.0600337120989521
40
0.0600337120989521
40
0.0730844557639348
40
0.0730844557639348
40
0.086135199428918
40
0.086135199428918
40
0.112236686758884
40
0.112236686758884
40
0.13833817408885
40
0.13833817408885
40
0.151388917753833
40
0.151388917753833
40
0.164439661418816
40
0.164439661418816
40
0.177490405083799
40
0.177490405083799
40
0.184015776916291
40
0.184015776916291
40
0.190541148748782
40
0.190541148748782
40
0.216642636078748
40
0.216642636078748
40
0.242744123408715
40
0.242744123408715
40
0.268845610738681
40
0.268845610738681
40
0.275370982571172
40
0.275370982571172
40
0.281896354403664
40
0.281896354403664
40
0.294947098068647
40
0.294947098068647
40
0.321048585398614
40
0.321048585398614
40
0.327573957231105
40
0.327573957231105
40
0.334099329063597
40
0.334099329063597
40
0.34715007272858
40
0.34715007272858
40
0.373251560058546
40
0.373251560058546
40
0.399353047388512
40
0.399353047388512
40
0.425454534718478
40
0.425454534718478
40
0.438505278383461
40
0.438505278383461
40
0.451556022048444
40
0.451556022048444
40
0.47765750937841
40
0.47765750937841
40
0.503758996708376
40
0.503758996708376
40
0.529860484038342
40
0.529860484038342
40
0.542911227703325
40
0.542911227703325
40
0.549436599535817
40
0.549436599535817
40
0.555961971368308
40
0.582063458698275
40
0.582063458698275
40
0.595114202363258
40
0.595114202363258
40
0.608164946028241
40
0.608164946028241
40
0.634266433358207
40
0.634266433358207
40
0.64731717702319
40
0.64731717702319
40
0.660367920688174
40
0.660367920688174
40
0.68646940801814
40
0.68646940801814
40
0.699520151683123
40
0.699520151683123
40
0.712570895348106
40
0.712570895348106
40
0.738672382678073
40
0.738672382678073
40
0.751723126343056
40
0.751723126343056
40
0.764773870008039
40
0.764773870008039
40
0.777824613673023
40
0.777824613673023
40
0.790875357338006
40
0.790875357338006
40
0.80392610100299
40
0.80392610100299
40
0.810451472835481
40
0.810451472835481
40
0.816976844667972
40
0.816976844667972
40
0.843078331997938
40
0.843078331997938
40
0.869179819327904
40
0.869179819327904
40
0.89528130665787
40
0.89528130665787
40
0.908332050322854
40
0.908332050322854
40
0.921382793987837
40
0.921382793987837
40
0.947484281317803
40
0.947484281317803
40
0.973585768647769
40
0.973585768647769
40
0.986636512312753
40
0.986636512312753
40
0.999687255977736
40
0.999687255977736
40
1
40
1
40
1
40
1
41
1
10
-10.0593784394961
20
6.48554673119358
30
0
41
1
10
-10.0548986818926
20
6.48601221190208
30
0
41
1
10
-10.0504166913248
20
6.48580776912272
30
0
41
1
10
-10.0384534757994
20
6.48347745022056
30
0
41
1
10
-10.030974451163
20
6.48015819073737
30
0
41
1
10
-10.0160287959492
20
6.46976532921863
30
0
41
1
10
-10.0085810665472
20
6.46270321332418
30
0
41
1
10
-9.98632267918555
20
6.43598344697278
30
0
41
1
10
-9.97159690193783
20
6.41079190510598
30
0
41
1
10
-9.94935130114115
20
6.3619766813718
30
0
41
1
10
-9.94191356310691
20
6.34385970846427
30
0
41
1
10
-9.92703022115683
20
6.30393079207025
30
0
41
1
10
-9.91960613076179
20
6.28217730959057
30
0
41
1
10
-9.89737106805217
20
6.21159020751804
30
0
41
1
10
-9.88261534787196
20
6.15743620059314
30
0
41
1
10
-9.85271675007823
20
6.03499222051602
30
0
41
1
10
-9.83747397960013
20
5.96661970710758
30
0
41
1
10
-9.81499671004744
20
5.85389677086042
30
0
41
1
10
-9.80756271893694
20
5.81463953008827
30
0
41
1
10
-9.79280646566133
20
5.73290295540431
30
0
41
1
10
-9.78548030876797
20
5.690406051395
30
0
41
1
10
-9.77080127704036
20
5.60217850785622
30
0
41
1
10
-9.76343242633698
20
5.55644999349849
30
0
41
1
10
-9.75224977840648
20
5.48543993860955
30
0
41
1
10
-9.7485079384069
20
5.46136594165395
30
0
41
1
10
-9.74101366772095
20
5.41240481215166
30
0
41
1
10
-9.7372624411048
20
5.38752480509072
30
0
41
1
10
-9.71856800819748
20
5.26145927082231
30
0
41
1
10
-9.70381962443085
20
5.15500086021245
30
0
41
1
10
-9.67474213095934
20
4.93110701394417
30
0
41
1
10
-9.66029679144472
20
4.81368596994051
30
0
41
1
10
-9.63118043607122
20
4.56796750621362
30
0
41
1
10
-9.61663849833599
20
4.43965291532899
30
0
41
1
10
-9.59829003708094
20
4.27233950821608
30
0
41
1
10
-9.59460940344331
20
4.23853060958027
30
0
41
1
10
-9.58721175379225
20
4.17021705180005
30
0
41
1
10
-9.58349458052561
20
4.13571055395283
30
0
41
1
10
-9.57229548345828
20
4.03147106507944
30
0
41
1
10
-9.5647251986579
20
3.96091634916073
30
0
41
1
10
-9.54176452409894
20
3.74608013273976
30
0
41
1
10
-9.52636154446594
20
3.59860237996591
30
0
41
1
10
-9.50779568922894
20
3.40881263437012
30
0
41
1
10
-9.50411028512269
20
3.37058294973457
30
0
41
1
10
-9.49678606143968
20
3.29357899179595
30
0
41
1
10
-9.49314576188422
20
3.25478839256189
30
0
41
1
10
-9.48229941910012
20
3.13800116350606
30
0
41
1
10
-9.47516015874754
20
3.05946515007611
30
0
41
1
10
-9.4535721633452
20
2.82190601790396
30
0
41
1
10
-9.43899214656562
20
2.66093115048301
30
0
41
1
10
-9.41000788838707
20
2.33381136350007
30
0
41
1
10
-9.39560477955061
20
2.16766587079442
30
0
41
1
10
-9.3667144656593
20
1.83022518789085
30
0
41
1
10
-9.35213661052757
20
1.65894078582272
30
0
41
1
10
-9.33010331846802
20
1.39808148146457
30
0
41
1
10
-9.32273095693785
20
1.31043757633412
30
0
41
1
10
-9.3079457865154
20
1.13395235309798
30
0
41
1
10
-9.30057852969671
20
1.04565472898469
30
0
41
1
10
-9.27852497025708
20
0.780602027302336
30
0
41
1
10
-9.26384462768638
20
0.603690977899248
30
0
41
1
10
-9.23464853378712
20
0.249448706570433
30
0
41
1
10
-9.220172993852
20
0.0721140329619629
30
0
41
1
10
-9.19126201724254
20
-0.282964512000234
30
0
41
1
10
-9.17674550475743
20
-0.460701448917916
30
0
41
1
10
-9.15472038248561
20
-0.727595383520594
30
0
41
1
10
-9.14736203745804
20
-0.816610326112539
30
0
41
1
10
-9.13632495380338
20
-0.950211683146932
30
0
41
1
10
-9.13264285752615
20
-0.994791410715294
30
0
41
1
10
-9.12529978735549
20
-1.08369959912403
30
0
41
1
10
-9.10698644172712
20
-1.30546009351002
30
0
41
1
10
-9.08882093842783
20
-1.52468288608003
30
0
41
1
10
-9.06672764881856
20
-1.78529731004014
30
0
41
1
10
-9.05934272526625
20
-1.87176109940083
30
0
41
1
10
-9.04460009906964
20
-2.04387221794573
30
0
41
1
10
-9.03724216635089
20
-2.12952242350295
30
0
41
1
10
-9.01530641056434
20
-2.38408863595549
30
0
41
1
10
-9.00086337540731
20
-2.55101612213869
30
0
41
1
10
-8.97886168155955
20
-2.79722652997026
30
0
41
1
10
-8.97146920522385
20
-2.87859902698023
30
0
41
1
10
-8.95668505733838
20
-3.03994514472961
30
0
41
1
10
-8.94929006300907
20
-3.11995419173951
30
0
41
1
10
-8.92726785216888
20
-3.35681699173762
30
0
41
1
10
-8.91280821515832
20
-3.51085933585176
30
0
41
1
10
-8.89100926718862
20
-3.73614199314963
30
0
41
1
10
-8.88369158577711
20
-3.81027122245135
30
0
41
1
10
-8.86899497159192
20
-3.95659049319991
30
0
41
1
10
-8.86162572356935
20
-4.02883470618136
30
0
41
1
10
-8.83968291922054
20
-4.24172958781918
30
0
41
1
10
-8.82528530688927
20
-4.3788176065276
30
0
41
1
10
-8.80380116874773
20
-4.57722318867255
30
0
41
1
10
-8.79664719751256
20
-4.64215259546953
30
0
41
1
10
-8.78222573890852
20
-4.76958986734664
30
0
41
1
10
-8.77496029713228
20
-4.83215648798466
30
0
41
1
10
-8.76034216021864
20
-4.95436643278148
30
0
41
1
10
-8.75298530161362
20
-5.01405232852619
30
0
41
1
10
-8.73805670069763
20
-5.13060564220592
30
0
41
1
10
-8.73047273957152
20
-5.18747358261149
30
0
41
1
10
-8.71537124130521
20
-5.29838497162345
30
0
41
1
10
-8.70785579981973
20
-5.35242830939069
30
0
41
1
10
-8.6967608579954
20
-5.43136023408076
30
0
41
1
10
-8.69309098297674
20
-5.4573152751756
30
0
41
1
10
-8.68581141088157
20
-5.50851085416713
30
0
41
1
10
-8.68220350219397
20
-5.5337384844704
30
0
41
1
10
-8.66434806879286
20
-5.65767373879794
30
0
41
1
10
-8.65062032220854
20
-5.75011333363901
30
0
41
1
10
-8.62236758236236
20
-5.92203527613728
30
0
41
1
10
-8.60803699662807
20
-6.00150755188102
30
0
41
1
10
-8.57911433219073
20
-6.14756971983903
30
0
41
1
10
-8.56453959731525
20
-6.21415878339891
30
0
41
1
10
-8.54271536558204
20
-6.30425251760181
30
0
41
1
10
-8.53544381844111
20
-6.33265029880681
30
0
41
1
10
-8.52089959656894
20
-6.3861358756443
30
0
41
1
10
-8.51362308707604
20
-6.41123620081638
30
0
41
1
10
-8.49175691693594
20
-6.48140659515749
30
0
41
1
10
-8.47721947637893
20
-6.52099365786162
30
0
41
1
10
-8.44829762630789
20
-6.58591363564548
30
0
41
1
10
-8.43391866636159
20
-6.61124557257335
30
0
41
1
10
-8.41220683167279
20
-6.63847047082794
30
0
41
1
10
-8.40495630995335
20
-6.64572331610012
30
0
41
1
10
-8.39039351084358
20
-6.65659987081344
30
0
41
1
10
-8.38309302601689
20
-6.66022528055186
30
0
41
1
10
-8.37562810757291
20
-6.66208377435225
30
0
41
1
10
-8.3754534164139
20
-6.66212622968851
30
0
41
1
10
-8.37527873453917
20
-6.66216764616533
30
0
0
SPLINE
5
1BA
100
AcDbEntity
8
SK1
62
256
6
ByLayer
370
18
48
1
60
0
100
AcDbSpline
70
4
71
3
72
137
73
133
40
0
40
0
40
0
40
0
40
0.0105203121962146
40
0.0105203121962146
40
0.0229260308527916
40
0.0229260308527916
40
0.0353317495093693
40
0.0353317495093693
40
0.060143186822524
40
0.060143186822524
40
0.0725489054791017
40
0.0725489054791017
40
0.0849546241356787
40
0.0849546241356787
40
0.109766061448834
40
0.109766061448834
40
0.122171780105411
40
0.122171780105411
40
0.134577498761988
40
0.134577498761988
40
0.159388936075144
40
0.159388936075144
40
0.184200373388299
40
0.184200373388299
40
0.196606092044877
40
0.196606092044877
40
0.202808951373166
40
0.202808951373166
40
0.209011810701454
40
0.209011810701454
40
0.23382324801461
40
0.23382324801461
40
0.258634685327765
40
0.258634685327765
40
0.28344612264092
40
0.28344612264092
40
0.308257559954076
40
0.308257559954076
40
0.314460419282365
40
0.314460419282365
40
0.320663278610653
40
0.333068997267231
40
0.333068997267231
40
0.357880434580386
40
0.357880434580386
40
0.370286153236963
40
0.370286153236963
40
0.38269187189354
40
0.38269187189354
40
0.407503309206696
40
0.407503309206696
40
0.413706168534984
40
0.413706168534984
40
0.419909027863274
40
0.419909027863274
40
0.432314746519851
40
0.432314746519851
40
0.457126183833006
40
0.457126183833006
40
0.469531902489583
40
0.469531902489583
40
0.481937621146161
40
0.481937621146161
40
0.506749058459315
40
0.506749058459315
40
0.519154777115893
40
0.519154777115893
40
0.525357636444182
40
0.525357636444182
40
0.531560495772471
40
0.531560495772471
40
0.556371933085626
40
0.556371933085626
40
0.568777651742203
40
0.568777651742203
40
0.58118337039878
40
0.58118337039878
40
0.593589089055358
40
0.593589089055358
40
0.605994807711935
40
0.605994807711935
40
0.630806245025091
40
0.630806245025091
40
0.643211963681667
40
0.643211963681667
40
0.655617682338245
40
0.655617682338245
40
0.668023400994822
40
0.668023400994822
40
0.680429119651399
40
0.680429119651399
40
0.705240556964555
40
0.705240556964555
40
0.717646275621132
40
0.717646275621132
40
0.723849134949421
40
0.723849134949421
40
0.730051994277709
40
0.730051994277709
40
0.754863431590864
40
0.754863431590864
40
0.779674868904018
40
0.779674868904018
40
0.792080587560596
40
0.792080587560596
40
0.804486306217173
40
0.804486306217173
40
0.829297743530328
40
0.829297743530328
40
0.841703462186905
40
0.841703462186905
40
0.854109180843482
40
0.854109180843482
40
0.878920618156636
40
0.878920618156636
40
0.885123477484926
40
0.885123477484926
40
0.891326336813214
40
0.891326336813214
40
0.903732055469792
40
0.903732055469792
40
0.928543492782947
40
0.928543492782947
40
0.940949211439524
40
0.940949211439524
40
0.953354930096101
40
0.953354930096101
40
0.978166367409257
40
0.978166367409257
40
0.990572086065834
40
0.990572086065834
40
1
40
1
40
1
40
1
41
1
10
-6.68048134345631
20
6.84068297021054
30
0
41
1
10
-6.6745801812967
20
6.84132855276272
30
0
41
1
10
-6.66865437723442
20
6.8407072403416
30
0
41
1
10
-6.65564991113325
20
6.8365997948888
30
0
41
1
10
-6.64855600285091
20
6.8326180995542
30
0
41
1
10
-6.63414078154688
20
6.82113073971698
30
0
41
1
10
-6.62683447852712
20
6.81361844453011
30
0
41
1
10
-6.60494732178151
20
6.78579261717061
30
0
41
1
10
-6.59036308448566
20
6.76018106549273
30
0
41
1
10
-6.56887874904885
20
6.71125474863518
30
0
41
1
10
-6.56180538458162
20
6.69318948670301
30
0
41
1
10
-6.54786998208223
20
6.65359658861968
30
0
41
1
10
-6.54100630764694
20
6.63208667410657
30
0
41
1
10
-6.52057402355132
20
6.56245983632076
30
0
41
1
10
-6.50722300178489
20
6.50924532054421
30
0
41
1
10
-6.48656197041086
20
6.41932531639054
30
0
41
1
10
-6.47956903468662
20
6.38763944461775
30
0
41
1
10
-6.46550467454568
20
6.32124205310177
30
0
41
1
10
-6.45842448260973
20
6.28649487304133
30
0
41
1
10
-6.43711256191344
20
6.17765439774479
30
0
41
1
10
-6.4228094799393
20
6.09896936361511
30
0
41
1
10
-6.39440936385472
20
5.92941879392785
30
0
41
1
10
-6.38034292576518
20
5.83854894336579
30
0
41
1
10
-6.35945159975117
20
5.69302048478713
30
0
41
1
10
-6.35251827187372
20
5.64297253688562
30
0
41
1
10
-6.34212993151564
20
5.56557156604097
30
0
41
1
10
-6.3386688530334
20
5.53938298962942
30
0
41
1
10
-6.33174153052514
20
5.48622482401424
30
0
41
1
10
-6.32827398620807
20
5.45924450946004
30
0
41
1
10
-6.31094709711516
20
5.32277660791547
30
0
41
1
10
-6.29699683446847
20
5.20832746355887
30
0
41
1
10
-6.26882597140741
20
4.96897598029429
30
0
41
1
10
-6.25469709810855
20
4.84403545824566
30
0
41
1
10
-6.22646921252962
20
4.58365688001666
30
0
41
1
10
-6.21241375850181
20
4.44901825199366
30
0
41
1
10
-6.18421878250308
20
4.17095619665807
30
0
41
1
10
-6.17019773354286
20
4.02751785438491
30
0
41
1
10
-6.15279847418103
20
3.84265949136059
30
0
41
1
10
-6.1493214358197
20
3.80539844297323
30
0
41
1
10
-6.14238029296294
20
3.73047742640702
30
0
41
1
10
-6.13198351891728
20
3.61744413059583
30
0
41
1
10
-6.12156780080338
20
3.50247087495063
30
0
41
1
10
-6.10051444657842
20
3.26997169719394
30
0
41
1
10
-6.08629852554432
20
3.11155932582494
30
0
41
1
10
-6.0652509712119
20
2.86872438503528
30
0
41
1
10
-6.05826675039901
20
2.78684972116378
30
0
41
1
10
-6.04439520714334
20
2.62203550559829
30
0
41
1
10
-6.03750133502689
20
2.53902481447457
30
0
41
1
10
-6.01676800064712
20
2.28820999782826
30
0
41
1
10
-6.00278111916265
20
2.11863638375016
30
0
41
1
10
-5.98528217256447
20
1.90368365911459
30
0
41
1
10
-5.98178133616528
20
1.86054364087673
30
0
41
1
10
-5.97477838016883
20
1.77396344135741
30
0
41
1
10
-5.97127517846965
20
1.73050962827796
30
0
41
1
10
-5.96078306718448
20
1.59996870207132
30
0
41
1
10
-5.95380627736884
20
1.51262073830014
30
0
41
1
10
-5.93286553161821
20
1.249626756439
30
0
41
1
10
-5.9188037832152
20
1.07304048208908
30
0
41
1
10
-5.897722506056
20
0.806257623177828
30
0
41
1
10
-5.89070615475765
20
0.716998672315896
30
0
41
1
10
-5.87672051971782
20
0.537888915637069
30
0
41
1
10
-5.86977175704908
20
0.448300590420274
30
0
41
1
10
-5.84902025675592
20
0.179438856364243
30
0
41
1
10
-5.83528270631479
20
7.11513569343E-05
30
0
41
1
10
-5.81458292624635
20
-0.269151250723013
30
0
41
1
10
-5.80767764390026
20
-0.358921364445422
30
0
41
1
10
-5.79729282914499
20
-0.493619296606994
30
0
41
1
10
-5.79382538092256
20
-0.538540247245834
30
0
41
1
10
-5.78688944914032
20
-0.628211453066371
30
0
41
1
10
-5.7834193787431
20
-0.672982327586908
30
0
41
1
10
-5.76603958537743
20
-0.896513044920709
30
0
41
1
10
-5.75200035446926
20
-1.07430071520443
30
0
41
1
10
-5.73045298606792
20
-1.33941485376519
30
0
41
1
10
-5.72323384310494
20
-1.42752752634411
30
0
41
1
10
-5.70887145248381
20
-1.60324204344465
30
0
41
1
10
-5.70172569911793
20
-1.6908856172565
30
0
41
1
10
-5.68759514660624
20
-1.86524602303464
30
0
41
1
10
-5.68060666879322
20
-1.95201084618353
30
0
41
1
10
-5.66673476699827
20
-2.1244339923285
30
0
41
1
10
-5.65985275949259
20
-2.21005422347727
30
0
41
1
10
-5.63910304157554
20
-2.46513853635679
30
0
41
1
10
-5.62521594968433
20
-2.63283230269428
30
0
41
1
10
-5.60465848650935
20
-2.88082389163142
30
0
41
1
10
-5.59785123333506
20
-2.96277917178628
30
0
41
1
10
-5.58429143710276
20
-3.12501296789165
30
0
41
1
10
-5.57753514038163
20
-3.20533292344638
30
0
41
1
10
-5.56394423157832
20
-3.36437862326281
30
0
41
1
10
-5.55709008455793
20
-3.44310402745302
30
0
41
1
10
-5.54327073578381
20
-3.59895544389647
30
0
41
1
10
-5.53631034478994
20
-3.67612389869683
30
0
41
1
10
-5.51542615858858
20
-3.90438328093265
30
0
41
1
10
-5.50148992171944
20
-4.05249304240573
30
0
41
1
10
-5.48056860296367
20
-4.26859658109285
30
0
41
1
10
-5.47358565067555
20
-4.33961976388471
30
0
41
1
10
-5.46308277716108
20
-4.44463162349919
30
0
41
1
10
-5.459578980911
20
-4.47938168703615
30
0
41
1
10
-5.4525720824096
20
-4.54837216154544
30
0
41
1
10
-5.44906738052663
20
-4.58262797570239
30
0
41
1
10
-5.4315889493634
20
-4.75229900462892
30
0
41
1
10
-5.41775904797851
20
-4.88308336159685
30
0
41
1
10
-5.39020339492254
20
-5.13483022146639
30
0
41
1
10
-5.37638445112816
20
-5.25579466319212
30
0
41
1
10
-5.3554655965545
20
-5.42981135358229
30
0
41
1
10
-5.34850197093098
20
-5.48644703695675
30
0
41
1
10
-5.33464724750388
20
-5.59682900274944
30
0
41
1
10
-5.32775284536069
20
-5.65060233930635
30
0
41
1
10
-5.30713141686709
20
-5.80768431046963
30
0
41
1
10
-5.29345422953597
20
-5.90676123645241
30
0
41
1
10
-5.27259304731959
20
-6.04687401136147
30
0
41
1
10
-5.26560794035268
20
-6.09217083342028
30
0
41
1
10
-5.25170981780408
20
-6.17953615641886
30
0
41
1
10
-5.24478964711878
20
-6.22165420534543
30
0
41
1
10
-5.22412263882458
20
-6.3433353308827
30
0
41
1
10
-5.21049937867315
20
-6.41822979836959
30
0
41
1
10
-5.19320983431194
20
-6.50406319056924
30
0
41
1
10
-5.18973563803453
20
-6.52084035546585
30
0
41
1
10
-5.18277368329521
20
-6.5536115297933
30
0
41
1
10
-5.17928515611254
20
-6.5696087525246
30
0
41
1
10
-5.16884243658032
20
-6.61632316070796
30
0
41
1
10
-5.16190692898672
20
-6.64579690759265
30
0
41
1
10
-5.14125111424147
20
-6.72923445260344
30
0
41
1
10
-5.12772242564071
20
-6.77821799667004
30
0
41
1
10
-5.10730473423817
20
-6.84175635853725
30
0
41
1
10
-5.10044690821741
20
-6.86128056718698
30
0
41
1
10
-5.08659748818343
20
-6.89699792567845
30
0
41
1
10
-5.07964576444198
20
-6.91313708164705
30
0
41
1
10
-5.05883490191204
20
-6.95640234131639
30
0
41
1
10
-5.04504148039169
20
-6.97839080560138
30
0
41
1
10
-5.02449295325971
20
-7.00110280957634
30
0
41
1
10
-5.01766062900393
20
-7.00696039637569
30
0
41
1
10
-5.00560458398564
20
-7.01424304959065
30
0
41
1
10
-5.00038943030097
20
-7.0163916995312
30
0
41
1
10
-4.99518243949342
20
-7.01754115749668
30
0
0
SPLINE
5
1BB
100
AcDbEntity
8
SK1
62
256
6
ByLayer
370
18
48
1
60
0
100
AcDbSpline
70
4
71
3
72
20
73
16
40
0
40
0
40
0
40
0
40
0.25
40
0.25
40
0.3125
40
0.3125
40
0.375
40
0.375
40
0.5
40
0.625
40
0.6875
40
0.6875
40
0.75
40
0.75
40
1
40
1
40
1
40
1
41
1
10
-4.01169929459957
20
6.05659597183168
30
0
41
1
10
-3.9322907251846
20
6.18098339108118
30
0
41
1
10
-3.85869832856696
20
6.29672018848191
30
0
41
1
10
-3.77491630421184
20
6.4301109955627
30
0
41
1
10
-3.75857109906758
20
6.45622341811267
30
0
41
1
10
-3.72673024735778
20
6.50729788407537
30
0
41
1
10
-3.71122391756941
20
6.53227724077055
30
0
41
1
10
-3.66610184227565
20
6.60532883181489
30
0
41
1
10
-3.60974565179535
20
6.69756714146908
30
0
41
1
10
-3.54920743309839
20
6.79974729086075
30
0
41
1
10
-3.51755371675856
20
6.85500280283424
30
0
41
1
10
-3.4975168044856
20
6.89047181525405
30
0
41
1
10
-3.48802835099627
20
6.90752791614077
30
0
41
1
10
-3.44347673670828
20
6.98904059882477
30
0
41
1
10
-3.41691407007056
20
7.04248381665232
30
0
41
1
10
-3.39999999999989
20
7.0838065850032
30
0
0
SPLINE
5
1BC
100
AcDbEntity
8
SK1
62
256
6
ByLayer
370
18
48
1
60
0
100
AcDbSpline
70
4
71
3
72
24
73
20
40
0
40
0
40
0
40
0
40
0.125000000000002
40
0.125000000000002
40
0.250000000000005
40
0.250000000000005
40
0.312500000000002
40
0.312500000000002
40
0.375
40
0.375
40
0.500000000000009
40
0.500000000000009
40
0.562500000000011
40
0.562500000000011
40
0.625000000000013
40
0.625000000000013
40
0.750000000000012
40
0.750000000000012
40
1
40
1
40
1
40
1
41
1
10
-4.19527059303562
20
5.94907767755319
30
0
41
1
10
-4.18402475555749
20
5.95025963603086
30
0
41
1
10
-4.17279716119887
20
5.95210141518399
30
0
41
1
10
-4.15126342938515
20
5.95695418240376
30
0
41
1
10
-4.14089838001169
20
5.95996019658654
30
0
41
1
10
-4.12592334317108
20
5.96528967094173
30
0
41
1
10
-4.1210018889528
20
5.96721452459013
30
0
41
1
10
-4.1114820964489
20
5.97127562142919
30
0
41
1
10
-4.10689571242733
20
5.97340428637165
30
0
41
1
10
-4.09360782231013
20
5.98005452109641
30
0
41
1
10
-4.0853751957747
20
5.9848389642992
30
0
41
1
10
-4.07382708766875
20
5.99245546404879
30
0
41
1
10
-4.07011595265647
20
5.99506691495856
30
0
41
1
10
-4.06306080838996
20
6.00033258719427
30
0
41
1
10
-4.05969871951666
20
6.00299841456277
30
0
41
1
10
-4.05005087653635
20
6.01108099645774
30
0
41
1
10
-4.0442008460401
20
6.01658223056421
30
0
41
1
10
-4.02806963345932
20
6.03334495237425
30
0
41
1
10
-4.01919050823074
20
6.0448615615849
30
0
41
1
10
-4.01169929459957
20
6.05659597183165
30
0
0
SPLINE
5
1BD
100
AcDbEntity
8
SK1
62
256
6
ByLayer
370
18
48
1
60
0
100
AcDbSpline
70
4
71
3
72
12
73
8
40
0
40
0
40
0
40
0
40
0.498416306092806
40
0.498416306092806
40
0.749208153046714
40
0.749208153046714
40
1
40
1
40
1
40
1
41
1
10
-4.82399484092059
20
5.88299764575487
30
0
41
1
10
-4.71953962643477
20
5.89397606394797
30
0
41
1
10
-4.61508428247379
20
5.90495450070134
30
0
41
1
10
-4.45806917224078
20
5.92145706682649
30
0
41
1
10
-4.40550950153346
20
5.92698118252133
30
0
41
1
10
-4.3003900956073
20
5.93802942313275
30
0
41
1
10
-4.2478303603678
20
5.94355354805151
30
0
41
1
10
-4.19527059303562
20
5.94907767755319
30
0
0
SPLINE
5
1BE
100
AcDbEntity
8
SK1
62
256
6
ByLayer
370
18
48
1
60
0
100
AcDbSpline
70
4
71
3
72
28
73
24
40
0
40
0
40
0
40
0
40
0.250000000000008
40
0.250000000000008
40
0.37500000000001
40
0.37500000000001
40
0.500000000000013
40
0.500000000000013
40
0.562500000000012
40
0.562500000000012
40
0.625000000000012
40
0.625000000000012
40
0.750000000000009
40
0.750000000000009
40
0.812500000000006
40
0.812500000000006
40
0.875000000000003
40
0.875000000000003
40
0.906250000000001
40
0.906250000000001
40
0.937499999999999
40
0.937499999999999
40
1
40
1
40
1
40
1
41
1
10
-5.18861164904334
20
6.08363746552189
30
0
41
1
10
-5.17572713833511
20
6.06022766031208
30
0
41
1
10
-5.15961467837738
20
6.03702374518065
30
0
41
1
10
-5.13000676677981
20
6.00358345053652
30
0
41
1
10
-5.11921767108939
20
5.9926494543991
30
0
41
1
10
-5.09547948868888
20
5.97134427815092
30
0
41
1
10
-5.08253655242643
20
5.9609707972912
30
0
41
1
10
-5.06107947928567
20
5.94600375607234
30
0
41
1
10
-5.05355950226783
20
5.94110102716289
30
0
41
1
10
-5.03791283013754
20
5.93165519535142
30
0
41
1
10
-5.02977519907415
20
5.92710203056771
30
0
41
1
10
-5.0042898602978
20
5.9140412764439
30
0
41
1
10
-4.98590736711219
20
5.90610874376071
30
0
41
1
10
-4.95527410331562
20
5.89601494217257
30
0
41
1
10
-4.9446171337928
20
5.89298672823119
30
0
41
1
10
-4.9225799495384
20
5.88785025051263
30
0
41
1
10
-4.91115766818422
20
5.88572506189081
30
0
41
1
10
-4.89326510513479
20
5.88338288595622
30
0
41
1
10
-4.88714095827208
20
5.88274193701116
30
0
41
1
10
-4.87477874572858
20
5.88180151659165
30
0
41
1
10
-4.86855177095015
20
5.88150095456794
30
0
41
1
10
-4.84972364531689
20
5.88114617037863
30
0
41
1
10
-4.83697690579928
20
5.88163320896777
30
0
41
1
10
-4.82399484092059
20
5.88299764575487
30
0
0
SPLINE
5
1BF
100
AcDbEntity
8
SK1
62
256
6
ByLayer
370
18
48
1
60
0
100
AcDbSpline
70
4
71
3
72
16
73
12
40
0
40
0
40
0
40
0
40
0.249999999999999
40
0.249999999999999
40
0.374999999999999
40
0.374999999999999
40
0.499999999999999
40
0.499999999999999
40
0.75
40
0.75
40
1
40
1
40
1
40
1
41
1
10
-5.56377477205766
20
6.72076167662942
30
0
41
1
10
-5.53911976901193
20
6.68453229783856
30
0
41
1
10
-5.51285836222235
20
6.64391060633113
30
0
41
1
10
-5.47095883478681
20
6.57649642376148
30
0
41
1
10
-5.45656944143167
20
6.55293612799605
30
0
41
1
10
-5.42698218038527
20
6.50374606161964
30
0
41
1
10
-5.41177970004273
20
6.47810908247922
30
0
41
1
10
-5.36491802704504
20
6.39810241138051
30
0
41
1
10
-5.3319829087992
20
6.34059572072425
30
0
41
1
10
-5.26283732954005
20
6.21789665217929
30
0
41
1
10
-5.22660485548448
20
6.15266713860979
30
0
41
1
10
-5.18861164904334
20
6.08363746552189
30
0
0
SPLINE
5
1C0
100
AcDbEntity
8
SK1
62
256
6
ByLayer
370
18
48
1
60
0
100
AcDbSpline
70
4
71
3
72
118
73
114
40
0
40
0
40
0
40
0
40
0.0062000640288094
40
0.0062000640288094
40
0.0158877343425313
40
0.0158877343425313
40
0.0255754046562533
40
0.0255754046562533
40
0.0449507452836973
40
0.0449507452836973
40
0.0837014265385853
40
0.0837014265385853
40
0.103076767166029
40
0.103076767166029
40
0.122452107793473
40
0.122452107793473
40
0.132139778107195
40
0.132139778107195
40
0.141827448420917
40
0.141827448420917
40
0.161202789048361
40
0.161202789048361
40
0.180578129675805
40
0.180578129675805
40
0.199953470303249
40
0.199953470303249
40
0.219328810930693
40
0.219328810930693
40
0.229016481244415
40
0.233860316401276
40
0.233860316401276
40
0.238704151558137
40
0.238704151558137
40
0.25807949218558
40
0.277454832813024
40
0.277454832813024
40
0.296830173440468
40
0.296830173440468
40
0.316205514067912
40
0.316205514067912
40
0.335580854695356
40
0.335580854695356
40
0.340424689852217
40
0.340424689852217
40
0.345268525009078
40
0.345268525009078
40
0.3549561953228
40
0.3549561953228
40
0.374331535950244
40
0.393706876577688
40
0.393706876577688
40
0.432457557832577
40
0.432457557832577
40
0.451832898460021
40
0.451832898460021
40
0.471208239087465
40
0.471208239087465
40
0.509958920342353
40
0.509958920342353
40
0.548709601597241
40
0.548709601597241
40
0.558397271910963
40
0.558397271910963
40
0.563241107067824
40
0.563241107067824
40
0.568084942224686
40
0.568084942224686
40
0.587460282852129
40
0.587460282852129
40
0.606835623479573
40
0.606835623479573
40
0.626210964107017
40
0.626210964107017
40
0.645586304734461
40
0.645586304734461
40
0.664961645361905
40
0.664961645361905
40
0.674649315675627
40
0.674649315675627
40
0.684336985989349
40
0.684336985989349
40
0.703712326616793
40
0.703712326616793
40
0.723087667244237
40
0.723087667244237
40
0.74246300787168
40
0.74246300787168
40
0.761838348499124
40
0.771526018812846
40
0.776369853969707
40
0.776369853969707
40
0.781213689126568
40
0.781213689126568
40
0.800589029754012
40
0.800589029754012
40
0.819964370381456
40
0.819964370381456
40
0.8393397110089
40
0.8393397110089
40
0.858715051636344
40
0.858715051636344
40
0.878090392263787
40
0.887778062577509
40
0.887778062577509
40
0.897465732891231
40
0.897465732891231
40
0.93621641414612
40
0.93621641414612
40
0.974967095401008
40
0.974967095401008
40
0.994342436028452
40
0.994342436028452
40
1
40
1
40
1
40
1
41
1
10
-12.7535007243064
20
6.20203212867642
30
0
41
1
10
-12.7499810282557
20
6.20196682173318
30
0
41
1
10
-12.7464614358688
20
6.20149555280986
30
0
41
1
10
-12.7374390638098
20
6.19924772359701
30
0
41
1
10
-12.7319307949522
20
6.19688572767848
30
0
41
1
10
-12.7208813827078
20
6.190171857248
30
0
41
1
10
-12.7153338254654
20
6.18581229660543
30
0
41
1
10
-12.6987042455175
20
6.16981263898225
30
0
41
1
10
-12.6876136508698
20
6.15525423046049
30
0
41
1
10
-12.6543837618638
20
6.10016534338416
30
0
41
1
10
-12.63244566934
20
6.04824346870294
30
0
41
1
10
-12.5994666110905
20
5.94788711850706
30
0
41
1
10
-12.5884577589358
20
5.91067963067704
30
0
41
1
10
-12.5664844863003
20
5.82866267233481
30
0
41
1
10
-12.5555668407755
20
5.78384708585469
30
0
41
1
10
-12.5391883766772
20
5.71079803319176
30
0
41
1
10
-12.5337065751694
20
5.68543182575283
30
0
41
1
10
-12.5227357141573
20
5.63304012048451
30
0
41
1
10
-12.5172442485516
20
5.60600765474081
30
0
41
1
10
-12.5007296093086
20
5.52243652439591
30
0
41
1
10
-12.4896530245568
20
5.46342834299688
30
0
41
1
10
-12.4675847384671
20
5.3389127299771
30
0
41
1
10
-12.4566726533664
20
5.27339456244448
30
0
41
1
10
-12.4350957261
20
5.13587624506096
30
0
41
1
10
-12.4243495042183
20
5.063886852634
30
0
41
1
10
-12.4026162314977
20
4.91346364961964
30
0
41
1
10
-12.3916278894113
20
4.83503041191767
30
0
41
1
10
-12.3749899753847
20
4.71246911824525
30
0
41
1
10
-12.3666365998848
20
4.64995911047868
30
0
41
1
10
-12.3582758536951
20
4.5855759646021
30
0
41
1
10
-12.3526978998874
20
4.54223483589038
30
0
41
1
10
-12.3499052591217
20
4.52034316928365
30
0
41
1
10
-12.3359723923365
20
4.41020669186454
30
0
41
1
10
-12.313786837553
20
4.22913154350294
30
0
41
1
10
-12.2918261040247
20
4.03857116977116
30
0
41
1
10
-12.2702136211194
20
3.84329550412696
30
0
41
1
10
-12.2596855922407
20
3.74328610149399
30
0
41
1
10
-12.2388185390276
20
3.53857646117493
30
0
41
1
10
-12.2283666837738
20
3.43389117376236
30
0
41
1
10
-12.2068434238438
20
3.21989723210476
30
0
41
1
10
-12.1957659396129
20
3.11059004420099
30
0
41
1
10
-12.1817069239014
20
2.97098452473381
30
0
41
1
10
-12.1788867317518
20
2.94291438517786
30
0
41
1
10
-12.1732426350923
20
2.88647210739569
30
0
41
1
10
-12.1704164578225
20
2.85807534931848
30
0
41
1
10
-12.1619759443147
20
2.77263011689502
30
0
41
1
10
-12.1563977593155
20
2.71535474118238
30
0
41
1
10
-12.139747257491
20
2.54261235688861
30
0
41
1
10
-12.1177594690473
20
2.30984876524533
30
0
41
1
10
-12.0958190158677
20
2.07233746213527
30
0
41
1
10
-12.0629400534673
20
1.71253803344305
30
0
41
1
10
-12.0412073036563
20
1.46795804513599
30
0
41
1
10
-12.0084171226588
20
1.09394924708374
30
0
41
1
10
-11.9974528484525
20
0.96808699953823
30
0
41
1
10
-11.9754702400843
20
0.713913846051327
30
0
41
1
10
-11.9645870255894
20
0.586863571946822
30
0
41
1
10
-11.9320921949778
20
0.206114819240156
30
0
41
1
10
-11.9104765564093
20
-0.0472965091175297
30
0
41
1
10
-11.8673022125837
20
-0.553288643346178
30
0
41
1
10
-11.8459673682577
20
-0.805887898164826
30
0
41
1
10
-11.8187055447534
20
-1.12105228690905
30
0
41
1
10
-11.8132296593076
20
-1.184056347547
30
0
41
1
10
-11.8049885301854
20
-1.27851932539423
30
0
41
1
10
-11.8022356570134
20
-1.31001577488576
30
0
41
1
10
-11.7967423088783
20
-1.37278384758389
30
0
41
1
10
-11.7939997600778
20
-1.4040793174498
30
0
41
1
10
-11.7803168705899
20
-1.56011736122539
30
0
41
1
10
-11.7695112807544
20
-1.68354532017096
30
0
41
1
10
-11.7479377541982
20
-1.92764346545536
30
0
41
1
10
-11.7371489452366
20
-2.04831268495954
30
0
41
1
10
-11.7154865056308
20
-2.28691565598467
30
0
41
1
10
-11.7046139448293
20
-2.40484951857502
30
0
41
1
10
-11.6829891828574
20
-2.6379879652813
30
0
41
1
10
-11.6723020583781
20
-2.75319506400396
30
0
41
1
10
-11.6508591362094
20
-2.98083930358939
30
0
41
1
10
-11.64008057338
20
-3.09327569918764
30
0
41
1
10
-11.623719096327
20
-3.25980033859392
30
0
41
1
10
-11.6182300816705
20
-3.31500680555581
30
0
41
1
10
-11.6072803600693
20
-3.42397405384204
30
0
41
1
10
-11.6018115027718
20
-3.47781989886209
30
0
41
1
10
-11.5854745155757
20
-3.63746810457565
30
0
41
1
10
-11.574729889897
20
-3.74138285066849
30
0
41
1
10
-11.5532050955023
20
-3.94425994045741
30
0
41
1
10
-11.5424064745259
20
-4.0432222839911
30
0
41
1
10
-11.520632351088
20
-4.23622501562974
30
0
41
1
10
-11.5096586407724
20
-4.33026557576969
30
0
41
1
10
-11.4877527124006
20
-4.51340044927639
30
0
41
1
10
-11.4714043873066
20
-4.64704162583334
30
0
41
1
10
-11.4525820329383
20
-4.79635640437127
30
0
41
1
10
-11.4445979967401
20
-4.85891491941351
30
0
41
1
10
-11.439299326398
20
-4.90029959890305
30
0
41
1
10
-11.4366600058867
20
-4.92084157885134
30
0
41
1
10
-11.4235204768204
20
-5.02240551201484
30
0
41
1
10
-11.4131315766593
20
-5.10024679178224
30
0
41
1
10
-11.3918939203128
20
-5.24929981101178
30
0
41
1
10
-11.3810390018934
20
-5.32051209425723
30
0
41
1
10
-11.3589723009324
20
-5.45639305581616
30
0
41
1
10
-11.3478003341665
20
-5.52106030245036
30
0
41
1
10
-11.3259230057293
20
-5.64382479581087
30
0
41
1
10
-11.315141620084
20
-5.70192523653026
30
0
41
1
10
-11.2937133122886
20
-5.81151148341846
30
0
41
1
10
-11.2777610679899
20
-5.88873933157649
30
0
41
1
10
-11.2617084754404
20
-5.95839156456509
30
0
41
1
10
-11.2509604408645
20
-6.00311907365958
30
0
41
1
10
-11.2455877777135
20
-6.02452762183032
30
0
41
1
10
-11.2187245148302
20
-6.12676304354997
30
0
41
1
10
-11.1972124979472
20
-6.19332724016263
30
0
41
1
10
-11.1542817759406
20
-6.29686262091636
30
0
41
1
10
-11.132707330167
20
-6.33384612434469
30
0
41
1
10
-11.1004595526571
20
-6.36680442625175
30
0
41
1
10
-11.0897795821666
20
-6.37402261433229
30
0
41
1
10
-11.0759298253411
20
-6.3783788385509
30
0
41
1
10
-11.0727954801506
20
-6.37903414313766
30
0
41
1
10
-11.0696602551408
20
-6.37935961689539
30
0
0
SPLINE
5
1C1
100
AcDbEntity
8
SK1
62
256
6
ByLayer
370
18
48
1
60
0
100
AcDbSpline
70
4
71
3
72
115
73
111
40
0
40
0
40
0
40
0
40
0.008583143677562
40
0.008583143677562
40
0.0177534189954851
40
0.0177534189954851
40
0.0269236943134076
40
0.0269236943134076
40
0.0452642449492527
40
0.0452642449492527
40
0.0636047955850979
40
0.0636047955850979
40
0.0819453462209435
40
0.0819453462209435
40
0.100285896856789
40
0.100285896856789
40
0.118626447492634
40
0.118626447492634
40
0.136966998128479
40
0.136966998128479
40
0.155307548764325
40
0.155307548764325
40
0.164477824082247
40
0.164477824082247
40
0.17364809940017
40
0.17364809940017
40
0.210329200671861
40
0.210329200671861
40
0.247010301943551
40
0.247010301943551
40
0.265350852579397
40
0.265350852579397
40
0.274521127897319
40
0.274521127897319
40
0.283691403215242
40
0.283691403215242
40
0.302031953851088
40
0.320372504486934
40
0.320372504486934
40
0.357053605758624
40
0.357053605758624
40
0.37539415639447
40
0.37539415639447
40
0.384564431712393
40
0.384564431712393
40
0.389149569371354
40
0.389149569371354
40
0.393734707030315
40
0.393734707030315
40
0.430415808302005
40
0.430415808302005
40
0.467096909573696
40
0.467096909573696
40
0.485437460209542
40
0.485437460209542
40
0.494607735527464
40
0.494607735527464
40
0.503778010845387
40
0.503778010845387
40
0.540459112117078
40
0.540459112117078
40
0.577140213388768
40
0.577140213388768
40
0.595480764024613
40
0.595480764024613
40
0.604651039342536
40
0.604651039342536
40
0.613821314660459
40
0.613821314660459
40
0.632161865296304
40
0.632161865296304
40
0.65050241593215
40
0.65050241593215
40
0.68718351720384
40
0.68718351720384
40
0.705524067839685
40
0.710109205498647
40
0.710109205498647
40
0.714694343157608
40
0.714694343157608
40
0.72386461847553
40
0.72386461847553
40
0.742205169111375
40
0.760545719747221
40
0.760545719747221
40
0.797226821018911
40
0.797226821018911
40
0.815567371654756
40
0.820152509313717
40
0.820152509313717
40
0.824737646972678
40
0.824737646972678
40
0.833907922290601
40
0.833907922290601
40
0.852248472926446
40
0.852248472926446
40
0.870589023562291
40
0.870589023562291
40
0.907270124833981
40
0.907270124833981
40
0.925610675469826
40
0.925610675469826
40
0.934780950787748
40
0.934780950787748
40
0.943951226105671
40
0.943951226105671
40
0.962291776741516
40
0.980632327377361
40
0.980632327377361
40
1
40
1
40
1
40
1
41
1
10
-9.37424735884969
20
6.55724158547048
30
0
41
1
10
-9.36929699072732
20
6.55717491350271
30
0
41
1
10
-9.3643631275263
20
6.55628379120071
30
0
41
1
10
-9.35420072081752
20
6.55272813052247
30
0
41
1
10
-9.34897598991219
20
6.54994146985459
30
0
41
1
10
-9.33867702267824
20
6.54250308967531
30
0
41
1
10
-9.33360533583431
20
6.53784919741912
30
0
41
1
10
-9.31848678603015
20
6.52113070933964
30
0
41
1
10
-9.30852655106455
20
6.50631241233981
30
0
41
1
10
-9.28816564695865
20
6.46952624985204
30
0
41
1
10
-9.27771469594123
20
6.44756451583149
30
0
41
1
10
-9.2562863337989
20
6.39655275925855
30
0
41
1
10
-9.24537672860288
20
6.36749541043852
30
0
41
1
10
-9.22416302921391
20
6.30212598283131
30
0
41
1
10
-9.21376232855874
20
6.26582501512499
30
0
41
1
10
-9.19306219466426
20
6.18592420553409
30
0
41
1
10
-9.1827373813845
20
6.14232798288953
30
0
41
1
10
-9.16195072150524
20
6.04768864576411
30
0
41
1
10
-9.15156824014602
20
5.99697797578193
30
0
41
1
10
-9.13075467786615
20
5.88889480645915
30
0
41
1
10
-9.12032084220272
20
5.83151499691584
30
0
41
1
10
-9.10464128445508
20
5.74043390357917
30
0
41
1
10
-9.0994121134305
20
5.70923749094695
30
0
41
1
10
-9.08895280913586
20
5.64516508740164
30
0
41
1
10
-9.08371398287602
20
5.61224997863857
30
0
41
1
10
-9.05754267679916
20
5.44396830363968
30
0
41
1
10
-9.03665525748119
20
5.29792965742911
30
0
41
1
10
-8.99512319594382
20
4.98382219232346
30
0
41
1
10
-8.97470694461529
20
4.81571959907845
30
0
41
1
10
-8.94376267497651
20
4.54704066052352
30
0
41
1
10
-8.93339773366463
20
4.45472001706398
30
0
41
1
10
-8.91780560511538
20
4.31202293367906
30
0
41
1
10
-8.91260315042751
20
4.26375376160027
30
0
41
1
10
-8.90220220787245
20
4.16578892764667
30
0
41
1
10
-8.89699279467712
20
4.11603231355454
30
0
41
1
10
-8.88140034433525
20
3.96555196239359
30
0
41
1
10
-8.86063411006728
20
3.76119423891862
30
0
41
1
10
-8.83976991740326
20
3.54958109166978
30
0
41
1
10
-8.80870796981367
20
3.22674620709555
30
0
41
1
10
-8.78869524298466
20
3.00427159398279
30
0
41
1
10
-8.75785176541709
20
2.65984600281024
30
0
41
1
10
-8.74743856757303
20
2.5432473587407
30
0
41
1
10
-8.73172022522414
20
2.36560321797529
30
0
41
1
10
-8.72646865581589
20
2.30592995494826
30
0
41
1
10
-8.71860822774573
20
2.21571870150922
30
0
41
1
10
-8.71598792640654
20
2.18551041957315
30
0
41
1
10
-8.71076292016892
20
2.12504141560166
30
0
41
1
10
-8.70815682180279
20
2.09476488454533
30
0
41
1
10
-8.68474641700806
20
1.82190162157798
30
0
41
1
10
-8.6641509679429
20
1.5767122994925
30
0
41
1
10
-8.62329886152824
20
1.08121498860817
30
0
41
1
10
-8.60334572070121
20
0.83087635597451
30
0
41
1
10
-8.57272886046567
20
0.451589909086408
30
0
41
1
10
-8.56241074720893
20
0.324529727717049
30
0
41
1
10
-8.54677419922368
20
0.132973401673269
30
0
41
1
10
-8.54153801337159
20
0.0689599226432733
30
0
41
1
10
-8.53103570729789
20
-0.0593959560704604
30
0
41
1
10
-8.52578627316746
20
-0.123508213533114
30
0
41
1
10
-8.49959611839409
20
-0.443114665212448
30
0
41
1
10
-8.47871030235899
20
-0.696400766957566
30
0
41
1
10
-8.43803574907173
20
-1.19837398150915
30
0
41
1
10
-8.41857724319908
20
-1.4470805193169
30
0
41
1
10
-8.38810267791899
20
-1.81652265443566
30
0
41
1
10
-8.37775521112712
20
-1.93906748941112
30
0
41
1
10
-8.36213046412445
20
-2.12197471078943
30
0
41
1
10
-8.35691013925833
20
-2.18283827869666
30
0
41
1
10
-8.34651814884447
20
-2.30406488937021
30
0
41
1
10
-8.34135291215475
20
-2.36422737736621
30
0
41
1
10
-8.32587818102334
20
-2.54337828854238
30
0
41
1
10
-8.31557975201548
20
-2.66103102535405
30
0
41
1
10
-8.29488094134064
20
-2.89283777001074
30
0
41
1
10
-8.28448170590838
20
-3.0069918279639
30
0
41
1
10
-8.25338563733698
20
-3.34425897655214
30
0
41
1
10
-8.23304301907663
20
-3.56219834708477
30
0
41
1
10
-8.20233413596173
20
-3.878614865309
30
0
41
1
10
-8.18950069495403
20
-4.00826422906326
30
0
41
1
10
-8.17664659346426
20
-4.13511906132843
30
0
41
1
10
-8.17150655156112
20
-4.18563564489443
30
0
41
1
10
-8.16893562405255
20
-4.21080033292938
30
0
41
1
10
-8.16124259266584
20
-4.2857428751129
30
0
41
1
10
-8.15613517982734
20
-4.3350075290071
30
0
41
1
10
-8.14083162691179
20
-4.48073784050078
30
0
41
1
10
-8.12046440020407
20
-4.66954550769501
30
0
41
1
10
-8.09999203921907
20
-4.84755732401175
30
0
41
1
10
-8.06935619041681
20
-5.10654296041199
30
0
41
1
10
-8.04916100778613
20
-5.26851181767429
30
0
41
1
10
-8.01829135335822
20
-5.49526434272184
30
0
41
1
10
-8.00533414594082
20
-5.58636124167114
30
0
41
1
10
-7.99240288849614
20
-5.6731355123764
30
0
41
1
10
-7.98723976555056
20
-5.70749624826669
30
0
41
1
10
-7.98466254437528
20
-5.72450719946778
30
0
41
1
10
-7.97696288863887
20
-5.77485237962088
30
0
41
1
10
-7.97186266964454
20
-5.80755341694442
30
0
41
1
10
-7.95659370390692
20
-5.90310528891894
30
0
41
1
10
-7.94644743313111
20
-5.96340751882227
30
0
41
1
10
-7.92609317440304
20
-6.07734152307222
30
0
41
1
10
-7.91588610214373
20
-6.13097328641783
30
0
41
1
10
-7.88541294706266
20
-6.28192741470599
30
0
41
1
10
-7.86553378101988
20
-6.3693214076969
30
0
41
1
10
-7.83479454636966
20
-6.48040700667551
30
0
41
1
10
-7.82442131701893
20
-6.51409243981092
30
0
41
1
10
-7.80885487911507
20
-6.55948598468973
30
0
41
1
10
-7.80366381744125
20
-6.57378070536848
30
0
41
1
10
-7.79338330184646
20
-6.60049404558478
30
0
41
1
10
-7.78828286667616
20
-6.61292150885322
30
0
41
1
10
-7.77303140868062
20
-6.64745662424585
30
0
41
1
10
-7.75281421147935
20
-6.68618316076999
30
0
41
1
10
-7.73246472457694
20
-6.71055680162172
30
0
41
1
10
-7.71153284624265
20
-6.72828796309298
30
0
41
1
10
-7.7008112859636
20
-6.73342786362571
30
0
41
1
10
-7.69010014240317
20
-6.73457469673616
30
0
0
SPLINE
5
1C2
100
AcDbEntity
8
SK1
62
256
6
ByLayer
370
18
48
1
60
0
100
AcDbSpline
70
4
71
3
72
26
73
22
40
0
40
0
40
0
40
0
40
0.0010235344041665
40
0.0010235344041665
40
0.0266383155732906
40
0.0266383155732906
40
0.0778678779115387
40
0.0778678779115387
40
0.129097440249787
40
0.129097440249787
40
0.180327002588035
40
0.180327002588035
40
0.282786127264532
40
0.282786127264532
40
0.385245251941022
40
0.385245251941022
40
0.590163501294015
40
0.590163501294015
40
0.795081750647007
40
0.795081750647007
40
1
40
1
40
1
40
1
41
1
10
-6.0008882441048
20
6.9121095897361
30
0
41
1
10
-6.00083277452123
20
6.91211546078964
30
0
41
1
10
-6.00077717334847
20
6.91212125651893
30
0
41
1
10
-5.9993264865073
20
6.91227015533013
30
0
41
1
10
-5.99724887418034
20
6.9124294391822
30
0
41
1
10
-5.98953286788438
20
6.91290376379948
30
0
41
1
10
-5.98256292876204
20
6.91320006002076
30
0
41
1
10
-5.96765132289974
20
6.91348365342878
30
0
41
1
10
-5.95964480631559
20
6.91347711187933
30
0
41
1
10
-5.9432999464187
20
6.91308816161833
30
0
41
1
10
-5.93493617519221
20
6.91270800258715
30
0
41
1
10
-5.90965855135778
20
6.91097373728911
30
0
41
1
10
-5.89255939426195
20
6.90902613598317
30
0
41
1
10
-5.85847225772085
20
6.90348539403891
30
0
41
1
10
-5.84146459925532
20
6.89989430542155
30
0
41
1
10
-5.79094269085175
20
6.88660663511334
30
0
41
1
10
-5.75791609775439
20
6.87440199276003
30
0
41
1
10
-5.69479074299028
20
6.84296508442031
30
0
41
1
10
-5.66464955609885
20
6.82371008561151
30
0
41
1
10
-5.60958915161333
20
6.77790171821889
30
0
41
1
10
-5.58458752486419
20
6.75134504762758
30
0
41
1
10
-5.56377477205766
20
6.72076167662942
30
0
0
SPLINE
5
1C3
100
AcDbEntity
8
SK1
62
256
6
ByLayer
370
18
48
1
60
0
100
AcDbSpline
70
4
71
2
72
6
73
3
40
0
40
0
40
0
40
1
40
1
40
1
41
1
10
-15.500558558414
20
-5.45044743335734
30
0
41
1
10
-14.7764601701183
20
-5.52645645428217
30
0
41
1
10
-14.0523662136953
20
-5.60250805822804
30
0
0
SPLINE
5
1C4
100
AcDbEntity
8
SK1
62
256
6
ByLayer
370
18
48
1
60
0
100
AcDbSpline
70
4
71
1
72
4
73
2
40
0
40
0
40
1
40
1
41
1
10
-15.4165702894362
20
4.7850367846454
30
0
41
1
10
-15.632099597888
20
4.76241935031413
30
0
0
SPLINE
5
1C5
100
AcDbEntity
8
SK1
62
256
6
ByLayer
370
18
48
1
60
0
100
AcDbSpline
70
4
71
2
72
6
73
3
40
0
40
0
40
0
40
1
40
1
40
1
41
1
10
-13.6286902534788
20
-4.95525842309172
30
0
41
1
10
-13.3128518033929
20
-4.98841212815719
30
0
41
1
10
-12.9970138385607
20
-5.02157052996776
30
0
0
SPLINE
5
1C6
100
AcDbEntity
8
SK1
62
256
6
ByLayer
370
18
48
1
60
0
100
AcDbSpline
70
4
71
2
72
6
73
3
40
0
40
0
40
0
40
1
40
1
40
1
41
1
10
-10.2485426901329
20
-5.31042314407907
30
0
41
1
10
-9.93286714275763
20
-5.34358158063452
30
0
41
1
10
-9.61719174939182
20
-5.37674150346237
30
0
0
SPLINE
5
1C7
100
AcDbEntity
8
SK1
62
256
6
ByLayer
370
18
48
1
60
0
100
AcDbSpline
70
4
71
2
72
6
73
3
40
0
40
0
40
0
40
1
40
1
40
1
41
1
10
-6.86805096988797
20
-5.66570892588842
30
0
41
1
10
-6.55250777462803
20
-5.69886546553707
30
0
41
1
10
-6.23696459678598
20
-5.73202215776124
30
0
0
SPLINE
5
1C8
100
AcDbEntity
8
SK1
62
256
6
ByLayer
370
18
48
1
60
0
100
AcDbSpline
70
4
71
2
72
6
73
3
40
0
40
0
40
0
40
1
40
1
40
1
41
1
10
-7.92702151364824
20
5.55439123490996
30
0
41
1
10
-8.24262733142129
20
5.52123284642005
30
0
41
1
10
-8.55823321540765
20
5.48807507498029
30
0
0
SPLINE
5
1C9
100
AcDbEntity
8
SK1
62
256
6
ByLayer
370
18
48
1
60
0
100
AcDbSpline
70
4
71
2
72
6
73
3
40
0
40
0
40
0
40
1
40
1
40
1
41
1
10
-11.3070753603462
20
5.1992095553787
30
0
41
1
10
-11.6228338406246
20
5.16604716322584
30
0
41
1
10
-11.9385926328336
20
5.13288765529589
30
0
0
SPLINE
5
1CA
100
AcDbEntity
8
SK1
62
256
6
ByLayer
370
18
48
1
60
0
100
AcDbSpline
70
4
71
2
72
6
73
3
40
0
40
0
40
0
40
1
40
1
40
1
41
1
10
-14.6870330634932
20
4.84396801061916
30
0
41
1
10
-15.0029710581251
20
4.81081387561071
30
0
41
1
10
-15.3189098394754
20
4.77766714681565
30
0
0
SPLINE
5
1CB
100
AcDbEntity
8
SK1
62
256
6
ByLayer
370
18
48
1
60
0
100
AcDbSpline
70
4
71
2
72
6
73
3
40
0
40
0
40
0
40
1
40
1
40
1
41
1
10
-12.9974739133972
20
-5.02152153801293
30
0
41
1
10
-12.9056993697055
20
-5.03318141145053
30
0
41
1
10
-12.8587839264588
20
-5.08853610607031
30
0
0
SPLINE
5
1CC
100
AcDbEntity
8
SK1
62
256
6
ByLayer
370
18
48
1
60
0
100
AcDbSpline
70
4
71
2
72
6
73
3
40
0
40
0
40
0
40
1
40
1
40
1
41
1
10
-9.61701791716337
20
-5.37676010959339
30
0
41
1
10
-9.52325571440878
20
-5.38888447313272
30
0
41
1
10
-9.47481675913318
20
-5.44627510041755
30
0
0
SPLINE
5
1CD
100
AcDbEntity
8
SK1
62
256
6
ByLayer
370
18
48
1
60
0
100
AcDbSpline
70
4
71
2
72
6
73
3
40
0
40
0
40
0
40
1
40
1
40
1
41
1
10
-6.23688262225772
20
-5.73203075324315
30
0
41
1
10
-6.14138254740709
20
-5.74437450196149
30
0
41
1
10
-6.09130087660432
20
-5.80388908999879
30
0
0
SPLINE
5
1CE
100
AcDbEntity
8
SK1
62
256
6
ByLayer
370
18
48
1
60
0
100
AcDbSpline
70
4
71
2
72
6
73
3
40
0
40
0
40
0
40
1
40
1
40
1
41
1
10
-7.78289546672366
20
5.62517825165113
30
0
41
1
10
-7.83184437133642
20
5.56690699845402
30
0
41
1
10
-7.9266743713253
20
5.55442720934801
30
0
0
SPLINE
5
1CF
100
AcDbEntity
8
SK1
62
256
6
ByLayer
370
18
48
1
60
0
100
AcDbSpline
70
4
71
2
72
6
73
3
40
0
40
0
40
0
40
1
40
1
40
1
41
1
10
-11.166082745661
20
5.26832499634676
30
0
41
1
10
-11.2133188610156
20
5.21174920087722
30
0
41
1
10
-11.3066693698122
20
5.19925065088702
30
0
0
SPLINE
5
1D0
100
AcDbEntity
8
SK1
62
256
6
ByLayer
370
18
48
1
60
0
100
AcDbSpline
70
4
71
2
72
6
73
3
40
0
40
0
40
0
40
1
40
1
40
1
41
1
10
-14.5510448885725
20
4.90953389772653
30
0
41
1
10
-14.5961517345306
20
4.85596511920218
30
0
41
1
10
-14.6872280861431
20
4.84394787973559
30
0
0
SPLINE
5
1D1
100
AcDbEntity
8
SK1
62
256
6
ByLayer
370
18
48
1
60
0
100
AcDbSpline
70
4
71
2
72
6
73
3
40
0
40
0
40
0
40
1
40
1
40
1
41
1
10
-13.7664971467087
20
-4.934528688364
30
0
41
1
10
-13.7410581501916
20
-4.95817261713873
30
0
41
1
10
-13.6293228600352
20
-4.95519013163695
30
0
0
SPLINE
5
1D2
100
AcDbEntity
8
SK1
62
256
6
ByLayer
370
18
48
1
60
0
100
AcDbSpline
70
4
71
2
72
6
73
3
40
0
40
0
40
0
40
1
40
1
40
1
41
1
10
-10.3979143049855
20
-5.29738144706576
30
0
41
1
10
-10.3711337876566
20
-5.31166868110262
30
0
41
1
10
-10.2483831202998
20
-5.31044023206579
30
0
0
SPLINE
5
1D3
100
AcDbEntity
8
SK1
62
256
6
ByLayer
370
18
48
1
60
0
100
AcDbSpline
70
4
71
3
72
11
73
7
40
0
40
0
40
0
40
0
40
0.0164086659550747
40
0.460248472067948
40
0.78583821582172
40
1
40
1
40
1
40
1
41
1
10
-7.04056754084402
20
-5.69620398185083
30
0
41
1
10
-7.04040464590503
20
-5.6963536589451
30
0
41
1
10
-7.03561102460409
20
-5.7002519698016
30
0
41
1
10
-7.01672650603774
20
-5.69246605042932
30
0
41
1
10
-6.95990443277279
20
-5.66715822097908
30
0
41
1
10
-6.89689799598361
20
-5.66551635148656
30
0
41
1
10
-6.86801653724143
20
-5.66571255341876
30
0
0
SPLINE
5
1D4
100
AcDbEntity
8
SK1
62
256
6
ByLayer
370
18
48
1
60
0
100
AcDbSpline
70
4
71
3
72
10
73
6
40
0
40
0
40
0
40
0
40
0.29685027398372
40
0.648167316577698
40
1
40
1
40
1
40
1
41
1
10
-8.55834889429207
20
5.48806257624594
30
0
41
1
10
-8.59266702722925
20
5.48793032186555
30
0
41
1
10
-8.65632349496801
20
5.49052713218023
30
0
41
1
10
-8.71672367929639
20
5.51959347215438
30
0
41
1
10
-8.72996740986952
20
5.52585891108399
30
0
41
1
10
-8.7328115466442
20
5.52366427123744
30
0
0
SPLINE
5
1D5
100
AcDbEntity
8
SK1
62
256
6
ByLayer
370
18
48
1
60
0
100
AcDbSpline
70
4
71
3
72
10
73
6
40
0
40
0
40
0
40
0
40
0.307157135060548
40
0.670835167182665
40
1
40
1
40
1
40
1
41
1
10
-11.9385412314275
20
5.13289302362776
30
0
41
1
10
-11.9722378390968
20
5.13277454498115
30
0
41
1
10
-12.0345986678909
20
5.13513213029097
30
0
41
1
10
-12.090673018726
20
5.16119813341837
30
0
41
1
10
-12.1037701210953
20
5.16682945575334
30
0
41
1
10
-12.1062024134057
20
5.16436755233775
30
0
0
SPLINE
5
1D6
100
AcDbEntity
8
SK1
62
256
6
ByLayer
370
18
48
1
60
0
100
AcDbSpline
70
4
71
2
72
6
73
3
40
0
40
0
40
0
40
1
40
1
40
1
41
1
10
-15.3190204855571
20
4.77765578095514
30
0
41
1
10
-15.3718888765095
20
4.77493437516546
30
0
41
1
10
-15.3940018243314
20
4.78082039396844
30
0
0
SPLINE
5
1D7
100
AcDbEntity
8
SK1
62
256
6
ByLayer
370
18
48
1
60
0
100
AcDbSpline
70
4
71
2
72
6
73
3
40
0
40
0
40
0
40
1
40
1
40
1
41
1
10
-13.9626975312636
20
-5.4709018622801
30
0
41
1
10
-13.8685446496394
20
-5.19274754862488
30
0
41
1
10
-13.7735925061492
20
-4.91518365423801
30
0
0
SPLINE
5
1D8
100
AcDbEntity
8
SK1
62
256
6
ByLayer
370
18
48
1
60
0
100
AcDbSpline
70
4
71
2
72
6
73
3
40
0
40
0
40
0
40
1
40
1
40
1
41
1
10
-10.6331421888415
20
-5.96255341634719
30
0
41
1
10
-10.5188536931604
20
-5.62341209867122
30
0
41
1
10
-10.4037614481366
20
-5.28488756128476
30
0
0
SPLINE
5
1D9
100
AcDbEntity
8
SK1
62
256
6
ByLayer
370
18
48
1
60
0
100
AcDbSpline
70
4
71
2
72
6
73
3
40
0
40
0
40
0
40
1
40
1
40
1
41
1
10
-7.26041787791178
20
-6.32784418954259
30
0
41
1
10
-7.14696557184305
20
-5.99000182556651
30
0
41
1
10
-7.03283593162004
20
-5.65268072927509
30
0
0
SPLINE
5
1DA
100
AcDbEntity
8
SK1
62
256
6
ByLayer
370
18
48
1
60
0
100
AcDbSpline
70
4
71
2
72
6
73
3
40
0
40
0
40
0
40
1
40
1
40
1
41
1
10
-8.71835054508983
20
5.46873615142349
30
0
41
1
10
-8.83291853133073
20
5.80657152798449
30
0
41
1
10
-8.94674723168029
20
6.14499579893416
30
0
0
SPLINE
5
1DB
100
AcDbEntity
8
SK1
62
256
6
ByLayer
370
18
48
1
60
0
100
AcDbSpline
70
4
71
2
72
6
73
3
40
0
40
0
40
0
40
1
40
1
40
1
41
1
10
-12.0896972155255
20
5.10284509053923
30
0
41
1
10
-12.2049972832254
20
5.44109233294668
30
0
41
1
10
-12.3194750405324
20
5.78015005237458
30
0
0
SPLINE
5
1DC
100
AcDbEntity
8
SK1
62
256
6
ByLayer
370
18
48
1
60
0
100
AcDbSpline
70
4
71
3
72
11
73
7
40
0
40
0
40
0
40
0
40
0.13361775012642
40
0.346248493700029
40
0.636211685925526
40
1
40
1
40
1
40
1
41
1
10
-11.0716916878681
20
-6.37943874939984
30
0
41
1
10
-11.0369520145463
20
-6.3791047165794
30
0
41
1
10
-10.953705913317
20
-6.37063169221074
30
0
41
1
10
-10.8434086426388
20
-6.31265774144441
30
0
41
1
10
-10.7235106861831
20
-6.18201186301948
30
0
41
1
10
-10.6599300395467
20
-6.04888714784423
30
0
41
1
10
-10.633148050937
20
-5.96257080990094
30
0
0
SPLINE
5
1DD
100
AcDbEntity
8
SK1
62
256
6
ByLayer
370
18
48
1
60
0
100
AcDbSpline
70
4
71
3
72
11
73
7
40
0
40
0
40
0
40
0
40
0.13156418591474
40
0.343629868695662
40
0.6344392685281
40
1
40
1
40
1
40
1
41
1
10
-7.69153520347291
20
-6.73466222371823
30
0
41
1
10
-7.65767076265109
20
-6.73434612085589
30
0
41
1
10
-7.57587202335324
20
-6.72624263029869
30
0
41
1
10
-7.46764111171589
20
-6.67020416187376
30
0
41
1
10
-7.34894613924428
20
-6.54260886480949
30
0
41
1
10
-7.28655175922981
20
-6.41243982671315
30
0
41
1
10
-7.26044047855072
20
-6.3279115042946
30
0
0
SPLINE
5
1DE
100
AcDbEntity
8
SK1
62
256
6
ByLayer
370
18
48
1
60
0
100
AcDbSpline
70
4
71
3
72
11
73
7
40
0
40
0
40
0
40
0
40
0.300179404011592
40
0.567813551455015
40
0.801778544749101
40
1
40
1
40
1
40
1
41
1
10
-8.9469653157895
20
6.14564404318998
30
0
41
1
10
-8.96588113955698
20
6.20902491870717
30
0
41
1
10
-9.01438375873298
20
6.31888040846931
30
0
41
1
10
-9.10796401480886
20
6.45189429247353
30
0
41
1
10
-9.23038332687858
20
6.53964688002759
30
0
41
1
10
-9.33067072979105
20
6.55591048222118
30
0
41
1
10
-9.38163787137938
20
6.55707887819489
30
0
0
SPLINE
5
1DF
100
AcDbEntity
8
SK1
62
256
6
ByLayer
370
18
48
1
60
0
100
AcDbSpline
70
4
71
3
72
11
73
7
40
0
40
0
40
0
40
0
40
0.363917045736813
40
0.654558973235879
40
0.867425113915343
40
1
40
1
40
1
40
1
41
1
10
-12.3192401906829
20
5.77945492052282
30
0
41
1
10
-12.3468271231029
20
5.8676728719656
30
0
41
1
10
-12.4117471509768
20
6.00347200427416
30
0
41
1
10
-12.5337268194225
20
6.13551191563855
30
0
41
1
10
-12.6444118247388
20
6.19319756520383
30
0
41
1
10
-12.7273519990874
20
6.20156738999376
30
0
41
1
10
-12.761708059306
20
6.20186845092647
30
0
0
SPLINE
5
1E0
100
AcDbEntity
8
SK1
62
256
6
ByLayer
370
18
48
1
60
0
100
AcDbSpline
70
4
71
2
72
6
73
3
40
0
40
0
40
0
40
1
40
1
40
1
41
1
10
-12.8536481668802
20
-5.09462386634402
30
0
41
1
10
-12.4138068963827
20
-5.63337625891978
30
0
41
1
10
-11.9746386361771
20
-6.17250864723775
30
0
0
SPLINE
5
1E1
100
AcDbEntity
8
SK1
62
256
6
ByLayer
370
18
48
1
60
0
100
AcDbSpline
70
4
71
2
72
6
73
3
40
0
40
0
40
0
40
1
40
1
40
1
41
1
10
-9.47468944934238
20
-5.44643206972296
30
0
41
1
10
-9.03564283549099
20
-5.98494795716238
30
0
41
1
10
-8.5971467109492
20
-6.52388902663313
30
0
0
SPLINE
5
1E2
100
AcDbEntity
8
SK1
62
256
6
ByLayer
370
18
48
1
60
0
100
AcDbSpline
70
4
71
2
72
6
73
3
40
0
40
0
40
0
40
1
40
1
40
1
41
1
10
-6.08837896067064
20
-5.80741165790189
30
0
41
1
10
-5.65009798745297
20
-6.34569649104597
30
0
41
1
10
-5.21225382619704
20
-6.88420638733598
30
0
0
SPLINE
5
1E3
100
AcDbEntity
8
SK1
62
256
6
ByLayer
370
18
48
1
60
0
100
AcDbSpline
70
4
71
2
72
6
73
3
40
0
40
0
40
0
40
1
40
1
40
1
41
1
10
-3.53228396114247
20
7.04833470654751
30
0
41
1
10
-3.96952171918949
20
6.51031225800665
30
0
41
1
10
-4.407087706906
20
5.97286345501371
30
0
0
SPLINE
5
1E4
100
AcDbEntity
8
SK1
62
256
6
ByLayer
370
18
48
1
60
0
100
AcDbSpline
70
4
71
2
72
6
73
3
40
0
40
0
40
0
40
1
40
1
40
1
41
1
10
-6.90240010581618
20
6.70670956929519
30
0
41
1
10
-7.34022041578322
20
6.16842592387403
30
0
41
1
10
-7.77845844236606
20
5.63045981927752
30
0
0
SPLINE
5
1E5
100
AcDbEntity
8
SK1
62
256
6
ByLayer
370
18
48
1
60
0
100
AcDbSpline
70
4
71
2
72
6
73
3
40
0
40
0
40
0
40
1
40
1
40
1
41
1
10
-10.2846013732023
20
6.34975506528178
30
0
41
1
10
-10.7231170165645
20
5.81113903334222
30
0
41
1
10
-11.1621701284
20
5.27295866807049
30
0
0
SPLINE
5
1E6
100
AcDbEntity
8
SK1
62
256
6
ByLayer
370
18
48
1
60
0
100
AcDbSpline
70
4
71
2
72
6
73
3
40
0
40
0
40
0
40
1
40
1
40
1
41
1
10
-13.6699978201129
20
5.98912788006734
30
0
41
1
10
-14.1097846466697
20
5.44943394914861
30
0
41
1
10
-14.5503852071341
20
4.91033995213326
30
0
0
SPLINE
5
1E7
100
AcDbEntity
8
SK1
62
256
6
ByLayer
370
18
48
1
60
0
100
AcDbSpline
70
4
71
2
72
6
73
3
40
0
40
0
40
0
40
1
40
1
40
1
41
1
10
-11.9802141237232
20
-6.16589733082071
30
0
41
1
10
-11.8832058202852
20
-6.28317723460705
30
0
41
1
10
-11.7497305378483
20
-6.30794083190105
30
0
0
SPLINE
5
1E8
100
AcDbEntity
8
SK1
62
256
6
ByLayer
370
18
48
1
60
0
100
AcDbSpline
70
4
71
2
72
6
73
3
40
0
40
0
40
0
40
1
40
1
40
1
41
1
10
-8.59740468291233
20
-6.5235710028781
30
0
41
1
10
-8.50205572428567
20
-6.63876951187103
30
0
41
1
10
-8.36977030350565
20
-6.66323783427188
30
0
0
SPLINE
5
1E9
100
AcDbEntity
8
SK1
62
256
6
ByLayer
370
18
48
1
60
0
100
AcDbSpline
70
4
71
2
72
6
73
3
40
0
40
0
40
0
40
1
40
1
40
1
41
1
10
-5.21493608313148
20
-6.881003791436
30
0
41
1
10
-5.12115522769886
20
-6.99416726076748
30
0
41
1
10
-4.99023744313058
20
-7.0184757143048
30
0
0
SPLINE
5
1EA
100
AcDbEntity
8
SK1
62
256
6
ByLayer
370
18
48
1
60
0
100
AcDbSpline
70
4
71
1
72
4
73
2
40
0
40
0
40
1
40
1
41
1
10
-3.40620921635789
20
7.15436344041316
30
0
41
1
10
-3.52564725794201
20
7.05725879894899
30
0
0
SPLINE
5
1EB
100
AcDbEntity
8
SK1
62
256
6
ByLayer
370
18
48
1
60
0
100
AcDbSpline
70
4
71
2
72
6
73
3
40
0
40
0
40
0
40
1
40
1
40
1
41
1
10
-6.67969040522544
20
6.84093576828843
30
0
41
1
10
-6.81141943441219
20
6.81657761374902
30
0
41
1
10
-6.90575888177648
20
6.70273255553968
30
0
0
SPLINE
5
1EC
100
AcDbEntity
8
SK1
62
256
6
ByLayer
370
18
48
1
60
0
100
AcDbSpline
70
4
71
2
72
6
73
3
40
0
40
0
40
0
40
1
40
1
40
1
41
1
10
-10.0592919545924
20
6.48569768291091
30
0
41
1
10
-10.192107056397
20
6.46117818781781
30
0
41
1
10
-10.287583483129
20
6.34623160167419
30
0
0
SPLINE
5
1ED
100
AcDbEntity
8
SK1
62
256
6
ByLayer
370
18
48
1
60
0
100
AcDbSpline
70
4
71
2
72
6
73
3
40
0
40
0
40
0
40
1
40
1
40
1
41
1
10
-13.439201280612
20
6.13039064827248
30
0
41
1
10
-13.5736482936597
20
6.10546632258078
30
0
41
1
10
-13.6710114535849
20
5.98788857877236
30
0
0
LINE
5
79
100
AcDbEntity
8
1
62
256
6
ByLayer
370
13
48
1
60
0
100
AcDbLine
10
2.25
20
5.396527
30
0
11
2.25
21
-5.396527
31
0
39
0
210
0
220
0
230
1
0
LINE
5
7A
100
AcDbEntity
8
1
62
256
6
ByLayer
370
13
48
1
60
0
100
AcDbLine
10
7.75
20
-5.396527
30
0
11
7.75
21
5.396527
31
0
39
0
210
0
220
0
230
1
0
LINE
5
7B
100
AcDbEntity
8
1
62
256
6
ByLayer
370
13
48
1
60
0
100
AcDbLine
10
27.867593
20
-4.661404
30
0
11
27.867593
21
-5.301255
31
0
39
0
210
0
220
0
230
1
0
LINE
5
7C
100
AcDbEntity
8
1
62
256
6
ByLayer
370
13
48
1
60
0
100
AcDbLine
10
19.862631
20
-8.770702
30
0
11
19.862631
21
5.649117
31
0
39
0
210
0
220
0
230
1
0
LINE
5
7D
100
AcDbEntity
8
1
62
256
6
ByLayer
370
13
48
1
60
0
100
AcDbLine
10
10.688298
20
-9.165
30
0
11
10.688298
21
9.165
31
0
39
0
210
0
220
0
230
1
0
LINE
5
7E
100
AcDbEntity
8
1
62
256
6
ByLayer
370
13
48
1
60
0
100
AcDbLine
10
27.867593
20
-4.661404
30
0
11
27.97875
21
-4.519421
31
0
39
0
210
0
220
0
230
1
0
LINE
5
7F
100
AcDbEntity
8
1
62
256
6
ByLayer
370
13
48
1
60
0
100
AcDbLine
10
20.136079
20
5.626722
30
0
11
20.136079
21
-8.811467
31
0
39
0
210
0
220
0
230
1
0
LINE
5
80
100
AcDbEntity
8
1
62
256
6
ByLayer
370
13
48
1
60
0
100
AcDbLine
10
22.877251
20
-8.096286
30
0
11
22.877251
21
5.610081
31
0
39
0
210
0
220
0
230
1
0
LINE
5
81
100
AcDbEntity
8
1
62
256
6
ByLayer
370
13
48
1
60
0
100
AcDbLine
10
26.332753
20
-6.778031
30
0
11
26.332753
21
-8.588815
31
0
39
0
210
0
220
0
230
1
0
LINE
5
82
100
AcDbEntity
8
1
62
256
6
ByLayer
370
13
48
1
60
0
100
AcDbLine
10
28.757276
20
-8.684786
30
0
11
28.757276
21
5.51121
31
0
39
0
210
0
220
0
230
1
0
LINE
5
83
100
AcDbEntity
8
1
62
256
6
ByLayer
370
13
48
1
60
0
100
AcDbLine
10
23.149171
20
5.610536
30
0
11
23.149171
21
-8.232697
31
0
39
0
210
0
220
0
230
1
0
LINE
5
84
100
AcDbEntity
8
1
62
256
6
ByLayer
370
13
48
1
60
0
100
AcDbLine
10
26.29058
20
-8.586455
30
0
11
26.29058
21
-6.782393
31
0
39
0
210
0
220
0
230
1
0
LINE
5
85
100
AcDbEntity
8
1
62
256
6
ByLayer
370
13
48
1
60
0
100
AcDbLine
10
26.29058
20
-2.527342
30
0
11
26.29058
21
5.575788
31
0
39
0
210
0
220
0
230
1
0
LINE
5
86
100
AcDbEntity
8
1
62
256
6
ByLayer
370
13
48
1
60
0
100
AcDbLine
10
26.332753
20
5.574967
30
0
11
26.332753
21
-2.524513
31
0
39
0
210
0
220
0
230
1
0
LINE
5
87
100
AcDbEntity
8
1
62
256
6
ByLayer
370
18
48
1
60
0
100
AcDbLine
10
10.3
20
9.35
30
0
11
10.3
21
-9.35
31
0
39
0
210
0
220
0
230
1
0
LINE
5
88
100
AcDbEntity
8
1
62
256
6
ByLayer
370
18
48
1
60
0
100
AcDbLine
10
7.95
20
-5.087485
30
0
11
7.95
21
5.087485
31
0
39
0
210
0
220
0
230
1
0
LINE
5
89
100
AcDbEntity
8
1
62
256
6
ByLayer
370
18
48
1
60
0
100
AcDbLine
10
7.75
20
5.396527
30
0
11
2.25
21
5.396527
31
0
39
0
210
0
220
0
230
1
0
LINE
5
8A
100
AcDbEntity
8
1
62
256
6
ByLayer
370
18
48
1
60
0
100
AcDbLine
10
2.25
20
-5.396527
30
0
11
7.75
21
-5.396527
31
0
39
0
210
0
220
0
230
1
0
LINE
5
8B
100
AcDbEntity
8
1
62
256
6
ByLayer
370
18
48
1
60
0
100
AcDbLine
10
2.05
20
5.087485
30
0
11
2.05
21
-5.087485
31
0
39
0
210
0
220
0
230
1
0
LINE
5
8C
100
AcDbEntity
8
1
62
256
6
ByLayer
370
18
48
1
60
0
100
AcDbLine
10
10
20
9.65
30
0
11
10
21
-9.65
31
0
39
0
210
0
220
0
230
1
0
LINE
5
8D
100
AcDbEntity
8
1
62
256
6
ByLayer
370
18
48
1
60
0
100
AcDbLine
10
0
20
9.65
30
0
11
0
21
-9.65
31
0
39
0
210
0
220
0
230
1
0
LINE
5
8E
100
AcDbEntity
8
1
62
256
6
ByLayer
370
18
48
1
60
0
100
AcDbLine
10
24.348722
20
7.00371
30
0
11
24.331506
21
7.012497
31
0
39
0
210
0
220
0
230
1
0
LINE
5
8F
100
AcDbEntity
8
1
62
256
6
ByLayer
370
18
48
1
60
0
100
AcDbLine
10
24.844205
20
7.325709
30
0
11
24.843888
21
7.30621
31
0
39
0
210
0
220
0
230
1
0
LINE
5
90
100
AcDbEntity
8
1
62
256
6
ByLayer
370
13
48
1
60
0
100
AcDbLine
10
24.112067
20
7.305994
30
0
11
24.348722
21
7.00371
31
0
39
0
210
0
220
0
230
1
0
LINE
5
91
100
AcDbEntity
8
1
62
256
6
ByLayer
370
13
48
1
60
0
100
AcDbLine
10
24.607233
20
7.608494
30
0
11
24.843888
21
7.30621
31
0
39
0
210
0
220
0
230
1
0
LINE
5
92
100
AcDbEntity
8
1
62
256
6
ByLayer
370
18
48
1
60
0
100
AcDbLine
10
24.092924
20
7.317244
30
0
11
24.331506
21
7.012497
31
0
39
0
210
0
220
0
230
1
0
LINE
5
93
100
AcDbEntity
8
1
62
256
6
ByLayer
370
18
48
1
60
0
100
AcDbLine
10
24.605623
20
7.630455
30
0
11
24.844205
21
7.325709
31
0
39
0
210
0
220
0
230
1
0
LINE
5
94
100
AcDbEntity
8
1
62
256
6
ByLayer
370
18
48
1
60
0
100
AcDbLine
10
24.054444
20
5.922083
30
0
11
24.037546
21
5.911397
31
0
39
0
210
0
220
0
230
1
0
LINE
5
95
100
AcDbEntity
8
1
62
256
6
ByLayer
370
13
48
1
60
0
100
AcDbLine
10
23.81779
20
6.224368
30
0
11
24.054444
21
5.922083
31
0
39
0
210
0
220
0
230
1
0
LINE
5
96
100
AcDbEntity
8
1
62
256
6
ByLayer
370
13
48
1
60
0
100
AcDbLine
10
25.690954
20
7.368697
30
0
11
25.927609
21
7.066413
31
0
39
0
210
0
220
0
230
1
0
LINE
5
97
100
AcDbEntity
8
1
62
256
6
ByLayer
370
18
48
1
60
0
100
AcDbLine
10
25.944825
20
7.076568
30
0
11
25.927609
21
7.066413
31
0
39
0
210
0
220
0
230
1
0
LINE
5
98
100
AcDbEntity
8
1
62
256
6
ByLayer
370
18
48
1
60
0
100
AcDbLine
10
23.798963
20
6.216144
30
0
11
24.037546
21
5.911397
31
0
39
0
210
0
220
0
230
1
0
LINE
5
99
100
AcDbEntity
8
1
62
256
6
ByLayer
370
18
48
1
60
0
100
AcDbLine
10
25.706242
20
7.381314
30
0
11
25.944825
21
7.076568
31
0
39
0
210
0
220
0
230
1
0
LINE
5
9A
100
AcDbEntity
8
1
62
256
6
ByLayer
370
13
48
1
60
0
100
AcDbLine
10
25.985232
20
6.310444
30
0
11
26.056103
21
6.21992
31
0
39
0
210
0
220
0
230
1
0
LINE
5
9B
100
AcDbEntity
8
1
62
256
6
ByLayer
370
18
48
1
60
0
100
AcDbLine
10
26.000203
20
6.303563
30
0
11
26.056311
21
6.231895
31
0
39
0
210
0
220
0
230
1
0
LINE
5
9C
100
AcDbEntity
8
1
62
256
6
ByLayer
370
18
48
1
60
0
100
AcDbLine
10
23.253773
20
-8.405446
30
0
11
26.101012
21
-8.666146
31
0
39
0
210
0
220
0
230
1
0
LINE
5
9D
100
AcDbEntity
8
SK1
62
256
6
ByLayer
370
18
48
1
60
0
100
AcDbLine
10
-19.5
20
4.4
30
0
11
-19.5
21
-4.4
31
0
39
0
210
0
220
0
230
1
0
LINE
5
9F
100
AcDbEntity
8
SK1
62
256
6
ByLayer
370
18
48
1
60
0
100
AcDbLine
10
-19.3
20
4.6
30
0
11
-19.3
21
-4.6
31
0
39
0
210
0
220
0
230
1
0
LINE
5
A0
100
AcDbEntity
8
SK1
62
256
6
ByLayer
370
13
48
1
60
0
100
AcDbLine
10
-16
20
4.6
30
0
11
-16
21
-4.6
31
0
39
0
210
0
220
0
230
1
0
LINE
5
A1
100
AcDbEntity
8
SK1
62
256
6
ByLayer
370
18
48
1
60
0
100
AcDbLine
10
-15.416139
20
4.785082
30
0
11
-15.412073
21
4.785215
31
0
39
0
210
0
220
0
230
1
0
LINE
5
A2
100
AcDbEntity
8
SK1
62
256
6
ByLayer
370
18
48
1
60
0
100
AcDbLine
10
-7.778281
20
5.630663
30
0
11
-7.781867
21
5.626436
31
0
39
0
210
0
220
0
230
1
0
LINE
5
A3
100
AcDbEntity
8
SK1
62
256
6
ByLayer
370
18
48
1
60
0
100
AcDbLine
10
-3.4
20
-7.234509
30
0
11
-3.4
21
7.234509
31
0
39
0
210
0
220
0
230
1
0
LINE
5
A4
100
AcDbEntity
8
SK1
62
256
6
ByLayer
370
13
48
1
60
0
100
AcDbLine
10
-0.384645
20
7.350348
30
0
11
-0.384645
21
-7.350348
31
0
39
0
210
0
220
0
230
1
0
LINE
5
A5
100
AcDbEntity
8
1
62
256
6
ByLayer
370
18
48
1
60
0
100
AcDbLine
10
10.688298
20
-9.165
30
0
11
11.290728
21
-9.165
31
0
39
0
210
0
220
0
230
1
0
LINE
5
A6
100
AcDbEntity
8
1
62
256
6
ByLayer
370
18
48
1
60
0
100
AcDbLine
10
11.290728
20
9.165
30
0
11
10.688298
21
9.165
31
0
39
0
210
0
220
0
230
1
0
LINE
5
A7
100
AcDbEntity
8
1
62
256
6
ByLayer
370
18
48
1
60
0
100
AcDbLine
10
29.284501
20
-8.207463
30
0
11
29.284501
21
5.33436
31
0
39
0
210
0
220
0
230
1
0
LINE
5
A8
100
AcDbEntity
8
1
62
256
6
ByLayer
370
18
48
1
60
0
100
AcDbLine
10
10.3
20
9.35
30
0
11
10
21
9.65
31
0
39
0
210
0
220
0
230
1
0
LINE
5
A9
100
AcDbEntity
8
1
62
256
6
ByLayer
370
18
48
1
60
0
100
AcDbLine
10
10
20
-9.65
30
0
11
10.3
21
-9.35
31
0
39
0
210
0
220
0
230
1
0
LINE
5
AA
100
AcDbEntity
8
1
62
256
6
ByLayer
370
18
48
1
60
0
100
AcDbLine
10
0
20
-9.65
30
0
11
10
21
-9.65
31
0
39
0
210
0
220
0
230
1
0
LINE
5
AB
100
AcDbEntity
8
1
62
256
6
ByLayer
370
18
48
1
60
0
100
AcDbLine
10
10
20
9.65
30
0
11
0
21
9.65
31
0
39
0
210
0
220
0
230
1
0
LINE
5
AC
100
AcDbEntity
8
1
62
256
6
ByLayer
370
18
48
1
60
0
100
AcDbLine
10
24.092735
20
6.453645
30
0
11
23.860712
21
6.750013
31
0
39
0
210
0
220
0
230
1
0
LINE
5
AD
100
AcDbEntity
8
1
62
256
6
ByLayer
370
18
48
1
60
0
100
AcDbLine
10
25.24807
20
7.519223
30
0
11
25.475917
21
7.228189
31
0
39
0
210
0
220
0
230
1
0
LINE
5
AE
100
AcDbEntity
8
1
62
256
6
ByLayer
370
18
48
1
60
0
100
AcDbLine
10
25.951573
20
6.338636
30
0
11
26.055849
21
6.205442
31
0
39
0
210
0
220
0
230
1
0
LINE
5
AF
100
AcDbEntity
8
1
62
256
6
ByLayer
370
18
48
1
60
0
100
AcDbLine
10
26.856085
20
7.057415
30
0
11
26.708642
21
7.39299
31
0
39
0
210
0
220
0
230
1
0
LINE
5
B0
100
AcDbEntity
8
SK1
62
256
6
ByLayer
370
18
48
1
60
0
100
AcDbLine
10
-19.3
20
-4.6
30
0
11
-16
21
-4.6
31
0
39
0
210
0
220
0
230
1
0
LINE
5
B1
100
AcDbEntity
8
SK1
62
256
6
ByLayer
370
18
48
1
60
0
100
AcDbLine
10
-16
20
4.6
30
0
11
-19.3
21
4.6
31
0
39
0
210
0
220
0
230
1
0
LINE
5
B2
100
AcDbEntity
8
SK1
62
256
6
ByLayer
370
18
48
1
60
0
100
AcDbLine
10
-19.5
20
-4.4
30
0
11
-19.3
21
-4.6
31
0
39
0
210
0
220
0
230
1
0
LINE
5
B3
100
AcDbEntity
8
SK1
62
256
6
ByLayer
370
18
48
1
60
0
100
AcDbLine
10
-19.3
20
4.6
30
0
11
-19.5
21
4.4
31
0
39
0
210
0
220
0
230
1
0
LINE
5
B4
100
AcDbEntity
8
SK1
62
256
6
ByLayer
370
18
48
1
60
0
100
AcDbLine
10
-11.748661
20
-6.307994
30
0
11
-11.070116
21
-6.379312
31
0
39
0
210
0
220
0
230
1
0
LINE
5
B5
100
AcDbEntity
8
SK1
62
256
6
ByLayer
370
18
48
1
60
0
100
AcDbLine
10
-8.371897
20
-6.662907
30
0
11
-7.692217
21
-6.734344
31
0
39
0
210
0
220
0
230
1
0
LINE
5
B6
100
AcDbEntity
8
SK1
62
256
6
ByLayer
370
18
48
1
60
0
100
AcDbLine
10
-4.991721
20
-7.018177
30
0
11
-3.4
21
-7.185474
31
0
39
0
210
0
220
0
230
1
0
LINE
5
B7
100
AcDbEntity
8
SK1
62
256
6
ByLayer
370
18
48
1
60
0
100
AcDbLine
10
-5.999597
20
6.912245
30
0
11
-6.682259
21
6.840495
31
0
39
0
210
0
220
0
230
1
0
LINE
5
B8
100
AcDbEntity
8
SK1
62
256
6
ByLayer
370
18
48
1
60
0
100
AcDbLine
10
-9.381697
20
6.556772
30
0
11
-10.061584
21
6.485313
31
0
39
0
210
0
220
0
230
1
0
LINE
5
B9
100
AcDbEntity
8
SK1
62
256
6
ByLayer
370
18
48
1
60
0
100
AcDbLine
10
-12.761451
20
6.201546
30
0
11
-13.438968
21
6.130336
31
0
39
0
210
0
220
0
230
1
0
LINE
5
BA
100
AcDbEntity
8
SK1
62
256
6
ByLayer
370
18
48
1
60
0
100
AcDbLine
10
-3.4
20
-7.234509
30
0
11
-0.384645
21
-7.350348
31
0
39
0
210
0
220
0
230
1
0
LINE
5
BB
100
AcDbEntity
8
SK1
62
256
6
ByLayer
370
18
48
1
60
0
100
AcDbLine
10
-0.384645
20
7.350348
30
0
11
-3.4
21
7.234509
31
0
39
0
210
0
220
0
230
1
0
LINE
5
BC
100
AcDbEntity
8
4
62
256
6
ByLayer
370
18
48
0.05
60
0
100
AcDbLine
10
0
20
0
30
0
11
35
21
0
31
0
39
0
210
0
220
0
230
1
0
LINE
5
BE
100
AcDbEntity
8
81
62
256
6
ByLayer
370
18
48
1
60
0
100
AcDbLine
10
30
20
10
30
0
11
35
21
10
31
0
39
0
210
0
220
0
230
1
0
LINE
5
BF
100
AcDbEntity
8
SK4
62
256
6
ByLayer
370
18
48
0.05
60
0
100
AcDbLine
10
-24.5
20
0
30
0
11
35
21
0
31
0
39
0
210
0
220
0
230
1
0
LINE
5
C1
100
AcDbEntity
8
80
62
256
6
ByLayer
370
18
48
1
60
0
100
AcDbLine
10
0
20
0
30
0
11
-5
21
0
31
0
39
0
210
0
220
0
230
1
0
LINE
5
C2
100
AcDbEntity
8
2
62
256
6
ByLayer
370
18
48
1
60
0
100
AcDbLine
10
30
20
42.25
30
0
11
0
21
42.25
31
0
39
0
210
0
220
0
230
1
0
LINE
5
C4
100
AcDbEntity
8
2
62
256
6
ByLayer
370
18
48
1
60
0
100
AcDbLine
10
0
20
11.2375
30
0
11
0
21
44.25
31
0
39
0
210
0
220
0
230
1
0
LINE
5
C5
100
AcDbEntity
8
2
62
256
6
ByLayer
370
18
48
1
60
0
100
AcDbLine
10
30
20
11.5875
30
0
11
30
21
44.25
31
0
39
0
210
0
220
0
230
1
0
LINE
5
C6
100
AcDbEntity
8
1
62
256
6
ByLayer
370
18
48
1
60
1
100
AcDbLine
10
0
20
42.25
30
0
11
3.499998
21
42.710784
31
0
39
0
210
0
220
0
230
1
0
LINE
5
C7
100
AcDbEntity
8
1
62
256
6
ByLayer
370
18
48
1
60
1
100
AcDbLine
10
3.499998
20
42.710784
30
0
11
3.500002
21
41.789216
31
0
39
0
210
0
220
0
230
1
0
LINE
5
C8
100
AcDbEntity
8
1
62
256
6
ByLayer
370
18
48
1
60
1
100
AcDbLine
10
3.500002
20
41.789216
30
0
11
0
21
42.25
31
0
39
0
210
0
220
0
230
1
0
LINE
5
C9
100
AcDbEntity
8
1
62
256
6
ByLayer
370
18
48
1
60
1
100
AcDbLine
10
30
20
42.25
30
0
11
26.500002
21
41.789216
31
0
39
0
210
0
220
0
230
1
0
LINE
5
CA
100
AcDbEntity
8
1
62
256
6
ByLayer
370
18
48
1
60
1
100
AcDbLine
10
26.500002
20
41.789216
30
0
11
26.499998
21
42.710784
31
0
39
0
210
0
220
0
230
1
0
LINE
5
CB
100
AcDbEntity
8
1
62
256
6
ByLayer
370
18
48
1
60
1
100
AcDbLine
10
26.499998
20
42.710784
30
0
11
30
21
42.25
31
0
39
0
210
0
220
0
230
1
0
LINE
5
CC
100
AcDbEntity
8
2
62
256
6
ByLayer
370
13
48
1
60
0
100
AcDbLine
10
39.648916
20
10
30
0
11
39.648916
21
-10
31
0
39
0
210
0
220
0
230
1
0
LINE
5
CD
100
AcDbEntity
8
2
62
256
6
ByLayer
370
13
48
1
60
0
100
AcDbLine
10
31.5875
20
-10
30
0
11
41.648916
21
-10
31
0
39
0
210
0
220
0
230
1
0
LINE
5
CE
100
AcDbEntity
8
2
62
256
6
ByLayer
370
13
48
1
60
0
100
AcDbLine
10
31.5875
20
10
30
0
11
41.648916
21
10
31
0
39
0
210
0
220
0
230
1
0
LINE
5
CF
100
AcDbEntity
8
1
62
256
6
ByLayer
370
18
48
1
60
1
100
AcDbLine
10
39.648916
20
-10
30
0
11
39.188132
21
-6.500002
31
0
39
0
210
0
220
0
230
1
0
LINE
5
D0
100
AcDbEntity
8
1
62
256
6
ByLayer
370
18
48
1
60
1
100
AcDbLine
10
39.188132
20
-6.500002
30
0
11
40.1097
21
-6.499998
31
0
39
0
210
0
220
0
230
1
0
LINE
5
D1
100
AcDbEntity
8
1
62
256
6
ByLayer
370
18
48
1
60
1
100
AcDbLine
10
40.1097
20
-6.499998
30
0
11
39.648916
21
-10
31
0
39
0
210
0
220
0
230
1
0
LINE
5
D2
100
AcDbEntity
8
1
62
256
6
ByLayer
370
18
48
1
60
1
100
AcDbLine
10
39.648916
20
10
30
0
11
40.1097
21
6.500002
31
0
39
0
210
0
220
0
230
1
0
LINE
5
D3
100
AcDbEntity
8
1
62
256
6
ByLayer
370
18
48
1
60
1
100
AcDbLine
10
40.1097
20
6.500002
30
0
11
39.188132
21
6.499998
31
0
39
0
210
0
220
0
230
1
0
LINE
5
D4
100
AcDbEntity
8
1
62
256
6
ByLayer
370
18
48
1
60
1
100
AcDbLine
10
39.188132
20
6.499998
30
0
11
39.648916
21
10
31
0
39
0
210
0
220
0
230
1
0
LINE
5
D5
100
AcDbEntity
8
SK2
62
256
6
ByLayer
370
18
48
1
60
0
100
AcDbLine
10
-36.1
20
9.65
30
0
11
-36.1
21
-9.65
31
0
39
0
210
0
220
0
230
1
0
LINE
5
D7
100
AcDbEntity
8
SK2
62
256
6
ByLayer
370
18
48
1
60
0
100
AcDbLine
10
-1.5875
20
-9.65
30
0
11
-38.1
21
-9.65
31
0
39
0
210
0
220
0
230
1
0
LINE
5
D8
100
AcDbEntity
8
SK2
62
256
6
ByLayer
370
18
48
1
60
0
100
AcDbLine
10
-1.5875
20
9.65
30
0
11
-38.1
21
9.65
31
0
39
0
210
0
220
0
230
1
0
LINE
5
D9
100
AcDbEntity
8
1
62
256
6
ByLayer
370
18
48
1
60
1
100
AcDbLine
10
-36.1
20
-9.65
30
0
11
-36.560784
21
-6.150002
31
0
39
0
210
0
220
0
230
1
0
LINE
5
DA
100
AcDbEntity
8
1
62
256
6
ByLayer
370
18
48
1
60
1
100
AcDbLine
10
-36.560784
20
-6.150002
30
0
11
-35.639216
21
-6.149998
31
0
39
0
210
0
220
0
230
1
0
LINE
5
DB
100
AcDbEntity
8
1
62
256
6
ByLayer
370
18
48
1
60
1
100
AcDbLine
10
-35.639216
20
-6.149998
30
0
11
-36.1
21
-9.65
31
0
39
0
210
0
220
0
230
1
0
LINE
5
DC
100
AcDbEntity
8
1
62
256
6
ByLayer
370
18
48
1
60
1
100
AcDbLine
10
-36.1
20
9.65
30
0
11
-35.639216
21
6.150002
31
0
39
0
210
0
220
0
230
1
0
LINE
5
DD
100
AcDbEntity
8
1
62
256
6
ByLayer
370
18
48
1
60
1
100
AcDbLine
10
-35.639216
20
6.150002
30
0
11
-36.560784
21
6.149998
31
0
39
0
210
0
220
0
230
1
0
LINE
5
DE
100
AcDbEntity
8
1
62
256
6
ByLayer
370
18
48
1
60
1
100
AcDbLine
10
-36.560784
20
6.149998
30
0
11
-36.1
21
9.65
31
0
39
0
210
0
220
0
230
1
0
LINE
5
1F1
100
AcDbEntity
8
1
62
256
6
ByLayer
370
18
48
1
60
1
100
AcDbLine
10
0
20
42.25
30
0
11
3.499998
21
42.710784
31
0
39
0
210
0
220
0
230
1
0
LINE
5
1F2
100
AcDbEntity
8
1
62
256
6
ByLayer
370
18
48
1
60
1
100
AcDbLine
10
3.499998
20
42.710784
30
0
11
3.500002
21
41.789216
31
0
39
0
210
0
220
0
230
1
0
LINE
5
1F3
100
AcDbEntity
8
1
62
256
6
ByLayer
370
18
48
1
60
1
100
AcDbLine
10
3.500002
20
41.789216
30
0
11
0
21
42.25
31
0
39
0
210
0
220
0
230
1
0
LINE
5
1F5
100
AcDbEntity
8
1
62
256
6
ByLayer
370
18
48
1
60
1
100
AcDbLine
10
30
20
42.25
30
0
11
26.500002
21
41.789216
31
0
39
0
210
0
220
0
230
1
0
LINE
5
1F6
100
AcDbEntity
8
1
62
256
6
ByLayer
370
18
48
1
60
1
100
AcDbLine
10
26.500002
20
41.789216
30
0
11
26.499998
21
42.710784
31
0
39
0
210
0
220
0
230
1
0
LINE
5
1F7
100
AcDbEntity
8
1
62
256
6
ByLayer
370
18
48
1
60
1
100
AcDbLine
10
26.499998
20
42.710784
30
0
11
30
21
42.25
31
0
39
0
210
0
220
0
230
1
0
LINE
5
1FB
100
AcDbEntity
8
1
62
256
6
ByLayer
370
18
48
1
60
1
100
AcDbLine
10
39.648916
20
-10
30
0
11
39.188132
21
-6.500002
31
0
39
0
210
0
220
0
230
1
0
LINE
5
1FC
100
AcDbEntity
8
1
62
256
6
ByLayer
370
18
48
1
60
1
100
AcDbLine
10
39.188132
20
-6.500002
30
0
11
40.1097
21
-6.499998
31
0
39
0
210
0
220
0
230
1
0
LINE
5
1FD
100
AcDbEntity
8
1
62
256
6
ByLayer
370
18
48
1
60
1
100
AcDbLine
10
40.1097
20
-6.499998
30
0
11
39.648916
21
-10
31
0
39
0
210
0
220
0
230
1
0
LINE
5
1FF
100
AcDbEntity
8
1
62
256
6
ByLayer
370
18
48
1
60
1
100
AcDbLine
10
39.648916
20
10
30
0
11
40.1097
21
6.500002
31
0
39
0
210
0
220
0
230
1
0
LINE
5
200
100
AcDbEntity
8
1
62
256
6
ByLayer
370
18
48
1
60
1
100
AcDbLine
10
40.1097
20
6.500002
30
0
11
39.188132
21
6.499998
31
0
39
0
210
0
220
0
230
1
0
LINE
5
201
100
AcDbEntity
8
1
62
256
6
ByLayer
370
18
48
1
60
1
100
AcDbLine
10
39.188132
20
6.499998
30
0
11
39.648916
21
10
31
0
39
0
210
0
220
0
230
1
0
LINE
5
205
100
AcDbEntity
8
1
62
256
6
ByLayer
370
18
48
1
60
1
100
AcDbLine
10
-36.1
20
-9.65
30
0
11
-36.560784
21
-6.150002
31
0
39
0
210
0
220
0
230
1
0
LINE
5
206
100
AcDbEntity
8
1
62
256
6
ByLayer
370
18
48
1
60
1
100
AcDbLine
10
-36.560784
20
-6.150002
30
0
11
-35.639216
21
-6.149998
31
0
39
0
210
0
220
0
230
1
0
LINE
5
207
100
AcDbEntity
8
1
62
256
6
ByLayer
370
18
48
1
60
1
100
AcDbLine
10
-35.639216
20
-6.149998
30
0
11
-36.1
21
-9.65
31
0
39
0
210
0
220
0
230
1
0
LINE
5
209
100
AcDbEntity
8
1
62
256
6
ByLayer
370
18
48
1
60
1
100
AcDbLine
10
-36.1
20
9.65
30
0
11
-35.639216
21
6.150002
31
0
39
0
210
0
220
0
230
1
0
LINE
5
20A
100
AcDbEntity
8
1
62
256
6
ByLayer
370
18
48
1
60
1
100
AcDbLine
10
-35.639216
20
6.150002
30
0
11
-36.560784
21
6.149998
31
0
39
0
210
0
220
0
230
1
0
LINE
5
20B
100
AcDbEntity
8
1
62
256
6
ByLayer
370
18
48
1
60
1
100
AcDbLine
10
-36.560784
20
6.149998
30
0
11
-36.1
21
9.65
31
0
39
0
210
0
220
0
230
1
0
MTEXT
5
1EE
100
AcDbEntity
8
2
62
256
6
ByLayer
370
18
48
1
60
0
100
AcDbMText
10
13.095034
20
43.282634
30
0
210
0
220
0
230
1
1
\W0.6740;30
40
3.5
41
0
44
1.084337
50
0
71
7
72
5
7
iso_b_vert
0
MTEXT
5
1F9
100
AcDbEntity
8
2
62
256
6
ByLayer
370
18
48
1
60
0
100
AcDbMText
10
38.084282
20
-4.530622
30
0
210
0
220
0
230
1
1
%%c
40
3.5
41
0
44
1.084337
50
90
71
7
72
5
7
iso_b_vert
0
MTEXT
5
1FA
100
AcDbEntity
8
2
62
256
6
ByLayer
370
18
48
1
60
0
100
AcDbMText
10
38.084282
20
2.442034
30
0
210
0
220
0
230
1
1
\W0.6740;20
40
3.5
41
0
44
1.084337
50
90
71
7
72
5
7
iso_b_vert
0
MTEXT
5
203
100
AcDbEntity
8
SK2
62
256
6
ByLayer
370
18
48
1
60
0
100
AcDbMText
10
-37.664634
20
-6.109922
30
0
210
0
220
0
230
1
1
%%c
40
3.5
41
0
44
1.084337
50
90
71
7
72
5
7
iso_b_vert
0
MTEXT
5
204
100
AcDbEntity
8
SK2
62
256
6
ByLayer
370
18
48
1
60
0
100
AcDbMText
10
-37.664634
20
0.862734
30
0
210
0
220
0
230
1
1
\W0.6563;19.3
40
3.5
41
0
44
1.084337
50
90
71
7
72
5
7
iso_b_vert
0
MTEXT
5
20D
100
AcDbEntity
8
SK6
62
256
6
ByLayer
370
18
48
1
60
0
100
AcDbMText
10
-16.503372
20
-24.217366
30
0
210
0
220
0
230
1
1
\W0.7526;MS20-R020EH20-10L
40
3.5
41
0
44
1.084337
50
0
71
7
72
5
7
iso_b_vert
0
HATCH
5
1F4
100
AcDbEntity
8
2
62
256
6
ByLayer
370
13
48
1
60
0
100
AcDbHatch
10
0
20
0
30
0
210
0
220
0
230
1
2
ANSI31
70
0
71
0
91
1
92
5
93
3
72
1
10
-2.84E-14
20
42.2499999999999
11
3.49999830744679
21
42.7107837415527
72
1
10
3.49999830744679
20
42.7107837415527
11
3.50000169255316
21
41.7892162584471
72
1
10
3.50000169255316
20
41.7892162584471
11
-2.84E-14
21
42.2499999999999
97
0
75
0
76
1
52
0
41
0.0062
77
0
78
1
53
45
43
0
44
0
45
-0.0139193969876572
46
0.0139193969876572
79
0
47
0
98
1
10
0
20
0
0
HATCH
5
1F8
100
AcDbEntity
8
2
62
256
6
ByLayer
370
13
48
1
60
0
100
AcDbHatch
10
0
20
0
30
0
210
0
220
0
230
1
2
ANSI31
70
0
71
0
91
1
92
5
93
3
72
1
10
30.0000000000001
20
42.2499999999999
11
26.5000016925532
21
41.7892162584471
72
1
10
26.5000016925532
20
41.7892162584471
11
26.4999983074469
21
42.7107837415527
72
1
10
26.4999983074469
20
42.7107837415527
11
30.0000000000001
21
42.2499999999999
97
0
75
0
76
1
52
0
41
0.0062
77
0
78
1
53
45
43
0
44
0
45
-0.0139193969876572
46
0.0139193969876572
79
0
47
0
98
1
10
0
20
0
0
HATCH
5
1FE
100
AcDbEntity
8
2
62
256
6
ByLayer
370
13
48
1
60
0
100
AcDbHatch
10
0
20
0
30
0
210
0
220
0
230
1
2
ANSI31
70
0
71
0
91
1
92
5
93
3
72
1
10
39.6489160109987
20
-10.0000000000001
11
39.1881322694459
21
-6.50000169255327
72
1
10
39.1881322694459
20
-6.50000169255327
11
40.1096997525515
21
-6.4999983074469
72
1
10
40.1096997525515
20
-6.4999983074469
11
39.6489160109987
21
-10.0000000000001
97
0
75
0
76
1
52
0
41
0.0062
77
0
78
1
53
45
43
0
44
0
45
-0.0139193969876572
46
0.0139193969876572
79
0
47
0
98
1
10
0
20
0
0
HATCH
5
202
100
AcDbEntity
8
2
62
256
6
ByLayer
370
13
48
1
60
0
100
AcDbHatch
10
0
20
0
30
0
210
0
220
0
230
1
2
ANSI31
70
0
71
0
91
1
92
5
93
3
72
1
10
39.6489160109987
20
9.99999999999991
11
40.1096997525515
21
6.5000016925531
72
1
10
40.1096997525515
20
6.5000016925531
11
39.1881322694459
21
6.49999830744673
72
1
10
39.1881322694459
20
6.49999830744673
11
39.6489160109987
21
9.99999999999991
97
0
75
0
76
1
52
0
41
0.0062
77
0
78
1
53
45
43
0
44
0
45
-0.0139193969876572
46
0.0139193969876572
79
0
47
0
98
1
10
0
20
0
0
HATCH
5
208
100
AcDbEntity
8
SK2
62
256
6
ByLayer
370
13
48
1
60
0
100
AcDbHatch
10
0
20
0
30
0
210
0
220
0
230
1
2
ANSI31
70
0
71
0
91
1
92
5
93
3
72
1
10
-36.1000000000001
20
-9.65000000000003
11
-36.5607837415528
21
-6.15000169255322
72
1
10
-36.5607837415528
20
-6.15000169255322
11
-35.6392162584473
21
-6.14999830744685
72
1
10
-35.6392162584473
20
-6.14999830744685
11
-36.1000000000001
21
-9.65000000000003
97
0
75
0
76
1
52
0
41
0.0062
77
0
78
1
53
45
43
0
44
0
45
-0.0139193969876572
46
0.0139193969876572
79
0
47
0
98
1
10
0
20
0
0
HATCH
5
20C
100
AcDbEntity
8
SK2
62
256
6
ByLayer
370
13
48
1
60
0
100
AcDbHatch
10
0
20
0
30
0
210
0
220
0
230
1
2
ANSI31
70
0
71
0
91
1
92
5
93
3
72
1
10
-36.1000000000001
20
9.64999999999998
11
-35.6392162584473
21
6.15000169255316
72
1
10
-35.6392162584473
20
6.15000169255316
11
-36.5607837415528
21
6.14999830744679
72
1
10
-36.5607837415528
20
6.14999830744679
11
-36.1000000000001
21
9.64999999999998
97
0
75
0
76
1
52
0
41
0.0062
77
0
78
1
53
45
43
0
44
0
45
-0.0139193969876572
46
0.0139193969876572
79
0
47
0
98
1
10
0
20
0
0
DIMENSION
5
210
100
AcDbEntity
8
2
62
256
6
ByLayer
370
18
48
1
60
0
100
AcDbDimension
2
_U0
10
21
20
22.25
30
0
11
25.5
21
22.25
31
0
70
32
71
1
72
1
41
1
210
0
220
0
230
1
3
Standard
100
AcDbAlignedDimension
13
30
23
10
33
0
14
21
24
10
34
0
50
0
100
AcDbRotatedDimension
1001
ACAD
1000
DSTYLE
1002
{
1070
   371
1070
    13
1070
   372
1070
    13
1070
   170
1070
     0
1070
   144
1040
1.0
1070
   277
1070
     2
1070
   284
1070
     8
1070
   278
1070
    46
1070
   146
1040
1.0
1070
   345
1005
16
1070
   347
1005
16
1070
   346
1005
16
1070
   344
1005
0
1070
   343
1005
0
1070
   172
1070
     1
1070
    76
1070
     0
1070
    75
1070
     0
1070
   282
1070
     0
1070
   281
1070
     0
1070
    71
1070
     0
1070
    74
1070
     0
1070
   279
1070
     0
1070
   173
1070
     1
1070
   340
1005
1EF
1070
   271
1070
     2
1070
   272
1070
     2
1070
    77
1070
     1
1070
    73
1070
     1
1070
   171
1070
     3
1070
   274
1070
     4
1070
   177
1070
     2
1070
   176
1070
     2
1070
   178
1070
     2
1070
    78
1070
     8
1070
    48
1040
-0.1
1070
    41
1040
3.5
1070
   147
1040
1.75
1070
    42
1040
1.5875
1070
    44
1040
2.0
1070
   140
1040
3.5
1002
}
1001
ACAD_DSTYLE_DIM_LINETYPE
1070
   380
1005
16
1001
ACAD_DSTYLE_DIM_EXT1_LINETYPE
1070
   381
1005
16
1001
ACAD_DSTYLE_DIM_EXT2_LINETYPE
1070
   382
1005
16
0
DIMENSION
5
22A
100
AcDbEntity
8
2
62
256
6
ByLayer
370
18
48
1
60
0
100
AcDbDimension
2
_U1
10
10.8
20
32.25
30
0
11
20.4
21
32.25
31
0
70
32
71
1
72
1
41
1
210
0
220
0
230
1
3
Standard
100
AcDbAlignedDimension
13
30
23
10
33
0
14
10.8
24
10
34
0
50
0
100
AcDbRotatedDimension
1001
ACAD
1000
DSTYLE
1002
{
1070
   371
1070
    13
1070
   372
1070
    13
1070
   170
1070
     0
1070
   144
1040
1.0
1070
   277
1070
     2
1070
   284
1070
     8
1070
   278
1070
    46
1070
   146
1040
1.0
1070
   345
1005
16
1070
   347
1005
16
1070
   346
1005
16
1070
   344
1005
0
1070
   343
1005
0
1070
   172
1070
     1
1070
    76
1070
     0
1070
    75
1070
     0
1070
   282
1070
     0
1070
   281
1070
     0
1070
    71
1070
     0
1070
    74
1070
     0
1070
   279
1070
     0
1070
   173
1070
     1
1070
   340
1005
1EF
1070
   271
1070
     2
1070
   272
1070
     2
1070
    77
1070
     1
1070
    73
1070
     1
1070
   171
1070
     3
1070
   274
1070
     4
1070
   177
1070
     2
1070
   176
1070
     2
1070
   178
1070
     2
1070
    78
1070
     8
1070
    48
1040
-0.1
1070
    41
1040
3.5
1070
   147
1040
1.75
1070
    42
1040
1.5875
1070
    44
1040
2.0
1070
   140
1040
3.5
1002
}
1001
ACAD_DSTYLE_DIM_LINETYPE
1070
   380
1005
16
1001
ACAD_DSTYLE_DIM_EXT1_LINETYPE
1070
   381
1005
16
1001
ACAD_DSTYLE_DIM_EXT2_LINETYPE
1070
   382
1005
16
0
DIMENSION
5
242
100
AcDbEntity
8
SK2
62
256
6
ByLayer
370
18
48
1
60
0
100
AcDbDimension
2
_U2
10
30
20
52.25
30
0
11
5.25
21
52.25
31
0
70
32
71
1
72
1
41
1
210
0
220
0
230
1
3
Standard
100
AcDbAlignedDimension
13
-19.5
23
0
33
0
14
30
24
10
34
0
50
0
100
AcDbRotatedDimension
1001
ACAD
1000
DSTYLE
1002
{
1070
   371
1070
    13
1070
   372
1070
    13
1070
   170
1070
     0
1070
   144
1040
1.0
1070
   277
1070
     2
1070
   284
1070
     8
1070
   278
1070
    46
1070
   146
1040
1.0
1070
   345
1005
16
1070
   347
1005
16
1070
   346
1005
16
1070
   344
1005
0
1070
   343
1005
0
1070
   172
1070
     1
1070
    76
1070
     0
1070
    75
1070
     0
1070
   282
1070
     0
1070
   281
1070
     0
1070
    71
1070
     0
1070
    74
1070
     0
1070
   279
1070
     0
1070
   173
1070
     1
1070
   340
1005
1EF
1070
   271
1070
     2
1070
   272
1070
     2
1070
    77
1070
     1
1070
    73
1070
     1
1070
   171
1070
     3
1070
   274
1070
     4
1070
   177
1070
     2
1070
   176
1070
     2
1070
   178
1070
     2
1070
    78
1070
     8
1070
    48
1040
-0.1
1070
    41
1040
3.5
1070
   147
1040
1.75
1070
    42
1040
1.5875
1070
    44
1040
2.0
1070
   140
1040
3.5
1002
}
1001
ACAD_DSTYLE_DIM_LINETYPE
1070
   380
1005
16
1001
ACAD_DSTYLE_DIM_EXT1_LINETYPE
1070
   381
1005
16
1001
ACAD_DSTYLE_DIM_EXT2_LINETYPE
1070
   382
1005
16
0
ENDSEC
0
SECTION
2
OBJECTS
0
DICTIONARY
5
2ca
330
0
100
AcDbDictionary
280
0
281
1
3
ACAD_GROUP
350
2cb
3
ACAD_MLINESTYLE
350
2cc
0
DICTIONARY
5
2cb
330
0
100
AcDbDictionary
280
0
281
1
0
DICTIONARY
5
2cc
330
0
100
AcDbDictionary
280
0
281
1
3
Standard
350
18
0
MLINESTYLE
5
18
330
2cc
100
AcDbMlineStyle
2
Standard
70
0
3

62
256
51
90
52
90
71
2
49
-0.5
62
256
6
ByLayer
49
0.5
62
256
6
ByLayer
0
RASTERVARIABLES
5
2b8
330

100
AcDbRasterVariables
90
0
70
1
71
1
72
1
0
ENDSEC
0
EOF
