0
SECTION
2
HEADER
9
$ACADVER
1
AC1015
9
$DWGCODEPAGE
3
ANSI_1252
9
$HANDSEED
5
2fe
9
$ANGBASE
50
0
9
$ANGDIR
70
0
9
$ATTMODE
70
1
9
$AUNITS
70
0
9
$AUPREC
70
0
9
$CECOLOR
62
256
9
$CELTSCALE
40
1
9
$CELTYPE
6
ByLayer
9
$CELWEIGHT
370
18
9
$CLAYER
8
0
9
$CMLJUST
70
0
9
$CMLSCALE
40
1
9
$CMLSTYLE
2
Standard
9
$DIMSTYLE
2
Standard
9
$TEXTSIZE
40
0.2
9
$TEXTSTYLE
7
Standard
9
$LUNITS
70
2
9
$LUPREC
70
4
9
$EXTNAMES
290
1
9
$INSUNITS
70
4
9
$LTSCALE
40
1
9
$LWDISPLAY
290
1
9
$PDMODE
70
0
9
$PDSIZE
40
0
9
$PLINEGEN
70
0
0
ENDSEC
0
SECTION
2
CLASSES
0
CLASS
1
RASTERVARIABLES
2
AcDbRasterVariables
3
ISM
90
0
280
0
281
0
0
ENDSEC
0
SECTION
2
TABLES
0
TABLE
2
VPORT
5
2f4
100
AcDbSymbolTable
0
VPORT
5
1
100
AcDbSymbolTableRecord
100
AcDbViewportTableRecord
2
*Active
70
0
10
0
20
0
11
1
21
1
12
-1
22
1
13
0
23
0
14
0.5
24
0.5
15
10
25
10
16
0
26
0
36
1
17
0
27
0
37
0
0
ENDTAB
0
TABLE
2
LTYPE
5
2f5
100
AcDbSymbolTable
0
LTYPE
5
14
100
AcDbSymbolTableRecord
100
AcDbLinetypeTableRecord
70
0
2
ByBlock
3

72
65
73
0
40
0
0
LTYPE
5
15
100
AcDbSymbolTableRecord
100
AcDbLinetypeTableRecord
70
0
2
ByLayer
3

72
65
73
0
40
0
0
LTYPE
5
16
100
AcDbSymbolTableRecord
100
AcDbLinetypeTableRecord
70
0
2
Continuous
3
Solid line
72
65
73
0
40
0
0
LTYPE
5
6E
100
AcDbSymbolTableRecord
100
AcDbLinetypeTableRecord
70
0
2
CENTER
3
____ _ ____ _ ____ _ ____
72
65
73
4
40
47.5
49
22
74
0
49
-8.5
74
0
49
8.5
74
0
49
-8.5
74
0
0
LTYPE
5
6F
100
AcDbSymbolTableRecord
100
AcDbLinetypeTableRecord
70
0
2
DASHED
3
__ __ __ __ __ __ __ __ __
72
65
73
2
40
25.72
49
12.86
74
0
49
-12.86
74
0
0
ENDTAB
0
TABLE
2
LAYER
5
2f6
100
AcDbSymbolTable
0
LAYER
5
10
100
AcDbSymbolTableRecord
100
AcDbLayerTableRecord
2
0
70
0
62
7
6
Continuous
290
1
370
-3
390
0
0
LAYER
5
71
100
AcDbSymbolTableRecord
100
AcDbLayerTableRecord
2
80
70
0
62
-6
6
Continuous
290
1
370
-3
390
0
0
LAYER
5
73
100
AcDbSymbolTableRecord
100
AcDbLayerTableRecord
2
1
70
0
62
4
6
Continuous
290
1
370
-3
390
0
0
LAYER
5
75
100
AcDbSymbolTableRecord
100
AcDbLayerTableRecord
2
81
70
0
62
-3
6
Continuous
290
1
370
-3
390
0
0
LAYER
5
CC
100
AcDbSymbolTableRecord
100
AcDbLayerTableRecord
2
4
70
0
62
-2
6
CENTER
290
1
370
-3
390
0
0
LAYER
5
CF
100
AcDbSymbolTableRecord
100
AcDbLayerTableRecord
2
2
70
0
62
7
6
Continuous
290
1
370
-3
390
0
0
LAYER
5
23A
100
AcDbSymbolTableRecord
100
AcDbLayerTableRecord
2
Defpoints
70
0
62
7
6
Continuous
290
0
370
-3
390
0
0
LAYER
5
2e0
100
AcDbSymbolTableRecord
100
AcDbLayerTableRecord
2
SK1
70
0
62
4
6
Continuous
290
1
370
-3
390
0
0
LAYER
5
2e1
100
AcDbSymbolTableRecord
100
AcDbLayerTableRecord
2
SK4
70
0
62
2
6
CENTER
290
1
370
-3
390
0
0
LAYER
5
2e2
100
AcDbSymbolTableRecord
100
AcDbLayerTableRecord
2
SK2
70
0
62
7
6
Continuous
290
1
370
-3
390
0
0
LAYER
5
2e3
100
AcDbSymbolTableRecord
100
AcDbLayerTableRecord
2
SK6
70
0
62
5
6
Continuous
290
1
370
-3
390
0
0
ENDTAB
0
TABLE
2
STYLE
5
2f7
100
AcDbSymbolTable
0
STYLE
5
11
100
AcDbSymbolTableRecord
100
AcDbTextStyleTableRecord
2
Standard
3
txt
70
0
71
0
40
0
41
1
42
0
50
0
0
STYLE
5
216
100
AcDbSymbolTableRecord
100
AcDbTextStyleTableRecord
2
iso_b_vert
3
simplex.shx
70
0
71
0
40
0
41
1
42
0
50
0
0
STYLE
5
217
100
AcDbSymbolTableRecord
100
AcDbTextStyleTableRecord
2
DWGDirectTextStyle
3
simplex
70
0
71
0
40
0
41
1
42
0
50
0
0
ENDTAB
0
TABLE
2
DIMSTYLE
5
2f8
100
AcDbSymbolTable
100
AcDbDimStyleTable
0
DIMSTYLE
105
27
100
AcDbSymbolTableRecord
100
AcDbDimStyleTableRecord
2
Standard
70
0
3
<>
41
0.18
42
0.0625
44
0.18
140
0.18
147
0.09
73
0
74
0
77
1
271
2
275
0
278
52
280
0
340
11
0
ENDTAB
0
TABLE
2
VIEW
5
2f9
100
AcDbSymbolTable
0
ENDTAB
0
TABLE
2
UCS
5
2fa
100
AcDbSymbolTable
0
ENDTAB
0
TABLE
2
APPID
5
2fb
100
AcDbSymbolTable
0
APPID
5
12
100
AcDbSymbolTableRecord
100
AcDbRegAppTableRecord
2
ACAD
70
0
0
APPID
5
236
100
AcDbSymbolTableRecord
100
AcDbRegAppTableRecord
2
ACAD_DSTYLE_DIMBREAK
70
0
0
APPID
5
29F
100
AcDbSymbolTableRecord
100
AcDbRegAppTableRecord
2
ACAD_DSTYLE_DIM_LINETYPE
70
0
0
APPID
5
2A0
100
AcDbSymbolTableRecord
100
AcDbRegAppTableRecord
2
ACAD_DSTYLE_DIM_EXT1_LINETYPE
70
0
0
APPID
5
2A1
100
AcDbSymbolTableRecord
100
AcDbRegAppTableRecord
2
ACAD_DSTYLE_DIM_EXT2_LINETYPE
70
0
0
APPID
5
2DC
100
AcDbSymbolTableRecord
100
AcDbRegAppTableRecord
2
ACAD_MLEADERVER
70
0
0
ENDTAB
0
TABLE
2
BLOCK_RECORD
5
2fc
100
AcDbSymbolTable
0
BLOCK_RECORD
5
1F
100
AcDbSymbolTableRecord
100
AcDbBlockTableRecord
2
*Model_Space
340
0
70
0
0
BLOCK_RECORD
5
1B
100
AcDbSymbolTableRecord
100
AcDbBlockTableRecord
2
*Paper_Space
340
0
70
0
0
BLOCK_RECORD
5
23
100
AcDbSymbolTableRecord
100
AcDbBlockTableRecord
2
*Paper_Space0
340
0
70
0
0
BLOCK_RECORD
5
23B
100
AcDbSymbolTableRecord
100
AcDbBlockTableRecord
2
*D1
340
0
70
0
0
BLOCK_RECORD
5
248
100
AcDbSymbolTableRecord
100
AcDbBlockTableRecord
2
_U0
340
0
70
0
0
BLOCK_RECORD
5
254
100
AcDbSymbolTableRecord
100
AcDbBlockTableRecord
2
*D3
340
0
70
0
0
BLOCK_RECORD
5
260
100
AcDbSymbolTableRecord
100
AcDbBlockTableRecord
2
_U1
340
0
70
0
0
BLOCK_RECORD
5
26C
100
AcDbSymbolTableRecord
100
AcDbBlockTableRecord
2
*D5
340
0
70
0
0
BLOCK_RECORD
5
278
100
AcDbSymbolTableRecord
100
AcDbBlockTableRecord
2
_U2
340
0
70
0
0
ENDTAB
0
ENDSEC
0
SECTION
2
BLOCKS
0
BLOCK
5
20
100
AcDbEntity
8
0
100
AcDbBlockBegin
2
*Model_Space
70
0
10
0
20
0
30
0
3
*Model_Space
0
ENDBLK
5
21
100
AcDbEntity
8
0
100
AcDbBlockEnd
0
BLOCK
5
1C
100
AcDbEntity
8
0
100
AcDbBlockBegin
2
*Paper_Space
70
0
10
0
20
0
30
0
3
*Paper_Space
0
ENDBLK
5
1D
100
AcDbEntity
8
0
100
AcDbBlockEnd
0
BLOCK
5
24
100
AcDbEntity
8
0
100
AcDbBlockBegin
2
*Paper_Space0
70
0
10
0
20
0
30
0
3
*Paper_Space0
0
ENDBLK
5
25
100
AcDbEntity
8
0
100
AcDbBlockEnd
0
BLOCK
5
23C
100
AcDbEntity
8
0
100
AcDbBlockBegin
2
*D1
70
1
10
0
20
0
30
0
3
*D1
0
LINE
5
23E
100
AcDbEntity
8
0
62
256
6
ByLayer
370
-2
48
1
60
0
100
AcDbLine
10
110
20
14.0875
30
0
11
110
21
26.75
31
0
39
0
210
0
220
0
230
1
0
LINE
5
23F
100
AcDbEntity
8
0
62
256
6
ByLayer
370
-2
48
1
60
0
100
AcDbLine
10
101
20
14.0875
30
0
11
101
21
26.75
31
0
39
0
210
0
220
0
230
1
0
LINE
5
240
100
AcDbEntity
8
0
62
256
6
ByLayer
370
-2
48
1
60
0
100
AcDbLine
10
113.5
20
24.75
30
0
11
117
21
24.75
31
0
39
0
210
0
220
0
230
1
0
LINE
5
241
100
AcDbEntity
8
0
62
256
6
ByLayer
370
-2
48
1
60
0
100
AcDbLine
10
97.5
20
24.75
30
0
11
94
21
24.75
31
0
39
0
210
0
220
0
230
1
0
SOLID
5
242
100
AcDbEntity
8
0
62
256
6
ByLayer
370
-1
48
1
60
0
100
AcDbTrace
10
113.5
20
25.333333
30
0
11
113.5
21
24.166667
31
0
12
110
22
24.75
32
0
13
110
23
24.75
33
0
39
0
210
0
220
0
230
1
0
SOLID
5
243
100
AcDbEntity
8
0
62
256
6
ByLayer
370
-1
48
1
60
0
100
AcDbTrace
10
97.5
20
24.166667
30
0
11
97.5
21
25.333333
31
0
12
101
22
24.75
32
0
13
101
23
24.75
33
0
39
0
210
0
220
0
230
1
0
MTEXT
5
244
100
AcDbEntity
8
0
62
256
6
ByLayer
370
18
48
1
60
0
100
AcDbMText
10
105.5
20
31.75
30
0
210
0
220
0
230
1
1
\A1;9
40
3.5
41
0
44
1
50
0
71
5
72
5
7
iso_b_vert
0
POINT
5
245
100
AcDbEntity
8
Defpoints
62
0
6
ByLayer
370
-1
48
1
60
0
100
AcDbPoint
10
110
20
12.5
30
0
39
0
210
0
220
0
230
1
50
360
0
POINT
5
246
100
AcDbEntity
8
Defpoints
62
0
6
ByLayer
370
-1
48
1
60
0
100
AcDbPoint
10
101
20
12.5
30
0
39
0
210
0
220
0
230
1
50
360
0
POINT
5
247
100
AcDbEntity
8
Defpoints
62
0
6
ByLayer
370
-1
48
1
60
0
100
AcDbPoint
10
101
20
24.75
30
0
39
0
210
0
220
0
230
1
50
360
0
ENDBLK
5
23D
100
AcDbEntity
8
0
100
AcDbBlockEnd
0
BLOCK
5
24F
100
AcDbEntity
8
0
100
AcDbBlockBegin
2
_U0
70
0
10
0
20
0
30
0
3
_U0
0
MTEXT
5
249
100
AcDbEntity
8
2
62
256
6
ByLayer
370
18
48
1
60
0
100
AcDbMText
10
104.902767
20
25.782634
30
0
210
0
220
0
230
1
1
\W0.5742;9
40
3.5
41
0
44
1.084337
50
0
71
7
72
5
7
iso_b_vert
0
LINE
5
24A
100
AcDbEntity
8
2
62
256
6
ByLayer
370
13
48
1
60
0
100
AcDbLine
10
110
20
14.0875
30
0
11
110
21
26.75
31
0
39
0
210
0
220
0
230
1
0
LINE
5
24B
100
AcDbEntity
8
2
62
256
6
ByLayer
370
13
48
1
60
0
100
AcDbLine
10
101
20
14.0875
30
0
11
101
21
26.75
31
0
39
0
210
0
220
0
230
1
0
LINE
5
24C
100
AcDbEntity
8
2
62
256
6
ByLayer
370
13
48
1
60
0
100
AcDbLine
10
110
20
24.75
30
0
11
101
21
24.75
31
0
39
0
210
0
220
0
230
1
0
SOLID
5
24D
100
AcDbEntity
8
2
62
256
6
ByLayer
370
18
48
1
60
0
100
AcDbTrace
10
110
20
24.75
30
0
11
106.500002
21
24.289216
31
0
12
106.499998
22
25.210784
32
0
13
106.499998
23
25.210784
33
0
39
0
210
0
220
0
230
1
0
SOLID
5
24E
100
AcDbEntity
8
2
62
256
6
ByLayer
370
18
48
1
60
0
100
AcDbTrace
10
101
20
24.75
30
0
11
104.499998
21
25.210784
31
0
12
104.500002
22
24.289216
32
0
13
104.500002
23
24.289216
33
0
39
0
210
0
220
0
230
1
0
ENDBLK
5
250
100
AcDbEntity
8
0
100
AcDbBlockEnd
0
BLOCK
5
255
100
AcDbEntity
8
0
100
AcDbBlockBegin
2
*D3
70
1
10
0
20
0
30
0
3
*D3
0
LINE
5
257
100
AcDbEntity
8
0
62
256
6
ByLayer
370
-2
48
1
60
0
100
AcDbLine
10
110
20
14.0875
30
0
11
110
21
36.75
31
0
39
0
210
0
220
0
230
1
0
LINE
5
258
100
AcDbEntity
8
0
62
256
6
ByLayer
370
-2
48
1
60
0
100
AcDbLine
10
65
20
14.0875
30
0
11
65
21
36.75
31
0
39
0
210
0
220
0
230
1
0
LINE
5
259
100
AcDbEntity
8
0
62
256
6
ByLayer
370
-2
48
1
60
0
100
AcDbLine
10
106.5
20
34.75
30
0
11
68.5
21
34.75
31
0
39
0
210
0
220
0
230
1
0
SOLID
5
25A
100
AcDbEntity
8
0
62
256
6
ByLayer
370
-1
48
1
60
0
100
AcDbTrace
10
106.5
20
34.166667
30
0
11
106.5
21
35.333333
31
0
12
110
22
34.75
32
0
13
110
23
34.75
33
0
39
0
210
0
220
0
230
1
0
SOLID
5
25B
100
AcDbEntity
8
0
62
256
6
ByLayer
370
-1
48
1
60
0
100
AcDbTrace
10
68.5
20
35.333333
30
0
11
68.5
21
34.166667
31
0
12
65
22
34.75
32
0
13
65
23
34.75
33
0
39
0
210
0
220
0
230
1
0
MTEXT
5
25C
100
AcDbEntity
8
0
62
256
6
ByLayer
370
18
48
1
60
0
100
AcDbMText
10
87.5
20
41.75
30
0
210
0
220
0
230
1
1
\A1;45
40
3.5
41
0
44
1
50
0
71
5
72
5
7
iso_b_vert
0
POINT
5
25D
100
AcDbEntity
8
Defpoints
62
0
6
ByLayer
370
-1
48
1
60
0
100
AcDbPoint
10
110
20
12.5
30
0
39
0
210
0
220
0
230
1
50
360
0
POINT
5
25E
100
AcDbEntity
8
Defpoints
62
0
6
ByLayer
370
-1
48
1
60
0
100
AcDbPoint
10
65
20
12.5
30
0
39
0
210
0
220
0
230
1
50
360
0
POINT
5
25F
100
AcDbEntity
8
Defpoints
62
0
6
ByLayer
370
-1
48
1
60
0
100
AcDbPoint
10
65
20
34.75
30
0
39
0
210
0
220
0
230
1
50
360
0
ENDBLK
5
256
100
AcDbEntity
8
0
100
AcDbBlockEnd
0
BLOCK
5
267
100
AcDbEntity
8
0
100
AcDbBlockBegin
2
_U1
70
0
10
0
20
0
30
0
3
_U1
0
MTEXT
5
261
100
AcDbEntity
8
2
62
256
6
ByLayer
370
18
48
1
60
0
100
AcDbMText
10
85.410767
20
35.782634
30
0
210
0
220
0
230
1
1
\W0.7361;45
40
3.5
41
0
44
1.084337
50
0
71
7
72
5
7
iso_b_vert
0
LINE
5
262
100
AcDbEntity
8
2
62
256
6
ByLayer
370
13
48
1
60
0
100
AcDbLine
10
110
20
14.0875
30
0
11
110
21
36.75
31
0
39
0
210
0
220
0
230
1
0
LINE
5
263
100
AcDbEntity
8
2
62
256
6
ByLayer
370
13
48
1
60
0
100
AcDbLine
10
65
20
14.0875
30
0
11
65
21
36.75
31
0
39
0
210
0
220
0
230
1
0
LINE
5
264
100
AcDbEntity
8
2
62
256
6
ByLayer
370
13
48
1
60
0
100
AcDbLine
10
110
20
34.75
30
0
11
65
21
34.75
31
0
39
0
210
0
220
0
230
1
0
SOLID
5
265
100
AcDbEntity
8
2
62
256
6
ByLayer
370
18
48
1
60
0
100
AcDbTrace
10
110
20
34.75
30
0
11
106.500002
21
34.289216
31
0
12
106.499998
22
35.210784
32
0
13
106.499998
23
35.210784
33
0
39
0
210
0
220
0
230
1
0
SOLID
5
266
100
AcDbEntity
8
2
62
256
6
ByLayer
370
18
48
1
60
0
100
AcDbTrace
10
65
20
34.75
30
0
11
68.499998
21
35.210784
31
0
12
68.500002
22
34.289216
32
0
13
68.500002
23
34.289216
33
0
39
0
210
0
220
0
230
1
0
ENDBLK
5
268
100
AcDbEntity
8
0
100
AcDbBlockEnd
0
BLOCK
5
26D
100
AcDbEntity
8
0
100
AcDbBlockBegin
2
*D5
70
1
10
0
20
0
30
0
3
*D5
0
LINE
5
26F
100
AcDbEntity
8
0
62
256
6
ByLayer
370
-2
48
1
60
0
100
AcDbLine
10
-38
20
1.5875
30
0
11
-38
21
56.75
31
0
39
0
210
0
220
0
230
1
0
LINE
5
270
100
AcDbEntity
8
0
62
256
6
ByLayer
370
-2
48
1
60
0
100
AcDbLine
10
110
20
14.0875
30
0
11
110
21
56.75
31
0
39
0
210
0
220
0
230
1
0
LINE
5
271
100
AcDbEntity
8
0
62
256
6
ByLayer
370
-2
48
1
60
0
100
AcDbLine
10
-34.5
20
54.75
30
0
11
106.5
21
54.75
31
0
39
0
210
0
220
0
230
1
0
SOLID
5
272
100
AcDbEntity
8
0
62
256
6
ByLayer
370
-1
48
1
60
0
100
AcDbTrace
10
-34.5
20
55.333333
30
0
11
-34.5
21
54.166667
31
0
12
-38
22
54.75
32
0
13
-38
23
54.75
33
0
39
0
210
0
220
0
230
1
0
SOLID
5
273
100
AcDbEntity
8
0
62
256
6
ByLayer
370
-1
48
1
60
0
100
AcDbTrace
10
106.5
20
54.166667
30
0
11
106.5
21
55.333333
31
0
12
110
22
54.75
32
0
13
110
23
54.75
33
0
39
0
210
0
220
0
230
1
0
MTEXT
5
274
100
AcDbEntity
8
0
62
256
6
ByLayer
370
18
48
1
60
0
100
AcDbMText
10
36
20
61.75
30
0
210
0
220
0
230
1
1
\A1;148
40
3.5
41
0
44
1
50
0
71
5
72
5
7
iso_b_vert
0
POINT
5
275
100
AcDbEntity
8
Defpoints
62
0
6
ByLayer
370
-1
48
1
60
0
100
AcDbPoint
10
-38
20
0
30
0
39
0
210
0
220
0
230
1
50
360
0
POINT
5
276
100
AcDbEntity
8
Defpoints
62
0
6
ByLayer
370
-1
48
1
60
0
100
AcDbPoint
10
110
20
12.5
30
0
39
0
210
0
220
0
230
1
50
360
0
POINT
5
277
100
AcDbEntity
8
Defpoints
62
0
6
ByLayer
370
-1
48
1
60
0
100
AcDbPoint
10
110
20
54.75
30
0
39
0
210
0
220
0
230
1
50
360
0
ENDBLK
5
26E
100
AcDbEntity
8
0
100
AcDbBlockEnd
0
BLOCK
5
27F
100
AcDbEntity
8
0
100
AcDbBlockBegin
2
_U2
70
0
10
0
20
0
30
0
3
_U2
0
MTEXT
5
279
100
AcDbEntity
8
SK2
62
256
6
ByLayer
370
18
48
1
60
0
100
AcDbMText
10
33.040467
20
55.782634
30
0
210
0
220
0
230
1
1
\W0.6620;148
40
3.5
41
0
44
1.084337
50
0
71
7
72
5
7
iso_b_vert
0
LINE
5
27A
100
AcDbEntity
8
SK2
62
256
6
ByLayer
370
13
48
1
60
0
100
AcDbLine
10
-38
20
1.5875
30
0
11
-38
21
56.75
31
0
39
0
210
0
220
0
230
1
0
LINE
5
27B
100
AcDbEntity
8
SK2
62
256
6
ByLayer
370
13
48
1
60
0
100
AcDbLine
10
110
20
14.0875
30
0
11
110
21
56.75
31
0
39
0
210
0
220
0
230
1
0
LINE
5
27C
100
AcDbEntity
8
SK2
62
256
6
ByLayer
370
13
48
1
60
0
100
AcDbLine
10
-38
20
54.75
30
0
11
110
21
54.75
31
0
39
0
210
0
220
0
230
1
0
SOLID
5
27D
100
AcDbEntity
8
SK2
62
256
6
ByLayer
370
18
48
1
60
0
100
AcDbTrace
10
-38
20
54.75
30
0
11
-34.500002
21
55.210784
31
0
12
-34.499998
22
54.289216
32
0
13
-34.499998
23
54.289216
33
0
39
0
210
0
220
0
230
1
0
SOLID
5
27E
100
AcDbEntity
8
SK2
62
256
6
ByLayer
370
18
48
1
60
0
100
AcDbTrace
10
110
20
54.75
30
0
11
106.500002
21
54.289216
31
0
12
106.499998
22
55.210784
32
0
13
106.499998
23
55.210784
33
0
39
0
210
0
220
0
230
1
0
ENDBLK
5
280
100
AcDbEntity
8
0
100
AcDbBlockEnd
0
ENDSEC
0
SECTION
2
ENTITIES
0
ARC
5
EB
100
AcDbEntity
8
1
62
256
6
ByLayer
370
18
48
1
60
0
100
AcDbCircle
39
0
10
108.734565
20
-11.33781
30
0
40
0.55
210
0
220
0
230
1
100
AcDbArc
50
305.590562
51
317.269838
0
ARC
5
EC
100
AcDbEntity
8
1
62
256
6
ByLayer
370
18
48
1
60
0
100
AcDbCircle
39
0
10
108.734565
20
-11.33781
30
0
40
0.55
210
0
220
0
230
1
100
AcDbArc
50
340.052943
51
360
0
ARC
5
ED
100
AcDbEntity
8
1
62
256
6
ByLayer
370
18
48
1
60
0
100
AcDbCircle
39
0
10
65
20
-13.765
30
0
40
2.1
210
0
220
0
230
1
100
AcDbArc
50
90
51
107.946009
0
ARC
5
EE
100
AcDbEntity
8
1
62
256
6
ByLayer
370
18
48
1
60
0
100
AcDbCircle
39
0
10
65
20
13.765
30
0
40
2.1
210
0
220
0
230
1
100
AcDbArc
50
252.053991
51
270
0
ARC
5
EF
100
AcDbEntity
8
1
62
256
6
ByLayer
370
18
48
1
60
0
100
AcDbCircle
39
0
10
45.299662
20
-36.85865
30
0
40
18
210
0
220
0
230
1
100
AcDbArc
50
107.946009
51
125.889049
0
ARC
5
F0
100
AcDbEntity
8
1
62
256
6
ByLayer
370
18
48
1
60
0
100
AcDbCircle
39
0
10
45.299662
20
36.85865
30
0
40
18
210
0
220
0
230
1
100
AcDbArc
50
234.110951
51
252.053991
0
ARC
5
F1
100
AcDbEntity
8
SK1
62
256
6
ByLayer
370
18
48
1
60
0
100
AcDbCircle
39
0
10
-0.6
20
23.45
30
0
40
0.999999999999994
210
0
220
0
230
1
100
AcDbArc
50
293.578178
51
306.869898
0
ARC
5
F2
100
AcDbEntity
8
SK1
62
256
6
ByLayer
370
18
48
1
60
0
100
AcDbCircle
39
0
10
-0.6
20
-23.45
30
0
40
0.999999999999994
210
0
220
0
230
1
100
AcDbArc
50
53.130102
51
66.421822
0
ELLIPSE
5
F3
100
AcDbEntity
8
1
62
256
6
ByLayer
370
13
48
1
60
0
100
AcDbEllipse
10
99.632677
20
9.043615
30
0
11
0.9249780513683
21
-0.380020531664938
31
0
210
0
220
0
230
1
40
0.128507
41
-2.05505991553482
42
-1.42541736884705
0
ELLIPSE
5
F4
100
AcDbEntity
8
1
62
256
6
ByLayer
370
13
48
1
60
0
100
AcDbEllipse
10
99.49743
20
8.52856
30
0
11
0.992508311819986
21
-0.1221771294811
31
0
210
0
220
0
230
1
40
0.187174
41
-2.10076139627622
42
-1.35275963022701
0
ELLIPSE
5
F5
100
AcDbEntity
8
1
62
256
6
ByLayer
370
13
48
1
60
0
100
AcDbEllipse
10
99.402237
20
7.755259
30
0
11
0.992508311819986
21
-0.1221771294811
31
0
210
0
220
0
230
1
40
0.187174
41
-2.12618263544009
42
-1.2799412421095
0
ELLIPSE
5
F6
100
AcDbEntity
8
1
62
256
6
ByLayer
370
18
48
1
60
0
100
AcDbEllipse
10
96.263006
20
-3.269668
30
0
11
-0.276032812127924
21
-0.961148212623201
31
0
210
0
220
0
230
1
40
0.362968
41
0
42
1.67466193451122
0
ELLIPSE
5
F7
100
AcDbEntity
8
1
62
256
6
ByLayer
370
18
48
1
60
0
100
AcDbEllipse
10
96.263006
20
-3.269668
30
0
11
-0.276032812127924
21
-0.961148212623201
31
0
210
0
220
0
230
1
40
0.362968
41
1.67466260967584
42
1.75408554900819
0
ELLIPSE
5
F8
100
AcDbEntity
8
1
62
256
6
ByLayer
370
13
48
1
60
0
100
AcDbEllipse
10
96.934706
20
-3.462574
30
0
11
0.345041015159867
21
1.201435265779
31
0
210
0
220
0
230
1
40
0.362968
41
-2.60126662511026
42
-1.41595391681599
0
ELLIPSE
5
F9
100
AcDbEntity
8
1
62
256
6
ByLayer
370
13
48
1
60
0
100
AcDbEllipse
10
96.934706
20
-3.462574
30
0
11
-0.762203069504759
21
-0.990730276532177
31
0
210
0
220
0
230
1
40
0.713868
41
-3.17435351550669E-05
42
0.753901431770069
0
ELLIPSE
5
FA
100
AcDbEntity
8
1
62
256
6
ByLayer
370
13
48
1
60
0
100
AcDbEllipse
10
106.231004
20
3.41742
30
0
11
1.71976921843912
21
-0.323873177817053
31
0
210
0
220
0
230
1
40
0.345872
41
0.0650439345294292
42
2.94652238390475
0
ELLIPSE
5
FB
100
AcDbEntity
8
1
62
256
6
ByLayer
370
18
48
1
60
0
100
AcDbEllipse
10
106.027569
20
2.337176
30
0
11
-1.27754284798336
21
0.240591503521251
31
0
210
0
220
0
230
1
40
0.345872
41
-3.07654871906035
42
0.0650439345294475
0
ELLIPSE
5
FC
100
AcDbEntity
8
1
62
256
6
ByLayer
370
18
48
1
60
0
100
AcDbEllipse
10
102.216453
20
-3.787529
30
0
11
3.23238947114952
21
3.7329199035466
31
0
210
0
220
0
230
1
40
0.128539
41
1.72416422409062
42
1.75862040056333
0
ELLIPSE
5
FD
100
AcDbEntity
8
1
62
256
6
ByLayer
370
18
48
1
60
0
100
AcDbEllipse
10
99.377745
20
-9.084739
30
0
11
13.4013006500885
21
27.3400531664098
31
0
210
0
220
0
230
1
40
0.019409
41
1.35736040217329
42
1.39128158961537
0
ELLIPSE
5
FE
100
AcDbEntity
8
1
62
256
6
ByLayer
370
18
48
1
60
0
100
AcDbEllipse
10
108.752739
20
-2.746659
30
0
11
-0.491362633839761
21
0.0925351936620216
31
0
210
0
220
0
230
1
40
0.345872
41
1.62711361506384
42
2.85260573553275
0
ELLIPSE
5
FF
100
AcDbEntity
8
1
62
256
6
ByLayer
370
13
48
1
60
0
100
AcDbEllipse
10
108.637378
20
-3.75461
30
0
11
-0.165876522142396
21
-0.986146530390866
31
0
210
0
220
0
230
1
40
0.052814
41
-2.73696126991687
42
-2.5679803452777
0
ELLIPSE
5
100
100
AcDbEntity
8
1
62
256
6
ByLayer
370
18
48
1
60
0
100
AcDbEllipse
10
106.773529
20
-0.058043
30
0
11
1.97947424933832
21
11.9451475403366
31
0
210
0
220
0
230
1
40
0.060278
41
-1.32451765363451
42
-1.173122753512
0
ELLIPSE
5
101
100
AcDbEntity
8
1
62
256
6
ByLayer
370
18
48
1
60
0
100
AcDbEllipse
10
103.236197
20
0.030424
30
0
11
1.97384010385732
21
11.9111762103757
31
0
210
0
220
0
230
1
40
0.060278
41
-1.2694995407099
42
-1.17620456295644
0
ELLIPSE
5
102
100
AcDbEntity
8
1
62
256
6
ByLayer
370
13
48
1
60
0
100
AcDbEllipse
10
106.231004
20
3.41742
30
0
11
-1.75
21
6.43155504981979E-15
31
0
210
0
220
0
230
1
40
0.936298
41
2.23359161020578
42
2.96705972839036
0
ELLIPSE
5
103
100
AcDbEntity
8
1
62
256
6
ByLayer
370
13
48
1
60
0
100
AcDbEllipse
10
106.231004
20
3.41742
30
0
11
-1.75
21
6.43155504981979E-15
31
0
210
0
220
0
230
1
40
0.936298
41
9.71458615406663E-06
42
0.558935192985056
0
ELLIPSE
5
104
100
AcDbEntity
8
1
62
256
6
ByLayer
370
18
48
1
60
0
100
AcDbEllipse
10
-2.347154
20
0
30
0
11
14.7536831606539
21
31.0932549155782
31
0
210
0
220
0
230
1
40
0.341999
41
-1.09123958575289
42
-0.157806186645448
0
ELLIPSE
5
105
100
AcDbEntity
8
1
62
256
6
ByLayer
370
18
48
1
60
0
100
AcDbEllipse
10
26.347154
20
0
30
0
11
14.7536831606572
21
-31.0932549155821
31
0
210
0
220
0
230
1
40
0.341999
41
-2.98378646694437
42
-2.050353067837
0
ELLIPSE
5
106
100
AcDbEntity
8
1
62
256
6
ByLayer
370
18
48
1
60
0
100
AcDbEllipse
10
26.347154
20
0
30
0
11
14.7536831606577
21
31.0932549155826
31
0
210
0
220
0
230
1
40
0.341999
41
2.05035306783701
42
2.98378646694437
0
ELLIPSE
5
107
100
AcDbEntity
8
1
62
256
6
ByLayer
370
18
48
1
60
0
100
AcDbEllipse
10
-2.347154
20
0
30
0
11
14.7536831606552
21
-31.0932549155799
31
0
210
0
220
0
230
1
40
0.341999
41
0.157806186645438
42
1.09123958575286
0
ELLIPSE
5
108
100
AcDbEntity
8
1
62
256
6
ByLayer
370
18
48
1
60
0
100
AcDbEllipse
10
105.962994
20
1.26999
30
0
11
-1.03186153106347
21
0.19432390669024
31
0
210
0
220
0
230
1
40
0.345872
41
-2.203382008734
42
-0.807828034902668
0
ELLIPSE
5
109
100
AcDbEntity
8
1
62
256
6
ByLayer
370
18
48
1
60
0
100
AcDbEllipse
10
105.138165
20
8.778736
30
0
11
0.760687187860269
21
0.640457931659244
31
0
210
0
220
0
230
1
40
0.962969
41
-0.103513639042165
42
0.365925029634116
0
ELLIPSE
5
10A
100
AcDbEntity
8
1
62
256
6
ByLayer
370
18
48
1
60
0
100
AcDbEllipse
10
105.138165
20
8.778736
30
0
11
0.760687187860269
21
0.640457931659244
31
0
210
0
220
0
230
1
40
0.962969
41
0.365925029634106
42
1.4131225808307
0
ELLIPSE
5
10B
100
AcDbEntity
8
1
62
256
6
ByLayer
370
18
48
1
60
0
100
AcDbEllipse
10
105.138165
20
8.778736
30
0
11
0.760687187860269
21
0.640457931659244
31
0
210
0
220
0
230
1
40
0.962969
41
1.4131225808307
42
2.46032013202731
0
ELLIPSE
5
10C
100
AcDbEntity
8
1
62
256
6
ByLayer
370
18
48
1
60
0
100
AcDbEllipse
10
105.138165
20
8.778736
30
0
11
-0.760687187860269
21
-0.640457931659243
31
0
210
0
220
0
230
1
40
0.962969
41
-0.68127252156249
42
-0.0872989354136541
0
ELLIPSE
5
10D
100
AcDbEntity
8
1
62
256
6
ByLayer
370
18
48
1
60
0
100
AcDbEllipse
10
105.138165
20
8.778736
30
0
11
0.760687187860269
21
0.640457931659244
31
0
210
0
220
0
230
1
40
0.962969
41
-2.68174749738399
42
-2.50537604576913
0
ELLIPSE
5
10E
100
AcDbEntity
8
1
62
256
6
ByLayer
370
18
48
1
60
0
100
AcDbEllipse
10
104.575988
20
9.724791
30
0
11
0.257388999152497
21
0.158228677067048
31
0
210
0
220
0
230
1
40
0.469889
41
-2.86474034405585
42
-1.57785568349749
0
ELLIPSE
5
10F
100
AcDbEntity
8
1
62
256
6
ByLayer
370
18
48
1
60
0
100
AcDbEllipse
10
104.575988
20
9.724791
30
0
11
0.257388999149218
21
0.158228677066202
31
0
210
0
220
0
230
1
40
0.469889
41
-1.5778556835049
42
-0.290971022935159
0
ELLIPSE
5
110
100
AcDbEntity
8
1
62
256
6
ByLayer
370
18
48
1
60
0
100
AcDbEllipse
10
104.164403
20
9.300992
30
0
11
0.150818676994412
21
0.260509275980057
31
0
210
0
220
0
230
1
40
0.473385
41
-0.145482681179951
42
2.50261930488044
0
ELLIPSE
5
111
100
AcDbEntity
8
1
62
256
6
ByLayer
370
18
48
1
60
0
100
AcDbEllipse
10
105.138165
20
9.895167
30
0
11
0.297725340311005
21
0.0143435674428765
31
0
210
0
220
0
230
1
40
0.48279
41
1.12046629344161
42
-3.00397486094501
0
ELLIPSE
5
112
100
AcDbEntity
8
1
62
256
6
ByLayer
370
18
48
1
60
0
100
AcDbEllipse
10
104.01381
20
8.737216
30
0
11
0.00345944002903742
21
0.295737666918792
31
0
210
0
220
0
230
1
40
0.49037
41
-2.8338307461808
42
-1.54694608562908
0
ELLIPSE
5
113
100
AcDbEntity
8
1
62
256
6
ByLayer
370
18
48
1
60
0
100
AcDbEllipse
10
104.01381
20
8.737216
30
0
11
0.00345944003051053
21
0.295737666916361
31
0
210
0
220
0
230
1
40
0.49037
41
-1.54694608561792
42
-0.456453679941729
0
ELLIPSE
5
114
100
AcDbEntity
8
1
62
256
6
ByLayer
370
18
48
1
60
0
100
AcDbEllipse
10
105.700343
20
9.766311
30
0
11
0.25909340936598
21
-0.136155657482676
31
0
210
0
220
0
230
1
40
0.500702
41
-2.288279849201
42
-1.58765345920634
0
ELLIPSE
5
115
100
AcDbEntity
8
1
62
256
6
ByLayer
370
18
48
1
60
0
100
AcDbEllipse
10
105.700343
20
9.766311
30
0
11
0.259093409365104
21
-0.136155657483992
31
0
210
0
220
0
230
1
40
0.500702
41
-1.58765345919435
42
-0.300768798638315
0
ELLIPSE
5
116
100
AcDbEntity
8
1
62
256
6
ByLayer
370
18
48
1
60
0
100
AcDbEllipse
10
104.164403
20
8.184562
30
0
11
0.147901888777916
21
-0.251179957024282
31
0
210
0
220
0
230
1
40
0.504835
41
2.98865074096091
42
-1.99610659364121
0
ELLIPSE
5
117
100
AcDbEntity
8
1
62
256
6
ByLayer
370
18
48
1
60
0
100
AcDbEllipse
10
106.111928
20
9.37291
30
0
11
0.147901888777907
21
-0.251179957024283
31
0
210
0
220
0
230
1
40
0.504835
41
2.6730365884455
42
-2.97278844262428
0
ELLIPSE
5
118
100
AcDbEntity
8
1
62
256
6
ByLayer
370
18
48
1
60
0
100
AcDbEllipse
10
104.886376
20
9.077793
30
0
11
0.986085900554385
21
0.830231593730237
31
0
210
0
220
0
230
1
40
0.962969
41
2.98391890762562
42
-2.2520688483574
0
ELLIPSE
5
119
100
AcDbEntity
8
1
62
256
6
ByLayer
370
18
48
1
60
0
100
AcDbEllipse
10
104.886376
20
9.077793
30
0
11
0.986085900554385
21
0.830231593730237
31
0
210
0
220
0
230
1
40
0.962969
41
1.93672135642899
42
2.98391890762562
0
ELLIPSE
5
11A
100
AcDbEntity
8
1
62
256
6
ByLayer
370
18
48
1
60
0
100
AcDbEllipse
10
104.886376
20
9.077793
30
0
11
0.986085900554385
21
0.830231593730237
31
0
210
0
220
0
230
1
40
0.962969
41
0.889523805232406
42
1.93672135642899
0
ELLIPSE
5
11B
100
AcDbEntity
8
1
62
256
6
ByLayer
370
18
48
1
60
0
100
AcDbEllipse
10
104.886376
20
9.077793
30
0
11
0.986085900554385
21
0.830231593730237
31
0
210
0
220
0
230
1
40
0.962969
41
-0.157673745964171
42
0.889523805232406
0
ELLIPSE
5
11C
100
AcDbEntity
8
1
62
256
6
ByLayer
370
18
48
1
60
0
100
AcDbEllipse
10
104.886376
20
9.077793
30
0
11
0.986085900554385
21
0.830231593730237
31
0
210
0
220
0
230
1
40
0.962969
41
-1.20487129716081
42
-0.157673745964171
0
ELLIPSE
5
11D
100
AcDbEntity
8
1
62
256
6
ByLayer
370
18
48
1
60
0
100
AcDbEllipse
10
104.886376
20
9.077793
30
0
11
0.986085900554385
21
0.830231593730237
31
0
210
0
220
0
230
1
40
0.962969
41
-2.2520688483574
42
-1.20487129716081
0
ELLIPSE
5
11E
100
AcDbEntity
8
1
62
256
6
ByLayer
370
13
48
1
60
0
100
AcDbEllipse
10
104.886376
20
9.077793
30
0
11
1.14745653840547
21
0.966097040918006
31
0
210
0
220
0
230
1
40
0.962969
41
0
42
6.28318530717959
0
ELLIPSE
5
11F
100
AcDbEntity
8
1
62
256
6
ByLayer
370
18
48
1
60
0
100
AcDbEllipse
10
104.897404
20
9.064694
30
0
11
1.5299420512073
21
1.28812938789067
31
0
210
0
220
0
230
1
40
0.962969
41
0
42
6.28318530717959
0
ELLIPSE
5
120
100
AcDbEntity
8
1
62
256
6
ByLayer
370
18
48
1
60
0
100
AcDbEllipse
10
105.129483
20
8.789048
30
0
11
1.45845045861069
21
1.22793729019774
31
0
210
0
220
0
230
1
40
0.962969
41
-0.919837354530382
42
-0.681272700400995
0
ELLIPSE
5
121
100
AcDbEntity
8
1
62
256
6
ByLayer
370
18
48
1
60
0
100
AcDbEllipse
10
105.129483
20
8.789048
30
0
11
1.45845045861069
21
1.22793729019774
31
0
210
0
220
0
230
1
40
0.962969
41
-2.88922321007188
42
-2.22183133386166
0
ELLIPSE
5
122
100
AcDbEntity
8
1
62
256
6
ByLayer
370
18
48
1
60
0
100
AcDbEllipse
10
105.129483
20
8.789048
30
0
11
1.45845045861069
21
1.22793729019774
31
0
210
0
220
0
230
1
40
0.962969
41
-0.681272700400992
42
-0.252347174612528
0
ELLIPSE
5
123
100
AcDbEntity
8
1
62
256
6
ByLayer
370
13
48
1
60
0
100
AcDbEllipse
10
105.113546
20
8.807977
30
0
11
1.52230603592428
21
1.28170027138611
31
0
210
0
220
0
230
1
40
0.962969
41
-0.641904605069786
42
0
0
ELLIPSE
5
124
100
AcDbEntity
8
1
62
256
6
ByLayer
370
13
48
1
60
0
100
AcDbEllipse
10
105.113546
20
8.807977
30
0
11
1.52230603592428
21
1.28170027138611
31
0
210
0
220
0
230
1
40
0.962969
41
0
42
0.0588673061294303
0
ELLIPSE
5
125
100
AcDbEntity
8
1
62
256
6
ByLayer
370
13
48
1
60
0
100
AcDbEllipse
10
105.113546
20
8.807977
30
0
11
1.52230603592428
21
1.28170027138611
31
0
210
0
220
0
230
1
40
0.962969
41
3.08274840255833
42
-2.49966530760246
0
ELLIPSE
5
126
100
AcDbEntity
8
1
62
256
6
ByLayer
370
13
48
1
60
0
100
AcDbEllipse
10
105.063876
20
8.866971
30
0
11
1.62105405499141
21
1.36484082253051
31
0
210
0
220
0
230
1
40
0.962969
41
0.0610270405716338
42
0.517343157012215
0
ELLIPSE
5
127
100
AcDbEntity
8
1
62
256
6
ByLayer
370
18
48
1
60
0
100
AcDbEllipse
10
105.063876
20
8.866971
30
0
11
1.62105405499141
21
1.36484082253051
31
0
210
0
220
0
230
1
40
0.962969
41
-0.324505346000312
42
0
0
ELLIPSE
5
128
100
AcDbEntity
8
1
62
256
6
ByLayer
370
18
48
1
60
0
100
AcDbEllipse
10
105.063876
20
8.866971
30
0
11
1.62105405499141
21
1.36484082253051
31
0
210
0
220
0
230
1
40
0.962969
41
0
42
0.0610271418918048
0
ELLIPSE
5
129
100
AcDbEntity
8
1
62
256
6
ByLayer
370
18
48
1
60
0
100
AcDbEllipse
10
105.063876
20
8.866971
30
0
11
1.62105405499141
21
1.36484082253051
31
0
210
0
220
0
230
1
40
0.962969
41
3.12064357701442
42
-2.8171627700756
0
ELLIPSE
5
12A
100
AcDbEntity
8
1
62
256
6
ByLayer
370
13
48
1
60
0
100
AcDbEllipse
10
105.063876
20
8.866971
30
0
11
1.62105405499141
21
1.36484082253051
31
0
210
0
220
0
230
1
40
0.962969
41
2.62427191770741
42
3.12064357701442
0
ELLIPSE
5
12B
100
AcDbEntity
8
1
62
256
6
ByLayer
370
18
48
1
60
0
100
AcDbEllipse
10
104.890536
20
9.072851
30
0
11
-1.70131315345283
21
-1.43241469128729
31
0
210
0
220
0
230
1
40
0.962969
41
0
42
6.28318530717959
0
POINT
5
70
100
AcDbEntity
8
80
62
256
6
ByLayer
370
18
48
1
60
0
100
AcDbPoint
10
0
20
0
30
0
39
0
210
0
220
0
230
1
50
360
0
POINT
5
72
100
AcDbEntity
8
1
62
256
6
ByLayer
370
18
48
1
60
0
100
AcDbPoint
10
0
20
0
30
0
39
0
210
0
220
0
230
1
50
360
0
POINT
5
74
100
AcDbEntity
8
81
62
256
6
ByLayer
370
18
48
1
60
0
100
AcDbPoint
10
110
20
12.5
30
0
39
0
210
0
220
0
230
1
50
360
0
POINT
5
76
100
AcDbEntity
8
1
62
256
6
ByLayer
370
18
48
1
60
1
100
AcDbPoint
10
101
20
12.5
30
0
39
0
210
0
220
0
230
1
50
360
0
POINT
5
77
100
AcDbEntity
8
1
62
256
6
ByLayer
370
18
48
1
60
1
100
AcDbPoint
10
65
20
12.5
30
0
39
0
210
0
220
0
230
1
50
360
0
POINT
5
78
100
AcDbEntity
8
1
62
256
6
ByLayer
370
18
48
1
60
1
100
AcDbPoint
10
-38
20
0
30
0
39
0
210
0
220
0
230
1
50
360
0
SPLINE
5
12C
100
AcDbEntity
8
1
62
256
6
ByLayer
370
18
48
1
60
0
100
AcDbSpline
70
4
71
3
72
8
73
4
40
0
40
0
40
0
40
0
40
1
40
1
40
1
40
1
41
1
10
100.257431542945
20
11.4130908094949
30
0
41
1
10
100.196319563109
20
11.4129674057721
30
0
41
1
10
100.137256469989
20
11.4140394867818
30
0
41
1
10
100.080373946821
20
11.4162824534402
30
0
0
SPLINE
5
12D
100
AcDbEntity
8
1
62
256
6
ByLayer
370
18
48
1
60
0
100
AcDbSpline
70
4
71
3
72
8
73
4
40
0
40
0
40
0
40
0
40
1
40
1
40
1
40
1
41
1
10
100.072661521473
20
11.4166100461665
30
0
41
1
10
100.075225916308
20
11.4164933009337
30
0
41
1
10
100.077796795875
20
11.4163840745238
30
0
41
1
10
100.080373946821
20
11.4162824534402
30
0
0
SPLINE
5
12E
100
AcDbEntity
8
1
62
256
6
ByLayer
370
18
48
1
60
0
100
AcDbSpline
70
4
71
3
72
12
73
8
40
0
40
0
40
0
40
0
40
0.417100721751048
40
0.417100721751048
40
0.834201443502097
40
0.834201443502097
40
1
40
1
40
1
40
1
41
1
10
99.7004477148193
20
6.47295449247298
30
0
41
1
10
99.6922351024726
20
6.4331943800361
30
0
41
1
10
99.685631009873
20
6.39391686265714
30
0
41
1
10
99.6755456336644
20
6.31628858636475
30
0
41
1
10
99.672120874102
20
6.27836022092626
30
0
41
1
10
99.6694928940301
20
6.22663279869121
30
0
41
1
10
99.6689852966924
20
6.21205846288305
30
0
41
1
10
99.6687202654123
20
6.19762198940509
30
0
0
SPLINE
5
12F
100
AcDbEntity
8
1
62
256
6
ByLayer
370
18
48
1
60
0
100
AcDbSpline
70
4
71
3
72
8
73
4
40
0
40
0
40
0
40
0
40
1
40
1
40
1
40
1
41
1
10
99.7240346823646
20
6.60577446449804
30
0
41
1
10
99.7172472647495
20
6.56100812291177
30
0
41
1
10
99.709481561017
20
6.51669048358011
30
0
41
1
10
99.7004477148193
20
6.47295449247298
30
0
0
SPLINE
5
130
100
AcDbEntity
8
1
62
256
6
ByLayer
370
18
48
1
60
0
100
AcDbSpline
70
4
71
3
72
8
73
4
40
0
40
0
40
0
40
0
40
1
40
1
40
1
40
1
41
1
10
109.279948456829
20
-7.44916533325986
30
0
41
1
10
109.282904084485
20
-7.46975420083263
30
0
41
1
10
109.284345931886
20
-7.48943989481484
30
0
41
1
10
109.284345931886
20
-7.50826209592191
30
0
0
SPLINE
5
131
100
AcDbEntity
8
1
62
256
6
ByLayer
370
18
48
1
60
0
100
AcDbSpline
70
4
71
3
72
9
73
5
40
0
40
0
40
0
40
0
40
0.294375343179878
40
1
40
1
40
1
40
1
41
1
10
109.159602084605
20
-6.61580194565531
30
0
41
1
10
109.161590043358
20
-6.6282551479529
30
0
41
1
10
109.168358191842
20
-6.67137792078691
30
0
41
1
10
109.175177072354
20
-6.71736519899233
30
0
41
1
10
109.180012340546
20
-6.75122497257465
30
0
0
SPLINE
5
132
100
AcDbEntity
8
1
62
256
6
ByLayer
370
18
48
1
60
0
100
AcDbSpline
70
4
71
3
72
8
73
4
40
0
40
0
40
0
40
0
40
1
40
1
40
1
40
1
41
1
10
109.180012340546
20
-6.75122497257465
30
0
41
1
10
109.213310700143
20
-6.98440230042672
30
0
41
1
10
109.246623880504
20
-7.21702672561605
30
0
41
1
10
109.279948456829
20
-7.44916533326398
30
0
0
SPLINE
5
133
100
AcDbEntity
8
1
62
256
6
ByLayer
370
18
48
1
60
0
100
AcDbSpline
70
4
71
3
72
8
73
4
40
0
40
0
40
0
40
0
40
1
40
1
40
1
40
1
41
1
10
102.563525388779
20
-1.45774019000533
30
0
41
1
10
102.573663162438
20
-1.46883016515068
30
0
41
1
10
102.58380090032
20
-1.47992013928734
30
0
41
1
10
102.593938513051
20
-1.4910101098944
30
0
0
SPLINE
5
134
100
AcDbEntity
8
1
62
256
6
ByLayer
370
18
48
1
60
0
100
AcDbSpline
70
4
71
3
72
10
73
6
40
0
40
0
40
0
40
0
40
0.5
40
0.5
40
1
40
1
40
1
40
1
41
1
10
101.141509068499
20
-4.0763654011823
30
0
41
1
10
101.127881347041
20
-4.07284949396919
30
0
41
1
10
101.114212948887
20
-4.06990915513555
30
0
41
1
10
101.086796929573
20
-4.06518510310539
30
0
41
1
10
101.07317370454
20
-4.06342382079055
30
0
41
1
10
101.059672951095
20
-4.0622390866838
30
0
0
SPLINE
5
135
100
AcDbEntity
8
1
62
256
6
ByLayer
370
18
48
1
60
0
100
AcDbSpline
70
4
71
3
72
8
73
4
40
0
40
0
40
0
40
0
40
1
40
1
40
1
40
1
41
1
10
100.072661521475
20
-4.11927219259806
30
0
41
1
10
100.075225916309
20
-4.11794650588922
30
0
41
1
10
100.077796795876
20
-4.1166336611621
30
0
41
1
10
100.080373946821
20
-4.11533374105801
30
0
0
SPLINE
5
136
100
AcDbEntity
8
1
62
256
6
ByLayer
370
18
48
1
60
0
100
AcDbSpline
70
4
71
3
72
38
73
34
40
0
40
0
40
0
40
0
40
0.0312500000000166
40
0.0312500000000166
40
0.0625000000000333
40
0.0625000000000333
40
0.125000000000064
40
0.125000000000064
40
0.250000000000126
40
0.250000000000126
40
0.281250000000137
40
0.281250000000137
40
0.312500000000148
40
0.375000000000148
40
0.437500000000149
40
0.437500000000149
40
0.468750000000149
40
0.468750000000149
40
0.50000000000015
40
0.50000000000015
40
0.625000000000049
40
0.625000000000049
40
0.687499999999998
40
0.687499999999998
40
0.718749999999973
40
0.718749999999973
40
0.749999999999948
40
0.749999999999948
40
0.874999999999974
40
0.874999999999974
40
0.937499999999987
40
0.937499999999987
40
1
40
1
40
1
40
1
41
1
10
109.284345931869
20
-2.81417942853702
30
0
41
1
10
109.284596173683
20
-2.81609342251616
30
0
41
1
10
109.284632559757
20
-2.81798511693947
30
0
41
1
10
109.284270605181
20
-2.82172211423605
30
0
41
1
10
109.283870023418
20
-2.82357211373829
30
0
41
1
10
109.282022041118
20
-2.8289976402109
30
0
41
1
10
109.279934151728
20
-2.8324584789317
30
0
41
1
10
109.271181802174
20
-2.84237047356749
30
0
41
1
10
109.26205133847
20
-2.84835635589747
30
0
41
1
10
109.246429481843
20
-2.85497741569077
30
0
41
1
10
109.243084800783
20
-2.85626042801414
30
0
41
1
10
109.236038064299
20
-2.85871078482305
30
0
41
1
10
109.224913767416
20
-2.8622216792389
30
0
41
1
10
109.203662751366
20
-2.86725392441633
30
0
41
1
10
109.183822324723
20
-2.87039139873892
30
0
41
1
10
109.167866957037
20
-2.87239653644664
30
0
41
1
10
109.16236902489
20
-2.87300682201536
30
0
41
1
10
109.15100873176
20
-2.87410744329753
30
0
41
1
10
109.145137820645
20
-2.87459798234536
30
0
41
1
10
109.115182401859
20
-2.87671962039349
30
0
41
1
10
109.08909055581
20
-2.87739123632434
30
0
41
1
10
109.046881699615
20
-2.87682601639867
30
0
41
1
10
109.032296691956
20
-2.87637387864771
30
0
41
1
10
109.009629281498
20
-2.87528012512914
30
0
41
1
10
109.001933034564
20
-2.87484525797169
30
0
41
1
10
108.986438205906
20
-2.87384414171675
30
0
41
1
10
108.978620515026
20
-2.87327713584446
30
0
41
1
10
108.939187964123
20
-2.8701120523198
30
0
41
1
10
108.906549941482
20
-2.86653199682956
30
0
41
1
10
108.855980822109
20
-2.85953263071224
30
0
41
1
10
108.838790018007
20
-2.85691536105838
30
0
41
1
10
108.804189068886
20
-2.85116182012052
30
0
41
1
10
108.786810696923
20
-2.84803291066012
30
0
41
1
10
108.769355790001
20
-2.84464865408066
30
0
0
SPLINE
5
137
100
AcDbEntity
8
1
62
256
6
ByLayer
370
18
48
1
60
0
100
AcDbSpline
70
4
71
3
72
8
73
4
40
0
40
0
40
0
40
0
40
1
40
1
40
1
40
1
41
1
10
108.750744922802
20
-2.84119842313973
30
0
41
1
10
108.756974835193
20
-2.84230065963524
30
0
41
1
10
108.763178312871
20
-2.84345092969781
30
0
41
1
10
108.769355790001
20
-2.84464865408066
30
0
0
SPLINE
5
138
100
AcDbEntity
8
1
62
256
6
ByLayer
370
18
48
1
60
0
100
AcDbSpline
70
4
71
3
72
23
73
19
40
0
40
0
40
0
40
0
40
0.124999999999979
40
0.124999999999979
40
0.187499999999969
40
0.187499999999969
40
0.249999999999959
40
0.249999999999959
40
0.499999999999918
40
0.499999999999918
40
0.562499999999928
40
0.562499999999928
40
0.624999999999939
40
0.624999999999939
40
0.749999999999959
40
0.87499999999998
40
0.87499999999998
40
1
40
1
40
1
40
1
41
1
10
101.059672951095
20
-4.06223908668386
30
0
41
1
10
101.019795633126
20
-4.04859111102243
30
0
41
1
10
100.979262345887
20
-4.03681878329741
30
0
41
1
10
100.917473664835
20
-4.02199051993074
30
0
41
1
10
100.89671224593
20
-4.01752060511029
30
0
41
1
10
100.854853274136
20
-4.00954329875958
30
0
41
1
10
100.833811362916
20
-4.00604918642904
30
0
41
1
10
100.728858339597
20
-3.99115685224123
30
0
41
1
10
100.644949196597
20
-3.98724895765921
30
0
41
1
10
100.540128753937
20
-3.99245126186551
30
0
41
1
10
100.519168047793
20
-3.99400188926438
30
0
41
1
10
100.47725373118
20
-3.99814962327659
30
0
41
1
10
100.45624966266
20
-4.00075457456697
30
0
41
1
10
100.393609975446
20
-4.01013907265212
30
0
41
1
10
100.31162169549
20
-4.02672431151314
30
0
41
1
10
100.232680657093
20
-4.05137708095572
30
0
41
1
10
100.155315623661
20
-4.0801760989786
30
0
41
1
10
100.117420546176
20
-4.09664736206227
30
0
41
1
10
100.080373946821
20
-4.11533374105804
30
0
0
SPLINE
5
139
100
AcDbEntity
8
1
62
256
6
ByLayer
370
18
48
1
60
0
100
AcDbSpline
70
4
71
3
72
12
73
8
40
0
40
0
40
0
40
0
40
0.499999999999995
40
0.499999999999995
40
0.749999999999997
40
0.749999999999997
40
1
40
1
40
1
40
1
41
1
10
101.450496936757
20
-3.0005028494534
30
0
41
1
10
101.373476768813
20
-3.1765014870245
30
0
41
1
10
101.300800154455
20
-3.35250542394152
30
0
41
1
10
101.201504044157
20
-3.61746738541518
30
0
41
1
10
101.170043854141
20
-3.70595290585021
30
0
41
1
10
101.111339709441
20
-3.88353284310179
30
0
41
1
10
101.084083493486
20
-3.97262350926383
30
0
41
1
10
101.059672951095
20
-4.06223908668383
30
0
0
SPLINE
5
13A
100
AcDbEntity
8
1
62
256
6
ByLayer
370
18
48
1
60
0
100
AcDbSpline
70
4
71
3
72
34
73
30
40
0
40
0
40
0
40
0
40
0.124999999999988
40
0.124999999999988
40
0.187499999999981
40
0.187499999999981
40
0.218749999999978
40
0.218749999999978
40
0.249999999999975
40
0.249999999999975
40
0.374999999999972
40
0.374999999999972
40
0.437499999999971
40
0.437499999999971
40
0.468749999999969
40
0.468749999999969
40
0.499999999999968
40
0.499999999999968
40
0.624999999999975
40
0.624999999999975
40
0.749999999999982
40
0.749999999999982
40
0.812499999999986
40
0.812499999999986
40
0.843749999999988
40
0.843749999999988
40
0.874999999999991
40
0.874999999999991
40
1
40
1
40
1
40
1
41
1
10
107.531764527369
20
6.33455795574682
30
0
41
1
10
107.60893528191
20
6.28379374147662
30
0
41
1
10
107.67913480701
20
6.22720625912231
30
0
41
1
10
107.775087928593
20
6.13425579353193
30
0
41
1
10
107.805504895011
20
6.10191948511644
30
0
41
1
10
107.848846860512
20
6.05140980722212
30
0
41
1
10
107.862913189433
20
6.03423869663598
30
0
41
1
10
107.89029054405
20
5.99922744525438
30
0
41
1
10
107.903547006767
20
5.98145482055622
30
0
41
1
10
107.96746557537
20
5.89168609330557
30
0
41
1
10
108.011389728634
20
5.81659880913375
30
0
41
1
10
108.067905660168
20
5.69949135512041
30
0
41
1
10
108.085173640741
20
5.6597060530811
30
0
41
1
10
108.108836174088
20
5.59893330188606
30
0
41
1
10
108.116360639623
20
5.57846209280692
30
0
41
1
10
108.130625786892
20
5.53731032281215
30
0
41
1
10
108.137357048908
20
5.51666150259715
30
0
41
1
10
108.169102093009
20
5.41306111180884
30
0
41
1
10
108.188416957967
20
5.32904416072361
30
0
41
1
10
108.21668542646
20
5.15888797469992
30
0
41
1
10
108.225627651504
20
5.07274764108087
30
0
41
1
10
108.232101575106
20
4.94200629503067
30
0
41
1
10
108.233098832604
20
4.89817028168321
30
0
41
1
10
108.232928080843
20
4.83203744639096
30
0
41
1
10
108.232592141661
20
4.80991362080161
30
0
41
1
10
108.231382951923
20
4.76575559154426
30
0
41
1
10
108.230510067514
20
4.74369680201261
30
0
41
1
10
108.224855022402
20
4.63349672549384
30
0
41
1
10
108.216218311383
20
4.54563432391995
30
0
41
1
10
108.203966511665
20
4.45800080905295
30
0
0
SPLINE
5
13B
100
AcDbEntity
8
1
62
256
6
ByLayer
370
18
48
1
60
0
100
AcDbSpline
70
4
71
3
72
8
73
4
40
0
40
0
40
0
40
0
40
1
40
1
40
1
40
1
41
1
10
106.334115661023
20
-2.41891213416619
30
0
41
1
10
107.140129592208
20
-2.55822463317452
30
0
41
1
10
107.945726467386
20
-2.69876933819674
30
0
41
1
10
108.750744922802
20
-2.84119842314004
30
0
0
SPLINE
5
13C
100
AcDbEntity
8
1
62
256
6
ByLayer
370
18
48
1
60
0
100
AcDbSpline
70
4
71
3
72
26
73
22
40
0
40
0
40
0
40
0
40
0.124999999999994
40
0.249999999999988
40
0.249999999999988
40
0.374999999999981
40
0.374999999999981
40
0.499999999999975
40
0.499999999999975
40
0.562499999999975
40
0.562499999999975
40
0.624999999999976
40
0.624999999999976
40
0.749999999999977
40
0.749999999999977
40
0.874999999999977
40
0.874999999999977
40
0.90624999999998
40
0.90624999999998
40
0.937499999999983
40
1
40
1
40
1
40
1
41
1
10
104.657810873778
20
4.49961801776067
30
0
41
1
10
104.670347536405
20
4.58914702911684
30
0
41
1
10
104.702303591729
20
4.76542328609924
30
0
41
1
10
104.748417189134
20
4.93615802725966
30
0
41
1
10
104.802029799273
20
5.10407550755124
30
0
41
1
10
104.832583260242
20
5.18662609770098
30
0
41
1
10
104.901874191069
20
5.34879859967998
30
0
41
1
10
104.940606759052
20
5.42842159769921
30
0
41
1
10
105.005634621313
20
5.54551046201576
30
0
41
1
10
105.028534252358
20
5.58424220883219
30
0
41
1
10
105.076263258766
20
5.66002036173694
30
0
41
1
10
105.101132165095
20
5.69715054388041
30
0
41
1
10
105.178844301267
20
5.80623963881419
30
0
41
1
10
105.234779847305
20
5.87590524520905
30
0
41
1
10
105.355666152243
20
6.0088138997358
30
0
41
1
10
105.420608089638
20
6.07206213460677
30
0
41
1
10
105.508213444191
20
6.14672379184893
30
0
41
1
10
105.526056177323
20
6.16143218199963
30
0
41
1
10
105.56222165066
20
6.19024508787206
30
0
41
1
10
105.617257132422
20
6.23261595459687
30
0
41
1
10
105.674703384754
20
6.27240963051474
30
0
41
1
10
105.714133194733
20
6.29774747893271
30
0
0
SPLINE
5
13D
100
AcDbEntity
8
1
62
256
6
ByLayer
370
18
48
1
60
0
100
AcDbSpline
70
4
71
3
72
8
73
4
40
0
40
0
40
0
40
0
40
1
40
1
40
1
40
1
41
1
10
103.344280741792
20
-1.97274218846016
30
0
41
1
10
104.326751035881
20
-2.11373403948485
30
0
41
1
10
105.308304539354
20
-2.26077801185204
30
0
41
1
10
106.289228271359
20
-2.4115822360971
30
0
0
SPLINE
5
13E
100
AcDbEntity
8
1
62
256
6
ByLayer
370
18
48
1
60
0
100
AcDbSpline
70
4
71
3
72
8
73
4
40
0
40
0
40
0
40
0
40
1
40
1
40
1
40
1
41
1
10
106.289228271359
20
-2.41158223609716
30
0
41
1
10
106.304228344074
20
-2.41388830154926
30
0
41
1
10
106.319190598394
20
-2.41633246687744
30
0
41
1
10
106.334115661023
20
-2.41891213416648
30
0
0
SPLINE
5
13F
100
AcDbEntity
8
1
62
256
6
ByLayer
370
18
48
1
60
0
100
AcDbSpline
70
4
71
3
72
22
73
18
40
0
40
0
40
0
40
0
40
0.256246132067096
40
0.256246132067096
40
0.384369198100645
40
0.384369198100645
40
0.448430731117419
40
0.448430731117419
40
0.512492264134193
40
0.512492264134193
40
0.768738396201369
40
0.768738396201369
40
0.896861462234957
40
0.896861462234957
40
0.960922995251769
40
0.960922995251769
40
1
40
1
40
1
40
1
41
1
10
97.4402562722206
20
6.54628631902199
30
0
41
1
10
97.3562829310152
20
6.56553378001627
30
0
41
1
10
97.2724555437864
20
6.58079052098881
30
0
41
1
10
97.1470922552523
20
6.59972922262307
30
0
41
1
10
97.1053682056962
20
6.60537603524469
30
0
41
1
10
97.0429037315426
20
6.61304145390235
30
0
41
1
10
97.0221025382145
20
6.61546205666636
30
0
41
1
10
96.980545566516
20
6.620062527594
30
0
41
1
10
96.9597442765621
20
6.62224679767195
30
0
41
1
10
96.8565227958274
20
6.63256752707878
30
0
41
1
10
96.7765047443351
20
6.63893670605364
30
0
41
1
10
96.6603548723222
20
6.64697620653644
30
0
41
1
10
96.6222896755464
20
6.64939774469929
30
0
41
1
10
96.5662223805574
20
6.65276726185283
30
0
41
1
10
96.5477053516111
20
6.65384625738466
30
0
41
1
10
96.5181808133408
20
6.65552653402622
30
0
41
1
10
96.5070624808617
20
6.65614988229964
30
0
41
1
10
96.4960528885301
20
6.6567598145231
30
0
0
SPLINE
5
140
100
AcDbEntity
8
1
62
256
6
ByLayer
370
18
48
1
60
0
100
AcDbSpline
70
4
71
3
72
8
73
4
40
0
40
0
40
0
40
0
40
1
40
1
40
1
40
1
41
1
10
98.0624353246891
20
6.42021705536465
30
0
41
1
10
97.8542696142772
20
6.45685323094008
30
0
41
1
10
97.6468836410236
20
6.49892542847871
30
0
41
1
10
97.4402562722206
20
6.54628631902199
30
0
0
SPLINE
5
141
100
AcDbEntity
8
1
62
256
6
ByLayer
370
18
48
1
60
0
100
AcDbSpline
70
4
71
3
72
14
73
10
40
0
40
0
40
0
40
0
40
0.162456528205498
40
0.162456528205498
40
0.371842396154123
40
0.371842396154123
40
0.581228264102749
40
0.581228264102749
40
1
40
1
40
1
40
1
41
1
10
98.5937481090141
20
6.30257454917225
30
0
41
1
10
98.5661731867506
20
6.31047572383059
30
0
41
1
10
98.538294802814
20
6.31806728364782
30
0
41
1
10
98.4738721809148
20
6.33482617500283
30
0
41
1
10
98.4370802484825
20
6.34382763940752
30
0
41
1
10
98.3630760123483
20
6.36098864986141
30
0
41
1
10
98.3258769344626
20
6.36914765339904
30
0
41
1
10
98.2137722136703
20
6.39259180504885
30
0
41
1
10
98.1383635313304
20
6.4068540518991
30
0
41
1
10
98.0624353246891
20
6.42021705536465
30
0
0
SPLINE
5
142
100
AcDbEntity
8
1
62
256
6
ByLayer
370
18
48
1
60
0
100
AcDbSpline
70
4
71
3
72
29
73
25
40
0
40
0
40
0
40
0
40
0.134661976699684
40
0.134661976699684
40
0.269323953399369
40
0.269323953399369
40
0.403985930099053
40
0.403985930099053
40
0.437651424273974
40
0.437651424273974
40
0.471316918448896
40
0.538647906798738
40
0.538647906798738
40
0.673309883498423
40
0.673309883498423
40
0.740640871848265
40
0.740640871848265
40
0.774306366023186
40
0.774306366023186
40
0.807971860198108
40
0.807971860198108
40
0.942633836897808
40
0.942633836897808
40
1
40
1
40
1
40
1
41
1
10
98.8594844052873
20
7.66182989897652
30
0
41
1
10
98.841202455297
20
7.58502307923789
30
0
41
1
10
98.8232601533159
20
7.50992550906972
30
0
41
1
10
98.789475812707
20
7.36282611501343
30
0
41
1
10
98.7736342238714
20
7.29083003794784
30
0
41
1
10
98.7459407658064
20
7.1496211527562
30
0
41
1
10
98.7340832595109
20
7.0804115764735
30
0
41
1
10
98.7230734271743
20
6.99545379658585
30
0
41
1
10
98.7210610055054
20
6.97851507508668
30
0
41
1
10
98.7174780482352
20
6.94501840009414
30
0
41
1
10
98.7127569084614
20
6.89527745994323
30
0
41
1
10
98.7100872169708
20
6.8470145216512
30
0
41
1
10
98.7077525102833
20
6.75235692546792
30
0
41
1
10
98.7102030335574
20
6.6917338788659
30
0
41
1
10
98.7209896039462
20
6.60418818538972
30
0
41
1
10
98.7257716605922
20
6.57557192604676
30
0
41
1
10
98.7348922583309
20
6.53345385286784
30
0
41
1
10
98.738250877465
20
6.51958458012152
30
0
41
1
10
98.7455759516978
20
6.49232800399582
30
0
41
1
10
98.7495474151312
20
6.47891686554178
30
0
41
1
10
98.770962622044
20
6.41290454778817
30
0
41
1
10
98.7930637463759
20
6.36342927356804
30
0
41
1
10
98.8320563247781
20
6.29694831438471
30
0
41
1
10
98.8446580380225
20
6.27760715916426
30
0
41
1
10
98.8582425068134
20
6.25875513577208
30
0
0
SPLINE
5
143
100
AcDbEntity
8
1
62
256
6
ByLayer
370
18
48
1
60
0
100
AcDbSpline
70
4
71
3
72
16
73
12
40
0
40
0
40
0
40
0
40
0.500000000000023
40
0.625000000000022
40
0.687500000000018
40
0.687500000000018
40
0.750000000000014
40
0.750000000000014
40
0.875000000000007
40
0.875000000000007
40
1
40
1
40
1
40
1
41
1
10
98.9759824027786
20
8.43003299110427
30
0
41
1
10
98.957924141948
20
8.30157449073613
30
0
41
1
10
98.935447861685
20
8.1409793235263
30
0
41
1
10
98.9108445662082
20
7.96429674813413
30
0
41
1
10
98.904144243751
20
7.91610836161007
30
0
41
1
10
98.8996794429982
20
7.88398229009775
30
0
41
1
10
98.8974741473161
20
7.86791122829663
30
0
41
1
10
98.8906834932288
20
7.81975010744998
30
0
41
1
10
98.8855084470604
20
7.78783518797292
30
0
41
1
10
98.8736086761799
20
7.72447184992956
30
0
41
1
10
98.86690432397
20
7.69300274197417
30
0
41
1
10
98.8594844052873
20
7.66182989897666
30
0
0
SPLINE
5
144
100
AcDbEntity
8
1
62
256
6
ByLayer
370
18
48
1
60
0
100
AcDbSpline
70
4
71
3
72
9
73
5
40
0
40
0
40
0
40
0
40
0.5
40
1
40
1
40
1
40
1
41
1
10
99.1588267140109
20
9.11533730007315
30
0
41
1
10
99.1144395608606
20
9.00407589718563
30
0
41
1
10
99.0396660950717
20
8.77858980370036
30
0
41
1
10
98.9924584520911
20
8.54723633680015
30
0
41
1
10
98.9759824027778
20
8.43003299110453
30
0
0
SPLINE
5
145
100
AcDbEntity
8
1
62
256
6
ByLayer
370
18
48
1
60
0
100
AcDbSpline
70
4
71
3
72
8
73
4
40
0
40
0
40
0
40
0
40
1
40
1
40
1
40
1
41
1
10
100.072661521473
20
11.4166100461617
30
0
41
1
10
99.7694421933637
20
10.6488221560853
30
0
41
1
10
99.4646191190502
20
9.88184043357853
30
0
41
1
10
99.1588267140107
20
9.11533730007272
30
0
0
SPLINE
5
146
100
AcDbEntity
8
1
62
256
6
ByLayer
370
18
48
1
60
0
100
AcDbSpline
70
4
71
3
72
8
73
4
40
0
40
0
40
0
40
0
40
1
40
1
40
1
40
1
41
1
10
100.072661521473
20
11.4166100461662
30
0
41
1
10
100.021608760956
20
11.4098211835538
30
0
41
1
10
99.9705093111852
20
11.4049057288263
30
0
41
1
10
99.9193643275476
20
11.4018552575601
30
0
0
SPLINE
5
147
100
AcDbEntity
8
1
62
256
6
ByLayer
370
18
48
1
60
0
100
AcDbSpline
70
4
71
3
72
147
73
143
40
0
40
0
40
0
40
0
40
0.015625000000005
40
0.015625000000005
40
0.0312500000000101
40
0.0312500000000101
40
0.0390625000000126
40
0.0390625000000126
40
0.0468750000000151
40
0.0468750000000151
40
0.0625000000000202
40
0.0625000000000202
40
0.0703125000000221
40
0.0703125000000221
40
0.078125000000024
40
0.078125000000024
40
0.0937500000000278
40
0.0937500000000278
40
0.125000000000037
40
0.125000000000037
40
0.156250000000045
40
0.156250000000045
40
0.187500000000054
40
0.187500000000054
40
0.195312500000056
40
0.195312500000056
40
0.203125000000058
40
0.203125000000058
40
0.218750000000061
40
0.218750000000061
40
0.250000000000068
40
0.250000000000068
40
0.281250000000076
40
0.281250000000076
40
0.296875000000079
40
0.296875000000079
40
0.30468750000008
40
0.30468750000008
40
0.312500000000081
40
0.312500000000081
40
0.343750000000086
40
0.343750000000086
40
0.375000000000091
40
0.375000000000091
40
0.382812500000091
40
0.382812500000091
40
0.390625000000092
40
0.406250000000094
40
0.406250000000094
40
0.437500000000097
40
0.437500000000097
40
0.453125000000099
40
0.453125000000099
40
0.4609375000001
40
0.4609375000001
40
0.4648437500001
40
0.4648437500001
40
0.468750000000101
40
0.468750000000101
40
0.500000000000104
40
0.500000000000104
40
0.531250000000108
40
0.531250000000108
40
0.539062500000108
40
0.539062500000108
40
0.546875000000109
40
0.546875000000109
40
0.562500000000111
40
0.562500000000111
40
0.593750000000115
40
0.593750000000115
40
0.609375000000117
40
0.609375000000117
40
0.617187500000118
40
0.617187500000118
40
0.625000000000119
40
0.625000000000119
40
0.628906250000119
40
0.628906250000119
40
0.63281250000012
40
0.63281250000012
40
0.63671875000012
40
0.63671875000012
40
0.640625000000121
40
0.656250000000123
40
0.656250000000123
40
0.658203125000123
40
0.658203125000123
40
0.660156250000124
40
0.660156250000124
40
0.664062500000125
40
0.671875000000127
40
0.671875000000127
40
0.687500000000131
40
0.687500000000131
40
0.695312500000133
40
0.695312500000133
40
0.699218750000133
40
0.699218750000133
40
0.703125000000134
40
0.703125000000134
40
0.718750000000136
40
0.718750000000136
40
0.734375000000138
40
0.734375000000138
40
0.742187500000138
40
0.742187500000138
40
0.746093750000138
40
0.746093750000138
40
0.750000000000138
40
0.750000000000138
40
0.765625000000135
40
0.765625000000135
40
0.781250000000132
40
0.781250000000132
40
0.78906250000013
40
0.78906250000013
40
0.796875000000128
40
0.796875000000128
40
0.812500000000122
40
0.812500000000122
40
0.82031250000012
40
0.82031250000012
40
0.828125000000117
40
0.828125000000117
40
0.830078125000115
40
0.830078125000115
40
0.832031250000114
40
0.832031250000114
40
0.835937500000111
40
0.835937500000111
40
0.843750000000106
40
0.843750000000106
40
0.875000000000085
40
0.875000000000085
40
0.906250000000064
40
0.906250000000064
40
0.937500000000042
40
0.937500000000042
40
0.968750000000021
40
0.968750000000021
40
1
40
1
40
1
40
1
41
1
10
99.9193643275476
20
6.1910716605619
30
0
41
1
10
99.7532214314158
20
6.19770342889547
30
0
41
1
10
99.5872158399548
20
6.20632841429105
30
0
41
1
10
99.2555749274564
20
6.22817018321507
30
0
41
1
10
99.0901356875567
20
6.24131157915397
30
0
41
1
10
98.8425962002086
20
6.26460544700052
30
0
41
1
10
98.7601907137354
20
6.272992879702
30
0
41
1
10
98.5956061551455
20
6.29107152496604
30
0
41
1
10
98.5134200593065
20
6.30072171443041
30
0
41
1
10
98.2671332400172
20
6.33122093900508
30
0
41
1
10
98.1033205942609
20
6.3537159856692
30
0
41
1
10
97.8581910718886
20
6.39078226211177
30
0
41
1
10
97.7765791433206
20
6.40368961057624
30
0
41
1
10
97.61355166389
20
6.43060257767931
30
0
41
1
10
97.5321027723996
20
6.4446142057499
30
0
41
1
10
97.288281459273
20
6.48823816549816
30
0
41
1
10
97.126673635069
20
6.51938419980937
30
0
41
1
10
96.6446761332521
20
6.61889322183004
30
0
41
1
10
96.3271163005077
20
6.69334450172292
30
0
41
1
10
95.6998755631996
20
6.85833906791518
30
0
41
1
10
95.3902044307518
20
6.94890715555294
30
0
41
1
10
94.7792860296775
20
7.14618129435806
30
0
41
1
10
94.4780741499392
20
7.25296836720111
30
0
41
1
10
94.1072568164495
20
7.39652274057423
30
0
41
1
10
94.0333780239098
20
7.42573564038915
30
0
41
1
10
93.8861999001503
20
7.48515895774057
30
0
41
1
10
93.8128446629093
20
7.5153928404562
30
0
41
1
10
93.5940501721682
20
7.6074184611833
30
0
41
1
10
93.4503095740755
20
7.67034892663838
30
0
41
1
10
93.0255485593014
20
7.86359363491312
30
0
41
1
10
92.7509651182745
20
7.99835458205729
30
0
41
1
10
92.2200485404323
20
8.27844774946675
30
0
41
1
10
91.9637330442104
20
8.42380673127789
30
0
41
1
10
91.5942480614158
20
8.64881399423115
30
0
41
1
10
91.4735865385869
20
8.724974092678
30
0
41
1
10
91.2965370383532
20
8.84079362154677
30
0
41
1
10
91.2380923926029
20
8.87972233277102
30
0
41
1
10
91.1231840478677
20
8.9576445759628
30
0
41
1
10
91.0666774732061
20
8.99666389030176
30
0
41
1
10
90.7888928015569
20
9.19193072642787
30
0
41
1
10
90.5818422837406
20
9.34870134785882
30
0
41
1
10
90.1986012814519
20
9.66008529837498
30
0
41
1
10
90.0224070790023
20
9.81470913729257
30
0
41
1
10
89.8222247797614
20
10.0043781479774
30
0
41
1
10
89.7831783102228
20
10.0421446297732
30
0
41
1
10
89.7071831332358
20
10.1171900314548
30
0
41
1
10
89.5969511559902
20
10.228419003532
30
0
41
1
10
89.4977673673611
20
10.3354307266662
30
0
41
1
10
89.3135990689031
20
10.5433004414665
30
0
41
1
10
89.2097199258646
20
10.6736821609361
30
0
41
1
10
89.0807070040499
20
10.8547739708164
30
0
41
1
10
89.0421798931879
20
10.9127233489955
30
0
41
1
10
88.9909889472002
20
10.9957318208597
30
0
41
1
10
88.975025708838
20
11.0227485060426
30
0
41
1
10
88.952721353708
20
11.062255433089
30
0
41
1
10
88.9455546654799
20
11.0752647401625
30
0
41
1
10
88.9317923729974
20
11.1008895626063
30
0
41
1
10
88.9252038367975
20
11.1134913027577
30
0
41
1
10
88.8684906472787
20
11.2250123583882
30
0
41
1
10
88.8363683295184
20
11.3106897463636
30
0
41
1
10
88.8042164771232
20
11.4550265778308
30
0
41
1
10
88.8041995368843
20
11.5136880231194
30
0
41
1
10
88.8225585015503
20
11.569732417511
30
0
41
1
10
88.8271531949354
20
11.5800757985522
30
0
41
1
10
88.8381612921533
20
11.5990158824482
30
0
41
1
10
88.844554493063
20
11.6075761589378
30
0
41
1
10
88.8662794348672
20
11.6305408790194
30
0
41
1
10
88.8841612903767
20
11.6422458844852
30
0
41
1
10
88.9473334587209
20
11.6668595354057
30
0
41
1
10
89.0021034442052
20
11.669288572098
30
0
41
1
10
89.1015483627916
20
11.6527621705479
30
0
41
1
10
89.1375925395901
20
11.6438859773719
30
0
41
1
10
89.1958827085367
20
11.6255736044651
30
0
41
1
10
89.2160168511333
20
11.6186361582776
30
0
41
1
10
89.2576782535882
20
11.6030998998558
30
0
41
1
10
89.2792158699587
20
11.5944938197864
30
0
41
1
10
89.3124329499033
20
11.580405745309
30
0
41
1
10
89.3236629974969
20
11.5755116212913
30
0
41
1
10
89.3464409496601
20
11.5653315329034
30
0
41
1
10
89.3580106929168
20
11.5600467915546
30
0
41
1
10
89.3813253636635
20
11.5490816896979
30
0
41
1
10
89.3929908830708
20
11.5433955288895
30
0
41
1
10
89.4183963588069
20
11.5317444060772
30
0
41
1
10
89.4866712404927
20
11.5019003544039
30
0
41
1
10
89.5777685950696
20
11.4687090766691
30
0
41
1
10
89.6755627522357
20
11.4371014041996
30
0
41
1
10
89.6866495783698
20
11.4335653184017
30
0
41
1
10
89.7092640627011
20
11.4264471753921
30
0
41
1
10
89.7208065592743
20
11.4228606592429
30
0
41
1
10
89.7558984555552
20
11.4120953850526
30
0
41
1
10
89.8280725110735
20
11.3904983492915
30
0
41
1
10
89.9059283642981
20
11.3687956004184
30
0
41
1
10
90.0686320625604
20
11.3254731683093
30
0
41
1
10
90.1863546480915
20
11.2966986121671
30
0
41
1
10
90.3754069517124
20
11.2544897023771
30
0
41
1
10
90.4405082078703
20
11.2405766020356
30
0
41
1
10
90.5411869842985
20
11.2200336192048
30
0
41
1
10
90.5753148518586
20
11.2132283080005
30
0
41
1
10
90.6442452813733
20
11.1998062401035
30
0
41
1
10
90.6790104683946
20
11.1931963242366
30
0
41
1
10
90.8542726906288
20
11.1606682630446
30
0
41
1
10
90.9990423569662
20
11.1363091284601
30
0
41
1
10
91.2967094410934
20
11.0914021568222
30
0
41
1
10
91.4495984013394
20
11.0708434084266
30
0
41
1
10
91.6846699985156
20
11.0432160255929
30
0
41
1
10
91.7639872093377
20
11.0345423438729
30
0
41
1
10
91.8843810221673
20
11.0223786466578
30
0
41
1
10
91.9247407417534
20
11.0184667026738
30
0
41
1
10
92.005514601625
20
11.0109703136075
30
0
41
1
10
92.045980463553
20
11.0073805229041
30
0
41
1
10
92.2486975819877
20
10.9902291033713
30
0
41
1
10
92.4121058074081
20
10.9790542258017
30
0
41
1
10
92.7412617603884
20
10.9618942921222
30
0
41
1
10
92.9070144901781
20
10.9559192993977
30
0
41
1
10
93.1573899160022
20
10.9509766280031
30
0
41
1
10
93.2411412359557
20
10.9500017524813
30
0
41
1
10
93.4092371333767
20
10.9494229118795
30
0
41
1
10
93.4932229082815
20
10.9498197535355
30
0
41
1
10
93.7446226700262
20
10.9530492572018
30
0
41
1
10
93.9116411850845
20
10.9579262731764
30
0
41
1
10
94.1612872110304
20
10.9692508184286
30
0
41
1
10
94.244409722631
20
10.9736996274421
30
0
41
1
10
94.4097289412637
20
10.9838845030789
30
0
41
1
10
94.4919943135783
20
10.9896202693389
30
0
41
1
10
94.5943293305598
20
10.9975698761408
30
0
41
1
10
94.6147729990743
20
10.999200015791
30
0
41
1
10
94.6555923516853
20
11.002547561282
30
0
41
1
10
94.6759654647451
20
11.0042671913504
30
0
41
1
10
94.7371034890452
20
11.0093908365349
30
0
41
1
10
94.7778537669998
20
11.0128046648722
30
0
41
1
10
94.900082699257
20
11.0230353387448
30
0
41
1
10
94.9815378194867
20
11.0298432450036
30
0
41
1
10
95.388655019607
20
11.0638094143184
30
0
41
1
10
95.713862233174
20
11.0907510992165
30
0
41
1
10
96.3631944724872
20
11.1438864530506
30
0
41
1
10
96.6873180098612
20
11.1700805224185
30
0
41
1
10
97.3346370297583
20
11.2213255886002
30
0
41
1
10
97.6578162459754
20
11.2463874674154
30
0
41
1
10
98.3037485917646
20
11.2947121496356
30
0
41
1
10
98.6265247589369
20
11.3179498761045
30
0
41
1
10
99.272512052723
20
11.3618693874684
30
0
41
1
10
99.5957181949526
20
11.3825518350599
30
0
41
1
10
99.9193643275476
20
11.4018552575601
30
0
0
SPLINE
5
148
100
AcDbEntity
8
1
62
256
6
ByLayer
370
18
48
1
60
0
100
AcDbSpline
70
4
71
3
72
8
73
4
40
0
40
0
40
0
40
0
40
1
40
1
40
1
40
1
41
1
10
99.9193643275476
20
6.1910716605619
30
0
41
1
10
99.9731789423686
20
6.18892359364625
30
0
41
1
10
100.026848596192
20
6.18716294661115
30
0
41
1
10
100.080373946821
20
6.18578112663175
30
0
0
SPLINE
5
149
100
AcDbEntity
8
1
62
256
6
ByLayer
370
18
48
1
60
0
100
AcDbSpline
70
4
71
3
72
16
73
12
40
0
40
0
40
0
40
0
40
0.250000000000007
40
0.250000000000007
40
0.500000000000014
40
0.500000000000014
40
0.625000000000011
40
0.625000000000011
40
0.750000000000007
40
0.750000000000007
40
1
40
1
40
1
40
1
41
1
10
102.947635554694
20
6.23332792746359
30
0
41
1
10
102.708521308952
20
6.2257222464024
30
0
41
1
10
102.46939557405
20
6.21720997809476
30
0
41
1
10
101.991157220839
20
6.20120377090507
30
0
41
1
10
101.752023747327
20
6.19362144871008
30
0
41
1
10
101.393469469651
20
6.1851232118012
30
0
41
1
10
101.273971376412
20
6.18269127991451
30
0
41
1
10
101.035058465324
20
6.17949085406156
30
0
41
1
10
100.915627987592
20
6.1784079326836
30
0
41
1
10
100.557451487078
20
6.17743481699659
30
0
41
1
10
100.318810366534
20
6.17962560957847
30
0
41
1
10
100.080373946821
20
6.18578112663175
30
0
0
SPLINE
5
14A
100
AcDbEntity
8
1
62
256
6
ByLayer
370
18
48
1
60
0
100
AcDbSpline
70
4
71
3
72
8
73
4
40
0
40
0
40
0
40
0
40
1
40
1
40
1
40
1
41
1
10
103.077707115747
20
6.23695838502627
30
0
41
1
10
103.03428419363
20
6.23591770391388
30
0
41
1
10
102.990927011104
20
6.23470493036487
30
0
41
1
10
102.947635554694
20
6.23332792746359
30
0
0
SPLINE
5
14B
100
AcDbEntity
8
1
62
256
6
ByLayer
370
18
48
1
60
0
100
AcDbSpline
70
4
71
3
72
13
73
9
40
0
40
0
40
0
40
0
40
0.500000000000016
40
0.500000000000016
40
0.750000000000016
40
0.875000000000008
40
0.875000000000008
40
1
40
1
40
1
40
1
41
1
10
105.714133194733
20
6.29774747893237
30
0
41
1
10
105.274728570865
20
6.28762606158148
30
0
41
1
10
104.835323998592
20
6.277503810529
30
0
41
1
10
104.176217235484
20
6.26231833098839
30
0
41
1
10
103.846663909344
20
6.25472353338463
30
0
41
1
10
103.517110450661
20
6.24713610546004
30
0
41
1
10
103.297408266191
20
6.24207214831134
30
0
41
1
10
103.187556126497
20
6.23959104503911
30
0
41
1
10
103.077707115747
20
6.23695838502627
30
0
0
SPLINE
5
14C
100
AcDbEntity
8
1
62
256
6
ByLayer
370
18
48
1
60
0
100
AcDbSpline
70
4
71
3
72
31
73
27
40
0
40
0
40
0
40
0
40
0.12500000000003
40
0.12500000000003
40
0.25000000000006
40
0.25000000000006
40
0.281250000000063
40
0.281250000000063
40
0.312500000000066
40
0.375000000000051
40
0.375000000000051
40
0.500000000000021
40
0.500000000000021
40
0.562500000000006
40
0.562500000000006
40
0.624999999999991
40
0.624999999999991
40
0.749999999999939
40
0.749999999999939
40
0.781249999999937
40
0.781249999999937
40
0.812499999999934
40
0.812499999999934
40
0.87499999999995
40
0.87499999999995
40
1
40
1
40
1
40
1
41
1
10
105.714133194733
20
6.29774747893234
30
0
41
1
10
105.779235294187
20
6.29534058082365
30
0
41
1
10
105.847273376789
20
6.29344879375785
30
0
41
1
10
105.989130846413
20
6.29067952122014
30
0
41
1
10
106.062949529531
20
6.28980191226955
30
0
41
1
10
106.158986992371
20
6.28936528418771
30
0
41
1
10
106.178330103276
20
6.2893115029039
30
0
41
1
10
106.217065338503
20
6.28927067659757
30
0
41
1
10
106.275340563048
20
6.28930911466421
30
0
41
1
10
106.334123227348
20
6.28964098897507
30
0
41
1
10
106.452349025427
20
6.29068666257979
30
0
41
1
10
106.532043892315
20
6.29189130119047
30
0
41
1
10
106.652894820252
20
6.29445497678077
30
0
41
1
10
106.693487494234
20
6.29543942138619
30
0
41
1
10
106.773878101606
20
6.29762865797022
30
0
41
1
10
106.813819135527
20
6.29883592157037
30
0
41
1
10
106.93290828946
20
6.30278285984755
30
0
41
1
10
107.011325599507
20
6.30584629177565
30
0
41
1
10
107.108170897957
20
6.31019670742128
30
0
41
1
10
107.127480888783
20
6.31109295844513
30
0
41
1
10
107.165982822826
20
6.31293775623894
30
0
41
1
10
107.185201643208
20
6.31388768343118
30
0
41
1
10
107.242486481428
20
6.31680614676566
30
0
41
1
10
107.28004959596
20
6.31883617750381
30
0
41
1
10
107.390943495768
20
6.32516800491513
30
0
41
1
10
107.462486279267
20
6.32971053472977
30
0
41
1
10
107.531764527367
20
6.33455795575634
30
0
0
SPLINE
5
14D
100
AcDbEntity
8
1
62
256
6
ByLayer
370
18
48
1
60
0
100
AcDbSpline
70
4
71
3
72
8
73
4
40
0
40
0
40
0
40
0
40
1
40
1
40
1
40
1
41
1
10
108.750744922802
20
6.35756845012236
30
0
41
1
10
108.344419928841
20
6.34990062441588
30
0
41
1
10
107.938093109781
20
6.34223059812032
30
0
41
1
10
107.531764527368
20
6.33455795575574
30
0
0
SPLINE
5
14E
100
AcDbEntity
8
1
62
256
6
ByLayer
370
18
48
1
60
0
100
AcDbSpline
70
4
71
3
72
32
73
28
40
0
40
0
40
0
40
0
40
0.124999999999934
40
0.124999999999934
40
0.249999999999867
40
0.249999999999867
40
0.281249999999845
40
0.281249999999845
40
0.312499999999823
40
0.374999999999796
40
0.374999999999796
40
0.499999999999747
40
0.499999999999747
40
0.531249999999734
40
0.531249999999734
40
0.562499999999722
40
0.624999999999732
40
0.624999999999732
40
0.749999999999752
40
0.749999999999752
40
0.781249999999767
40
0.781249999999767
40
0.812499999999781
40
0.874999999999854
40
0.937499999999927
40
0.937499999999927
40
1
40
1
40
1
40
1
41
1
10
109.284345931868
20
6.31640046023117
30
0
41
1
10
109.285308833489
20
6.3196249494903
30
0
41
1
10
109.283109398231
20
6.32274038906843
30
0
41
1
10
109.272588183919
20
6.32876014911051
30
0
41
1
10
109.264268159015
20
6.33166453003921
30
0
41
1
10
109.249766377262
20
6.33515356573088
30
0
41
1
10
109.246657911639
20
6.33584415736752
30
0
41
1
10
109.240085507461
20
6.3371969904459
30
0
41
1
10
109.229672012257
20
6.33918902749357
30
0
41
1
10
109.217605551709
20
6.34107021173452
30
0
41
1
10
109.191245672488
20
6.34468323411582
30
0
41
1
10
109.170727821413
20
6.34689444265112
30
0
41
1
10
109.14099864877
20
6.34938471327203
30
0
41
1
10
109.134826981863
20
6.34987032469678
30
0
41
1
10
109.122184027987
20
6.35080326814145
30
0
41
1
10
109.102758034939
20
6.35214682521308
30
0
41
1
10
109.081955891644
20
6.35332384110785
30
0
41
1
10
109.038489416262
20
6.355452511458
30
0
41
1
10
109.007053184429
20
6.35657408841976
30
0
41
1
10
108.964282955119
20
6.35755552255958
30
0
41
1
10
108.955579758218
20
6.35772974819258
30
0
41
1
10
108.938059770327
20
6.35803034317047
30
0
41
1
10
108.911529783873
20
6.35841124474439
30
0
41
1
10
108.866072754031
20
6.3586988238668
30
0
41
1
10
108.828364899117
20
6.35855311668487
30
0
41
1
10
108.789952651655
20
6.35821020729495
30
0
41
1
10
108.770355109128
20
6.3579385171698
30
0
41
1
10
108.750744922802
20
6.35756845012236
30
0
0
SPLINE
5
14F
100
AcDbEntity
8
1
62
256
6
ByLayer
370
18
48
1
60
0
100
AcDbSpline
70
4
71
3
72
42
73
38
40
0
40
0
40
0
40
0
40
0.124999999999997
40
0.124999999999997
40
0.156249999999996
40
0.156249999999996
40
0.187499999999996
40
0.187499999999996
40
0.249999999999994
40
0.312499999999992
40
0.312499999999992
40
0.374999999999991
40
0.374999999999991
40
0.406249999999992
40
0.406249999999992
40
0.437499999999993
40
0.437499999999993
40
0.49999999999999
40
0.49999999999999
40
0.562499999999987
40
0.562499999999987
40
0.624999999999984
40
0.624999999999984
40
0.687499999999981
40
0.687499999999981
40
0.749999999999978
40
0.749999999999978
40
0.812499999999975
40
0.812499999999975
40
0.828124999999974
40
0.828124999999974
40
0.843749999999973
40
0.874999999999983
40
0.874999999999983
40
0.937499999999992
40
0.937499999999992
40
1
40
1
40
1
40
1
41
1
10
104.507590353139
20
3.45155164269389
30
0
41
1
10
104.487762173186
20
3.31623025510697
30
0
41
1
10
104.478812012634
20
3.17950587106222
30
0
41
1
10
104.482112780247
20
3.00675724289837
30
0
41
1
10
104.483504102204
20
2.97211488892543
30
0
41
1
10
104.487800274849
20
2.90264065394484
30
0
41
1
10
104.49071240593
20
2.86774260562373
30
0
41
1
10
104.501765351593
20
2.76322392161214
30
0
41
1
10
104.522559437679
20
2.62513596588579
30
0
41
1
10
104.555687114659
20
2.48968146689202
30
0
41
1
10
104.595268457124
20
2.35563554050418
30
0
41
1
10
104.618284480453
20
2.28931646406466
30
0
41
1
10
104.658024907131
20
2.19100525141718
30
0
41
1
10
104.67217026901
20
2.1583716167377
30
0
41
1
10
104.702172114131
20
2.09377731668428
30
0
41
1
10
104.717942735772
20
2.06199382948617
30
0
41
1
10
104.767566525507
20
1.96819287298814
30
0
41
1
10
104.803725544464
20
1.90772070601901
30
0
41
1
10
104.882351651531
20
1.79104167879402
30
0
41
1
10
104.924817146787
20
1.73483365272941
30
0
41
1
10
105.01642261436
20
1.62697145528173
30
0
41
1
10
105.065559066129
20
1.57531476240734
30
0
41
1
10
105.171157994141
20
1.47704398225295
30
0
41
1
10
105.226385425386
20
1.43158932640455
30
0
41
1
10
105.341538529243
20
1.34809908973958
30
0
41
1
10
105.40148147662
20
1.31004581251048
30
0
41
1
10
105.526238784496
20
1.24157134480009
30
0
41
1
10
105.591050961998
20
1.21114667926673
30
0
41
1
10
105.675337979503
20
1.17825969303453
30
0
41
1
10
105.692330148869
20
1.17195353071568
30
0
41
1
10
105.726352230547
20
1.1599666926725
30
0
41
1
10
105.777541010487
20
1.14288586762657
30
0
41
1
10
105.829191025072
20
1.12847232595169
30
0
41
1
10
105.933097741179
20
1.1031583355167
30
0
41
1
10
106.003175389342
20
1.09095284588912
30
0
41
1
10
106.144957789714
20
1.07598077167225
30
0
41
1
10
106.216662046778
20
1.07321133367913
30
0
41
1
10
106.289228271359
20
1.07544417915076
30
0
0
SPLINE
5
150
100
AcDbEntity
8
1
62
256
6
ByLayer
370
18
48
1
60
0
100
AcDbSpline
70
4
71
3
72
8
73
4
40
0
40
0
40
0
40
0
40
1
40
1
40
1
40
1
41
1
10
106.289228271359
20
1.07544417915074
30
0
41
1
10
106.304213538266
20
1.07590527224946
30
0
41
1
10
106.319175951958
20
1.07671005297198
30
0
41
1
10
106.334115661023
20
1.07785635838062
30
0
0
SPLINE
5
151
100
AcDbEntity
8
1
62
256
6
ByLayer
370
18
48
1
60
0
100
AcDbSpline
70
4
71
3
72
36
73
32
40
0
40
0
40
0
40
0
40
0.125000000000023
40
0.125000000000023
40
0.187500000000035
40
0.187500000000035
40
0.218750000000033
40
0.218750000000033
40
0.250000000000031
40
0.250000000000031
40
0.375000000000023
40
0.375000000000023
40
0.437500000000019
40
0.437500000000019
40
0.500000000000015
40
0.500000000000015
40
0.625000000000018
40
0.625000000000018
40
0.656250000000019
40
0.656250000000019
40
0.687500000000021
40
0.687500000000021
40
0.750000000000015
40
0.750000000000015
40
0.875000000000004
40
0.875000000000004
40
0.906250000000003
40
0.906250000000003
40
0.937500000000002
40
0.937500000000002
40
1
40
1
40
1
40
1
41
1
10
106.334115661023
20
1.07785635838064
30
0
41
1
10
106.440174915523
20
1.08599415387144
30
0
41
1
10
106.543537678024
20
1.10454713077129
30
0
41
1
10
106.694782279753
20
1.14700805328229
30
0
41
1
10
106.744559337742
20
1.16361739310381
30
0
41
1
10
106.818261072989
20
1.19223261871761
30
0
41
1
10
106.842667428768
20
1.20238882016639
30
0
41
1
10
106.891154143986
20
1.22395103433385
30
0
41
1
10
106.915053392871
20
1.23527689259004
30
0
41
1
10
107.032763009772
20
1.29449467458295
30
0
41
1
10
107.12137906557
20
1.35014822663376
30
0
41
1
10
107.246452267024
20
1.4452523053873
30
0
41
1
10
107.28682691983
20
1.47890267592348
30
0
41
1
10
107.364936514024
20
1.55009562890905
30
0
41
1
10
107.402149553032
20
1.58716311284141
30
0
41
1
10
107.508480153606
20
1.70239986903658
30
0
41
1
10
107.572367689143
20
1.78462421837099
30
0
41
1
10
107.644001408417
20
1.89367014292171
30
0
41
1
10
107.657914403957
20
1.9157945291646
30
0
41
1
10
107.684916654141
20
1.96066887272315
30
0
41
1
10
107.698003770766
20
1.98342043298339
30
0
41
1
10
107.735746697243
20
2.05206193657568
30
0
41
1
10
107.758996235567
20
2.09851486337891
30
0
41
1
10
107.823328286615
20
2.23980885655541
30
0
41
1
10
107.85902145998
20
2.33657452687777
30
0
41
1
10
107.895216917454
20
2.46047045960881
30
0
41
1
10
107.902032739912
20
2.48539745397011
30
0
41
1
10
107.914823682199
20
2.53554351898021
30
0
41
1
10
107.920800810621
20
2.56077602943466
30
0
41
1
10
107.937411222386
20
2.63659070451215
30
0
41
1
10
107.946752470376
20
2.68738784025837
30
0
41
1
10
107.954417488682
20
2.73842539961257
30
0
0
SPLINE
5
152
100
AcDbEntity
8
1
62
256
6
ByLayer
370
18
48
1
60
0
100
AcDbSpline
70
4
71
3
72
76
73
72
40
0
40
0
40
0
40
0
40
0.0637561938200139
40
0.0637561938200139
40
0.079695242275017
40
0.079695242275017
40
0.0956342907300201
40
0.0956342907300201
40
0.127512387640027
40
0.127512387640027
40
0.159390484550034
40
0.159390484550034
40
0.191268581460041
40
0.191268581460041
40
0.255024775280052
40
0.255024775280052
40
0.27096382373505
40
0.27096382373505
40
0.286902872190048
40
0.286902872190048
40
0.318780969100051
40
0.318780969100051
40
0.382537162920051
40
0.382537162920051
40
0.398476211375048
40
0.398476211375048
40
0.414415259830046
40
0.414415259830046
40
0.446293356740041
40
0.446293356740041
40
0.478171453650036
40
0.478171453650036
40
0.494110502105029
40
0.494110502105029
40
0.510049550560022
40
0.510049550560022
40
0.573805744379984
40
0.573805744379984
40
0.589744792834967
40
0.589744792834967
40
0.60568384128995
40
0.60568384128995
40
0.637561938199908
40
0.637561938199908
40
0.653500986654891
40
0.653500986654891
40
0.669440035109874
40
0.669440035109874
40
0.70131813201984
40
0.70131813201984
40
0.733196228929806
40
0.733196228929806
40
0.749135277384785
40
0.749135277384785
40
0.765074325839765
40
0.765074325839765
40
0.828830519659676
40
0.828830519659676
40
0.860708616569628
40
0.860708616569628
40
0.876647665024605
40
0.876647665024605
40
0.892586713479581
40
0.892586713479581
40
0.924464810389538
40
0.924464810389538
40
0.956342907299495
40
0.956342907299495
40
0.988221004209452
40
0.988221004209452
40
1
40
1
40
1
40
1
41
1
10
104.747318498493
20
2.54853861601225
30
0
41
1
10
104.747318498493
20
2.51687026205752
30
0
41
1
10
104.754615849615
20
2.47504905938285
30
0
41
1
10
104.772142351756
20
2.41278634676581
30
0
41
1
10
104.776075203567
20
2.39983578544013
30
0
41
1
10
104.784805655408
20
2.37300834524572
30
0
41
1
10
104.78961784777
20
2.3590957020453
30
0
41
1
10
104.805170786011
20
2.31662067986511
30
0
41
1
10
104.817062669048
20
2.28718682925049
30
0
41
1
10
104.843836306588
20
2.22671363148413
30
0
41
1
10
104.858719127839
20
2.19567264282787
30
0
41
1
10
104.891564831949
20
2.13247487749814
30
0
41
1
10
104.909582706465
20
2.10024314946537
30
0
41
1
10
104.967597273154
20
2.00400068476876
30
0
41
1
10
105.011725200791
20
1.93998476156929
30
0
41
1
10
105.074568690965
20
1.861665582412
30
0
41
1
10
105.087525494469
20
1.84608577319284
30
0
41
1
10
105.114254114479
20
1.8151302486547
30
0
41
1
10
105.128042736874
20
1.799739406134
30
0
41
1
10
105.170269923235
20
1.75437501244485
30
0
41
1
10
105.199689603817
20
1.72506158164666
30
0
41
1
10
105.291949442411
20
1.64025011830049
30
0
41
1
10
105.358738504848
20
1.58784348873709
30
0
41
1
10
105.450112182891
20
1.5290004945582
30
0
41
1
10
105.468785411467
20
1.51756808191144
30
0
41
1
10
105.506980454275
20
1.49542775249248
30
0
41
1
10
105.526473480082
20
1.48474190022208
30
0
41
1
10
105.585437044336
20
1.45427495105127
30
0
41
1
10
105.625649197879
20
1.43592815612513
30
0
41
1
10
105.707944793087
20
1.40332825371496
30
0
41
1
10
105.750027871759
20
1.38907429803319
30
0
41
1
10
105.814641756744
20
1.37096175945936
30
0
41
1
10
105.836507243932
20
1.3654531813215
30
0
41
1
10
105.880338146974
20
1.35566192150759
30
0
41
1
10
105.902263437457
20
1.35138287915498
30
0
41
1
10
106.011938509651
20
1.3330072904628
30
0
41
1
10
106.099836265452
20
1.32790314153331
30
0
41
1
10
106.209875821742
20
1.33320643186042
30
0
41
1
10
106.231836312952
20
1.33485673448331
30
0
41
1
10
106.275202838512
20
1.33925629772742
30
0
41
1
10
106.296676836888
20
1.34200826877981
30
0
41
1
10
106.360493176504
20
1.35184426746505
30
0
41
1
10
106.40223152815
20
1.36050507563638
30
0
41
1
10
106.463685383609
20
1.37641653591001
30
0
41
1
10
106.4839772906
20
1.38220795268265
30
0
41
1
10
106.524179961247
20
1.39473611995524
30
0
41
1
10
106.544131734329
20
1.40148963513357
30
0
41
1
10
106.602872597442
20
1.42292172184361
30
0
41
1
10
106.640692608277
20
1.43880352134897
30
0
41
1
10
106.713852792407
20
1.473351967756
30
0
41
1
10
106.749192306496
20
1.49202004998557
30
0
41
1
10
106.800418607157
20
1.52187423856222
30
0
41
1
10
106.817196184134
20
1.53213483549774
30
0
41
1
10
106.850160482491
20
1.55323957031092
30
0
41
1
10
106.866360404546
20
1.56409505275386
30
0
41
1
10
106.945232951407
20
1.61927487281821
30
0
41
1
10
107.002150619082
20
1.66662931294232
30
0
41
1
10
107.078686778482
20
1.74035046277109
30
0
41
1
10
107.102710411597
20
1.76537470131291
30
0
41
1
10
107.136414706605
20
1.80330462642291
30
0
41
1
10
107.147274338124
20
1.81603320185061
30
0
41
1
10
107.167992831546
20
1.84132912775633
30
0
41
1
10
107.177875621255
20
1.85392184206555
30
0
41
1
10
107.206075084395
20
1.89143753753623
30
0
41
1
10
107.222949424198
20
1.91610049718034
30
0
41
1
10
107.252597460508
20
1.96416602860111
30
0
41
1
10
107.265373478519
20
1.98756919243411
30
0
41
1
10
107.286340189081
20
2.03246639804209
30
0
41
1
10
107.294325043779
20
2.05353377445232
30
0
41
1
10
107.301674403085
20
2.08005865777784
30
0
41
1
10
107.303301548597
20
2.08698669796203
30
0
41
1
10
107.30456511158
20
2.0936775647038
30
0
0
SPLINE
5
153
100
AcDbEntity
8
1
62
256
6
ByLayer
370
18
48
1
60
0
100
AcDbSpline
70
4
71
3
72
13
73
9
40
0
40
0
40
0
40
0
40
0.500000000000089
40
0.500000000000089
40
0.625000000000067
40
0.625000000000067
40
0.750000000000045
40
1
40
1
40
1
40
1
41
1
10
101.697790436443
20
-3.03938780195722
30
0
41
1
10
101.649812795716
20
-3.03411565233583
30
0
41
1
10
101.605202706212
20
-3.02739691571375
30
0
41
1
10
101.553367789648
20
-3.01867988876563
30
0
41
1
10
101.543192712589
20
-3.01692043756671
30
0
41
1
10
101.523378878431
20
-3.01343992115392
30
0
41
1
10
101.494401629296
20
-3.0082669154271
30
0
41
1
10
101.467545876906
20
-3.00342021019807
30
0
41
1
10
101.450496936752
20
-3.00050284945394
30
0
0
SPLINE
5
154
100
AcDbEntity
8
1
62
256
6
ByLayer
370
18
48
1
60
0
100
AcDbSpline
70
4
71
3
72
14
73
10
40
0
40
0
40
0
40
0
40
0.500000000000002
40
0.500000000000002
40
0.625000000000003
40
0.625000000000003
40
0.750000000000003
40
0.750000000000003
40
1
40
1
40
1
40
1
41
1
10
101.697790436441
20
-3.03938780195401
30
0
41
1
10
101.657390796153
20
-2.92238106132712
30
0
41
1
10
101.612025785737
20
-2.81196963335268
30
0
41
1
10
101.549397669261
20
-2.68182112153278
30
0
41
1
10
101.536565046416
20
-2.65616716889667
30
0
41
1
10
101.510356908727
20
-2.60573993705339
30
0
41
1
10
101.496990785816
20
-2.5809829431341
30
0
41
1
10
101.45611619465
20
-2.50806450761874
30
0
41
1
10
101.427833618943
20
-2.4612519269655
30
0
41
1
10
101.398521722559
20
-2.41623290927993
30
0
0
SPLINE
5
155
100
AcDbEntity
8
1
62
256
6
ByLayer
370
18
48
1
60
0
100
AcDbSpline
70
4
71
3
72
14
73
10
40
0
40
0
40
0
40
0
40
0.33945790568044
40
0.33945790568044
40
0.678915811360879
40
0.678915811360879
40
0.848644764201126
40
0.848644764201126
40
1
40
1
40
1
40
1
41
1
10
101.398521722559
20
-2.41623290927995
30
0
41
1
10
101.36115757717
20
-2.38478869318783
30
0
41
1
10
101.326992789746
20
-2.35133627930301
30
0
41
1
10
101.263784091367
20
-2.28160427391396
30
0
41
1
10
101.234751382694
20
-2.24531352019673
30
0
41
1
10
101.19439058775
20
-2.18945188564135
30
0
41
1
10
101.18143737367
20
-2.17054015468449
30
0
41
1
10
101.158060765589
20
-2.13475864139065
30
0
41
1
10
101.147503687279
20
-2.11787791213303
30
0
41
1
10
101.137355375992
20
-2.10102659034487
30
0
0
SPLINE
5
156
100
AcDbEntity
8
1
62
256
6
ByLayer
370
18
48
1
60
0
100
AcDbSpline
70
4
71
3
72
14
73
10
40
0
40
0
40
0
40
0
40
0.322294622027496
40
0.322294622027496
40
0.644589244054992
40
0.644589244054992
40
0.966883866082488
40
0.966883866082488
40
1
40
1
40
1
40
1
41
1
10
102.593938513051
20
-1.4910101098944
30
0
41
1
10
102.563464332857
20
-1.46000436874925
30
0
41
1
10
102.532541810257
20
-1.4296621486555
30
0
41
1
10
102.469608779626
20
-1.37011492337552
30
0
41
1
10
102.437610836955
20
-1.34091364482538
30
0
41
1
10
102.37200297605
20
-1.2834414269507
30
0
41
1
10
102.338416742141
20
-1.25518269854302
30
0
41
1
10
102.300151375717
20
-1.22470787138425
30
0
41
1
10
102.296573898815
20
-1.22187437980261
30
0
41
1
10
102.292983459317
20
-1.21904726236582
30
0
0
SPLINE
5
157
100
AcDbEntity
8
1
62
256
6
ByLayer
370
18
48
1
60
0
100
AcDbSpline
70
4
71
3
72
14
73
10
40
0
40
0
40
0
40
0
40
0.499999999999993
40
0.499999999999993
40
0.624999999999995
40
0.624999999999995
40
0.749999999999997
40
0.749999999999997
40
1
40
1
40
1
40
1
41
1
10
103.32180043543
20
-2.00874840628933
30
0
41
1
10
103.184238581468
20
-1.92395876262992
30
0
41
1
10
103.054880100115
20
-1.83825055739459
30
0
41
1
10
102.902790267607
20
-1.73003942787656
30
0
41
1
10
102.8728341799
20
-1.70832632544659
30
0
41
1
10
102.814023028338
20
-1.66488597249648
30
0
41
1
10
102.78517060506
20
-1.64316162000773
30
0
41
1
10
102.700285652716
20
-1.57797593741424
30
0
41
1
10
102.645908741425
20
-1.53450210825645
30
0
41
1
10
102.593938513051
20
-1.49101010989443
30
0
0
SPLINE
5
158
100
AcDbEntity
8
1
62
256
6
ByLayer
370
18
48
1
60
0
100
AcDbSpline
70
4
71
3
72
8
73
4
40
0
40
0
40
0
40
0
40
1
40
1
40
1
40
1
41
1
10
103.344280741792
20
-1.97274218846016
30
0
41
1
10
103.336284787873
20
-1.9837893430921
30
0
41
1
10
103.328852747464
20
-1.99580527646552
30
0
41
1
10
103.32180043543
20
-2.00874840628933
30
0
0
SPLINE
5
159
100
AcDbEntity
8
1
62
256
6
ByLayer
370
18
48
1
60
0
100
AcDbSpline
70
4
71
3
72
14
73
10
40
0
40
0
40
0
40
0
40
0.499999999999996
40
0.499999999999996
40
0.750000000000021
40
0.750000000000021
40
0.87500000000001
40
0.87500000000001
40
1
40
1
40
1
40
1
41
1
10
103.077707115747
20
-1.59093728688603
30
0
41
1
10
103.134655028289
20
-1.64601587106779
30
0
41
1
10
103.185383047282
20
-1.70536753939791
30
0
41
1
10
103.252216998138
20
-1.80071400983678
30
0
41
1
10
103.272939722717
20
-1.83355779191101
30
0
41
1
10
103.301581394816
20
-1.8844860508147
30
0
41
1
10
103.310720678156
20
-1.90173983199432
30
0
41
1
10
103.328153331306
20
-1.93682253026191
30
0
41
1
10
103.336462880601
20
-1.95469053082749
30
0
41
1
10
103.344280741792
20
-1.97274218846016
30
0
0
SPLINE
5
15A
100
AcDbEntity
8
1
62
256
6
ByLayer
370
18
48
1
60
0
100
AcDbSpline
70
4
71
3
72
8
73
4
40
0
40
0
40
0
40
0
40
1
40
1
40
1
40
1
41
1
10
102.947635554694
20
-1.48256952971209
30
0
41
1
10
102.993709801572
20
-1.51558963860774
30
0
41
1
10
103.037099547799
20
-1.55166267171862
30
0
41
1
10
103.077707115747
20
-1.59093728688606
30
0
0
SPLINE
5
15B
100
AcDbEntity
8
1
62
256
6
ByLayer
370
18
48
1
60
0
100
AcDbSpline
70
4
71
3
72
68
73
64
40
0
40
0
40
0
40
0
40
0.0156249999999937
40
0.0156249999999937
40
0.0312499999999873
40
0.0312499999999873
40
0.0624999999999832
40
0.0624999999999832
40
0.124999999999975
40
0.124999999999975
40
0.140624999999974
40
0.140624999999974
40
0.156249999999974
40
0.156249999999974
40
0.187499999999972
40
0.187499999999972
40
0.249999999999966
40
0.249999999999966
40
0.265624999999965
40
0.265624999999965
40
0.281249999999964
40
0.312499999999962
40
0.34374999999996
40
0.34374999999996
40
0.359374999999959
40
0.359374999999959
40
0.374999999999958
40
0.374999999999958
40
0.437499999999949
40
0.437499999999949
40
0.468749999999949
40
0.468749999999949
40
0.484374999999948
40
0.484374999999948
40
0.499999999999948
40
0.499999999999948
40
0.562499999999954
40
0.562499999999954
40
0.578124999999959
40
0.578124999999959
40
0.593749999999963
40
0.624999999999971
40
0.65624999999998
40
0.65624999999998
40
0.671874999999984
40
0.671874999999984
40
0.687499999999988
40
0.687499999999988
40
0.750000000000005
40
0.750000000000005
40
0.781250000000008
40
0.781250000000008
40
0.796875000000009
40
0.796875000000009
40
0.81250000000001
40
0.81250000000001
40
0.875000000000015
40
0.875000000000015
40
0.906250000000011
40
0.906250000000011
40
0.937500000000007
40
0.937500000000007
40
1
40
1
40
1
40
1
41
1
10
101.450496936753
20
-3.00050284945127
30
0
41
1
10
101.438334686509
20
-2.98840637936254
30
0
41
1
10
101.426410828529
20
-2.976017380088
30
0
41
1
10
101.403053139419
20
-2.95063728241283
30
0
41
1
10
101.391617639961
20
-2.93764006736842
30
0
41
1
10
101.35842546648
20
-2.89815895260247
30
0
41
1
10
101.337651231917
20
-2.87105033051299
30
0
41
1
10
101.279339750506
20
-2.78737978338944
30
0
41
1
10
101.245778628125
20
-2.72849354814343
30
0
41
1
10
101.210802821688
20
-2.65077687297324
30
0
41
1
10
101.204159243455
20
-2.63502646770263
30
0
41
1
10
101.191595791357
20
-2.60309876670422
30
0
41
1
10
101.185701249126
20
-2.58698043070311
30
0
41
1
10
101.169293619207
20
-2.53850199988835
30
0
41
1
10
101.159999714765
20
-2.50588351773865
30
0
41
1
10
101.136992643555
20
-2.40713477897086
30
0
41
1
10
101.128106226542
20
-2.34011930571842
30
0
41
1
10
101.125544352088
20
-2.25477542960294
30
0
41
1
10
101.125465876745
20
-2.23758739084567
30
0
41
1
10
101.126184244792
20
-2.20343161455912
30
0
41
1
10
101.128566888111
20
-2.15241690786618
30
0
41
1
10
101.138957233886
20
-2.06847039843566
30
0
41
1
10
101.15407497774
20
-2.00246119908769
30
0
41
1
10
101.168024273168
20
-1.95339790967455
30
0
41
1
10
101.17310998051
20
-1.93711755916752
30
0
41
1
10
101.184173139468
20
-1.90470906988739
30
0
41
1
10
101.190164888979
20
-1.8885515881953
30
0
41
1
10
101.222025142538
20
-1.80908270398908
30
0
41
1
10
101.253745266678
20
-1.74901470375909
30
0
41
1
10
101.310456527549
20
-1.66409587022875
30
0
41
1
10
101.330892914439
20
-1.63665963305107
30
0
41
1
10
101.363918360815
20
-1.59685774815534
30
0
41
1
10
101.375276321205
20
-1.58387518791744
30
0
41
1
10
101.398534352175
20
-1.55863418573432
30
0
41
1
10
101.410455997379
20
-1.54634953286356
30
0
41
1
10
101.471499235415
20
-1.48657630060313
30
0
41
1
10
101.524888519393
20
-1.44399507871347
30
0
41
1
10
101.597259042267
20
-1.39729405551813
30
0
41
1
10
101.612057489569
20
-1.3882601908883
30
0
41
1
10
101.642007253356
20
-1.37098638557765
30
0
41
1
10
101.687423802071
20
-1.3462795568598
30
0
41
1
10
101.765502010221
20
-1.31094692346434
30
0
41
1
10
101.830413783248
20
-1.28870574307553
30
0
41
1
10
101.880004560376
20
-1.27426189005772
30
0
41
1
10
101.896686209804
20
-1.26982066781326
30
0
41
1
10
101.930353126643
20
-1.26168790364045
30
0
41
1
10
101.947352221901
20
-1.25799584634305
30
0
41
1
10
102.032291049941
20
-1.241565568309
30
0
41
1
10
102.10069046016
20
-1.23470093135236
30
0
41
1
10
102.203910007518
20
-1.2331557059872
30
0
41
1
10
102.238420686539
20
-1.2341087629753
30
0
41
1
10
102.290342730222
20
-1.23773607070814
30
0
41
1
10
102.307700264406
20
-1.23931602269673
30
0
41
1
10
102.342180323616
20
-1.24317754551822
30
0
41
1
10
102.359334678123
20
-1.24546030167358
30
0
41
1
10
102.444688949657
20
-1.2585900194272
30
0
41
1
10
102.511645887563
20
-1.274544961998
30
0
41
1
10
102.610179096077
20
-1.30631532969852
30
0
41
1
10
102.64270460566
20
-1.31821955575674
30
0
41
1
10
102.707110240677
20
-1.34469271092397
30
0
41
1
10
102.738764926805
20
-1.35917405421063
30
0
41
1
10
102.83161981445
20
-1.4060514131381
30
0
41
1
10
102.890944447433
20
-1.44194061742218
30
0
41
1
10
102.947635554704
20
-1.48256952971923
30
0
0
SPLINE
5
15C
100
AcDbEntity
8
1
62
256
6
ByLayer
370
18
48
1
60
0
100
AcDbSpline
70
4
71
3
72
33
73
29
40
0
40
0
40
0
40
0
40
0.101574424601919
40
0.203148849203838
40
0.203148849203838
40
0.253936061504807
40
0.253936061504807
40
0.304723273805776
40
0.304723273805776
40
0.406297698407715
40
0.406297698407715
40
0.507872123009653
40
0.507872123009653
40
0.609446547611592
40
0.609446547611592
40
0.660233759912562
40
0.660233759912562
40
0.711020972213531
40
0.711020972213531
40
0.812595396815469
40
0.812595396815469
40
0.863382609116438
40
0.863382609116438
40
0.888776215266923
40
0.888776215266923
40
0.914169821417408
40
0.914169821417408
40
1
40
1
40
1
40
1
41
1
10
97.2346871065592
20
-4.66398136909814
30
0
41
1
10
97.3021850461109
20
-4.65759700681122
30
0
41
1
10
97.4372911416485
20
-4.64051298825999
30
0
41
1
10
97.5726034910526
20
-4.61520144552534
30
0
41
1
10
97.6741563140508
20
-4.5931403003168
30
0
41
1
10
97.7080656043497
20
-4.58526037957751
30
0
41
1
10
97.775679094388
20
-4.56851168675817
30
0
41
1
10
97.8093247939212
20
-4.55965903660476
30
0
41
1
10
97.90977853864
20
-4.5316686193797
30
0
41
1
10
97.9761053814038
20
-4.51110454532844
30
0
41
1
10
98.1074235982785
20
-4.46603920189986
30
0
41
1
10
98.1724156282716
20
-4.4415397632753
30
0
41
1
10
98.3009375405778
20
-4.38825738134958
30
0
41
1
10
98.3644690031648
20
-4.3594788950497
30
0
41
1
10
98.4584938501176
20
-4.31260932045302
30
0
41
1
10
98.4896224367291
20
-4.29636639690762
30
0
41
1
10
98.5514082521393
20
-4.2625141396048
30
0
41
1
10
98.5821049948143
20
-4.24487623954755
30
0
41
1
10
98.6723819401784
20
-4.19030379525216
30
0
41
1
10
98.7304843187002
20
-4.15156413229246
30
0
41
1
10
98.8138949860242
20
-4.08916533428064
30
0
41
1
10
98.8410713243991
20
-4.06764688912597
30
0
41
1
10
98.8807725813681
20
-4.0341439728893
30
0
41
1
10
98.8938287290527
20
-4.02277165561318
30
0
41
1
10
98.9195597340967
20
-3.99958646847898
30
0
41
1
10
98.9322300925448
20
-3.98777551000865
30
0
41
1
10
98.986391486093
20
-3.93543745911231
30
0
41
1
10
99.0250339403147
20
-3.89323200449599
30
0
41
1
10
99.059870156699
20
-3.84880006028726
30
0
0
SPLINE
5
15D
100
AcDbEntity
8
1
62
256
6
ByLayer
370
18
48
1
60
0
100
AcDbSpline
70
4
71
3
72
8
73
4
40
0
40
0
40
0
40
0
40
1
40
1
40
1
40
1
41
1
10
97.2346871065592
20
-4.66398136909811
30
0
41
1
10
97.1657017369841
20
-4.67050642148922
30
0
41
1
10
97.096845310586
20
-4.67724484172928
30
0
41
1
10
97.0281177495402
20
-4.68419650103809
30
0
0
SPLINE
5
15E
100
AcDbEntity
8
1
62
256
6
ByLayer
370
18
48
1
60
0
100
AcDbSpline
70
4
71
3
72
57
73
53
40
0
40
0
40
0
40
0
40
0.0187334325685556
40
0.0187334325685556
40
0.0633364583608931
40
0.0633364583608931
40
0.0856379712570622
40
0.0856379712570622
40
0.107939484153231
40
0.107939484153231
40
0.197145535737916
40
0.197145535737916
40
0.219447048634088
40
0.219447048634088
40
0.241748561530261
40
0.241748561530261
40
0.264050074426433
40
0.264050074426433
40
0.286351587322605
40
0.286351587322605
40
0.330954613114948
40
0.330954613114948
40
0.353256126011119
40
0.353256126011119
40
0.375557638907289
40
0.375557638907289
40
0.46476369049197
40
0.46476369049197
40
0.487065203388139
40
0.487065203388139
40
0.509366716284307
40
0.509366716284307
40
0.553969742076643
40
0.598572767868979
40
0.598572767868979
40
0.620874280765143
40
0.620874280765143
40
0.643175793661307
40
0.643175793661307
40
0.732381845245988
40
0.732381845245988
40
0.776984871038328
40
0.776984871038328
40
0.799286383934492
40
0.799286383934492
40
0.821587896830657
40
0.821587896830657
40
0.910793948415328
40
0.910793948415328
40
0.955396974207664
40
0.955396974207664
40
1
40
1
40
1
40
1
41
1
10
96.3159751042324
20
-3.09131001036357
30
0
41
1
10
96.3027417005196
20
-3.1016741221554
30
0
41
1
10
96.2897423832368
20
-3.11224674740953
30
0
41
1
10
96.246595475191
20
-3.1487149167308
30
0
41
1
10
96.2175655704724
20
-3.17561499123875
30
0
41
1
10
96.1762186749427
20
-3.21797426078422
30
0
41
1
10
96.1628034877155
20
-3.23242955358182
30
0
41
1
10
96.1367460346054
20
-3.26205139962639
30
0
41
1
10
96.1240641774328
20
-3.27726986555675
30
0
41
1
10
96.0632808223724
20
-3.35451604992235
30
0
41
1
10
96.0230102986544
20
-3.41982940103839
30
0
41
1
10
95.9839202846813
20
-3.50629649992271
30
0
41
1
10
95.9766698764534
20
-3.52383303697684
30
0
41
1
10
95.9633475476378
20
-3.55941184128511
30
0
41
1
10
95.9572638595832
20
-3.57750546137643
30
0
41
1
10
95.9464551708367
20
-3.61375263651672
30
0
41
1
10
95.9417104168082
20
-3.63194753552725
30
0
41
1
10
95.9335385326338
20
-3.66848719486021
30
0
41
1
10
95.9301282102024
20
-3.68684667769171
30
0
41
1
10
95.9215835690178
20
-3.74189479085547
30
0
41
1
10
95.9179610738059
20
-3.77840352692849
30
0
41
1
10
95.9155964081043
20
-3.83280528016775
30
0
41
1
10
95.9153261487311
20
-3.85088367220601
30
0
41
1
10
95.9158427189127
20
-3.88692890766458
30
0
41
1
10
95.9166336165727
20
-3.90489836975985
30
0
41
1
10
95.9231950714735
20
-3.99347089351423
30
0
41
1
10
95.9366971989565
20
-4.06109559955945
30
0
41
1
10
95.9638530483163
20
-4.14172542619744
30
0
41
1
10
95.9698033038539
20
-4.15765447484796
30
0
41
1
10
95.9827622302228
20
-4.18911474915629
30
0
41
1
10
95.9897872761387
20
-4.20467266696494
30
0
41
1
10
96.012223227143
20
-4.25022777538186
30
0
41
1
10
96.0458743162253
20
-4.30831548486512
30
0
41
1
10
96.0868130815853
20
-4.36130406537211
30
0
41
1
10
96.1202667350894
20
-4.39915042463224
30
0
41
1
10
96.1318770867987
20
-4.41144943023767
30
0
41
1
10
96.1560295473624
20
-4.43541009181442
30
0
41
1
10
96.1685952906668
20
-4.44709215269907
30
0
41
1
10
96.2335420761733
20
-4.50365726010494
30
0
41
1
10
96.2912008667165
20
-4.54222766949752
30
0
41
1
10
96.3858899145048
20
-4.59071578342
30
0
41
1
10
96.4188302112172
20
-4.60530436005061
30
0
41
1
10
96.4703547110508
20
-4.62479657452866
30
0
41
1
10
96.4878755728004
20
-4.63088837049702
30
0
41
1
10
96.5232325208152
20
-4.64214633492276
30
0
41
1
10
96.5411161777998
20
-4.64733129833888
30
0
41
1
10
96.6315408468283
20
-4.67108857473423
30
0
41
1
10
96.7070737975554
20
-4.68322355425425
30
0
41
1
10
96.8251281883251
20
-4.69131018532522
30
0
41
1
10
96.8653638999606
20
-4.69229267915568
30
0
41
1
10
96.946235722521
20
-4.69080638616791
30
0
41
1
10
96.9870090581933
20
-4.68835456532156
30
0
41
1
10
97.0281177495403
20
-4.68419650103809
30
0
0
SPLINE
5
15F
100
AcDbEntity
8
1
62
256
6
ByLayer
370
18
48
1
60
0
100
AcDbSpline
70
4
71
3
72
8
73
4
40
0
40
0
40
0
40
0
40
1
40
1
40
1
40
1
41
1
10
100.072661521476
20
-4.11927219259886
30
0
41
1
10
100.021608760958
20
-4.10459308180663
30
0
41
1
10
99.9705093111861
20
-4.09049020115219
30
0
41
1
10
99.9193643275475
20
-4.07695796298114
30
0
0
SPLINE
5
160
100
AcDbEntity
8
1
62
256
6
ByLayer
370
18
48
1
60
0
100
AcDbSpline
70
4
71
3
72
147
73
143
40
0
40
0
40
0
40
0
40
0.0156250000000016
40
0.0156250000000016
40
0.0312500000000032
40
0.0312500000000032
40
0.039062500000004
40
0.039062500000004
40
0.0468750000000048
40
0.0468750000000048
40
0.0625000000000064
40
0.0625000000000064
40
0.0703125000000072
40
0.0703125000000072
40
0.078125000000008
40
0.078125000000008
40
0.0937500000000097
40
0.0937500000000097
40
0.125000000000012
40
0.125000000000012
40
0.156250000000013
40
0.156250000000013
40
0.187500000000015
40
0.187500000000015
40
0.195312500000016
40
0.195312500000016
40
0.203125000000016
40
0.203125000000016
40
0.218750000000015
40
0.218750000000015
40
0.250000000000015
40
0.250000000000015
40
0.281250000000014
40
0.281250000000014
40
0.296875000000014
40
0.296875000000014
40
0.304687500000014
40
0.304687500000014
40
0.312500000000014
40
0.312500000000014
40
0.343750000000012
40
0.343750000000012
40
0.37500000000001
40
0.37500000000001
40
0.382812500000009
40
0.382812500000009
40
0.390625000000009
40
0.406250000000008
40
0.406250000000008
40
0.437500000000007
40
0.437500000000007
40
0.453125000000006
40
0.453125000000006
40
0.460937500000006
40
0.460937500000006
40
0.464843750000006
40
0.464843750000006
40
0.468750000000006
40
0.468750000000006
40
0.500000000000006
40
0.500000000000006
40
0.531250000000008
40
0.531250000000008
40
0.539062500000008
40
0.539062500000008
40
0.546875000000008
40
0.546875000000008
40
0.562500000000009
40
0.562500000000009
40
0.593750000000011
40
0.593750000000011
40
0.609375000000011
40
0.609375000000011
40
0.617187500000012
40
0.617187500000012
40
0.625000000000012
40
0.625000000000012
40
0.628906250000013
40
0.628906250000013
40
0.632812500000013
40
0.632812500000013
40
0.636718750000013
40
0.636718750000013
40
0.640625000000013
40
0.656250000000013
40
0.656250000000013
40
0.658203125000014
40
0.658203125000014
40
0.660156250000014
40
0.660156250000014
40
0.664062500000014
40
0.671875000000014
40
0.671875000000014
40
0.687500000000015
40
0.687500000000015
40
0.695312500000015
40
0.695312500000015
40
0.699218750000016
40
0.699218750000016
40
0.703125000000016
40
0.703125000000016
40
0.718750000000016
40
0.718750000000016
40
0.734375000000016
40
0.734375000000016
40
0.742187500000016
40
0.742187500000016
40
0.746093750000015
40
0.746093750000015
40
0.750000000000015
40
0.750000000000015
40
0.765625000000011
40
0.765625000000011
40
0.781250000000008
40
0.781250000000008
40
0.789062500000005
40
0.789062500000005
40
0.796875000000003
40
0.796875000000003
40
0.812499999999999
40
0.812499999999999
40
0.820312499999998
40
0.820312499999998
40
0.828124999999997
40
0.828124999999997
40
0.830078124999997
40
0.830078124999997
40
0.832031249999997
40
0.832031249999997
40
0.835937499999997
40
0.835937499999997
40
0.843749999999997
40
0.843749999999997
40
0.874999999999998
40
0.874999999999998
40
0.906249999999998
40
0.906249999999998
40
0.937499999999999
40
0.937499999999999
40
0.96875
40
0.96875
40
1
40
1
40
1
40
1
41
1
10
99.9193643275476
20
-11.6643718758741
30
0
41
1
10
99.7532214314159
20
-11.6644530768209
30
0
41
1
10
99.5872158399546
20
-11.6645519717286
30
0
41
1
10
99.2555749274563
20
-11.6647514486413
30
0
41
1
10
99.0901356875567
20
-11.6648513815068
30
0
41
1
10
98.8425962002085
20
-11.6649538113144
30
0
41
1
10
98.7601907137354
20
-11.6649799412922
30
0
41
1
10
98.5956061551455
20
-11.6650046226542
30
0
41
1
10
98.5134200593063
20
-11.6650029655603
30
0
41
1
10
98.2671332400171
20
-11.664938115767
30
0
41
1
10
98.1033205942608
20
-11.6648161734031
30
0
41
1
10
97.8581910718885
20
-11.6644315553407
30
0
41
1
10
97.7765791433205
20
-11.6642695240785
30
0
41
1
10
97.61355166389
20
-11.6638616102346
30
0
41
1
10
97.5321027723995
20
-11.6636155980231
30
0
41
1
10
97.288281459273
20
-11.662726283173
30
0
41
1
10
97.126673635069
20
-11.661933619674
30
0
41
1
10
96.6446761332521
20
-11.6587318667512
30
0
41
1
10
96.3271163005076
20
-11.6555129180258
30
0
41
1
10
95.6998755631996
20
-11.6453931553949
30
0
41
1
10
95.3902044307517
20
-11.6384958182693
30
0
41
1
10
94.7792860296775
20
-11.6189923704385
30
0
41
1
10
94.4780741499393
20
-11.606384243911
30
0
41
1
10
94.1072568164496
20
-11.5853603610043
30
0
41
1
10
94.0333780239099
20
-11.5808906826293
30
0
41
1
10
93.8861999001504
20
-11.5713716398848
30
0
41
1
10
93.8128446629093
20
-11.5663181503649
30
0
41
1
10
93.5940501721682
20
-11.5502364213019
30
0
41
1
10
93.4503095740756
20
-11.5383216413911
30
0
41
1
10
93.0255485593014
20
-11.4984497688203
30
0
41
1
10
92.7509651182747
20
-11.4663939301725
30
0
41
1
10
92.2200485404324
20
-11.3878399441367
30
0
41
1
10
91.9637330442104
20
-11.3413507605508
30
0
41
1
10
91.5942480614159
20
-11.2573824655354
30
0
41
1
10
91.4735865385871
20
-11.2270120270217
30
0
41
1
10
91.2965370383534
20
-11.1773601603589
30
0
41
1
10
91.238092392603
20
-11.160097834733
30
0
41
1
10
91.1231840478678
20
-11.1243107237047
30
0
41
1
10
91.0666774732061
20
-11.1057767611341
30
0
41
1
10
90.7888928015569
20
-11.0097600138949
30
0
41
1
10
90.5818422837405
20
-10.9222631189614
30
0
41
1
10
90.1986012814519
20
-10.7218042102278
30
0
41
1
10
90.0224070790024
20
-10.6088569227062
30
0
41
1
10
89.8222247797615
20
-10.4486074136993
30
0
41
1
10
89.7831783102229
20
-10.4155879632618
30
0
41
1
10
89.7071831332358
20
-10.3475986914162
30
0
41
1
10
89.5969511559902
20
-10.2432413026075
30
0
41
1
10
89.4977673673611
20
-10.1316511152356
30
0
41
1
10
89.313599068903
20
-9.89850120735403
30
0
41
1
10
89.2097199258644
20
-9.72979147570408
30
0
41
1
10
89.0807070040499
20
-9.45527602748143
30
0
41
1
10
89.0421798931879
20
-9.36019182061759
30
0
41
1
10
88.9909889472002
20
-9.21196241393375
30
0
41
1
10
88.975025708838
20
-9.1616184339826
30
0
41
1
10
88.952721353708
20
-9.08466855124769
30
0
41
1
10
88.9455546654799
20
-9.05875902540282
30
0
41
1
10
88.9317923729974
20
-9.00655382119885
30
0
41
1
10
88.9252038367975
20
-8.98028724909835
30
0
41
1
10
88.8684906472786
20
-8.7424153711404
30
0
41
1
10
88.8363683295183
20
-8.52051893392488
30
0
41
1
10
88.8042164771231
20
-8.05591137278486
30
0
41
1
10
88.8041995368843
20
-7.81320120142243
30
0
41
1
10
88.8225585015503
20
-7.49658368668025
30
0
41
1
10
88.8271531949353
20
-7.43259754378153
30
0
41
1
10
88.8381612921533
20
-7.3032896967064
30
0
41
1
10
88.844554493063
20
-7.23821176932776
30
0
41
1
10
88.8662794348672
20
-7.04195109541476
30
0
41
1
10
88.8841612903767
20
-6.90964039875715
30
0
41
1
10
88.9473334587209
20
-6.50837181755841
30
0
41
1
10
89.0021034442052
20
-6.23508254061454
30
0
41
1
10
89.1015483627916
20
-5.81667552816933
30
0
41
1
10
89.1375925395902
20
-5.67579326153205
30
0
41
1
10
89.1958827085367
20
-5.46236159437308
30
0
41
1
10
89.2160168511333
20
-5.39086617494607
30
0
41
1
10
89.2576782535882
20
-5.24717298761723
30
0
41
1
10
89.2792158699586
20
-5.17493151295895
30
0
41
1
10
89.3124329499032
20
-5.06650475153839
30
0
41
1
10
89.3236629974968
20
-5.0303346832824
30
0
41
1
10
89.3464409496601
20
-4.95794153306414
30
0
41
1
10
89.3580106929168
20
-4.92172630244795
30
0
41
1
10
89.3813253636635
20
-4.84919325422271
30
0
41
1
10
89.3929908830709
20
-4.81284633554591
30
0
41
1
10
89.4183963588069
20
-4.74073699147138
30
0
41
1
10
89.4866712404927
20
-4.56177396605705
30
0
41
1
10
89.5777685950695
20
-4.38912708678478
30
0
41
1
10
89.6755627522356
20
-4.23835734360523
30
0
41
1
10
89.6866495783696
20
-4.22166963315709
30
0
41
1
10
89.709264062701
20
-4.18842384260498
30
0
41
1
10
89.7208065592742
20
-4.17184569317172
30
0
41
1
10
89.7558984555551
20
-4.12257863117756
30
0
41
1
10
89.8280725110734
20
-4.02570660416421
30
0
41
1
10
89.905928364298
20
-3.93360745003812
30
0
41
1
10
90.0686320625603
20
-3.75535339079391
30
0
41
1
10
90.1863546480915
20
-3.64438323227702
30
0
41
1
10
90.3754069517124
20
-3.48879526169171
30
0
41
1
10
90.4405082078702
20
-3.43874792380066
30
0
41
1
10
90.5411869842984
20
-3.36634675817936
30
0
41
1
10
90.5753148518586
20
-3.34261691461899
30
0
41
1
10
90.6442452813731
20
-3.29626598612984
30
0
41
1
10
90.6790104683945
20
-3.27366734148848
30
0
41
1
10
90.8542726906287
20
-3.16344616736805
30
0
41
1
10
90.9990423569662
20
-3.08407193828245
30
0
41
1
10
91.2967094410934
20
-2.94124492609751
30
0
41
1
10
91.4495984013393
20
-2.87777367947345
30
0
41
1
10
91.6846699985155
20
-2.7939492317343
30
0
41
1
10
91.7639872093376
20
-2.76791159452458
30
0
41
1
10
91.8843810221672
20
-2.73168250668485
30
0
41
1
10
91.9247407417533
20
-2.72008220513825
30
0
41
1
10
92.0055146016248
20
-2.69793451809156
30
0
41
1
10
92.0459804635529
20
-2.68737118586572
30
0
41
1
10
92.2486975819877
20
-2.63706737578829
30
0
41
1
10
92.412105807408
20
-2.6048253855227
30
0
41
1
10
92.7412617603883
20
-2.55559099992877
30
0
41
1
10
92.9070144901779
20
-2.53863096361204
30
0
41
1
10
93.1573899160021
20
-2.52460890712419
30
0
41
1
10
93.2411412359556
20
-2.52184925167592
30
0
41
1
10
93.4092371333766
20
-2.52021009329027
30
0
41
1
10
93.4932229082815
20
-2.52133285589028
30
0
41
1
10
93.7446226700261
20
-2.53048489214885
30
0
41
1
10
93.9116411850844
20
-2.54429804606568
30
0
41
1
10
94.1612872110304
20
-2.57668634170506
30
0
41
1
10
94.2444097226309
20
-2.58944766639181
30
0
41
1
10
94.4097289412636
20
-2.61882666021384
30
0
41
1
10
94.4919943135782
20
-2.63544332092724
30
0
41
1
10
94.5943293305598
20
-2.65863486209272
30
0
41
1
10
94.6147729990743
20
-2.66339784116502
30
0
41
1
10
94.6555923516852
20
-2.67319566638463
30
0
41
1
10
94.675965464745
20
-2.6782372305347
30
0
41
1
10
94.7371034890452
20
-2.69328502832832
30
0
41
1
10
94.7778537669997
20
-2.70334593972257
30
0
41
1
10
94.900082699257
20
-2.73360294715658
30
0
41
1
10
94.9815378194866
20
-2.75387881278309
30
0
41
1
10
95.388655019607
20
-2.85577406499473
30
0
41
1
10
95.713862233174
20
-2.9389516555475
30
0
41
1
10
96.3631944724872
20
-3.10842524581091
30
0
41
1
10
96.6873180098612
20
-3.19472709618938
30
0
41
1
10
97.3346370297583
20
-3.36985560096107
30
0
41
1
10
97.6578162459754
20
-3.45873583982041
30
0
41
1
10
98.3037485917646
20
-3.63727089704025
30
0
41
1
10
98.6265247589369
20
-3.72684690782214
30
0
41
1
10
99.272512052723
20
-3.9038824708629
30
0
41
1
10
99.5957181949526
20
-3.99132578094031
30
0
41
1
10
99.9193643275476
20
-4.07695796298117
30
0
0
SPLINE
5
161
100
AcDbEntity
8
1
62
256
6
ByLayer
370
18
48
1
60
0
100
AcDbSpline
70
4
71
3
72
8
73
4
40
0
40
0
40
0
40
0
40
1
40
1
40
1
40
1
41
1
10
99.9193643275475
20
-11.6643718758741
30
0
41
1
10
99.9731789423685
20
-11.6643455744325
30
0
41
1
10
100.026848596192
20
-11.6664775692331
30
0
41
1
10
100.080373946821
20
-11.6707516028391
30
0
0
SPLINE
5
162
100
AcDbEntity
8
1
62
256
6
ByLayer
370
18
48
1
60
0
100
AcDbSpline
70
4
71
3
72
16
73
12
40
0
40
0
40
0
40
0
40
0.25
40
0.25
40
0.5
40
0.5
40
0.625
40
0.625
40
0.75
40
0.75
40
1
40
1
40
1
40
1
41
1
10
102.947635554714
20
-11.9009921629506
30
0
41
1
10
102.708521308972
20
-11.8817380266911
30
0
41
1
10
102.46939557405
20
-11.8624623716786
30
0
41
1
10
101.991157220839
20
-11.8239328455192
30
0
41
1
10
101.752023747327
20
-11.8046757711187
30
0
41
1
10
101.393469469651
20
-11.7758559250488
30
0
41
1
10
101.273971376412
20
-11.7662583155465
30
0
41
1
10
101.035058465324
20
-11.7470979330402
30
0
41
1
10
100.915627987592
20
-11.7375278272534
30
0
41
1
10
100.557451487078
20
-11.708855859946
30
0
41
1
10
100.318810366534
20
-11.6897909040073
30
0
41
1
10
100.080373946821
20
-11.6707516028391
30
0
0
SPLINE
5
163
100
AcDbEntity
8
1
62
256
6
ByLayer
370
18
48
1
60
0
100
AcDbSpline
70
4
71
3
72
8
73
4
40
0
40
0
40
0
40
0
40
1
40
1
40
1
40
1
41
1
10
103.077707115747
20
-11.9072511353116
30
0
41
1
10
103.03428419363
20
-11.9065643758041
30
0
41
1
10
102.990927011103
20
-11.9044781100032
30
0
41
1
10
102.947635554694
20
-11.9009921629489
30
0
0
SPLINE
5
164
100
AcDbEntity
8
1
62
256
6
ByLayer
370
18
48
1
60
0
100
AcDbSpline
70
4
71
3
72
14
73
10
40
0
40
0
40
0
40
0
40
0.50000000000001
40
0.50000000000001
40
0.750000000000005
40
0.750000000000005
40
0.875000000000003
40
0.875000000000003
40
1
40
1
40
1
40
1
41
1
10
105.18487382446
20
-11.9404787823399
30
0
41
1
10
104.833679134579
20
-11.9349504647738
30
0
41
1
10
104.482484480796
20
-11.9294174288072
30
0
41
1
10
103.955692563062
20
-11.9211107739227
30
0
41
1
10
103.780095242676
20
-11.9183407294146
30
0
41
1
10
103.516699244687
20
-11.9141839216501
30
0
41
1
10
103.428900589048
20
-11.912798015855
30
0
41
1
10
103.253303370915
20
-11.9100255207405
30
0
41
1
10
103.165504082314
20
-11.9086396968957
30
0
41
1
10
103.077707115748
20
-11.9072511353116
30
0
0
SPLINE
5
165
100
AcDbEntity
8
1
62
256
6
ByLayer
370
18
48
1
60
0
100
AcDbSpline
70
4
71
3
72
50
73
46
40
0
40
0
40
0
40
0
40
0.0312499999999791
40
0.0468749999999724
40
0.0468749999999724
40
0.0624999999999657
40
0.0624999999999657
40
0.124999999999939
40
0.187499999999912
40
0.187499999999912
40
0.218749999999904
40
0.218749999999904
40
0.249999999999896
40
0.249999999999896
40
0.31249999999988
40
0.374999999999864
40
0.374999999999864
40
0.39062499999986
40
0.39062499999986
40
0.406249999999856
40
0.406249999999856
40
0.43749999999986
40
0.43749999999986
40
0.499999999999881
40
0.562499999999902
40
0.562499999999902
40
0.593749999999912
40
0.593749999999912
40
0.624999999999922
40
0.624999999999922
40
0.687499999999943
40
0.687499999999943
40
0.718749999999947
40
0.718749999999947
40
0.749999999999951
40
0.749999999999951
40
0.812499999999971
40
0.812499999999971
40
0.874999999999991
40
0.874999999999991
40
0.906249999999995
40
0.906249999999995
40
0.9375
40
0.9375
40
1
40
1
40
1
40
1
41
1
10
105.18487382446
20
-11.9404787823397
30
0
41
1
10
105.202943523286
20
-11.9154439741729
30
0
41
1
10
105.231398988702
20
-11.8785124907905
30
0
41
1
10
105.26195742943
20
-11.8425472973169
30
0
41
1
10
105.282808263596
20
-11.8187903847549
30
0
41
1
10
105.293477207037
20
-11.8070189518858
30
0
41
1
10
105.347608444657
20
-11.7491775452882
30
0
41
1
10
105.439879047021
20
-11.6623613360366
30
0
41
1
10
105.543299157449
20
-11.5868313634717
30
0
41
1
10
105.625149766498
20
-11.5345219617919
30
0
41
1
10
105.653149311227
20
-11.5178102830255
30
0
41
1
10
105.710620800585
20
-11.4858773801416
30
0
41
1
10
105.740180173207
20
-11.4706211474079
30
0
41
1
10
105.829800554872
20
-11.4277817313294
30
0
41
1
10
105.952478695824
20
-11.3780248913271
30
0
41
1
10
106.081331990327
20
-11.342545541984
30
0
41
1
10
106.16381370787
20
-11.3248758337839
30
0
41
1
10
106.18040777927
20
-11.3215678472914
30
0
41
1
10
106.213793098324
20
-11.3154077623679
30
0
41
1
10
106.230614484179
20
-11.3125512684211
30
0
41
1
10
106.281108936162
20
-11.3047134616361
30
0
41
1
10
106.314808463625
20
-11.3004590412862
30
0
41
1
10
106.416013132652
20
-11.2905127557007
30
0
41
1
10
106.551234866136
20
-11.28474377985
30
0
41
1
10
106.68700139793
20
-11.2934411022661
30
0
41
1
10
106.789031398321
20
-11.3054102492866
30
0
41
1
10
106.82286453743
20
-11.3102878253459
30
0
41
1
10
106.889871754681
20
-11.3217127539694
30
0
41
1
10
106.923097642175
20
-11.3282661403037
30
0
41
1
10
107.021966355697
20
-11.3503757451579
30
0
41
1
10
107.086802708925
20
-11.3683739118375
30
0
41
1
10
107.182490821181
20
-11.400114173095
30
0
41
1
10
107.214125149809
20
-11.4114866974947
30
0
41
1
10
107.276870971184
20
-11.4358148594435
30
0
41
1
10
107.308063022999
20
-11.4488089605386
30
0
41
1
10
107.399976123137
20
-11.4897808563841
30
0
41
1
10
107.459193645139
20
-11.519780438834
30
0
41
1
10
107.573736607812
20
-11.5848577376547
30
0
41
1
10
107.629061153059
20
-11.6199366223229
30
0
41
1
10
107.709184497477
20
-11.6762910230582
30
0
41
1
10
107.73541396923
20
-11.6956998906886
30
0
41
1
10
107.786913239915
20
-11.735769744652
30
0
41
1
10
107.812239271782
20
-11.7564821546627
30
0
41
1
10
107.886089660707
20
-11.8199247112349
30
0
41
1
10
107.932648344273
20
-11.8640576606374
30
0
41
1
10
107.976645032097
20
-11.9099509401805
30
0
0
SPLINE
5
166
100
AcDbEntity
8
1
62
256
6
ByLayer
370
18
48
1
60
0
100
AcDbSpline
70
4
71
3
72
8
73
4
40
0
40
0
40
0
40
0
40
1
40
1
40
1
40
1
41
1
10
108.750744922802
20
-11.8873872937329
30
0
41
1
10
108.492712356718
20
-11.8949224923715
30
0
41
1
10
108.234679054502
20
-11.902443661071
30
0
41
1
10
107.976645032097
20
-11.9099509401774
30
0
0
SPLINE
5
167
100
AcDbEntity
8
1
62
256
6
ByLayer
370
18
48
1
60
0
100
AcDbSpline
70
4
71
3
72
32
73
28
40
0
40
0
40
0
40
0
40
0.124999999999977
40
0.124999999999977
40
0.249999999999955
40
0.249999999999955
40
0.281249999999954
40
0.281249999999954
40
0.312499999999954
40
0.374999999999971
40
0.374999999999971
40
0.500000000000024
40
0.500000000000024
40
0.531250000000025
40
0.531250000000025
40
0.562500000000026
40
0.624999999999996
40
0.624999999999996
40
0.749999999999941
40
0.749999999999941
40
0.781249999999949
40
0.781249999999949
40
0.812499999999956
40
0.874999999999971
40
0.937499999999985
40
0.937499999999985
40
1
40
1
40
1
40
1
41
1
10
109.284345931868
20
-11.3195615603477
30
0
41
1
10
109.285308833489
20
-11.3540913541069
30
0
41
1
10
109.283109398231
20
-11.3881813872129
30
0
41
1
10
109.272588183918
20
-11.4555100699585
30
0
41
1
10
109.264268159013
20
-11.4887489635297
30
0
41
1
10
109.249766377261
20
-11.5297271849697
30
0
41
1
10
109.246657911638
20
-11.5378934659193
30
0
41
1
10
109.240085507459
20
-11.554003149149
30
0
41
1
10
109.229672012255
20
-11.5778956596053
30
0
41
1
10
109.217605551707
20
-11.6009778631986
30
0
41
1
10
109.191245672487
20
-11.6460505843712
30
0
41
1
10
109.170727821411
20
-11.6746555819185
30
0
41
1
10
109.140998648769
20
-11.7084108450359
30
0
41
1
10
109.134826981861
20
-11.7150803162054
30
0
41
1
10
109.122184027985
20
-11.7280763686463
30
0
41
1
10
109.102758034937
20
-11.7470757591113
30
0
41
1
10
109.081955891642
20
-11.7646002341118
30
0
41
1
10
109.03848941626
20
-11.7976533474706
30
0
41
1
10
109.007053184427
20
-11.8170537243375
30
0
41
1
10
108.964282955118
20
-11.8375798616396
30
0
41
1
10
108.955579758216
20
-11.8414820033464
30
0
41
1
10
108.938059770326
20
-11.8487969092938
30
0
41
1
10
108.911529783872
20
-11.8590730506885
30
0
41
1
10
108.86607275403
20
-11.8727457033981
30
0
41
1
10
108.828364899116
20
-11.879945954655
30
0
41
1
10
108.789952651655
20
-11.885184599552
30
0
41
1
10
108.770355109128
20
-11.8868146270671
30
0
41
1
10
108.750744922802
20
-11.8873872937329
30
0
0
SPLINE
5
168
100
AcDbEntity
8
1
62
256
6
ByLayer
370
18
48
1
60
0
100
AcDbSpline
70
4
71
3
72
8
73
4
40
0
40
0
40
0
40
0
40
1
40
1
40
1
40
1
41
1
10
109.284345931886
20
-10.3407517785255
30
0
41
1
10
109.284345931886
20
-10.6670212823896
30
0
41
1
10
109.284345931886
20
-10.9932912016893
30
0
41
1
10
109.284345931886
20
-11.3195615603582
30
0
0
SPLINE
5
169
100
AcDbEntity
8
1
62
256
6
ByLayer
370
18
48
1
60
0
100
AcDbSpline
70
4
71
3
72
8
73
4
40
0
40
0
40
0
40
0
40
1
40
1
40
1
40
1
41
1
10
109.279948456829
20
-10.2427938240438
30
0
41
1
10
109.282878291757
20
-10.2754106775337
30
0
41
1
10
109.284345931886
20
-10.3080632843228
30
0
41
1
10
109.284345931886
20
-10.3407517785255
30
0
0
SPLINE
5
16A
100
AcDbEntity
8
1
62
256
6
ByLayer
370
18
48
1
60
0
100
AcDbSpline
70
4
71
3
72
8
73
4
40
0
40
0
40
0
40
0
40
1
40
1
40
1
40
1
41
1
10
109.151296329032
20
-8.76307874524551
30
0
41
1
10
109.19254813023
20
-9.25641030955742
30
0
41
1
10
109.235650283173
20
-9.74963735777277
30
0
41
1
10
109.279948456829
20
-10.2427938240438
30
0
0
SPLINE
5
16B
100
AcDbEntity
8
1
62
256
6
ByLayer
370
18
48
1
60
0
100
AcDbSpline
70
4
71
3
72
8
73
4
40
0
40
0
40
0
40
0
40
1
40
1
40
1
40
1
41
1
10
109.119324257298
20
-8.56665145284308
30
0
41
1
10
109.135128144737
20
-8.6315267287433
30
0
41
1
10
109.145771250032
20
-8.69700415488489
30
0
41
1
10
109.151296329032
20
-8.76307874524548
30
0
0
SPLINE
5
16C
100
AcDbEntity
8
1
62
256
6
ByLayer
370
18
48
1
60
0
100
AcDbSpline
70
4
71
3
72
10
73
6
40
0
40
0
40
0
40
0
40
0.401276015211838
40
0.401276015211838
40
1
40
1
40
1
40
1
41
1
10
108.662197939944
20
-6.51826034340493
30
0
41
1
10
108.716628403242
20
-6.79331420346662
30
0
41
1
10
108.774388071124
20
-7.06787477727553
30
0
41
1
10
108.924557580263
20
-7.75103364110177
30
0
41
1
10
109.020063105129
20
-8.15918242613674
30
0
41
1
10
109.119324257298
20
-8.56665145284308
30
0
0
SPLINE
5
16D
100
AcDbEntity
8
1
62
256
6
ByLayer
370
18
48
1
60
0
100
AcDbSpline
70
4
71
3
72
30
73
26
40
0
40
0
40
0
40
0
40
0.0625000000000146
40
0.0625000000000146
40
0.0937500000000184
40
0.0937500000000184
40
0.125000000000022
40
0.125000000000022
40
0.250000000000028
40
0.250000000000028
40
0.312500000000029
40
0.312500000000029
40
0.375000000000029
40
0.375000000000029
40
0.43750000000003
40
0.43750000000003
40
0.500000000000031
40
0.500000000000031
40
0.625000000000023
40
0.625000000000023
40
0.750000000000015
40
0.750000000000015
40
0.875000000000008
40
0.875000000000008
40
1
40
1
40
1
40
1
41
1
10
13.4613248654053
20
30.0805927603168
30
0
41
1
10
13.4770644463613
20
30.0805927603168
30
0
41
1
10
13.4925182901837
20
30.0801205034907
30
0
41
1
10
13.5153082123103
20
30.0787652114225
30
0
41
1
10
13.5228395300833
20
30.0782053093476
30
0
41
1
10
13.5377759237481
20
30.076876147822
30
0
41
1
10
13.5452163817753
20
30.0761022248718
30
0
41
1
10
13.5815263070003
20
30.07179594856
30
0
41
1
10
13.6079581046677
20
30.0669872793661
30
0
41
1
10
13.6448606867709
20
30.0583172600354
30
0
41
1
10
13.6565013495869
20
30.05522440868
30
0
41
1
10
13.6786197964873
20
30.0487371057377
30
0
41
1
10
13.6891167538209
20
30.0453372280741
30
0
41
1
10
13.7091749421595
20
30.0382729348064
30
0
41
1
10
13.7187352282343
20
30.0346082702023
30
0
41
1
10
13.7370497658742
20
30.0270468182505
30
0
41
1
10
13.7458258793004
20
30.0231382884601
30
0
41
1
10
13.7708221243601
20
30.0112312950128
30
0
41
1
10
13.7858017072528
20
30.0030284643031
30
0
41
1
10
13.8132376332898
20
29.986201042407
30
0
41
1
10
13.8256849705002
20
29.9775752500985
30
0
41
1
10
13.8485243776494
20
29.9599596837524
30
0
41
1
10
13.8589127955725
20
29.9509694256367
30
0
41
1
10
13.8779317869832
20
29.932660186932
30
0
41
1
10
13.8865409364125
20
29.9233580917138
30
0
41
1
10
13.8943375672975
20
29.913954846469
30
0
0
SPLINE
5
16E
100
AcDbEntity
8
1
62
256
6
ByLayer
370
18
48
1
60
0
100
AcDbSpline
70
4
71
3
72
32
73
28
40
0
40
0
40
0
40
0
40
0.25
40
0.25
40
0.374999999999998
40
0.374999999999998
40
0.437499999999994
40
0.437499999999994
40
0.499999999999991
40
0.499999999999991
40
0.62499999999998
40
0.62499999999998
40
0.687499999999978
40
0.687499999999978
40
0.749999999999977
40
0.749999999999977
40
0.812499999999975
40
0.812499999999975
40
0.843749999999976
40
0.843749999999976
40
0.874999999999977
40
0.874999999999977
40
0.937499999999988
40
0.937499999999988
40
0.968749999999994
40
0.968749999999994
40
1
40
1
40
1
40
1
41
1
10
13.8943375672974
20
9.86941261896629
30
0
41
1
10
13.8787501654512
20
9.81243201498816
30
0
41
1
10
13.8600981524864
20
9.75655023082979
30
0
41
1
10
13.8259097308549
20
9.67499387250797
30
0
41
1
10
13.8134681559942
20
9.6481900703121
30
0
41
1
10
13.792841581707
20
9.60870778228681
30
0
41
1
10
13.785636838674
20
9.59566828989813
30
0
41
1
10
13.7704696456803
20
9.56986960560334
30
0
41
1
10
13.7624961131814
20
9.55709686534377
30
0
41
1
10
13.7374904471463
20
9.51963294536134
30
0
41
1
10
13.7193382950672
20
9.49566900868396
30
0
41
1
10
13.689039794361
20
9.46183015552276
30
0
41
1
10
13.6784124135706
20
9.45090526429337
30
0
41
1
10
13.6562779758131
20
9.43026612350769
30
0
41
1
10
13.6447350068564
20
9.42050719110844
30
0
41
1
10
13.6205171073694
20
9.4023250536126
30
0
41
1
10
13.607843974168
20
9.39389972204387
30
0
41
1
10
13.5877822000581
20
9.38250456041442
30
0
41
1
10
13.5808872163667
20
9.37890069603398
30
0
41
1
10
13.5669060817703
20
9.37226208194025
30
0
41
1
10
13.559813636811
20
9.36922064667922
30
0
41
1
10
13.5382117701416
20
9.36098178019486
30
0
41
1
10
13.5233796774592
20
9.3566647218021
30
0
41
1
10
13.5003821923576
20
9.35223451981227
30
0
41
1
10
13.4925919071141
20
9.35110433740229
30
0
41
1
10
13.4770081601072
20
9.34960123302486
30
0
41
1
10
13.4691833484067
20
9.34922131452515
30
0
41
1
10
13.4613248654052
20
9.34922131452515
30
0
0
SPLINE
5
16F
100
AcDbEntity
8
1
62
256
6
ByLayer
370
18
48
1
60
0
100
AcDbSpline
70
4
71
3
72
30
73
26
40
0
40
0
40
0
40
0
40
0.0624999999999983
40
0.0624999999999983
40
0.0937499999999968
40
0.0937499999999968
40
0.124999999999995
40
0.124999999999995
40
0.249999999999993
40
0.249999999999993
40
0.31249999999999
40
0.31249999999999
40
0.374999999999986
40
0.374999999999986
40
0.437499999999982
40
0.437499999999982
40
0.499999999999978
40
0.499999999999978
40
0.624999999999984
40
0.624999999999984
40
0.749999999999989
40
0.749999999999989
40
0.874999999999995
40
0.874999999999995
40
1
40
1
40
1
40
1
41
1
10
10.5386751345949
20
9.34922131452518
30
0
41
1
10
10.5229355536389
20
9.34922131452518
30
0
41
1
10
10.5074817098166
20
9.35074113394293
30
0
41
1
10
10.4846917876899
20
9.35509944740036
30
0
41
1
10
10.4771604699169
20
9.35689961322674
30
0
41
1
10
10.4622240762521
20
9.3611711976572
30
0
41
1
10
10.4547836182249
20
9.36365758390278
30
0
41
1
10
10.4184736929999
20
9.37748487924972
30
0
41
1
10
10.3920418953325
20
9.39290424748316
30
0
41
1
10
10.3551393132293
20
9.42059748954586
30
0
41
1
10
10.3434986504133
20
9.43046143490429
30
0
41
1
10
10.3213802035129
20
9.45111186483334
30
0
41
1
10
10.3108832461793
20
9.46191570446791
30
0
41
1
10
10.2908250578407
20
9.48431848058814
30
0
41
1
10
10.2812647717658
20
9.49591822570969
30
0
41
1
10
10.262950234126
20
9.51980127252986
30
0
41
1
10
10.2541741206997
20
9.53212142663475
30
0
41
1
10
10.2291778756401
20
9.56957065273534
30
0
41
1
10
10.2141982927474
20
9.59526142127675
30
0
41
1
10
10.1867623667104
20
9.64772023935049
30
0
41
1
10
10.1743150294999
20
9.67449223197175
30
0
41
1
10
10.1514756223508
20
9.72890711075647
30
0
41
1
10
10.1410872044277
20
9.75655159685459
30
0
41
1
10
10.122068213017
20
9.8125798203717
30
0
41
1
10
10.1134590635877
20
9.84091160634028
30
0
41
1
10
10.1056624327026
20
9.86941261896624
30
0
0
SPLINE
5
170
100
AcDbEntity
8
1
62
256
6
ByLayer
370
18
48
1
60
0
100
AcDbSpline
70
4
71
3
72
32
73
28
40
0
40
0
40
0
40
0
40
0.250000000000002
40
0.250000000000002
40
0.375000000000002
40
0.375000000000002
40
0.437500000000002
40
0.437500000000002
40
0.500000000000001
40
0.500000000000001
40
0.625
40
0.625
40
0.687500000000002
40
0.687500000000002
40
0.750000000000003
40
0.750000000000003
40
0.812500000000004
40
0.812500000000004
40
0.843750000000003
40
0.843750000000003
40
0.875000000000002
40
0.875000000000002
40
0.937499999999998
40
0.937499999999998
40
0.968749999999999
40
0.968749999999999
40
1
40
1
40
1
40
1
41
1
10
10.1056624327028
20
29.913954846469
30
0
41
1
10
10.1212498345489
20
29.9327542695083
30
0
41
1
10
10.1399018475137
20
29.9510098933135
30
0
41
1
10
10.1740902691452
20
29.9774133319729
30
0
41
1
10
10.1865318440059
20
29.9860499646857
30
0
41
1
10
10.2071584182931
20
29.99871540223
30
0
41
1
10
10.2143631613261
20
30.0028887514665
30
0
41
1
10
10.2295303543199
20
30.0111275878529
30
0
41
1
10
10.2375038868187
20
30.0151973377027
30
0
41
1
10
10.2625095528538
20
30.027109009107
30
0
41
1
10
10.2806617049329
20
30.0346937657147
30
0
41
1
10
10.3109602056392
20
30.0453642012994
30
0
41
1
10
10.3215875864296
20
30.0488020840795
30
0
41
1
10
10.3437220241871
20
30.0552856889209
30
0
41
1
10
10.3552649931438
20
30.0583455135274
30
0
41
1
10
10.3794828926308
20
30.0640378913833
30
0
41
1
10
10.3921560258322
20
30.0666711051738
30
0
41
1
10
10.412217799942
20
30.0702282001223
30
0
41
1
10
10.4191127836334
20
30.0713523776808
30
0
41
1
10
10.4330939182298
20
30.0734220792403
30
0
41
1
10
10.4401863631892
20
30.0743696982574
30
0
41
1
10
10.4617882298586
20
30.076935568727
30
0
41
1
10
10.476620322541
20
30.0782784555613
30
0
41
1
10
10.4996178076426
20
30.0796561130285
30
0
41
1
10
10.5074080928861
20
30.0800074516351
30
0
41
1
10
10.522991839893
20
30.080474687126
30
0
41
1
10
10.5308166515935
20
30.0805927603169
30
0
41
1
10
10.538675134595
20
30.0805927603169
30
0
0
SPLINE
5
171
100
AcDbEntity
8
1
62
256
6
ByLayer
370
18
48
1
60
0
100
AcDbSpline
70
4
71
3
72
30
73
26
40
0
40
0
40
0
40
0
40
0.0625000000000012
40
0.0625000000000012
40
0.0937499999999991
40
0.0937499999999991
40
0.124999999999997
40
0.124999999999997
40
0.249999999999995
40
0.249999999999995
40
0.312499999999995
40
0.312499999999995
40
0.374999999999996
40
0.374999999999996
40
0.437499999999996
40
0.437499999999996
40
0.499999999999996
40
0.499999999999996
40
0.624999999999997
40
0.624999999999997
40
0.749999999999998
40
0.749999999999998
40
0.874999999999999
40
0.874999999999999
40
1
40
1
40
1
40
1
41
1
10
10.5386751345947
20
-30.0805927603169
30
0
41
1
10
10.5229355536387
20
-30.0805927603169
30
0
41
1
10
10.5074817098164
20
-30.0801205034908
30
0
41
1
10
10.4846917876897
20
-30.0787652114226
30
0
41
1
10
10.4771604699168
20
-30.0782053093478
30
0
41
1
10
10.4622240762519
20
-30.0768761478221
30
0
41
1
10
10.4547836182247
20
-30.0761022248719
30
0
41
1
10
10.4184736929997
20
-30.0717959485601
30
0
41
1
10
10.3920418953324
20
-30.0669872793662
30
0
41
1
10
10.3551393132291
20
-30.0583172600356
30
0
41
1
10
10.3434986504132
20
-30.0552244086802
30
0
41
1
10
10.3213802035127
20
-30.0487371057379
30
0
41
1
10
10.3108832461792
20
-30.0453372280742
30
0
41
1
10
10.2908250578406
20
-30.0382729348065
30
0
41
1
10
10.2812647717657
20
-30.0346082702024
30
0
41
1
10
10.2629502341259
20
-30.0270468182507
30
0
41
1
10
10.2541741206996
20
-30.0231382884602
30
0
41
1
10
10.2291778756399
20
-30.011231295013
30
0
41
1
10
10.2141982927472
20
-30.0030284643033
30
0
41
1
10
10.1867623667102
20
-29.9862010424071
30
0
41
1
10
10.1743150294998
20
-29.9775752500986
30
0
41
1
10
10.1514756223506
20
-29.9599596837525
30
0
41
1
10
10.1410872044275
20
-29.9509694256368
30
0
41
1
10
10.1220682130168
20
-29.9326601869321
30
0
41
1
10
10.1134590635875
20
-29.9233580917139
30
0
41
1
10
10.1056624327025
20
-29.9139548464691
30
0
0
SPLINE
5
172
100
AcDbEntity
8
1
62
256
6
ByLayer
370
18
48
1
60
0
100
AcDbSpline
70
4
71
3
72
32
73
28
40
0
40
0
40
0
40
0
40
0.250000000000011
40
0.250000000000011
40
0.375000000000013
40
0.375000000000013
40
0.437500000000011
40
0.437500000000011
40
0.500000000000009
40
0.500000000000009
40
0.625000000000004
40
0.625000000000004
40
0.687500000000003
40
0.687500000000003
40
0.750000000000002
40
0.750000000000002
40
0.812500000000001
40
0.812500000000001
40
0.843749999999999
40
0.843749999999999
40
0.874999999999997
40
0.874999999999997
40
0.937499999999999
40
0.937499999999999
40
0.96875
40
0.96875
40
1
40
1
40
1
40
1
41
1
10
10.1056624327026
20
-9.86941261896641
30
0
41
1
10
10.1212498345488
20
-9.81243201498827
30
0
41
1
10
10.1399018475136
20
-9.75655023082982
30
0
41
1
10
10.1740902691451
20
-9.674993872508
30
0
41
1
10
10.1865318440058
20
-9.6481900703121
30
0
41
1
10
10.207158418293
20
-9.60870778228684
30
0
41
1
10
10.214363161326
20
-9.59566828989816
30
0
41
1
10
10.2295303543197
20
-9.56986960560337
30
0
41
1
10
10.2375038868186
20
-9.55709686534379
30
0
41
1
10
10.2625095528537
20
-9.51963294536137
30
0
41
1
10
10.2806617049328
20
-9.49566900868399
30
0
41
1
10
10.310960205639
20
-9.46183015552279
30
0
41
1
10
10.3215875864294
20
-9.45090526429337
30
0
41
1
10
10.343722024187
20
-9.43026612350769
30
0
41
1
10
10.3552649931436
20
-9.42050719110844
30
0
41
1
10
10.3794828926306
20
-9.4023250536126
30
0
41
1
10
10.392156025832
20
-9.39389972204387
30
0
41
1
10
10.4122177999419
20
-9.38250456041442
30
0
41
1
10
10.4191127836333
20
-9.37890069603398
30
0
41
1
10
10.4330939182297
20
-9.37226208194025
30
0
41
1
10
10.4401863631891
20
-9.36922064667922
30
0
41
1
10
10.4617882298584
20
-9.36098178019489
30
0
41
1
10
10.4766203225409
20
-9.3566647218021
30
0
41
1
10
10.4996178076424
20
-9.35223451981227
30
0
41
1
10
10.5074080928859
20
-9.35110433740232
30
0
41
1
10
10.5229918398929
20
-9.34960123302488
30
0
41
1
10
10.5308166515934
20
-9.34922131452515
30
0
41
1
10
10.5386751345948
20
-9.34922131452515
30
0
0
SPLINE
5
173
100
AcDbEntity
8
1
62
256
6
ByLayer
370
18
48
1
60
0
100
AcDbSpline
70
4
71
3
72
30
73
26
40
0
40
0
40
0
40
0
40
0.0624999999999889
40
0.0624999999999889
40
0.0937499999999841
40
0.0937499999999841
40
0.124999999999979
40
0.124999999999979
40
0.249999999999981
40
0.249999999999981
40
0.312499999999985
40
0.312499999999985
40
0.37499999999999
40
0.37499999999999
40
0.437499999999995
40
0.437499999999995
40
0.499999999999999
40
0.499999999999999
40
0.625
40
0.625
40
0.75
40
0.75
40
0.875
40
0.875
40
1
40
1
40
1
40
1
41
1
10
13.4613248654051
20
-9.34922131452529
30
0
41
1
10
13.4770644463612
20
-9.34922131452529
30
0
41
1
10
13.4925182901835
20
-9.35074113394305
30
0
41
1
10
13.5153082123101
20
-9.35509944740048
30
0
41
1
10
13.5228395300831
20
-9.35689961322686
30
0
41
1
10
13.5377759237479
20
-9.36117119765731
30
0
41
1
10
13.5452163817752
20
-9.36365758390292
30
0
41
1
10
13.5815263070002
20
-9.37748487924983
30
0
41
1
10
13.6079581046675
20
-9.39290424748324
30
0
41
1
10
13.6448606867708
20
-9.42059748954594
30
0
41
1
10
13.6565013495867
20
-9.4304614349044
30
0
41
1
10
13.6786197964871
20
-9.45111186483345
30
0
41
1
10
13.6891167538207
20
-9.46191570446803
30
0
41
1
10
13.7091749421593
20
-9.48431848058826
30
0
41
1
10
13.7187352282342
20
-9.49591822570977
30
0
41
1
10
13.737049765874
20
-9.51980127252995
30
0
41
1
10
13.7458258793003
20
-9.53212142663486
30
0
41
1
10
13.7708221243599
20
-9.56957065273542
30
0
41
1
10
13.7858017072526
20
-9.59526142127683
30
0
41
1
10
13.8132376332896
20
-9.64772023935058
30
0
41
1
10
13.8256849705001
20
-9.67449223197181
30
0
41
1
10
13.8485243776492
20
-9.72890711075652
30
0
41
1
10
13.8589127955723
20
-9.75655159685465
30
0
41
1
10
13.877931786983
20
-9.81257982037175
30
0
41
1
10
13.8865409364123
20
-9.8409116063404
30
0
41
1
10
13.8943375672974
20
-9.86941261896635
30
0
0
SPLINE
5
174
100
AcDbEntity
8
1
62
256
6
ByLayer
370
18
48
1
60
0
100
AcDbSpline
70
4
71
3
72
32
73
28
40
0
40
0
40
0
40
0
40
0.249999999999988
40
0.249999999999988
40
0.374999999999984
40
0.374999999999984
40
0.437499999999984
40
0.437499999999984
40
0.499999999999984
40
0.499999999999984
40
0.624999999999991
40
0.624999999999991
40
0.68749999999999
40
0.68749999999999
40
0.749999999999989
40
0.749999999999989
40
0.812499999999989
40
0.812499999999989
40
0.843749999999992
40
0.843749999999992
40
0.874999999999994
40
0.874999999999994
40
0.937500000000001
40
0.937500000000001
40
0.968750000000001
40
0.968750000000001
40
1
40
1
40
1
40
1
41
1
10
13.8943375672972
20
-29.9139548464691
30
0
41
1
10
13.8787501654511
20
-29.9327542695084
30
0
41
1
10
13.8600981524862
20
-29.9510098933136
30
0
41
1
10
13.8259097308547
20
-29.977413331973
30
0
41
1
10
13.8134681559941
20
-29.9860499646858
30
0
41
1
10
13.7928415817069
20
-29.9987154022301
30
0
41
1
10
13.7856368386739
20
-30.0028887514666
30
0
41
1
10
13.7704696456801
20
-30.011127587853
30
0
41
1
10
13.7624961131813
20
-30.0151973377028
30
0
41
1
10
13.7374904471462
20
-30.0271090091071
30
0
41
1
10
13.7193382950671
20
-30.0346937657148
30
0
41
1
10
13.6890397943609
20
-30.0453642012995
30
0
41
1
10
13.6784124135704
20
-30.0488020840796
30
0
41
1
10
13.6562779758129
20
-30.0552856889209
30
0
41
1
10
13.6447350068562
20
-30.0583455135275
30
0
41
1
10
13.6205171073692
20
-30.0640378913834
30
0
41
1
10
13.6078439741678
20
-30.0666711051738
30
0
41
1
10
13.587782200058
20
-30.0702282001224
30
0
41
1
10
13.5808872163666
20
-30.0713523776808
30
0
41
1
10
13.5669060817702
20
-30.0734220792404
30
0
41
1
10
13.5598136368108
20
-30.0743696982575
30
0
41
1
10
13.5382117701414
20
-30.076935568727
30
0
41
1
10
13.523379677459
20
-30.0782784555614
30
0
41
1
10
13.5003821923574
20
-30.0796561130286
30
0
41
1
10
13.492591907114
20
-30.0800074516351
30
0
41
1
10
13.477008160107
20
-30.080474687126
30
0
41
1
10
13.4691833484065
20
-30.0805927603169
30
0
41
1
10
13.4613248654051
20
-30.080592760317
30
0
0
SPLINE
5
175
100
AcDbEntity
8
1
62
256
6
ByLayer
370
18
48
1
60
0
100
AcDbSpline
70
4
71
3
72
38
73
34
40
0
40
0
40
0
40
0
40
0.0624999999999901
40
0.0624999999999901
40
0.0937500000000135
40
0.0937500000000135
40
0.125000000000037
40
0.125000000000037
40
0.187500000000023
40
0.187500000000023
40
0.250000000000009
40
0.250000000000009
40
0.312499999999995
40
0.312499999999995
40
0.374999999999981
40
0.374999999999981
40
0.437499999999968
40
0.437499999999968
40
0.499999999999954
40
0.499999999999954
40
0.624999999999979
40
0.624999999999979
40
0.750000000000004
40
0.750000000000004
40
0.812500000000017
40
0.812500000000017
40
0.875000000000029
40
0.875000000000029
40
0.906250000000024
40
0.906250000000024
40
0.937500000000018
40
0.937500000000018
40
1
40
1
40
1
40
1
41
1
10
104.112067462594
20
9.82061050051692
30
0
41
1
10
104.123814527157
20
9.81376353333044
30
0
41
1
10
104.13638437196
20
9.80897967631202
30
0
41
1
10
104.156073737535
20
9.80386019932391
30
0
41
1
10
104.162781035531
20
9.80251109249062
30
0
41
1
10
104.176250777994
20
9.80045745163937
30
0
41
1
10
104.183039830469
20
9.7997458393065
30
0
41
1
10
104.203552144251
20
9.79843166807458
30
0
41
1
10
104.217273002348
20
9.79864949055832
30
0
41
1
10
104.244730055763
20
9.80080394854591
30
0
41
1
10
104.258424068885
20
9.80274539535785
30
0
41
1
10
104.285547096557
20
9.80805264172596
30
0
41
1
10
104.299048370945
20
9.81143674280554
30
0
41
1
10
104.325637023992
20
9.81943380256047
30
0
41
1
10
104.338739098915
20
9.82404677641293
30
0
41
1
10
104.364588499098
20
9.83441804455444
30
0
41
1
10
104.377324312822
20
9.84017635797127
30
0
41
1
10
104.402200504745
20
9.85268327489604
30
0
41
1
10
104.414373944203
20
9.85944475671204
30
0
41
1
10
104.450102464828
20
9.88124728343357
30
0
41
1
10
104.472556447221
20
9.89759102161287
30
0
41
1
10
104.514355328206
20
9.93391147900527
30
0
41
1
10
104.53357015221
20
9.95378143798368
30
0
41
1
10
104.558777418691
20
9.98604424791401
30
0
41
1
10
104.566596445233
20
9.99724775083939
30
0
41
1
10
104.580635893007
20
10.0203881255713
30
0
41
1
10
104.586906137495
20
10.0323973011894
30
0
41
1
10
104.594752388961
20
10.0509933357264
30
0
41
1
10
104.597102269729
20
10.0572770553877
30
0
41
1
10
104.601189195468
20
10.0700449240803
30
0
41
1
10
104.602929956014
20
10.0765528175
30
0
41
1
10
104.606988174087
20
10.0961379402303
30
0
41
1
10
104.608220605246
20
10.1093328543159
30
0
41
1
10
104.607232773227
20
10.1227523676087
30
0
0
SPLINE
5
176
100
AcDbEntity
8
1
62
256
6
ByLayer
370
18
48
1
60
0
100
AcDbSpline
70
4
71
3
72
8
73
4
40
0
40
0
40
0
40
0
40
1
40
1
40
1
40
1
41
1
10
104.607232773227
20
10.1227523676087
30
0
41
1
10
104.606696397951
20
10.1300389254533
30
0
41
1
10
104.606159657636
20
10.1373248107955
30
0
41
1
10
104.605622570652
20
10.144610055405
30
0
0
SPLINE
5
177
100
AcDbEntity
8
1
62
256
6
ByLayer
370
18
48
1
60
0
100
AcDbSpline
70
4
71
3
72
28
73
24
40
0
40
0
40
0
40
0
40
0.249999999999992
40
0.249999999999992
40
0.37499999999996
40
0.37499999999996
40
0.499999999999928
40
0.499999999999928
40
0.624999999999895
40
0.624999999999895
40
0.687499999999879
40
0.687499999999879
40
0.749999999999863
40
0.749999999999863
40
0.812499999999847
40
0.812499999999847
40
0.843749999999839
40
0.843749999999839
40
0.874999999999831
40
0.874999999999831
40
0.937499999999916
40
0.937499999999916
40
1
40
1
40
1
40
1
41
1
10
103.786985431018
20
9.66742689368331
30
0
41
1
10
103.803452513706
20
9.69635455141724
30
0
41
1
10
103.822311227275
20
9.72390920169147
30
0
41
1
10
103.85423348006
20
9.76221290621476
30
0
41
1
10
103.865497986124
20
9.7744789227734
30
0
41
1
10
103.889321474945
20
9.79759967929064
30
0
41
1
10
103.90192529398
20
9.80850076574515
30
0
41
1
10
103.928523395751
20
9.82821962147099
30
0
41
1
10
103.942650043532
20
9.83713255709699
30
0
41
1
10
103.964800036962
20
9.84793457198091
30
0
41
1
10
103.972354063729
20
9.85111441466597
30
0
41
1
10
103.987889777647
20
9.85640746529384
30
0
41
1
10
103.99594737105
20
9.85853190622251
30
0
41
1
10
104.012118323776
20
9.86125382101321
30
0
41
1
10
104.020246605206
20
9.86187204106565
30
0
41
1
10
104.032514694701
20
9.86138458437949
30
0
41
1
10
104.036633183887
20
9.86097855977192
30
0
41
1
10
104.044675777622
20
9.8596621606041
30
0
41
1
10
104.048624421605
20
9.8587528281117
30
0
41
1
10
104.060240813619
20
9.85523636774789
30
0
41
1
10
104.067768809413
20
9.85176048259359
30
0
41
1
10
104.081305208065
20
9.84304604392511
30
0
41
1
10
104.087415136446
20
9.83780911838807
30
0
41
1
10
104.0929237589
20
9.83176952939851
30
0
0
SPLINE
5
178
100
AcDbEntity
8
1
62
256
6
ByLayer
370
18
48
1
60
0
100
AcDbSpline
70
4
71
3
72
8
73
4
40
0
40
0
40
0
40
0
40
1
40
1
40
1
40
1
41
1
10
104.0929237589
20
9.83176952939849
30
0
41
1
10
104.099304405337
20
9.82804993029285
30
0
41
1
10
104.105685630322
20
9.82433025500751
30
0
41
1
10
104.112067462594
20
9.82061050051692
30
0
0
SPLINE
5
179
100
AcDbEntity
8
1
62
256
6
ByLayer
370
18
48
1
60
0
100
AcDbSpline
70
4
71
3
72
30
73
26
40
0
40
0
40
0
40
0
40
0.249999999999967
40
0.249999999999967
40
0.37499999999995
40
0.37499999999995
40
0.499999999999934
40
0.499999999999934
40
0.624999999999917
40
0.624999999999917
40
0.687499999999909
40
0.687499999999909
40
0.749999999999901
40
0.749999999999901
40
0.781249999999896
40
0.781249999999896
40
0.812499999999892
40
0.812499999999892
40
0.874999999999936
40
0.874999999999936
40
0.906249999999952
40
0.906249999999952
40
0.937499999999968
40
0.937499999999968
40
1
40
1
40
1
40
1
41
1
10
104.886375612132
20
10.3382570080946
30
0
41
1
10
104.853457086291
20
10.3370414004753
30
0
41
1
10
104.820698820856
20
10.3330843404735
30
0
41
1
10
104.772546263388
20
10.3225357179731
30
0
41
1
10
104.756691928102
20
10.3182467218389
30
0
41
1
10
104.725592511862
20
10.3078626056777
30
0
41
1
10
104.710349589515
20
10.301772154012
30
0
41
1
10
104.680988591975
20
10.2873612380979
30
0
41
1
10
104.666935818123
20
10.2790819263268
30
0
41
1
10
104.647556902454
20
10.2645783690778
30
0
41
1
10
104.641370088283
20
10.2593859453409
30
0
41
1
10
104.629711285617
20
10.2480748557957
30
0
41
1
10
104.62429812147
20
10.2420018504546
30
0
41
1
10
104.617138636668
20
10.2323020890417
30
0
41
1
10
104.614904968971
20
10.2289623001307
30
0
41
1
10
104.610787719611
20
10.2220401547754
30
0
41
1
10
104.608896980406
20
10.2184381665711
30
0
41
1
10
104.603939489661
20
10.207452393714
30
0
41
1
10
104.601545352329
20
10.1998469349408
30
0
41
1
10
104.599561342386
20
10.1879497968556
30
0
41
1
10
104.599177925651
20
10.183921894835
30
0
41
1
10
104.59898561294
20
10.1759504897336
30
0
41
1
10
104.599171067275
20
10.1719776552129
30
0
41
1
10
104.600554714642
20
10.1600978810744
30
0
41
1
10
104.6026143749
20
10.1521797084949
30
0
41
1
10
104.605622570652
20
10.144610055405
30
0
0
SPLINE
5
17A
100
AcDbEntity
8
1
62
256
6
ByLayer
370
18
48
1
60
0
100
AcDbSpline
70
4
71
3
72
38
73
34
40
0
40
0
40
0
40
0
40
0.0625000000000109
40
0.0625000000000109
40
0.0937500000000142
40
0.0937500000000142
40
0.125000000000017
40
0.125000000000017
40
0.187500000000018
40
0.187500000000018
40
0.250000000000019
40
0.250000000000019
40
0.31250000000002
40
0.31250000000002
40
0.375000000000021
40
0.375000000000021
40
0.437500000000022
40
0.437500000000022
40
0.500000000000023
40
0.500000000000023
40
0.625000000000025
40
0.625000000000025
40
0.750000000000027
40
0.750000000000027
40
0.812500000000028
40
0.812500000000028
40
0.875000000000029
40
0.875000000000029
40
0.906250000000012
40
0.906250000000012
40
0.937499999999996
40
0.937499999999996
40
1
40
1
40
1
40
1
41
1
10
103.817789502924
20
8.73594055905957
30
0
41
1
10
103.829341776651
20
8.74108759488152
30
0
41
1
10
103.839576669073
20
8.74802435877299
30
0
41
1
10
103.853628731946
20
8.76023906143445
30
0
41
1
10
103.858086316362
20
8.76462441992842
30
0
41
1
10
103.866492512146
20
8.77380690958483
30
0
41
1
10
103.870460243738
20
8.77862044895554
30
0
41
1
10
103.881754556745
20
8.79364790332539
30
0
41
1
10
103.888399176627
20
8.80433514060215
30
0
41
1
10
103.900278785934
20
8.82674072934068
30
0
41
1
10
103.905488777177
20
8.83842934077197
30
0
41
1
10
103.914610492912
20
8.8624683438612
30
0
41
1
10
103.91854307833
20
8.87488522447708
30
0
41
1
10
103.925202788946
20
8.90016514564181
30
0
41
1
10
103.927937165561
20
8.91303938443392
30
0
41
1
10
103.932302714077
20
8.939240394634
30
0
41
1
10
103.933928175918
20
8.95255840112836
30
0
41
1
10
103.936085665561
20
8.9793741325916
30
0
41
1
10
103.93662358028
20
8.99290509914911
30
0
41
1
10
103.936622320279
20
9.03386927877617
30
0
41
1
10
103.934490749691
20
9.06130499521936
30
0
41
1
10
103.925749777013
20
9.11610697489297
30
0
41
1
10
103.919162837763
20
9.14330754057144
30
0
41
1
10
103.905465967507
20
9.18280569650295
30
0
41
1
10
103.900241274699
20
9.1957932022458
30
0
41
1
10
103.888382487734
20
9.22094775199761
30
0
41
1
10
103.881714395826
20
9.23319822240333
30
0
41
1
10
103.870438054215
20
9.25067051044041
30
0
41
1
10
103.866473845991
20
9.25633219978778
30
0
41
1
10
103.858066450195
20
9.26727944395
30
0
41
1
10
103.853605634471
20
9.27258220832928
30
0
41
1
10
103.839573828729
20
9.28757933639366
30
0
41
1
10
103.829347906356
20
9.296460625728
30
0
41
1
10
103.817789502924
20
9.30365359579778
30
0
0
SPLINE
5
17B
100
AcDbEntity
8
1
62
256
6
ByLayer
370
18
48
1
60
0
100
AcDbSpline
70
4
71
3
72
8
73
4
40
0
40
0
40
0
40
0
40
1
40
1
40
1
40
1
41
1
10
103.817789502924
20
9.30365359579778
30
0
41
1
10
103.811513494743
20
9.30755925104353
30
0
41
1
10
103.805238076247
20
9.31146479616152
30
0
41
1
10
103.798963219549
20
9.31537023567552
30
0
0
SPLINE
5
17C
100
AcDbEntity
8
1
62
256
6
ByLayer
370
18
48
1
60
0
100
AcDbSpline
70
4
71
3
72
30
73
26
40
0
40
0
40
0
40
0
40
0.250000000000093
40
0.250000000000093
40
0.37500000000014
40
0.37500000000014
40
0.500000000000187
40
0.500000000000187
40
0.625000000000234
40
0.625000000000234
40
0.687500000000247
40
0.687500000000247
40
0.75000000000026
40
0.75000000000026
40
0.781250000000248
40
0.781250000000248
40
0.812500000000237
40
0.812500000000237
40
0.87500000000015
40
0.87500000000015
40
0.906250000000111
40
0.906250000000111
40
0.937500000000072
40
0.937500000000072
40
1
40
1
40
1
40
1
41
1
10
103.786985431018
20
9.66742689368331
30
0
41
1
10
103.770526168098
20
9.6385129729029
30
0
41
1
10
103.75646720498
20
9.60825457717254
30
0
41
1
10
103.739781893894
20
9.56117718803878
30
0
41
1
10
103.734974229729
20
9.5452280043996
30
0
41
1
10
103.727193649973
20
9.51283899873258
30
0
41
1
10
103.724218105051
20
9.49640399094943
30
0
41
1
10
103.720717995447
20
9.46321570588154
30
0
41
1
10
103.72019385118
20
9.44654200876522
30
0
41
1
10
103.722027573745
20
9.42174925997435
30
0
41
1
10
103.723078549435
20
9.41350616572242
30
0
41
1
10
103.726320119368
20
9.39707422647911
30
0
41
1
10
103.728503783572
20
9.38896156838914
30
0
41
1
10
103.732767159472
20
9.37724343836959
30
0
41
1
10
103.734355886913
20
9.37340166428632
30
0
41
1
10
103.737915602641
20
9.36586502237694
30
0
41
1
10
103.739899038889
20
9.36215253247326
30
0
41
1
10
103.746369139761
20
9.35150059373228
30
0
41
1
10
103.751388170264
20
9.34498680984248
30
0
41
1
10
103.760152622867
20
9.33625062578605
30
0
41
1
10
103.763269413934
20
9.33353078806709
30
0
41
1
10
103.769731126788
20
9.32861473151988
30
0
41
1
10
103.773097263865
20
9.32639634977178
30
0
41
1
10
103.783592005095
20
9.32044492574045
30
0
41
1
10
103.791175700476
20
9.31741375881325
30
0
41
1
10
103.798963219549
20
9.31537023567552
30
0
0
SPLINE
5
17D
100
AcDbEntity
8
1
62
256
6
ByLayer
370
18
48
1
60
0
100
AcDbSpline
70
4
71
3
72
8
73
4
40
0
40
0
40
0
40
0
40
1
40
1
40
1
40
1
41
1
10
103.798963219549
20
8.72755482716084
30
0
41
1
10
103.805238076247
20
8.73034909946256
30
0
41
1
10
103.811513494743
20
8.73314432693365
30
0
41
1
10
103.817789502924
20
8.73594055905957
30
0
0
SPLINE
5
17E
100
AcDbEntity
8
1
62
256
6
ByLayer
370
18
48
1
60
0
100
AcDbSpline
70
4
71
3
72
28
73
24
40
0
40
0
40
0
40
0
40
0.249999999999972
40
0.249999999999972
40
0.374999999999976
40
0.374999999999976
40
0.499999999999979
40
0.499999999999979
40
0.624999999999983
40
0.624999999999983
40
0.687499999999978
40
0.687499999999978
40
0.749999999999974
40
0.749999999999974
40
0.81249999999997
40
0.81249999999997
40
0.843749999999999
40
0.843749999999999
40
0.875000000000028
40
0.875000000000028
40
0.937500000000014
40
0.937500000000014
40
1
40
1
40
1
40
1
41
1
10
103.786985431018
20
8.40696271156398
30
0
41
1
10
103.770518348331
20
8.43467418414551
30
0
41
1
10
103.756445361557
20
8.46360221148862
30
0
41
1
10
103.739766930804
20
8.5083274895257
30
0
41
1
10
103.734952410463
20
8.52347316239556
30
0
41
1
10
103.727178815469
20
8.55404966897751
30
0
41
1
10
103.724202813158
20
8.56953982856217
30
0
41
1
10
103.720716777757
20
8.60050335521029
30
0
41
1
10
103.720192123529
20
8.61612979738291
30
0
41
1
10
103.722054170047
20
8.63892912005707
30
0
41
1
10
103.723115616261
20
8.64643398737539
30
0
41
1
10
103.726350298472
20
8.66119173118474
30
0
41
1
10
103.728551684966
20
8.66850878441508
30
0
41
1
10
103.734266808858
20
8.68234739491791
30
0
41
1
10
103.737770470459
20
8.68889170998139
30
0
41
1
10
103.744250898554
20
8.69798187420008
30
0
41
1
10
103.746629858517
20
8.70089916392655
30
0
41
1
10
103.751714447784
20
8.70630473859578
30
0
41
1
10
103.754431346802
20
8.70881232459465
30
0
41
1
10
103.763128949999
20
8.7157196168219
30
0
41
1
10
103.769768217961
20
8.71952741602928
30
0
41
1
10
103.783768927882
20
8.72499288096674
30
0
41
1
10
103.791179297437
20
8.72672904384584
30
0
41
1
10
103.798963219549
20
8.72755482716084
30
0
0
SPLINE
5
17F
100
AcDbEntity
8
1
62
256
6
ByLayer
370
18
48
1
60
0
100
AcDbSpline
70
4
71
3
72
38
73
34
40
0
40
0
40
0
40
0
40
0.0624999999999972
40
0.0624999999999972
40
0.0937500000000067
40
0.0937500000000067
40
0.125000000000016
40
0.125000000000016
40
0.187500000000035
40
0.187500000000035
40
0.250000000000054
40
0.250000000000054
40
0.312500000000073
40
0.312500000000073
40
0.375000000000091
40
0.375000000000091
40
0.43750000000011
40
0.43750000000011
40
0.500000000000129
40
0.500000000000129
40
0.62500000000011
40
0.62500000000011
40
0.750000000000091
40
0.750000000000091
40
0.812500000000083
40
0.812500000000083
40
0.875000000000074
40
0.875000000000074
40
0.906250000000042
40
0.906250000000042
40
0.937500000000011
40
0.937500000000011
40
1
40
1
40
1
40
1
41
1
10
105.195788692568
20
10.1444864228765
30
0
41
1
10
105.197165582387
20
10.1310884126622
30
0
41
1
10
105.200604847965
20
10.1180561725818
30
0
41
1
10
105.207812239514
20
10.0988571608942
30
0
41
1
10
105.21057027249
20
10.0925189524764
30
0
41
1
10
105.216608425812
20
10.0801252583733
30
0
41
1
10
105.219898171692
20
10.0740437471071
30
0
41
1
10
105.230469246672
20
10.056095042944
30
0
41
1
10
105.238368772591
20
10.0446477896741
30
0
41
1
10
105.255449567199
20
10.0226110936146
30
0
41
1
10
105.264610751204
20
10.0120596473582
30
0
41
1
10
105.283816598227
20
9.99189723553675
30
0
41
1
10
105.29391553545
20
9.98223466748004
30
0
41
1
10
105.314752478257
20
9.96387335232964
30
0
41
1
10
105.325498908748
20
9.95516225812705
30
0
41
1
10
105.347591397622
20
9.93860962311547
30
0
41
1
10
105.358930892123
20
9.93077777187608
30
0
41
1
10
105.38195439406
20
9.91610693950221
30
0
41
1
10
105.393666413604
20
9.90924660005314
30
0
41
1
10
105.429396015442
20
9.89008515949826
30
0
41
1
10
105.453676362797
20
9.87935568124826
30
0
41
1
10
105.502997564134
20
9.86232158145259
30
0
41
1
10
105.527888393608
20
9.8560729125673
30
0
41
1
10
105.564983928123
20
9.85098568663801
30
0
41
1
10
105.57734866584
20
9.85000812652947
30
0
41
1
10
105.601746295497
20
9.84977625601863
30
0
41
1
10
105.613858520188
20
9.8505161538418
30
0
41
1
10
105.631630296225
20
9.85324429801599
30
0
41
1
10
105.63747639375
20
9.85442217297663
30
0
41
1
10
105.648996021262
20
9.85740046488601
30
0
41
1
10
105.654688950975
20
9.85920972559492
30
0
41
1
10
105.671211220654
20
9.86565977930641
30
0
41
1
10
105.681566157999
20
9.87128395782662
30
0
41
1
10
105.690954003201
20
9.8789152532301
30
0
0
SPLINE
5
180
100
AcDbEntity
8
1
62
256
6
ByLayer
370
18
48
1
60
0
100
AcDbSpline
70
4
71
3
72
8
73
4
40
0
40
0
40
0
40
0
40
1
40
1
40
1
40
1
41
1
10
105.690954003201
20
9.8789152532301
30
0
41
1
10
105.696051436737
20
9.88305891136233
30
0
41
1
10
105.701147568114
20
9.88720241977774
30
0
41
1
10
105.706242461105
20
9.89134578491809
30
0
0
SPLINE
5
181
100
AcDbEntity
8
1
62
256
6
ByLayer
370
18
48
1
60
0
100
AcDbSpline
70
4
71
3
72
28
73
24
40
0
40
0
40
0
40
0
40
0.250000000000147
40
0.250000000000147
40
0.375000000000169
40
0.375000000000169
40
0.500000000000191
40
0.500000000000191
40
0.625000000000213
40
0.625000000000213
40
0.687500000000182
40
0.687500000000182
40
0.750000000000152
40
0.750000000000152
40
0.812500000000122
40
0.812500000000122
40
0.843750000000113
40
0.843750000000113
40
0.875000000000103
40
0.875000000000103
40
0.937500000000052
40
0.937500000000052
40
1
40
1
40
1
40
1
41
1
10
104.886375612132
20
10.3382570080946
30
0
41
1
10
104.919309777507
20
10.339473193247
30
0
41
1
10
104.952375777105
20
10.3379403057439
30
0
41
1
10
105.00143203827
20
10.3309776317971
30
0
41
1
10
105.017706504919
20
10.3278658464385
30
0
41
1
10
105.049807847875
20
10.3198111757426
30
0
41
1
10
105.065697132341
20
10.314854545873
30
0
41
1
10
105.096560608288
20
10.3026842356671
30
0
41
1
10
105.111685415032
20
10.2954083362314
30
0
41
1
10
105.132861753091
20
10.2823558650501
30
0
41
1
10
105.13968061979
20
10.2776433025654
30
0
41
1
10
105.152715442821
20
10.2673070678977
30
0
41
1
10
105.158983467023
20
10.2616253303563
30
0
41
1
10
105.170349465105
20
10.2494276048817
30
0
41
1
10
105.175472300352
20
10.2429097675155
30
0
41
1
10
105.182094104812
20
10.2323414149673
30
0
41
1
10
105.184127700597
20
10.2286688307521
30
0
41
1
10
105.187691046205
20
10.22122787878
30
0
41
1
10
105.189235617237
20
10.2174394092934
30
0
41
1
10
105.193125685835
20
10.2058620445004
30
0
41
1
10
105.194716514219
20
10.1977444585373
30
0
41
1
10
105.195667850352
20
10.1818831566888
30
0
41
1
10
105.195087442366
20
10.1740548676509
30
0
41
1
10
105.193543649353
20
10.1663206674262
30
0
0
SPLINE
5
182
100
AcDbEntity
8
1
62
256
6
ByLayer
370
18
48
1
60
0
100
AcDbSpline
70
4
71
3
72
8
73
4
40
0
40
0
40
0
40
0
40
1
40
1
40
1
40
1
41
1
10
105.193543649353
20
10.1663206674262
30
0
41
1
10
105.194292315816
20
10.1590432359741
30
0
41
1
10
105.195040669109
20
10.1517651650265
30
0
41
1
10
105.195788692568
20
10.1444864228765
30
0
0
SPLINE
5
183
100
AcDbEntity
8
1
62
256
6
ByLayer
370
18
48
1
60
0
100
AcDbSpline
70
4
71
3
72
30
73
26
40
0
40
0
40
0
40
0
40
0.250000000000028
40
0.250000000000028
40
0.37500000000007
40
0.37500000000007
40
0.500000000000111
40
0.500000000000111
40
0.625000000000152
40
0.625000000000152
40
0.687500000000128
40
0.687500000000128
40
0.750000000000103
40
0.750000000000103
40
0.781250000000091
40
0.781250000000091
40
0.812500000000079
40
0.812500000000079
40
0.875000000000053
40
0.875000000000053
40
0.906250000000039
40
0.906250000000039
40
0.937500000000026
40
0.937500000000026
40
1
40
1
40
1
40
1
41
1
10
105.985765793245
20
9.74862294038661
30
0
41
1
10
105.969306530325
20
9.77632125354765
30
0
41
1
10
105.950741198584
20
9.80246346922104
30
0
41
1
10
105.919729316106
20
9.83845138926671
30
0
41
1
10
105.908877583921
20
9.84988004314067
30
0
41
1
10
105.886062718083
20
9.87128635466689
30
0
41
1
10
105.874103855555
20
9.88126448027106
30
0
41
1
10
105.849023181726
20
9.89911517048776
30
0
41
1
10
105.835963505457
20
9.90695256877504
30
0
41
1
10
105.81563584564
20
9.91619065030568
30
0
41
1
10
105.808724084042
20
9.9188540892637
30
0
41
1
10
105.794561477243
20
9.92309867689443
30
0
41
1
10
105.787373590236
20
9.92465262023757
30
0
41
1
10
105.776631034011
20
9.92586297496385
30
0
41
1
10
105.77304712023
20
9.92608171012856
30
0
41
1
10
105.765874624455
20
9.92609703642705
30
0
41
1
10
105.762267960767
20
9.92588980801042
30
0
41
1
10
105.751673569443
20
9.92456636199881
30
0
41
1
10
105.744859446973
20
9.92276318662292
30
0
41
1
10
105.735090383194
20
9.91843897727694
30
0
41
1
10
105.7319286925
20
9.91672884811823
30
0
41
1
10
105.725958777804
20
9.91286096473976
30
0
41
1
10
105.723126084454
20
9.91069319665263
30
0
41
1
10
105.715076872559
20
9.90350362395981
30
0
41
1
10
105.710289939751
20
9.89774114427686
30
0
41
1
10
105.706242461105
20
9.89134578491809
30
0
0
SPLINE
5
184
100
AcDbEntity
8
1
62
256
6
ByLayer
370
18
48
1
60
0
100
AcDbSpline
70
4
71
3
72
8
73
4
40
0
40
0
40
0
40
0
40
1
40
1
40
1
40
1
41
1
10
104.112067462594
20
8.24071770960822
30
0
41
1
10
104.105685630322
20
8.23809956254286
30
0
41
1
10
104.099304405337
20
8.23548239050987
30
0
41
1
10
104.0929237589
20
8.23286614545901
30
0
0
SPLINE
5
185
100
AcDbEntity
8
1
62
256
6
ByLayer
370
18
48
1
60
0
100
AcDbSpline
70
4
71
3
72
30
73
26
40
0
40
0
40
0
40
0
40
0.250000000000149
40
0.250000000000149
40
0.37500000000019
40
0.37500000000019
40
0.500000000000231
40
0.500000000000231
40
0.625000000000273
40
0.625000000000273
40
0.687500000000294
40
0.687500000000294
40
0.750000000000314
40
0.750000000000314
40
0.781250000000276
40
0.781250000000276
40
0.812500000000237
40
0.812500000000237
40
0.87500000000016
40
0.87500000000016
40
0.906250000000121
40
0.906250000000121
40
0.937500000000083
40
0.937500000000083
40
1
40
1
40
1
40
1
41
1
10
103.786985431018
20
8.40696271156398
30
0
41
1
10
103.803444693939
20
8.37926439840294
30
0
41
1
10
103.822277966833
20
8.35280394261903
30
0
41
1
10
103.854200577118
20
8.315734329398
30
0
41
1
10
103.865442187174
20
8.30384260826213
30
0
41
1
10
103.889264994306
20
8.28123914077662
30
0
41
1
10
103.901840886626
20
8.27052815414592
30
0
41
1
10
103.92848198867
20
8.25082410605509
30
0
41
1
10
103.942479571571
20
8.24187273365195
30
0
41
1
10
103.964577188223
20
8.23053243209878
30
0
41
1
10
103.972141006346
20
8.22709453002662
30
0
41
1
10
103.987779144744
20
8.22109741826122
30
0
41
1
10
103.99578491444
20
8.21857205610652
30
0
41
1
10
104.007888079617
20
8.21574567361952
30
0
41
1
10
104.011948956115
20
8.21496043843985
30
0
41
1
10
104.020130390515
20
8.21374677163021
30
0
41
1
10
104.024272077734
20
8.21331853981468
30
0
41
1
10
104.036532869644
20
8.21266276203545
30
0
41
1
10
104.044545082843
20
8.21304293642635
30
0
41
1
10
104.056272944158
20
8.21504063513788
30
0
41
1
10
104.060111669067
20
8.21594663458245
30
0
41
1
10
104.0674498055
20
8.21818944831239
30
0
41
1
10
104.070978477634
20
8.21953058577046
30
0
41
1
10
104.081151453465
20
8.22419771329197
30
0
41
1
10
104.087412590903
20
8.22820924491361
30
0
41
1
10
104.0929237589
20
8.23286614545901
30
0
0
SPLINE
5
186
100
AcDbEntity
8
1
62
256
6
ByLayer
370
18
48
1
60
0
100
AcDbSpline
70
4
71
3
72
8
73
4
40
0
40
0
40
0
40
0
40
1
40
1
40
1
40
1
41
1
10
104.607232773227
20
7.9751465399618
30
0
41
1
10
104.606696397951
20
7.96939330887872
30
0
41
1
10
104.606159657636
20
7.9636415743135
30
0
41
1
10
104.605622570652
20
7.95789126295088
30
0
0
SPLINE
5
187
100
AcDbEntity
8
1
62
256
6
ByLayer
370
18
48
1
60
0
100
AcDbSpline
70
4
71
3
72
38
73
34
40
0
40
0
40
0
40
0
40
0.0312500000000048
40
0.0312500000000048
40
0.0625000000000095
40
0.0625000000000095
40
0.125000000000077
40
0.125000000000077
40
0.156250000000111
40
0.156250000000111
40
0.187500000000145
40
0.187500000000145
40
0.250000000000152
40
0.250000000000152
40
0.31250000000016
40
0.31250000000016
40
0.375000000000167
40
0.375000000000167
40
0.500000000000124
40
0.500000000000124
40
0.62500000000008
40
0.62500000000008
40
0.750000000000037
40
0.750000000000037
40
0.812500000000018
40
0.812500000000018
40
0.874999999999998
40
0.874999999999998
40
0.90625
40
0.90625
40
0.937500000000002
40
0.937500000000002
40
1
40
1
40
1
40
1
41
1
10
104.112067462594
20
8.24071770960822
30
0
41
1
10
104.117966916276
20
8.24313796082848
30
0
41
1
10
104.124109324122
20
8.24510286275577
30
0
41
1
10
104.136791319342
20
8.24829673704357
30
0
41
1
10
104.14333151043
20
8.24951989637734
30
0
41
1
10
104.163073437583
20
8.2522149908142
30
0
41
1
10
104.176532515074
20
8.2527677375133
30
0
41
1
10
104.197063747565
20
8.25225952806917
30
0
41
1
10
104.203972144425
20
8.25186006869879
30
0
41
1
10
104.217699256484
20
8.25067563276929
30
0
41
1
10
104.224544123819
20
8.24989039247305
30
0
41
1
10
104.245031801008
20
8.24702973370086
30
0
41
1
10
104.258628174349
20
8.24445386276361
30
0
41
1
10
104.285727352149
20
8.23819422017326
30
0
41
1
10
104.299286039372
20
8.23448686640228
30
0
41
1
10
104.325807883238
20
8.22623993861168
30
0
41
1
10
104.338825491482
20
8.22169100828839
30
0
41
1
10
104.377215932425
20
8.20691242353277
30
0
41
1
10
104.401936783308
20
8.19557187041053
30
0
41
1
10
104.44966260696
20
8.17002591273592
30
0
41
1
10
104.472266236928
20
8.15601742529915
30
0
41
1
10
104.514145623098
20
8.12574816025077
30
0
41
1
10
104.53335418946
20
8.10955840587837
30
0
41
1
10
104.558656238563
20
8.0835225590549
30
0
41
1
10
104.566480398878
20
8.07456540023739
30
0
41
1
10
104.580580497652
20
8.05607901167676
30
0
41
1
10
104.586863698927
20
8.04654322961778
30
0
41
1
10
104.594724744492
20
8.03182152149836
30
0
41
1
10
104.597079140729
20
8.02685295440037
30
0
41
1
10
104.601174144781
20
8.01676473784363
30
0
41
1
10
104.602918537255
20
8.01162621925067
30
0
41
1
10
104.606985734294
20
7.99616503841727
30
0
41
1
10
104.608221630125
20
7.98575314786328
30
0
41
1
10
104.607232773227
20
7.9751465399618
30
0
0
SPLINE
5
188
100
AcDbEntity
8
1
62
256
6
ByLayer
370
18
48
1
60
0
100
AcDbSpline
70
4
71
3
72
24
73
20
40
0
40
0
40
0
40
0
40
0.249999999999928
40
0.249999999999928
40
0.374999999999943
40
0.374999999999943
40
0.499999999999957
40
0.499999999999957
40
0.624999999999972
40
0.624999999999972
40
0.749999999999987
40
0.749999999999987
40
0.81249999999999
40
0.81249999999999
40
0.874999999999993
40
0.874999999999993
40
0.937499999999997
40
0.937499999999997
40
1
40
1
40
1
40
1
41
1
10
104.886375612132
20
7.817328643856
30
0
41
1
10
104.853445426248
20
7.81611260565731
30
0
41
1
10
104.82067564727
20
7.81732339420682
30
0
41
1
10
104.772506682295
20
7.82320538872736
30
0
41
1
10
104.756647248012
20
7.82584816801176
30
0
41
1
10
104.72553805264
20
7.83270685711017
30
0
41
1
10
104.710290870468
20
7.83691941198825
30
0
41
1
10
104.680922518281
20
7.84726008736422
30
0
41
1
10
104.666754330818
20
7.8534052337325
30
0
41
1
10
104.640789883613
20
7.86806263952209
30
0
41
1
10
104.629057513662
20
7.87646811033048
30
0
41
1
10
104.614622314616
20
7.89163801714076
30
0
41
1
10
104.610496957883
20
7.896987286659
30
0
41
1
10
104.603928576253
20
7.90837716387259
30
0
41
1
10
104.601496966374
20
7.91448409121733
30
0
41
1
10
104.598909348868
20
7.92678560005194
30
0
41
1
10
104.598700266889
20
7.93309045296036
30
0
41
1
10
104.600577671625
20
7.94574591515459
30
0
41
1
10
104.602616865942
20
7.95189691549865
30
0
41
1
10
104.605622570652
20
7.95789126295088
30
0
0
SPLINE
5
189
100
AcDbEntity
8
1
62
256
6
ByLayer
370
18
48
1
60
0
100
AcDbSpline
70
4
71
3
72
38
73
34
40
0
40
0
40
0
40
0
40
0.0625000000000205
40
0.0625000000000205
40
0.0937500000000338
40
0.0937500000000338
40
0.125000000000047
40
0.125000000000047
40
0.187500000000042
40
0.187500000000042
40
0.250000000000036
40
0.250000000000036
40
0.312500000000031
40
0.312500000000031
40
0.375000000000025
40
0.375000000000025
40
0.43750000000002
40
0.43750000000002
40
0.500000000000014
40
0.500000000000014
40
0.625000000000003
40
0.625000000000003
40
0.749999999999992
40
0.749999999999992
40
0.812499999999983
40
0.812499999999983
40
0.874999999999973
40
0.874999999999973
40
0.906249999999981
40
0.906249999999981
40
0.937499999999989
40
0.937499999999989
40
1
40
1
40
1
40
1
41
1
10
105.985231962872
20
9.38369240377875
30
0
41
1
10
105.97604388711
20
9.37573735354516
30
0
41
1
10
105.968017621084
20
9.36617735131256
30
0
41
1
10
105.957105735905
20
9.35023298457506
30
0
41
1
10
105.953664790279
20
9.34464013990006
30
0
41
1
10
105.947207807781
20
9.3331425230526
30
0
41
1
10
105.944176926185
20
9.32721626455677
30
0
41
1
10
105.935588761587
20
9.30897465306421
30
0
41
1
10
105.930590717113
20
9.29633173883371
30
0
41
1
10
105.921717808806
20
9.2703550194781
30
0
41
1
10
105.917862141816
20
9.25705784477259
30
0
41
1
10
105.911149496251
20
9.23015753148277
30
0
41
1
10
105.908277407341
20
9.21648107382609
30
0
41
1
10
105.903433697475
20
9.18904424518016
30
0
41
1
10
105.901456785227
20
9.17527034786215
30
0
41
1
10
105.898308511125
20
9.14762355175608
30
0
41
1
10
105.89714133452
20
9.13376122893794
30
0
41
1
10
105.89559344419
20
9.10622146180398
30
0
41
1
10
105.895208519082
20
9.09250878583129
30
0
41
1
10
105.895209421507
20
9.05154503090552
30
0
41
1
10
105.896730580844
20
9.02483431449014
30
0
41
1
10
105.903034248868
20
8.9729271797876
30
0
41
1
10
105.90779932056
20
8.94789048973868
30
0
41
1
10
105.917878986372
20
8.91268857395099
30
0
41
1
10
105.921745715913
20
8.90131395362599
30
0
41
1
10
105.930603292714
20
8.87972401289232
30
0
41
1
10
105.935619161212
20
8.86943592770811
30
0
41
1
10
105.944193868741
20
8.85517243501951
30
0
41
1
10
105.947222094032
20
8.85062243496571
30
0
41
1
10
105.953680101783
20
8.84199052556147
30
0
41
1
10
105.957123624393
20
8.8378960245191
30
0
41
1
10
105.968019921863
20
8.82662301454587
30
0
41
1
10
105.976039011862
20
8.82036283274945
30
0
41
1
10
105.985231962872
20
8.81597936704054
30
0
0
SPLINE
5
18A
100
AcDbEntity
8
1
62
256
6
ByLayer
370
18
48
1
60
0
100
AcDbSpline
70
4
71
3
72
8
73
4
40
0
40
0
40
0
40
0
40
1
40
1
40
1
40
1
41
1
10
105.985231962872
20
8.81597936704054
30
0
41
1
10
105.990223572316
20
8.81359922286165
30
0
41
1
10
105.995213897204
20
8.81122001412606
30
0
41
1
10
106.000203000455
20
8.80884169470158
30
0
0
SPLINE
5
18B
100
AcDbEntity
8
1
62
256
6
ByLayer
370
18
48
1
60
0
100
AcDbSpline
70
4
71
3
72
28
73
24
40
0
40
0
40
0
40
0
40
0.250000000000035
40
0.250000000000035
40
0.375000000000052
40
0.375000000000052
40
0.500000000000069
40
0.500000000000069
40
0.625000000000087
40
0.625000000000087
40
0.687500000000095
40
0.687500000000095
40
0.750000000000104
40
0.750000000000104
40
0.812500000000113
40
0.812500000000113
40
0.843750000000097
40
0.843750000000097
40
0.875000000000082
40
0.875000000000082
40
0.937500000000041
40
0.937500000000041
40
1
40
1
40
1
40
1
41
1
10
105.985765793245
20
9.74862294038661
30
0
41
1
10
106.002232875933
20
9.72091146780511
30
0
41
1
10
106.016574461217
20
9.69166441959351
30
0
41
1
10
106.034164047225
20
9.64585694069044
30
0
41
1
10
106.039369448053
20
9.63024700972588
30
0
41
1
10
106.048151561331
20
9.59847266188152
30
0
41
1
10
106.051746489879
20
9.58224738881796
30
0
41
1
10
106.05679120283
20
9.54943258360251
30
0
41
1
10
106.05826286653
20
9.53268135565187
30
0
41
1
10
106.058177602306
20
9.50777170619543
30
0
41
1
10
106.057768728384
20
9.49949176317421
30
0
41
1
10
106.056001628818
20
9.48299093639247
30
0
41
1
10
106.054623876912
20
9.47469563268263
30
0
41
1
10
106.050729091516
20
9.45869496265487
30
0
41
1
10
106.04822186075
20
9.45096716288114
30
0
41
1
10
106.043409718776
20
9.43989553537563
30
0
41
1
10
106.041618891936
20
9.43627970588685
30
0
41
1
10
106.037744984949
20
9.42943617494768
30
0
41
1
10
106.035653738067
20
9.42618548695799
30
0
41
1
10
106.02889869443
20
9.41697097032696
30
0
41
1
10
106.023663627574
20
9.4114953679167
30
0
41
1
10
106.012494212455
20
9.40266710649411
30
0
41
1
10
106.006523909277
20
9.39922054237141
30
0
41
1
10
106.000203000455
20
9.39665710321626
30
0
0
SPLINE
5
18C
100
AcDbEntity
8
1
62
256
6
ByLayer
370
18
48
1
60
0
100
AcDbSpline
70
4
71
3
72
8
73
4
40
0
40
0
40
0
40
0
40
1
40
1
40
1
40
1
41
1
10
106.000203000455
20
9.39665710321626
30
0
41
1
10
105.995213897204
20
9.39233571082505
30
0
41
1
10
105.990223572316
20
9.38801414697153
30
0
41
1
10
105.985231962872
20
9.38369240377875
30
0
0
SPLINE
5
18D
100
AcDbEntity
8
1
62
256
6
ByLayer
370
18
48
1
60
0
100
AcDbSpline
70
4
71
3
72
30
73
26
40
0
40
0
40
0
40
0
40
0.249999999999952
40
0.249999999999952
40
0.374999999999946
40
0.374999999999946
40
0.499999999999941
40
0.499999999999941
40
0.624999999999935
40
0.624999999999935
40
0.687499999999938
40
0.687499999999938
40
0.749999999999941
40
0.749999999999941
40
0.781249999999948
40
0.781249999999948
40
0.812499999999955
40
0.812499999999955
40
0.875000000000008
40
0.875000000000008
40
0.906250000000007
40
0.906250000000007
40
0.937500000000006
40
0.937500000000006
40
1
40
1
40
1
40
1
41
1
10
105.985765793245
20
8.48815875826728
30
0
41
1
10
106.002225056166
20
8.51707267904769
30
0
41
1
10
106.016551960438
20
8.54701283466753
30
0
41
1
10
106.03414799933
20
8.59300853062595
30
0
41
1
10
106.039345541366
20
8.6084946470032
30
0
41
1
10
106.048134062417
20
8.63968649671094
30
0
41
1
10
106.051726637131
20
8.65538864346755
30
0
41
1
10
106.05678717495
20
8.68672357066131
30
0
41
1
10
106.058249225848
20
8.70228329366174
30
0
41
1
10
106.058185460118
20
8.72497382243014
30
0
41
1
10
106.057786540953
20
8.7324424535679
30
0
41
1
10
106.056020502619
20
8.74712186867654
30
0
41
1
10
106.054654721104
20
8.75426310795498
30
0
41
1
10
106.051751954156
20
8.76436521021378
30
0
41
1
10
106.050640189431
20
8.76764048428208
30
0
41
1
10
106.048089412328
20
8.77397878568033
30
0
41
1
10
106.046640999613
20
8.77705581535184
30
0
41
1
10
106.041837299326
20
8.78572853030198
30
0
41
1
10
106.038016359552
20
8.79081931320678
30
0
41
1
10
106.031210704484
20
8.79722898662874
30
0
41
1
10
106.028770947633
20
8.79914469463358
30
0
41
1
10
106.023677456517
20
8.80243568153224
30
0
41
1
10
106.021007298222
20
8.8038274326513
30
0
41
1
10
106.01263632093
20
8.8072564115113
30
0
41
1
10
106.006526830178
20
8.80853663037726
30
0
41
1
10
106.000203000455
20
8.80884169470158
30
0
0
SPLINE
5
18E
100
AcDbEntity
8
1
62
256
6
ByLayer
370
18
48
1
60
0
100
AcDbSpline
70
4
71
3
72
42
73
38
40
0
40
0
40
0
40
0
40
0.0624999999999648
40
0.0624999999999648
40
0.0937499999999364
40
0.0937499999999364
40
0.124999999999908
40
0.124999999999908
40
0.187499999999883
40
0.187499999999883
40
0.249999999999857
40
0.249999999999857
40
0.312499999999832
40
0.312499999999832
40
0.374999999999806
40
0.374999999999806
40
0.437499999999781
40
0.437499999999781
40
0.499999999999755
40
0.499999999999755
40
0.56249999999973
40
0.56249999999973
40
0.624999999999704
40
0.624999999999704
40
0.749999999999654
40
0.749999999999654
40
0.781249999999684
40
0.781249999999684
40
0.812499999999714
40
0.812499999999714
40
0.874999999999828
40
0.874999999999828
40
0.906249999999859
40
0.906249999999859
40
0.937499999999889
40
0.937499999999889
40
1
40
1
40
1
40
1
41
1
10
105.195788692568
20
7.99688059522958
30
0
41
1
10
105.19716709001
20
8.00749658866724
30
0
41
1
10
105.200612266698
20
8.01808960098182
30
0
41
1
10
105.20783221297
20
8.03399271766978
30
0
41
1
10
105.210594938279
20
8.03929510108631
30
0
41
1
10
105.216643280845
20
8.0497584343631
30
0
41
1
10
105.219938564035
20
8.05494092720028
30
0
41
1
10
105.2305274
20
8.07037212866243
30
0
41
1
10
105.238439267025
20
8.08039546467438
30
0
41
1
10
105.255547438806
20
8.10003035755008
30
0
41
1
10
105.264722318242
20
8.10960797350288
30
0
41
1
10
105.283957438295
20
8.12825491639384
30
0
41
1
10
105.294071655612
20
8.13737239186608
30
0
41
1
10
105.314938648191
20
8.15506225357402
30
0
41
1
10
105.325700594998
20
8.16364586128358
30
0
41
1
10
105.347825212063
20
8.18035158245164
30
0
41
1
10
105.359179934373
20
8.18846438434548
30
0
41
1
10
105.38223482337
20
8.20409772156748
30
0
41
1
10
105.393964407329
20
8.21164043489313
30
0
41
1
10
105.417814159486
20
8.22617873502458
30
0
41
1
10
105.429850497711
20
8.23312332676215
30
0
41
1
10
105.454150841388
20
8.24635593564068
30
0
41
1
10
105.466461169498
20
8.25266552192355
30
0
41
1
10
105.503363666666
20
8.27034085387936
30
0
41
1
10
105.527906113221
20
8.28050124877925
30
0
41
1
10
105.55864188217
20
8.29066552378609
30
0
41
1
10
105.564792331139
20
8.29256826195237
30
0
41
1
10
105.577105256058
20
8.29608348592689
30
0
41
1
10
105.583286233151
20
8.29769982755195
30
0
41
1
10
105.601637089726
20
8.30200190013454
30
0
41
1
10
105.613660222084
20
8.3041662743687
30
0
41
1
10
105.631346715877
20
8.30606931071608
30
0
41
1
10
105.63718377191
20
8.3064778386283
30
0
41
1
10
105.648727378575
20
8.30675571916373
30
0
41
1
10
105.654461321574
20
8.30662147912614
30
0
41
1
10
105.671091388107
20
8.30524588904683
30
0
41
1
10
105.68151171711
20
8.30308699283719
30
0
41
1
10
105.690954003201
20
8.2990224623214
30
0
0
SPLINE
5
18F
100
AcDbEntity
8
1
62
256
6
ByLayer
370
18
48
1
60
0
100
AcDbSpline
70
4
71
3
72
8
73
4
40
0
40
0
40
0
40
0
40
1
40
1
40
1
40
1
41
1
10
105.193543649353
20
7.97960187497205
30
0
41
1
10
105.194292315816
20
7.98535999949215
30
0
41
1
10
105.195040669109
20
7.99111954845191
30
0
41
1
10
105.195788692568
20
7.99688059522958
30
0
0
SPLINE
5
190
100
AcDbEntity
8
1
62
256
6
ByLayer
370
18
48
1
60
0
100
AcDbSpline
70
4
71
3
72
28
73
24
40
0
40
0
40
0
40
0
40
0.250000000000081
40
0.250000000000081
40
0.375000000000122
40
0.375000000000122
40
0.500000000000164
40
0.500000000000164
40
0.625000000000206
40
0.625000000000206
40
0.687500000000182
40
0.687500000000182
40
0.750000000000159
40
0.750000000000159
40
0.812500000000135
40
0.812500000000135
40
0.843750000000123
40
0.843750000000123
40
0.875000000000112
40
0.875000000000112
40
0.937500000000056
40
0.937500000000056
40
1
40
1
40
1
40
1
41
1
10
104.886375612132
20
7.817328643856
30
0
41
1
10
104.919309777507
20
7.8185448290084
30
0
41
1
10
104.952375777105
20
7.82219088389155
30
0
41
1
10
105.00143203827
20
7.83166078631069
30
0
41
1
10
105.017706504919
20
7.83549583862379
30
0
41
1
10
105.049807847875
20
7.84468628749207
30
0
41
1
10
105.065697132341
20
7.85005845987681
30
0
41
1
10
105.096560608288
20
7.86259937147113
30
0
41
1
10
105.111685415032
20
7.86983256483308
30
0
41
1
10
105.132861753091
20
7.88227308634455
30
0
41
1
10
105.13968061979
20
7.88669008611717
30
0
41
1
10
105.152715442821
20
7.89619173705341
30
0
41
1
10
105.158983467023
20
7.90132773739202
30
0
41
1
10
105.170349465105
20
7.91213562414276
30
0
41
1
10
105.175472300352
20
7.91781153055646
30
0
41
1
10
105.182094104812
20
7.92682587062959
30
0
41
1
10
105.184127700597
20
7.92992838893869
30
0
41
1
10
105.187691046205
20
7.93614984963446
30
0
41
1
10
105.189235617237
20
7.93928618830995
30
0
41
1
10
105.193125685835
20
7.94877189740001
30
0
41
1
10
105.194716514219
20
7.95528731762712
30
0
41
1
10
105.195667850352
20
7.96775153103471
30
0
41
1
10
105.195087442366
20
7.97377337405422
30
0
41
1
10
105.193543649353
20
7.97960187497205
30
0
0
SPLINE
5
191
100
AcDbEntity
8
1
62
256
6
ByLayer
370
18
48
1
60
0
100
AcDbSpline
70
4
71
3
72
28
73
24
40
0
40
0
40
0
40
0
40
0.250000000000001
40
0.250000000000001
40
0.374999999999997
40
0.374999999999997
40
0.499999999999993
40
0.499999999999993
40
0.624999999999988
40
0.624999999999988
40
0.687499999999989
40
0.687499999999989
40
0.749999999999991
40
0.749999999999991
40
0.812499999999992
40
0.812499999999992
40
0.843749999999993
40
0.843749999999993
40
0.874999999999994
40
0.874999999999994
40
0.937499999999997
40
0.937499999999997
40
1
40
1
40
1
40
1
41
1
10
105.985765793245
20
8.48815875826728
30
0
41
1
10
105.969298710557
20
8.45923110053334
30
0
41
1
10
105.9507085955
20
8.43135742939066
30
0
41
1
10
105.919697497969
20
8.39197152400138
30
0
41
1
10
105.908823872392
20
8.37924124934804
30
0
41
1
10
105.886008901856
20
8.35492265156839
30
0
41
1
10
105.874024009057
20
8.34328645163495
30
0
41
1
10
105.848984584835
20
8.32171631734181
30
0
41
1
10
105.835804946528
20
8.31167859593782
30
0
41
1
10
105.815431735391
20
8.29876625427158
30
0
41
1
10
105.808530280916
20
8.29481133588362
30
0
41
1
10
105.794462149642
20
8.28777520228337
30
0
41
1
10
105.787228190828
20
8.28467251087517
30
0
41
1
10
105.772877576598
20
8.27978853655958
30
0
41
1
10
105.765745726003
20
8.27798683179685
30
0
41
1
10
105.75514592263
20
8.27649282519619
30
0
41
1
10
105.751615566567
20
8.27620031004147
30
0
41
1
10
105.744783655111
20
8.27607875293936
30
0
41
1
10
105.741460663264
20
8.27624498344093
30
0
41
1
10
105.731786830811
20
8.27745421940097
30
0
41
1
10
105.725663036122
20
8.27926230135239
30
0
41
1
10
105.714957932272
20
8.28461394353576
30
0
41
1
10
105.710288070269
20
8.28814046782918
30
0
41
1
10
105.706242461105
20
8.29244240097859
30
0
0
SPLINE
5
192
100
AcDbEntity
8
1
62
256
6
ByLayer
370
18
48
1
60
0
100
AcDbSpline
70
4
71
3
72
8
73
4
40
0
40
0
40
0
40
0
40
1
40
1
40
1
40
1
41
1
10
105.706242461105
20
8.29244240097859
30
0
41
1
10
105.701147568114
20
8.29463487999476
30
0
41
1
10
105.696051436737
20
8.29682821889764
30
0
41
1
10
105.690954003201
20
8.2990224623214
30
0
0
SPLINE
5
193
100
AcDbEntity
8
1
62
256
6
ByLayer
370
18
48
1
60
0
100
AcDbSpline
70
4
71
3
72
9
73
5
40
0
40
0
40
0
40
0
40
0.931592927461367
40
1
40
1
40
1
40
1
41
1
10
109.91312013823
20
-5.41174963610061
30
0
41
1
10
109.914217492389
20
-5.41830363163464
30
0
41
1
10
109.915276085402
20
-5.42530970978228
30
0
41
1
10
109.916272860408
20
-5.4322762345561
30
0
41
1
10
109.91634077869
20
-5.43275261270497
30
0
0
SPLINE
5
194
100
AcDbEntity
8
1
62
256
6
ByLayer
370
18
48
1
60
0
100
AcDbSpline
70
4
71
3
72
11
73
7
40
0
40
0
40
0
40
0
40
0.0680347886594274
40
0.534017394329714
40
0.767008697164857
40
1
40
1
40
1
40
1
41
1
10
109.833355975874
20
-4.97293943587232
30
0
41
1
10
109.833897405679
20
-4.97454457537106
30
0
41
1
10
109.83806562174
20
-4.98713384996191
30
0
41
1
10
109.843123435997
20
-5.00510317435987
30
0
41
1
10
109.84769472037
20
-5.02672637355013
30
0
41
1
10
109.849440961188
20
-5.03746212120529
30
0
41
1
10
109.850175571522
20
-5.04280962681369
30
0
0
SPLINE
5
195
100
AcDbEntity
8
1
62
256
6
ByLayer
370
18
48
1
60
0
100
AcDbSpline
70
4
71
3
72
32
73
28
40
0
40
0
40
0
40
0
40
0.0201722500279436
40
0.030957120221128
40
0.106451211573419
40
0.192730173118894
40
0.365288096209843
40
0.451567057755318
40
0.494706538528056
40
0.537846019300793
40
0.543238454397386
40
0.548630889493978
40
0.55402332459057
40
0.556719542138866
40
0.559415759687162
40
0.564808194783754
40
0.570200629880346
40
0.580985500073531
40
0.624124980846268
40
0.710403942391743
40
0.796682903937218
40
0.882961865482693
40
0.969240827028168
40
0.980025697221353
40
0.990810567414537
40
0.996203002511129
40
1
40
1
40
1
40
1
41
1
10
109.91634077869
20
-5.43275261270497
30
0
41
1
10
109.91732115367
20
-5.43962895290258
30
0
41
1
10
109.918739924241
20
-5.45012364340516
30
0
41
1
10
109.923680053539
20
-5.48599476231919
30
0
41
1
10
109.931710343282
20
-5.5441516887424
30
0
41
1
10
109.947335198901
20
-5.65685273518983
30
0
41
1
10
109.963545238746
20
-5.77320085021378
30
0
41
1
10
109.977742849314
20
-5.8750030820346
30
0
41
1
10
109.985810130877
20
-5.93316154442425
30
0
41
1
10
109.990185148471
20
-5.9640822502686
30
0
41
1
10
109.992707838592
20
-5.98225507738439
30
0
41
1
10
109.993445805513
20
-5.98770334793639
30
0
41
1
10
109.994101039828
20
-5.99225842663319
30
0
41
1
10
109.9946008048
20
-5.99588699456424
30
0
41
1
10
109.994902497331
20
-5.99948911059064
30
0
41
1
10
109.995053481841
20
-6.00396679849084
30
0
41
1
10
109.995307187595
20
-6.01113214549858
30
0
41
1
10
109.996166088345
20
-6.03084760391783
30
0
41
1
10
109.998060268622
20
-6.07740096266221
30
0
41
1
10
109.999734637012
20
-6.14885032527891
30
0
41
1
10
110.000218058847
20
-6.23432870373952
30
0
41
1
10
109.999124040854
20
-6.31954286769732
30
0
41
1
10
109.997195194351
20
-6.37971337010299
30
0
41
1
10
109.995681080144
20
-6.41504518078992
30
0
41
1
10
109.995260391952
20
-6.42389464224698
30
0
41
1
10
109.995011124063
20
-6.4303782799405
30
0
41
1
10
109.994861919497
20
-6.43345771201609
30
0
41
1
10
109.994781401294
20
-6.43476698342752
30
0
0
SPLINE
5
196
100
AcDbEntity
8
1
62
256
6
ByLayer
370
13
48
1
60
0
100
AcDbSpline
70
4
71
3
72
9
73
5
40
0
40
0
40
0
40
0
40
0.253089698189952
40
1
40
1
40
1
40
1
41
1
10
109.916357481279
20
-5.43275506222213
30
0
41
1
10
109.91076957525
20
-5.3998309828599
30
0
41
1
10
109.888697325619
20
-5.26978074670689
30
0
41
1
10
109.866646005397
20
-5.13985382714225
30
0
41
1
10
109.850175571522
20
-5.04280962681369
30
0
0
SPLINE
5
197
100
AcDbEntity
8
1
62
256
6
ByLayer
370
18
48
1
60
0
100
AcDbSpline
70
4
71
3
72
17
73
13
40
0
40
0
40
0
40
0
40
0.0295588681041354
40
0.0735401813589689
40
0.161502807868636
40
0.33742806088797
40
0.513353313907304
40
0.689278566926639
40
0.865203819945973
40
0.95316644645564
40
0.997147759710474
40
1
40
1
40
1
40
1
41
1
10
100.017098083943
20
-4.5904285549631
30
0
41
1
10
100.012477401105
20
-4.58512157489378
30
0
41
1
10
100.001013967525
20
-4.57189413725993
30
0
41
1
10
99.9765594189164
20
-4.54266378336769
30
0
41
1
10
99.9325456689731
20
-4.48707296632148
30
0
41
1
10
99.8773938327036
20
-4.40810649484871
30
0
41
1
10
99.8236811847721
20
-4.31434777379613
30
0
41
1
10
99.7825092414957
20
-4.22163859541431
30
0
41
1
10
99.75890372296
20
-4.14576349320171
30
0
41
1
10
99.7478169771327
20
-4.09323867995431
30
0
41
1
10
99.7443664984136
20
-4.07055113676333
30
0
41
1
10
99.7432458054171
20
-4.06271861742357
30
0
41
1
10
99.7431778220345
20
-4.06224178604299
30
0
0
SPLINE
5
198
100
AcDbEntity
8
1
62
256
6
ByLayer
370
18
48
1
60
0
100
AcDbSpline
70
4
71
3
72
16
73
12
40
0
40
0
40
0
40
0
40
0.102527163627907
40
0.205054327255813
40
0.30758149088372
40
0.410108654511627
40
0.512635818139534
40
0.61516298176744
40
0.717690145395347
40
0.820217309023254
40
1
40
1
40
1
40
1
41
1
10
100.307499763344
20
-4.25722259346188
30
0
41
1
10
100.302170364899
20
-4.25146731129573
30
0
41
1
10
100.291528410884
20
-4.2399571672386
30
0
41
1
10
100.275637704193
20
-4.22269389076658
30
0
41
1
10
100.259840917533
20
-4.20543323269672
30
0
41
1
10
100.244159746604
20
-4.18817587181738
30
0
41
1
10
100.228615887107
20
-4.17092248691697
30
0
41
1
10
100.213231667456
20
-4.15367412879087
30
0
41
1
10
100.198029416065
20
-4.13643184823451
30
0
41
1
10
100.179264411201
20
-4.11486772693769
30
0
41
1
10
100.165785096823
20
-4.09905899187566
30
0
41
1
10
100.157338352692
20
-4.0889972581644
30
0
0
SPLINE
5
199
100
AcDbEntity
8
1
62
256
6
ByLayer
370
18
48
1
60
0
100
AcDbSpline
70
4
71
3
72
19
73
15
40
0
40
0
40
0
40
0
40
0.125
40
0.25
40
0.3125
40
0.34375
40
0.359375
40
0.375
40
0.4375
40
0.46875
40
0.5
40
0.625
40
0.75
40
1
40
1
40
1
40
1
41
1
10
109.590721698527
20
-4.4602912738188
30
0
41
1
10
109.594929362119
20
-4.48644029754931
30
0
41
1
10
109.607141422941
20
-4.53820103440816
30
0
41
1
10
109.631571775133
20
-4.60052209502996
30
0
41
1
10
109.653310748657
20
-4.64235143916645
30
0
41
1
10
109.665299152227
20
-4.66275656699133
30
0
41
1
10
109.672463571221
20
-4.67426238529765
30
0
41
1
10
109.683521208456
20
-4.69136252268717
30
0
41
1
10
109.697320453454
20
-4.71083748388159
30
0
41
1
10
109.71431282912
20
-4.73235088219974
30
0
41
1
10
109.738558587829
20
-4.76537672720045
30
0
41
1
10
109.771357789847
20
-4.81695516550192
30
0
41
1
10
109.818712530987
20
-4.91361112758122
30
0
41
1
10
109.841232707132
20
-4.99058815220201
30
0
41
1
10
109.850175571522
20
-5.04280962681369
30
0
0
SPLINE
5
19A
100
AcDbEntity
8
1
62
256
6
ByLayer
370
18
48
1
60
0
100
AcDbSpline
70
4
71
3
72
32
73
28
40
0
40
0
40
0
40
0
40
0.24999999999979
40
0.374999999999685
40
0.49999999999958
40
0.531249999999554
40
0.546874999999541
40
0.546874999999541
40
0.554687499999533
40
0.554687499999533
40
0.555664062499534
40
0.555664062499534
40
0.556640624999534
40
0.556640624999534
40
0.558593749999537
40
0.558593749999537
40
0.560546874999541
40
0.562499999999544
40
0.562499999999544
40
0.566406249999548
40
0.566406249999548
40
0.570312499999553
40
0.578124999999562
40
0.593749999999578
40
0.62499999999961
40
0.749999999999741
40
1
40
1
40
1
40
1
41
1
10
109.850175571522
20
-5.04280962681369
30
0
41
1
10
109.861755968936
20
-5.12710741233457
30
0
41
1
10
109.879235208681
20
-5.25356946629182
30
0
41
1
10
109.902712067058
20
-5.42220862302904
30
0
41
1
10
109.915986898963
20
-5.51681034164045
30
0
41
1
10
109.924085254237
20
-5.57525046851504
30
0
41
1
10
109.926323589736
20
-5.59063605514069
30
0
41
1
10
109.927414669612
20
-5.59888357812636
30
0
41
1
10
109.927765643262
20
-5.60172702596194
30
0
41
1
10
109.928203011898
20
-5.60421656379674
30
0
41
1
10
109.928251543998
20
-5.60447388224387
30
0
41
1
10
109.928340884904
20
-5.60506165471639
30
0
41
1
10
109.928382897137
20
-5.60538911041741
30
0
41
1
10
109.928491153861
20
-5.60619950457331
30
0
41
1
10
109.928536849987
20
-5.60656453546056
30
0
41
1
10
109.928613498595
20
-5.60755007693189
30
0
41
1
10
109.928677557831
20
-5.60878228589493
30
0
41
1
10
109.928732913528
20
-5.61019885729323
30
0
41
1
10
109.928816290362
20
-5.61235896115954
30
0
41
1
10
109.928872444564
20
-5.61379184865677
30
0
41
1
10
109.928985581148
20
-5.61657074412167
30
0
41
1
10
109.929156444349
20
-5.62064940110713
30
0
41
1
10
109.929558057017
20
-5.629701448177
30
0
41
1
10
109.930331598507
20
-5.64725013931616
30
0
41
1
10
109.932422084517
20
-5.70418699479276
30
0
41
1
10
109.935108537264
20
-5.83839323622013
30
0
41
1
10
109.932556034678
20
-5.96144443934452
30
0
41
1
10
109.928584246399
20
-6.04310385353463
30
0
0
SPLINE
5
19B
100
AcDbEntity
8
1
62
256
6
ByLayer
370
18
48
1
60
0
100
AcDbSpline
70
4
71
3
72
21
73
17
40
0
40
0
40
0
40
0
40
0.0039822658528485
40
0.0174419649629451
40
0.0309016640730418
40
0.0847404605134284
40
0.138579256953815
40
0.246256849834588
40
0.353934442715361
40
0.461612035596134
40
0.569289628476907
40
0.676967221357681
40
0.784644814238454
40
0.892322407119227
40
0.946161203559613
40
1
40
1
40
1
40
1
41
1
10
109.994781401294
20
-6.43476698342752
30
0
41
1
10
109.994747568833
20
-6.43531711833137
30
0
41
1
10
109.994584795126
20
-6.43775517517366
30
0
41
1
10
109.994150479916
20
-6.44234733387637
30
0
41
1
10
109.992334112957
20
-6.45441664844267
30
0
41
1
10
109.986929567401
20
-6.47161572531343
30
0
41
1
10
109.97000534434
20
-6.50078109316877
30
0
41
1
10
109.935889159073
20
-6.53343986056137
30
0
41
1
10
109.874631319499
20
-6.56677225822972
30
0
41
1
10
109.795235367171
20
-6.59283919460006
30
0
41
1
10
109.699072173396
20
-6.61130306697078
30
0
41
1
10
109.588846344678
20
-6.62151647007519
30
0
41
1
10
109.467171549788
20
-6.62318484887089
30
0
41
1
10
109.35871824425
20
-6.61724719438425
30
0
41
1
10
109.269916247304
20
-6.60823277338528
30
0
41
1
10
109.224747847267
20
-6.60222764995785
30
0
41
1
10
109.202918998571
20
-6.59897588898102
30
0
0
SPLINE
5
19C
100
AcDbEntity
8
1
62
256
6
ByLayer
370
18
48
1
60
0
100
AcDbSpline
70
4
71
3
72
8
73
4
40
0
40
0
40
0
40
0
40
1
40
1
40
1
40
1
41
1
10
109.202918998571
20
-6.59897588898102
30
0
41
1
10
109.20259511873
20
-6.59892764182695
30
0
41
1
10
109.202272092049
20
-6.59887952187324
30
0
41
1
10
109.201949893205
20
-6.59883152534775
30
0
0
SPLINE
5
19D
100
AcDbEntity
8
1
62
256
6
ByLayer
370
13
48
1
60
0
100
AcDbSpline
70
4
71
3
72
8
73
4
40
0
40
0
40
0
40
0
40
1
40
1
40
1
40
1
41
1
10
109.994763879326
20
-6.43476402520588
30
0
41
1
10
109.972704045019
20
-6.30421043402038
30
0
41
1
10
109.95064416581
20
-6.17365703419412
30
0
41
1
10
109.928584246399
20
-6.04310385353463
30
0
0
SPLINE
5
19E
100
AcDbEntity
8
1
62
256
6
ByLayer
370
18
48
1
60
0
100
AcDbSpline
70
4
71
3
72
17
73
13
40
0
40
0
40
0
40
0
40
0.125
40
0.25
40
0.3125
40
0.375
40
0.4375
40
0.46875
40
0.5
40
0.625
40
0.75
40
1
40
1
40
1
40
1
41
1
10
109.73041286905
20
-5.43392622533349
30
0
41
1
10
109.734637865982
20
-5.4603584532735
30
0
41
1
10
109.746053796186
20
-5.51273426037858
30
0
41
1
10
109.767498293521
20
-5.57627356542116
30
0
41
1
10
109.788748542402
20
-5.62556020957854
30
0
41
1
10
109.807034435234
20
-5.6614785414877
30
0
41
1
10
109.821273390404
20
-5.69186347663651
30
0
41
1
10
109.832118370231
20
-5.71640380801119
30
0
41
1
10
109.847849062324
20
-5.75343432502129
30
0
41
1
10
109.869467459255
20
-5.8097588129381
30
0
41
1
10
109.902040405004
20
-5.91186002959839
30
0
41
1
10
109.919799333261
20
-5.9902951771698
30
0
41
1
10
109.928584246399
20
-6.04310385353463
30
0
0
SPLINE
5
19F
100
AcDbEntity
8
1
62
256
6
ByLayer
370
13
48
1
60
0
100
AcDbSpline
70
4
71
3
72
26
73
22
40
0
40
0
40
0
40
0
40
0.00390625
40
0.0078125
40
0.015625
40
0.03125
40
0.0625
40
0.125
40
0.1875
40
0.25
40
0.3125
40
0.375
40
0.4375
40
0.5
40
0.625
40
0.6875
40
0.75
40
0.8125
40
0.875
40
0.9375
40
1
40
1
40
1
40
1
41
1
10
109.928584246399
20
-6.04310385353463
30
0
41
1
10
109.928556366387
20
-6.04367698262794
30
0
41
1
10
109.9284917548
20
-6.04482172766075
30
0
41
1
10
109.928327125069
20
-6.04710509457857
30
0
41
1
10
109.927946080039
20
-6.05108472827473
30
0
41
1
10
109.926812211659
20
-6.05897748084936
30
0
41
1
10
109.923057311032
20
-6.07448507730706
30
0
41
1
10
109.913443838641
20
-6.095777050723
30
0
41
1
10
109.895107821075
20
-6.11973196640324
30
0
41
1
10
109.870106092348
20
-6.1418963049822
30
0
41
1
10
109.838572791991
20
-6.16207494177743
30
0
41
1
10
109.800741600958
20
-6.18009381357686
30
0
41
1
10
109.756846200199
20
-6.19577885716836
30
0
41
1
10
109.690664129174
20
-6.21337138577886
30
0
41
1
10
109.61364586756
20
-6.22566898227061
30
0
41
1
10
109.52753293835
20
-6.23213716601288
30
0
41
1
10
109.458984912594
20
-6.23399105528082
30
0
41
1
10
109.387071090315
20
-6.2327717201496
30
0
41
1
10
109.31250707753
20
-6.22846919910069
30
0
41
1
10
109.236054131839
20
-6.22112256725552
30
0
41
1
10
109.184355130969
20
-6.21426254442173
30
0
41
1
10
109.158453495722
20
-6.21036848009416
30
0
0
SPLINE
5
1A0
100
AcDbEntity
8
1
62
256
6
ByLayer
370
18
48
1
60
0
100
AcDbSpline
70
4
71
3
72
23
73
19
40
0
40
0
40
0
40
0
40
0.25
40
0.375
40
0.4375
40
0.5
40
0.515625
40
0.53125
40
0.546875
40
0.5546875
40
0.5625
40
0.5703125
40
0.578125
40
0.59375
40
0.625
40
0.75
40
0.875
40
1
40
1
40
1
40
1
41
1
10
109.590721698527
20
-4.4602912738188
30
0
41
1
10
109.602362629404
20
-4.54142751977835
30
0
41
1
10
109.619824025719
20
-4.66313188871769
30
0
41
1
10
109.640195654754
20
-4.80512031914691
30
0
41
1
10
109.651836585631
20
-4.88625656510646
30
0
41
1
10
109.658384609249
20
-4.93189570345874
30
0
41
1
10
109.662749958328
20
-4.96232179569355
30
0
41
1
10
109.664932632867
20
-4.97753484181098
30
0
41
1
10
109.666751528317
20
-4.99021238024216
30
0
41
1
10
109.668206644676
20
-5.00035441098711
30
0
41
1
10
109.669297981946
20
-5.00796093404583
30
0
41
1
10
109.670389319216
20
-5.01556745710451
30
0
41
1
10
109.671844435575
20
-5.02570948784947
30
0
41
1
10
109.674390889205
20
-5.04345804165311
30
0
41
1
10
109.682394029183
20
-5.09923921075031
30
0
41
1
10
109.695490076419
20
-5.19051748745483
30
0
41
1
10
109.712951472735
20
-5.31222185639416
30
0
41
1
10
109.724592403612
20
-5.39335810235372
30
0
41
1
10
109.73041286905
20
-5.43392622533349
30
0
0
SPLINE
5
1A1
100
AcDbEntity
8
1
62
256
6
ByLayer
370
18
48
1
60
0
100
AcDbSpline
70
4
71
3
72
8
73
4
40
0
40
0
40
0
40
0
40
1
40
1
40
1
40
1
41
1
10
109.284566847307
20
-2.55765569148181
30
0
41
1
10
109.38661846438
20
-3.19186755226084
30
0
41
1
10
109.488670081453
20
-3.82607941303982
30
0
41
1
10
109.590721698526
20
-4.4602912738188
30
0
0
SPLINE
5
1A2
100
AcDbEntity
8
1
62
256
6
ByLayer
370
18
48
1
60
0
100
AcDbSpline
70
4
71
3
72
10
73
6
40
0
40
0
40
0
40
0
40
0.0942036760184868
40
0.396135784012325
40
1
40
1
40
1
40
1
41
1
10
100.47691396239
20
-4.00098712375632
30
0
41
1
10
100.470966863753
20
-4.00854246623393
30
0
41
1
10
100.446196420998
20
-4.04052455606808
30
0
41
1
10
100.386221409393
20
-4.12345028671382
30
0
41
1
10
100.337400628214
20
-4.2027651660305
30
0
41
1
10
100.307499763344
20
-4.25722259346119
30
0
0
SPLINE
5
1A3
100
AcDbEntity
8
1
62
256
6
ByLayer
370
18
48
1
60
0
100
AcDbSpline
70
4
71
3
72
13
73
9
40
0
40
0
40
0
40
0
40
0.0057624935460861
40
0.0296303931158605
40
0.220573589674055
40
0.602459982790445
40
0.984346375906835
40
1
40
1
40
1
40
1
41
1
10
100.445198015954
20
-5.08057404570783
30
0
41
1
10
100.444291294769
20
-5.07954099073271
30
0
41
1
10
100.439787248168
20
-5.07435473348127
30
0
41
1
10
100.409013112203
20
-5.0392013364706
30
0
41
1
10
100.322959247799
20
-4.94058537948638
30
0
41
1
10
100.187160905623
20
-4.7851606544084
30
0
41
1
10
100.076687813943
20
-4.65871984006171
30
0
41
1
10
100.019352620368
20
-4.59301795144117
30
0
41
1
10
100.017098083943
20
-4.5904285549631
30
0
0
SPLINE
5
1A4
100
AcDbEntity
8
1
62
256
6
ByLayer
370
18
48
1
60
0
100
AcDbSpline
70
4
71
3
72
8
73
4
40
0
40
0
40
0
40
0
40
1
40
1
40
1
40
1
41
1
10
100.307499763344
20
-4.25722259346119
30
0
41
1
10
100.453776509699
20
-4.41518863000223
30
0
41
1
10
100.601304105601
20
-4.57318941225174
30
0
41
1
10
100.75199838964
20
-4.73125988394048
30
0
0
SPLINE
5
1A5
100
AcDbEntity
8
1
62
256
6
ByLayer
370
13
48
1
60
0
100
AcDbSpline
70
4
71
3
72
11
73
7
40
0
40
0
40
0
40
0
40
0.249255883717676
40
0.499007727858609
40
0.749255708865791
40
1
40
1
40
1
40
1
41
1
10
100.307499763345
20
-4.25722259346259
30
0
41
1
10
100.283289444421
20
-4.28485194013209
30
0
41
1
10
100.234820633749
20
-4.34016560935476
30
0
41
1
10
100.162228685051
20
-4.42334410412545
30
0
41
1
10
100.089614458845
20
-4.50677085248788
30
0
41
1
10
100.041278368638
20
-4.5625261295958
30
0
41
1
10
100.017086381358
20
-4.59043138525107
30
0
0
SPLINE
5
1A6
100
AcDbEntity
8
1
62
256
6
ByLayer
370
18
48
1
60
0
100
AcDbSpline
70
4
71
3
72
20
73
16
40
0
40
0
40
0
40
0
40
0.0166268555036295
40
0.0415115835804314
40
0.0663963116572333
40
0.165935223964441
40
0.265474136271648
40
0.315243592425252
40
0.464551960886063
40
0.663629785500479
40
0.862707610114894
40
0.912477066268498
40
0.962246522422101
40
0.987131250498903
40
1
40
1
40
1
40
1
41
1
10
101.000000033229
20
-5.31082211176093
30
0
41
1
10
100.996273497256
20
-5.31020261509323
30
0
41
1
10
100.986577097464
20
-5.30857754701898
30
0
41
1
10
100.97066755806
20
-5.30575434117583
30
0
41
1
10
100.934505039635
20
-5.29893874723751
30
0
41
1
10
100.881415180928
20
-5.28747780267634
30
0
41
1
10
100.823874166772
20
-5.27243466631327
30
0
41
1
10
100.75624243604
20
-5.25235673290135
30
0
41
1
10
100.670903353885
20
-5.2225834633112
30
0
41
1
10
100.568339201649
20
-5.17565947621054
30
0
41
1
10
100.502981983226
20
-5.13340629575103
30
0
41
1
10
100.469480238427
20
-5.10528187301244
30
0
41
1
10
100.457081745903
20
-5.09345174401864
30
0
41
1
10
100.449121515744
20
-5.08500843810495
30
0
41
1
10
100.446169086909
20
-5.08168041633022
30
0
41
1
10
100.445198015954
20
-5.08057404570783
30
0
0
SPLINE
5
1A7
100
AcDbEntity
8
1
62
256
6
ByLayer
370
13
48
1
60
0
100
AcDbSpline
70
4
71
3
72
9
73
5
40
0
40
0
40
0
40
0
40
0.251786661021052
40
1
40
1
40
1
40
1
41
1
10
100.445202091768
20
-5.08057625352194
30
0
41
1
10
100.470892027001
20
-5.05125041615776
30
0
41
1
10
100.572988535251
20
-4.93478003917002
30
0
41
1
10
100.675330059926
20
-4.8183306620079
30
0
41
1
10
100.75199838964
20
-4.73125988394057
30
0
0
SPLINE
5
1A8
100
AcDbEntity
8
1
62
256
6
ByLayer
370
18
48
1
60
0
100
AcDbSpline
70
4
71
3
72
17
73
13
40
0
40
0
40
0
40
0
40
0.06009502291424
40
0.184038916465189
40
0.431926703567087
40
0.679814490668985
40
0.927702277770884
40
0.989674224546358
40
0.993547471219825
40
0.997420717893292
40
0.999357341230026
40
1
40
1
40
1
40
1
41
1
10
108.710039753083
20
-6.52550924673798
30
0
41
1
10
108.555697238019
20
-6.50243883361833
30
0
41
1
10
108.083017176691
20
-6.43146621444274
30
0
41
1
10
106.973474063612
20
-6.26333535250649
30
0
41
1
10
105.381087104086
20
-6.0172354945563
30
0
41
1
10
103.46971468741
20
-5.7143507133583
30
0
41
1
10
102.03322452542
20
-5.48115223972206
30
0
41
1
10
101.230941525311
20
-5.34898712117447
30
0
41
1
10
101.049911718488
20
-5.31907768565245
30
0
41
1
10
101.025176356431
20
-5.31498875701308
30
0
41
1
10
101.009123376572
20
-5.31233355722895
30
0
41
1
10
101.00185084977
20
-5.31112979017553
30
0
41
1
10
101.000000033229
20
-5.31082211176093
30
0
0
SPLINE
5
1A9
100
AcDbEntity
8
1
62
256
6
ByLayer
370
18
48
1
60
0
100
AcDbSpline
70
4
71
3
72
11
73
7
40
0
40
0
40
0
40
0
40
0.058968744940415
40
0.484373627158147
40
0.970550635406983
40
1
40
1
40
1
40
1
41
1
10
109.201949893205
20
-6.59883152534775
30
0
41
1
10
109.191414315614
20
-6.59726208731598
30
0
41
1
10
109.11214494895
20
-6.5854546386588
30
0
41
1
10
108.953296028606
20
-6.56180770590979
30
0
41
1
10
108.799262241994
20
-6.53884403957963
30
0
41
1
10
108.714860271244
20
-6.52622979574144
30
0
41
1
10
108.710039753083
20
-6.52550924673798
30
0
0
SPLINE
5
1AA
100
AcDbEntity
8
1
62
256
6
ByLayer
370
13
48
1
60
0
100
AcDbSpline
70
4
71
3
72
8
73
4
40
0
40
0
40
0
40
0
40
1
40
1
40
1
40
1
41
1
10
109.158453495722
20
-6.21036848009416
30
0
41
1
10
109.172952183141
20
-6.33991823298771
30
0
41
1
10
109.187450999234
20
-6.46940609123507
30
0
41
1
10
109.201949898055
20
-6.59883153939995
30
0
0
SPLINE
5
1AB
100
AcDbEntity
8
1
62
256
6
ByLayer
370
13
48
1
60
0
100
AcDbSpline
70
4
71
3
72
9
73
5
40
0
40
0
40
0
40
0
40
0.501219718031194
40
1
40
1
40
1
40
1
41
1
10
101.228614534917
20
-4.95345709320478
30
0
41
1
10
101.190415297206
20
-5.01314323985449
30
0
41
1
10
101.11420273745
20
-5.1322250407145
30
0
41
1
10
101.038005850049
20
-5.25138905506287
30
0
41
1
10
101.000000345066
20
-5.31082571574009
30
0
0
SPLINE
5
1AC
100
AcDbEntity
8
1
62
256
6
ByLayer
370
18
48
1
60
0
100
AcDbSpline
70
4
71
3
72
16
73
12
40
0
40
0
40
0
40
0
40
0.25
40
0.5
40
0.625
40
0.6875
40
0.75
40
0.78125
40
0.8125
40
0.875
40
1
40
1
40
1
40
1
41
1
10
109.158453495713
20
-6.21036848009518
30
0
41
1
10
109.152709061122
20
-6.1610067473228
30
0
41
1
10
109.141148163251
20
-6.06072314393569
30
0
41
1
10
109.126624339622
20
-5.93240630907411
30
0
41
1
10
109.116475237756
20
-5.84152748747462
30
0
41
1
10
109.110689122804
20
-5.78936538610338
30
0
41
1
10
109.1070800742
20
-5.75668302307039
30
0
41
1
10
109.104198973011
20
-5.73048945227117
30
0
41
1
10
109.101316243429
20
-5.70431097037147
30
0
41
1
10
109.09624914323
20
-5.65869440794197
30
0
41
1
10
109.091890367956
20
-5.62004503587869
30
0
41
1
10
109.088991284849
20
-5.59460914930489
30
0
0
SPLINE
5
1AD
100
AcDbEntity
8
1
62
256
6
ByLayer
370
18
48
1
60
0
100
AcDbSpline
70
4
71
3
72
47
73
43
40
0
40
0
40
0
40
0
40
0.0248207090807096
40
0.0496506043499393
40
0.0744896876533748
40
0.0993379606766004
40
0.124195424944881
40
0.149062081822941
40
0.173937932514775
40
0.198822978063437
40
0.223717219350834
40
0.248620657097551
40
0.273533291862638
40
0.298455124043422
40
0.323386153875328
40
0.348326381431689
40
0.373275806623568
40
0.398234429199582
40
0.423202248745721
40
0.448179264685186
40
0.473165476278218
40
0.49816088262192
40
0.523165482804099
40
0.548179276888422
40
0.573202265356142
40
0.59823444863327
40
0.623275827088501
40
0.648326401033141
40
0.673386170721074
40
0.698455136348685
40
0.72353329805484
40
0.748620655920813
40
0.773717209970268
40
0.798822960169181
40
0.823937906425843
40
0.849062048590784
40
0.874195386456769
40
0.899337919758728
40
0.924489648173768
40
0.949650571321102
40
0.974820688762051
40
1
40
1
40
1
40
1
41
1
10
109.158453495713
20
-6.2103684800953
30
0
41
1
10
109.092883776266
20
-6.20050287370353
30
0
41
1
10
108.961720069902
20
-6.18076800964155
30
0
41
1
10
108.764926419859
20
-6.15105546677705
30
0
41
1
10
108.568051741218
20
-6.12125538007973
30
0
41
1
10
108.371095428726
20
-6.09136028534428
30
0
41
1
10
108.174057967232
20
-6.06137227476304
30
0
41
1
10
107.976939550131
20
-6.03129087898881
30
0
41
1
10
107.77974044976
20
-6.0011163159275
30
0
41
1
10
107.582460918096
20
-5.9708486197427
30
0
41
1
10
107.385101213376
20
-5.94048787436663
30
0
41
1
10
107.187661592963
20
-5.91003415089543
30
0
41
1
10
106.990142315257
20
-5.87948752437222
30
0
41
1
10
106.792543639184
20
-5.84884806928647
30
0
41
1
10
106.594865824335
20
-5.81811586078004
30
0
41
1
10
106.397109130924
20
-5.78729097432151
30
0
41
1
10
106.199273819805
20
-5.75637348579636
30
0
41
1
10
106.001360152462
20
-5.72536347146806
30
0
41
1
10
105.803368391019
20
-5.69426100803773
30
0
41
1
10
105.605298798223
20
-5.66306617243967
30
0
41
1
10
105.407151637499
20
-5.63177904259496
30
0
41
1
10
105.208927172337
20
-5.60039969453041
30
0
41
1
10
105.01062566405
20
-5.56892821241274
30
0
41
1
10
104.812247364167
20
-5.53736460802327
30
0
41
1
10
104.613792519683
20
-5.50570887748981
30
0
41
1
10
104.415261377223
20
-5.47396102089763
30
0
41
1
10
104.216654183923
20
-5.44212103749194
30
0
41
1
10
104.017971187537
20
-5.41018892701732
30
0
41
1
10
103.819212636411
20
-5.37816468935978
30
0
41
1
10
103.620378779489
20
-5.34604832463674
30
0
41
1
10
103.421469866315
20
-5.31383983319296
30
0
41
1
10
103.22248614703
20
-5.28153921552416
30
0
41
1
10
103.023427872371
20
-5.24914647258402
30
0
41
1
10
102.824295293686
20
-5.21666160462951
30
0
41
1
10
102.625088662885
20
-5.18408461553179
30
0
41
1
10
102.42580823262
20
-5.15141549667715
30
0
41
1
10
102.22645425561
20
-5.11865428707983
30
0
41
1
10
102.027026987173
20
-5.08580084891298
30
0
41
1
10
101.82752667576
20
-5.05285570569603
30
0
41
1
10
101.627953598327
20
-5.01981691241872
30
0
41
1
10
101.428307928224
20
-4.9866917428005
30
0
41
1
10
101.295187101966
20
-4.96453665824157
30
0
41
1
10
101.228614534917
20
-4.9534570932048
30
0
0
SPLINE
5
1AE
100
AcDbEntity
8
1
62
256
6
ByLayer
370
18
48
1
60
0
100
AcDbSpline
70
4
71
3
72
16
73
12
40
0
40
0
40
0
40
0
40
0.25
40
0.375
40
0.5
40
0.5625
40
0.625
40
0.75
40
0.8125
40
0.875
40
1
40
1
40
1
40
1
41
1
10
101.228614534917
20
-4.95345709320483
30
0
41
1
10
101.260398592944
20
-4.90873041800307
30
0
41
1
10
101.308049351959
20
-4.8411824204093
30
0
41
1
10
101.37144215107
20
-4.75032645177311
30
0
41
1
10
101.410984373948
20
-4.69323714918076
30
0
41
1
10
101.442559606932
20
-4.6473985134343
30
0
41
1
10
101.474092877674
20
-4.60145536202731
30
0
41
1
10
101.505558807014
20
-4.55536585731122
30
0
41
1
10
101.536949361685
20
-4.50915224933735
30
0
41
1
10
101.568257937569
20
-4.46280280942219
30
0
41
1
10
101.59203895727
20
-4.4285706019574
30
0
41
1
10
101.607922359248
20
-4.40609449602223
30
0
0
SPLINE
5
1AF
100
AcDbEntity
8
1
62
256
6
ByLayer
370
18
48
1
60
0
100
AcDbSpline
70
4
71
3
72
18
73
14
40
0
40
0
40
0
40
0
40
0.25
40
0.375
40
0.5
40
0.5625
40
0.625
40
0.640625
40
0.65625
40
0.6875
40
0.75
40
0.875
40
1
40
1
40
1
40
1
41
1
10
100.75199838964
20
-4.73125988394048
30
0
41
1
10
100.788357080905
20
-4.68425605875629
30
0
41
1
10
100.843593075449
20
-4.61430551867747
30
0
41
1
10
100.918527425711
20
-4.52210861866638
30
0
41
1
10
100.96595708118
20
-4.46499779903417
30
0
41
1
10
101.004230296263
20
-4.41958917033608
30
0
41
1
10
101.024774132763
20
-4.39321321580178
30
0
41
1
10
101.038109400607
20
-4.37535302088287
30
0
41
1
10
101.046902297604
20
-4.36337327777036
30
0
41
1
10
101.062031575338
20
-4.34221911585962
30
0
41
1
10
101.09123353955
20
-4.29916733096957
30
0
41
1
10
101.129797952196
20
-4.23562623399852
30
0
41
1
10
101.157143709866
20
-4.18292167712022
30
0
41
1
10
101.169899599986
20
-4.15617246547504
30
0
0
SPLINE
5
1B0
100
AcDbEntity
8
1
62
256
6
ByLayer
370
18
48
1
60
0
100
AcDbSpline
70
4
71
3
72
18
73
14
40
0
40
0
40
0
40
0
40
0.125
40
0.25
40
0.375
40
0.5
40
0.625
40
0.6875
40
0.75
40
0.8125
40
0.875
40
0.9375
40
1
40
1
40
1
40
1
41
1
10
100.75199838964
20
-4.73125988394048
30
0
41
1
10
100.76231821376
20
-4.74208484307448
30
0
41
1
10
100.785153967777
20
-4.76378967039247
30
0
41
1
10
100.826282631496
20
-4.7962154903019
30
0
41
1
10
100.874605438329
20
-4.82820173704434
30
0
41
1
10
100.930641142041
20
-4.85924658939351
30
0
41
1
10
100.984099612645
20
-4.88371823372467
30
0
41
1
10
101.030877823399
20
-4.90191037978178
30
0
41
1
10
101.067807841925
20
-4.91468496381486
30
0
41
1
10
101.106424864239
20
-4.92641308153244
30
0
41
1
10
101.146360772999
20
-4.93692534834352
30
0
41
1
10
101.187247450864
20
-4.94605237965717
30
0
41
1
10
101.21482466996
20
-4.95116047202515
30
0
41
1
10
101.228614534917
20
-4.95345709320483
30
0
0
SPLINE
5
1B1
100
AcDbEntity
8
1
62
256
6
ByLayer
370
13
48
1
60
0
100
AcDbSpline
70
4
71
3
72
8
73
4
40
0
40
0
40
0
40
0
40
1
40
1
40
1
40
1
41
1
10
101.278771604915
20
-2.28093659051442
30
0
41
1
10
101.400329005053
20
-1.97917699613547
30
0
41
1
10
101.521886405191
20
-1.67741740175617
30
0
41
1
10
101.643443805326
20
-1.37565780737188
30
0
0
SPLINE
5
1B2
100
AcDbEntity
8
1
62
256
6
ByLayer
370
13
48
1
60
0
100
AcDbSpline
70
4
71
3
72
8
73
4
40
0
40
0
40
0
40
0
40
1
40
1
40
1
40
1
41
1
10
101.169899599986
20
-4.15617246547504
30
0
41
1
10
101.143513234787
20
-4.12596233385366
30
0
41
1
10
101.117126869588
20
-4.09575220223226
30
0
41
1
10
101.090740504389
20
-4.06554207061089
30
0
0
SPLINE
5
1B3
100
AcDbEntity
8
1
62
256
6
ByLayer
370
13
48
1
60
0
100
AcDbSpline
70
4
71
3
72
15
73
11
40
0
40
0
40
0
40
0
40
0.125
40
0.25
40
0.375
40
0.5
40
0.625
40
0.75
40
0.875
40
1
40
1
40
1
40
1
41
1
10
109.088991284858
20
-5.59460914930085
30
0
41
1
10
109.134796413539
20
-5.60188619315321
30
0
41
1
10
109.22626271399
20
-5.61285379993043
30
0
41
1
10
109.356083896434
20
-5.61726353879013
30
0
41
1
10
109.472132207657
20
-5.60962880037007
30
0
41
1
10
109.569861414004
20
-5.59093874980309
30
0
41
1
10
109.646417264142
20
-5.56259769801491
30
0
41
1
10
109.700013181302
20
-5.52608384061946
30
0
41
1
10
109.729526158915
20
-5.48287944834002
30
0
41
1
10
109.73281048943
20
-5.45063742471075
30
0
41
1
10
109.73041286905
20
-5.43392622533349
30
0
0
SPLINE
5
1B4
100
AcDbEntity
8
1
62
256
6
ByLayer
370
13
48
1
60
0
100
AcDbSpline
70
4
71
3
72
8
73
4
40
0
40
0
40
0
40
0
40
1
40
1
40
1
40
1
41
1
10
109.73041286905
20
-5.43392622533349
30
0
41
1
10
109.596681522992
20
-4.5972824409877
30
0
41
1
10
109.462950176935
20
-3.7606386566419
30
0
41
1
10
109.329218830877
20
-2.92399487229613
30
0
0
SPLINE
5
1B5
100
AcDbEntity
8
1
62
256
6
ByLayer
370
13
48
1
60
0
100
AcDbSpline
70
4
71
3
72
8
73
4
40
0
40
0
40
0
40
0
40
1
40
1
40
1
40
1
41
1
10
109.329218830877
20
-2.92399487229585
30
0
41
1
10
109.325789822004
20
-2.90254246756902
30
0
41
1
10
109.32236081313
20
-2.88109006284222
30
0
41
1
10
109.318931804257
20
-2.85963765811539
30
0
0
SPLINE
5
1B6
100
AcDbEntity
8
1
62
256
6
ByLayer
370
13
48
1
60
0
100
AcDbSpline
70
4
71
3
72
8
73
4
40
0
40
0
40
0
40
0
40
1
40
1
40
1
40
1
41
1
10
108.790302651365
20
-2.9739839646268
30
0
41
1
10
108.792791723311
20
-2.99582250783274
30
0
41
1
10
108.795280795257
20
-3.01766105103872
30
0
41
1
10
108.797769867203
20
-3.03949959424466
30
0
0
SPLINE
5
1B7
100
AcDbEntity
8
1
62
256
6
ByLayer
370
18
48
1
60
0
100
AcDbSpline
70
4
71
3
72
8
73
4
40
0
40
0
40
0
40
0
40
1
40
1
40
1
40
1
41
1
10
109.088991284859
20
-5.59460914930688
30
0
41
1
10
106.595301642991
20
-5.19843759821197
30
0
41
1
10
104.101612001087
20
-4.80226604710097
30
0
41
1
10
101.607922359248
20
-4.40609449601823
30
0
0
SPLINE
5
1B8
100
AcDbEntity
8
1
62
256
6
ByLayer
370
13
48
1
60
0
100
AcDbSpline
70
4
71
3
72
8
73
4
40
0
40
0
40
0
40
0
40
1
40
1
40
1
40
1
41
1
10
108.797769867202
20
-3.03949959424307
30
0
41
1
10
108.894843673088
20
-3.89120277926176
30
0
41
1
10
108.991917478973
20
-4.7429059642796
30
0
41
1
10
109.088991284858
20
-5.59460914930085
30
0
0
SPLINE
5
1B9
100
AcDbEntity
8
1
62
256
6
ByLayer
370
13
48
1
60
0
100
AcDbSpline
70
4
71
3
72
12
73
8
40
0
40
0
40
0
40
0
40
0.130933762590391
40
0.130933762590391
40
0.846851358087277
40
0.846851358087277
40
1
40
1
40
1
40
1
41
1
10
106.407984434105
20
-2.59550595057348
30
0
41
1
10
106.219362267145
20
-2.64498939822894
30
0
41
1
10
106.030740100185
20
-2.69447284588472
30
0
41
1
10
104.810772575423
20
-3.01452112084036
30
0
41
1
10
103.779427217624
20
-3.28508594815716
30
0
41
1
10
102.52745710933
20
-3.61352983326432
30
0
41
1
10
102.306832358826
20
-3.67140889102163
30
0
41
1
10
102.086207608322
20
-3.72928794878041
30
0
0
SPLINE
5
1BA
100
AcDbEntity
8
1
62
256
6
ByLayer
370
13
48
1
60
0
100
AcDbSpline
70
4
71
3
72
8
73
4
40
0
40
0
40
0
40
0
40
1
40
1
40
1
40
1
41
1
10
102.338617530971
20
-1.70536088000756
30
0
41
1
10
102.348606573118
20
-1.68441377243568
30
0
41
1
10
102.358595615265
20
-1.66346666486382
30
0
41
1
10
102.368584657412
20
-1.64251955729193
30
0
0
SPLINE
5
1BB
100
AcDbEntity
8
1
62
256
6
ByLayer
370
18
48
1
60
0
100
AcDbSpline
70
4
71
3
72
8
73
4
40
0
40
0
40
0
40
0
40
1
40
1
40
1
40
1
41
1
10
101.169899517609
20
-4.1561724033802
30
0
41
1
10
101.559472188732
20
-3.33923522892042
30
0
41
1
10
101.949044859854
20
-2.52229805446103
30
0
41
1
10
102.338617530975
20
-1.70536088000191
30
0
0
SPLINE
5
1BC
100
AcDbEntity
8
1
62
256
6
ByLayer
370
18
48
1
60
0
100
AcDbSpline
70
4
71
3
72
18
73
14
40
0
40
0
40
0
40
0
40
0.125
40
0.25
40
0.375
40
0.5
40
0.625
40
0.6875
40
0.75
40
0.8125
40
0.875
40
0.9375
40
1
40
1
40
1
40
1
41
1
10
101.169896046975
20
-4.15617092100396
30
0
41
1
10
101.179995197017
20
-4.16773347899297
30
0
41
1
10
101.200735346079
20
-4.1908842567224
30
0
41
1
10
101.234846955414
20
-4.22567248155153
30
0
41
1
10
101.273376824618
20
-4.26049936811069
30
0
41
1
10
101.318331102481
20
-4.29518613471782
30
0
41
1
10
101.363336244671
20
-4.32357413823266
30
0
41
1
10
101.405509833364
20
-4.3453465963035
30
0
41
1
10
101.440429291464
20
-4.36085574774759
30
0
41
1
10
101.478790479436
20
-4.37517393742024
30
0
41
1
10
101.520145515317
20
-4.38779715618284
30
0
41
1
10
101.563590907601
20
-4.39829999564338
30
0
41
1
10
101.593160780576
20
-4.40374930906538
30
0
41
1
10
101.607922359248
20
-4.40609449602627
30
0
0
SPLINE
5
1BD
100
AcDbEntity
8
1
62
256
6
ByLayer
370
18
48
1
60
0
100
AcDbSpline
70
4
71
3
72
15
73
11
40
0
40
0
40
0
40
0
40
0.105547317957897
40
0.211094635915795
40
0.422189271831589
40
0.633283907747384
40
0.844378543663178
40
0.897152202642127
40
0.949925861621076
40
1
40
1
40
1
40
1
41
1
10
101.607922359248
20
-4.40609449602627
30
0
41
1
10
101.624749570766
20
-4.38228283469752
30
0
41
1
10
101.658404011107
20
-4.33465968814258
30
0
41
1
10
101.725712934985
20
-4.23941383466808
30
0
41
1
10
101.809849122039
20
-4.12035684568858
30
0
41
1
10
101.910812441909
20
-3.97748739484592
30
0
41
1
10
101.986535430848
20
-3.87033675387738
30
0
41
1
10
102.037015441008
20
-3.79889250327014
30
0
41
1
10
102.061825945845
20
-3.7637847132554
30
0
41
1
10
102.078225711975
20
-3.74059813952735
30
0
41
1
10
102.086207826623
20
-3.72928970262257
30
0
0
SPLINE
5
1BE
100
AcDbEntity
8
1
62
256
6
ByLayer
370
18
48
1
60
0
100
AcDbSpline
70
4
71
3
72
13
73
9
40
0
40
0
40
0
40
0
40
0.011384836812256
40
0.233982789263902
40
0.456580741715548
40
0.679178694167194
40
0.90177664661884
40
1
40
1
40
1
40
1
41
1
10
102.086207258534
20
-3.72928929580306
30
0
41
1
10
102.086637514812
20
-3.72867974209117
30
0
41
1
10
102.095480051488
20
-3.71615094600961
30
0
41
1
10
102.112728376454
20
-3.69165340295842
30
0
41
1
10
102.137915371952
20
-3.65556222603703
30
0
41
1
10
102.163048705373
20
-3.61926543140069
30
0
41
1
10
102.18344623253
20
-3.58957460815529
30
0
41
1
10
102.195457179104
20
-3.57198327781811
30
0
41
1
10
102.199133142394
20
-3.56659488257532
30
0
0
SPLINE
5
1BF
100
AcDbEntity
8
1
62
256
6
ByLayer
370
18
48
1
60
0
100
AcDbSpline
70
4
71
3
72
8
73
4
40
0
40
0
40
0
40
0
40
1
40
1
40
1
40
1
41
1
10
103.253773224981
20
-2.01969123371566
30
0
41
1
10
103.240013234614
20
-2.03987383661595
30
0
41
1
10
103.226253244247
20
-2.06005643951627
30
0
41
1
10
103.21249325388
20
-2.08023904241657
30
0
0
SPLINE
5
1C0
100
AcDbEntity
8
1
62
256
6
ByLayer
370
18
48
1
60
0
100
AcDbSpline
70
4
71
3
72
8
73
4
40
0
40
0
40
0
40
0
40
1
40
1
40
1
40
1
41
1
10
103.21249325388
20
-2.08023904241657
30
0
41
1
10
102.874706640895
20
-2.57569092087263
30
0
41
1
10
102.536920027911
20
-3.07114279932867
30
0
41
1
10
102.199133414927
20
-3.56659467778471
30
0
0
SPLINE
5
1C1
100
AcDbEntity
8
1
62
256
6
ByLayer
370
13
48
1
60
0
100
AcDbSpline
70
4
71
3
72
10
73
6
40
0
40
0
40
0
40
0
40
0.525210305152619
40
0.525210305152619
40
1
40
1
40
1
40
1
41
1
10
106.101011817128
20
-2.54296951852203
30
0
41
1
10
105.417909587129
20
-2.72217567433299
30
0
41
1
10
104.734807357132
20
-2.90138183014909
30
0
41
1
10
103.434181258801
20
-3.24259020719444
30
0
41
1
10
102.816657390467
20
-3.4045924284213
30
0
41
1
10
102.199133522136
20
-3.56659464965941
30
0
0
SPLINE
5
1C2
100
AcDbEntity
8
1
62
256
6
ByLayer
370
18
48
1
60
0
100
AcDbSpline
70
4
71
3
72
8
73
4
40
0
40
0
40
0
40
0
40
1
40
1
40
1
40
1
41
1
10
102.368584657408
20
-1.64251955728662
30
0
41
1
10
102.252692131263
20
-1.50983252584632
30
0
41
1
10
102.136799605118
20
-1.37714549440483
30
0
41
1
10
102.020907078973
20
-1.2444584629622
30
0
0
SPLINE
5
1C3
100
AcDbEntity
8
1
62
256
6
ByLayer
370
18
48
1
60
0
100
AcDbSpline
70
4
71
3
72
27
73
23
40
0
40
0
40
0
40
0
40
0.124999999999951
40
0.124999999999951
40
0.249999999999902
40
0.249999999999902
40
0.281249999999889
40
0.281249999999889
40
0.312499999999876
40
0.312499999999876
40
0.374999999999882
40
0.374999999999882
40
0.499999999999929
40
0.499999999999929
40
0.562499999999937
40
0.562499999999937
40
0.624999999999946
40
0.624999999999946
40
0.749999999999964
40
0.874999999999982
40
0.874999999999982
40
1
40
1
40
1
40
1
41
1
10
103.25377322498
20
-2.01969123371725
30
0
41
1
10
103.205002667054
20
-2.01074786494752
30
0
41
1
10
103.157013386217
20
-2.00068341549485
30
0
41
1
10
103.062511493587
20
-1.97843559467788
30
0
41
1
10
103.015999159535
20
-1.96625182477365
30
0
41
1
10
102.958817667992
20
-1.94964611730111
30
0
41
1
10
102.947429666932
20
-1.9462556724647
30
0
41
1
10
102.924751478663
20
-1.93933442642043
30
0
41
1
10
102.913456491989
20
-1.93580166324045
30
0
41
1
10
102.879997587305
20
-1.9250802294404
30
0
41
1
10
102.858164980265
20
-1.9177405484221
30
0
41
1
10
102.794055624143
20
-1.8951581208064
30
0
41
1
10
102.753157470114
20
-1.87935599448619
30
0
41
1
10
102.694619161041
20
-1.85451305479978
30
0
41
1
10
102.675577209758
20
-1.84604103528704
30
0
41
1
10
102.638451888029
20
-1.82870804181025
30
0
41
1
10
102.620356303056
20
-1.81983636799592
30
0
41
1
10
102.568420675064
20
-1.79308132666975
30
0
41
1
10
102.50476940834
20
-1.75674972499277
30
0
41
1
10
102.452223565529
20
-1.71911193547635
30
0
41
1
10
102.405427772708
20
-1.68079784170956
30
0
41
1
10
102.385331983176
20
-1.66165202105597
30
0
41
1
10
102.368584549232
20
-1.64251955347501
30
0
0
SPLINE
5
1C4
100
AcDbEntity
8
1
62
256
6
ByLayer
370
18
48
1
60
0
100
AcDbSpline
70
4
71
3
72
8
73
4
40
0
40
0
40
0
40
0
40
1
40
1
40
1
40
1
41
1
10
106.40798443411
20
-2.59550595057243
30
0
41
1
10
106.305617152232
20
-2.57924289836163
30
0
41
1
10
106.203256301416
20
-2.5617604686374
30
0
41
1
10
106.101011817117
20
-2.54296951851398
30
0
0
SPLINE
5
1C5
100
AcDbEntity
8
1
62
256
6
ByLayer
370
18
48
1
60
0
100
AcDbSpline
70
4
71
3
72
8
73
4
40
0
40
0
40
0
40
0
40
1
40
1
40
1
40
1
41
1
10
108.790302651362
20
-2.97398396462438
30
0
41
1
10
107.996196578946
20
-2.84782462660508
30
0
41
1
10
107.202090506526
20
-2.72166528858386
30
0
41
1
10
106.407984434107
20
-2.59550595056308
30
0
0
SPLINE
5
1C6
100
AcDbEntity
8
1
62
256
6
ByLayer
370
18
48
1
60
0
100
AcDbSpline
70
4
71
3
72
15
73
11
40
0
40
0
40
0
40
0
40
0.125
40
0.25
40
0.375
40
0.5
40
0.625
40
0.75
40
0.875
40
1
40
1
40
1
40
1
41
1
10
108.790302650118
20
-2.97398395368668
30
0
41
1
10
108.826289930951
20
-2.9797012455613
30
0
41
1
10
108.898136773023
20
-2.9885371071839
30
0
41
1
10
109.001236464465
20
-2.99347914287114
30
0
41
1
10
109.095555809815
20
-2.98990625424563
30
0
41
1
10
109.177305252458
20
-2.97794464029309
30
0
41
1
10
109.24317463496
20
-2.95805754613494
30
0
41
1
10
109.290486794188
20
-2.93103496345026
30
0
41
1
10
109.317315178786
20
-2.89796125503307
30
0
41
1
10
109.320815517887
20
-2.8727669746888
30
0
41
1
10
109.318931802539
20
-2.85963764736803
30
0
0
SPLINE
5
1C7
100
AcDbEntity
8
1
62
256
6
ByLayer
370
18
48
1
60
0
100
AcDbSpline
70
4
71
3
72
8
73
4
40
0
40
0
40
0
40
0
40
1
40
1
40
1
40
1
41
1
10
109.284564624996
20
-2.62010149568681
30
0
41
1
10
109.296020351415
20
-2.69994688316243
30
0
41
1
10
109.307476077835
20
-2.77979227063844
30
0
41
1
10
109.318931804254
20
-2.85963765811496
30
0
0
SPLINE
5
1C8
100
AcDbEntity
8
1
62
256
6
ByLayer
370
18
48
1
60
0
100
AcDbSpline
70
4
71
3
72
13
73
9
40
0
40
0
40
0
40
0
40
0.0252216391363194
40
0.110468502701561
40
0.195715366266803
40
0.536702820527769
40
0.877690274788735
40
1
40
1
40
1
40
1
41
1
10
109.994781401294
20
-5.20232316089431
30
0
41
1
10
109.994747568833
20
-5.20333265128531
30
0
41
1
10
109.994584795126
20
-5.20781190300985
30
0
41
1
10
109.994150479916
20
-5.21630292737342
30
0
41
1
10
109.992334112957
20
-5.2389068223651
30
0
41
1
10
109.986929567401
20
-5.27232138054259
30
0
41
1
10
109.976949806873
20
-5.30771444246486
30
0
41
1
10
109.969606006838
20
-5.32795594892559
30
0
41
1
10
109.967556487649
20
-5.33328975577024
30
0
0
SPLINE
5
1C9
100
AcDbEntity
8
1
62
256
6
ByLayer
370
18
48
1
60
0
100
AcDbSpline
70
4
71
3
72
32
73
28
40
0
40
0
40
0
40
0
40
0.0201722500279436
40
0.030957120221128
40
0.106451211573419
40
0.192730173118894
40
0.365288096209843
40
0.451567057755318
40
0.494706538528056
40
0.537846019300793
40
0.543238454397386
40
0.548630889493978
40
0.55402332459057
40
0.556719542138866
40
0.559415759687162
40
0.564808194783754
40
0.570200629880346
40
0.580985500073531
40
0.624124980846268
40
0.710403942391743
40
0.796682903937218
40
0.882961865482693
40
0.969240827028168
40
0.980025697221353
40
0.990810567414537
40
0.996203002511129
40
1
40
1
40
1
40
1
41
1
10
109.91634077869
20
-3.42439457681283
30
0
41
1
10
109.91732115367
20
-3.43640342288867
30
0
41
1
10
109.918739924241
20
-3.45476498406757
30
0
41
1
10
109.923680053539
20
-3.51748526820182
30
0
41
1
10
109.931710343282
20
-3.61916119922108
30
0
41
1
10
109.947335198901
20
-3.81616626504095
30
0
41
1
10
109.963545238746
20
-4.01951297863448
30
0
41
1
10
109.977742849314
20
-4.19744268292646
30
0
41
1
10
109.985810130877
20
-4.29913071086065
30
0
41
1
10
109.990185148471
20
-4.3531284662985
30
0
41
1
10
109.992707838592
20
-4.38490731154931
30
0
41
1
10
109.993445805513
20
-4.39444478862228
30
0
41
1
10
109.994101039828
20
-4.40237850824241
30
0
41
1
10
109.9946008048
20
-4.40873948890174
30
0
41
1
10
109.994902497331
20
-4.41513136577774
30
0
41
1
10
109.995053481841
20
-4.42315212099442
30
0
41
1
10
109.995307187595
20
-4.43598388013729
30
0
41
1
10
109.996166088345
20
-4.47125470029593
30
0
41
1
10
109.998060268622
20
-4.55465961254257
30
0
41
1
10
109.999734637012
20
-4.68311865652473
30
0
41
1
10
110.000218058847
20
-4.83748300030476
30
0
41
1
10
109.999124040854
20
-4.99206417125171
30
0
41
1
10
109.997195194351
20
-5.10171511636631
30
0
41
1
10
109.995681080144
20
-5.16626713884275
30
0
41
1
10
109.995260391952
20
-5.18245310269867
30
0
41
1
10
109.995011124063
20
-5.19428700132573
30
0
41
1
10
109.994861919497
20
-5.19992066488877
30
0
41
1
10
109.994781401294
20
-5.20232316089431
30
0
0
SPLINE
5
1CA
100
AcDbEntity
8
1
62
256
6
ByLayer
370
13
48
1
60
0
100
AcDbSpline
70
4
71
3
72
8
73
4
40
0
40
0
40
0
40
0
40
1
40
1
40
1
40
1
41
1
10
109.994763879326
20
-5.20232524434178
30
0
41
1
10
109.979865559717
20
-5.27480360682418
30
0
41
1
10
109.964967219629
20
-5.34728189684259
30
0
41
1
10
109.950068860508
20
-5.41976010735581
30
0
0
SPLINE
5
1CB
100
AcDbEntity
8
1
62
256
6
ByLayer
370
18
48
1
60
0
100
AcDbSpline
70
4
71
3
72
32
73
28
40
0
40
0
40
0
40
0
40
0.27498024041597
40
0.412470360623956
40
0.549960480831942
40
0.584333010883939
40
0.601519275909939
40
0.601519275909939
40
0.610112408422938
40
0.610112408422938
40
0.611186549987064
40
0.611186549987064
40
0.612260691551189
40
0.612260691551189
40
0.614408974679438
40
0.614408974679438
40
0.616557257807688
40
0.618705540935937
40
0.618705540935937
40
0.623002107192435
40
0.623002107192435
40
0.627298673448934
40
0.63589180596193
40
0.653078070987919
40
0.687450601039898
40
0.824940721247812
40
1
40
1
40
1
40
1
41
1
10
109.850175571522
20
-3.74944770245958
30
0
41
1
10
109.861755968936
20
-3.89685298861747
30
0
41
1
10
109.879235208681
20
-4.1179414665952
30
0
41
1
10
109.902712067058
20
-4.41269362034461
30
0
41
1
10
109.915986898963
20
-4.57801825754808
30
0
41
1
10
109.924085254237
20
-4.68013819446318
30
0
41
1
10
109.926323589736
20
-4.70702417165259
30
0
41
1
10
109.927414669612
20
-4.7214350600463
30
0
41
1
10
109.927765643262
20
-4.7264034163023
30
0
41
1
10
109.928203011898
20
-4.73075475199963
30
0
41
1
10
109.928251543998
20
-4.73120440123444
30
0
41
1
10
109.928340884904
20
-4.73223261775081
30
0
41
1
10
109.928382897137
20
-4.73280594126234
30
0
41
1
10
109.928491153861
20
-4.73422956485436
30
0
41
1
10
109.928536849987
20
-4.73487873908576
30
0
41
1
10
109.928613498595
20
-4.73663714441625
30
0
41
1
10
109.928677557831
20
-4.73883978560539
30
0
41
1
10
109.928732913528
20
-4.74137395952502
30
0
41
1
10
109.928816290362
20
-4.74523729396043
30
0
41
1
10
109.928872444564
20
-4.74779965863704
30
0
41
1
10
109.928985581148
20
-4.75276985889377
30
0
41
1
10
109.929156444349
20
-4.76006533290644
30
0
41
1
10
109.929558057017
20
-4.77626104481425
30
0
41
1
10
109.930331598507
20
-4.80767801582829
30
0
41
1
10
109.932422084517
20
-4.9097329065624
30
0
41
1
10
109.934507804998
20
-5.09725041002196
30
0
41
1
10
109.933497401149
20
-5.2665794558128
30
0
41
1
10
109.932016352421
20
-5.36154457222156
30
0
0
SPLINE
5
1CC
100
AcDbEntity
8
1
62
256
6
ByLayer
370
18
48
1
60
0
100
AcDbSpline
70
4
71
3
72
17
73
13
40
0
40
0
40
0
40
0
40
0.0295634678907673
40
0.0735446958500497
40
0.161507151768615
40
0.337432063605745
40
0.513356975442874
40
0.689281887280004
40
0.865206799117134
40
0.953169255035699
40
0.997150482994981
40
1
40
1
40
1
40
1
41
1
10
109.642418217079
20
-2.58831413852764
30
0
41
1
10
109.647039779199
20
-2.59590333698219
30
0
41
1
10
109.658504319863
20
-2.61484058376936
30
0
41
1
10
109.682960106921
20
-2.65706921386922
30
0
41
1
10
109.726974394452
20
-2.73846355028476
30
0
41
1
10
109.78212582433
20
-2.85728964035093
30
0
41
1
10
109.835837972566
20
-3.00349096841455
30
0
41
1
10
109.877009882006
20
-3.15324512456911
30
0
41
1
10
109.900615245205
20
-3.28019417651626
30
0
41
1
10
109.911701865802
20
-3.37035949026245
30
0
41
1
10
109.915152241468
20
-3.40988641051905
30
0
41
1
10
109.916272860408
20
-3.42356262962878
30
0
41
1
10
109.91634077869
20
-3.42439457681283
30
0
0
SPLINE
5
1CD
100
AcDbEntity
8
1
62
256
6
ByLayer
370
13
48
1
60
0
100
AcDbSpline
70
4
71
3
72
9
73
5
40
0
40
0
40
0
40
0
40
0.253089698189952
40
1
40
1
40
1
40
1
41
1
10
109.916357481279
20
-3.42439173925695
30
0
41
1
10
109.91076957525
20
-3.45183703636229
30
0
41
1
10
109.888697325619
20
-3.56024606218705
30
0
41
1
10
109.866646005397
20
-3.66855229211072
30
0
41
1
10
109.850175571522
20
-3.74944770245958
30
0
0
SPLINE
5
1CE
100
AcDbEntity
8
1
62
256
6
ByLayer
370
18
48
1
60
0
100
AcDbSpline
70
4
71
3
72
19
73
15
40
0
40
0
40
0
40
0
40
0.125
40
0.25
40
0.3125
40
0.34375
40
0.359375
40
0.375
40
0.4375
40
0.46875
40
0.5
40
0.625
40
0.75
40
1
40
1
40
1
40
1
41
1
10
109.590721698527
20
-4.31101050189091
30
0
41
1
10
109.594929362119
20
-4.2860318206711
30
0
41
1
10
109.607141422941
20
-4.23646784115002
30
0
41
1
10
109.631571775133
20
-4.17649144599093
30
0
41
1
10
109.653310748657
20
-4.13607091999876
30
0
41
1
10
109.665299152227
20
-4.11631032208484
30
0
41
1
10
109.672463571221
20
-4.10515544578999
30
0
41
1
10
109.683521208456
20
-4.08856423439133
30
0
41
1
10
109.697320453454
20
-4.06963164818418
30
0
41
1
10
109.71431282912
20
-4.04866340816824
30
0
41
1
10
109.738558587829
20
-4.01653124663
30
0
41
1
10
109.771357789847
20
-3.9665049478518
30
0
41
1
10
109.818712530987
20
-3.87319321894947
30
0
41
1
10
109.841232707132
20
-3.79934858536623
30
0
41
1
10
109.850175571522
20
-3.74944770245958
30
0
0
SPLINE
5
1CF
100
AcDbEntity
8
1
62
256
6
ByLayer
370
18
48
1
60
0
100
AcDbSpline
70
4
71
3
72
28
73
24
40
0
40
0
40
0
40
0
40
0.03125
40
0.0625
40
0.09375
40
0.125
40
0.15625
40
0.1875
40
0.21875
40
0.25
40
0.3125
40
0.375
40
0.4375
40
0.5
40
0.5625
40
0.625
40
0.6875
40
0.75
40
0.8125
40
0.875
40
0.9375
40
0.96875
40
1
40
1
40
1
40
1
41
1
10
109.490937372161
20
-2.92422176812224
30
0
41
1
10
109.496266770606
20
-2.93231258170974
30
0
41
1
10
109.506908724621
20
-2.9485007713462
30
0
41
1
10
109.522799431312
20
-2.97281094793141
30
0
41
1
10
109.538596217972
20
-2.99715722139311
30
0
41
1
10
109.554277388901
20
-3.02154779647734
30
0
41
1
10
109.569821248398
20
-3.04599087793011
30
0
41
1
10
109.585205468049
20
-3.07049427283852
30
0
41
1
10
109.60040771944
20
-3.09506578828962
30
0
41
1
10
109.620404992395
20
-3.12792904573084
30
0
41
1
10
109.644835020866
20
-3.16921745432455
30
0
41
1
10
109.673056564409
20
-3.21915586043568
30
0
41
1
10
109.699995627068
20
-3.26954395927658
30
0
41
1
10
109.725452288855
20
-3.32043043838812
30
0
41
1
10
109.749226629782
20
-3.37186398531122
30
0
41
1
10
109.77110922461
20
-3.42388326950638
30
0
41
1
10
109.790887512483
20
-3.47652048735486
30
0
41
1
10
109.808345843344
20
-3.52979833177696
30
0
41
1
10
109.823268189795
20
-3.58372854558277
30
0
41
1
10
109.835441471388
20
-3.63831031346544
30
0
41
1
10
109.843123435997
20
-3.68432574348117
30
0
41
1
10
109.84769472037
20
-3.72144149806667
30
0
41
1
10
109.849440961188
20
-3.74009671169352
30
0
41
1
10
109.850175571522
20
-3.74944770245958
30
0
0
SPLINE
5
1D0
100
AcDbEntity
8
1
62
256
6
ByLayer
370
13
48
1
60
0
100
AcDbSpline
70
4
71
3
72
8
73
4
40
0
40
0
40
0
40
0
40
1
40
1
40
1
40
1
41
1
10
109.329218830877
20
-7.99320596334053
30
0
41
1
10
109.325789822004
20
-8.01014798795535
30
0
41
1
10
109.32236081313
20
-8.02709001257014
30
0
41
1
10
109.318931804257
20
-8.04403203718496
30
0
0
SPLINE
5
1D1
100
AcDbEntity
8
1
62
256
6
ByLayer
370
13
48
1
60
0
100
AcDbSpline
70
4
71
3
72
8
73
4
40
0
40
0
40
0
40
0
40
1
40
1
40
1
40
1
41
1
10
109.608606586906
20
-6.61280876559246
30
0
41
1
10
109.515477334896
20
-7.07294116484175
30
0
41
1
10
109.422348082887
20
-7.53307356409104
30
0
41
1
10
109.329218830877
20
-7.9932059633403
30
0
0
SPLINE
5
1D2
100
AcDbEntity
8
1
62
256
6
ByLayer
370
18
48
1
60
0
100
AcDbSpline
70
4
71
3
72
8
73
4
40
0
40
0
40
0
40
0
40
1
40
1
40
1
40
1
41
1
10
109.590721698527
20
-4.31101050189091
30
0
41
1
10
109.593815276041
20
-4.34865794585383
30
0
41
1
10
109.596908853555
20
-4.38630538981676
30
0
41
1
10
109.600002431069
20
-4.42395283377968
30
0
0
SPLINE
5
1D3
100
AcDbEntity
8
1
62
256
6
ByLayer
370
18
48
1
60
0
100
AcDbSpline
70
4
71
3
72
11
73
7
40
0
40
0
40
0
40
0
40
0.067497433401438
40
0.524387713799501
40
0.981277994197563
40
1
40
1
40
1
40
1
41
1
10
109.28458866511
20
-2.0029603517327
30
0
41
1
10
109.292685731306
20
-2.01621363662784
30
0
41
1
10
109.355691733571
20
-2.11936136254465
30
0
41
1
10
109.472353823172
20
-2.31010898072532
30
0
41
1
10
109.582828045759
20
-2.49072901790916
30
0
41
1
10
109.640164334888
20
-2.58461297454937
30
0
41
1
10
109.642418217079
20
-2.58831413852764
30
0
0
SPLINE
5
1D4
100
AcDbEntity
8
1
62
256
6
ByLayer
370
13
48
1
60
0
100
AcDbSpline
70
4
71
3
72
11
73
7
40
0
40
0
40
0
40
0
40
0.249255887038227
40
0.499007732287018
40
0.749255712187879
40
1
40
1
40
1
40
1
41
1
10
109.49093737216
20
-2.9242217681213
30
0
41
1
10
109.503623375264
20
-2.89632662288577
30
0
41
1
10
109.529020623511
20
-2.84048082790301
30
0
41
1
10
109.566930225105
20
-2.75659652373355
30
0
41
1
10
109.604766373962
20
-2.6725243591076
30
0
41
1
10
109.629867511736
20
-2.61639980272812
30
0
41
1
10
109.642430513842
20
-2.5883097246469
30
0
0
SPLINE
5
1D5
100
AcDbEntity
8
1
62
256
6
ByLayer
370
18
48
1
60
0
100
AcDbSpline
70
4
71
3
72
10
73
6
40
0
40
0
40
0
40
0
40
0.179319506093595
40
0.452879670729063
40
1
40
1
40
1
40
1
41
1
10
109.39798440279
20
-3.24227591649361
30
0
41
1
10
109.405352736386
20
-3.22368423869011
30
0
41
1
10
109.423155768149
20
-3.17648527738552
30
0
41
1
10
109.457928710019
20
-3.0710654514279
30
0
41
1
10
109.47962047109
20
-2.98313917776497
30
0
41
1
10
109.490937372161
20
-2.92422176812312
30
0
0
SPLINE
5
1D6
100
AcDbEntity
8
1
62
256
6
ByLayer
370
18
48
1
60
0
100
AcDbSpline
70
4
71
3
72
8
73
4
40
0
40
0
40
0
40
0
40
1
40
1
40
1
40
1
41
1
10
109.490937372161
20
-2.92422176812312
30
0
41
1
10
109.423023862466
20
-2.82111903474501
30
0
41
1
10
109.354840723622
20
-2.71811997906255
30
0
41
1
10
109.286196220554
20
-2.61530163419869
30
0
0
SPLINE
5
1D7
100
AcDbEntity
8
1
62
256
6
ByLayer
370
18
48
1
60
0
100
AcDbSpline
70
4
71
3
72
9
73
5
40
0
40
0
40
0
40
0
40
0.281865245461061
40
1
40
1
40
1
40
1
41
1
10
109.30577239617
20
-8.14210323375508
30
0
41
1
10
109.308967892947
20
-8.1327932107136
30
0
41
1
10
109.318378413235
20
-8.09973733131937
30
0
41
1
10
109.320815517887
20
-8.06695601240187
30
0
41
1
10
109.318931802539
20
-8.04403204567265
30
0
0
SPLINE
5
1D8
100
AcDbEntity
8
1
62
256
6
ByLayer
370
18
48
1
60
0
100
AcDbSpline
70
4
71
3
72
8
73
4
40
0
40
0
40
0
40
0
40
1
40
1
40
1
40
1
41
1
10
109.201868644625
20
-6.6194261489731
30
0
41
1
10
109.22015245401
20
-6.84193186802921
30
0
41
1
10
109.238436263395
20
-7.06443758708619
30
0
41
1
10
109.25672007278
20
-7.28694330614468
30
0
0
SPLINE
5
1D9
100
AcDbEntity
8
1
62
256
6
ByLayer
370
18
48
1
60
0
100
AcDbSpline
70
4
71
3
72
8
73
4
40
0
40
0
40
0
40
0
40
1
40
1
40
1
40
1
41
1
10
109.284345120091
20
-7.62312768034462
30
0
41
1
10
109.295874014812
20
-7.76342913262408
30
0
41
1
10
109.307402909533
20
-7.90373058490431
30
0
41
1
10
109.318931804254
20
-8.04403203718547
30
0
0
SPLINE
5
1DA
100
AcDbEntity
8
1
62
256
6
ByLayer
370
18
48
1
60
0
100
AcDbSpline
70
4
71
3
72
8
73
4
40
0
40
0
40
0
40
0
40
1
40
1
40
1
40
1
41
1
10
109.201868643072
20
-6.61942615818407
30
0
41
1
10
109.201378694552
20
-6.61346370050069
30
0
41
1
10
109.200812338241
20
-6.60751414282032
30
0
41
1
10
109.200168894216
20
-6.60157841890941
30
0
0
SPLINE
5
1DB
100
AcDbEntity
8
1
62
256
6
ByLayer
370
18
48
1
60
0
100
AcDbSpline
70
4
71
3
72
20
73
16
40
0
40
0
40
0
40
0
40
0.0013471400125716
40
0.0169510909498752
40
0.0325550418871788
40
0.0637629437617859
40
0.126178747511
40
0.251010355009429
40
0.375841962507857
40
0.500673570006286
40
0.625505177504714
40
0.750336785003143
40
0.875168392501571
40
0.937584196250786
40
1
40
1
40
1
40
1
41
1
10
101.013137097391
20
7.79605679440959
30
0
41
1
10
101.013152549238
20
7.79647271455391
30
0
41
1
10
101.013367165269
20
7.80199905768029
30
0
41
1
10
101.014322201428
20
7.82045973222921
30
0
41
1
10
101.01554368225
20
7.85050171373265
30
0
41
1
10
101.018180014773
20
7.90612078456729
30
0
41
1
10
101.022996291071
20
8.01540297822908
30
0
41
1
10
101.030130891413
20
8.17245152606603
30
0
41
1
10
101.038620743989
20
8.36066151308682
30
0
41
1
10
101.047064504113
20
8.54877024746236
30
0
41
1
10
101.055487747171
20
8.73692474693081
30
0
41
1
10
101.063891239722
20
8.9251081574505
30
0
41
1
10
101.070878330224
20
9.08193771372476
30
0
41
1
10
101.076458893932
20
9.20739896022806
30
0
41
1
10
101.079246203434
20
9.27012737947086
30
0
41
1
10
101.08040830687
20
9.29629682873221
30
0
0
SPLINE
5
1DC
100
AcDbEntity
8
1
62
256
6
ByLayer
370
18
48
1
60
0
100
AcDbSpline
70
4
71
3
72
8
73
4
40
0
40
0
40
0
40
0
40
1
40
1
40
1
40
1
41
1
10
101.08040830687
20
9.29629682873221
30
0
41
1
10
101.080485438528
20
9.29803375933116
30
0
41
1
10
101.080562986141
20
9.29976497799373
30
0
41
1
10
101.080640962586
20
9.30149067287311
30
0
0
SPLINE
5
1DD
100
AcDbEntity
8
1
62
256
6
ByLayer
370
18
48
1
60
0
100
AcDbSpline
70
4
71
3
72
18
73
14
40
0
40
0
40
0
40
0
40
0.121162915242482
40
0.246484790770072
40
0.497128541825253
40
0.622450417352843
40
0.747772292880434
40
0.873094168408024
40
0.935755106171819
40
0.967085575053717
40
0.982750809494666
40
0.998416043935615
40
1
40
1
40
1
40
1
41
1
10
101.080640962586
20
9.30149067287311
30
0
41
1
10
101.082912648949
20
9.35176531078048
30
0
41
1
10
101.08827441561
20
9.44450294911812
30
0
41
1
10
101.104783702311
20
9.63124320296976
30
0
41
1
10
101.131648476776
20
9.81853424017771
30
0
41
1
10
101.171959660076
20
10.0043393502469
30
0
41
1
10
101.209732593206
20
10.1419453781113
30
0
41
1
10
101.247880407826
20
10.2537386464008
30
0
41
1
10
101.279460867476
20
10.3324427634942
30
0
41
1
10
101.29508413618
20
10.3688037571357
30
0
41
1
10
101.306342450611
20
10.3938022639091
30
0
41
1
10
101.311059066503
20
10.4040716797224
30
0
41
1
10
101.312808613017
20
10.4078630857462
30
0
41
1
10
101.312963747417
20
10.4081990838184
30
0
0
SPLINE
5
1DE
100
AcDbEntity
8
1
62
256
6
ByLayer
370
18
48
1
60
0
100
AcDbSpline
70
4
71
3
72
18
73
14
40
0
40
0
40
0
40
0
40
0.0140665155507047
40
0.0610129485327686
40
0.123608192508854
40
0.186203436484939
40
0.248798680461024
40
0.499179656365365
40
0.749560632269706
40
0.874751120221877
40
0.937346364197962
40
0.999941608174047
40
1
40
1
40
1
40
1
41
1
10
101.312963747417
20
10.4081990838184
30
0
41
1
10
101.314342883322
20
10.4111860873695
30
0
41
1
10
101.318431683423
20
10.4199742029609
30
0
41
1
10
101.325278822887
20
10.4346870759589
30
0
41
1
10
101.332728977938
20
10.4506130935382
30
0
41
1
10
101.34265644082
20
10.4718262392487
30
0
41
1
10
101.364011913481
20
10.5173814474082
30
0
41
1
10
101.393799066631
20
10.5803863225495
30
0
41
1
10
101.428381534133
20
10.6527326240824
30
0
41
1
10
101.452409355902
20
10.7025250489041
30
0
41
1
10
101.466532892107
20
10.7316595625343
30
0
41
1
10
101.473446577488
20
10.745898245712
30
0
41
1
10
101.476815000799
20
10.7527849655793
30
0
41
1
10
101.476819152609
20
10.7527934538763
30
0
0
SPLINE
5
1DF
100
AcDbEntity
8
1
62
256
6
ByLayer
370
18
48
1
60
0
100
AcDbSpline
70
4
71
3
72
24
73
20
40
0
40
0
40
0
40
0
40
0.0624500259146226
40
0.124960610188408
40
0.24998177873598
40
0.265609424804427
40
0.281237070872873
40
0.300771628458431
40
0.312492363009766
40
0.343747655146659
40
0.375002947283552
40
0.500024115831124
40
0.750066452926267
40
0.875087621473839
40
0.937598205747625
40
0.968853497884518
40
0.984481143952964
40
0.992294966987188
40
1
40
1
40
1
40
1
41
1
10
101.476819070011
20
10.7527932850072
30
0
41
1
10
101.480181569966
20
10.7596678425944
30
0
41
1
10
101.486731665881
20
10.772955869628
30
0
41
1
10
101.499827814833
20
10.7987145598021
30
0
41
1
10
101.511137495978
20
10.8200207674268
30
0
41
1
10
101.520063518905
20
10.8362211181287
30
0
41
1
10
101.522981157283
20
10.8414727380755
30
0
41
1
10
101.525692036825
20
10.8463065391755
30
0
41
1
10
101.529328012948
20
10.8527354391394
30
0
41
1
10
101.533681302633
20
10.8603435976651
30
0
41
1
10
101.544814798589
20
10.8794704253669
30
0
41
1
10
101.569699623789
20
10.9204165997823
30
0
41
1
10
101.60289942116
20
10.9694990358563
30
0
41
1
10
101.635027832581
20
11.010352790523
30
0
41
1
10
101.652876637454
20
11.0292133813528
30
0
41
1
10
101.662323929847
20
11.0381083339842
30
0
41
1
10
101.667345102171
20
11.0422303345064
30
0
41
1
10
101.670366655881
20
11.0444278223909
30
0
41
1
10
101.671871641205
20
11.0454778991955
30
0
41
1
10
101.672728682212
20
11.0459597699287
30
0
0
SPLINE
5
1E0
100
AcDbEntity
8
1
62
256
6
ByLayer
370
18
48
1
60
0
100
AcDbSpline
70
4
71
3
72
30
73
26
40
0
40
0
40
0
40
0
40
0.0001094202677129
40
0.0079685106252502
40
0.0158276009827875
40
0.0315457816978621
40
0.0629821431280113
40
0.12585486598831
40
0.251600311708907
40
0.377345757429503
40
0.408782118859653
40
0.41664120921719
40
0.424500299574727
40
0.432359389932265
40
0.440218480289802
40
0.471654841719951
40
0.5030912031501
40
0.518809383865175
40
0.628836648870697
40
0.754582094591294
40
0.817454817451592
40
0.880327540311891
40
0.943200263172189
40
0.974636624602338
40
1
40
1
40
1
40
1
41
1
10
101.672728682212
20
11.0459597699287
30
0
41
1
10
101.67274078307
20
11.045966573628
30
0
41
1
10
101.673623620217
20
11.0464614784844
30
0
41
1
10
101.675611064627
20
11.0473607251452
30
0
41
1
10
101.679434457908
20
11.049177568843
30
0
41
1
10
101.686200291424
20
11.052297078152
30
0
41
1
10
101.699757180006
20
11.0583901477543
30
0
41
1
10
101.727137474211
20
11.0699410354405
30
0
41
1
10
101.766868458334
20
11.084704543849
30
0
41
1
10
101.803234649234
20
11.0960104357529
30
0
41
1
10
101.824616961373
20
11.101932428135
30
0
41
1
10
101.830737295662
20
11.1035772256066
30
0
41
1
10
101.833799635866
20
11.1043902282231
30
0
41
1
10
101.836864101739
20
11.1051938786714
30
0
41
1
10
101.842997190044
20
11.1067825631338
30
0
41
1
10
101.852212054165
20
11.109096107832
30
0
41
1
10
101.862475343109
20
11.1115455335628
30
0
41
1
10
101.883034956318
20
11.1162661318764
30
0
41
1
10
101.916054817502
20
11.1230650648516
30
0
41
1
10
101.955286354628
20
11.1295615737678
30
0
41
1
10
101.989469447952
20
11.1340850367417
30
0
41
1
10
102.014556602921
20
11.1369417780168
30
0
41
1
10
102.03281784577
20
11.1387415286316
30
0
41
1
10
102.050268000138
20
11.1401196422592
30
0
41
1
10
102.048059267317
20
11.1400203039394
30
0
41
1
10
102.06431085612
20
11.1410990695981
30
0
0
SPLINE
5
1E1
100
AcDbEntity
8
1
62
256
6
ByLayer
370
18
48
1
60
0
100
AcDbSpline
70
4
71
3
72
25
73
21
40
0
40
0
40
0
40
0
40
0.0059772068261494
40
0.0214474905650221
40
0.0369177743038948
40
0.0678583417816403
40
0.129739476737131
40
0.253501746648113
40
0.485556002731204
40
0.501026286470076
40
0.531966853947822
40
0.562907421425567
40
0.624788556381058
40
0.74855082629204
40
0.872313096203022
40
0.934194231158512
40
0.965134798636258
40
0.980605082375131
40
0.996075366114003
40
1
40
1
40
1
40
1
41
1
10
102.06431085612
20
11.1410990695981
30
0
41
1
10
102.068202123361
20
11.1413573683724
30
0
41
1
10
102.085710930629
20
11.142515244304
30
0
41
1
10
102.143631993084
20
11.146322731762
30
0
41
1
10
102.296038605169
20
11.156252139942
30
0
41
1
10
102.501197708251
20
11.1692599141306
30
0
41
1
10
102.954796722942
20
11.197003675996
30
0
41
1
10
103.802882110343
20
11.2444003750322
30
0
41
1
10
104.564204092749
20
11.2798833747139
30
0
41
1
10
105.135347573594
20
11.3029339616447
30
0
41
1
10
105.293993455071
20
11.3091510746919
30
0
41
1
10
105.547769953163
20
11.3187036538216
30
0
41
1
10
105.991608513775
20
11.3343885936284
30
0
41
1
10
106.624200332587
20
11.3538713309353
30
0
41
1
10
107.252998593043
20
11.3695202084434
30
0
41
1
10
107.705588715603
20
11.378718009607
30
0
41
1
10
107.912489327893
20
11.3825207622015
30
0
41
1
10
108.062248298823
20
11.3850617306471
30
0
41
1
10
108.11954805255
20
11.3860077582009
30
0
41
1
10
108.139576225701
20
11.386324261265
30
0
41
1
10
108.143208686536
20
11.3863807464257
30
0
0
SPLINE
5
1E2
100
AcDbEntity
8
1
62
256
6
ByLayer
370
18
48
1
60
0
100
AcDbSpline
70
4
71
3
72
33
73
29
40
0
40
0
40
0
40
0
40
0.0273823410709115
40
0.0587425444385249
40
0.0901027478061384
40
0.121462951173752
40
0.184183357908979
40
0.246903764644205
40
0.309624171379432
40
0.372344578114659
40
0.403704781482273
40
0.435064984849886
40
0.497785391585113
40
0.529145594952726
40
0.56050579832034
40
0.591866001687953
40
0.623226205055567
40
0.685946611790794
40
0.717306815158407
40
0.74866701852602
40
0.764347120209827
40
0.811387425261247
40
0.874107831996474
40
0.936828238731701
40
0.968188442099314
40
0.983868543783121
40
0.999548645466928
40
1
40
1
40
1
40
1
41
1
10
108.143208686536
20
11.3863807464257
30
0
41
1
10
108.168213393611
20
11.3867695723376
30
0
41
1
10
108.17912866361
20
11.3868351640891
30
0
41
1
10
108.204420840536
20
11.3867749603755
30
0
41
1
10
108.235379409701
20
11.3864358800659
30
0
41
1
10
108.27775935251
20
11.3855122946765
30
0
41
1
10
108.328825215457
20
11.3833653582955
30
0
41
1
10
108.390326214164
20
11.3791076352637
30
0
41
1
10
108.451546730691
20
11.373027205344
30
0
41
1
10
108.502211932035
20
11.3658763317593
30
0
41
1
10
108.542715721129
20
11.3583770201493
30
0
41
1
10
108.582578737679
20
11.3481156793504
30
0
41
1
10
108.620183485716
20
11.3316728500118
30
0
41
1
10
108.652513524019
20
11.3067454071772
30
0
41
1
10
108.673396290378
20
11.2847917690034
30
0
41
1
10
108.691715464763
20
11.2604033140948
30
0
41
1
10
108.713082774111
20
11.2259079597453
30
0
41
1
10
108.730459927796
20
11.1889199877927
30
0
41
1
10
108.743083260818
20
11.1503719305732
30
0
41
1
10
108.749554717908
20
11.1258749866926
30
0
41
1
10
108.756461394939
20
11.0962921236317
30
0
41
1
10
108.764174423507
20
11.0565013733723
30
0
41
1
10
108.771406799815
20
11.0008436699899
30
0
41
1
10
108.774967712712
20
10.9491968320913
30
0
41
1
10
108.776009439676
20
10.9147061054451
30
0
41
1
10
108.776162109814
20
10.8921261808117
30
0
41
1
10
108.776118766778
20
10.8823588985253
30
0
41
1
10
108.776086825966
20
10.8781174844429
30
0
41
1
10
108.77608592483
20
10.8779993526094
30
0
0
SPLINE
5
1E3
100
AcDbEntity
8
1
62
256
6
ByLayer
370
18
48
1
60
0
100
AcDbSpline
70
4
71
3
72
22
73
18
40
0
40
0
40
0
40
0
40
0.0112892879508321
40
0.0621620442639554
40
0.124774667418569
40
0.249999913727796
40
0.500450406346249
40
0.750900898964702
40
0.813513522119316
40
0.829166677907969
40
0.844819833696622
40
0.860472989485276
40
0.876126145273929
40
0.938738768428542
40
0.970045080005849
40
0.985698235794502
40
1
40
1
40
1
40
1
41
1
10
108.77608592483
20
10.8779993526094
30
0
41
1
10
108.776063346778
20
10.8750395506447
30
0
41
1
10
108.775913308041
20
10.8606154575683
30
0
41
1
10
108.775671225301
20
10.8379705216619
30
0
41
1
10
108.775261540323
20
10.8044837573349
30
0
41
1
10
108.77426736477
20
10.7217731861395
30
0
41
1
10
108.772695871581
20
10.6145870053294
30
0
41
1
10
108.771111439538
20
10.5148058642627
30
0
41
1
10
108.769995165663
20
10.457019650971
30
0
41
1
10
108.769669245538
20
10.4405016671129
30
0
41
1
10
108.769505225085
20
10.4322392678391
30
0
41
1
10
108.769340480796
20
10.4239715813163
30
0
41
1
10
108.769010217659
20
10.4074218739641
30
0
41
1
10
108.768624614778
20
10.3880611075515
30
0
41
1
10
108.768309303696
20
10.3690816590654
30
0
41
1
10
108.768065301568
20
10.3578078471551
30
0
41
1
10
108.768098834691
20
10.3540473858921
30
0
41
1
10
108.767935239055
20
10.3496456964978
30
0
0
SPLINE
5
1E4
100
AcDbEntity
8
1
62
256
6
ByLayer
370
18
48
1
60
0
100
AcDbSpline
70
4
71
3
72
21
73
17
40
0
40
0
40
0
40
0
40
0.0013467736322199
40
0.0169464397395162
40
0.0325461058468124
40
0.0637454380614049
40
0.12614410249059
40
0.25094143134896
40
0.375738760207329
40
0.500536089065699
40
0.625333417924069
40
0.750130746782439
40
0.874928075640809
40
0.937326740069994
40
0.999725404499179
40
1
40
1
40
1
40
1
41
1
10
108.767935239055
20
10.3496456964978
30
0
41
1
10
108.767919780699
20
10.3492297753629
30
0
41
1
10
108.767705089919
20
10.3437034317688
30
0
41
1
10
108.766750123631
20
10.3252427579825
30
0
41
1
10
108.765528631884
20
10.2952007768399
30
0
41
1
10
108.762892305426
20
10.2395817058046
30
0
41
1
10
108.758076025077
20
10.1302995122766
30
0
41
1
10
108.750941426653
20
9.97325096437595
30
0
41
1
10
108.742462840994
20
9.78529815629244
30
0
41
1
10
108.734015091274
20
9.59709712496033
30
0
41
1
10
108.725546080984
20
9.40789419773373
30
0
41
1
10
108.71715943656
20
9.22010305501499
30
0
41
1
10
108.710325559793
20
9.06679832350787
30
0
41
1
10
108.704410035376
20
8.93361950959593
30
0
41
1
10
108.701663717432
20
8.87119418178068
30
0
41
1
10
108.700435594538
20
8.84432944806369
30
0
41
1
10
108.700430216471
20
8.84421182792127
30
0
0
SPLINE
5
1E5
100
AcDbEntity
8
1
62
256
6
ByLayer
370
18
48
1
60
0
100
AcDbSpline
70
4
71
3
72
20
73
16
40
0
40
0
40
0
40
0
40
0.0153299547324691
40
0.0309345924798104
40
0.0621438679744932
40
0.124562418963859
40
0.249399520942589
40
0.499073724900051
40
0.748747928857513
40
0.873585030836244
40
0.93600358182561
40
0.967212857320292
40
0.982817495067634
40
0.998422132814975
40
1
40
1
40
1
40
1
41
1
10
108.700430216471
20
8.84421182792127
30
0
41
1
10
108.700130068603
20
8.83764749244622
30
0
41
1
10
108.699542049116
20
8.82493244028271
30
0
41
1
10
108.698385138665
20
8.80117484404008
30
0
41
1
10
108.696288520522
20
8.76316780187923
30
0
41
1
10
108.690812551791
20
8.67832178906608
30
0
41
1
10
108.676303378606
20
8.51503361449883
30
0
41
1
10
108.642748748857
20
8.28024590741944
30
0
41
1
10
108.586598849035
20
8.04847441693266
30
0
41
1
10
108.533191911731
20
7.89196384815688
30
0
41
1
10
108.501611449365
20
7.81325972523203
30
0
41
1
10
108.485988189947
20
7.77689875157409
30
0
41
1
10
108.474729865014
20
7.75190022221236
30
0
41
1
10
108.470013249328
20
7.74163080671539
30
0
41
1
10
108.468263713174
20
7.73783942302245
30
0
41
1
10
108.468108576516
20
7.73750342005491
30
0
0
SPLINE
5
1E6
100
AcDbEntity
8
1
62
256
6
ByLayer
370
18
48
1
60
0
100
AcDbSpline
70
4
71
3
72
18
73
14
40
0
40
0
40
0
40
0
40
0.0140664741581668
40
0.0610128969242284
40
0.123608127278977
40
0.186203357633726
40
0.248798587988475
40
0.49917950940747
40
0.749560430826465
40
0.874750891535962
40
0.937346121890711
40
0.99994135224546
40
1
40
1
40
1
40
1
41
1
10
108.468108576516
20
7.73750342005491
30
0
41
1
10
108.46672945771
20
7.73451645348453
30
0
41
1
10
108.462640732849
20
7.72572849987671
30
0
41
1
10
108.455793706369
20
7.71101586922199
30
0
41
1
10
108.448343671883
20
7.69509010823981
30
0
41
1
10
108.438416368073
20
7.67387730045883
30
0
41
1
10
108.417061226933
20
7.62832279450271
30
0
41
1
10
108.387274464797
20
7.5653187352072
30
0
41
1
10
108.352692302576
20
7.49297304564988
30
0
41
1
10
108.328664404124
20
7.44318044176481
30
0
41
1
10
108.314540965085
20
7.41404610218993
30
0
41
1
10
108.307627193955
20
7.3998072322845
30
0
41
1
10
108.304258667505
20
7.39292029811097
30
0
41
1
10
108.304254484984
20
7.39291174702365
30
0
0
SPLINE
5
1E7
100
AcDbEntity
8
1
62
256
6
ByLayer
370
18
48
1
60
0
100
AcDbSpline
70
4
71
3
72
24
73
20
40
0
40
0
40
0
40
0
40
0.0624488107757123
40
0.12495814284104
40
0.249976806971694
40
0.265604139988026
40
0.281231473004358
40
0.300765639274773
40
0.312486139037021
40
0.343740805069685
40
0.374995471102349
40
0.500014135233003
40
0.750051463494312
40
0.875070127624967
40
0.937579459690294
40
0.968834125722958
40
0.98446145873929
40
0.992275125247456
40
1
40
1
40
1
40
1
41
1
10
108.30425463059
20
7.39291204471095
30
0
41
1
10
108.300892038052
20
7.38603729413688
30
0
41
1
10
108.294341649855
20
7.37274866604611
30
0
41
1
10
108.281244898926
20
7.34698874625747
30
0
41
1
10
108.269935050349
20
7.32568219315033
30
0
41
1
10
108.261008942488
20
7.30948166742448
30
0
41
1
10
108.258091279496
20
7.30422999677597
30
0
41
1
10
108.255380380149
20
7.2993961549071
30
0
41
1
10
108.251744380803
20
7.29296720716269
30
0
41
1
10
108.247391068465
20
7.28535900207783
30
0
41
1
10
108.236257530733
20
7.2662320886709
30
0
41
1
10
108.211372684379
20
7.22528587170768
30
0
41
1
10
108.178172896471
20
7.17620345468984
30
0
41
1
10
108.146044485046
20
7.13534970003397
30
0
41
1
10
108.128195680171
20
7.11648910921133
30
0
41
1
10
108.118748387776
20
7.10759415658265
30
0
41
1
10
108.11372721544
20
7.1034721560838
30
0
41
1
10
108.11070372184
20
7.10127325740191
30
0
41
1
10
108.109196797955
20
7.10022188539941
30
0
41
1
10
108.108336960449
20
7.09973896977604
30
0
0
SPLINE
5
1E8
100
AcDbEntity
8
1
62
256
6
ByLayer
370
18
48
1
60
0
100
AcDbSpline
70
4
71
3
72
30
73
26
40
0
40
0
40
0
40
0
40
8.93097324406E-05
40
0.0079485581577917
40
0.0158078065831428
40
0.031526303433845
40
0.0629632971352493
40
0.125837284538058
40
0.251585259343675
40
0.377333234149293
40
0.408770227850697
40
0.416629476276048
40
0.424488724701399
40
0.432347973126751
40
0.440207221552102
40
0.471644215253506
40
0.50308120895491
40
0.518799705805613
40
0.628829183760528
40
0.754577158566145
40
0.817451145968954
40
0.880325133371763
40
0.943199120774571
40
0.974636114475976
40
1
40
1
40
1
40
1
41
1
10
108.108336960449
20
7.09973896977601
30
0
41
1
10
108.108327077249
20
7.09973341901599
30
0
41
1
10
108.107446171901
20
7.09923986946646
30
0
41
1
10
108.105461252964
20
7.09834176548554
30
0
41
1
10
108.101637859686
20
7.09652492178526
30
0
41
1
10
108.094872026175
20
7.09340541246962
30
0
41
1
10
108.081315137603
20
7.08731234285682
30
0
41
1
10
108.053934843415
20
7.0757614551529
30
0
41
1
10
108.014203859311
20
7.06099794673059
30
0
41
1
10
107.977837668423
20
7.04969205482274
30
0
41
1
10
107.956455356291
20
7.04377006243999
30
0
41
1
10
107.950335022004
20
7.04212526496826
30
0
41
1
10
107.9472726818
20
7.04131226235171
30
0
41
1
10
107.944208215928
20
7.04050861190339
30
0
41
1
10
107.938075127625
20
7.03891992744099
30
0
41
1
10
107.928860263506
20
7.03660638274278
30
0
41
1
10
107.918596974565
20
7.03415695701216
30
0
41
1
10
107.898037361361
20
7.02943635869877
30
0
41
1
10
107.865017500186
20
7.02263742572413
30
0
41
1
10
107.82578596307
20
7.01614091680835
30
0
41
1
10
107.791602869755
20
7.01161745383499
30
0
41
1
10
107.766515714793
20
7.0087607125601
30
0
41
1
10
107.748254471948
20
7.00696096194557
30
0
41
1
10
107.730804317585
20
7.00558284831817
30
0
41
1
10
107.73301305041
20
7.00568218663815
30
0
41
1
10
107.716761461608
20
7.00460342097946
30
0
0
SPLINE
5
1E9
100
AcDbEntity
8
1
62
256
6
ByLayer
370
18
48
1
60
0
100
AcDbSpline
70
4
71
3
72
25
73
21
40
0
40
0
40
0
40
0
40
0.0059772068266584
40
0.0214474905655126
40
0.0369177743043668
40
0.0678583417820751
40
0.129739476737492
40
0.253501746648325
40
0.485556002731138
40
0.501026286469992
40
0.5319668539477
40
0.562907421425408
40
0.624788556380825
40
0.748550826291658
40
0.872313096202492
40
0.934194231157908
40
0.965134798635617
40
0.980605082374471
40
0.996075366113325
40
1
40
1
40
1
40
1
41
1
10
107.716761461608
20
7.00460342097946
30
0
41
1
10
107.712870194367
20
7.00434512220514
30
0
41
1
10
107.6953613871
20
7.00318724627348
30
0
41
1
10
107.637440324644
20
6.99937975881511
30
0
41
1
10
107.485033712558
20
6.989450350634
30
0
41
1
10
107.279874609477
20
6.97644257644407
30
0
41
1
10
106.826275594784
20
6.94869881457564
30
0
41
1
10
105.978190207382
20
6.90130211553387
30
0
41
1
10
105.216868224973
20
6.86581911584722
30
0
41
1
10
104.645724744127
20
6.84276852891273
30
0
41
1
10
104.487078862649
20
6.83655141586451
30
0
41
1
10
104.233302364556
20
6.82699883673311
30
0
41
1
10
103.789463803942
20
6.81131389692354
30
0
41
1
10
103.156871985129
20
6.79183115961268
30
0
41
1
10
102.528073724674
20
6.77618228210073
30
0
41
1
10
102.075483602114
20
6.76698448093441
30
0
41
1
10
101.868582989826
20
6.76318172833865
30
0
41
1
10
101.718824018895
20
6.76064075989217
30
0
41
1
10
101.661524265169
20
6.75969473233803
30
0
41
1
10
101.641496092019
20
6.75937822927384
30
0
41
1
10
101.637863631183
20
6.75932174411312
30
0
0
SPLINE
5
1EA
100
AcDbEntity
8
1
62
256
6
ByLayer
370
18
48
1
60
0
100
AcDbSpline
70
4
71
3
72
33
73
29
40
0
40
0
40
0
40
0
40
0.0273823484114046
40
0.0587425601866382
40
0.0901027719618717
40
0.121462983737105
40
0.184183407287572
40
0.246903830838039
40
0.309624254388506
40
0.372344677938974
40
0.403704889714207
40
0.435065101489441
40
0.497785525039908
40
0.529145736815141
40
0.560505948590375
40
0.591866160365608
40
0.623226372140842
40
0.685946795691309
40
0.717307007466542
40
0.748667219241776
40
0.764347325129393
40
0.811387642792243
40
0.87410806634271
40
0.936828489893177
40
0.968188701668411
40
0.983868807556027
40
0.999548913443644
40
1
40
1
40
1
40
1
41
1
10
101.637863631183
20
6.75932174411312
30
0
41
1
10
101.612858924113
20
6.75893291820108
30
0
41
1
10
101.60194365412
20
6.75886732644969
30
0
41
1
10
101.576651477201
20
6.75892753016325
30
0
41
1
10
101.545692908044
20
6.75926661047288
30
0
41
1
10
101.503312965245
20
6.76019019586238
30
0
41
1
10
101.452247102308
20
6.7623371322436
30
0
41
1
10
101.390746103613
20
6.76659485527586
30
0
41
1
10
101.329525587099
20
6.77267528519616
30
0
41
1
10
101.278860385764
20
6.77982615878204
30
0
41
1
10
101.238356596678
20
6.78732547039439
30
0
41
1
10
101.198493580137
20
6.79758681119628
30
0
41
1
10
101.16088883211
20
6.81402964053794
30
0
41
1
10
101.128558793813
20
6.83895708336718
30
0
41
1
10
101.107676027456
20
6.8609107215336
30
0
41
1
10
101.08935685307
20
6.8852991764345
30
0
41
1
10
101.067989543721
20
6.91979453077315
30
0
41
1
10
101.050612390032
20
6.95678250271359
30
0
41
1
10
101.037989057006
20
6.99533055992535
30
0
41
1
10
101.031517597626
20
7.01982751349743
30
0
41
1
10
101.024610929097
20
7.04941034048457
30
0
41
1
10
101.016897923222
20
7.08920099448019
30
0
41
1
10
101.009665543079
20
7.14485871410577
30
0
41
1
10
101.006104473412
20
7.19650621685554
30
0
41
1
10
101.005063092115
20
7.23099547736612
30
0
41
1
10
101.004909878779
20
7.2535777056261
30
0
41
1
10
101.004953430441
20
7.26334397477254
30
0
41
1
10
101.004985591577
20
7.26758508507078
30
0
41
1
10
101.004986498434
20
7.26770314069646
30
0
0
SPLINE
5
1EB
100
AcDbEntity
8
1
62
256
6
ByLayer
370
18
48
1
60
0
100
AcDbSpline
70
4
71
3
72
22
73
18
40
0
40
0
40
0
40
0
40
0.0112895525261297
40
0.0621622950429668
40
0.124774901217536
40
0.250000113566673
40
0.500450538264948
40
0.750900962963223
40
0.813513569137792
40
0.829166720681434
40
0.844819872225076
40
0.860473023768718
40
0.87612617531236
40
0.938738781486929
40
0.970045084574213
40
0.985698236117856
40
1
40
1
40
1
40
1
41
1
10
101.004986498434
20
7.26770314069646
30
0
41
1
10
101.005009233863
20
7.27066286141698
30
0
41
1
10
101.005160429968
20
7.28508670099748
30
0
41
1
10
101.005402640437
20
7.3077318694821
30
0
41
1
10
101.005809686849
20
7.34121879191824
30
0
41
1
10
101.006805623935
20
7.42392924874571
30
0
41
1
10
101.008365697862
20
7.531115271293
30
0
41
1
10
101.009988218423
20
7.63089711942186
30
0
41
1
10
101.011052075891
20
7.68868234214355
30
0
41
1
10
101.011368070443
20
7.70520013495218
30
0
41
1
10
101.011528657298
20
7.71346246670475
30
0
41
1
10
101.011692016255
20
7.72173012331916
30
0
41
1
10
101.012024643425
20
7.73827986529867
30
0
41
1
10
101.012431008502
20
7.7576410036265
30
0
41
1
10
101.012762679533
20
7.7766207905795
30
0
41
1
10
101.01300737239
20
7.78789464304396
30
0
41
1
10
101.012973570167
20
7.79165510282428
30
0
41
1
10
101.013137097391
20
7.79605679440959
30
0
0
SPLINE
5
1EC
100
AcDbEntity
8
1
62
256
6
ByLayer
370
18
48
1
60
0
100
AcDbSpline
70
4
71
3
72
21
73
17
40
0
40
0
40
0
40
0
40
0.0039822658528485
40
0.0174419649629451
40
0.0309016640730418
40
0.0847404605134284
40
0.138579256953815
40
0.246256849834588
40
0.353934442715361
40
0.461612035596134
40
0.569289628476907
40
0.676967221357681
40
0.784644814238454
40
0.892322407119227
40
0.946161203559613
40
1
40
1
40
1
40
1
41
1
10
109.994781401294
20
11.6593146191545
30
0
41
1
10
109.994747568833
20
11.6608605214483
30
0
41
1
10
109.994584795126
20
11.6677168624422
30
0
41
1
10
109.994150479916
20
11.680683711417
30
0
41
1
10
109.992334112957
20
11.7150432153814
30
0
41
1
10
109.986929567401
20
11.7651765188722
30
0
41
1
10
109.97000534434
20
11.8534559331711
30
0
41
1
10
109.935889159073
20
11.9587542453825
30
0
41
1
10
109.874631319499
20
12.0775272932954
30
0
41
1
10
109.795235367172
20
12.1838399159772
30
0
41
1
10
109.699072173396
20
12.2760830411665
30
0
41
1
10
109.588846344678
20
12.3512093015206
30
0
41
1
10
109.467171549789
20
12.4072313449829
30
0
41
1
10
109.358718244251
20
12.4364098419576
30
0
41
1
10
109.269916247304
20
12.448687604841
30
0
41
1
10
109.224747847267
20
12.45104155656
30
0
41
1
10
109.202918998571
20
12.4512394374072
30
0
0
SPLINE
5
1ED
100
AcDbEntity
8
1
62
256
6
ByLayer
370
18
48
1
60
0
100
AcDbSpline
70
4
71
3
72
8
73
4
40
0
40
0
40
0
40
0
40
1
40
1
40
1
40
1
41
1
10
109.202918998571
20
12.4512394374072
30
0
41
1
10
109.202595118731
20
12.4512423734126
30
0
41
1
10
109.202272092049
20
12.4512453009626
30
0
41
1
10
109.201949893205
20
12.4512482202877
30
0
0
SPLINE
5
1EE
100
AcDbEntity
8
1
62
256
6
ByLayer
370
18
48
1
60
0
100
AcDbSpline
70
4
71
3
72
11
73
7
40
0
40
0
40
0
40
0
40
0.0589687449403959
40
0.48437362715815
40
0.970550635407011
40
1
40
1
40
1
40
1
41
1
10
109.201949893205
20
12.4512482202877
30
0
41
1
10
109.191414315614
20
12.4513436792771
30
0
41
1
10
109.11214494895
20
12.4520555501545
30
0
41
1
10
108.953296028606
20
12.4533829271653
30
0
41
1
10
108.799262241994
20
12.4544759564299
30
0
41
1
10
108.714860271244
20
12.4550100379456
30
0
41
1
10
108.710039753084
20
12.4550403301613
30
0
0
SPLINE
5
1EF
100
AcDbEntity
8
1
62
256
6
ByLayer
370
18
48
1
60
0
100
AcDbSpline
70
4
71
3
72
17
73
13
40
0
40
0
40
0
40
0
40
0.0600950229142424
40
0.184038916465191
40
0.43192670356709
40
0.679814490668988
40
0.927702277770886
40
0.98967422454636
40
0.993547471219827
40
0.997420717893294
40
0.999357341230028
40
1
40
1
40
1
40
1
41
1
10
108.710039753084
20
12.4550403301613
30
0
41
1
10
108.555697238019
20
12.4560102210741
30
0
41
1
10
108.083017176691
20
12.4583174507463
30
0
41
1
10
106.973474063612
20
12.4591718119622
30
0
41
1
10
105.381087104086
20
12.4471615133745
30
0
41
1
10
103.46971468741
20
12.4118618415893
30
0
41
1
10
102.03322452542
20
12.3698290880335
30
0
41
1
10
101.230941525311
20
12.3410032227892
30
0
41
1
10
101.049911718488
20
12.33425582997
30
0
41
1
10
101.025176356431
20
12.3333277771917
30
0
41
1
10
101.009123376572
20
12.3327212226177
30
0
41
1
10
101.00185084977
20
12.332443998173
30
0
41
1
10
101.000000033229
20
12.3323697529131
30
0
0
SPLINE
5
1F0
100
AcDbEntity
8
1
62
256
6
ByLayer
370
18
48
1
60
0
100
AcDbSpline
70
4
71
3
72
20
73
16
40
0
40
0
40
0
40
0
40
0.0166268555036545
40
0.0415115835804558
40
0.066396311657257
40
0.165935223964462
40
0.265474136271667
40
0.31524359242527
40
0.464551960886077
40
0.663629785500487
40
0.862707610114897
40
0.9124770662685
40
0.962246522422102
40
0.987131250498904
40
1
40
1
40
1
40
1
41
1
10
101.000000033229
20
12.3323697529131
30
0
41
1
10
100.996273497256
20
12.3322202634173
30
0
41
1
10
100.986577097465
20
12.3317946960777
30
0
41
1
10
100.97066755806
20
12.3306597773042
30
0
41
1
10
100.934505039635
20
12.3269708825579
30
0
41
1
10
100.881415180928
20
12.3175044027547
30
0
41
1
10
100.823874166773
20
12.299946404924
30
0
41
1
10
100.75624243604
20
12.2726364657902
30
0
41
1
10
100.670903353885
20
12.2258186059242
30
0
41
1
10
100.568339201649
20
12.1385328452195
30
0
41
1
10
100.502981983227
20
12.0485183365848
30
0
41
1
10
100.469480238427
20
11.984380325089
30
0
41
1
10
100.457081745903
20
11.9566866726438
30
0
41
1
10
100.449121515744
20
11.936546272579
30
0
41
1
10
100.446169086909
20
11.9285287248839
30
0
41
1
10
100.445198015954
20
11.9258588836127
30
0
0
SPLINE
5
1F1
100
AcDbEntity
8
1
62
256
6
ByLayer
370
18
48
1
60
0
100
AcDbSpline
70
4
71
3
72
13
73
9
40
0
40
0
40
0
40
0
40
0.0057624935460875
40
0.029630393115862
40
0.220573589674058
40
0.602459982790449
40
0.984346375906841
40
1
40
1
40
1
40
1
41
1
10
100.445198015954
20
11.9258588836127
30
0
41
1
10
100.444291294769
20
11.9233659641949
30
0
41
1
10
100.439787248168
20
11.9108301390861
30
0
41
1
10
100.409013112203
20
11.8259548626332
30
0
41
1
10
100.322959247799
20
11.5877522551414
30
0
41
1
10
100.187160905623
20
11.2124170050691
30
0
41
1
10
100.076687813943
20
10.9070942217616
30
0
41
1
10
100.019352620368
20
10.7484146180251
30
0
41
1
10
100.017098083944
20
10.7421586821711
30
0
0
SPLINE
5
1F2
100
AcDbEntity
8
1
62
256
6
ByLayer
370
18
48
1
60
0
100
AcDbSpline
70
4
71
3
72
17
73
13
40
0
40
0
40
0
40
0
40
0.0295588681041378
40
0.0735401813589711
40
0.161502807868638
40
0.337428060887971
40
0.513353313907305
40
0.689278566926639
40
0.865203819945972
40
0.953166446455639
40
0.997147759710472
40
1
40
1
40
1
40
1
41
1
10
100.017098083943
20
10.7421586821711
30
0
41
1
10
100.012477401105
20
10.7293371126768
30
0
41
1
10
100.001013967525
20
10.6973572297632
30
0
41
1
10
99.9765594189165
20
10.6263149403252
30
0
41
1
10
99.9325456689732
20
10.4901481255834
30
0
41
1
10
99.8773938327036
20
10.2936025265194
30
0
41
1
10
99.8236811847721
20
10.055265038679
30
0
41
1
10
99.7825092414957
20
9.81455163149386
30
0
41
1
10
99.7589037229601
20
9.61328046104691
30
0
41
1
10
99.7478169771327
20
9.47172860225325
30
0
41
1
10
99.7443664984136
20
9.41002109108362
30
0
41
1
10
99.7432458054172
20
9.38868767697477
30
0
41
1
10
99.7431778220345
20
9.38738882974016
30
0
0
SPLINE
5
1F3
100
AcDbEntity
8
1
62
256
6
ByLayer
370
18
48
1
60
0
100
AcDbSpline
70
4
71
3
72
32
73
28
40
0
40
0
40
0
40
0
40
0.0201709153615368
40
0.03095578459383
40
0.106449869219882
40
0.192728823078228
40
0.365286730794919
40
0.451565684653264
40
0.494705161582437
40
0.53784463851161
40
0.543237073127756
40
0.548629507743903
40
0.55402194236005
40
0.556718159668123
40
0.559414376976196
40
0.564806811592343
40
0.570199246208489
40
0.580984115440783
40
0.624123592369955
40
0.710402546228301
40
0.796681500086646
40
0.882960453944992
40
0.969239407803337
40
0.98002427703563
40
0.990809146267924
40
0.99620158088407
40
1
40
1
40
1
40
1
41
1
10
99.7431778220346
20
9.38738882974016
30
0
41
1
10
99.7421975071869
20
9.36865955826897
30
0
41
1
10
99.7407787757551
20
9.34004154364007
30
0
41
1
10
99.7358385877427
20
9.24226047161488
30
0
41
1
10
99.7278078619395
20
9.08373938218602
30
0
41
1
10
99.712181734768
20
8.77657497514861
30
0
41
1
10
99.6959705221504
20
8.45950300334027
30
0
41
1
10
99.6817734843093
20
8.18206425013983
30
0
41
1
10
99.6737093113766
20
8.02352563546103
30
0
41
1
10
99.6693320117836
20
7.93930541758803
30
0
41
1
10
99.6668109027885
20
7.88976169414926
30
0
41
1
10
99.6660737240877
20
7.87489818284033
30
0
41
1
10
99.6654160124832
20
7.86251434948787
30
0
41
1
10
99.6649183901473
20
7.85260438695948
30
0
41
1
10
99.6646178263011
20
7.84269273368514
30
0
41
1
10
99.6644653131701
20
7.83030238268574
30
0
41
1
10
99.6642094813887
20
7.81047783821771
30
0
41
1
10
99.6633492985
20
7.75595974902788
30
0
41
1
10
99.6614609492189
20
7.62709996009144
30
0
41
1
10
99.6597836037539
20
7.4289040310762
30
0
41
1
10
99.6592996622149
20
7.19112532046347
30
0
41
1
10
99.6603943930119
20
6.95340536225402
30
0
41
1
10
99.6623233280806
20
6.78506367144811
30
0
41
1
10
99.6638374510992
20
6.68605337501899
30
0
41
1
10
99.6642581093094
20
6.66123717233839
30
0
41
1
10
99.6645074784869
20
6.64307849688137
30
0
41
1
10
99.6646566972922
20
6.63444057578852
30
0
41
1
10
99.6647372253647
20
6.63076010397828
30
0
0
SPLINE
5
1F4
100
AcDbEntity
8
1
62
256
6
ByLayer
370
18
48
1
60
0
100
AcDbSpline
70
4
71
3
72
15
73
11
40
0
40
0
40
0
40
0
40
0.0104777730650912
40
0.0459232917370635
40
0.0813688104090358
40
0.223150885096925
40
0.364932959784814
40
0.648497109160593
40
0.932061258536371
40
1
40
1
40
1
40
1
41
1
10
99.6647372253647
20
6.63076010397828
30
0
41
1
10
99.6647710191594
20
6.6292155853418
30
0
41
1
10
99.6649336911426
20
6.62236073068974
30
0
41
1
10
99.6653675848133
20
6.60939572518404
30
0
41
1
10
99.6671821244668
20
6.57503800356969
30
0
41
1
10
99.6725811914531
20
6.52491094887003
30
0
41
1
10
99.6894940580336
20
6.43664437286947
30
0
41
1
10
99.7236024209072
20
6.33135450388323
30
0
41
1
10
99.7693406456835
20
6.24267733614494
30
0
41
1
10
99.7993051001935
20
6.19678209871668
30
0
41
1
10
99.8052671485676
20
6.18803420153864
30
0
0
SPLINE
5
1F5
100
AcDbEntity
8
1
62
256
6
ByLayer
370
18
48
1
60
0
100
AcDbSpline
70
4
71
3
72
13
73
9
40
0
40
0
40
0
40
0
40
0.0057614727139751
40
0.0296295181346232
40
0.220573881499808
40
0.602462608230177
40
0.984351334960547
40
1
40
1
40
1
40
1
41
1
10
109.214322325648
20
6.36421378888085
30
0
41
1
10
109.215228886863
20
6.36670627209961
30
0
41
1
10
109.219732808132
20
6.37924189452986
30
0
41
1
10
109.2505049918
20
6.46411802062016
30
0
41
1
10
109.336556997133
20
6.70232396792801
30
0
41
1
10
109.472353823172
20
7.07766102676987
30
0
41
1
10
109.582828045759
20
7.38298026005143
30
0
41
1
10
109.640164334888
20
7.54165791673285
30
0
41
1
10
109.642418217079
20
7.54791183294617
30
0
0
SPLINE
5
1F6
100
AcDbEntity
8
1
62
256
6
ByLayer
370
18
48
1
60
0
100
AcDbSpline
70
4
71
3
72
17
73
13
40
0
40
0
40
0
40
0
40
0.0295634678907673
40
0.0735446958500497
40
0.161507151768615
40
0.337432063605745
40
0.513356975442874
40
0.689281887280004
40
0.865206799117134
40
0.953169255035699
40
0.997150482994981
40
1
40
1
40
1
40
1
41
1
10
109.642418217079
20
7.54791183294617
30
0
41
1
10
109.647039779199
20
7.56073542345439
30
0
41
1
10
109.658504319863
20
7.59271734837824
30
0
41
1
10
109.682960106921
20
7.66376181667002
30
0
41
1
10
109.726974394452
20
7.79992918252114
30
0
41
1
10
109.78212582433
20
7.99647575613284
30
0
41
1
10
109.835837972566
20
8.23481362352209
30
0
41
1
10
109.877009882006
20
8.47552688140405
30
0
41
1
10
109.900615245205
20
8.67679802307183
30
0
41
1
10
109.911701865802
20
8.81834994477904
30
0
41
1
10
109.915152241468
20
8.88005614291941
30
0
41
1
10
109.916272860408
20
8.90138831267981
30
0
41
1
10
109.91634077869
20
8.90268592233784
30
0
0
SPLINE
5
1F7
100
AcDbEntity
8
1
62
256
6
ByLayer
370
18
48
1
60
0
100
AcDbSpline
70
4
71
3
72
32
73
28
40
0
40
0
40
0
40
0
40
0.0201722500279436
40
0.030957120221128
40
0.106451211573419
40
0.192730173118894
40
0.365288096209843
40
0.451567057755318
40
0.494706538528056
40
0.537846019300793
40
0.543238454397386
40
0.548630889493978
40
0.55402332459057
40
0.556719542138866
40
0.559415759687162
40
0.564808194783754
40
0.570200629880346
40
0.580985500073531
40
0.624124980846268
40
0.710403942391743
40
0.796682903937218
40
0.882961865482693
40
0.969240827028168
40
0.980025697221353
40
0.990810567414537
40
0.996203002511129
40
1
40
1
40
1
40
1
41
1
10
109.91634077869
20
8.90268592233784
30
0
41
1
10
109.91732115367
20
8.9214164318559
30
0
41
1
10
109.918739924241
20
8.95003568517859
30
0
41
1
10
109.923680053539
20
9.04781812837851
30
0
41
1
10
109.931710343282
20
9.20633974036119
30
0
41
1
10
109.947335198901
20
9.51350566271086
30
0
41
1
10
109.963545238746
20
9.83057902749695
30
0
41
1
10
109.977742849314
20
10.1080170848021
30
0
41
1
10
109.985810130877
20
10.2665520346634
30
0
41
1
10
109.990185148471
20
10.3507750245669
30
0
41
1
10
109.992707838592
20
10.4003167598664
30
0
41
1
10
109.993445805513
20
10.4151793282202
30
0
41
1
10
109.994101039829
20
10.4275662528912
30
0
41
1
10
109.9946008048
20
10.4374735150324
30
0
41
1
10
109.994902497331
20
10.447383683747
30
0
41
1
10
109.995053481841
20
10.4597758471289
30
0
41
1
10
109.995307187595
20
10.4796029728133
30
0
41
1
10
109.996166088345
20
10.5341225397401
30
0
41
1
10
109.998060268622
20
10.662975427342
30
0
41
1
10
109.999734637012
20
10.8611748458924
30
0
41
1
10
110.000218058847
20
11.0989541408664
30
0
41
1
10
109.999124040854
20
11.3366732279011
30
0
41
1
10
109.997195194351
20
11.5050147917979
30
0
41
1
10
109.995681080144
20
11.6040250649504
30
0
41
1
10
109.995260391952
20
11.6288411997541
30
0
41
1
10
109.995011124063
20
11.6469987595912
30
0
41
1
10
109.994861919497
20
11.6556355112414
30
0
41
1
10
109.994781401294
20
11.6593146191545
30
0
0
SPLINE
5
1F8
100
AcDbEntity
8
1
62
256
6
ByLayer
370
18
48
1
60
0
100
AcDbSpline
70
4
71
3
72
63
73
59
40
0
40
0
40
0
40
0
40
0.009073751660609
40
0.018147503321218
40
0.0362950066424359
40
0.0544425099636539
40
0.0725900132848719
40
0.0907375166060899
40
0.108885019927308
40
0.127032523248526
40
0.145180026569744
40
0.154253778230353
40
0.163327529890962
40
0.165595967806114
40
0.167864405721266
40
0.170132843636419
40
0.172401281551571
40
0.176938157381875
40
0.18147503321218
40
0.217770039854616
40
0.254065046497052
40
0.290360053139488
40
0.326655059781924
40
0.344802563103142
40
0.349339438933446
40
0.351607876848598
40
0.35387631476375
40
0.355010533721327
40
0.356144752678903
40
0.358413190594055
40
0.360681628509207
40
0.36295006642436
40
0.381097569745578
40
0.399245073066795
40
0.435540079709231
40
0.508130092994103
40
0.544425099636539
40
0.576183230448671
40
0.580720106278975
40
0.589793857939584
40
0.598867609600193
40
0.617015112921411
40
0.653310119563847
40
0.689605126206283
40
0.725900132848719
40
0.762195139491155
40
0.780342642812373
40
0.789416394472982
40
0.798490146133591
40
0.871080159418463
40
0.943670172703335
40
0.979965179345771
40
0.984502055176075
40
0.986770493091227
40
0.98903893100638
40
0.993575806836684
40
0.998112682666989
40
1
40
1
40
1
40
1
41
1
10
109.191953552289
20
12.2555642946617
30
0
41
1
10
109.210090155779
20
12.2553998732969
30
0
41
1
10
109.244557946994
20
12.2535756462567
30
0
41
1
10
109.312719443174
20
12.2440513126344
30
0
41
1
10
109.395582889474
20
12.2214453075981
30
0
41
1
10
109.488439107701
20
12.1782105563648
30
0
41
1
10
109.572543439263
20
12.1204360076719
30
0
41
1
10
109.645723914831
20
12.0496894092499
30
0
41
1
10
109.70639219902
20
11.9679716896073
30
0
41
1
10
109.752959956445
20
11.8772837772526
30
0
41
1
10
109.779094935138
20
11.7963597215502
30
0
41
1
10
109.791921227716
20
11.7287000344155
30
0
41
1
10
109.795999646602
20
11.6904582770374
30
0
41
1
10
109.797341874175
20
11.6656120430206
30
0
41
1
10
109.797789892599
20
11.6525857742797
30
0
41
1
10
109.798067063968
20
11.6382235478931
30
0
41
1
10
109.798342074337
20
11.6182592648055
30
0
41
1
10
109.798758386978
20
11.5935888754144
30
0
41
1
10
109.800589840596
20
11.4955827157802
30
0
41
1
10
109.803286191498
20
11.3276792824153
30
0
41
1
10
109.805247650558
20
11.0911985121672
30
0
41
1
10
109.804272475636
20
10.8545251458969
30
0
41
1
10
109.800730992068
20
10.6572937006638
30
0
41
1
10
109.797248185832
20
10.529093373693
30
0
41
1
10
109.795579703782
20
10.4748549599567
30
0
41
1
10
109.79495207101
20
10.4551319252578
30
0
41
1
10
109.794551162037
20
10.4428050398667
30
0
41
1
10
109.794225296676
20
10.4329435388982
30
0
41
1
10
109.79389602083
20
10.4230820430149
30
0
41
1
10
109.793478059433
20
10.41075518305
30
0
41
1
10
109.792966409039
20
10.3959629680489
30
0
41
1
10
109.79122755141
20
10.3466556450141
30
0
41
1
10
109.788018608123
20
10.262833686084
30
0
41
1
10
109.781265687737
20
10.1050493779489
30
0
41
1
10
109.767928579116
20
9.82891309704598
30
0
41
1
10
109.750817433402
20
9.51325611393685
30
0
41
1
10
109.734934910423
20
9.20742154215694
30
0
41
1
10
109.726877286235
20
9.04940295030471
30
0
41
1
10
109.721955289086
20
8.95105248518954
30
0
41
1
10
109.719517474656
20
8.90196686160789
30
0
41
1
10
109.715174888178
20
8.82425843715541
30
0
41
1
10
109.704578296794
20
8.68907104938566
30
0
41
1
10
109.681938796604
20
8.49598481158102
30
0
41
1
10
109.642539878699
20
8.26567473706254
30
0
41
1
10
109.591071620517
20
8.03732353462297
30
0
41
1
10
109.538258769634
20
7.84913447701567
30
0
41
1
10
109.496126767936
20
7.71880663575081
30
0
41
1
10
109.470635315032
20
7.64475869094312
30
0
41
1
10
109.403494196788
20
7.45893037572429
30
0
41
1
10
109.287117374527
20
7.13736664959302
30
0
41
1
10
109.150330370109
20
6.75897976155201
30
0
41
1
10
109.06671020969
20
6.5279990340095
30
0
41
1
10
109.03330759248
20
6.43549029276656
30
0
41
1
10
109.027277892907
20
6.41893292148617
30
0
41
1
10
109.021382379442
20
6.40382416923376
30
0
41
1
10
109.013142085641
20
6.38547737308625
30
0
41
1
10
109.004130126423
20
6.36817674895363
30
0
41
1
10
108.998422089057
20
6.3582615533758
30
0
41
1
10
108.99670901394
20
6.35536889153749
30
0
0
SPLINE
5
1F9
100
AcDbEntity
8
1
62
256
6
ByLayer
370
18
48
1
60
0
100
AcDbSpline
70
4
71
3
72
78
73
74
40
0
40
0
40
0
40
0
40
0.0074882238675817
40
0.0155574252995526
40
0.0236266267315235
40
0.0316958281634944
40
0.0357304288794798
40
0.0397650295954653
40
0.0407736797744616
40
0.041782329953458
40
0.0427909801324543
40
0.0437996303114507
40
0.0458169306694434
40
0.0478342310274361
40
0.0639726338913779
40
0.0801110367553197
40
0.0962494396192614
40
0.112387842483203
40
0.120457043915174
40
0.122474344273167
40
0.123482994452163
40
0.124491644631159
40
0.124995969720658
40
0.125500294810156
40
0.126508944989152
40
0.127517595168149
40
0.128526245347145
40
0.136595446779116
40
0.144664648211087
40
0.160803051075029
40
0.193079856802912
40
0.209218259666854
40
0.223339362172803
40
0.225356662530796
40
0.229391263246781
40
0.233425863962766
40
0.241495065394737
40
0.257633468258679
40
0.273771871122621
40
0.289910273986562
40
0.306048676850504
40
0.314117878282475
40
0.318152478998461
40
0.322187079714446
40
0.35446388544233
40
0.386740691170213
40
0.402879094034155
40
0.404896394392148
40
0.405905044571144
40
0.40691369475014
40
0.408930995108133
40
0.410948295466126
40
0.419017496898097
40
0.427086698330068
40
0.433138599404046
40
0.435155899762038
40
0.439190500478024
40
0.443225101194009
40
0.444233751373006
40
0.445242401552002
40
0.446251051730998
40
0.447259701909995
40
0.449277002267987
40
0.45129430262598
40
0.483571108353864
40
0.612678331265398
40
0.741785554176932
40
0.870892777088466
40
0.935446388544233
40
0.967723194272117
40
0.983861597136058
40
0.997982699642007
40
1
40
1
40
1
40
1
41
1
10
100.083188695372
20
6.17642043920779
30
0
41
1
10
100.059083173324
20
6.19659281863184
30
0
41
1
10
100.012315603175
20
6.24233463544087
30
0
41
1
10
99.953100199113
20
6.32212489470939
30
0
41
1
10
99.9065307256238
20
6.41282561066555
30
0
41
1
10
99.8804021466926
20
6.4937426547468
30
0
41
1
10
99.8675887136372
20
6.56138765842519
30
0
41
1
10
99.8635162882149
20
6.59962254678112
30
0
41
1
10
99.8621761293964
20
6.62446633832229
30
0
41
1
10
99.8617286980597
20
6.63749199719601
30
0
41
1
10
99.8614516045751
20
6.65185440908186
30
0
41
1
10
99.8611764109751
20
6.67181930118167
30
0
41
1
10
99.8607600657679
20
6.69648981972097
30
0
41
1
10
99.8589289658053
20
6.7944949635596
30
0
41
1
10
99.8562326039758
20
6.96239901489707
30
0
41
1
10
99.8542714429877
20
7.19887930327192
30
0
41
1
10
99.8552464458714
20
7.43555293243426
30
0
41
1
10
99.8587874532387
20
7.63278499165153
30
0
41
1
10
99.862269877254
20
7.76098580141786
30
0
41
1
10
99.8639381926755
20
7.81522442457899
30
0
41
1
10
99.8645657645334
20
7.83494753573422
30
0
41
1
10
99.8649666353466
20
7.84727446898188
30
0
41
1
10
99.8652924701535
20
7.85713600824567
30
0
41
1
10
99.8656217154364
20
7.86699754242008
30
0
41
1
10
99.8660396386292
20
7.87932445022059
30
0
41
1
10
99.8665512432338
20
7.89411672251387
30
0
41
1
10
99.8682899485931
20
7.94342423593579
30
0
41
1
10
99.8714986371579
20
8.02724651236835
30
0
41
1
10
99.878251132565
20
8.18503134908343
30
0
41
1
10
99.8915877472366
20
8.46116824644869
30
0
41
1
10
99.9086993871278
20
8.77682464715596
30
0
41
1
10
99.9245831992064
20
9.08265767743836
30
0
41
1
10
99.9326413302504
20
9.2406756738296
30
0
41
1
10
99.9375634708761
20
9.33902595323843
30
0
41
1
10
99.9400013213217
20
9.38811152213486
30
0
41
1
10
99.9443439409565
20
9.46581989186089
30
0
41
1
10
99.9549406501264
20
9.60100732393653
30
0
41
1
10
99.9775802086926
20
9.79409363508273
30
0
41
1
10
100.01697935097
20
10.0244036188188
30
0
41
1
10
100.068447896956
20
10.2527543538837
30
0
41
1
10
100.121260964797
20
10.440942543352
30
0
41
1
10
100.163392569388
20
10.5712699225813
30
0
41
1
10
100.188883499527
20
10.645317649992
30
0
41
1
10
100.256022548229
20
10.8311462932526
30
0
41
1
10
100.372397119695
20
11.1527108867894
30
0
41
1
10
100.509185741591
20
11.5310957367809
30
0
41
1
10
100.592808385128
20
11.7620741764516
30
0
41
1
10
100.626212246388
20
11.8545810871358
30
0
41
1
10
100.632242161573
20
11.8711385197025
30
0
41
1
10
100.638137739392
20
11.8862473699564
30
0
41
1
10
100.646377909214
20
11.9045942498533
30
0
41
1
10
100.668758187214
20
11.94756000023
30
0
41
1
10
100.711893759415
20
12.0069690619664
30
0
41
1
10
100.780227776949
20
12.0654666817395
30
0
41
1
10
100.837284735427
20
12.096827259808
30
0
41
1
10
100.882269253435
20
12.11505457671
30
0
41
1
10
100.920925753642
20
12.1268315720458
30
0
41
1
10
100.956851917704
20
12.1332216393125
30
0
41
1
10
100.980273578969
20
12.1356463592957
30
0
41
1
10
100.992257557193
20
12.1365089063215
30
0
41
1
10
101.005776713833
20
12.1370732904043
30
0
41
1
10
101.025351948023
20
12.1377482129264
30
0
41
1
10
101.050320919963
20
12.1387046840218
30
0
41
1
10
101.229339747322
20
12.1453858947369
30
0
41
1
10
102.034924728944
20
12.1743156434565
30
0
41
1
10
103.467054566504
20
12.2162126558366
30
0
41
1
10
105.37628604102
20
12.2514736714537
30
0
41
1
10
106.966891004044
20
12.2634708381011
30
0
41
1
10
108.079991577497
20
12.2626138111661
30
0
41
1
10
108.636440113111
20
12.2598743613003
30
0
41
1
10
108.944455297822
20
12.2576886720048
30
0
41
1
10
109.103413460477
20
12.2563603789974
30
0
41
1
10
109.182885250544
20
12.2556465053441
30
0
41
1
10
109.191953552289
20
12.2555642946617
30
0
0
SPLINE
5
1FA
100
AcDbEntity
8
SK1
62
256
6
ByLayer
370
18
48
1
60
0
100
AcDbSpline
70
4
71
3
72
49
73
45
40
0
40
0
40
0
40
0
40
0.0158520726847385
40
0.0443313515938181
40
0.0728106305028976
40
0.101289909411977
40
0.129769188321056
40
0.158248467230136
40
0.215207025048295
40
0.243686303957374
40
0.272165582866454
40
0.300644861775533
40
0.329124140684613
40
0.357603419593692
40
0.386082698502772
40
0.414561977411851
40
0.428801616866391
40
0.443041256320931
40
0.45728089577547
40
0.47152053523001
40
0.48576017468455
40
0.49287999441182
40
0.49999981413909
40
0.50711963386636
40
0.514239453593629
40
0.528479093048169
40
0.542718732502709
40
0.556958371957249
40
0.571198011411789
40
0.585437650866328
40
0.613916929775408
40
0.642396208684487
40
0.670875487593567
40
0.699354766502646
40
0.727834045411726
40
0.756313324320805
40
0.784792603229885
40
0.841751161048043
40
0.870230439957123
40
0.898709718866202
40
0.927188997775282
40
0.955668276684361
40
0.984147555593441
40
1
40
1
40
1
40
1
41
1
10
-38.0000000000001
20
-20.2900103502024
30
0
41
1
10
-38.0000000000001
20
-20.2838088133266
30
0
41
1
10
-38.0000000000001
20
-20.2386783257759
30
0
41
1
10
-38.0000000000001
20
-20.0459066437043
30
0
41
1
10
-38.0000000000001
20
-19.657936234772
30
0
41
1
10
-38.0000000000001
20
-19.1216505379955
30
0
41
1
10
-38.0000000000001
20
-18.4471799717541
30
0
41
1
10
-38.0000000000001
20
-17.370846656705
30
0
41
1
10
-38.0000000000001
20
-16.0627718728322
30
0
41
1
10
-38.0000000000001
20
-14.5156181768616
30
0
41
1
10
-38.0000000000001
20
-13.25179074635
30
0
41
1
10
-38
20
-11.8841222937697
30
0
41
1
10
-38
20
-10.4165562193454
30
0
41
1
10
-38
20
-8.85372672313883
30
0
41
1
10
-38
20
-7.20134092284695
30
0
41
1
10
-38
20
-5.76201911469497
30
0
41
1
10
-38
20
-4.56407656073506
30
0
41
1
10
-38
20
-3.65884583736073
30
0
41
1
10
-38
20
-2.74483905839449
30
0
41
1
10
-38
20
-1.82748828650273
30
0
41
1
10
-38
20
-1.06947767603953
30
0
41
1
10
-38
20
-0.455018198724332
30
0
41
1
10
-38
20
4.514862724E-07
30
0
41
1
10
-38
20
0.455018630552217
30
0
41
1
10
-38
20
1.06947718042721
30
0
41
1
10
-38
20
1.82748862261306
30
0
41
1
10
-38
20
2.74483966025946
30
0
41
1
10
-38
20
3.65884523285232
30
0
41
1
10
-38
20
4.56407688146027
30
0
41
1
10
-38
20
5.76201962732233
30
0
41
1
10
-38
20
7.20134053529017
30
0
41
1
10
-38
20
8.85372716578053
30
0
41
1
10
-38
20
10.4165563625369
30
0
41
1
10
-38
20
11.8841219271531
30
0
41
1
10
-37.9999999999999
20
13.251791105613
30
0
41
1
10
-37.9999999999999
20
14.5156182315175
30
0
41
1
10
-37.9999999999999
20
16.0627714181565
30
0
41
1
10
-37.9999999999999
20
17.3708469037195
30
0
41
1
10
-37.9999999999999
20
18.4471796582743
30
0
41
1
10
-37.9999999999999
20
19.1216498805761
30
0
41
1
10
-37.9999999999999
20
19.6579364097436
30
0
41
1
10
-37.9999999999999
20
20.0459061788579
30
0
41
1
10
-37.9999999999999
20
20.238678654988
30
0
41
1
10
-37.9999999999999
20
20.2838093462055
30
0
41
1
10
-37.9999999999999
20
20.2900106499485
30
0
0
SPLINE
5
1FB
100
AcDbEntity
8
SK1
62
256
6
ByLayer
370
18
48
1
60
0
100
AcDbSpline
70
4
71
3
72
36
73
32
40
0
40
0
40
0
40
0
40
0.249999999999995
40
0.249999999999995
40
0.374999999999995
40
0.374999999999995
40
0.499999999999994
40
0.499999999999994
40
0.624999999999994
40
0.624999999999994
40
0.687499999999995
40
0.687499999999995
40
0.749999999999996
40
0.749999999999996
40
0.812499999999997
40
0.812499999999997
40
0.843749999999998
40
0.843749999999998
40
0.874999999999998
40
0.874999999999998
40
0.906249999999999
40
0.906249999999999
40
0.921874999999999
40
0.921874999999999
40
0.937499999999999
40
0.937499999999999
40
0.953124999999999
40
0.953124999999999
40
0.968749999999999
40
0.968749999999999
40
1
40
1
40
1
40
1
41
1
10
-0.200000000000017
20
-7.03415845154797
30
0
41
1
10
-0.200331074104781
20
-6.96758473110461
30
0
41
1
10
-0.201942367211245
20
-6.90082001005126
30
0
41
1
10
-0.207091999731261
20
-6.80034067321819
30
0
41
1
10
-0.209269492367241
20
-6.76679198903059
30
0
41
1
10
-0.214824426638046
20
-6.69957126003933
30
0
41
1
10
-0.218199150202338
20
-6.66587124141833
30
0
41
1
10
-0.226629907857046
20
-6.59846295367004
30
0
41
1
10
-0.231660540619714
20
-6.56479252713515
30
0
41
1
10
-0.24121459835942
20
-6.5144059185414
30
0
41
1
10
-0.244745205143658
20
-6.49760452342764
30
0
41
1
10
-0.252727620657765
20
-6.46421416849179
30
0
41
1
10
-0.257169431390253
20
-6.44763062016602
30
0
41
1
10
-0.267439101060575
20
-6.41481626716185
30
0
41
1
10
-0.273236212730808
20
-6.39857720931977
30
0
41
1
10
-0.283833370168708
20
-6.37471397159132
30
0
41
1
10
-0.287711149711214
20
-6.3668056729274
30
0
41
1
10
-0.296343527957447
20
-6.35152953268795
30
0
41
1
10
-0.301085882076194
20
-6.34414232274304
30
0
41
1
10
-0.312078412289964
20
-6.33025774259031
30
0
41
1
10
-0.318222328461559
20
-6.32386838427445
30
0
41
1
10
-0.329057935890972
20
-6.31619338160348
30
0
41
1
10
-0.332859652575053
20
-6.31402544311607
30
0
41
1
10
-0.340958863849011
20
-6.31070772605878
30
0
41
1
10
-0.345208124413119
20
-6.30960458427649
30
0
41
1
10
-0.353689154326048
20
-6.30870360354672
30
0
41
1
10
-0.358037716131292
20
-6.30890123768719
30
0
41
1
10
-0.366345960396387
20
-6.31042877188762
30
0
41
1
10
-0.37039582601011
20
-6.31175696012832
30
0
41
1
10
-0.381850124236109
20
-6.31686284615006
30
0
41
1
10
-0.388651860853372
20
-6.32169800880934
30
0
41
1
10
-0.39491379981132
20
-6.32721828439901
30
0
0
SPLINE
5
1FC
100
AcDbEntity
8
SK1
62
256
6
ByLayer
370
18
48
1
60
0
100
AcDbSpline
70
4
71
3
72
40
73
36
40
0
40
0
40
0
40
0
40
0.0156250000000005
40
0.0156250000000005
40
0.0312500000000011
40
0.0312500000000011
40
0.0468750000000016
40
0.0468750000000016
40
0.0625000000000022
40
0.0625000000000022
40
0.0781250000000027
40
0.0781250000000027
40
0.0937500000000033
40
0.0937500000000033
40
0.109375000000004
40
0.109375000000004
40
0.125000000000004
40
0.125000000000004
40
0.156250000000005
40
0.156250000000005
40
0.187500000000007
40
0.187500000000007
40
0.250000000000009
40
0.250000000000009
40
0.312500000000011
40
0.312500000000011
40
0.375000000000013
40
0.375000000000013
40
0.500000000000012
40
0.500000000000012
40
0.62500000000001
40
0.62500000000001
40
0.750000000000009
40
0.750000000000009
40
1
40
1
40
1
40
1
41
1
10
-0.394913799811263
20
6.32722135061286
30
0
41
1
10
-0.39176836682077
20
6.32444846033573
30
0
41
1
10
-0.388488406577153
20
6.32186168295425
30
0
41
1
10
-0.381566403142102
20
6.31718953975286
30
0
41
1
10
-0.37788700743684
20
6.31508659472502
30
0
41
1
10
-0.370224910817342
20
6.31169706442716
30
0
41
1
10
-0.366254804145313
20
6.31040674643401
30
0
41
1
10
-0.357946478024502
20
6.30889601700255
30
0
41
1
10
-0.353563907701897
20
6.30870335232461
30
0
41
1
10
-0.344995599835329
20
6.3096474881059
30
0
41
1
10
-0.340684924848688
20
6.31079560648985
30
0
41
1
10
-0.332576144960598
20
6.31417396688744
30
0
41
1
10
-0.328692242821006
20
6.31642240799482
30
0
41
1
10
-0.321489218115886
20
6.3215939456986
30
0
41
1
10
-0.318164476683478
20
6.32450219496934
30
0
41
1
10
-0.311908022590558
20
6.33077681434855
30
0
41
1
10
-0.308967085084703
20
6.33416203110167
30
0
41
1
10
-0.300766232707389
20
6.34461234463069
30
0
41
1
10
-0.296040108964036
20
6.35202357617757
30
0
41
1
10
-0.287432431444955
20
6.36735118199186
30
0
41
1
10
-0.283553316434933
20
6.37530507146633
30
0
41
1
10
-0.272955344086171
20
6.39930333387312
30
0
41
1
10
-0.267171029982762
20
6.41559723945636
30
0
41
1
10
-0.256929970957032
20
6.44848157748783
30
0
41
1
10
-0.252505023147961
20
6.46507959466706
30
0
41
1
10
-0.244556108211668
20
6.49847112557535
30
0
41
1
10
-0.241036901726716
20
6.51528035330136
30
0
41
1
10
-0.231491141946322
20
6.56582630636572
30
0
41
1
10
-0.226489017484539
20
6.5994729106236
30
0
41
1
10
-0.218114808322724
20
6.66667162394384
30
0
41
1
10
-0.214764318431151
20
6.70022371847915
30
0
41
1
10
-0.209239354999511
20
6.76723901782026
30
0
41
1
10
-0.207070996832982
20
6.80070221210741
30
0
41
1
10
-0.201940349251288
20
6.90096555412458
30
0
41
1
10
-0.200330815103371
20
6.96763966546041
30
0
41
1
10
-0.199999999999989
20
7.03416121607441
30
0
0
SPLINE
5
1FD
100
AcDbEntity
8
SK1
62
256
6
ByLayer
370
13
48
1
60
0
100
AcDbSpline
70
4
71
3
72
21
73
17
40
0
40
0
40
0
40
0
40
0.0620714905219485
40
0.130360513792622
40
0.198649537063295
40
0.266938560333968
40
0.335227583604642
40
0.403516606875315
40
0.471805630145988
40
0.608383676687335
40
0.676672699958008
40
0.744961723228681
40
0.813250746499354
40
0.881539769770027
40
0.949828793040701
40
1
40
1
40
1
40
1
41
1
10
-0.39491379981132
20
-6.32721828439904
30
0
41
1
10
-0.39491379981132
20
-6.90653762641452
30
0
41
1
10
-0.39491379981132
20
-8.09321756934102
30
0
41
1
10
-0.39491379981132
20
-9.80498157314139
30
0
41
1
10
-0.394913799811349
20
-11.4638140893219
30
0
41
1
10
-0.394913799811349
20
-13.0147246633634
30
0
41
1
10
-0.394913799811349
20
-14.4558606687731
30
0
41
1
10
-0.394913799811349
20
-15.7849097442956
30
0
41
1
10
-0.394913799811349
20
-17.4047594204778
30
0
41
1
10
-0.394913799811349
20
-18.7870404111631
30
0
41
1
10
-0.394913799811377
20
-19.9145928494951
30
0
41
1
10
-0.394913799811377
20
-20.6247618481558
30
0
41
1
10
-0.394913799811377
20
-21.1908658435729
30
0
41
1
10
-0.394913799811377
20
-21.6019834098091
30
0
41
1
10
-0.394913799811377
20
-21.8217384639234
30
0
41
1
10
-0.394913799811377
20
-21.8658202630752
30
0
41
1
10
-0.394913799811377
20
-21.8654706411126
30
0
0
SPLINE
5
1FE
100
AcDbEntity
8
SK1
62
256
6
ByLayer
370
18
48
1
60
0
100
AcDbSpline
70
4
71
3
72
51
73
47
40
0
40
0
40
0
40
0
40
0.0312500000000006
40
0.0312500000000006
40
0.0468750000000016
40
0.0468750000000016
40
0.0625000000000026
40
0.0625000000000026
40
0.0781250000000036
40
0.0781250000000036
40
0.0937500000000046
40
0.101562500000005
40
0.101562500000005
40
0.109375000000005
40
0.109375000000005
40
0.125000000000006
40
0.125000000000006
40
0.140625000000007
40
0.140625000000007
40
0.156250000000007
40
0.156250000000007
40
0.171875000000008
40
0.171875000000008
40
0.187500000000009
40
0.187500000000009
40
0.218750000000009
40
0.218750000000009
40
0.25000000000001
40
0.25000000000001
40
0.28125000000001
40
0.28125000000001
40
0.312500000000011
40
0.312500000000011
40
0.375000000000011
40
0.375000000000011
40
0.437500000000011
40
0.437500000000011
40
0.500000000000011
40
0.500000000000011
40
0.625000000000008
40
0.625000000000008
40
0.750000000000006
40
0.750000000000006
40
0.875000000000003
40
0.875000000000003
40
1
40
1
40
1
40
1
41
1
10
-0.39491379981132
20
-6.32721828439898
30
0
41
1
10
-0.411169702827039
20
-6.34154884003178
30
0
41
1
10
-0.428432689769153
20
-6.35475565889092
30
0
41
1
10
-0.456587609313459
20
-6.37205876567259
30
0
41
1
10
-0.466398416496674
20
-6.37741702774107
30
0
41
1
10
-0.486501972755661
20
-6.38684509374406
30
0
41
1
10
-0.496835484302636
20
-6.39094564046627
30
0
41
1
10
-0.51816836276933
20
-6.3976988542467
30
0
41
1
10
-0.529196261060918
20
-6.4003572033352
30
0
41
1
10
-0.551937271601986
20
-6.40390572644711
30
0
41
1
10
-0.569030850267836
20
-6.40516730683922
30
0
41
1
10
-0.586181679144261
20
-6.40431153762214
30
0
41
1
10
-0.59762836448192
20
-6.40326750190812
30
0
41
1
10
-0.603385608753456
20
-6.40250300130214
30
0
41
1
10
-0.620403474265601
20
-6.39954770653125
30
0
41
1
10
-0.631442528804911
20
-6.39670554026134
30
0
41
1
10
-0.652994271508703
20
-6.38952126343978
30
0
41
1
10
-0.6635762300306
20
-6.38514079164267
30
0
41
1
10
-0.683845621171429
20
-6.37529177227788
30
0
41
1
10
-0.693552428201031
20
-6.36983092851585
30
0
41
1
10
-0.712284737644723
20
-6.35805370019304
30
0
41
1
10
-0.72130933300474
20
-6.35173618101936
30
0
41
1
10
-0.738796592350639
20
-6.33839390811318
30
0
41
1
10
-0.747287558608122
20
-6.33134151096425
30
0
41
1
10
-0.771774774816265
20
-6.30953788138899
30
0
41
1
10
-0.786839616984651
20
-6.29414128632044
30
0
41
1
10
-0.815263156518
20
-6.26217184383674
30
0
41
1
10
-0.828611914616658
20
-6.24559230293653
30
0
41
1
10
-0.854034688294377
20
-6.21154523857419
30
0
41
1
10
-0.866130482320557
20
-6.1940351189366
30
0
41
1
10
-0.889197260559286
20
-6.15850150199267
30
0
41
1
10
-0.900140456877779
20
-6.14052530360527
30
0
41
1
10
-0.931589886782092
20
-6.08609644673811
30
0
41
1
10
-0.950735693127655
20
-6.04915001273994
30
0
41
1
10
-0.986572619190156
20
-5.97432275637721
30
0
41
1
10
-1.0032484762518
20
-5.93643689983452
30
0
41
1
10
-1.03476146769921
20
-5.85992972493543
30
0
41
1
10
-1.0495929641111
20
-5.82130654980756
30
0
41
1
10
-1.09190951976356
20
-5.70451929766091
30
0
41
1
10
-1.11725974479191
20
-5.62540226977163
30
0
41
1
10
-1.16395785542233
20
-5.46549802550047
30
0
41
1
10
-1.18522246232584
20
-5.38492681950902
30
0
41
1
10
-1.22466451933838
20
-5.22271935203614
30
0
41
1
10
-1.2428321325454
20
-5.1410815354084
30
0
41
1
10
-1.27671142477865
20
-4.97683362134603
30
0
41
1
10
-1.29241814186361
20
-4.89422245258598
30
0
41
1
10
-1.30710678118658
20
-4.81115156937963
30
0
0
SPLINE
5
1FF
100
AcDbEntity
8
SK1
62
256
6
ByLayer
370
18
48
1
60
0
100
AcDbSpline
70
4
71
3
72
51
73
47
40
0
40
0
40
0
40
0
40
0.125000000000003
40
0.125000000000003
40
0.250000000000005
40
0.250000000000005
40
0.375000000000008
40
0.375000000000008
40
0.50000000000001
40
0.50000000000001
40
0.562500000000011
40
0.562500000000011
40
0.625000000000011
40
0.625000000000011
40
0.687500000000011
40
0.687500000000011
40
0.718750000000011
40
0.718750000000011
40
0.75000000000001
40
0.75000000000001
40
0.781250000000009
40
0.781250000000009
40
0.812500000000009
40
0.812500000000009
40
0.828125000000008
40
0.828125000000008
40
0.843750000000008
40
0.843750000000008
40
0.859375000000007
40
0.859375000000007
40
0.875000000000007
40
0.875000000000007
40
0.906250000000005
40
0.906250000000005
40
0.914062500000005
40
0.914062500000005
40
0.921875000000005
40
0.937500000000004
40
0.937500000000004
40
0.953125000000003
40
0.953125000000003
40
0.968750000000002
40
0.968750000000002
40
0.984375000000001
40
0.984375000000001
40
1
40
1
40
1
40
1
41
1
10
-1.30710678118652
20
4.8111517782514
30
0
41
1
10
-1.29243386166999
20
4.89413370391597
30
0
41
1
10
-1.27674450029031
20
4.97666000857456
30
0
41
1
10
-1.24290388240135
20
5.14074733501747
30
0
41
1
10
-1.22475757478611
20
5.22230941297437
30
0
41
1
10
-1.18536324259085
20
5.38437609466149
30
0
41
1
10
-1.16411410166907
20
5.46491938757291
30
0
41
1
10
-1.11750013847291
20
5.62462479791716
30
0
41
1
10
-1.09222933922729
20
5.70354894528973
30
0
41
1
10
-1.05003902511504
20
5.82012130347704
30
0
41
1
10
-1.03525413522215
20
5.85867400558868
30
0
41
1
10
-1.00384791181236
20
5.93504366748638
30
0
41
1
10
-0.987232093239811
20
5.97286244830227
30
0
41
1
10
-0.951537336733765
20
6.0475612269523
30
0
41
1
10
-0.932473247849714
20
6.08444613540038
30
0
41
1
10
-0.901177592378588
20
6.13879101734139
30
0
41
1
10
-0.890290953598964
20
6.15674063815601
30
0
41
1
10
-0.867353405011499
20
6.19222552349751
30
0
41
1
10
-0.85525358147396
20
6.20982755187163
30
0
41
1
10
-0.829832017046698
20
6.24404146668815
30
0
41
1
10
-0.81650875632846
20
6.26067183093176
30
0
41
1
10
-0.788229178374252
20
6.29267436431064
30
0
41
1
10
-0.77328079392683
20
6.30805251056449
30
0
41
1
10
-0.749110346030363
20
6.32978409383841
30
0
41
1
10
-0.740759389627385
20
6.33680322085289
30
0
41
1
10
-0.723321143410573
20
6.35028083368093
30
0
41
1
10
-0.714177802118172
20
6.35677477801673
30
0
41
1
10
-0.695263535743436
20
6.36883407140752
30
0
41
1
10
-0.685506727928413
20
6.37439841042163
30
0
41
1
10
-0.665265234159818
20
6.38439885825292
30
0
41
1
10
-0.654728144683759
20
6.38885411254182
30
0
41
1
10
-0.62210246866519
20
6.39998734213981
30
0
41
1
10
-0.599687731218552
20
6.40423336369165
30
0
41
1
10
-0.570661631865988
20
6.40472651279043
30
0
41
1
10
-0.564821683089747
20
6.40457927715815
30
0
41
1
10
-0.553312890967447
20
6.40381092862671
30
0
41
1
10
-0.536205505855349
20
6.40195065166941
30
0
41
1
10
-0.519541799584118
20
6.39807453657346
30
0
41
1
10
-0.49768267563141
20
6.39127312214092
30
0
41
1
10
-0.487153207843107
20
6.38712350886505
30
0
41
1
10
-0.466917648563907
20
6.37769203793539
30
0
41
1
10
-0.457177342303595
20
6.37239779961379
30
0
41
1
10
-0.438316294923311
20
6.3608578974891
30
0
41
1
10
-0.429170091135461
20
6.35459039773457
30
0
41
1
10
-0.41156851659008
20
6.34138290087219
30
0
41
1
10
-0.403103547019413
20
6.33444111034481
30
0
41
1
10
-0.394913799811263
20
6.32722135062525
30
0
0
SPLINE
5
200
100
AcDbEntity
8
SK1
62
256
6
ByLayer
370
13
48
1
60
0
100
AcDbSpline
70
4
71
3
72
21
73
17
40
0
40
0
40
0
40
0
40
0.0501775044791095
40
0.118466082220986
40
0.186754659962863
40
0.255043237704739
40
0.323331815446616
40
0.391620393188493
40
0.528197548672246
40
0.596486126414122
40
0.664774704155999
40
0.733063281897876
40
0.801351859639752
40
0.869640437381629
40
0.937929015123505
40
1
40
1
40
1
40
1
41
1
10
-0.394913799811178
20
21.8654704309278
30
0
41
1
10
-0.394913799811178
20
21.8658250797577
30
0
41
1
10
-0.394913799811206
20
21.8217455519514
30
0
41
1
10
-0.394913799811206
20
21.6019829919256
30
0
41
1
10
-0.394913799811206
20
21.1908660117695
30
0
41
1
10
-0.394913799811206
20
20.6247611340725
30
0
41
1
10
-0.394913799811206
20
19.9145926563567
30
0
41
1
10
-0.394913799811235
20
18.7870406318774
30
0
41
1
10
-0.394913799811235
20
17.4047589502432
30
0
41
1
10
-0.394913799811235
20
15.7849099352292
30
0
41
1
10
-0.394913799811235
20
14.4558608746283
30
0
41
1
10
-0.394913799811235
20
13.014724351229
30
0
41
1
10
-0.394913799811235
20
11.4638144327396
30
0
41
1
10
-0.394913799811263
20
9.80498177095927
30
0
41
1
10
-0.394913799811263
20
8.09321828866487
30
0
41
1
10
-0.394913799811263
20
6.90653972901185
30
0
41
1
10
-0.394913799811263
20
6.32722135061286
30
0
0
SPLINE
5
201
100
AcDbEntity
8
SK1
62
256
6
ByLayer
370
18
48
1
60
0
100
AcDbSpline
70
4
71
3
72
40
73
36
40
0
40
0
40
0
40
0
40
0.125000000000001
40
0.125000000000001
40
0.187500000000001
40
0.187500000000001
40
0.250000000000001
40
0.250000000000001
40
0.312500000000001
40
0.312500000000001
40
0.328125000000001
40
0.328125000000001
40
0.343750000000001
40
0.375
40
0.375
40
0.4375
40
0.4375
40
0.5
40
0.5625
40
0.5625
40
0.625
40
0.625
40
0.640625
40
0.640625
40
0.65625
40
0.65625
40
0.6875
40
0.6875
40
0.75
40
0.75
40
0.8125
40
0.8125
40
0.875
40
0.875
40
1
40
1
40
1
40
1
41
1
10
-1.30710678118655
20
-4.8111515693796
30
0
41
1
10
-1.3746419177011
20
-4.42920989906065
30
0
41
1
10
-1.43848245106358
20
-4.04286538655003
30
0
41
1
10
-1.5258108034615
20
-3.4555709451387
30
0
41
1
10
-1.55350142719047
20
-3.25850341404765
30
0
41
1
10
-1.60546482604909
20
-2.86151288497595
30
0
41
1
10
-1.62973519898722
20
-2.66158901568747
30
0
41
1
10
-1.67414509281366
20
-2.25856982386534
30
0
41
1
10
-1.69427910225545
20
-2.05547235697082
30
0
41
1
10
-1.71638790779508
20
-1.79939862844844
30
0
41
1
10
-1.7206596967475
20
-1.74803956652656
30
0
41
1
10
-1.72887208385961
20
-1.64527687502962
30
0
41
1
10
-1.74069036277351
20
-1.49111947898436
30
0
41
1
10
-1.75097190728465
20
-1.33692150334681
30
0
41
1
10
-1.76938952483024
20
-1.02847005779319
30
0
41
1
10
-1.77881369580271
20
-0.822761881301403
30
0
41
1
10
-1.79137807494828
20
-0.411189125581416
30
0
41
1
10
-1.79754609551321
20
0.0005418097730967
30
0
41
1
10
-1.79135312802683
20
0.412582134739552
30
0
41
1
10
-1.77873477820947
20
0.824781359776068
30
0
41
1
10
-1.76926982289669
20
1.03095952328059
30
0
41
1
10
-1.75383938151629
20
1.2887753971963
30
0
41
1
10
-1.75057294247844
20
1.340343237501
30
0
41
1
10
-1.74368713518695
20
1.44348814091276
30
0
41
1
10
-1.7400650339118
20
1.4951017046248
30
0
41
1
10
-1.72870229322061
20
1.64966999837918
30
0
41
1
10
-1.72047269473447
20
1.75227000555529
30
0
41
1
10
-1.69395938565037
20
2.05879746438532
30
0
41
1
10
-1.67384597566203
20
2.26145078101038
30
0
41
1
10
-1.629485287899
20
2.66369063393998
30
0
41
1
10
-1.60524340635004
20
2.86327920729124
30
0
41
1
10
-1.5533368167803
20
3.25969288493101
30
0
41
1
10
-1.52567448156807
20
3.45651882726707
30
0
41
1
10
-1.43842306954178
20
4.04321174825222
30
0
41
1
10
-1.374622793295
20
4.42931851789501
30
0
41
1
10
-1.30710678118658
20
4.81115177825131
30
0
0
SPLINE
5
202
100
AcDbEntity
8
SK1
62
256
6
ByLayer
370
13
48
1
60
0
100
AcDbSpline
70
4
71
3
72
49
73
45
40
0
40
0
40
0
40
0
40
0.0205804073009623
40
0.0487847071027068
40
0.0769890069044514
40
0.105193306706196
40
0.13339760650794
40
0.161601906309685
40
0.218010505913174
40
0.246214805714919
40
0.274419105516663
40
0.302623405318408
40
0.330827705120152
40
0.359032004921897
40
0.387236304723641
40
0.415440604525386
40
0.429542754426258
40
0.44364490432713
40
0.457747054228002
40
0.471849204128875
40
0.485951354029747
40
0.493002428980183
40
0.500053503930619
40
0.507104578881055
40
0.514155653831492
40
0.528257803732364
40
0.542359953633236
40
0.556462103534108
40
0.570564253434981
40
0.584666403335853
40
0.612870703137598
40
0.641075002939342
40
0.669279302741087
40
0.697483602542831
40
0.725687902344576
40
0.75389220214632
40
0.782096501948065
40
0.838505101551554
40
0.866709401353298
40
0.894913701155043
40
0.923118000956787
40
0.951322300758532
40
0.979526600560276
40
1
40
1
40
1
40
1
41
1
10
-1.99503997793926
20
21.8252862043265
30
0
41
1
10
-1.99503997793923
20
21.8253756437123
30
0
41
1
10
-1.9950399779392
20
21.7812232165288
30
0
41
1
10
-1.99503997793923
20
21.5622159608078
30
0
41
1
10
-1.99503997793923
20
21.1516905297669
30
0
41
1
10
-1.99503997793923
20
20.5863476884834
30
0
41
1
10
-1.99503997793923
20
19.8770915138249
30
0
41
1
10
-1.99503997793923
20
18.7508484467722
30
0
41
1
10
-1.99503997793923
20
17.370463175446
30
0
41
1
10
-1.99503997793923
20
15.752471971849
30
0
41
1
10
-1.99503997793926
20
14.4250897201646
30
0
41
1
10
-1.99503997793926
20
12.985830725026
30
0
41
1
10
-1.99503997793926
20
11.4370507512064
30
0
41
1
10
-1.99503997793926
20
9.78067154978808
30
0
41
1
10
-1.99503997793926
20
8.01821733349291
30
0
41
1
10
-1.99503997793928
20
6.46319635117561
30
0
41
1
10
-1.99503997793928
20
5.16749918372619
30
0
41
1
10
-1.99503997793928
20
4.17226659327741
30
0
41
1
10
-1.99503997793928
20
3.15436880408234
30
0
41
1
10
-1.99503997793928
20
2.11640247274798
30
0
41
1
10
-1.99503997793928
20
1.23881045451827
30
0
41
1
10
-1.99503997793928
20
0.531269482892839
30
0
41
1
10
-1.99503997793928
20
7.4362589E-08
30
0
41
1
10
-1.99503997793931
20
-0.53126937109505
30
0
41
1
10
-1.99503997793931
20
-1.23881043770959
30
0
41
1
10
-1.99503997793931
20
-2.11640245296422
30
0
41
1
10
-1.99503997793931
20
-3.15436853749512
30
0
41
1
10
-1.99503997793931
20
-4.17226658860133
30
0
41
1
10
-1.99503997793931
20
-5.16749921349111
30
0
41
1
10
-1.99503997793931
20
-6.46319592062625
30
0
41
1
10
-1.99503997793934
20
-8.01821749841287
30
0
41
1
10
-1.99503997793934
20
-9.7806713457135
30
0
41
1
10
-1.99503997793934
20
-11.4370504129058
30
0
41
1
10
-1.99503997793934
20
-12.9858310385527
30
0
41
1
10
-1.99503997793934
20
-14.4250895103889
30
0
41
1
10
-1.99503997793937
20
-15.7524717843982
30
0
41
1
10
-1.99503997793937
20
-17.370463645283
30
0
41
1
10
-1.99503997793937
20
-18.7508482253859
30
0
41
1
10
-1.99503997793937
20
-19.8770917100388
30
0
41
1
10
-1.99503997793937
20
-20.5863484011186
30
0
41
1
10
-1.99503997793937
20
-21.1516903613971
30
0
41
1
10
-1.99503997793937
20
-21.5622163798915
30
0
41
1
10
-1.99503997793937
20
-21.7809195217413
30
0
41
1
10
-1.99503997793937
20
-21.8251816140177
30
0
41
1
10
-1.99503997793937
20
-21.8252861542977
30
0
0
SPLINE
5
203
100
AcDbEntity
8
SK1
62
256
6
ByLayer
370
18
48
1
60
0
100
AcDbSpline
70
4
71
3
72
49
73
45
40
0
40
0
40
0
40
0
40
0.0137023109051973
40
0.0423080711262078
40
0.0709138313472182
40
0.0995195915682287
40
0.128125351789239
40
0.15673111201025
40
0.21394263245227
40
0.242548392673281
40
0.271154152894291
40
0.299759913115302
40
0.328365673336312
40
0.356971433557323
40
0.385577193778333
40
0.414182953999344
40
0.428485834109849
40
0.442788714220354
40
0.457091594330859
40
0.471394474441365
40
0.48569735455187
40
0.492848794607122
40
0.500000234662375
40
0.507151674717628
40
0.51430311477288
40
0.528605994883385
40
0.542908874993891
40
0.557211755104396
40
0.571514635214901
40
0.585817515325406
40
0.614423275546417
40
0.643029035767427
40
0.671634795988438
40
0.700240556209448
40
0.728846316430459
40
0.757452076651469
40
0.78605783687248
40
0.8432693573145
40
0.871875117535511
40
0.900480877756521
40
0.929086637977532
40
0.957692398198542
40
0.986298158419553
40
1
40
1
40
1
40
1
41
1
10
-2.1999999999999
20
22.0136323377941
30
0
41
1
10
-2.19999999999993
20
22.0053276300588
30
0
41
1
10
-2.19999999999993
20
21.9554440389325
30
0
41
1
10
-2.19999999999993
20
21.7550269215783
30
0
41
1
10
-2.19999999999993
20
21.3416333570605
30
0
41
1
10
-2.19999999999993
20
20.7725957724454
30
0
41
1
10
-2.19999999999993
20
20.0589162847047
30
0
41
1
10
-2.19999999999993
20
18.9263267207688
30
0
41
1
10
-2.19999999999993
20
17.5367466797247
30
0
41
1
10
-2.19999999999993
20
15.9097478536278
30
0
41
1
10
-2.19999999999993
20
14.5742840575192
30
0
41
1
10
-2.19999999999996
20
13.1259218425112
30
0
41
1
10
-2.19999999999996
20
11.5668148046225
30
0
41
1
10
-2.19999999999996
20
9.89853996914991
30
0
41
1
10
-2.19999999999996
20
8.12208977576529
30
0
41
1
10
-2.19999999999999
20
6.55235660022589
30
0
41
1
10
-2.19999999999999
20
5.24422917335971
30
0
41
1
10
-2.19999999999999
20
4.2375522406841
30
0
41
1
10
-2.19999999999999
20
3.20644372216569
30
0
41
1
10
-2.19999999999999
20
2.15314018801405
30
0
41
1
10
-2.19999999999999
20
1.26034253962158
30
0
41
1
10
-2.19999999999999
20
0.540965390862567
30
0
41
1
10
-2.19999999999999
20
2.64082871E-08
30
0
41
1
10
-2.19999999999999
20
-0.540965319759124
30
0
41
1
10
-2.20000000000002
20
-1.26034245765442
30
0
41
1
10
-2.20000000000002
20
-2.15314020845372
30
0
41
1
10
-2.20000000000002
20
-3.20644349821166
30
0
41
1
10
-2.20000000000002
20
-4.23755215854527
30
0
41
1
10
-2.20000000000002
20
-5.24422924769223
30
0
41
1
10
-2.20000000000002
20
-6.55235618011341
30
0
41
1
10
-2.20000000000002
20
-8.12208991237512
30
0
41
1
10
-2.20000000000005
20
-9.89853979541101
30
0
41
1
10
-2.20000000000005
20
-11.5668144415121
30
0
41
1
10
-2.20000000000005
20
-13.1259221492871
30
0
41
1
10
-2.20000000000005
20
-14.574283866752
30
0
41
1
10
-2.20000000000007
20
-15.9097476492909
30
0
41
1
10
-2.20000000000007
20
-17.5367471514895
30
0
41
1
10
-2.20000000000007
20
-18.9263265026412
30
0
41
1
10
-2.20000000000007
20
-20.0589164660072
30
0
41
1
10
-2.20000000000007
20
-20.7725964921017
30
0
41
1
10
-2.20000000000007
20
-21.3416331895302
30
0
41
1
10
-2.20000000000007
20
-21.7550273348429
30
0
41
1
10
-2.20000000000007
20
-21.9554433962394
30
0
41
1
10
-2.20000000000007
20
-22.0053267958213
30
0
41
1
10
-2.20000000000007
20
-22.0136316611094
30
0
0
SPLINE
5
204
100
AcDbEntity
8
SK1
62
256
6
ByLayer
370
18
48
1
60
0
100
AcDbSpline
70
4
71
3
72
49
73
45
40
0
40
0
40
0
40
0
40
0.0270948201769581
40
0.0549127537474596
40
0.0827306873179611
40
0.110548620888463
40
0.138366554458964
40
0.166184488029466
40
0.221820355170469
40
0.24963828874097
40
0.277456222311472
40
0.305274155881973
40
0.333092089452475
40
0.360910023022976
40
0.388727956593478
40
0.416545890163979
40
0.43045485694923
40
0.444363823734481
40
0.458272790519731
40
0.472181757304982
40
0.486090724090233
40
0.493045207482858
40
0.499999690875484
40
0.506954174268109
40
0.513908657660734
40
0.527817624445985
40
0.541726591231236
40
0.555635558016487
40
0.569544524801737
40
0.583453491586988
40
0.61127142515749
40
0.639089358727991
40
0.666907292298492
40
0.694725225868994
40
0.722543159439495
40
0.750361093009997
40
0.778179026580499
40
0.833814893721501
40
0.861632827292003
40
0.889450760862504
40
0.917268694433006
40
0.945086628003508
40
0.972904561574009
40
1
40
1
40
1
40
1
41
1
10
-36.4999999999999
20
21.1524103626154
30
0
41
1
10
-36.4999999999999
20
21.1690101689286
30
0
41
1
10
-36.4999999999999
20
21.1349478850568
30
0
41
1
10
-36.4999999999999
20
20.9025884164265
30
0
41
1
10
-36.4999999999999
20
20.5018751860754
30
0
41
1
10
-36.4999999999999
20
19.9491724688866
30
0
41
1
10
-36.4999999999999
20
19.2550489357273
30
0
41
1
10
-36.4999999999999
20
18.15051793389
30
0
41
1
10
-36.4999999999999
20
16.8015889830238
30
0
41
1
10
-36.4999999999999
20
15.2144138486305
30
0
41
1
10
-36.4999999999999
20
13.9146794509995
30
0
41
1
10
-36.4999999999999
20
12.5065635742003
30
0
41
1
10
-36.5
20
10.9931136245941
30
0
41
1
10
-36.5
20
9.37743069816298
30
0
41
1
10
-36.5
20
7.66285826183432
30
0
41
1
10
-36.5
20
6.15816931379945
30
0
41
1
10
-36.5
20
4.90499743361764
30
0
41
1
10
-36.5
20
3.94891719908267
30
0
41
1
10
-36.5
20
2.97621477071257
30
0
41
1
10
-36.5
20
1.99071870036138
30
0
41
1
10
-36.5
20
1.16514681856452
30
0
41
1
10
-36.5
20
0.498098713248623
30
0
41
1
10
-36.5
20
2.384196023E-07
30
0
41
1
10
-36.5
20
-0.498098462230672
30
0
41
1
10
-36.5
20
-1.16514702466992
30
0
41
1
10
-36.5
20
-1.99071854296855
30
0
41
1
10
-36.5
20
-2.97621435827213
30
0
41
1
10
-36.5
20
-3.94891745941487
30
0
41
1
10
-36.5
20
-4.90499731091163
30
0
41
1
10
-36.5
20
-6.15816884754426
30
0
41
1
10
-36.5
20
-7.66285852360596
30
0
41
1
10
-36.5
20
-9.37743039030639
30
0
41
1
10
-36.5
20
-10.9931133711699
30
0
41
1
10
-36.5000000000001
20
-12.5065639108221
30
0
41
1
10
-36.5000000000001
20
-13.9146791761935
30
0
41
1
10
-36.5000000000001
20
-15.2144137189482
30
0
41
1
10
-36.5000000000001
20
-16.8015894462652
30
0
41
1
10
-36.5000000000001
20
-18.1505177013546
30
0
41
1
10
-36.5000000000001
20
-19.2550491829543
30
0
41
1
10
-36.5000000000001
20
-19.9491731575016
30
0
41
1
10
-36.5000000000001
20
-20.5018750148335
30
0
41
1
10
-36.5000000000001
20
-20.9025888554178
30
0
41
1
10
-36.5000000000001
20
-21.1349503334049
30
0
41
1
10
-36.5000000000001
20
-21.1690108791745
30
0
41
1
10
-36.5000000000001
20
-21.1524093346264
30
0
0
SPLINE
5
205
100
AcDbEntity
8
1
62
256
6
ByLayer
370
18
48
1
60
0
100
AcDbSpline
70
4
71
1
72
4
73
2
40
0
40
0
40
1
40
1
41
1
10
109.218542543759
20
-2.884184325089
30
0
41
1
10
109.265365435
20
-2.84704310546925
30
0
0
SPLINE
5
206
100
AcDbEntity
8
1
62
256
6
ByLayer
370
18
48
1
60
0
100
AcDbSpline
70
4
71
3
72
12
73
8
40
0
40
0
40
0
40
0
40
0.0285732660572803
40
0.217507486665238
40
0.462639548259966
40
0.767385013157245
40
1
40
1
40
1
40
1
41
1
10
101.948918944726
20
-1.25858738420987
30
0
41
1
10
101.958207784404
20
-1.25604722840976
30
0
41
1
10
102.026943212507
20
-1.2378022679215
30
0
41
1
10
102.129359341255
20
-1.22720610930401
30
0
41
1
10
102.234457175789
20
-1.22793205485777
30
0
41
1
10
102.281702247775
20
-1.23322554980319
30
0
41
1
10
102.293276659659
20
-1.23353689823065
30
0
41
1
10
102.294776621544
20
-1.23055506147088
30
0
0
SPLINE
5
207
100
AcDbEntity
8
1
62
256
6
ByLayer
370
18
48
1
60
0
100
AcDbSpline
70
4
71
2
72
6
73
3
40
0
40
0
40
0
40
1
40
1
40
1
41
1
10
109.913489360312
20
-5.41389699797551
30
0
41
1
10
109.88161778606
20
-5.22692359929744
30
0
41
1
10
109.848568644844
20
-5.03235726587275
30
0
0
SPLINE
5
208
100
AcDbEntity
8
1
62
256
6
ByLayer
370
18
48
1
60
0
100
AcDbSpline
70
4
71
3
72
11
73
7
40
0
40
0
40
0
40
0
40
0.250157853800556
40
0.500220940720097
40
0.75020956315149
40
1
40
1
40
1
40
1
41
1
10
109.833137410747
20
-4.97233190944925
30
0
41
1
10
109.823340071275
20
-4.9207930545499
30
0
41
1
10
109.793626904275
20
-4.82137781320515
30
0
41
1
10
109.713166414785
20
-4.68393783440538
30
0
41
1
10
109.613491588789
20
-4.55601468890691
30
0
41
1
10
109.585116340379
20
-4.4555567493019
30
0
41
1
10
109.576203427517
20
-4.40334173162861
30
0
0
SPLINE
5
209
100
AcDbEntity
8
1
62
256
6
ByLayer
370
18
48
1
60
0
100
AcDbSpline
70
4
71
2
72
6
73
3
40
0
40
0
40
0
40
1
40
1
40
1
41
1
10
109.944954260759
20
-5.44593928321427
30
0
41
1
10
109.956562653839
20
-5.38832516275303
30
0
41
1
10
109.96818494764
20
-5.33071169433055
30
0
0
SPLINE
5
20A
100
AcDbEntity
8
1
62
256
6
ByLayer
370
18
48
1
60
0
100
AcDbSpline
70
4
71
1
72
4
73
2
40
0
40
0
40
1
40
1
41
1
10
109.310343869893
20
-8.11915560825597
30
0
41
1
10
109.618706999632
20
-6.61189248540492
30
0
0
SPLINE
5
20B
100
AcDbEntity
8
SK1
62
256
6
ByLayer
370
18
48
1
60
0
100
AcDbSpline
70
4
71
3
72
11
73
7
40
0
40
0
40
0
40
0
40
0.24260137289863
40
0.502561214665899
40
0.761098879312195
40
1
40
1
40
1
40
1
41
1
10
-0.199999999999932
20
22.0603316233164
30
0
41
1
10
-0.200957649232663
20
22.03467763457
30
0
41
1
10
-0.211248088565498
20
21.9856476021506
30
0
41
1
10
-0.255178473897303
20
21.9196695750854
30
0
41
1
10
-0.321112940270126
20
21.8764518787731
30
0
41
1
10
-0.369683556830267
20
21.8664032520323
30
0
41
1
10
-0.394913799811206
20
21.8654753908017
30
0
0
SPLINE
5
20C
100
AcDbEntity
8
SK1
62
256
6
ByLayer
370
18
48
1
60
0
100
AcDbSpline
70
4
71
3
72
11
73
7
40
0
40
0
40
0
40
0
40
0.238901121200236
40
0.497438786084572
40
0.757398627621475
40
1
40
1
40
1
40
1
41
1
10
-0.394913799811377
20
-21.8654754627471
30
0
41
1
10
-0.369683556841181
20
-21.8664033239634
30
0
41
1
10
-0.321112940313242
20
-21.8764519506625
30
0
41
1
10
-0.255178473954544
20
-21.9196696467454
30
0
41
1
10
-0.211248088576042
20
-21.9856476735436
30
0
41
1
10
-0.200957649243804
20
-22.0346777057893
30
0
41
1
10
-0.200000000000074
20
-22.0603316944385
30
0
0
SPLINE
5
20D
100
AcDbEntity
8
SK1
62
256
6
ByLayer
370
18
48
1
60
0
100
AcDbSpline
70
4
71
2
72
6
73
3
40
0
40
0
40
0
40
1
40
1
40
1
41
1
10
-36.4999999999999
20
21.1556411500793
30
0
41
1
10
-37.2500000202691
20
20.7228363924585
30
0
41
1
10
-37.9999999999999
20
20.2900294978114
30
0
0
SPLINE
5
20E
100
AcDbEntity
8
SK1
62
256
6
ByLayer
370
18
48
1
60
0
100
AcDbSpline
70
4
71
2
72
6
73
3
40
0
40
0
40
0
40
1
40
1
40
1
41
1
10
-38.0000000000001
20
-20.2900295032221
30
0
41
1
10
-37.2500000202655
20
-20.7228363958852
30
0
41
1
10
-36.5000000000001
20
-21.155641151646
30
0
0
SPLINE
5
20F
100
AcDbEntity
8
SK1
62
256
6
ByLayer
370
18
48
1
60
0
100
AcDbSpline
70
4
71
2
72
6
73
3
40
0
40
0
40
0
40
1
40
1
40
1
41
1
10
-0.394913799811206
20
21.8654705382346
30
0
41
1
10
-1.19497688887506
20
21.8453761190377
30
0
41
1
10
-1.99503997793923
20
21.8252816998361
30
0
0
SPLINE
5
210
100
AcDbEntity
8
SK1
62
256
6
ByLayer
370
18
48
1
60
0
100
AcDbSpline
70
4
71
2
72
6
73
3
40
0
40
0
40
0
40
1
40
1
40
1
41
1
10
-1.99503997793937
20
-21.8252817664983
30
0
41
1
10
-1.19497688887523
20
-21.845376185605
30
0
41
1
10
-0.394913799811377
20
-21.8654706047072
30
0
0
SPLINE
5
211
100
AcDbEntity
8
SK1
62
256
6
ByLayer
370
18
48
1
60
0
100
AcDbSpline
70
4
71
3
72
13
73
9
40
0
40
0
40
0
40
0
40
0.239488446613139
40
0.368403116187249
40
0.500046645745247
40
0.631682415479622
40
0.760575689762793
40
1
40
1
40
1
40
1
41
1
10
-1.99503997793923
20
21.825286524797
30
0
41
1
10
-2.02110964951214
20
21.8248845959364
30
0
41
1
10
-2.05883938576707
20
21.8310551084546
30
0
41
1
10
-2.10627619976845
20
21.8540920367489
30
0
41
1
10
-2.13886292183531
20
21.8792518859041
30
0
41
1
10
-2.16563526915761
20
21.9105242864783
30
0
41
1
10
-2.19103234710843
20
21.9567296167895
30
0
41
1
10
-2.19909149085333
20
21.9940920912339
30
0
41
1
10
-2.19999999999993
20
22.0201427571469
30
0
0
SPLINE
5
212
100
AcDbEntity
8
SK1
62
256
6
ByLayer
370
18
48
1
60
0
100
AcDbSpline
70
4
71
3
72
13
73
9
40
0
40
0
40
0
40
0
40
0.239424309709105
40
0.36831758382101
40
0.499953353497804
40
0.631596883124593
40
0.760511552875627
40
1
40
1
40
1
40
1
41
1
10
-2.20000000000007
20
-22.0201428284389
30
0
41
1
10
-2.19909149084529
20
-21.994092162624
30
0
41
1
10
-2.19103234710042
20
-21.956729688326
30
0
41
1
10
-2.16563526914689
20
-21.9105243582179
30
0
41
1
10
-2.13886292182107
20
-21.8792519577777
30
0
41
1
10
-2.10627619975318
20
-21.8540921087329
30
0
41
1
10
-2.05883938574678
20
-21.8310551805396
30
0
41
1
10
-2.02110964950154
20
-21.8248846680467
30
0
41
1
10
-1.99503997793937
20
-21.8252865969123
30
0
0
SPLINE
5
213
100
AcDbEntity
8
SK1
62
256
6
ByLayer
370
18
48
1
60
0
100
AcDbSpline
70
4
71
2
72
6
73
3
40
0
40
0
40
0
40
1
40
1
40
1
41
1
10
-2.19999999999993
20
22.0136642719968
30
0
41
1
10
-19.3500000008245
20
21.5830599810352
30
0
41
1
10
-36.4999999999999
20
21.1524539804129
30
0
0
SPLINE
5
214
100
AcDbEntity
8
SK1
62
256
6
ByLayer
370
18
48
1
60
0
100
AcDbSpline
70
4
71
2
72
6
73
3
40
0
40
0
40
0
40
1
40
1
40
1
41
1
10
-36.5000000000001
20
-21.1524542549769
30
0
41
1
10
-19.3500000008245
20
-21.5830602558514
30
0
41
1
10
-2.20000000000007
20
-22.0136645469338
30
0
0
LINE
5
79
100
AcDbEntity
8
1
62
256
6
ByLayer
370
18
48
1
60
0
100
AcDbLine
10
109.284346
20
6.576753
30
0
11
109.284346
21
6.329042
31
0
39
0
210
0
220
0
230
1
0
LINE
5
7A
100
AcDbEntity
8
1
62
256
6
ByLayer
370
13
48
1
60
0
100
AcDbLine
10
109.279948
20
6.337451
30
0
11
109.279948
21
6.563825
31
0
39
0
210
0
220
0
230
1
0
LINE
5
7B
100
AcDbEntity
8
1
62
256
6
ByLayer
370
18
48
1
60
0
100
AcDbLine
10
109.284346
20
-7.508262
30
0
11
109.284346
21
-10.363576
31
0
39
0
210
0
220
0
230
1
0
LINE
5
7C
100
AcDbEntity
8
1
62
256
6
ByLayer
370
13
48
1
60
0
100
AcDbLine
10
97.440256
20
6.546286
30
0
11
97.39091
21
6.472366
31
0
39
0
210
0
220
0
230
1
0
LINE
5
7D
100
AcDbEntity
8
1
62
256
6
ByLayer
370
13
48
1
60
0
100
AcDbLine
10
109.279948
20
-10.245054
30
0
11
109.279948
21
-7.449165
31
0
39
0
210
0
220
0
230
1
0
LINE
5
7E
100
AcDbEntity
8
1
62
256
6
ByLayer
370
13
48
1
60
0
100
AcDbLine
10
97.979509
20
6.379071
30
0
11
98.062435
21
6.420217
31
0
39
0
210
0
220
0
230
1
0
LINE
5
7F
100
AcDbEntity
8
1
62
256
6
ByLayer
370
13
48
1
60
0
100
AcDbLine
10
109.151296
20
-8.79308
30
0
11
109.151296
21
-6.565002
31
0
39
0
210
0
220
0
230
1
0
LINE
5
80
100
AcDbEntity
8
1
62
256
6
ByLayer
370
13
48
1
60
0
100
AcDbLine
10
109.119324
20
-8.589993
30
0
11
109.119324
21
-6.592261
31
0
39
0
210
0
220
0
230
1
0
LINE
5
81
100
AcDbEntity
8
1
62
256
6
ByLayer
370
13
48
1
60
0
100
AcDbLine
10
97.234687
20
-4.663981
30
0
11
96.863146
21
-4.557278
31
0
39
0
210
0
220
0
230
1
0
LINE
5
82
100
AcDbEntity
8
1
62
256
6
ByLayer
370
13
48
1
60
0
100
AcDbLine
10
96.863146
20
-4.557278
30
0
11
97.028118
21
-4.684197
31
0
39
0
210
0
220
0
230
1
0
LINE
5
83
100
AcDbEntity
8
1
62
256
6
ByLayer
370
13
48
1
60
0
100
AcDbLine
10
107.954417
20
3.132893
30
0
11
108.203967
21
4.458001
31
0
39
0
210
0
220
0
230
1
0
LINE
5
84
100
AcDbEntity
8
1
62
256
6
ByLayer
370
13
48
1
60
0
100
AcDbLine
10
99.919364
20
-4.076958
30
0
11
99.919364
21
6.191072
31
0
39
0
210
0
220
0
230
1
0
LINE
5
85
100
AcDbEntity
8
1
62
256
6
ByLayer
370
18
48
1
60
0
100
AcDbLine
10
108.748442
20
-2.921546
30
0
11
103.3218
21
-2.008748
31
0
39
0
210
0
220
0
230
1
0
LINE
5
86
100
AcDbEntity
8
1
62
256
6
ByLayer
370
13
48
1
60
0
100
AcDbLine
10
65
20
11.665
30
0
11
65
21
-11.665
31
0
39
0
210
0
220
0
230
1
0
LINE
5
87
100
AcDbEntity
8
1
62
256
6
ByLayer
370
13
48
1
60
0
100
AcDbLine
10
100.080374
20
6.185781
30
0
11
100.080374
21
-4.115334
31
0
39
0
210
0
220
0
230
1
0
LINE
5
88
100
AcDbEntity
8
1
62
256
6
ByLayer
370
13
48
1
60
0
100
AcDbLine
10
102.947636
20
-1.48257
30
0
11
102.947636
21
6.233328
31
0
39
0
210
0
220
0
230
1
0
LINE
5
89
100
AcDbEntity
8
1
62
256
6
ByLayer
370
13
48
1
60
0
100
AcDbLine
10
108.750745
20
-2.841198
30
0
11
108.750745
21
6.357568
31
0
39
0
210
0
220
0
230
1
0
LINE
5
8A
100
AcDbEntity
8
1
62
256
6
ByLayer
370
13
48
1
60
0
100
AcDbLine
10
103.077707
20
6.236958
30
0
11
103.077707
21
-1.590937
31
0
39
0
210
0
220
0
230
1
0
LINE
5
8B
100
AcDbEntity
8
1
62
256
6
ByLayer
370
13
48
1
60
0
100
AcDbLine
10
106.289228
20
-2.411582
30
0
11
106.289228
21
1.075444
31
0
39
0
210
0
220
0
230
1
0
LINE
5
8C
100
AcDbEntity
8
1
62
256
6
ByLayer
370
13
48
1
60
0
100
AcDbLine
10
106.334116
20
1.077856
30
0
11
106.334116
21
-2.418912
31
0
39
0
210
0
220
0
230
1
0
LINE
5
8D
100
AcDbEntity
8
1
62
256
6
ByLayer
370
13
48
1
60
0
100
AcDbLine
10
107.954417
20
3.132893
30
0
11
107.954417
21
2.738425
31
0
39
0
210
0
220
0
230
1
0
LINE
5
8E
100
AcDbEntity
8
1
62
256
6
ByLayer
370
13
48
1
60
0
100
AcDbLine
10
64.352947
20
11.767171
30
0
11
64.352947
21
-11.767171
31
0
39
0
210
0
220
0
230
1
0
LINE
5
8F
100
AcDbEntity
8
1
62
256
6
ByLayer
370
13
48
1
60
0
100
AcDbLine
10
39.75349
20
-19.734398
30
0
11
39.75349
21
19.734398
31
0
39
0
210
0
220
0
230
1
0
LINE
5
90
100
AcDbEntity
8
1
62
256
6
ByLayer
370
13
48
1
60
0
100
AcDbLine
10
13.461325
20
-9.349221
30
0
11
13.461325
21
-30.080593
31
0
39
0
210
0
220
0
230
1
0
LINE
5
91
100
AcDbEntity
8
1
62
256
6
ByLayer
370
13
48
1
60
0
100
AcDbLine
10
13.894338
20
-9.869413
30
0
11
13.894338
21
-29.913955
31
0
39
0
210
0
220
0
230
1
0
LINE
5
92
100
AcDbEntity
8
1
62
256
6
ByLayer
370
13
48
1
60
0
100
AcDbLine
10
10.105662
20
29.913955
30
0
11
10.105662
21
9.869413
31
0
39
0
210
0
220
0
230
1
0
LINE
5
93
100
AcDbEntity
8
1
62
256
6
ByLayer
370
13
48
1
60
0
100
AcDbLine
10
10.538675
20
30.080593
30
0
11
10.538675
21
9.349221
31
0
39
0
210
0
220
0
230
1
0
LINE
5
94
100
AcDbEntity
8
1
62
256
6
ByLayer
370
13
48
1
60
0
100
AcDbLine
10
13.461325
20
30.080593
30
0
11
13.461325
21
9.349221
31
0
39
0
210
0
220
0
230
1
0
LINE
5
95
100
AcDbEntity
8
1
62
256
6
ByLayer
370
13
48
1
60
0
100
AcDbLine
10
13.894338
20
29.913955
30
0
11
13.894338
21
9.869413
31
0
39
0
210
0
220
0
230
1
0
LINE
5
96
100
AcDbEntity
8
1
62
256
6
ByLayer
370
13
48
1
60
0
100
AcDbLine
10
10.105662
20
-9.869413
30
0
11
10.105662
21
-29.913955
31
0
39
0
210
0
220
0
230
1
0
LINE
5
97
100
AcDbEntity
8
1
62
256
6
ByLayer
370
13
48
1
60
0
100
AcDbLine
10
10.538675
20
-9.349221
30
0
11
10.538675
21
-30.080593
31
0
39
0
210
0
220
0
230
1
0
LINE
5
98
100
AcDbEntity
8
1
62
256
6
ByLayer
370
18
48
1
60
0
100
AcDbLine
10
0
20
-31.2
30
0
11
0
21
31.2
31
0
39
0
210
0
220
0
230
1
0
LINE
5
99
100
AcDbEntity
8
1
62
256
6
ByLayer
370
13
48
1
60
0
100
AcDbLine
10
34.747747
20
-22.275883
30
0
11
34.747747
21
22.275883
31
0
39
0
210
0
220
0
230
1
0
LINE
5
9A
100
AcDbEntity
8
1
62
256
6
ByLayer
370
18
48
1
60
0
100
AcDbLine
10
22
20
-31.5
30
0
11
22
21
31.5
31
0
39
0
210
0
220
0
230
1
0
LINE
5
9B
100
AcDbEntity
8
1
62
256
6
ByLayer
370
18
48
1
60
0
100
AcDbLine
10
0.3
20
-31.5
30
0
11
0.3
21
31.5
31
0
39
0
210
0
220
0
230
1
0
LINE
5
9C
100
AcDbEntity
8
1
62
256
6
ByLayer
370
18
48
1
60
0
100
AcDbLine
10
13.461325
20
9.349221
30
0
11
10.538675
21
9.349221
31
0
39
0
210
0
220
0
230
1
0
LINE
5
9D
100
AcDbEntity
8
1
62
256
6
ByLayer
370
18
48
1
60
0
100
AcDbLine
10
10.538675
20
30.080593
30
0
11
13.461325
21
30.080593
31
0
39
0
210
0
220
0
230
1
0
LINE
5
9E
100
AcDbEntity
8
1
62
256
6
ByLayer
370
18
48
1
60
0
100
AcDbLine
10
10.538675
20
-9.349221
30
0
11
13.461325
21
-9.349221
31
0
39
0
210
0
220
0
230
1
0
LINE
5
9F
100
AcDbEntity
8
1
62
256
6
ByLayer
370
18
48
1
60
0
100
AcDbLine
10
13.461325
20
-30.080593
30
0
11
10.538675
21
-30.080593
31
0
39
0
210
0
220
0
230
1
0
LINE
5
A0
100
AcDbEntity
8
1
62
256
6
ByLayer
370
18
48
1
60
0
100
AcDbLine
10
104.348722
20
9.53953
30
0
11
104.331506
21
9.5484
31
0
39
0
210
0
220
0
230
1
0
LINE
5
A1
100
AcDbEntity
8
1
62
256
6
ByLayer
370
18
48
1
60
0
100
AcDbLine
10
104.844205
20
9.86124
30
0
11
104.843888
21
9.841672
31
0
39
0
210
0
220
0
230
1
0
LINE
5
A2
100
AcDbEntity
8
1
62
256
6
ByLayer
370
13
48
1
60
0
100
AcDbLine
10
104.112067
20
9.820611
30
0
11
104.348722
21
9.53953
31
0
39
0
210
0
220
0
230
1
0
LINE
5
A3
100
AcDbEntity
8
1
62
256
6
ByLayer
370
13
48
1
60
0
100
AcDbLine
10
104.607233
20
10.122752
30
0
11
104.843888
21
9.841672
31
0
39
0
210
0
220
0
230
1
0
LINE
5
A4
100
AcDbEntity
8
1
62
256
6
ByLayer
370
18
48
1
60
0
100
AcDbLine
10
104.092924
20
9.83177
30
0
11
104.331506
21
9.5484
31
0
39
0
210
0
220
0
230
1
0
LINE
5
A5
100
AcDbEntity
8
1
62
256
6
ByLayer
370
18
48
1
60
0
100
AcDbLine
10
104.605623
20
10.14461
30
0
11
104.844205
21
9.86124
31
0
39
0
210
0
220
0
230
1
0
LINE
5
A6
100
AcDbEntity
8
1
62
256
6
ByLayer
370
18
48
1
60
0
100
AcDbLine
10
104.054444
20
8.45486
30
0
11
104.037546
21
8.444185
31
0
39
0
210
0
220
0
230
1
0
LINE
5
A7
100
AcDbEntity
8
1
62
256
6
ByLayer
370
13
48
1
60
0
100
AcDbLine
10
103.81779
20
8.735941
30
0
11
104.054444
21
8.45486
31
0
39
0
210
0
220
0
230
1
0
LINE
5
A8
100
AcDbEntity
8
1
62
256
6
ByLayer
370
13
48
1
60
0
100
AcDbLine
10
105.690954
20
9.878915
30
0
11
105.927609
21
9.597835
31
0
39
0
210
0
220
0
230
1
0
LINE
5
A9
100
AcDbEntity
8
1
62
256
6
ByLayer
370
18
48
1
60
0
100
AcDbLine
10
105.944825
20
9.607976
30
0
11
105.927609
21
9.597835
31
0
39
0
210
0
220
0
230
1
0
LINE
5
AA
100
AcDbEntity
8
1
62
256
6
ByLayer
370
18
48
1
60
0
100
AcDbLine
10
103.798963
20
8.727555
30
0
11
104.037546
21
8.444185
31
0
39
0
210
0
220
0
230
1
0
LINE
5
AB
100
AcDbEntity
8
1
62
256
6
ByLayer
370
18
48
1
60
0
100
AcDbLine
10
105.706242
20
9.891346
30
0
11
105.944825
21
9.607976
31
0
39
0
210
0
220
0
230
1
0
LINE
5
AC
100
AcDbEntity
8
1
62
256
6
ByLayer
370
13
48
1
60
0
100
AcDbLine
10
104.607233
20
7.975147
30
0
11
104.727106
21
7.83277
31
0
39
0
210
0
220
0
230
1
0
LINE
5
AD
100
AcDbEntity
8
1
62
256
6
ByLayer
370
13
48
1
60
0
100
AcDbLine
10
105.985232
20
8.815979
30
0
11
106.056239
21
8.731642
31
0
39
0
210
0
220
0
230
1
0
LINE
5
AE
100
AcDbEntity
8
1
62
256
6
ByLayer
370
18
48
1
60
0
100
AcDbLine
10
104.605623
20
7.957891
30
0
11
104.705335
21
7.83946
31
0
39
0
210
0
220
0
230
1
0
LINE
5
AF
100
AcDbEntity
8
1
62
256
6
ByLayer
370
18
48
1
60
0
100
AcDbLine
10
106.000203
20
8.808842
30
0
11
106.056419
21
8.742073
31
0
39
0
210
0
220
0
230
1
0
LINE
5
B0
100
AcDbEntity
8
1
62
256
6
ByLayer
370
18
48
1
60
0
100
AcDbLine
10
103.253773
20
-2.019691
30
0
11
106.101012
21
-2.54297
31
0
39
0
210
0
220
0
230
1
0
LINE
5
B1
100
AcDbEntity
8
SK1
62
256
6
ByLayer
370
18
48
1
60
0
100
AcDbLine
10
-0.2
20
-7.034158
30
0
11
-0.2
21
-22.533485
31
0
39
0
210
0
220
0
230
1
0
LINE
5
B3
100
AcDbEntity
8
SK1
62
256
6
ByLayer
370
18
48
1
60
0
100
AcDbLine
10
-0.2
20
22.533485
30
0
11
-0.2
21
7.034161
31
0
39
0
210
0
220
0
230
1
0
LINE
5
B4
100
AcDbEntity
8
SK1
62
256
6
ByLayer
370
13
48
1
60
0
100
AcDbLine
10
-1.307107
20
4.811152
30
0
11
-1.307107
21
-4.811152
31
0
39
0
210
0
220
0
230
1
0
LINE
5
B5
100
AcDbEntity
8
1
62
256
6
ByLayer
370
18
48
1
60
0
100
AcDbLine
10
109.284565
20
6.332721
30
0
11
109.284565
21
6.563073
31
0
39
0
210
0
220
0
230
1
0
LINE
5
B6
100
AcDbEntity
8
1
62
256
6
ByLayer
370
18
48
1
60
0
100
AcDbLine
10
109.284565
20
-10.283678
30
0
11
109.284565
21
-8.099595
31
0
39
0
210
0
220
0
230
1
0
LINE
5
B7
100
AcDbEntity
8
1
62
256
6
ByLayer
370
18
48
1
60
0
100
AcDbLine
10
65
20
-11.665
30
0
11
98.611061
21
-11.665
31
0
39
0
210
0
220
0
230
1
0
LINE
5
B8
100
AcDbEntity
8
1
62
256
6
ByLayer
370
18
48
1
60
0
100
AcDbLine
10
88.995504
20
11.665
30
0
11
65
21
11.665
31
0
39
0
210
0
220
0
230
1
0
LINE
5
B9
100
AcDbEntity
8
1
62
256
6
ByLayer
370
18
48
1
60
0
100
AcDbLine
10
109.284565
20
-2.817448
30
0
11
109.284565
21
6.327821
31
0
39
0
210
0
220
0
230
1
0
LINE
5
BA
100
AcDbEntity
8
1
62
256
6
ByLayer
370
18
48
1
60
0
100
AcDbLine
10
64.352947
20
11.767171
30
0
11
39.75349
21
19.734398
31
0
39
0
210
0
220
0
230
1
0
LINE
5
BB
100
AcDbEntity
8
1
62
256
6
ByLayer
370
18
48
1
60
0
100
AcDbLine
10
39.75349
20
-19.734398
30
0
11
64.352947
21
-11.767171
31
0
39
0
210
0
220
0
230
1
0
LINE
5
BC
100
AcDbEntity
8
1
62
256
6
ByLayer
370
18
48
1
60
0
100
AcDbLine
10
0
20
-31.2
30
0
11
0.3
21
-31.5
31
0
39
0
210
0
220
0
230
1
0
LINE
5
BD
100
AcDbEntity
8
1
62
256
6
ByLayer
370
18
48
1
60
0
100
AcDbLine
10
0.3
20
31.5
30
0
11
0
21
31.2
31
0
39
0
210
0
220
0
230
1
0
LINE
5
BE
100
AcDbEntity
8
1
62
256
6
ByLayer
370
18
48
1
60
0
100
AcDbLine
10
34.747747
20
22.275883
30
0
11
22
21
31.5
31
0
39
0
210
0
220
0
230
1
0
LINE
5
BF
100
AcDbEntity
8
1
62
256
6
ByLayer
370
18
48
1
60
0
100
AcDbLine
10
22
20
-31.5
30
0
11
34.747747
21
-22.275883
31
0
39
0
210
0
220
0
230
1
0
LINE
5
C0
100
AcDbEntity
8
1
62
256
6
ByLayer
370
18
48
1
60
0
100
AcDbLine
10
22
20
31.5
30
0
11
0.3
21
31.5
31
0
39
0
210
0
220
0
230
1
0
LINE
5
C1
100
AcDbEntity
8
1
62
256
6
ByLayer
370
18
48
1
60
0
100
AcDbLine
10
0.3
20
-31.5
30
0
11
22
21
-31.5
31
0
39
0
210
0
220
0
230
1
0
LINE
5
C2
100
AcDbEntity
8
1
62
256
6
ByLayer
370
18
48
1
60
0
100
AcDbLine
10
104.088517
20
8.993442
30
0
11
103.855984
21
9.269626
31
0
39
0
210
0
220
0
230
1
0
LINE
5
C3
100
AcDbEntity
8
1
62
256
6
ByLayer
370
18
48
1
60
0
100
AcDbLine
10
105.256714
20
10.021498
30
0
11
105.483878
21
9.75169
31
0
39
0
210
0
220
0
230
1
0
LINE
5
C4
100
AcDbEntity
8
1
62
256
6
ByLayer
370
18
48
1
60
0
100
AcDbLine
10
104.77808
20
7.822854
30
0
11
104.565314
21
8.07556
31
0
39
0
210
0
220
0
230
1
0
LINE
5
C5
100
AcDbEntity
8
1
62
256
6
ByLayer
370
18
48
1
60
0
100
AcDbLine
10
105.955282
20
8.840214
30
0
11
106.056045
21
8.720536
31
0
39
0
210
0
220
0
230
1
0
LINE
5
C6
100
AcDbEntity
8
1
62
256
6
ByLayer
370
18
48
1
60
0
100
AcDbLine
10
106.837041
20
9.627304
30
0
11
106.688664
21
9.94404
31
0
39
0
210
0
220
0
230
1
0
LINE
5
C7
100
AcDbEntity
8
1
62
256
6
ByLayer
370
18
48
1
60
0
100
AcDbLine
10
103.725751
20
7.449426
30
0
11
104.01258
21
7.249258
31
0
39
0
210
0
220
0
230
1
0
LINE
5
C8
100
AcDbEntity
8
SK4
62
256
6
ByLayer
370
18
48
0.05
60
0
100
AcDbLine
10
-43
20
0
30
0
11
115
21
0
31
0
39
0
210
0
220
0
230
1
0
LINE
5
CA
100
AcDbEntity
8
80
62
256
6
ByLayer
370
18
48
1
60
0
100
AcDbLine
10
0
20
0
30
0
11
-5
21
0
31
0
39
0
210
0
220
0
230
1
0
LINE
5
CB
100
AcDbEntity
8
4
62
256
6
ByLayer
370
18
48
0.05
60
0
100
AcDbLine
10
0
20
0
30
0
11
115
21
0
31
0
39
0
210
0
220
0
230
1
0
LINE
5
CD
100
AcDbEntity
8
81
62
256
6
ByLayer
370
18
48
1
60
0
100
AcDbLine
10
110
20
12.5
30
0
11
115
21
12.5
31
0
39
0
210
0
220
0
230
1
0
LINE
5
CE
100
AcDbEntity
8
2
62
256
6
ByLayer
370
18
48
1
60
0
100
AcDbLine
10
110
20
44.75
30
0
11
0
21
44.75
31
0
39
0
210
0
220
0
230
1
0
LINE
5
D0
100
AcDbEntity
8
2
62
256
6
ByLayer
370
18
48
1
60
0
100
AcDbLine
10
0
20
32.7875
30
0
11
0
21
46.75
31
0
39
0
210
0
220
0
230
1
0
LINE
5
D1
100
AcDbEntity
8
2
62
256
6
ByLayer
370
18
48
1
60
0
100
AcDbLine
10
110
20
14.0875
30
0
11
110
21
46.75
31
0
39
0
210
0
220
0
230
1
0
LINE
5
D2
100
AcDbEntity
8
1
62
256
6
ByLayer
370
18
48
1
60
1
100
AcDbLine
10
0
20
44.75
30
0
11
3.499998
21
45.210784
31
0
39
0
210
0
220
0
230
1
0
LINE
5
D3
100
AcDbEntity
8
1
62
256
6
ByLayer
370
18
48
1
60
1
100
AcDbLine
10
3.499998
20
45.210784
30
0
11
3.500002
21
44.289216
31
0
39
0
210
0
220
0
230
1
0
LINE
5
D4
100
AcDbEntity
8
1
62
256
6
ByLayer
370
18
48
1
60
1
100
AcDbLine
10
3.500002
20
44.289216
30
0
11
0
21
44.75
31
0
39
0
210
0
220
0
230
1
0
LINE
5
D5
100
AcDbEntity
8
1
62
256
6
ByLayer
370
18
48
1
60
1
100
AcDbLine
10
110
20
44.75
30
0
11
106.500002
21
44.289216
31
0
39
0
210
0
220
0
230
1
0
LINE
5
D6
100
AcDbEntity
8
1
62
256
6
ByLayer
370
18
48
1
60
1
100
AcDbLine
10
106.500002
20
44.289216
30
0
11
106.499998
21
45.210784
31
0
39
0
210
0
220
0
230
1
0
LINE
5
D7
100
AcDbEntity
8
1
62
256
6
ByLayer
370
18
48
1
60
1
100
AcDbLine
10
106.499998
20
45.210784
30
0
11
110
21
44.75
31
0
39
0
210
0
220
0
230
1
0
LINE
5
D8
100
AcDbEntity
8
2
62
256
6
ByLayer
370
13
48
1
60
0
100
AcDbLine
10
120.009393
20
12.5
30
0
11
120.009393
21
-12.5
31
0
39
0
210
0
220
0
230
1
0
LINE
5
D9
100
AcDbEntity
8
2
62
256
6
ByLayer
370
13
48
1
60
0
100
AcDbLine
10
111.5875
20
-12.5
30
0
11
122.009393
21
-12.5
31
0
39
0
210
0
220
0
230
1
0
LINE
5
DA
100
AcDbEntity
8
2
62
256
6
ByLayer
370
13
48
1
60
0
100
AcDbLine
10
111.5875
20
12.5
30
0
11
122.009393
21
12.5
31
0
39
0
210
0
220
0
230
1
0
LINE
5
DB
100
AcDbEntity
8
1
62
256
6
ByLayer
370
18
48
1
60
1
100
AcDbLine
10
120.009393
20
-12.5
30
0
11
119.548609
21
-9.000002
31
0
39
0
210
0
220
0
230
1
0
LINE
5
DC
100
AcDbEntity
8
1
62
256
6
ByLayer
370
18
48
1
60
1
100
AcDbLine
10
119.548609
20
-9.000002
30
0
11
120.470177
21
-8.999998
31
0
39
0
210
0
220
0
230
1
0
LINE
5
DD
100
AcDbEntity
8
1
62
256
6
ByLayer
370
18
48
1
60
1
100
AcDbLine
10
120.470177
20
-8.999998
30
0
11
120.009393
21
-12.5
31
0
39
0
210
0
220
0
230
1
0
LINE
5
DE
100
AcDbEntity
8
1
62
256
6
ByLayer
370
18
48
1
60
1
100
AcDbLine
10
120.009393
20
12.5
30
0
11
120.470177
21
9.000002
31
0
39
0
210
0
220
0
230
1
0
LINE
5
DF
100
AcDbEntity
8
1
62
256
6
ByLayer
370
18
48
1
60
1
100
AcDbLine
10
120.470177
20
9.000002
30
0
11
119.548609
21
8.999998
31
0
39
0
210
0
220
0
230
1
0
LINE
5
E0
100
AcDbEntity
8
1
62
256
6
ByLayer
370
18
48
1
60
1
100
AcDbLine
10
119.548609
20
8.999998
30
0
11
120.009393
21
12.5
31
0
39
0
210
0
220
0
230
1
0
LINE
5
E1
100
AcDbEntity
8
SK2
62
256
6
ByLayer
370
18
48
1
60
0
100
AcDbLine
10
-54.6
20
-31.5
30
0
11
-54.6
21
31.5
31
0
39
0
210
0
220
0
230
1
0
LINE
5
E3
100
AcDbEntity
8
SK2
62
256
6
ByLayer
370
18
48
1
60
0
100
AcDbLine
10
-1.2875
20
31.5
30
0
11
-56.6
21
31.5
31
0
39
0
210
0
220
0
230
1
0
LINE
5
E4
100
AcDbEntity
8
SK2
62
256
6
ByLayer
370
18
48
1
60
0
100
AcDbLine
10
-1.2875
20
-31.5
30
0
11
-56.6
21
-31.5
31
0
39
0
210
0
220
0
230
1
0
LINE
5
E5
100
AcDbEntity
8
1
62
256
6
ByLayer
370
18
48
1
60
1
100
AcDbLine
10
-54.6
20
31.5
30
0
11
-54.139216
21
28.000002
31
0
39
0
210
0
220
0
230
1
0
LINE
5
E6
100
AcDbEntity
8
1
62
256
6
ByLayer
370
18
48
1
60
1
100
AcDbLine
10
-54.139216
20
28.000002
30
0
11
-55.060784
21
27.999998
31
0
39
0
210
0
220
0
230
1
0
LINE
5
E7
100
AcDbEntity
8
1
62
256
6
ByLayer
370
18
48
1
60
1
100
AcDbLine
10
-55.060784
20
27.999998
30
0
11
-54.6
21
31.5
31
0
39
0
210
0
220
0
230
1
0
LINE
5
E8
100
AcDbEntity
8
1
62
256
6
ByLayer
370
18
48
1
60
1
100
AcDbLine
10
-54.6
20
-31.5
30
0
11
-55.060784
21
-28.000002
31
0
39
0
210
0
220
0
230
1
0
LINE
5
E9
100
AcDbEntity
8
1
62
256
6
ByLayer
370
18
48
1
60
1
100
AcDbLine
10
-55.060784
20
-28.000002
30
0
11
-54.139216
21
-27.999998
31
0
39
0
210
0
220
0
230
1
0
LINE
5
EA
100
AcDbEntity
8
1
62
256
6
ByLayer
370
18
48
1
60
1
100
AcDbLine
10
-54.139216
20
-27.999998
30
0
11
-54.6
21
-31.5
31
0
39
0
210
0
220
0
230
1
0
LINE
5
218
100
AcDbEntity
8
1
62
256
6
ByLayer
370
18
48
1
60
1
100
AcDbLine
10
0
20
44.75
30
0
11
3.499998
21
45.210784
31
0
39
0
210
0
220
0
230
1
0
LINE
5
219
100
AcDbEntity
8
1
62
256
6
ByLayer
370
18
48
1
60
1
100
AcDbLine
10
3.499998
20
45.210784
30
0
11
3.500002
21
44.289216
31
0
39
0
210
0
220
0
230
1
0
LINE
5
21A
100
AcDbEntity
8
1
62
256
6
ByLayer
370
18
48
1
60
1
100
AcDbLine
10
3.500002
20
44.289216
30
0
11
0
21
44.75
31
0
39
0
210
0
220
0
230
1
0
LINE
5
21C
100
AcDbEntity
8
1
62
256
6
ByLayer
370
18
48
1
60
1
100
AcDbLine
10
110
20
44.75
30
0
11
106.500002
21
44.289216
31
0
39
0
210
0
220
0
230
1
0
LINE
5
21D
100
AcDbEntity
8
1
62
256
6
ByLayer
370
18
48
1
60
1
100
AcDbLine
10
106.500002
20
44.289216
30
0
11
106.499998
21
45.210784
31
0
39
0
210
0
220
0
230
1
0
LINE
5
21E
100
AcDbEntity
8
1
62
256
6
ByLayer
370
18
48
1
60
1
100
AcDbLine
10
106.499998
20
45.210784
30
0
11
110
21
44.75
31
0
39
0
210
0
220
0
230
1
0
LINE
5
222
100
AcDbEntity
8
1
62
256
6
ByLayer
370
18
48
1
60
1
100
AcDbLine
10
120.009393
20
-12.5
30
0
11
119.548609
21
-9.000002
31
0
39
0
210
0
220
0
230
1
0
LINE
5
223
100
AcDbEntity
8
1
62
256
6
ByLayer
370
18
48
1
60
1
100
AcDbLine
10
119.548609
20
-9.000002
30
0
11
120.470177
21
-8.999998
31
0
39
0
210
0
220
0
230
1
0
LINE
5
224
100
AcDbEntity
8
1
62
256
6
ByLayer
370
18
48
1
60
1
100
AcDbLine
10
120.470177
20
-8.999998
30
0
11
120.009393
21
-12.5
31
0
39
0
210
0
220
0
230
1
0
LINE
5
226
100
AcDbEntity
8
1
62
256
6
ByLayer
370
18
48
1
60
1
100
AcDbLine
10
120.009393
20
12.5
30
0
11
120.470177
21
9.000002
31
0
39
0
210
0
220
0
230
1
0
LINE
5
227
100
AcDbEntity
8
1
62
256
6
ByLayer
370
18
48
1
60
1
100
AcDbLine
10
120.470177
20
9.000002
30
0
11
119.548609
21
8.999998
31
0
39
0
210
0
220
0
230
1
0
LINE
5
228
100
AcDbEntity
8
1
62
256
6
ByLayer
370
18
48
1
60
1
100
AcDbLine
10
119.548609
20
8.999998
30
0
11
120.009393
21
12.5
31
0
39
0
210
0
220
0
230
1
0
LINE
5
22C
100
AcDbEntity
8
1
62
256
6
ByLayer
370
18
48
1
60
1
100
AcDbLine
10
-54.6
20
31.5
30
0
11
-54.139216
21
28.000002
31
0
39
0
210
0
220
0
230
1
0
LINE
5
22D
100
AcDbEntity
8
1
62
256
6
ByLayer
370
18
48
1
60
1
100
AcDbLine
10
-54.139216
20
28.000002
30
0
11
-55.060784
21
27.999998
31
0
39
0
210
0
220
0
230
1
0
LINE
5
22E
100
AcDbEntity
8
1
62
256
6
ByLayer
370
18
48
1
60
1
100
AcDbLine
10
-55.060784
20
27.999998
30
0
11
-54.6
21
31.5
31
0
39
0
210
0
220
0
230
1
0
LINE
5
230
100
AcDbEntity
8
1
62
256
6
ByLayer
370
18
48
1
60
1
100
AcDbLine
10
-54.6
20
-31.5
30
0
11
-55.060784
21
-28.000002
31
0
39
0
210
0
220
0
230
1
0
LINE
5
231
100
AcDbEntity
8
1
62
256
6
ByLayer
370
18
48
1
60
1
100
AcDbLine
10
-55.060784
20
-28.000002
30
0
11
-54.139216
21
-27.999998
31
0
39
0
210
0
220
0
230
1
0
LINE
5
232
100
AcDbEntity
8
1
62
256
6
ByLayer
370
18
48
1
60
1
100
AcDbLine
10
-54.139216
20
-27.999998
30
0
11
-54.6
21
-31.5
31
0
39
0
210
0
220
0
230
1
0
MTEXT
5
215
100
AcDbEntity
8
2
62
256
6
ByLayer
370
18
48
1
60
0
100
AcDbMText
10
52.662167
20
45.782634
30
0
210
0
220
0
230
1
1
\W0.5296;110
40
3.5
41
0
44
1.084337
50
0
71
7
72
5
7
iso_b_vert
0
MTEXT
5
220
100
AcDbEntity
8
2
62
256
6
ByLayer
370
18
48
1
60
0
100
AcDbMText
10
118.444759
20
-4.530622
30
0
210
0
220
0
230
1
1
%%c
40
3.5
41
0
44
1.084337
50
90
71
7
72
5
7
iso_b_vert
0
MTEXT
5
221
100
AcDbEntity
8
2
62
256
6
ByLayer
370
18
48
1
60
0
100
AcDbMText
10
118.444759
20
2.442034
30
0
210
0
220
0
230
1
1
\W0.6740;25
40
3.5
41
0
44
1.084337
50
90
71
7
72
5
7
iso_b_vert
0
MTEXT
5
22A
100
AcDbEntity
8
SK2
62
256
6
ByLayer
370
18
48
1
60
0
100
AcDbMText
10
-56.164634
20
-4.530622
30
0
210
0
220
0
230
1
1
%%c
40
3.5
41
0
44
1.084337
50
90
71
7
72
5
7
iso_b_vert
0
MTEXT
5
22B
100
AcDbEntity
8
SK2
62
256
6
ByLayer
370
18
48
1
60
0
100
AcDbMText
10
-56.164634
20
2.442034
30
0
210
0
220
0
230
1
1
\W0.6740;63
40
3.5
41
0
44
1.084337
50
90
71
7
72
5
7
iso_b_vert
0
MTEXT
5
234
100
AcDbEntity
8
SK6
62
256
6
ByLayer
370
18
48
1
60
0
100
AcDbMText
10
16.8351
20
-45.717366
30
0
210
0
220
0
230
1
1
\W0.7471;MS20-R025C6-10M
40
3.5
41
0
44
1.084337
50
0
71
7
72
5
7
iso_b_vert
0
HATCH
5
21B
100
AcDbEntity
8
2
62
256
6
ByLayer
370
13
48
1
60
0
100
AcDbHatch
10
0
20
0
30
0
210
0
220
0
230
1
2
ANSI31
70
0
71
0
91
1
92
5
93
3
72
1
10
-1.137E-13
20
44.7499999999996
11
3.4999983074467
21
45.2107837415523
72
1
10
3.4999983074467
20
45.2107837415523
11
3.50000169255307
21
44.2892162584468
72
1
10
3.50000169255307
20
44.2892162584468
11
-1.137E-13
21
44.7499999999996
97
0
75
0
76
1
52
0
41
0.0062
77
0
78
1
53
45
43
0
44
0
45
-0.0139193969876572
46
0.0139193969876572
79
0
47
0
98
1
10
0
20
0
0
HATCH
5
21F
100
AcDbEntity
8
2
62
256
6
ByLayer
370
13
48
1
60
0
100
AcDbHatch
10
0
20
0
30
0
210
0
220
0
230
1
2
ANSI31
70
0
71
0
91
1
92
5
93
3
72
1
10
110
20
44.7499999999996
11
106.500001692553
21
44.2892162584468
72
1
10
106.500001692553
20
44.2892162584468
11
106.499998307447
21
45.2107837415523
72
1
10
106.499998307447
20
45.2107837415523
11
110
21
44.7499999999996
97
0
75
0
76
1
52
0
41
0.0062
77
0
78
1
53
45
43
0
44
0
45
-0.0139193969876572
46
0.0139193969876572
79
0
47
0
98
1
10
0
20
0
0
HATCH
5
225
100
AcDbEntity
8
2
62
256
6
ByLayer
370
13
48
1
60
0
100
AcDbHatch
10
0
20
0
30
0
210
0
220
0
230
1
2
ANSI31
70
0
71
0
91
1
92
5
93
3
72
1
10
120.009392900559
20
-12.5000000000004
11
119.548609159006
21
-9.00000169255361
72
1
10
119.548609159006
20
-9.00000169255361
11
120.470176642112
21
-8.99999830744724
72
1
10
120.470176642112
20
-8.99999830744724
11
120.009392900559
21
-12.5000000000004
97
0
75
0
76
1
52
0
41
0.0062
77
0
78
1
53
45
43
0
44
0
45
-0.0139193969876572
46
0.0139193969876572
79
0
47
0
98
1
10
0
20
0
0
HATCH
5
229
100
AcDbEntity
8
2
62
256
6
ByLayer
370
13
48
1
60
0
100
AcDbHatch
10
0
20
0
30
0
210
0
220
0
230
1
2
ANSI31
70
0
71
0
91
1
92
5
93
3
72
1
10
120.009392900559
20
12.4999999999996
11
120.470176642112
21
9.00000169255276
72
1
10
120.470176642112
20
9.00000169255276
11
119.548609159006
21
8.99999830744639
72
1
10
119.548609159006
20
8.99999830744639
11
120.009392900559
21
12.4999999999996
97
0
75
0
76
1
52
0
41
0.0062
77
0
78
1
53
45
43
0
44
0
45
-0.0139193969876572
46
0.0139193969876572
79
0
47
0
98
1
10
0
20
0
0
HATCH
5
22F
100
AcDbEntity
8
SK2
62
256
6
ByLayer
370
13
48
1
60
0
100
AcDbHatch
10
0
20
0
30
0
210
0
220
0
230
1
2
ANSI31
70
0
71
0
91
1
92
5
93
3
72
1
10
-54.6000000000001
20
31.4999999999999
11
-54.1392162584474
21
28.0000016925531
72
1
10
-54.1392162584474
20
28.0000016925531
11
-55.0607837415529
21
27.9999983074467
72
1
10
-55.0607837415529
20
27.9999983074467
11
-54.6000000000001
21
31.4999999999999
97
0
75
0
76
1
52
0
41
0.0062
77
0
78
1
53
45
43
0
44
0
45
-0.0139193969876572
46
0.0139193969876572
79
0
47
0
98
1
10
0
20
0
0
HATCH
5
233
100
AcDbEntity
8
SK2
62
256
6
ByLayer
370
13
48
1
60
0
100
AcDbHatch
10
0
20
0
30
0
210
0
220
0
230
1
2
ANSI31
70
0
71
0
91
1
92
5
93
3
72
1
10
-54.6000000000001
20
-31.5000000000001
11
-55.0607837415529
21
-28.0000016925533
72
1
10
-55.0607837415529
20
-28.0000016925533
11
-54.1392162584474
21
-27.9999983074469
72
1
10
-54.1392162584474
20
-27.9999983074469
11
-54.6000000000001
21
-31.5000000000001
97
0
75
0
76
1
52
0
41
0.0062
77
0
78
1
53
45
43
0
44
0
45
-0.0139193969876572
46
0.0139193969876572
79
0
47
0
98
1
10
0
20
0
0
DIMENSION
5
237
100
AcDbEntity
8
2
62
256
6
ByLayer
370
18
48
1
60
0
100
AcDbDimension
2
_U0
10
101
20
24.75
30
0
11
105.5
21
24.75
31
0
70
32
71
1
72
1
41
1
210
0
220
0
230
1
3
Standard
100
AcDbAlignedDimension
13
110
23
12.5
33
0
14
101
24
12.5
34
0
50
0
100
AcDbRotatedDimension
1001
ACAD
1000
DSTYLE
1002
{
1070
   371
1070
    13
1070
   372
1070
    13
1070
   170
1070
     0
1070
   144
1040
1.0
1070
   277
1070
     2
1070
   284
1070
     8
1070
   278
1070
    46
1070
   146
1040
1.0
1070
   345
1005
16
1070
   347
1005
16
1070
   346
1005
16
1070
   344
1005
0
1070
   343
1005
0
1070
   172
1070
     1
1070
    76
1070
     0
1070
    75
1070
     0
1070
   282
1070
     0
1070
   281
1070
     0
1070
    71
1070
     0
1070
    74
1070
     0
1070
   279
1070
     0
1070
   173
1070
     1
1070
   340
1005
216
1070
   271
1070
     2
1070
   272
1070
     2
1070
    77
1070
     1
1070
    73
1070
     1
1070
   171
1070
     3
1070
   274
1070
     4
1070
   177
1070
     2
1070
   176
1070
     2
1070
   178
1070
     2
1070
    78
1070
     8
1070
    48
1040
-0.1
1070
    41
1040
3.5
1070
   147
1040
1.75
1070
    42
1040
1.5875
1070
    44
1040
2.0
1070
   140
1040
3.5
1002
}
1001
ACAD_DSTYLE_DIM_LINETYPE
1070
   380
1005
16
1001
ACAD_DSTYLE_DIM_EXT1_LINETYPE
1070
   381
1005
16
1001
ACAD_DSTYLE_DIM_EXT2_LINETYPE
1070
   382
1005
16
0
DIMENSION
5
251
100
AcDbEntity
8
2
62
256
6
ByLayer
370
18
48
1
60
0
100
AcDbDimension
2
_U1
10
65
20
34.75
30
0
11
87.5
21
34.75
31
0
70
32
71
1
72
1
41
1
210
0
220
0
230
1
3
Standard
100
AcDbAlignedDimension
13
110
23
12.5
33
0
14
65
24
12.5
34
0
50
0
100
AcDbRotatedDimension
1001
ACAD
1000
DSTYLE
1002
{
1070
   371
1070
    13
1070
   372
1070
    13
1070
   170
1070
     0
1070
   144
1040
1.0
1070
   277
1070
     2
1070
   284
1070
     8
1070
   278
1070
    46
1070
   146
1040
1.0
1070
   345
1005
16
1070
   347
1005
16
1070
   346
1005
16
1070
   344
1005
0
1070
   343
1005
0
1070
   172
1070
     1
1070
    76
1070
     0
1070
    75
1070
     0
1070
   282
1070
     0
1070
   281
1070
     0
1070
    71
1070
     0
1070
    74
1070
     0
1070
   279
1070
     0
1070
   173
1070
     1
1070
   340
1005
216
1070
   271
1070
     2
1070
   272
1070
     2
1070
    77
1070
     1
1070
    73
1070
     1
1070
   171
1070
     3
1070
   274
1070
     4
1070
   177
1070
     2
1070
   176
1070
     2
1070
   178
1070
     2
1070
    78
1070
     8
1070
    48
1040
-0.1
1070
    41
1040
3.5
1070
   147
1040
1.75
1070
    42
1040
1.5875
1070
    44
1040
2.0
1070
   140
1040
3.5
1002
}
1001
ACAD_DSTYLE_DIM_LINETYPE
1070
   380
1005
16
1001
ACAD_DSTYLE_DIM_EXT1_LINETYPE
1070
   381
1005
16
1001
ACAD_DSTYLE_DIM_EXT2_LINETYPE
1070
   382
1005
16
0
DIMENSION
5
269
100
AcDbEntity
8
SK2
62
256
6
ByLayer
370
18
48
1
60
0
100
AcDbDimension
2
_U2
10
110
20
54.75
30
0
11
36
21
54.75
31
0
70
32
71
1
72
1
41
1
210
0
220
0
230
1
3
Standard
100
AcDbAlignedDimension
13
-38
23
0
33
0
14
110
24
12.5
34
0
50
0
100
AcDbRotatedDimension
1001
ACAD
1000
DSTYLE
1002
{
1070
   371
1070
    13
1070
   372
1070
    13
1070
   170
1070
     0
1070
   144
1040
1.0
1070
   277
1070
     2
1070
   284
1070
     8
1070
   278
1070
    46
1070
   146
1040
1.0
1070
   345
1005
16
1070
   347
1005
16
1070
   346
1005
16
1070
   344
1005
0
1070
   343
1005
0
1070
   172
1070
     1
1070
    76
1070
     0
1070
    75
1070
     0
1070
   282
1070
     0
1070
   281
1070
     0
1070
    71
1070
     0
1070
    74
1070
     0
1070
   279
1070
     0
1070
   173
1070
     1
1070
   340
1005
216
1070
   271
1070
     2
1070
   272
1070
     2
1070
    77
1070
     1
1070
    73
1070
     1
1070
   171
1070
     3
1070
   274
1070
     4
1070
   177
1070
     2
1070
   176
1070
     2
1070
   178
1070
     2
1070
    78
1070
     8
1070
    48
1040
-0.1
1070
    41
1040
3.5
1070
   147
1040
1.75
1070
    42
1040
1.5875
1070
    44
1040
2.0
1070
   140
1040
3.5
1002
}
1001
ACAD_DSTYLE_DIM_LINETYPE
1070
   380
1005
16
1001
ACAD_DSTYLE_DIM_EXT1_LINETYPE
1070
   381
1005
16
1001
ACAD_DSTYLE_DIM_EXT2_LINETYPE
1070
   382
1005
16
0
ENDSEC
0
SECTION
2
OBJECTS
0
DICTIONARY
5
2f1
330
0
100
AcDbDictionary
280
0
281
1
3
ACAD_GROUP
350
2f2
3
ACAD_MLINESTYLE
350
2f3
0
DICTIONARY
5
2f2
330
0
100
AcDbDictionary
280
0
281
1
0
DICTIONARY
5
2f3
330
0
100
AcDbDictionary
280
0
281
1
3
Standard
350
18
0
MLINESTYLE
5
18
330
2f3
100
AcDbMlineStyle
2
Standard
70
0
3

62
256
51
90
52
90
71
2
49
-0.5
62
256
6
ByLayer
49
0.5
62
256
6
ByLayer
0
RASTERVARIABLES
5
2df
330

100
AcDbRasterVariables
90
0
70
1
71
1
72
1
0
ENDSEC
0
EOF
