0
SECTION
2
HEADER
9
$ACADVER
1
AC1015
9
$DWGCODEPAGE
3
ANSI_1252
9
$HANDSEED
5
2fc
9
$ANGBASE
50
0
9
$ANGDIR
70
0
9
$ATTMODE
70
1
9
$AUNITS
70
0
9
$AUPREC
70
0
9
$CECOLOR
62
256
9
$CELTSCALE
40
1
9
$CELTYPE
6
ByLayer
9
$CELWEIGHT
370
18
9
$CLAYER
8
0
9
$CMLJUST
70
0
9
$CMLSCALE
40
1
9
$CMLSTYLE
2
Standard
9
$DIMSTYLE
2
Standard
9
$TEXTSIZE
40
0.2
9
$TEXTSTYLE
7
Standard
9
$LUNITS
70
2
9
$LUPREC
70
4
9
$EXTNAMES
290
1
9
$INSUNITS
70
4
9
$LTSCALE
40
1
9
$LWDISPLAY
290
1
9
$PDMODE
70
0
9
$PDSIZE
40
0
9
$PLINEGEN
70
0
0
ENDSEC
0
SECTION
2
CLASSES
0
CLASS
1
RASTERVARIABLES
2
AcDbRasterVariables
3
ISM
90
0
280
0
281
0
0
ENDSEC
0
SECTION
2
TABLES
0
TABLE
2
VPORT
5
2f2
100
AcDbSymbolTable
0
VPORT
5
1
100
AcDbSymbolTableRecord
100
AcDbViewportTableRecord
2
*Active
70
0
10
0
20
0
11
1
21
1
12
-1
22
1
13
0
23
0
14
0.5
24
0.5
15
10
25
10
16
0
26
0
36
1
17
0
27
0
37
0
0
ENDTAB
0
TABLE
2
LTYPE
5
2f3
100
AcDbSymbolTable
0
LTYPE
5
14
100
AcDbSymbolTableRecord
100
AcDbLinetypeTableRecord
70
0
2
ByBlock
3

72
65
73
0
40
0
0
LTYPE
5
15
100
AcDbSymbolTableRecord
100
AcDbLinetypeTableRecord
70
0
2
ByLayer
3

72
65
73
0
40
0
0
LTYPE
5
16
100
AcDbSymbolTableRecord
100
AcDbLinetypeTableRecord
70
0
2
Continuous
3
Solid line
72
65
73
0
40
0
0
LTYPE
5
6E
100
AcDbSymbolTableRecord
100
AcDbLinetypeTableRecord
70
0
2
CENTER
3
____ _ ____ _ ____ _ ____
72
65
73
4
40
47.5
49
22
74
0
49
-8.5
74
0
49
8.5
74
0
49
-8.5
74
0
0
LTYPE
5
6F
100
AcDbSymbolTableRecord
100
AcDbLinetypeTableRecord
70
0
2
DASHED
3
__ __ __ __ __ __ __ __ __
72
65
73
2
40
25.72
49
12.86
74
0
49
-12.86
74
0
0
ENDTAB
0
TABLE
2
LAYER
5
2f4
100
AcDbSymbolTable
0
LAYER
5
10
100
AcDbSymbolTableRecord
100
AcDbLayerTableRecord
2
0
70
0
62
7
6
Continuous
290
1
370
-3
390
0
0
LAYER
5
71
100
AcDbSymbolTableRecord
100
AcDbLayerTableRecord
2
1
70
0
62
4
6
Continuous
290
1
370
-3
390
0
0
LAYER
5
73
100
AcDbSymbolTableRecord
100
AcDbLayerTableRecord
2
80
70
0
62
-6
6
Continuous
290
1
370
-3
390
0
0
LAYER
5
75
100
AcDbSymbolTableRecord
100
AcDbLayerTableRecord
2
81
70
0
62
-3
6
Continuous
290
1
370
-3
390
0
0
LAYER
5
7F
100
AcDbSymbolTableRecord
100
AcDbLayerTableRecord
2
4
70
0
62
-2
6
CENTER
290
1
370
-3
390
0
0
LAYER
5
DC
100
AcDbSymbolTableRecord
100
AcDbLayerTableRecord
2
2
70
0
62
7
6
Continuous
290
1
370
-3
390
0
0
LAYER
5
237
100
AcDbSymbolTableRecord
100
AcDbLayerTableRecord
2
Defpoints
70
0
62
7
6
Continuous
290
0
370
-3
390
0
0
LAYER
5
2de
100
AcDbSymbolTableRecord
100
AcDbLayerTableRecord
2
SK4
70
0
62
2
6
CENTER
290
1
370
-3
390
0
0
LAYER
5
2df
100
AcDbSymbolTableRecord
100
AcDbLayerTableRecord
2
SK1
70
0
62
4
6
Continuous
290
1
370
-3
390
0
0
LAYER
5
2e0
100
AcDbSymbolTableRecord
100
AcDbLayerTableRecord
2
SK2
70
0
62
7
6
Continuous
290
1
370
-3
390
0
0
LAYER
5
2e1
100
AcDbSymbolTableRecord
100
AcDbLayerTableRecord
2
SK6
70
0
62
5
6
Continuous
290
1
370
-3
390
0
0
ENDTAB
0
TABLE
2
STYLE
5
2f5
100
AcDbSymbolTable
0
STYLE
5
11
100
AcDbSymbolTableRecord
100
AcDbTextStyleTableRecord
2
Standard
3
txt
70
0
71
0
40
0
41
1
42
0
50
0
0
STYLE
5
213
100
AcDbSymbolTableRecord
100
AcDbTextStyleTableRecord
2
iso_b_vert
3
simplex.shx
70
0
71
0
40
0
41
1
42
0
50
0
0
STYLE
5
214
100
AcDbSymbolTableRecord
100
AcDbTextStyleTableRecord
2
DWGDirectTextStyle
3
simplex
70
0
71
0
40
0
41
1
42
0
50
0
0
ENDTAB
0
TABLE
2
DIMSTYLE
5
2f6
100
AcDbSymbolTable
100
AcDbDimStyleTable
0
DIMSTYLE
105
27
100
AcDbSymbolTableRecord
100
AcDbDimStyleTableRecord
2
Standard
70
0
3
<>
41
0.18
42
0.0625
44
0.18
140
0.18
147
0.09
73
0
74
0
77
1
271
2
275
0
278
52
280
0
340
11
0
ENDTAB
0
TABLE
2
VIEW
5
2f7
100
AcDbSymbolTable
0
ENDTAB
0
TABLE
2
UCS
5
2f8
100
AcDbSymbolTable
0
ENDTAB
0
TABLE
2
APPID
5
2f9
100
AcDbSymbolTable
0
APPID
5
12
100
AcDbSymbolTableRecord
100
AcDbRegAppTableRecord
2
ACAD
70
0
0
APPID
5
233
100
AcDbSymbolTableRecord
100
AcDbRegAppTableRecord
2
ACAD_DSTYLE_DIMBREAK
70
0
0
APPID
5
29D
100
AcDbSymbolTableRecord
100
AcDbRegAppTableRecord
2
ACAD_DSTYLE_DIM_LINETYPE
70
0
0
APPID
5
29E
100
AcDbSymbolTableRecord
100
AcDbRegAppTableRecord
2
ACAD_DSTYLE_DIM_EXT1_LINETYPE
70
0
0
APPID
5
29F
100
AcDbSymbolTableRecord
100
AcDbRegAppTableRecord
2
ACAD_DSTYLE_DIM_EXT2_LINETYPE
70
0
0
APPID
5
2DA
100
AcDbSymbolTableRecord
100
AcDbRegAppTableRecord
2
ACAD_MLEADERVER
70
0
0
ENDTAB
0
TABLE
2
BLOCK_RECORD
5
2fa
100
AcDbSymbolTable
0
BLOCK_RECORD
5
1F
100
AcDbSymbolTableRecord
100
AcDbBlockTableRecord
2
*Model_Space
340
0
70
0
0
BLOCK_RECORD
5
1B
100
AcDbSymbolTableRecord
100
AcDbBlockTableRecord
2
*Paper_Space
340
0
70
0
0
BLOCK_RECORD
5
23
100
AcDbSymbolTableRecord
100
AcDbBlockTableRecord
2
*Paper_Space0
340
0
70
0
0
BLOCK_RECORD
5
238
100
AcDbSymbolTableRecord
100
AcDbBlockTableRecord
2
*D1
340
0
70
0
0
BLOCK_RECORD
5
245
100
AcDbSymbolTableRecord
100
AcDbBlockTableRecord
2
_U0
340
0
70
0
0
BLOCK_RECORD
5
251
100
AcDbSymbolTableRecord
100
AcDbBlockTableRecord
2
*D3
340
0
70
0
0
BLOCK_RECORD
5
25D
100
AcDbSymbolTableRecord
100
AcDbBlockTableRecord
2
_U1
340
0
70
0
0
BLOCK_RECORD
5
269
100
AcDbSymbolTableRecord
100
AcDbBlockTableRecord
2
*D5
340
0
70
0
0
BLOCK_RECORD
5
275
100
AcDbSymbolTableRecord
100
AcDbBlockTableRecord
2
_U2
340
0
70
0
0
ENDTAB
0
ENDSEC
0
SECTION
2
BLOCKS
0
BLOCK
5
20
100
AcDbEntity
8
0
100
AcDbBlockBegin
2
*Model_Space
70
0
10
0
20
0
30
0
3
*Model_Space
0
ENDBLK
5
21
100
AcDbEntity
8
0
100
AcDbBlockEnd
0
BLOCK
5
1C
100
AcDbEntity
8
0
100
AcDbBlockBegin
2
*Paper_Space
70
0
10
0
20
0
30
0
3
*Paper_Space
0
ENDBLK
5
1D
100
AcDbEntity
8
0
100
AcDbBlockEnd
0
BLOCK
5
24
100
AcDbEntity
8
0
100
AcDbBlockBegin
2
*Paper_Space0
70
0
10
0
20
0
30
0
3
*Paper_Space0
0
ENDBLK
5
25
100
AcDbEntity
8
0
100
AcDbBlockEnd
0
BLOCK
5
239
100
AcDbEntity
8
0
100
AcDbBlockBegin
2
*D1
70
1
10
0
20
0
30
0
3
*D1
0
LINE
5
23B
100
AcDbEntity
8
0
62
256
6
ByLayer
370
-2
48
1
60
0
100
AcDbLine
10
130
20
17.5875
30
0
11
130
21
30.25
31
0
39
0
210
0
220
0
230
1
0
LINE
5
23C
100
AcDbEntity
8
0
62
256
6
ByLayer
370
-2
48
1
60
0
100
AcDbLine
10
121
20
17.5875
30
0
11
121
21
30.25
31
0
39
0
210
0
220
0
230
1
0
LINE
5
23D
100
AcDbEntity
8
0
62
256
6
ByLayer
370
-2
48
1
60
0
100
AcDbLine
10
133.5
20
28.25
30
0
11
137
21
28.25
31
0
39
0
210
0
220
0
230
1
0
LINE
5
23E
100
AcDbEntity
8
0
62
256
6
ByLayer
370
-2
48
1
60
0
100
AcDbLine
10
117.5
20
28.25
30
0
11
114
21
28.25
31
0
39
0
210
0
220
0
230
1
0
SOLID
5
23F
100
AcDbEntity
8
0
62
256
6
ByLayer
370
-1
48
1
60
0
100
AcDbTrace
10
133.5
20
28.833333
30
0
11
133.5
21
27.666667
31
0
12
130
22
28.25
32
0
13
130
23
28.25
33
0
39
0
210
0
220
0
230
1
0
SOLID
5
240
100
AcDbEntity
8
0
62
256
6
ByLayer
370
-1
48
1
60
0
100
AcDbTrace
10
117.5
20
27.666667
30
0
11
117.5
21
28.833333
31
0
12
121
22
28.25
32
0
13
121
23
28.25
33
0
39
0
210
0
220
0
230
1
0
MTEXT
5
241
100
AcDbEntity
8
0
62
256
6
ByLayer
370
18
48
1
60
0
100
AcDbMText
10
125.5
20
35.25
30
0
210
0
220
0
230
1
1
\A1;9
40
3.5
41
0
44
1
50
0
71
5
72
5
7
iso_b_vert
0
POINT
5
242
100
AcDbEntity
8
Defpoints
62
0
6
ByLayer
370
-1
48
1
60
0
100
AcDbPoint
10
130
20
16
30
0
39
0
210
0
220
0
230
1
50
360
0
POINT
5
243
100
AcDbEntity
8
Defpoints
62
0
6
ByLayer
370
-1
48
1
60
0
100
AcDbPoint
10
121
20
16
30
0
39
0
210
0
220
0
230
1
50
360
0
POINT
5
244
100
AcDbEntity
8
Defpoints
62
0
6
ByLayer
370
-1
48
1
60
0
100
AcDbPoint
10
121
20
28.25
30
0
39
0
210
0
220
0
230
1
50
360
0
ENDBLK
5
23A
100
AcDbEntity
8
0
100
AcDbBlockEnd
0
BLOCK
5
24C
100
AcDbEntity
8
0
100
AcDbBlockBegin
2
_U0
70
0
10
0
20
0
30
0
3
_U0
0
MTEXT
5
246
100
AcDbEntity
8
2
62
256
6
ByLayer
370
18
48
1
60
0
100
AcDbMText
10
124.902767
20
29.282634
30
0
210
0
220
0
230
1
1
\W0.5742;9
40
3.5
41
0
44
1.084337
50
0
71
7
72
5
7
iso_b_vert
0
LINE
5
247
100
AcDbEntity
8
2
62
256
6
ByLayer
370
13
48
1
60
0
100
AcDbLine
10
130
20
17.5875
30
0
11
130
21
30.25
31
0
39
0
210
0
220
0
230
1
0
LINE
5
248
100
AcDbEntity
8
2
62
256
6
ByLayer
370
13
48
1
60
0
100
AcDbLine
10
121
20
17.5875
30
0
11
121
21
30.25
31
0
39
0
210
0
220
0
230
1
0
LINE
5
249
100
AcDbEntity
8
2
62
256
6
ByLayer
370
13
48
1
60
0
100
AcDbLine
10
130
20
28.25
30
0
11
121
21
28.25
31
0
39
0
210
0
220
0
230
1
0
SOLID
5
24A
100
AcDbEntity
8
2
62
256
6
ByLayer
370
18
48
1
60
0
100
AcDbTrace
10
130
20
28.25
30
0
11
126.500002
21
27.789216
31
0
12
126.499998
22
28.710784
32
0
13
126.499998
23
28.710784
33
0
39
0
210
0
220
0
230
1
0
SOLID
5
24B
100
AcDbEntity
8
2
62
256
6
ByLayer
370
18
48
1
60
0
100
AcDbTrace
10
121
20
28.25
30
0
11
124.499998
21
28.710784
31
0
12
124.500002
22
27.789216
32
0
13
124.500002
23
27.789216
33
0
39
0
210
0
220
0
230
1
0
ENDBLK
5
24D
100
AcDbEntity
8
0
100
AcDbBlockEnd
0
BLOCK
5
252
100
AcDbEntity
8
0
100
AcDbBlockBegin
2
*D3
70
1
10
0
20
0
30
0
3
*D3
0
LINE
5
254
100
AcDbEntity
8
0
62
256
6
ByLayer
370
-2
48
1
60
0
100
AcDbLine
10
130
20
17.5875
30
0
11
130
21
40.25
31
0
39
0
210
0
220
0
230
1
0
LINE
5
255
100
AcDbEntity
8
0
62
256
6
ByLayer
370
-2
48
1
60
0
100
AcDbLine
10
90
20
17.5875
30
0
11
90
21
40.25
31
0
39
0
210
0
220
0
230
1
0
LINE
5
256
100
AcDbEntity
8
0
62
256
6
ByLayer
370
-2
48
1
60
0
100
AcDbLine
10
126.5
20
38.25
30
0
11
93.5
21
38.25
31
0
39
0
210
0
220
0
230
1
0
SOLID
5
257
100
AcDbEntity
8
0
62
256
6
ByLayer
370
-1
48
1
60
0
100
AcDbTrace
10
126.5
20
37.666667
30
0
11
126.5
21
38.833333
31
0
12
130
22
38.25
32
0
13
130
23
38.25
33
0
39
0
210
0
220
0
230
1
0
SOLID
5
258
100
AcDbEntity
8
0
62
256
6
ByLayer
370
-1
48
1
60
0
100
AcDbTrace
10
93.5
20
38.833333
30
0
11
93.5
21
37.666667
31
0
12
90
22
38.25
32
0
13
90
23
38.25
33
0
39
0
210
0
220
0
230
1
0
MTEXT
5
259
100
AcDbEntity
8
0
62
256
6
ByLayer
370
18
48
1
60
0
100
AcDbMText
10
110
20
45.25
30
0
210
0
220
0
230
1
1
\A1;40
40
3.5
41
0
44
1
50
0
71
5
72
5
7
iso_b_vert
0
POINT
5
25A
100
AcDbEntity
8
Defpoints
62
0
6
ByLayer
370
-1
48
1
60
0
100
AcDbPoint
10
130
20
16
30
0
39
0
210
0
220
0
230
1
50
360
0
POINT
5
25B
100
AcDbEntity
8
Defpoints
62
0
6
ByLayer
370
-1
48
1
60
0
100
AcDbPoint
10
90
20
16
30
0
39
0
210
0
220
0
230
1
50
360
0
POINT
5
25C
100
AcDbEntity
8
Defpoints
62
0
6
ByLayer
370
-1
48
1
60
0
100
AcDbPoint
10
90
20
38.25
30
0
39
0
210
0
220
0
230
1
50
360
0
ENDBLK
5
253
100
AcDbEntity
8
0
100
AcDbBlockEnd
0
BLOCK
5
264
100
AcDbEntity
8
0
100
AcDbBlockBegin
2
_U1
70
0
10
0
20
0
30
0
3
_U1
0
MTEXT
5
25E
100
AcDbEntity
8
2
62
256
6
ByLayer
370
18
48
1
60
0
100
AcDbMText
10
107.910767
20
39.282634
30
0
210
0
220
0
230
1
1
\W0.7361;40
40
3.5
41
0
44
1.084337
50
0
71
7
72
5
7
iso_b_vert
0
LINE
5
25F
100
AcDbEntity
8
2
62
256
6
ByLayer
370
13
48
1
60
0
100
AcDbLine
10
130
20
17.5875
30
0
11
130
21
40.25
31
0
39
0
210
0
220
0
230
1
0
LINE
5
260
100
AcDbEntity
8
2
62
256
6
ByLayer
370
13
48
1
60
0
100
AcDbLine
10
90
20
17.5875
30
0
11
90
21
40.25
31
0
39
0
210
0
220
0
230
1
0
LINE
5
261
100
AcDbEntity
8
2
62
256
6
ByLayer
370
13
48
1
60
0
100
AcDbLine
10
130
20
38.25
30
0
11
90
21
38.25
31
0
39
0
210
0
220
0
230
1
0
SOLID
5
262
100
AcDbEntity
8
2
62
256
6
ByLayer
370
18
48
1
60
0
100
AcDbTrace
10
130
20
38.25
30
0
11
126.500002
21
37.789216
31
0
12
126.499998
22
38.710784
32
0
13
126.499998
23
38.710784
33
0
39
0
210
0
220
0
230
1
0
SOLID
5
263
100
AcDbEntity
8
2
62
256
6
ByLayer
370
18
48
1
60
0
100
AcDbTrace
10
90
20
38.25
30
0
11
93.499998
21
38.710784
31
0
12
93.500002
22
37.789216
32
0
13
93.500002
23
37.789216
33
0
39
0
210
0
220
0
230
1
0
ENDBLK
5
265
100
AcDbEntity
8
0
100
AcDbBlockEnd
0
BLOCK
5
26A
100
AcDbEntity
8
0
100
AcDbBlockBegin
2
*D5
70
1
10
0
20
0
30
0
3
*D5
0
LINE
5
26C
100
AcDbEntity
8
0
62
256
6
ByLayer
370
-2
48
1
60
0
100
AcDbLine
10
130
20
-17.5875
30
0
11
130
21
-33.75
31
0
39
0
210
0
220
0
230
1
0
LINE
5
26D
100
AcDbEntity
8
0
62
256
6
ByLayer
370
-2
48
1
60
0
100
AcDbLine
10
61
20
-17.5835
30
0
11
61
21
-33.75
31
0
39
0
210
0
220
0
230
1
0
LINE
5
26E
100
AcDbEntity
8
0
62
256
6
ByLayer
370
-2
48
1
60
0
100
AcDbLine
10
126.5
20
-31.75
30
0
11
64.5
21
-31.75
31
0
39
0
210
0
220
0
230
1
0
SOLID
5
26F
100
AcDbEntity
8
0
62
256
6
ByLayer
370
-1
48
1
60
0
100
AcDbTrace
10
126.5
20
-32.333333
30
0
11
126.5
21
-31.166667
31
0
12
130
22
-31.75
32
0
13
130
23
-31.75
33
0
39
0
210
0
220
0
230
1
0
SOLID
5
270
100
AcDbEntity
8
0
62
256
6
ByLayer
370
-1
48
1
60
0
100
AcDbTrace
10
64.5
20
-31.166667
30
0
11
64.5
21
-32.333333
31
0
12
61
22
-31.75
32
0
13
61
23
-31.75
33
0
39
0
210
0
220
0
230
1
0
MTEXT
5
271
100
AcDbEntity
8
0
62
256
6
ByLayer
370
18
48
1
60
0
100
AcDbMText
10
95.5
20
-24.75
30
0
210
0
220
0
230
1
1
\A1;69
40
3.5
41
0
44
1
50
0
71
5
72
5
7
iso_b_vert
0
POINT
5
272
100
AcDbEntity
8
Defpoints
62
0
6
ByLayer
370
-1
48
1
60
0
100
AcDbPoint
10
130
20
-16
30
0
39
0
210
0
220
0
230
1
50
360
0
POINT
5
273
100
AcDbEntity
8
Defpoints
62
0
6
ByLayer
370
-1
48
1
60
0
100
AcDbPoint
10
61
20
-15.996
30
0
39
0
210
0
220
0
230
1
50
360
0
POINT
5
274
100
AcDbEntity
8
Defpoints
62
0
6
ByLayer
370
-1
48
1
60
0
100
AcDbPoint
10
61
20
-31.75
30
0
39
0
210
0
220
0
230
1
50
360
0
ENDBLK
5
26B
100
AcDbEntity
8
0
100
AcDbBlockEnd
0
BLOCK
5
27D
100
AcDbEntity
8
0
100
AcDbBlockBegin
2
_U2
70
0
10
0
20
0
30
0
3
_U2
0
MTEXT
5
276
100
AcDbEntity
8
SK2
62
256
6
ByLayer
370
18
48
1
60
0
100
AcDbMText
10
85.324501
20
-30.717366
30
0
210
0
220
0
230
1
1
\W0.7298;OHX =
40
3.5
41
0
44
1.084337
50
0
71
7
72
5
7
iso_b_vert
0
MTEXT
5
277
100
AcDbEntity
8
SK2
62
256
6
ByLayer
370
18
48
1
60
0
100
AcDbMText
10
101.865566
20
-30.717366
30
0
210
0
220
0
230
1
1
\W0.6927;69
40
3.5
41
0
44
1.084337
50
0
71
7
72
5
7
iso_b_vert
0
LINE
5
278
100
AcDbEntity
8
SK2
62
256
6
ByLayer
370
13
48
1
60
0
100
AcDbLine
10
130
20
-17.5875
30
0
11
130
21
-33.75
31
0
39
0
210
0
220
0
230
1
0
LINE
5
279
100
AcDbEntity
8
SK2
62
256
6
ByLayer
370
13
48
1
60
0
100
AcDbLine
10
61
20
-17.5835
30
0
11
61
21
-33.75
31
0
39
0
210
0
220
0
230
1
0
LINE
5
27A
100
AcDbEntity
8
SK2
62
256
6
ByLayer
370
13
48
1
60
0
100
AcDbLine
10
130
20
-31.75
30
0
11
61
21
-31.75
31
0
39
0
210
0
220
0
230
1
0
SOLID
5
27B
100
AcDbEntity
8
SK2
62
256
6
ByLayer
370
18
48
1
60
0
100
AcDbTrace
10
130
20
-31.75
30
0
11
126.500002
21
-32.210784
31
0
12
126.499998
22
-31.289216
32
0
13
126.499998
23
-31.289216
33
0
39
0
210
0
220
0
230
1
0
SOLID
5
27C
100
AcDbEntity
8
SK2
62
256
6
ByLayer
370
18
48
1
60
0
100
AcDbTrace
10
61
20
-31.75
30
0
11
64.499998
21
-31.289216
31
0
12
64.500002
22
-32.210784
32
0
13
64.500002
23
-32.210784
33
0
39
0
210
0
220
0
230
1
0
ENDBLK
5
27E
100
AcDbEntity
8
0
100
AcDbBlockEnd
0
ENDSEC
0
SECTION
2
ENTITIES
0
ARC
5
EE
100
AcDbEntity
8
1
62
256
6
ByLayer
370
18
48
1
60
0
100
AcDbCircle
39
0
10
120.547518
20
-13.322862
30
0
40
2
210
0
220
0
230
1
100
AcDbArc
50
256.419578
51
269.707509
0
ARC
5
EF
100
AcDbEntity
8
1
62
256
6
ByLayer
370
18
48
1
60
0
100
AcDbCircle
39
0
10
126.304791
20
-14.352266
30
0
40
1
210
0
220
0
230
1
100
AcDbArc
50
269.707509
51
271.081353
0
ARC
5
F0
100
AcDbEntity
8
1
62
256
6
ByLayer
370
18
48
1
60
0
100
AcDbCircle
39
0
10
117.761861
20
-16.765
30
0
40
2
210
0
220
0
230
1
100
AcDbArc
50
76.419578
51
90
0
ARC
5
F1
100
AcDbEntity
8
1
62
256
6
ByLayer
370
18
48
1
60
0
100
AcDbCircle
39
0
10
128.734422
20
-14.756486
30
0
40
0.55
210
0
220
0
230
1
100
AcDbArc
50
271.081353
51
360
0
ARC
5
F2
100
AcDbEntity
8
1
62
256
6
ByLayer
370
18
48
1
60
0
100
AcDbCircle
39
0
10
89.6
20
-15.565
30
0
40
0.8
210
0
220
0
230
1
100
AcDbArc
50
90
51
180
0
ARC
5
F3
100
AcDbEntity
8
1
62
256
6
ByLayer
370
18
48
1
60
0
100
AcDbCircle
39
0
10
89.6
20
15.565
30
0
40
0.8
210
0
220
0
230
1
100
AcDbArc
50
180
51
270
0
ELLIPSE
5
F4
100
AcDbEntity
8
1
62
256
6
ByLayer
370
13
48
1
60
0
100
AcDbEllipse
10
119.632677
20
12.561485
30
0
11
0.92522852526512
21
-0.379410300381698
31
0
210
0
220
0
230
1
40
0.115534
41
-2.16747606610099
42
-1.43145541015357
0
ELLIPSE
5
F5
100
AcDbEntity
8
1
62
256
6
ByLayer
370
13
48
1
60
0
100
AcDbEllipse
10
119.49743
20
12.045267
30
0
11
0.99254687165156
21
-0.121863479249122
31
0
210
0
220
0
230
1
40
0.173379
41
-2.20491328163371
42
-1.35326860282522
0
ELLIPSE
5
F6
100
AcDbEntity
8
1
62
256
6
ByLayer
370
13
48
1
60
0
100
AcDbEllipse
10
121.704852
20
10.153755
30
0
11
0.217061307369048
21
1.23100949989967
31
0
210
0
220
0
230
1
40
0.857454
41
2.55839704070726
42
2.7372490298486
0
ELLIPSE
5
F7
100
AcDbEntity
8
1
62
256
6
ByLayer
370
13
48
1
60
0
100
AcDbEllipse
10
119.402237
20
11.269946
30
0
11
0.99254687165156
21
-0.121863479249122
31
0
210
0
220
0
230
1
40
0.173379
41
-2.21254331188003
42
-1.27959258998929
0
ELLIPSE
5
F8
100
AcDbEntity
8
1
62
256
6
ByLayer
370
18
48
1
60
0
100
AcDbEllipse
10
6.921731
20
7.00354
30
0
11
124.575570909305
21
2.24193201466456
31
0
210
0
220
0
230
1
40
0.001903
41
0.232704924642253
42
0.405976452124683
0
ELLIPSE
5
F9
100
AcDbEntity
8
1
62
256
6
ByLayer
370
18
48
1
60
0
100
AcDbEllipse
10
123.781181
20
10.018232
30
0
11
3.85681785894162
21
1.07266414726988
31
0
210
0
220
0
230
1
40
0.059606
41
-2.46882247795962
42
-2.26269320445607
0
ELLIPSE
5
FA
100
AcDbEntity
8
1
62
256
6
ByLayer
370
18
48
1
60
0
100
AcDbEllipse
10
129.07625
20
9.940015
30
0
11
1.3372609796714
21
-2.37964818789965
31
0
210
0
220
0
230
1
40
0.409563
41
-1.55915614872227
42
-1.51900852256184
0
ELLIPSE
5
FB
100
AcDbEntity
8
1
62
256
6
ByLayer
370
18
48
1
60
0
100
AcDbEllipse
10
129.371436
20
9.615727
30
0
11
1.21163440217642
21
0.444160798308066
31
0
210
0
220
0
230
1
40
0.752758
41
2.93849732410349
42
3.06813146390888
0
ELLIPSE
5
FC
100
AcDbEntity
8
1
62
256
6
ByLayer
370
18
48
1
60
0
100
AcDbEllipse
10
116.03172
20
-4.549436
30
0
11
-0.313243218166707
21
-0.949672936474714
31
0
210
0
220
0
230
1
40
0.408824
41
0
42
1.22927757100266
0
ELLIPSE
5
FD
100
AcDbEntity
8
1
62
256
6
ByLayer
370
13
48
1
60
0
100
AcDbEllipse
10
116.681733
20
-4.763838
30
0
11
-0.826620037375934
21
-0.937656287670812
31
0
210
0
220
0
230
1
40
0.741806
41
-2.27827657861084E-05
42
0.800052992809081
0
ELLIPSE
5
FE
100
AcDbEntity
8
1
62
256
6
ByLayer
370
13
48
1
60
0
100
AcDbEllipse
10
116.681733
20
-4.763838
30
0
11
0.391554022708379
21
1.18709117059343
31
0
210
0
220
0
230
1
40
0.408824
41
-2.58633598958891
42
-1.79460563353372
0
ELLIPSE
5
FF
100
AcDbEntity
8
1
62
256
6
ByLayer
370
18
48
1
60
0
100
AcDbEllipse
10
126.027569
20
0.4725
30
0
11
-1.27733180147049
21
0.241709472201175
31
0
210
0
220
0
230
1
40
0.357425
41
-3.07406006260841
42
0.0675325909814704
0
ELLIPSE
5
100
100
AcDbEntity
8
1
62
256
6
ByLayer
370
18
48
1
60
0
100
AcDbEllipse
10
122.216453
20
-5.67423
30
0
11
3.23138816594678
21
3.73216541866767
31
0
210
0
220
0
230
1
40
0.130361
41
1.72209080896106
42
1.75654698009426
0
ELLIPSE
5
101
100
AcDbEntity
8
1
62
256
6
ByLayer
370
18
48
1
60
0
100
AcDbEllipse
10
119.377745
20
-10.959536
30
0
11
13.4010920665452
21
27.2723420155951
31
0
210
0
220
0
230
1
40
0.019651
41
1.35696537311288
42
1.39088655540863
0
ELLIPSE
5
102
100
AcDbEntity
8
1
62
256
6
ByLayer
370
18
48
1
60
0
100
AcDbEllipse
10
128.752739
20
-4.619502
30
0
11
-0.49128146210409
21
0.0929651816158469
31
0
210
0
220
0
230
1
40
0.357425
41
1.62960227151629
42
2.84097081338305
0
ELLIPSE
5
103
100
AcDbEntity
8
1
62
256
6
ByLayer
370
13
48
1
60
0
100
AcDbEllipse
10
128.637378
20
-5.640063
30
0
11
-0.165217764065003
21
-0.986257111729677
31
0
210
0
220
0
230
1
40
0.05489
41
-2.75832818624686
42
-2.58038416060608
0
ELLIPSE
5
104
100
AcDbEntity
8
1
62
256
6
ByLayer
370
13
48
1
60
0
100
AcDbEllipse
10
126.231004
20
1.54757
30
0
11
1.71948511736433
21
-0.325378135655434
31
0
210
0
220
0
230
1
40
0.357425
41
0.0675325909814869
42
2.82982687889319
0
ELLIPSE
5
105
100
AcDbEntity
8
1
62
256
6
ByLayer
370
18
48
1
60
0
100
AcDbEllipse
10
126.865752
20
-0.04758
30
0
11
2.53068461604676
21
15.341034410744
31
0
210
0
220
0
230
1
40
0.062307
41
-1.51775867521673
42
-1.28445077679844
0
ELLIPSE
5
106
100
AcDbEntity
8
1
62
256
6
ByLayer
370
18
48
1
60
0
100
AcDbEllipse
10
123.323197
20
0.012864
30
0
11
2.52989159100704
21
15.3362473565986
31
0
210
0
220
0
230
1
40
0.062307
41
-1.47860853391459
42
-1.28485945088226
0
ELLIPSE
5
107
100
AcDbEntity
8
1
62
256
6
ByLayer
370
13
48
1
60
0
100
AcDbEllipse
10
126.231004
20
1.54757
30
0
11
-1.75
21
6.43155504981979E-15
31
0
210
0
220
0
230
1
40
0.931813
41
2.23359161020565
42
2.96705972839036
0
ELLIPSE
5
108
100
AcDbEntity
8
1
62
256
6
ByLayer
370
13
48
1
60
0
100
AcDbEllipse
10
126.231004
20
1.54757
30
0
11
-1.75
21
6.43155504981979E-15
31
0
210
0
220
0
230
1
40
0.931813
41
0.176889768333012
42
0.558935192985208
0
ELLIPSE
5
109
100
AcDbEntity
8
1
62
256
6
ByLayer
370
18
48
1
60
0
100
AcDbEllipse
10
125.962994
20
-0.592525
30
0
11
-1.03169107041859
21
0.195226881393279
31
0
210
0
220
0
230
1
40
0.357425
41
-2.22965877921088
42
-0.776082575883971
0
ELLIPSE
5
10A
100
AcDbEntity
8
1
62
256
6
ByLayer
370
18
48
1
60
0
100
AcDbEllipse
10
125.138165
20
12.306396
30
0
11
0.738576978157739
21
0.665834369295685
31
0
210
0
220
0
230
1
40
0.965787
41
-0.150621823183855
42
0.33082735183233
0
ELLIPSE
5
10B
100
AcDbEntity
8
1
62
256
6
ByLayer
370
18
48
1
60
0
100
AcDbEllipse
10
125.138165
20
12.306396
30
0
11
0.738576978157739
21
0.665834369295685
31
0
210
0
220
0
230
1
40
0.965787
41
0.330827351832333
42
1.37802490302892
0
ELLIPSE
5
10C
100
AcDbEntity
8
1
62
256
6
ByLayer
370
18
48
1
60
0
100
AcDbEllipse
10
125.138165
20
12.306396
30
0
11
0.738576978157739
21
0.665834369295685
31
0
210
0
220
0
230
1
40
0.965787
41
1.37802490302892
42
2.42522245422552
0
ELLIPSE
5
10D
100
AcDbEntity
8
1
62
256
6
ByLayer
370
18
48
1
60
0
100
AcDbEllipse
10
125.138165
20
12.306396
30
0
11
-0.73857697815774
21
-0.665834369295684
31
0
210
0
220
0
230
1
40
0.965787
41
-0.716370199364271
42
-0.0884603742256953
0
ELLIPSE
5
10E
100
AcDbEntity
8
1
62
256
6
ByLayer
370
18
48
1
60
0
100
AcDbEllipse
10
125.138165
20
12.306396
30
0
11
0.738576978157739
21
0.665834369295685
31
0
210
0
220
0
230
1
40
0.965787
41
-2.72494419622012
42
-2.37221863873298
0
ELLIPSE
5
10F
100
AcDbEntity
8
1
62
256
6
ByLayer
370
18
48
1
60
0
100
AcDbEllipse
10
124.575988
20
13.256651
30
0
11
0.257323332232292
21
0.158142986708198
31
0
210
0
220
0
230
1
40
0.471579
41
-2.8656222123394
42
-1.57873755178261
0
ELLIPSE
5
110
100
AcDbEntity
8
1
62
256
6
ByLayer
370
18
48
1
60
0
100
AcDbEllipse
10
124.575988
20
13.256651
30
0
11
0.257323332230677
21
0.158142986706977
31
0
210
0
220
0
230
1
40
0.471579
41
-1.57873755178064
42
-0.291852891217202
0
ELLIPSE
5
111
100
AcDbEntity
8
1
62
256
6
ByLayer
370
18
48
1
60
0
100
AcDbEllipse
10
124.164403
20
12.832661
30
0
11
0.150532027732554
21
0.261053582082144
31
0
210
0
220
0
230
1
40
0.473737
41
-0.147803803052758
42
2.55132656490222
0
ELLIPSE
5
112
100
AcDbEntity
8
1
62
256
6
ByLayer
370
18
48
1
60
0
100
AcDbEllipse
10
125.138165
20
13.426093
30
0
11
0.297734919756879
21
0.013421196707519
31
0
210
0
220
0
230
1
40
0.484311
41
1.08201402551666
42
-3.00254775239888
0
ELLIPSE
5
113
100
AcDbEntity
8
1
62
256
6
ByLayer
370
18
48
1
60
0
100
AcDbEllipse
10
124.01381
20
12.267619
30
0
11
0.00321569334299349
21
0.296597354981575
31
0
210
0
220
0
230
1
40
0.488968
41
-2.8355114823528
42
-1.54862682179204
0
ELLIPSE
5
114
100
AcDbEntity
8
1
62
256
6
ByLayer
370
18
48
1
60
0
100
AcDbEllipse
10
124.01381
20
12.267619
30
0
11
0.00321569334263941
21
0.296597354980956
31
0
210
0
220
0
230
1
40
0.488968
41
-1.54862682179506
42
-0.261742161232255
0
ELLIPSE
5
115
100
AcDbEntity
8
1
62
256
6
ByLayer
370
18
48
1
60
0
100
AcDbEllipse
10
125.700343
20
13.295428
30
0
11
0.258917338861815
21
-0.137547741398762
31
0
210
0
220
0
230
1
40
0.500474
41
-2.23598505169356
42
-1.5850833228723
0
ELLIPSE
5
116
100
AcDbEntity
8
1
62
256
6
ByLayer
370
18
48
1
60
0
100
AcDbEllipse
10
125.700343
20
13.295428
30
0
11
0.258917338860435
21
-0.137547741397717
31
0
210
0
220
0
230
1
40
0.500474
41
-1.58508332287476
42
-0.298198662309865
0
ELLIPSE
5
117
100
AcDbEntity
8
1
62
256
6
ByLayer
370
18
48
1
60
0
100
AcDbEllipse
10
124.164403
20
11.712964
30
0
11
0.147789421643598
21
-0.252357842405655
31
0
210
0
220
0
230
1
40
0.502998
41
2.98953721579313
42
-1.90582232421911
0
ELLIPSE
5
118
100
AcDbEntity
8
1
62
256
6
ByLayer
370
18
48
1
60
0
100
AcDbEllipse
10
126.111928
20
12.899827
30
0
11
0.147789421643607
21
-0.252357842405658
31
0
210
0
220
0
230
1
40
0.502998
41
2.7128816170303
42
-2.97190196779196
0
ELLIPSE
5
119
100
AcDbEntity
8
1
62
256
6
ByLayer
370
18
48
1
60
0
100
AcDbEllipse
10
124.886376
20
12.585694
30
0
11
0.957424229378755
21
0.863127306657887
31
0
210
0
220
0
230
1
40
0.965787
41
2.94882122982384
42
-2.28716652615917
0
ELLIPSE
5
11A
100
AcDbEntity
8
1
62
256
6
ByLayer
370
18
48
1
60
0
100
AcDbEllipse
10
124.886376
20
12.585694
30
0
11
0.957424229378755
21
0.863127306657887
31
0
210
0
220
0
230
1
40
0.965787
41
1.90162367862722
42
2.94882122982384
0
ELLIPSE
5
11B
100
AcDbEntity
8
1
62
256
6
ByLayer
370
18
48
1
60
0
100
AcDbEllipse
10
124.886376
20
12.585694
30
0
11
0.957424229378755
21
0.863127306657887
31
0
210
0
220
0
230
1
40
0.965787
41
0.854426127430628
42
1.90162367862722
0
ELLIPSE
5
11C
100
AcDbEntity
8
1
62
256
6
ByLayer
370
18
48
1
60
0
100
AcDbEllipse
10
124.886376
20
12.585694
30
0
11
0.957424229378755
21
0.863127306657887
31
0
210
0
220
0
230
1
40
0.965787
41
-0.192771423765959
42
0.854426127430628
0
ELLIPSE
5
11D
100
AcDbEntity
8
1
62
256
6
ByLayer
370
18
48
1
60
0
100
AcDbEllipse
10
124.886376
20
12.585694
30
0
11
0.957424229378755
21
0.863127306657887
31
0
210
0
220
0
230
1
40
0.965787
41
-1.23996897496258
42
-0.192771423765959
0
ELLIPSE
5
11E
100
AcDbEntity
8
1
62
256
6
ByLayer
370
18
48
1
60
0
100
AcDbEllipse
10
124.886376
20
12.585694
30
0
11
0.957424229378755
21
0.863127306657887
31
0
210
0
220
0
230
1
40
0.965787
41
-2.28716652615917
42
-1.23996897496258
0
ELLIPSE
5
11F
100
AcDbEntity
8
1
62
256
6
ByLayer
370
13
48
1
60
0
100
AcDbEllipse
10
124.886376
20
12.585694
30
0
11
1.11410445216875
21
1.00437605987885
31
0
210
0
220
0
230
1
40
0.965787
41
0
42
6.28318530717959
0
ELLIPSE
5
120
100
AcDbEntity
8
1
62
256
6
ByLayer
370
18
48
1
60
0
100
AcDbEllipse
10
124.897404
20
12.573461
30
0
11
1.48547260289167
21
1.33916807983846
31
0
210
0
220
0
230
1
40
0.965787
41
0
42
6.28318530717959
0
ELLIPSE
5
121
100
AcDbEntity
8
1
62
256
6
ByLayer
370
18
48
1
60
0
100
AcDbEllipse
10
125.129483
20
12.316026
30
0
11
1.4160589920588
21
1.27659103078838
31
0
210
0
220
0
230
1
40
0.965787
41
-0.97702441409334
42
-0.716370450278804
0
ELLIPSE
5
122
100
AcDbEntity
8
1
62
256
6
ByLayer
370
18
48
1
60
0
100
AcDbEllipse
10
125.129483
20
12.316026
30
0
11
1.4160589920588
21
1.27659103078838
31
0
210
0
220
0
230
1
40
0.965787
41
-2.87817889736264
42
-2.15561254925976
0
ELLIPSE
5
123
100
AcDbEntity
8
1
62
256
6
ByLayer
370
18
48
1
60
0
100
AcDbEllipse
10
125.129483
20
12.316026
30
0
11
1.4160589920588
21
1.27659103078838
31
0
210
0
220
0
230
1
40
0.965787
41
-0.716370450278793
42
-0.263392017818931
0
ELLIPSE
5
124
100
AcDbEntity
8
1
62
256
6
ByLayer
370
13
48
1
60
0
100
AcDbEllipse
10
125.113546
20
12.333704
30
0
11
1.47805853679078
21
1.3324842267369
31
0
210
0
220
0
230
1
40
0.965787
41
-0.683972653434912
42
0
0
ELLIPSE
5
125
100
AcDbEntity
8
1
62
256
6
ByLayer
370
13
48
1
60
0
100
AcDbEllipse
10
125.113546
20
12.333704
30
0
11
1.47805853679078
21
1.3324842267369
31
0
210
0
220
0
230
1
40
0.965787
41
0
42
0.0540072749859409
0
ELLIPSE
5
126
100
AcDbEntity
8
1
62
256
6
ByLayer
370
13
48
1
60
0
100
AcDbEllipse
10
125.113546
20
12.333704
30
0
11
1.47805853679078
21
1.3324842267369
31
0
210
0
220
0
230
1
40
0.965787
41
3.0876074628005
42
-2.45769620371032
0
ELLIPSE
5
127
100
AcDbEntity
8
1
62
256
6
ByLayer
370
13
48
1
60
0
100
AcDbEllipse
10
125.063876
20
12.388801
30
0
11
1.57393633608278
21
1.41891900050995
31
0
210
0
220
0
230
1
40
0.965787
41
0.0641190051810122
42
0.535652222146294
0
ELLIPSE
5
128
100
AcDbEntity
8
1
62
256
6
ByLayer
370
18
48
1
60
0
100
AcDbEllipse
10
125.063876
20
12.388801
30
0
11
1.57393633608278
21
1.41891900050995
31
0
210
0
220
0
230
1
40
0.965787
41
-0.344680648525553
42
0
0
ELLIPSE
5
129
100
AcDbEntity
8
1
62
256
6
ByLayer
370
18
48
1
60
0
100
AcDbEllipse
10
125.063876
20
12.388801
30
0
11
1.57393633608278
21
1.41891900050995
31
0
210
0
220
0
230
1
40
0.965787
41
0
42
0.0641191635538423
0
ELLIPSE
5
12A
100
AcDbEntity
8
1
62
256
6
ByLayer
370
18
48
1
60
0
100
AcDbEllipse
10
125.063876
20
12.388801
30
0
11
1.57393633608278
21
1.41891900050995
31
0
210
0
220
0
230
1
40
0.965787
41
3.12825196495577
42
-2.79689018624956
0
ELLIPSE
5
12B
100
AcDbEntity
8
1
62
256
6
ByLayer
370
13
48
1
60
0
100
AcDbEllipse
10
125.063876
20
12.388801
30
0
11
1.57393633608278
21
1.41891900050995
31
0
210
0
220
0
230
1
40
0.965787
41
2.60596198005767
42
3.12825196495577
0
ELLIPSE
5
12C
100
AcDbEntity
8
1
62
256
6
ByLayer
370
18
48
1
60
0
100
AcDbEllipse
10
124.890536
20
12.581078
30
0
11
-1.6518626155802
21
-1.48917030361737
31
0
210
0
220
0
230
1
40
0.965787
41
0
42
6.28318530717959
0
POINT
5
70
100
AcDbEntity
8
1
62
256
6
ByLayer
370
18
48
1
60
0
100
AcDbPoint
10
61
20
0
30
0
39
0
210
0
220
0
230
1
50
360
0
POINT
5
72
100
AcDbEntity
8
80
62
256
6
ByLayer
370
18
48
1
60
0
100
AcDbPoint
10
0
20
0
30
0
39
0
210
0
220
0
230
1
50
360
0
POINT
5
74
100
AcDbEntity
8
81
62
256
6
ByLayer
370
18
48
1
60
0
100
AcDbPoint
10
130
20
16
30
0
39
0
210
0
220
0
230
1
50
360
0
POINT
5
76
100
AcDbEntity
8
1
62
256
6
ByLayer
370
18
48
1
60
1
100
AcDbPoint
10
121
20
16
30
0
39
0
210
0
220
0
230
1
50
360
0
POINT
5
77
100
AcDbEntity
8
1
62
256
6
ByLayer
370
18
48
1
60
1
100
AcDbPoint
10
90
20
16
30
0
39
0
210
0
220
0
230
1
50
360
0
POINT
5
78
100
AcDbEntity
8
1
62
256
6
ByLayer
370
18
48
1
60
1
100
AcDbPoint
10
130
20
-16
30
0
39
0
210
0
220
0
230
1
50
360
0
POINT
5
79
100
AcDbEntity
8
1
62
256
6
ByLayer
370
18
48
1
60
1
100
AcDbPoint
10
61
20
-15.996
30
0
39
0
210
0
220
0
230
1
50
360
0
SPLINE
5
12D
100
AcDbEntity
8
1
62
256
6
ByLayer
370
18
48
1
60
0
100
AcDbSpline
70
4
71
3
72
13
73
9
40
0
40
0
40
0
40
0
40
0.0468823551480763
40
0.523441177574038
40
0.523441177574038
40
0.761720588787019
40
0.761720588787019
40
1
40
1
40
1
40
1
41
1
10
120.310402852467
20
15.0965455912622
30
0
41
1
10
120.306621318934
20
15.0963253147819
30
0
41
1
10
120.264473319009
20
15.09378322948
30
0
41
1
10
120.223133372965
20
15.090325921136
30
0
41
1
10
120.167664272452
20
15.084565041598
30
0
41
1
10
120.149328544152
20
15.0824694852306
30
0
41
1
10
120.113231126623
20
15.0779820274589
30
0
41
1
10
120.095438521795
20
15.075587207499
30
0
41
1
10
120.077898281943
20
15.0730549638257
30
0
0
SPLINE
5
12E
100
AcDbEntity
8
1
62
256
6
ByLayer
370
18
48
1
60
0
100
AcDbSpline
70
4
71
3
72
8
73
4
40
0
40
0
40
0
40
0
40
1
40
1
40
1
40
1
41
1
10
120.077898281943
20
15.0730549638257
30
0
41
1
10
120.055690132234
20
15.0698488248524
30
0
41
1
10
120.033925203681
20
15.0668450335911
30
0
41
1
10
120.012620180032
20
15.064045555155
30
0
0
SPLINE
5
12F
100
AcDbEntity
8
1
62
256
6
ByLayer
370
18
48
1
60
0
100
AcDbSpline
70
4
71
3
72
10
73
6
40
0
40
0
40
0
40
0
40
0.197980751968864
40
0.197980751968864
40
1
40
1
40
1
40
1
41
1
10
121.199047971788
20
9.11919377356412
30
0
41
1
10
121.192683920444
20
9.12465495509107
30
0
41
1
10
121.186362687501
20
9.13021242549632
30
0
41
1
10
121.154707945746
20
9.15872019794818
30
0
41
1
10
121.130251952711
20
9.18293705049643
30
0
41
1
10
121.1067213826
20
9.2084729895796
30
0
0
SPLINE
5
130
100
AcDbEntity
8
1
62
256
6
ByLayer
370
18
48
1
60
0
100
AcDbSpline
70
4
71
3
72
10
73
6
40
0
40
0
40
0
40
0
40
0.0396153445867595
40
0.0396153445867595
40
1
40
1
40
1
40
1
41
1
10
128.342997771318
20
9.16743265774699
30
0
41
1
10
128.342997771318
20
9.17002709799416
30
0
41
1
10
128.342997771318
20
9.17262226278174
30
0
41
1
10
128.342997771318
20
9.23814041965451
30
0
41
1
10
128.342997771318
20
9.30166156689168
30
0
41
1
10
128.342997771318
20
9.36576565772722
30
0
0
SPLINE
5
131
100
AcDbEntity
8
1
62
256
6
ByLayer
370
18
48
1
60
0
100
AcDbSpline
70
4
71
3
72
40
73
36
40
0
40
0
40
0
40
0
40
0.0882514866940175
40
0.0882514866940175
40
0.176502973388035
40
0.176502973388035
40
0.35300594677607
40
0.35300594677607
40
0.397131690123079
40
0.397131690123079
40
0.441257433470088
40
0.441257433470088
40
0.529508920164104
40
0.529508920164104
40
0.61776040685812
40
0.61776040685812
40
0.661886150205129
40
0.661886150205129
40
0.706011893552138
40
0.706011893552138
40
0.794263380246156
40
0.794263380246156
40
0.816326251919656
40
0.816326251919656
40
0.838389123593157
40
0.838389123593157
40
0.882514866940159
40
0.882514866940159
40
0.926640610287161
40
0.926640610287161
40
0.948703481960663
40
0.948703481960663
40
0.970766353634164
40
0.970766353634164
40
1
40
1
40
1
40
1
41
1
10
119.700447714819
20
9.99745464710284
30
0
41
1
10
119.692235102473
20
9.9574927089341
30
0
41
1
10
119.685631009873
20
9.91798788787062
30
0
41
1
10
119.675545633664
20
9.83985588560725
30
0
41
1
10
119.672120874102
20
9.80165379423929
30
0
41
1
10
119.666479424066
20
9.68973050352412
30
0
41
1
10
119.668791544695
20
9.61855144915856
30
0
41
1
10
119.679697624973
20
9.53371241288585
30
0
41
1
10
119.682287070224
20
9.51697574843368
30
0
41
1
10
119.688242215068
20
9.48428915128818
30
0
41
1
10
119.69161344985
20
9.46829152143866
30
0
41
1
10
119.702932862914
20
9.42130442303119
30
0
41
1
10
119.712075715309
20
9.39131958795807
30
0
41
1
10
119.73390878121
20
9.3339052037872
30
0
41
1
10
119.746588671837
20
9.30647741857788
30
0
41
1
10
119.768877804765
20
9.26717380222314
30
0
41
1
10
119.776869476181
20
9.25436928221214
30
0
41
1
10
119.793903161566
20
9.22966225148818
30
0
41
1
10
119.802965276197
20
9.21771965809967
30
0
41
1
10
119.832041163097
20
9.18306742068111
30
0
41
1
10
119.853880633132
20
9.16153349257482
30
0
41
1
10
119.885804289004
20
9.13638326044324
30
0
41
1
10
119.892447175675
20
9.13142661913648
30
0
41
1
10
119.906143763964
20
9.1217713507618
30
0
41
1
10
119.913191737037
20
9.11707483415401
30
0
41
1
10
119.934978788033
20
9.10336841517437
30
0
41
1
10
119.950361190937
20
9.09474074167892
30
0
41
1
10
119.983086385273
20
9.07846824015257
30
0
41
1
10
120.00043125996
20
9.07082292050532
30
0
41
1
10
120.028081159058
20
9.06008992501293
30
0
41
1
10
120.037578221031
20
9.05663478448818
30
0
41
1
10
120.056736666795
20
9.05009894155231
30
0
41
1
10
120.066443747735
20
9.04699960443759
30
0
41
1
10
120.089290505011
20
9.04016187604799
30
0
41
1
10
120.102522034371
20
9.03653968271473
30
0
41
1
10
120.11594277058
20
9.03317781362719
30
0
0
SPLINE
5
132
100
AcDbEntity
8
1
62
256
6
ByLayer
370
18
48
1
60
0
100
AcDbSpline
70
4
71
3
72
8
73
4
40
0
40
0
40
0
40
0
40
1
40
1
40
1
40
1
41
1
10
119.724547447738
20
10.1342643816733
30
0
41
1
10
119.717639230351
20
10.0881735511482
30
0
41
1
10
119.709710191425
20
10.042525143772
30
0
41
1
10
119.700447714819
20
9.99745464710281
30
0
0
SPLINE
5
133
100
AcDbEntity
8
1
62
256
6
ByLayer
370
18
48
1
60
0
100
AcDbSpline
70
4
71
3
72
8
73
4
40
0
40
0
40
0
40
0
40
1
40
1
40
1
40
1
41
1
10
120.80461226702
20
9.03604591169056
30
0
41
1
10
120.771451770995
20
9.02944139372929
30
0
41
1
10
120.738046740102
20
9.02347578161243
30
0
41
1
10
120.704309056546
20
9.01820422362658
30
0
0
SPLINE
5
134
100
AcDbEntity
8
1
62
256
6
ByLayer
370
18
48
1
60
0
100
AcDbSpline
70
4
71
3
72
12
73
8
40
0
40
0
40
0
40
0
40
0.453385135817083
40
0.453385135817083
40
0.906770271634166
40
0.906770271634166
40
1
40
1
40
1
40
1
41
1
10
128.172164008941
20
9.26987531195559
30
0
41
1
10
128.176804785784
20
9.25371848683878
30
0
41
1
10
128.181784080605
20
9.23762229880552
30
0
41
1
10
128.192426031888
20
9.20555293006677
30
0
41
1
10
128.198099607086
20
9.18955447405816
30
0
41
1
10
128.20529066932
20
9.17051059439166
30
0
41
1
10
128.206529831171
20
9.16726975541204
30
0
41
1
10
128.20778161654
20
9.16403613087644
30
0
0
SPLINE
5
135
100
AcDbEntity
8
1
62
256
6
ByLayer
370
18
48
1
60
0
100
AcDbSpline
70
4
71
3
72
13
73
9
40
0
40
0
40
0
40
0
40
0.190385978517808
40
0.190385978517808
40
0.380771957035617
40
0.380771957035617
40
0.761543914071233
40
1
40
1
40
1
40
1
41
1
10
128.138530008872
20
9.23970545625161
30
0
41
1
10
128.14096882066
20
9.23218464077075
30
0
41
1
10
128.143370021746
20
9.22501358161836
30
0
41
1
10
128.148005675527
20
9.21150079832145
30
0
41
1
10
128.150246314762
20
9.20513971133008
30
0
41
1
10
128.156674817548
20
9.18722039242454
30
0
41
1
10
128.163007749877
20
9.17031059866528
30
0
41
1
10
128.167879665987
20
9.1574679565874
30
0
41
1
10
128.169499493104
20
9.15313881760056
30
0
0
SPLINE
5
136
100
AcDbEntity
8
1
62
256
6
ByLayer
370
18
48
1
60
0
100
AcDbSpline
70
4
71
3
72
8
73
4
40
0
40
0
40
0
40
0
40
1
40
1
40
1
40
1
41
1
10
129.279891962182
20
-9.12655684779992
30
0
41
1
10
129.282784601026
20
-9.14648842420303
30
0
41
1
10
129.284206110773
20
-9.16553257578153
30
0
41
1
10
129.284206110773
20
-9.18371598344254
30
0
0
SPLINE
5
137
100
AcDbEntity
8
1
62
256
6
ByLayer
370
18
48
1
60
0
100
AcDbSpline
70
4
71
3
72
8
73
4
40
0
40
0
40
0
40
0
40
1
40
1
40
1
40
1
41
1
10
129.185583411417
20
-8.4753655209243
30
0
41
1
10
129.217020208644
20
-8.6929072218891
30
0
41
1
10
129.248456270358
20
-8.90995086020999
30
0
41
1
10
129.279891962182
20
-9.12655684780438
30
0
0
SPLINE
5
138
100
AcDbEntity
8
1
62
256
6
ByLayer
370
18
48
1
60
0
100
AcDbSpline
70
4
71
3
72
8
73
4
40
0
40
0
40
0
40
0
40
1
40
1
40
1
40
1
41
1
10
122.5637074278
20
-3.326760608993
30
0
41
1
10
122.573784521358
20
-3.33808887755973
30
0
41
1
10
122.583861579036
20
-3.34941714530737
30
0
41
1
10
122.593938513058
20
-3.36074541023072
30
0
0
SPLINE
5
139
100
AcDbEntity
8
1
62
256
6
ByLayer
370
18
48
1
60
0
100
AcDbSpline
70
4
71
3
72
8
73
4
40
0
40
0
40
0
40
0
40
1
40
1
40
1
40
1
41
1
10
120.012620180032
20
15.0640455551462
30
0
41
1
10
119.702087671668
20
14.2706713192065
30
0
41
1
10
119.38998801228
20
13.4781179953541
30
0
41
1
10
119.076531483227
20
12.6862513288815
30
0
0
SPLINE
5
13A
100
AcDbEntity
8
1
62
256
6
ByLayer
370
18
48
1
60
0
100
AcDbSpline
70
4
71
3
72
10
73
6
40
0
40
0
40
0
40
0
40
0.5
40
0.5
40
1
40
1
40
1
40
1
41
1
10
118.231480942139
20
14.5599409040753
30
0
41
1
10
118.527923686736
20
14.6451716475165
30
0
41
1
10
118.824447065948
20
14.7298369720819
30
0
41
1
10
119.417921446779
20
14.8979506637561
30
0
41
1
10
119.714840946696
20
14.9814044617663
30
0
41
1
10
120.012620180031
20
15.064045555154
30
0
0
SPLINE
5
13B
100
AcDbEntity
8
1
62
256
6
ByLayer
370
18
48
1
60
0
100
AcDbSpline
70
4
71
3
72
9
73
5
40
0
40
0
40
0
40
0
40
0.5
40
1
40
1
40
1
40
1
41
1
10
118.231480942139
20
14.5599409040753
30
0
41
1
10
118.154130832585
20
14.537701846238
30
0
41
1
10
117.998487428659
20
14.5023494488137
30
0
41
1
10
117.841037011281
20
14.4847040721606
30
0
41
1
10
117.761860999579
20
14.4803594484421
30
0
0
SPLINE
5
13C
100
AcDbEntity
8
1
62
256
6
ByLayer
370
18
48
1
60
0
100
AcDbSpline
70
4
71
3
72
8
73
4
40
0
40
0
40
0
40
0
40
1
40
1
40
1
40
1
41
1
10
126.323662973753
20
9.12773785393816
30
0
41
1
10
126.315673224302
20
9.12757742684516
30
0
41
1
10
126.307680904207
20
9.12740923061671
30
0
41
1
10
126.299686010018
20
9.12723325480005
30
0
0
SPLINE
5
13D
100
AcDbEntity
8
1
62
256
6
ByLayer
370
18
48
1
60
0
100
AcDbSpline
70
4
71
3
72
46
73
42
40
0
40
0
40
0
40
0
40
0.0718635961582356
40
0.143727192316471
40
0.143727192316471
40
0.179658990395589
40
0.179658990395589
40
0.215590788474707
40
0.215590788474707
40
0.287454384632945
40
0.287454384632945
40
0.323386182712067
40
0.323386182712067
40
0.34135208175163
40
0.34135208175163
40
0.359317980791193
40
0.359317980791193
40
0.395249778870319
40
0.395249778870319
40
0.431181576949445
40
0.431181576949445
40
0.503045173107703
40
0.503045173107703
40
0.574908769265962
40
0.574908769265962
40
0.610840567345091
40
0.610840567345091
40
0.64677236542422
40
0.64677236542422
40
0.718635961582486
40
0.718635961582486
40
0.790499557740752
40
0.790499557740752
40
0.826431355819885
40
0.826431355819885
40
0.844397254859446
40
0.844397254859446
40
0.862363153899007
40
0.934226750057261
40
0.934226750057261
40
1
40
1
40
1
40
1
41
1
10
118.791177535635
20
11.2050420531323
30
0
41
1
10
118.781676984068
20
11.1320777896076
30
0
41
1
10
118.770475607604
20
10.9864734384733
30
0
41
1
10
118.774605529263
20
10.84149280146
30
0
41
1
10
118.783551922594
20
10.7329899190601
30
0
41
1
10
118.787525722652
20
10.6967729418901
30
0
41
1
10
118.797371415807
20
10.6250585917301
30
0
41
1
10
118.803241392186
20
10.5895202218034
30
0
41
1
10
118.823646724681
20
10.4838443044977
30
0
41
1
10
118.840969681789
20
10.4146433212874
30
0
41
1
10
118.872495778638
20
10.3126969438366
30
0
41
1
10
118.883930053179
20
10.279024664226
30
0
41
1
10
118.902483017205
20
10.2289846016177
30
0
41
1
10
118.908901240596
20
10.2123826899252
30
0
41
1
10
118.922207492352
20
10.1793361269677
30
0
41
1
10
118.929128072537
20
10.1628928360135
30
0
41
1
10
118.950152464984
20
10.1137822831161
30
0
41
1
10
118.964627331717
20
10.0812985265662
30
0
41
1
10
118.994334918481
20
10.01711254578
30
0
41
1
10
119.009533849977
20
9.98551395888708
30
0
41
1
10
119.056324602984
20
9.89222690887436
30
0
41
1
10
119.089086911256
20
9.83204168438493
30
0
41
1
10
119.158581843052
20
9.71589393807272
30
0
41
1
10
119.195319619912
20
9.65993309318065
30
0
41
1
10
119.254174677213
20
9.57938376482895
30
0
41
1
10
119.274418394747
20
9.55309980207608
30
0
41
1
10
119.316302624057
20
9.50170746379243
30
0
41
1
10
119.338003321839
20
9.47653864376343
30
0
41
1
10
119.404768553386
20
9.40358333381573
30
0
41
1
10
119.451600593973
20
9.35818610844842
30
0
41
1
10
119.550579380847
20
9.27384327040315
30
0
41
1
10
119.602719031997
20
9.23489479747261
30
0
41
1
10
119.685479562905
20
9.18135342150265
30
0
41
1
10
119.713826711409
20
9.16432081112831
30
0
41
1
10
119.757573299109
20
9.14001096368816
30
0
41
1
10
119.772388269972
20
9.13210028205739
30
0
41
1
10
119.80225304476
20
9.11679143449248
30
0
41
1
10
119.877537733684
20
9.07977747862634
30
0
41
1
10
119.95595720478
20
9.04890052485541
30
0
41
1
10
120.080132289239
20
9.0087340884088
30
0
41
1
10
120.141228974035
20
8.99266113987773
30
0
41
1
10
120.204179135041
20
8.97970397061161
30
0
0
SPLINE
5
13E
100
AcDbEntity
8
1
62
256
6
ByLayer
370
18
48
1
60
0
100
AcDbSpline
70
4
71
3
72
10
73
6
40
0
40
0
40
0
40
0
40
0.602749217852491
40
0.602749217852491
40
1
40
1
40
1
40
1
41
1
10
118.892358166233
20
11.9788350614783
30
0
41
1
10
118.871940348989
20
11.82338977134
30
0
41
1
10
118.851579946641
20
11.6679300299552
30
0
41
1
10
118.81788449178
20
11.409991123866
30
0
41
1
10
118.80452090188
20
11.307519144516
30
0
41
1
10
118.791177535635
20
11.2050420531322
30
0
0
SPLINE
5
13F
100
AcDbEntity
8
1
62
256
6
ByLayer
370
18
48
1
60
0
100
AcDbSpline
70
4
71
3
72
12
73
8
40
0
40
0
40
0
40
0
40
0.499999999999996
40
0.499999999999996
40
0.749999999999998
40
0.749999999999998
40
1
40
1
40
1
40
1
41
1
10
119.076531483227
20
12.6862513288823
30
0
41
1
10
119.031284222035
20
12.5719458524713
30
0
41
1
10
118.993261185051
20
12.4557003621329
30
0
41
1
10
118.947062917819
20
12.2784127070982
30
0
41
1
10
118.933472969541
20
12.2187899075168
30
0
41
1
10
118.910092134681
20
12.0991902847271
30
0
41
1
10
118.900279205636
20
12.0391396598318
30
0
41
1
10
118.892358166233
20
11.9788350614782
30
0
0
SPLINE
5
140
100
AcDbEntity
8
1
62
256
6
ByLayer
370
18
48
1
60
0
100
AcDbSpline
70
4
71
3
72
12
73
8
40
0
40
0
40
0
40
0
40
0.250000000000026
40
0.250000000000026
40
0.500000000000052
40
0.500000000000052
40
1
40
1
40
1
40
1
41
1
10
121.141509068499
20
-5.94950386184567
30
0
41
1
10
121.12480977615
20
-5.94536950169407
30
0
41
1
10
121.107997735096
20
-5.94209655665679
30
0
41
1
10
121.074490586462
20
-5.93733077823552
30
0
41
1
10
121.057905906254
20
-5.93584730462939
30
0
41
1
10
121.008631192705
20
-5.93393301682733
30
0
41
1
10
120.976419666505
20
-5.93602777496835
30
0
41
1
10
120.944787463218
20
-5.94121675163166
30
0
0
SPLINE
5
141
100
AcDbEntity
8
1
62
256
6
ByLayer
370
18
48
1
60
0
100
AcDbSpline
70
4
71
3
72
152
73
148
40
0
40
0
40
0
40
0
40
0.0156250000000013
40
0.0156250000000013
40
0.0312500000000026
40
0.0312500000000026
40
0.0390625000000032
40
0.0390625000000032
40
0.0468750000000039
40
0.0468750000000039
40
0.0625000000000051
40
0.0625000000000051
40
0.0937500000000066
40
0.0937500000000066
40
0.125000000000008
40
0.125000000000008
40
0.156250000000009
40
0.156250000000009
40
0.171875000000011
40
0.171875000000011
40
0.179687500000012
40
0.179687500000012
40
0.187500000000013
40
0.187500000000013
40
0.218750000000017
40
0.218750000000017
40
0.25000000000002
40
0.25000000000002
40
0.265625000000022
40
0.265625000000022
40
0.273437500000023
40
0.273437500000023
40
0.281250000000024
40
0.281250000000024
40
0.312500000000027
40
0.312500000000027
40
0.343750000000031
40
0.343750000000031
40
0.359375000000032
40
0.359375000000032
40
0.363281250000032
40
0.363281250000032
40
0.367187500000033
40
0.375000000000033
40
0.375000000000033
40
0.406250000000032
40
0.406250000000032
40
0.437500000000032
40
0.437500000000032
40
0.441406250000032
40
0.441406250000032
40
0.445312500000032
40
0.445312500000032
40
0.453125000000033
40
0.453125000000033
40
0.468750000000033
40
0.468750000000033
40
0.500000000000034
40
0.500000000000034
40
0.515625000000035
40
0.515625000000035
40
0.523437500000035
40
0.523437500000035
40
0.527343750000035
40
0.527343750000035
40
0.531250000000035
40
0.531250000000035
40
0.562500000000036
40
0.562500000000036
40
0.593750000000036
40
0.593750000000036
40
0.609375000000036
40
0.609375000000036
40
0.617187500000036
40
0.617187500000036
40
0.625000000000036
40
0.625000000000036
40
0.640625000000036
40
0.640625000000036
40
0.648437500000036
40
0.648437500000036
40
0.650390625000036
40
0.650390625000036
40
0.652343750000036
40
0.652343750000036
40
0.656250000000035
40
0.656250000000035
40
0.658203125000035
40
0.658203125000035
40
0.660156250000035
40
0.660156250000035
40
0.664062500000034
40
0.664062500000034
40
0.671875000000033
40
0.671875000000033
40
0.68750000000003
40
0.68750000000003
40
0.691406250000029
40
0.691406250000029
40
0.695312500000029
40
0.695312500000029
40
0.703125000000027
40
0.703125000000027
40
0.718750000000023
40
0.718750000000023
40
0.722656250000022
40
0.722656250000022
40
0.726562500000021
40
0.726562500000021
40
0.734375000000019
40
0.734375000000019
40
0.750000000000017
40
0.750000000000017
40
0.757812500000015
40
0.757812500000015
40
0.761718750000015
40
0.761718750000015
40
0.765625000000014
40
0.765625000000014
40
0.78125000000001
40
0.78125000000001
40
0.796875000000006
40
0.796875000000006
40
0.804687500000005
40
0.804687500000005
40
0.808593750000004
40
0.808593750000004
40
0.812500000000004
40
0.828125000000003
40
0.828125000000003
40
0.832031250000003
40
0.832031250000003
40
0.833984375000004
40
0.833984375000004
40
0.835937500000004
40
0.835937500000004
40
0.843750000000005
40
0.843750000000005
40
0.875000000000004
40
0.875000000000004
40
0.906250000000003
40
0.906250000000003
40
0.937500000000002
40
0.937500000000002
40
0.968750000000001
40
0.968750000000001
40
1
40
1
40
1
40
1
41
1
10
117.761860999579
20
8.98050351573298
30
0
41
1
10
117.582281506289
20
8.99104203181665
30
0
41
1
10
117.402866194675
20
9.00347854757277
30
0
41
1
10
117.044760133512
20
9.03272832750065
30
0
41
1
10
116.866058443412
20
9.04961595554303
30
0
41
1
10
116.598524981279
20
9.07825575998629
30
0
41
1
10
116.509432868669
20
9.08834845800732
30
0
41
1
10
116.331419077518
20
9.10961297966168
30
0
41
1
10
116.24252115875
20
9.12078313710271
30
0
41
1
10
115.976569590223
20
9.15583817068489
30
0
41
1
10
115.800102252157
20
9.18128431559239
30
0
41
1
10
115.273201111985
20
9.26374548300402
30
0
41
1
10
114.92524558239
20
9.32683430768529
30
0
41
1
10
114.236395374724
20
9.46962719371163
30
0
41
1
10
113.895519275701
20
9.54938069791416
30
0
41
1
10
113.221444913423
20
9.72604740266206
30
0
41
1
10
112.888246142741
20
9.82296284831145
30
0
41
1
10
112.394727272219
20
9.98147071011158
30
0
41
1
10
112.231268359371
20
10.0364945404518
30
0
41
1
10
111.987725797462
20
10.1223341611005
30
0
41
1
10
111.906794169469
20
10.1515092208087
30
0
41
1
10
111.74620896311
20
10.2107028516657
30
0
41
1
10
111.666467575152
20
10.240751736597
30
0
41
1
10
111.27055361207
20
10.3932211658468
30
0
41
1
10
110.962744774538
20
10.5223205601338
30
0
41
1
10
110.366150925305
20
10.7938115762387
30
0
41
1
10
110.077362355057
20
10.9362066630409
30
0
41
1
10
109.65965860268
20
11.1589419954536
30
0
41
1
10
109.523007624363
20
11.2347093924798
30
0
41
1
10
109.322097915087
20
11.3505218901667
30
0
41
1
10
109.255806107776
20
11.3894861392512
30
0
41
1
10
109.124614529562
20
11.46811240778
30
0
41
1
10
109.059661348391
20
11.5078100707943
30
0
41
1
10
108.740461039365
20
11.7067200088162
30
0
41
1
10
108.501356813318
20
11.8680947617828
30
0
41
1
10
108.05614169643
20
12.1922999103292
30
0
41
1
10
107.850032666472
20
12.3551382423852
30
0
41
1
10
107.566325684733
20
12.5979764682295
30
0
41
1
10
107.476003017175
20
12.6786828244605
30
0
41
1
10
107.368512044922
20
12.7789731747206
30
0
41
1
10
107.347294574133
20
12.7989926749403
30
0
41
1
10
107.305562051069
20
12.838810889694
30
0
41
1
10
107.243956154947
20
12.8982634862912
30
0
41
1
10
107.185296446088
20
12.9568659251058
30
0
41
1
10
106.996175111914
20
13.1502040552326
30
0
41
1
10
106.865357874612
20
13.2984621934817
30
0
41
1
10
106.641788166201
20
13.5792863260436
30
0
41
1
10
106.549036912691
20
13.7118587473295
30
0
41
1
10
106.464929611801
20
13.8505279237541
30
0
41
1
10
106.455865949193
20
13.8657900032428
30
0
41
1
10
106.438298592823
20
13.8960169530248
30
0
41
1
10
106.429788146451
20
13.910994119635
30
0
41
1
10
106.405147072109
20
13.9553711050518
30
0
41
1
10
106.389915057103
20
13.984197980844
30
0
41
1
10
106.347665750886
20
14.0684007011353
30
0
41
1
10
106.324091628069
20
14.1214991521847
30
0
41
1
10
106.266167699337
20
14.2716302881093
30
0
41
1
10
106.244569413605
20
14.3595084359913
30
0
41
1
10
106.234734387626
20
14.4726358713891
30
0
41
1
10
106.235228652118
20
14.5072277331881
30
0
41
1
10
106.241360532351
20
14.5543695805838
30
0
41
1
10
106.244303590776
20
14.5692923672731
30
0
41
1
10
106.250039172684
20
14.5904794237265
30
0
41
1
10
106.252171044897
20
14.5973400197503
30
0
41
1
10
106.25685738966
20
14.6106282320367
30
0
41
1
10
106.259412987503
20
14.6170602866694
30
0
41
1
10
106.284286638313
20
14.6730535283609
30
0
41
1
10
106.319648694408
20
14.7093736594539
30
0
41
1
10
106.413484699645
20
14.7562462463011
30
0
41
1
10
106.471971758135
20
14.7667944551342
30
0
41
1
10
106.575569390312
20
14.7637307574389
30
0
41
1
10
106.612756841566
20
14.7595580462487
30
0
41
1
10
106.672411131141
20
14.7485955798309
30
0
41
1
10
106.692956671046
20
14.7441534876465
30
0
41
1
10
106.735250801318
20
14.7337221221173
30
0
41
1
10
106.756989181375
20
14.7277364606597
30
0
41
1
10
106.823940247043
20
14.7074998069022
30
0
41
1
10
106.870884931194
20
14.690969972909
30
0
41
1
10
106.944657330396
20
14.6617210862591
30
0
41
1
10
106.969813520581
20
14.6512289961281
30
0
41
1
10
107.002002877601
20
14.6371970655648
30
0
41
1
10
107.008487237304
20
14.6343451984381
30
0
41
1
10
107.021464034372
20
14.6285474680057
30
0
41
1
10
107.027930420203
20
14.6256004596524
30
0
41
1
10
107.048230058923
20
14.6166539845062
30
0
41
1
10
107.062762631135
20
14.6105415730173
30
0
41
1
10
107.086261908836
20
14.6011705142369
30
0
41
1
10
107.094364930732
20
14.5980125487989
30
0
41
1
10
107.111111247121
20
14.5916299968774
30
0
41
1
10
107.119756356426
20
14.5884050727335
30
0
41
1
10
107.146368081417
20
14.5786822647505
30
0
41
1
10
107.165051909138
20
14.5721205664398
30
0
41
1
10
107.223823171529
20
14.5522287734654
30
0
41
1
10
107.266619838806
20
14.5386917532283
30
0
41
1
10
107.40521169318
20
14.4974997291162
30
0
41
1
10
107.511193874683
20
14.469270011655
30
0
41
1
10
107.659549436541
20
14.433789349475
30
0
41
1
10
107.690072011487
20
14.4266721701385
30
0
41
1
10
107.752183764402
20
14.4125557479163
30
0
41
1
10
107.783823028898
20
14.40554438187
30
0
41
1
10
107.880419139273
20
14.3846716236406
30
0
41
1
10
107.947047838763
20
14.3709707931622
30
0
41
1
10
108.153198492359
20
14.3306745874617
30
0
41
1
10
108.298985665769
20
14.3048954448918
30
0
41
1
10
108.490857002837
20
14.2745520221426
30
0
41
1
10
108.529674075165
20
14.2685843655578
30
0
41
1
10
108.607732182407
20
14.256926758382
30
0
41
1
10
108.647034943779
20
14.2512269492498
30
0
41
1
10
108.765738981441
20
14.2345239800359
30
0
41
1
10
108.845934393167
20
14.2239170167118
30
0
41
1
10
109.089496396533
20
14.193725918575
30
0
41
1
10
109.255829518423
20
14.17577305842
30
0
41
1
10
109.510871596572
20
14.152377759434
30
0
41
1
10
109.596808973027
20
14.1451657160167
30
0
41
1
10
109.727076244361
20
14.135261264497
30
0
41
1
10
109.770725855083
20
14.1321121680489
30
0
41
1
10
109.858479253748
20
14.1261259184989
30
0
41
1
10
109.902623146326
20
14.1232870252432
30
0
41
1
10
110.123310202942
20
14.109955025419
30
0
41
1
10
110.300558494684
20
14.1019757532424
30
0
41
1
10
110.65636001774
20
14.0913088490762
30
0
41
1
10
110.834915057953
20
14.0886271710268
30
0
41
1
10
111.103700924287
20
14.0885369135153
30
0
41
1
10
111.193456247119
20
14.089165477515
30
0
41
1
10
111.328329751294
20
14.0910941841687
30
0
41
1
10
111.373370378838
20
14.091902152445
30
0
41
1
10
111.463333343739
20
14.0938414686073
30
0
41
1
10
111.687578053777
20
14.099486263247
30
0
41
1
10
111.908550209871
20
14.1090502232274
30
0
41
1
10
112.12701653322
20
14.1214574404644
30
0
41
1
10
112.170586505622
20
14.1240783311871
30
0
41
1
10
112.235746715923
20
14.1282263634946
30
0
41
1
10
112.257434116163
20
14.1296454016432
30
0
41
1
10
112.300738622259
20
14.132561245524
30
0
41
1
10
112.32237374627
20
14.1340368086638
30
0
41
1
10
112.430569733886
20
14.1413778635499
30
0
41
1
10
112.517098829035
20
14.1472424743556
30
0
41
1
10
112.949604994344
20
14.1765186278023
30
0
41
1
10
113.295159176322
20
14.1997961022652
30
0
41
1
10
113.985315252776
20
14.2459365282746
30
0
41
1
10
114.329915470702
20
14.2688003233899
30
0
41
1
10
115.018197712237
20
14.3138794536592
30
0
41
1
10
115.361878338804
20
14.3360947555095
30
0
41
1
10
116.04847234016
20
14.3795402482422
30
0
41
1
10
116.391383758769
20
14.4007696351862
30
0
41
1
10
117.076788753906
20
14.4417835877951
30
0
41
1
10
117.419286845928
20
14.4615613837087
30
0
41
1
10
117.761860999579
20
14.4803594484421
30
0
0
SPLINE
5
142
100
AcDbEntity
8
1
62
256
6
ByLayer
370
18
48
1
60
0
100
AcDbSpline
70
4
71
3
72
12
73
8
40
0
40
0
40
0
40
0
40
0.499999999999957
40
0.499999999999957
40
0.749999999999978
40
0.749999999999978
40
1
40
1
40
1
40
1
41
1
10
117.761860999579
20
8.98050351573298
30
0
41
1
10
117.841614114206
20
8.97582325149
30
0
41
1
10
117.920721269011
20
8.97187977923983
30
0
41
1
10
118.038455721577
20
8.9671386834344
30
0
41
1
10
118.077558517557
20
8.96575291484046
30
0
41
1
10
118.15500254403
20
8.96337907678407
30
0
41
1
10
118.193401243639
20
8.96238845956699
30
0
41
1
10
118.231480942139
20
8.96158837096021
30
0
0
SPLINE
5
143
100
AcDbEntity
8
1
62
256
6
ByLayer
370
18
48
1
60
0
100
AcDbSpline
70
4
71
3
72
8
73
4
40
0
40
0
40
0
40
0
40
1
40
1
40
1
40
1
41
1
10
126.299686010018
20
6.43925759566494
30
0
41
1
10
126.307610823119
20
6.44353990570227
30
0
41
1
10
126.315601950375
20
6.44767581421115
30
0
41
1
10
126.323662973753
20
6.45165764484886
30
0
0
SPLINE
5
144
100
AcDbEntity
8
1
62
256
6
ByLayer
370
18
48
1
60
0
100
AcDbSpline
70
4
71
3
72
8
73
4
40
0
40
0
40
0
40
0
40
1
40
1
40
1
40
1
41
1
10
120.077898281963
20
-6.06784875277864
30
0
41
1
10
120.055682755444
20
-6.0777942080571
30
0
41
1
10
120.033918050072
20
-6.088427475191
30
0
41
1
10
120.012620180033
20
-6.09976903693882
30
0
0
SPLINE
5
145
100
AcDbEntity
8
1
62
256
6
ByLayer
370
18
48
1
60
0
100
AcDbSpline
70
4
71
3
72
16
73
12
40
0
40
0
40
0
40
0
40
0.124999999999993
40
0.124999999999993
40
0.249999999999985
40
0.249999999999985
40
0.49999999999999
40
0.49999999999999
40
0.749999999999995
40
0.749999999999995
40
1
40
1
40
1
40
1
41
1
10
120.077898281954
20
8.98199297823257
30
0
41
1
10
120.000589340229
20
8.97928675632915
30
0
41
1
10
119.923315965104
20
8.97678371447591
30
0
41
1
10
119.768883291576
20
8.97244440393504
30
0
41
1
10
119.691715531021
20
8.97056431934976
30
0
41
1
10
119.460288141466
20
8.96522414093221
30
0
41
1
10
119.306108133305
20
8.96211514586398
30
0
41
1
10
118.998159114458
20
8.95778192627935
30
0
41
1
10
118.844383817608
20
8.95652606868455
30
0
41
1
10
118.537442713661
20
8.95682125478487
30
0
41
1
10
118.384278130845
20
8.9583779650315
30
0
41
1
10
118.231480942139
20
8.96158837096021
30
0
0
SPLINE
5
146
100
AcDbEntity
8
1
62
256
6
ByLayer
370
18
48
1
60
0
100
AcDbSpline
70
4
71
3
72
33
73
29
40
0
40
0
40
0
40
0
40
0.0312500000000179
40
0.0312500000000179
40
0.0625000000000358
40
0.0625000000000358
40
0.125000000000071
40
0.125000000000071
40
0.250000000000147
40
0.250000000000147
40
0.312500000000168
40
0.312500000000168
40
0.37500000000019
40
0.437500000000211
40
0.437500000000211
40
0.500000000000232
40
0.500000000000232
40
0.62500000000021
40
0.62500000000021
40
0.687500000000161
40
0.687500000000161
40
0.750000000000112
40
0.750000000000112
40
0.875000000000102
40
0.875000000000102
40
0.937500000000051
40
0.937500000000051
40
1
40
1
40
1
40
1
41
1
10
129.284206110778
20
-4.68751967788324
30
0
41
1
10
129.284455425984
20
-4.68956469935094
30
0
41
1
10
129.284489884153
20
-4.69158642250829
30
0
41
1
10
129.284122072799
20
-4.69558115952566
30
0
41
1
10
129.283717878989
20
-4.69755596571949
30
0
41
1
10
129.281862811943
20
-4.70334093604268
30
0
41
1
10
129.279771358932
20
-4.70703354373737
30
0
41
1
10
129.271010027683
20
-4.71761506530606
30
0
41
1
10
129.261875693742
20
-4.72401303673715
30
0
41
1
10
129.243123552924
20
-4.73251552396619
30
0
41
1
10
129.236066749492
20
-4.73514238312481
30
0
41
1
10
129.220558792589
20
-4.7399147759507
30
0
41
1
10
129.203609926405
20
-4.74422751776089
30
0
41
1
10
129.183826877954
20
-4.74760522234058
30
0
41
1
10
129.162612005452
20
-4.75049481906188
30
0
41
1
10
129.151222524008
20
-4.75169945671473
30
0
41
1
10
129.115454027561
20
-4.7544879831766
30
0
41
1
10
129.089477111908
20
-4.75527261679753
30
0
41
1
10
129.047424301338
20
-4.75480479519339
30
0
41
1
10
129.032888628516
20
-4.75437307907555
30
0
41
1
10
129.002757097255
20
-4.75293131609683
30
0
41
1
10
128.987257652196
20
-4.75192353530093
30
0
41
1
10
128.9400910568
20
-4.74808336424417
30
0
41
1
10
128.907525717554
20
-4.74443025642543
30
0
41
1
10
128.8570137179
20
-4.73725883477064
30
0
41
1
10
128.839833543165
20
-4.73457355828992
30
0
41
1
10
128.805225392314
20
-4.72866349594787
30
0
41
1
10
128.787836862827
20
-4.72544754700365
30
0
41
1
10
128.770364904754
20
-4.72196858433537
30
0
0
SPLINE
5
147
100
AcDbEntity
8
1
62
256
6
ByLayer
370
18
48
1
60
0
100
AcDbSpline
70
4
71
3
72
32
73
28
40
0
40
0
40
0
40
0
40
0.124999999999901
40
0.124999999999901
40
0.249999999999803
40
0.249999999999803
40
0.312499999999753
40
0.312499999999753
40
0.374999999999704
40
0.374999999999704
40
0.4999999999996
40
0.4999999999996
40
0.562499999999574
40
0.562499999999574
40
0.624999999999547
40
0.624999999999547
40
0.749999999999497
40
0.749999999999497
40
0.781249999999521
40
0.781249999999521
40
0.812499999999544
40
0.874999999999668
40
0.937499999999792
40
0.937499999999792
40
0.968749999999896
40
0.968749999999896
40
1
40
1
40
1
40
1
41
1
10
129.284206110778
20
9.14185961661249
30
0
41
1
10
129.285145461323
20
9.14463557763588
30
0
41
1
10
129.283037951404
20
9.14731083764858
30
0
41
1
10
129.272924177511
20
9.15246640136638
30
0
41
1
10
129.264919302874
20
9.15494675096824
30
0
41
1
10
129.248188266733
20
9.15851115726102
30
0
41
1
10
129.241779798535
20
9.15967875848557
30
0
41
1
10
129.227493955749
20
9.16192303979753
30
0
41
1
10
129.219625553366
20
9.16300041728647
30
0
41
1
10
129.193826951812
20
9.16609721547297
30
0
41
1
10
129.173726631676
20
9.16798273781205
30
0
41
1
10
129.138786380976
20
9.1705154937936
30
0
41
1
10
129.126336163814
20
9.17131017210639
30
0
41
1
10
129.099670931577
20
9.17279064220006
30
0
41
1
10
129.085606070468
20
9.17346734059075
30
0
41
1
10
129.041554846888
20
9.17528207216549
30
0
41
1
10
129.00958173321
20
9.17621654562194
30
0
41
1
10
128.965897624225
20
9.17699177568812
30
0
41
1
10
128.956966291641
20
9.17712682287166
30
0
41
1
10
128.9389698586
20
9.17735236228418
30
0
41
1
10
128.91168316458
20
9.17762554605312
30
0
41
1
10
128.864748927707
20
9.17775607547219
30
0
41
1
10
128.825604895923
20
9.17750445210825
30
0
41
1
10
128.79560870404
20
9.17717342486964
30
0
41
1
10
128.785477488857
20
9.17703883112762
30
0
41
1
10
128.765182119154
20
9.17672299770493
30
0
41
1
10
128.755006270334
20
9.17654175200263
30
0
41
1
10
128.74480201228
20
9.1763369741258
30
0
0
SPLINE
5
148
100
AcDbEntity
8
1
62
256
6
ByLayer
370
18
48
1
60
0
100
AcDbSpline
70
4
71
3
72
8
73
4
40
0
40
0
40
0
40
0
40
1
40
1
40
1
40
1
41
1
10
128.74480201228
20
-4.7171739297055
30
0
41
1
10
128.753376839788
20
-4.7186838416209
30
0
41
1
10
128.761897355594
20
-4.72028255193459
30
0
41
1
10
128.770364904754
20
-4.72196858433534
30
0
0
SPLINE
5
149
100
AcDbEntity
8
1
62
256
6
ByLayer
370
18
48
1
60
0
100
AcDbSpline
70
4
71
3
72
15
73
11
40
0
40
0
40
0
40
0
40
0.250000000000001
40
0.250000000000001
40
0.500000000000002
40
0.750000000000004
40
0.750000000000004
40
0.875000000000002
40
0.875000000000002
40
1
40
1
40
1
40
1
41
1
10
120.537308409781
20
-5.93497280114227
30
0
41
1
10
120.49612997097
20
-5.9410770780589
30
0
41
1
10
120.455734580529
20
-5.94854940033804
30
0
41
1
10
120.376361752097
20
-5.96596564873531
30
0
41
1
10
120.298407985871
20
-5.98585582755862
30
0
41
1
10
120.223133372983
20
-6.01047402119747
30
0
41
1
10
120.167664272471
20
-6.03073000198765
30
0
41
1
10
120.149328544171
20
-6.03778755141306
30
0
41
1
10
120.113231126643
20
-6.05241538041753
30
0
41
1
10
120.095438521815
20
-6.05999633159573
30
0
41
1
10
120.077898281963
20
-6.06784875277862
30
0
0
SPLINE
5
14A
100
AcDbEntity
8
1
62
256
6
ByLayer
370
18
48
1
60
0
100
AcDbSpline
70
4
71
3
72
10
73
6
40
0
40
0
40
0
40
0
40
0.5
40
0.5
40
1
40
1
40
1
40
1
41
1
10
120.537308409774
20
8.99574593724159
30
0
41
1
10
120.459348512066
20
8.99386047688728
30
0
41
1
10
120.382094018997
20
8.99172696584498
30
0
41
1
10
120.228959948145
20
8.98710748881587
30
0
41
1
10
120.153080669821
20
8.98462475950208
30
0
41
1
10
120.077898281954
20
8.98199297823257
30
0
0
SPLINE
5
14B
100
AcDbEntity
8
1
62
256
6
ByLayer
370
18
48
1
60
0
100
AcDbSpline
70
4
71
3
72
8
73
4
40
0
40
0
40
0
40
0
40
1
40
1
40
1
40
1
41
1
10
126.299686010018
20
-4.29142809325845
30
0
41
1
10
126.30769080079
20
-4.29273034868635
30
0
41
1
10
126.315683087911
20
-4.29407004123681
30
0
41
1
10
126.323662973753
20
-4.29544686557583
30
0
0
SPLINE
5
14C
100
AcDbEntity
8
1
62
256
6
ByLayer
370
18
48
1
60
0
100
AcDbSpline
70
4
71
3
72
57
73
53
40
0
40
0
40
0
40
0
40
0.062499999999924
40
0.062499999999924
40
0.0937499999998859
40
0.0937499999998859
40
0.109374999999867
40
0.109374999999867
40
0.124999999999847
40
0.124999999999847
40
0.18749999999981
40
0.18749999999981
40
0.218749999999781
40
0.218749999999781
40
0.234374999999766
40
0.234374999999766
40
0.249999999999752
40
0.249999999999752
40
0.312499999999751
40
0.312499999999751
40
0.328124999999751
40
0.328124999999751
40
0.343749999999752
40
0.343749999999752
40
0.374999999999769
40
0.374999999999769
40
0.437499999999802
40
0.437499999999802
40
0.453124999999811
40
0.453124999999811
40
0.468749999999819
40
0.499999999999849
40
0.499999999999849
40
0.562499999999896
40
0.562499999999896
40
0.578124999999904
40
0.578124999999904
40
0.593749999999911
40
0.593749999999911
40
0.624999999999918
40
0.624999999999918
40
0.687499999999932
40
0.687499999999932
40
0.749999999999945
40
0.749999999999945
40
0.781249999999952
40
0.781249999999952
40
0.812499999999958
40
0.812499999999958
40
0.874999999999972
40
0.874999999999972
40
1
40
1
40
1
40
1
41
1
10
126.323662973753
20
6.45165764484886
30
0
41
1
10
126.400830014978
20
6.48977514861534
30
0
41
1
10
126.480288103265
20
6.52219563010084
30
0
41
1
10
126.603234950532
20
6.56158759807988
30
0
41
1
10
126.644846213907
20
6.5731724499318
30
0
41
1
10
126.708274974422
20
6.5880737025357
30
0
41
1
10
126.72958676993
20
6.59262753514599
30
0
41
1
10
126.772562758714
20
6.60087433350122
30
0
41
1
10
126.794271337188
20
6.60457200059733
30
0
41
1
10
126.902631342285
20
6.62066053620796
30
0
41
1
10
126.989418384971
20
6.62606041513615
30
0
41
1
10
127.119755096177
20
6.62247560002672
30
0
41
1
10
127.163226782034
20
6.6193241349801
30
0
41
1
10
127.228475414585
20
6.61150601120701
30
0
41
1
10
127.250231817111
20
6.60838406630643
30
0
41
1
10
127.293758765433
20
6.60107221465245
30
0
41
1
10
127.315373355071
20
6.59690705176709
30
0
41
1
10
127.422294362755
20
6.57365226914692
30
0
41
1
10
127.504602992022
20
6.54725199546832
30
0
41
1
10
127.603572343568
20
6.50472530447453
30
0
41
1
10
127.623169213366
20
6.49574065477898
30
0
41
1
10
127.661967320883
20
6.47680648656768
30
0
41
1
10
127.681194065888
20
6.46684287445316
30
0
41
1
10
127.738110407046
20
6.43557975862791
30
0
41
1
10
127.774618548024
20
6.41314807040135
30
0
41
1
10
127.880125432981
20
6.34137394108478
30
0
41
1
10
127.945127438426
20
6.28757580597426
30
0
41
1
10
128.020264648947
20
6.2133969475924
30
0
41
1
10
128.034992096332
20
6.19820114704604
30
0
41
1
10
128.063585687467
20
6.16740541629676
30
0
41
1
10
128.105288363384
20
6.12050509481085
30
0
41
1
10
128.143604730241
20
6.07157688743428
30
0
41
1
10
128.216090202375
20
5.97120495092969
30
0
41
1
10
128.258903467291
20
5.90094710926888
30
0
41
1
10
128.306358518014
20
5.80935043955125
30
0
41
1
10
128.315544848449
20
5.79084148947265
30
0
41
1
10
128.333323041525
20
5.75345123601912
30
0
41
1
10
128.34190933097
20
5.73457836867317
30
0
41
1
10
128.366638195076
20
5.6777986796605
30
0
41
1
10
128.38181445153
20
5.6396036056571
30
0
41
1
10
128.423770212931
20
5.52406275141183
30
0
41
1
10
128.446993189823
20
5.44576477550473
30
0
41
1
10
128.485306250243
20
5.28688998711689
30
0
41
1
10
128.500388788039
20
5.20631161005051
30
0
41
1
10
128.51758289771
20
5.08385848224475
30
0
41
1
10
128.522407666278
20
5.04276358449772
30
0
41
1
10
128.530321905272
20
4.96010934114906
30
0
41
1
10
128.533388872369
20
4.91879524113625
30
0
41
1
10
128.54012271745
20
4.79487820667538
30
0
41
1
10
128.54133116772
20
4.71229993095199
30
0
41
1
10
128.536349173087
20
4.46458162920851
30
0
41
1
10
128.521624771906
20
4.29945300431351
30
0
41
1
10
128.497471029943
20
4.13421332883257
30
0
0
SPLINE
5
14D
100
AcDbEntity
8
1
62
256
6
ByLayer
370
18
48
1
60
0
100
AcDbSpline
70
4
71
3
72
8
73
4
40
0
40
0
40
0
40
0
40
1
40
1
40
1
40
1
41
1
10
126.323662973753
20
-4.29544686557563
30
0
41
1
10
127.131124993858
20
-4.43476381622983
30
0
41
1
10
127.938218696578
20
-4.57514544481975
30
0
41
1
10
128.744802012279
20
-4.71717392970604
30
0
0
SPLINE
5
14E
100
AcDbEntity
8
1
62
256
6
ByLayer
370
18
48
1
60
0
100
AcDbSpline
70
4
71
3
72
12
73
8
40
0
40
0
40
0
40
0
40
0.154035429814984
40
0.154035429814984
40
0.770177153792649
40
0.770177153792649
40
1
40
1
40
1
40
1
41
1
10
128.74480201228
20
9.1763369741258
30
0
41
1
10
128.620488972112
20
9.17384227433524
30
0
41
1
10
128.496175823113
20
9.17134750416125
30
0
41
1
10
127.874609538045
20
9.1588732380682
30
0
41
1
10
127.377354785346
20
9.14889249068787
30
0
41
1
10
126.694620140904
20
9.13518602257224
30
0
41
1
10
126.509141670653
20
9.13146210190581
30
0
41
1
10
126.323662973753
20
9.12773785393819
30
0
0
SPLINE
5
14F
100
AcDbEntity
8
1
62
256
6
ByLayer
370
18
48
1
60
0
100
AcDbSpline
70
4
71
3
72
28
73
24
40
0
40
0
40
0
40
0
40
0.124999999999997
40
0.124999999999997
40
0.249999999999993
40
0.249999999999993
40
0.312499999999992
40
0.312499999999992
40
0.37499999999999
40
0.37499999999999
40
0.499999999999988
40
0.499999999999988
40
0.624999999999985
40
0.624999999999985
40
0.687499999999984
40
0.687499999999984
40
0.749999999999982
40
0.749999999999982
40
0.874999999999979
40
0.874999999999979
40
0.93749999999999
40
0.93749999999999
40
1
40
1
40
1
40
1
41
1
10
124.953527475941
20
4.18732112686152
30
0
41
1
10
124.969905526337
20
4.29934460428694
30
0
41
1
10
124.990316203778
20
4.41031671990748
30
0
41
1
10
125.039807505255
20
4.6300847229279
30
0
41
1
10
125.068884223758
20
4.73888119020367
30
0
41
1
10
125.119742674268
20
4.90034198729896
30
0
41
1
10
125.137906075793
20
4.95387273039543
30
0
41
1
10
125.17682814264
20
5.06033017089635
30
0
41
1
10
125.197617993936
20
5.11331304095745
30
0
41
1
10
125.263502984405
20
5.26974851283012
30
0
41
1
10
125.312264514223
20
5.37119404402299
30
0
41
1
10
125.420498983214
20
5.56800256843161
30
0
41
1
10
125.479960472899
20
5.66337088495615
30
0
41
1
10
125.57845018885
20
5.80133409448402
30
0
41
1
10
125.612851957747
20
5.84649055214447
30
0
41
1
10
125.685016610486
20
5.93488313442455
30
0
41
1
10
125.722414479129
20
5.97767246482704
30
0
41
1
10
125.8387443099
20
6.10167735271335
30
0
41
1
10
125.921776992592
20
6.17856480175845
30
0
41
1
10
126.05580655375
20
6.28415417087876
30
0
41
1
10
126.102070678268
20
6.31771956214379
30
0
41
1
10
126.198118465346
20
6.38127841191121
30
0
41
1
10
126.247899880016
20
6.41127406325177
30
0
41
1
10
126.299686010018
20
6.43925759566494
30
0
0
SPLINE
5
150
100
AcDbEntity
8
1
62
256
6
ByLayer
370
18
48
1
60
0
100
AcDbSpline
70
4
71
3
72
16
73
12
40
0
40
0
40
0
40
0
40
0.500000000000004
40
0.500000000000004
40
0.750000000000002
40
0.750000000000002
40
0.812500000000001
40
0.812500000000001
40
0.875000000000001
40
0.875000000000001
40
1
40
1
40
1
40
1
41
1
10
126.299686010018
20
9.12723325480005
30
0
41
1
10
125.339268289779
20
9.10609347625567
30
0
41
1
10
124.378850004306
20
9.08495196158415
30
0
41
1
10
122.938221960491
20
9.05322833897634
30
0
41
1
10
122.458012601938
20
9.04264888439485
30
0
41
1
10
121.857750657434
20
9.02942619581853
30
0
41
1
10
121.737696358792
20
9.02684496575228
30
0
41
1
10
121.497603559695
20
9.0211554811286
30
0
41
1
10
121.377566203951
20
9.01800903604519
30
0
41
1
10
121.017461903429
20
9.00830923940146
30
0
41
1
10
120.77740188292
20
9.00155259859255
30
0
41
1
10
120.537308409774
20
8.99574593724159
30
0
0
SPLINE
5
151
100
AcDbEntity
8
1
62
256
6
ByLayer
370
18
48
1
60
0
100
AcDbSpline
70
4
71
3
72
14
73
10
40
0
40
0
40
0
40
0
40
0.125
40
0.125
40
0.25
40
0.25
40
0.5
40
0.5
40
1
40
1
40
1
40
1
41
1
10
120.944787463218
20
-5.94121675163086
30
0
41
1
10
120.928072191471
20
-5.93822885946537
30
0
41
1
10
120.911255762569
20
-5.93557064958372
30
0
41
1
10
120.877418002211
20
-5.93092249000614
30
0
41
1
10
120.860359144062
20
-5.92892944448951
30
0
41
1
10
120.80921091196
20
-5.92400289902554
30
0
41
1
10
120.775145306034
20
-5.92211104028709
30
0
41
1
10
120.673046264163
20
-5.92053766785421
30
0
41
1
10
120.605109697939
20
-5.92492196264123
30
0
41
1
10
120.537308409781
20
-5.93497280114227
30
0
0
SPLINE
5
152
100
AcDbEntity
8
1
62
256
6
ByLayer
370
18
48
1
60
0
100
AcDbSpline
70
4
71
3
72
12
73
8
40
0
40
0
40
0
40
0
40
0.500000000000007
40
0.500000000000007
40
0.750000000000003
40
0.750000000000003
40
1
40
1
40
1
40
1
41
1
10
121.369845197077
20
-4.86954814179208
30
0
41
1
10
121.289314806399
20
-5.0478064876016
30
0
41
1
10
121.212324247774
20
-5.22587958762424
30
0
41
1
10
121.104803347723
20
-5.49344855080375
30
0
41
1
10
121.070304556262
20
-5.58271857507879
30
0
41
1
10
121.00472055006
20
-5.76162172649614
30
0
41
1
10
120.973627912192
20
-5.85125275176773
30
0
41
1
10
120.944787463218
20
-5.94121675163132
30
0
0
SPLINE
5
153
100
AcDbEntity
8
1
62
256
6
ByLayer
370
18
48
1
60
0
100
AcDbSpline
70
4
71
3
72
8
73
4
40
0
40
0
40
0
40
0
40
1
40
1
40
1
40
1
41
1
10
123.376824787229
20
-3.82069851889827
30
0
41
1
10
124.35150419154
20
-3.97589230800404
30
0
41
1
10
125.325768502918
20
-4.13298680527393
30
0
41
1
10
126.299686010018
20
-4.29142809325842
30
0
0
SPLINE
5
154
100
AcDbEntity
8
1
62
256
6
ByLayer
370
18
48
1
60
0
100
AcDbSpline
70
4
71
3
72
34
73
30
40
0
40
0
40
0
40
0
40
0.124999999999992
40
0.124999999999992
40
0.187499999999988
40
0.187499999999988
40
0.218749999999986
40
0.218749999999986
40
0.249999999999984
40
0.249999999999984
40
0.375000000000007
40
0.375000000000007
40
0.437500000000018
40
0.437500000000018
40
0.500000000000029
40
0.500000000000029
40
0.625000000000052
40
0.625000000000052
40
0.687500000000074
40
0.687500000000074
40
0.718750000000076
40
0.718750000000076
40
0.750000000000077
40
0.750000000000077
40
0.875000000000039
40
0.875000000000039
40
0.937500000000019
40
0.937500000000019
40
1
40
1
40
1
40
1
41
1
10
126.323662973754
20
-0.94638976377945
30
0
41
1
10
126.425866581975
20
-0.939975610899438
30
0
41
1
10
126.525888950822
20
-0.924351330261032
30
0
41
1
10
126.672812254298
20
-0.887784789319653
30
0
41
1
10
126.721265054133
20
-0.87339385597727
30
0
41
1
10
126.793154157175
20
-0.848472675542638
30
0
41
1
10
126.816985322109
20
-0.839609032758233
30
0
41
1
10
126.864380326476
20
-0.820753569835887
30
0
41
1
10
126.887991621995
20
-0.810738161651585
30
0
41
1
10
127.004281995445
20
-0.758297120130294
30
0
41
1
10
127.092372531713
20
-0.708607028530423
30
0
41
1
10
127.217449863007
20
-0.623015911670336
30
0
41
1
10
127.25795905969
20
-0.592632166925483
30
0
41
1
10
127.336592780855
20
-0.528128571977987
30
0
41
1
10
127.374846597118
20
-0.49386245948574
30
0
41
1
10
127.484065849432
20
-0.387235771487838
30
0
41
1
10
127.550091942554
20
-0.310692964040129
30
0
41
1
10
127.639449860283
20
-0.188091204632457
30
0
41
1
10
127.66761379742
20
-0.145919192897082
30
0
41
1
10
127.707417119727
20
-0.0806962173055865
30
0
41
1
10
127.720303374994
20
-0.0585792880187626
30
0
41
1
10
127.745107929915
20
-0.0139499353013548
30
0
41
1
10
127.757021488637
20
0.0085481550902102
30
0
41
1
10
127.814205814001
20
0.121932715025167
30
0
41
1
10
127.852371192029
20
0.215484515981927
30
0
41
1
10
127.898820802455
20
0.359856492199612
30
0
41
1
10
127.912495400348
20
0.408657875808103
30
0
41
1
10
127.936222292258
20
0.507616478681797
30
0
41
1
10
127.946270884613
20
0.557811313563661
30
0
41
1
10
127.954417488682
20
0.608234097825232
30
0
0
SPLINE
5
155
100
AcDbEntity
8
1
62
256
6
ByLayer
370
18
48
1
60
0
100
AcDbSpline
70
4
71
3
72
76
73
72
40
0
40
0
40
0
40
0
40
0.0638060446166863
40
0.0638060446166863
40
0.079757555770857
40
0.079757555770857
40
0.0957090669250276
40
0.0957090669250276
40
0.127612089233368
40
0.127612089233368
40
0.159515111541709
40
0.159515111541709
40
0.191418133850049
40
0.191418133850049
40
0.255224178466731
40
0.255224178466731
40
0.271175689620893
40
0.271175689620893
40
0.287127200775054
40
0.287127200775054
40
0.319030223083365
40
0.319030223083365
40
0.382836267700001
40
0.382836267700001
40
0.398787778854151
40
0.398787778854151
40
0.414739290008302
40
0.414739290008302
40
0.44664231231662
40
0.44664231231662
40
0.478545334624939
40
0.478545334624939
40
0.494496845779089
40
0.494496845779089
40
0.510448356933239
40
0.510448356933239
40
0.574254401549897
40
0.574254401549897
40
0.590205912704047
40
0.590205912704047
40
0.606157423858197
40
0.606157423858197
40
0.638060446166478
40
0.638060446166478
40
0.654011957320618
40
0.654011957320618
40
0.669963468474759
40
0.669963468474759
40
0.701866490783039
40
0.701866490783039
40
0.733769513091319
40
0.733769513091319
40
0.749721024245467
40
0.749721024245467
40
0.765672535399615
40
0.765672535399615
40
0.829478580016222
40
0.829478580016222
40
0.861381602324532
40
0.861381602324532
40
0.877333113478681
40
0.877333113478681
40
0.893284624632831
40
0.893284624632831
40
0.925187646941129
40
0.925187646941129
40
0.957090669249427
40
0.957090669249427
40
0.988993691557726
40
0.988993691557726
40
1
40
1
40
1
40
1
41
1
10
124.747318498493
20
0.682850269887894
30
0
41
1
10
124.747318498493
20
0.650124126702991
30
0
41
1
10
124.754615849615
20
0.607332002657529
30
0
41
1
10
124.772142351756
20
0.543943047396453
30
0
41
1
10
124.776075203567
20
0.530771610149372
30
0
41
1
10
124.784805655408
20
0.503510662578037
30
0
41
1
10
124.78961784777
20
0.489384917825248
30
0
41
1
10
124.805170786011
20
0.44628996287824
30
0
41
1
10
124.817062669048
20
0.416466078619862
30
0
41
1
10
124.843836306588
20
0.355250882343398
30
0
41
1
10
124.858719127839
20
0.323857956189357
30
0
41
1
10
124.891564831949
20
0.259988590959949
30
0
41
1
10
124.909582706465
20
0.227436655131555
30
0
41
1
10
124.967597273154
20
0.130289760583963
30
0
41
1
10
125.011725200791
20
0.0657395677546049
30
0
41
1
10
125.074568690965
20
-0.0131784020483963
30
0
41
1
10
125.087525494468
20
-0.0288744469180244
30
0
41
1
10
125.114254114479
20
-0.0600555587134295
30
0
41
1
10
125.128042736874
20
-0.0755558443483437
30
0
41
1
10
125.170269923235
20
-0.121235324882491
30
0
41
1
10
125.199689603816
20
-0.150742303430917
30
0
41
1
10
125.291949442411
20
-0.236087528332632
30
0
41
1
10
125.358738504848
20
-0.288788181610983
30
0
41
1
10
125.450112182891
20
-0.347919431460696
30
0
41
1
10
125.468785411467
20
-0.359405475135588
30
0
41
1
10
125.506980454275
20
-0.38164473319398
30
0
41
1
10
125.526473480082
20
-0.392375763090428
30
0
41
1
10
125.585437044336
20
-0.422963684826982
30
0
41
1
10
125.625649197879
20
-0.441372459596494
30
0
41
1
10
125.707944793087
20
-0.47405897704715
30
0
41
1
10
125.750027871759
20
-0.488337572043378
30
0
41
1
10
125.814641756744
20
-0.506457951532497
30
0
41
1
10
125.836507243932
20
-0.511964244788601
30
0
41
1
10
125.880338146973
20
-0.521741030031905
30
0
41
1
10
125.902263437457
20
-0.526007938215457
30
0
41
1
10
126.011938509651
20
-0.544298923447883
30
0
41
1
10
126.099836265452
20
-0.549259690362419
30
0
41
1
10
126.209875821742
20
-0.543682237857496
30
0
41
1
10
126.231836312952
20
-0.541972405315306
30
0
41
1
10
126.275202838512
20
-0.537445841048367
30
0
41
1
10
126.296676836888
20
-0.534626234242893
30
0
41
1
10
126.360493176504
20
-0.524575209177982
30
0
41
1
10
126.40223152815
20
-0.515754933287951
30
0
41
1
10
126.463685383609
20
-0.499580438858118
30
0
41
1
10
126.4839772906
20
-0.493697361268033
30
0
41
1
10
126.524179961247
20
-0.480977836376411
30
0
41
1
10
126.544131734329
20
-0.474124391641908
30
0
41
1
10
126.602872597442
20
-0.452383193566362
30
0
41
1
10
126.640692608276
20
-0.436282341020814
30
0
41
1
10
126.713852792407
20
-0.40126985551322
30
0
41
1
10
126.749192306496
20
-0.382356788518223
30
0
41
1
10
126.800418607157
20
-0.352114707681011
30
0
41
1
10
126.817196184134
20
-0.34172140051146
30
0
41
1
10
126.850160482491
20
-0.32034412396078
30
0
41
1
10
126.866360404546
20
-0.309348663486958
30
0
41
1
10
126.945232951407
20
-0.253456291463351
30
0
41
1
10
127.002150619082
20
-0.205487924342094
30
0
41
1
10
127.078686778482
20
-0.130760894983581
30
0
41
1
10
127.102710411596
20
-0.105387027096583
30
0
41
1
10
127.136414706605
20
-0.0669065618091906
30
0
41
1
10
127.147274338124
20
-0.0539897847889392
30
0
41
1
10
127.167992831545
20
-0.0283113632518166
30
0
41
1
10
127.177875621255
20
-0.015523998330309
30
0
41
1
10
127.206075084395
20
0.0225868628504884
30
0
41
1
10
127.222949424198
20
0.0476614892696148
30
0
41
1
10
127.252597460508
20
0.0965868378369805
30
0
41
1
10
127.265373478519
20
0.120438132501079
30
0
41
1
10
127.286340189081
20
0.166276978336782
30
0
41
1
10
127.294325043778
20
0.187829308850866
30
0
41
1
10
127.301542879103
20
0.214550592256302
30
0
41
1
10
127.303084130254
20
0.221207128650889
30
0
41
1
10
127.304308883333
20
0.227659197002538
30
0
0
SPLINE
5
156
100
AcDbEntity
8
1
62
256
6
ByLayer
370
18
48
1
60
0
100
AcDbSpline
70
4
71
3
72
46
73
42
40
0
40
0
40
0
40
0
40
0.031250000000002
40
0.031250000000002
40
0.0468750000000038
40
0.0468750000000038
40
0.0625000000000056
40
0.125000000000012
40
0.187500000000018
40
0.187500000000018
40
0.250000000000024
40
0.250000000000024
40
0.281250000000026
40
0.281250000000026
40
0.312500000000027
40
0.312500000000027
40
0.375000000000035
40
0.375000000000035
40
0.437500000000042
40
0.437500000000042
40
0.468750000000043
40
0.468750000000043
40
0.484375000000039
40
0.484375000000039
40
0.500000000000036
40
0.56250000000003
40
0.625000000000015
40
0.625000000000015
40
0.656250000000008
40
0.656250000000008
40
0.687500000000001
40
0.687500000000001
40
0.749999999999986
40
0.812499999999972
40
0.812499999999972
40
0.843749999999976
40
0.843749999999976
40
0.874999999999981
40
0.874999999999981
40
0.937499999999991
40
1
40
1
40
1
40
1
41
1
10
124.507590353139
20
1.26771652012545
30
0
41
1
10
124.50226741111
20
1.23424945711608
30
0
41
1
10
124.497720024559
20
1.20056346380923
30
0
41
1
10
124.492089858343
20
1.14969805773919
30
0
41
1
10
124.490410334952
20
1.13266648145896
30
0
41
1
10
124.487467832342
20
1.09865954686921
30
0
41
1
10
124.481144712797
20
1.01371204676167
30
0
41
1
10
124.478949370443
20
0.861427090655212
30
0
41
1
10
124.489941807225
20
0.726938204653067
30
0
41
1
10
124.507561015522
20
0.592899635690372
30
0
41
1
10
124.519682675493
20
0.526105408315374
30
0
41
1
10
124.543125583686
20
0.426274263621508
30
0
41
1
10
124.551833063378
20
0.393030164282379
30
0
41
1
10
124.570817833302
20
0.327484431187514
30
0
41
1
10
124.581116676341
20
0.295080638353056
30
0
41
1
10
124.614418361774
20
0.198970150793144
30
0
41
1
10
124.639819801299
20
0.136361337886342
30
0
41
1
10
124.69710489621
20
0.0141118385455741
30
0
41
1
10
124.728987497742
20
-0.0455293332878739
30
0
41
1
10
124.781900571172
20
-0.132659853021409
30
0
41
1
10
124.800388283436
20
-0.161313981907341
30
0
41
1
10
124.82944223187
20
-0.203689284995761
30
0
41
1
10
124.839362348548
20
-0.217732886693199
30
0
41
1
10
124.859522464188
20
-0.24543742722966
30
0
41
1
10
124.910777641537
20
-0.313824093635844
30
0
41
1
10
125.010639851659
20
-0.429142447212314
30
0
41
1
10
125.110150614291
20
-0.520663841609377
30
0
41
1
10
125.188933431191
20
-0.585065499105582
30
0
41
1
10
125.215887615436
20
-0.605824498191396
30
0
41
1
10
125.271223521041
20
-0.645884593061993
30
0
41
1
10
125.299707766742
20
-0.665246808699123
30
0
41
1
10
125.38631109795
20
-0.720399539649293
30
0
41
1
10
125.505108080751
20
-0.786401223359832
30
0
41
1
10
125.630419666395
20
-0.837653905005681
30
0
41
1
10
125.726893333343
20
-0.870459533096948
30
0
41
1
10
125.759467239305
20
-0.880453444199759
30
0
41
1
10
125.825468241263
20
-0.898511266526384
30
0
41
1
10
125.858969403712
20
-0.906584808186096
30
0
41
1
10
125.959521541849
20
-0.927573509315721
30
0
41
1
10
126.094427275009
20
-0.947193194412648
30
0
41
1
10
126.230983137002
20
-0.950306354184249
30
0
41
1
10
126.299686010018
20
-0.947612199485718
30
0
0
SPLINE
5
157
100
AcDbEntity
8
1
62
256
6
ByLayer
370
18
48
1
60
0
100
AcDbSpline
70
4
71
3
72
8
73
4
40
0
40
0
40
0
40
0
40
1
40
1
40
1
40
1
41
1
10
126.299686010018
20
-0.947612199485718
30
0
41
1
10
126.307683454797
20
-0.947298583002407
30
0
41
1
10
126.315675771848
20
-0.946891029194575
30
0
41
1
10
126.323662973754
20
-0.94638976377945
30
0
0
SPLINE
5
158
100
AcDbEntity
8
1
62
256
6
ByLayer
370
18
48
1
60
0
100
AcDbSpline
70
4
71
3
72
14
73
10
40
0
40
0
40
0
40
0
40
0.249999999999985
40
0.249999999999985
40
0.374999999999978
40
0.374999999999978
40
0.499999999999971
40
0.499999999999971
40
1
40
1
40
1
40
1
41
1
10
121.697790436443
20
-4.91485191836338
30
0
41
1
10
121.663506440804
20
-4.91140645022861
30
0
41
1
10
121.630942960296
20
-4.90725108162499
30
0
41
1
10
121.584551564164
20
-4.90059254560393
30
0
41
1
10
121.569496996583
20
-4.89830247071572
30
0
41
1
10
121.540187049194
20
-4.89369671639287
30
0
41
1
10
121.52602329683
20
-4.89139569297114
30
0
41
1
10
121.457723893584
20
-4.88023620392667
30
0
41
1
10
121.410863993901
20
-4.87231025856113
30
0
41
1
10
121.369845197083
20
-4.86954814179046
30
0
0
SPLINE
5
159
100
AcDbEntity
8
1
62
256
6
ByLayer
370
18
48
1
60
0
100
AcDbSpline
70
4
71
3
72
14
73
10
40
0
40
0
40
0
40
0
40
0.500000000000001
40
0.500000000000001
40
0.625000000000001
40
0.625000000000001
40
0.750000000000001
40
0.750000000000001
40
1
40
1
40
1
40
1
41
1
10
121.697790436441
20
-4.91485191836011
30
0
41
1
10
121.657390796153
20
-4.79595788427929
30
0
41
1
10
121.612025785737
20
-4.68360420796171
30
0
41
1
10
121.549397669261
20
-4.55096234481823
30
0
41
1
10
121.536565046415
20
-4.52480605391017
30
0
41
1
10
121.510356908727
20
-4.47336948351452
30
0
41
1
10
121.496990785816
20
-4.44810583595165
30
0
41
1
10
121.45611619465
20
-4.37366156167062
30
0
41
1
10
121.427833618943
20
-4.32582393407594
30
0
41
1
10
121.398521722559
20
-4.27977207506333
30
0
0
SPLINE
5
15A
100
AcDbEntity
8
1
62
256
6
ByLayer
370
18
48
1
60
0
100
AcDbSpline
70
4
71
3
72
16
73
12
40
0
40
0
40
0
40
0
40
0.327626997857791
40
0.327626997857791
40
0.655253995715582
40
0.655253995715582
40
0.819067494644478
40
0.819067494644478
40
0.982880993573373
40
0.982880993573373
40
1
40
1
40
1
40
1
41
1
10
121.398521722559
20
-4.27977207506333
30
0
41
1
10
121.36115757717
20
-4.24818099503895
30
0
41
1
10
121.326992789746
20
-4.21455943829218
30
0
41
1
10
121.263784091368
20
-4.14444290799977
30
0
41
1
10
121.234751382695
20
-4.10793680711697
30
0
41
1
10
121.194390587751
20
-4.05171421641842
30
0
41
1
10
121.181437373671
20
-4.03267543693127
30
0
41
1
10
121.156723062902
20
-3.99458116611234
30
0
41
1
10
121.14494735532
20
-3.97551112861518
30
0
41
1
10
121.132499765295
20
-3.95448976589606
30
0
41
1
10
121.131327561757
20
-3.95250119561948
30
0
41
1
10
121.130160806205
20
-3.9505130838788
30
0
0
SPLINE
5
15B
100
AcDbEntity
8
1
62
256
6
ByLayer
370
18
48
1
60
0
100
AcDbSpline
70
4
71
3
72
14
73
10
40
0
40
0
40
0
40
0
40
0.332889155971999
40
0.332889155971999
40
0.665778311943999
40
0.665778311943999
40
0.998667467915998
40
0.998667467915998
40
1
40
1
40
1
40
1
41
1
10
122.593938513063
20
-3.36074541023496
30
0
41
1
10
122.563464332869
20
-3.32933279044784
30
0
41
1
10
122.532541810268
20
-3.2985805343834
30
0
41
1
10
122.469608779638
20
-3.23821130431404
30
0
41
1
10
122.437610836967
20
-3.20859787502701
30
0
41
1
10
122.372002976061
20
-3.15030763252258
30
0
41
1
10
122.338416742152
20
-3.12164319825558
30
0
41
1
10
122.303577929239
20
-3.09350214025821
30
0
41
1
10
122.303439009666
20
-3.09338995207304
30
0
41
1
10
122.303300071792
20
-3.09327777329597
30
0
0
SPLINE
5
15C
100
AcDbEntity
8
1
62
256
6
ByLayer
370
18
48
1
60
0
100
AcDbSpline
70
4
71
3
72
14
73
10
40
0
40
0
40
0
40
0
40
0.49999999999999
40
0.49999999999999
40
0.624999999999989
40
0.624999999999989
40
0.749999999999987
40
0.749999999999987
40
1
40
1
40
1
40
1
41
1
10
123.32180043543
20
-3.89118789314657
30
0
41
1
10
123.18423858147
20
-3.80443346068395
30
0
41
1
10
123.054880100119
20
-3.71667806041265
30
0
41
1
10
122.902790267614
20
-3.60581141810624
30
0
41
1
10
122.872834179908
20
-3.58356193343084
30
0
41
1
10
122.814023028346
20
-3.53904140117805
30
0
41
1
10
122.785170605068
20
-3.51677333178284
30
0
41
1
10
122.700285652725
20
-3.44994553237612
30
0
41
1
10
122.645908741435
20
-3.40536244672492
30
0
41
1
10
122.593938513061
20
-3.36074541023066
30
0
0
SPLINE
5
15D
100
AcDbEntity
8
1
62
256
6
ByLayer
370
18
48
1
60
0
100
AcDbSpline
70
4
71
3
72
12
73
8
40
0
40
0
40
0
40
0
40
0.249999999999994
40
0.249999999999994
40
0.499999999999987
40
0.499999999999987
40
1
40
1
40
1
40
1
41
1
10
123.376824787229
20
-3.82069851889949
30
0
41
1
10
123.371539130466
20
-3.82521761322573
30
0
41
1
10
123.366446414417
20
-3.83008759867866
30
0
41
1
10
123.35660459267
20
-3.84054359760043
30
0
41
1
10
123.351842701222
20
-3.84614742073612
30
0
41
1
10
123.338126716047
20
-3.86388555677323
30
0
41
1
10
123.329724070034
20
-3.87694791987667
30
0
41
1
10
123.32180043543
20
-3.89118789314657
30
0
0
SPLINE
5
15E
100
AcDbEntity
8
1
62
256
6
ByLayer
370
18
48
1
60
0
100
AcDbSpline
70
4
71
3
72
67
73
63
40
0
40
0
40
0
40
0
40
0.0624999999999797
40
0.0624999999999797
40
0.0781249999999747
40
0.0781249999999747
40
0.0937499999999697
40
0.0937499999999697
40
0.12499999999996
40
0.12499999999996
40
0.187499999999942
40
0.187499999999942
40
0.249999999999925
40
0.249999999999925
40
0.281249999999917
40
0.281249999999917
40
0.31249999999991
40
0.343749999999902
40
0.343749999999902
40
0.359374999999898
40
0.359374999999898
40
0.374999999999894
40
0.374999999999894
40
0.437499999999886
40
0.437499999999886
40
0.453124999999884
40
0.453124999999884
40
0.468749999999882
40
0.468749999999882
40
0.499999999999886
40
0.531249999999891
40
0.531249999999891
40
0.546874999999898
40
0.546874999999898
40
0.562499999999905
40
0.562499999999905
40
0.624999999999944
40
0.624999999999944
40
0.656249999999958
40
0.656249999999958
40
0.687499999999972
40
0.687499999999972
40
0.75
40
0.75
40
0.765625000000002
40
0.765625000000002
40
0.781250000000004
40
0.781250000000004
40
0.812500000000008
40
0.843750000000012
40
0.843750000000012
40
0.859375000000014
40
0.859375000000014
40
0.875000000000016
40
0.875000000000016
40
0.937500000000008
40
0.937500000000008
40
0.968750000000002
40
0.968750000000002
40
0.984375000000001
40
0.984375000000001
40
1
40
1
40
1
40
1
41
1
10
121.369845197082
20
-4.86954814179447
30
0
41
1
10
121.316535122389
20
-4.80924560459948
30
0
41
1
10
121.270829159313
20
-4.74433677038249
30
0
41
1
10
121.223196921726
20
-4.65737305767223
30
0
41
1
10
121.21415061531
20
-4.639685854898
30
0
41
1
10
121.197039544848
20
-4.60370790396735
30
0
41
1
10
121.188954301952
20
-4.58536567513957
30
0
41
1
10
121.166366792706
20
-4.52977700985665
30
0
41
1
10
121.153610869843
20
-4.49221375762704
30
0
41
1
10
121.122060126596
20
-4.37804029052876
30
0
41
1
10
121.109895736841
20
-4.29992992406997
30
0
41
1
10
121.104308437492
20
-4.13967013767058
30
0
41
1
10
121.110986541094
20
-4.06061887887694
30
0
41
1
10
121.134765263517
20
-3.9436249814824
30
0
41
1
10
121.14501124938
20
-3.90487914660409
30
0
41
1
10
121.170306409274
20
-3.82800901221222
30
0
41
1
10
121.199919942684
20
-3.75322076101031
30
0
41
1
10
121.237842728679
20
-3.68245662106173
30
0
41
1
10
121.269396064986
20
-3.63089858633606
30
0
41
1
10
121.280433561403
20
-3.61396567001933
30
0
41
1
10
121.303561553054
20
-3.58061418125445
30
0
41
1
10
121.315674162186
20
-3.56416748579116
30
0
41
1
10
121.37868629194
20
-3.48356130365974
30
0
41
1
10
121.435657521138
20
-3.42568758764176
30
0
41
1
10
121.514681112319
20
-3.36127512452777
30
0
41
1
10
121.530880787733
20
-3.34879363075254
30
0
41
1
10
121.564077821191
20
-3.32464204293942
30
0
41
1
10
121.5811193568
20
-3.31294381797068
30
0
41
1
10
121.633143493052
20
-3.27929509091166
30
0
41
1
10
121.704460159449
20
-3.23853110599975
30
0
41
1
10
121.779505614312
20
-3.20562455647146
30
0
41
1
10
121.837171835583
20
-3.18386356776304
30
0
41
1
10
121.856624745703
20
-3.17709739306511
30
0
41
1
10
121.895995285325
20
-3.1645473754599
30
0
41
1
10
121.91595719483
20
-3.15875218601815
30
0
41
1
10
122.016426971201
20
-3.1324043265079
30
0
41
1
10
122.097771631865
20
-3.11989895830632
30
0
41
1
10
122.221153832371
20
-3.11324442135859
30
0
41
1
10
122.262510752875
20
-3.11306073998699
30
0
41
1
10
122.345692019998
20
-3.11683683787175
30
0
41
1
10
122.386937663201
20
-3.12077494491089
30
0
41
1
10
122.509233833064
20
-3.13843637980691
30
0
41
1
10
122.589060637491
20
-3.15795486794752
30
0
41
1
10
122.686700730259
20
-3.19207316533976
30
0
41
1
10
122.706172464829
20
-3.19941000841155
30
0
41
1
10
122.744561557353
20
-3.21494795221173
30
0
41
1
10
122.76348926461
20
-3.22314912374426
30
0
41
1
10
122.819485957086
20
-3.24902501454926
30
0
41
1
10
122.892055329482
20
-3.28691235743375
30
0
41
1
10
122.960480340562
20
-3.33148860328203
30
0
41
1
10
123.010206681749
20
-3.36748396482935
30
0
41
1
10
123.026516162608
20
-3.37991051526509
30
0
41
1
10
123.058589459861
20
-3.40564067735173
30
0
41
1
10
123.074380310009
20
-3.41897184018271
30
0
41
1
10
123.151056854368
20
-3.48709012485207
30
0
41
1
10
123.205850546804
20
-3.54670447486123
30
0
41
1
10
123.278074236853
20
-3.6438545883552
30
0
41
1
10
123.300473979987
20
-3.67753677474107
30
0
41
1
10
123.331402170459
20
-3.73012414623929
30
0
41
1
10
123.341256100639
20
-3.74799042732744
30
0
41
1
10
123.359841324906
20
-3.7840379992067
30
0
41
1
10
123.368600991825
20
-3.80226591356228
30
0
41
1
10
123.376824787231
20
-3.82069851889946
30
0
0
SPLINE
5
15F
100
AcDbEntity
8
1
62
256
6
ByLayer
370
18
48
1
60
0
100
AcDbSpline
70
4
71
3
72
22
73
18
40
0
40
0
40
0
40
0
40
0.0987946777582649
40
0.0987946777582649
40
0.19758935551653
40
0.19758935551653
40
0.39517871103306
40
0.39517871103306
40
0.592768066549589
40
0.592768066549589
40
0.790357422066119
40
0.790357422066119
40
0.889152099824372
40
0.889152099824372
40
0.987946777582625
40
0.987946777582625
40
1
40
1
40
1
40
1
41
1
10
117.060228738289
20
-6.00717955012044
30
0
41
1
10
117.111436268663
20
-6.00525850727547
30
0
41
1
10
117.162702276011
20
-6.00225136722094
30
0
41
1
10
117.265347512732
20
-5.99412792358243
30
0
41
1
10
117.316756848949
20
-5.98900789280881
30
0
41
1
10
117.470961912143
20
-5.97052981212531
30
0
41
1
10
117.572814752172
20
-5.9541930305098
30
0
41
1
10
117.774643140767
20
-5.91360223841824
30
0
41
1
10
117.874619876379
20
-5.88935298983679
30
0
41
1
10
118.072533805192
20
-5.83228511174829
30
0
41
1
10
118.17047608004
20
-5.79948735869667
30
0
41
1
10
118.315536991395
20
-5.74254454976679
30
0
41
1
10
118.363678970378
20
-5.72220713714452
30
0
41
1
10
118.457991189188
20
-5.67912549117159
30
0
41
1
10
118.504298304118
20
-5.65633523095124
30
0
41
1
10
118.555186585685
20
-5.62917797449708
30
0
41
1
10
118.560705855768
20
-5.62620398028346
30
0
41
1
10
118.566210687607
20
-5.62320852226912
30
0
0
SPLINE
5
160
100
AcDbEntity
8
1
62
256
6
ByLayer
370
18
48
1
60
0
100
AcDbSpline
70
4
71
3
72
8
73
4
40
0
40
0
40
0
40
0
40
1
40
1
40
1
40
1
41
1
10
117.060228738289
20
-6.00717955012044
30
0
41
1
10
116.969349127805
20
-6.01058888511864
30
0
41
1
10
116.878566336475
20
-6.01430699999
30
0
41
1
10
116.787881594888
20
-6.01833781938129
30
0
0
SPLINE
5
161
100
AcDbEntity
8
1
62
256
6
ByLayer
370
18
48
1
60
0
100
AcDbSpline
70
4
71
3
72
42
73
38
40
0
40
0
40
0
40
0
40
0.0164597190591062
40
0.0164597190591062
40
0.045387374380907
40
0.045387374380907
40
0.0743150297027078
40
0.0743150297027078
40
0.132170340346311
40
0.132170340346311
40
0.161097995668112
40
0.161097995668112
40
0.190025650989913
40
0.190025650989913
40
0.305736272277121
40
0.305736272277121
40
0.421446893564328
40
0.421446893564328
40
0.479302204207932
40
0.479302204207932
40
0.508229859529729
40
0.508229859529729
40
0.537157514851527
40
0.537157514851527
40
0.65286813613869
40
0.65286813613869
40
0.681795791460473
40
0.681795791460473
40
0.710723446782257
40
0.768578757425809
40
0.826434068069362
40
0.826434068069362
40
0.855361723391138
40
0.855361723391138
40
0.884289378712914
40
0.884289378712914
40
1
40
1
40
1
40
1
41
1
10
115.66412008667
20
-4.82052884919736
30
0
41
1
10
115.660524941092
20
-4.83071268592442
30
0
41
1
10
115.657148801081
20
-4.84094569796437
30
0
41
1
10
115.648440070352
20
-4.86929694400772
30
0
41
1
10
115.643576082308
20
-4.88753086501546
30
0
41
1
10
115.635213355418
20
-4.92431529243484
30
0
41
1
10
115.631699193668
20
-4.94284917133822
30
0
41
1
10
115.622772788089
20
-4.99845881504598
30
0
41
1
10
115.618971706753
20
-5.03554399416714
30
0
41
1
10
115.616639027329
20
-5.09122781312661
30
0
41
1
10
115.616429327763
20
-5.10975080780858
30
0
41
1
10
115.617137376046
20
-5.14641362607347
30
0
41
1
10
115.618052815991
20
-5.1645988974721
30
0
41
1
10
115.625402596468
20
-5.25480737300012
30
0
41
1
10
115.6400661494
20
-5.32470941341876
30
0
41
1
10
115.687547766548
20
-5.45991106910122
30
0
41
1
10
115.719543564967
20
-5.52287689344257
30
0
41
1
10
115.779398451675
20
-5.61083733293341
30
0
41
1
10
115.801343307088
20
-5.63906709649458
30
0
41
1
10
115.837329912998
20
-5.67975624335978
30
0
41
1
10
115.849827251393
20
-5.69302465166197
30
0
41
1
10
115.875551993684
20
-5.71870776567911
30
0
41
1
10
115.888813294009
20
-5.73116188028055
30
0
41
1
10
115.957075746546
20
-5.79154350382623
30
0
41
1
10
116.017887153967
20
-5.83386126891673
30
0
41
1
10
116.101634216552
20
-5.87944707143419
30
0
41
1
10
116.118821587023
20
-5.88821645374674
30
0
41
1
10
116.153662441309
20
-5.90485597066592
30
0
41
1
10
116.206666597926
20
-5.92849871169511
30
0
41
1
10
116.2986242731
20
-5.96152080223348
30
0
41
1
10
116.375952580233
20
-5.98134797836974
30
0
41
1
10
116.435364110408
20
-5.99375194596297
30
0
41
1
10
116.455404246076
20
-5.99747476508182
30
0
41
1
10
116.495962895006
20
-6.00408813898895
30
0
41
1
10
116.516404963876
20
-6.00696494806431
30
0
41
1
10
116.618983658955
20
-6.01917566030946
30
0
41
1
10
116.702644063779
20
-6.02212651731702
30
0
41
1
10
116.787881594888
20
-6.01833781938126
30
0
0
SPLINE
5
162
100
AcDbEntity
8
1
62
256
6
ByLayer
370
18
48
1
60
0
100
AcDbSpline
70
4
71
3
72
10
73
6
40
0
40
0
40
0
40
0
40
0.5
40
0.5
40
1
40
1
40
1
40
1
41
1
10
118.231480942139
20
-5.50206023352288
30
0
41
1
10
118.527923686736
20
-5.60260482366914
30
0
41
1
10
118.824447065948
20
-5.70316114935551
30
0
41
1
10
119.417921446779
20
-5.90328488831904
30
0
41
1
10
119.714840946696
20
-6.00297381196367
30
0
41
1
10
120.012620180031
20
-6.0997690369355
30
0
0
SPLINE
5
163
100
AcDbEntity
8
1
62
256
6
ByLayer
370
18
48
1
60
0
100
AcDbSpline
70
4
71
3
72
9
73
5
40
0
40
0
40
0
40
0
40
0.5
40
1
40
1
40
1
40
1
41
1
10
118.231480942139
20
-5.50206023352288
30
0
41
1
10
118.154130832585
20
-5.4758253696086
30
0
41
1
10
117.998487428659
20
-5.42621108361359
30
0
41
1
10
117.841037011281
20
-5.38205864930165
30
0
41
1
10
117.761860999579
20
-5.36134263843641
30
0
0
SPLINE
5
164
100
AcDbEntity
8
1
62
256
6
ByLayer
370
18
48
1
60
0
100
AcDbSpline
70
4
71
3
72
152
73
148
40
0
40
0
40
0
40
0
40
0.0156249999999998
40
0.0156249999999998
40
0.0312499999999997
40
0.0312499999999997
40
0.039062499999999
40
0.039062499999999
40
0.0468749999999983
40
0.0468749999999983
40
0.0624999999999982
40
0.0624999999999982
40
0.0937499999999979
40
0.0937499999999979
40
0.124999999999998
40
0.124999999999998
40
0.156249999999997
40
0.156249999999997
40
0.171874999999997
40
0.171874999999997
40
0.179687499999997
40
0.179687499999997
40
0.187499999999997
40
0.187499999999997
40
0.218749999999997
40
0.218749999999997
40
0.249999999999996
40
0.249999999999996
40
0.265624999999996
40
0.265624999999996
40
0.273437499999995
40
0.273437499999995
40
0.281249999999995
40
0.281249999999995
40
0.312499999999993
40
0.312499999999993
40
0.343749999999991
40
0.343749999999991
40
0.35937499999999
40
0.35937499999999
40
0.36328124999999
40
0.36328124999999
40
0.36718749999999
40
0.37499999999999
40
0.37499999999999
40
0.40624999999999
40
0.40624999999999
40
0.437499999999991
40
0.437499999999991
40
0.441406249999991
40
0.441406249999991
40
0.445312499999991
40
0.445312499999991
40
0.453124999999991
40
0.453124999999991
40
0.468749999999992
40
0.468749999999992
40
0.499999999999994
40
0.499999999999994
40
0.515624999999995
40
0.515624999999995
40
0.523437499999995
40
0.523437499999995
40
0.527343749999995
40
0.527343749999995
40
0.531249999999995
40
0.531249999999995
40
0.562499999999996
40
0.562499999999996
40
0.593749999999998
40
0.593749999999998
40
0.609374999999998
40
0.609374999999998
40
0.617187499999999
40
0.617187499999999
40
0.624999999999999
40
0.624999999999999
40
0.640625
40
0.640625
40
0.6484375
40
0.6484375
40
0.650390625
40
0.650390625
40
0.65234375
40
0.65234375
40
0.656250000000001
40
0.656250000000001
40
0.658203125000001
40
0.658203125000001
40
0.660156250000001
40
0.660156250000001
40
0.664062500000001
40
0.664062500000001
40
0.671875000000003
40
0.671875000000003
40
0.687500000000005
40
0.687500000000005
40
0.691406250000006
40
0.691406250000006
40
0.695312500000007
40
0.695312500000007
40
0.703125000000009
40
0.703125000000009
40
0.718750000000013
40
0.718750000000013
40
0.722656250000014
40
0.722656250000014
40
0.726562500000015
40
0.726562500000015
40
0.734375000000017
40
0.734375000000017
40
0.75000000000002
40
0.75000000000002
40
0.757812500000021
40
0.757812500000021
40
0.761718750000021
40
0.761718750000021
40
0.765625000000021
40
0.765625000000021
40
0.781250000000022
40
0.781250000000022
40
0.796875000000023
40
0.796875000000023
40
0.804687500000023
40
0.804687500000023
40
0.808593750000023
40
0.808593750000023
40
0.812500000000023
40
0.828125000000021
40
0.828125000000021
40
0.83203125000002
40
0.83203125000002
40
0.83398437500002
40
0.83398437500002
40
0.835937500000019
40
0.835937500000019
40
0.843750000000019
40
0.843750000000019
40
0.875000000000015
40
0.875000000000015
40
0.906250000000012
40
0.906250000000012
40
0.937500000000008
40
0.937500000000008
40
0.968750000000004
40
0.968750000000004
40
1
40
1
40
1
40
1
41
1
10
117.761860999579
20
-14.7110037475432
30
0
41
1
10
117.582281506289
20
-14.7098693321746
30
0
41
1
10
117.402866194676
20
-14.7085127228933
30
0
41
1
10
117.044760133513
20
-14.705238144442
30
0
41
1
10
116.866058443413
20
-14.7033114684957
30
0
41
1
10
116.598524981281
20
-14.6999376805001
30
0
41
1
10
116.509432868671
20
-14.6987329249238
30
0
41
1
10
116.33141907752
20
-14.6961529534779
30
0
41
1
10
116.242521158752
20
-14.6947779164006
30
0
41
1
10
115.976569590225
20
-14.6903871253944
30
0
41
1
10
115.80010225216
20
-14.6871042948942
30
0
41
1
10
115.273201111989
20
-14.6760295576972
30
0
41
1
10
114.925245582394
20
-14.6670322095072
30
0
41
1
10
114.23639537473
20
-14.644556012284
30
0
41
1
10
113.895519275708
20
-14.6310740611865
30
0
41
1
10
113.221444913432
20
-14.5978593799067
30
0
41
1
10
112.888246142751
20
-14.5781321933816
30
0
41
1
10
112.39472727223
20
-14.5420638650735
30
0
41
1
10
112.231268359383
20
-14.5289561250881
30
0
41
1
10
111.987725797474
20
-14.5073860940294
30
0
41
1
10
111.906794169482
20
-14.499874119401
30
0
41
1
10
111.746208963122
20
-14.4842314474018
30
0
41
1
10
111.666467575165
20
-14.4760933164104
30
0
41
1
10
111.270553612082
20
-14.4337109167021
30
0
41
1
10
110.96274477455
20
-14.3944216465461
30
0
41
1
10
110.366150925317
20
-14.3018620778942
30
0
41
1
10
110.077362355069
20
-14.2486022470398
30
0
41
1
10
109.659658602692
20
-14.1551294744795
30
0
41
1
10
109.523007624375
20
-14.1216998482363
30
0
41
1
10
109.322097915099
20
-14.0676693190283
30
0
41
1
10
109.255806107789
20
-14.0490107608091
30
0
41
1
10
109.124614529575
20
-14.0103079425344
30
0
41
1
10
109.059661348404
20
-13.9902434852382
30
0
41
1
10
108.740461039377
20
-13.8868902243499
30
0
41
1
10
108.50135681333
20
-13.794109761335
30
0
41
1
10
108.056141696441
20
-13.5845832740227
30
0
41
1
10
107.850032666483
20
-13.4678446793994
30
0
41
1
10
107.566325684744
20
-13.271403295324
30
0
41
1
10
107.476003017186
20
-13.2023609376813
30
0
41
1
10
107.368512044933
20
-13.1111970741938
30
0
41
1
10
107.347294574144
20
-13.0927284804441
30
0
41
1
10
107.305562051079
20
-13.0554412660016
30
0
41
1
10
107.243956154957
20
-12.9989344230904
30
0
41
1
10
107.185296446098
20
-12.9406859077075
30
0
41
1
10
106.996175111922
20
-12.7425919210729
30
0
41
1
10
106.86535787462
20
-12.5715433600893
30
0
41
1
10
106.641788166208
20
-12.2025745864117
30
0
41
1
10
106.549036912697
20
-12.0046599443687
30
0
41
1
10
106.464929611806
20
-11.7657408122002
30
0
41
1
10
106.455865949198
20
-11.7389680569096
30
0
41
1
10
106.438298592827
20
-11.6849656524953
30
0
41
1
10
106.429788146456
20
-11.6577130114109
30
0
41
1
10
106.405147072113
20
-11.5754485732103
30
0
41
1
10
106.389915057107
20
-11.5199687062854
30
0
41
1
10
106.34766575089
20
-11.3516228143697
30
0
41
1
10
106.324091628073
20
-11.2368510856682
30
0
41
1
10
106.266167699339
20
-10.8849269854521
30
0
41
1
10
106.244569413607
20
-10.6401756215836
30
0
41
1
10
106.234734387626
20
-10.2577303949346
30
0
41
1
10
106.235228652118
20
-10.1276931912704
30
0
41
1
10
106.24136053235
20
-9.92876671806337
30
0
41
1
10
106.244303590775
20
-9.86181261483611
30
0
41
1
10
106.250039172682
20
-9.76040730148037
30
0
41
1
10
106.252171044895
20
-9.72645211678139
30
0
41
1
10
106.256857389658
20
-9.65838968039944
30
0
41
1
10
106.259412987501
20
-9.62426149875526
30
0
41
1
10
106.284286638311
20
-9.31623812903339
30
0
41
1
10
106.319648694405
20
-9.0362612528842
30
0
41
1
10
106.41348469964
20
-8.46419355304678
30
0
41
1
10
106.471971758129
20
-8.17210187352117
30
0
41
1
10
106.575569390305
20
-7.72495408309018
30
0
41
1
10
106.612756841559
20
-7.57440217296724
30
0
41
1
10
106.672411131132
20
-7.34632075559736
30
0
41
1
10
106.692956671037
20
-7.26986468995318
30
0
41
1
10
106.735250801309
20
-7.11647570579422
30
0
41
1
10
106.756989181366
20
-7.03957716561467
30
0
41
1
10
106.823940247034
20
-6.80827386226994
30
0
41
1
10
106.870884931184
20
-6.65326084278638
30
0
41
1
10
106.944657330385
20
-6.41954523080233
30
0
41
1
10
106.96981352057
20
-6.34144211658332
30
0
41
1
10
107.00200287759
20
-6.24357990730329
30
0
41
1
10
107.008487237293
20
-6.22399819761472
30
0
41
1
10
107.021464034361
20
-6.18479442567343
30
0
41
1
10
107.027930420191
20
-6.16516557252558
30
0
41
1
10
107.048230058911
20
-6.10644847967259
30
0
41
1
10
107.062762631122
20
-6.06747787555565
30
0
41
1
10
107.086261908822
20
-6.00934048887166
30
0
41
1
10
107.094364930718
20
-5.99001095828078
30
0
41
1
10
107.111111247107
20
-5.95145206521366
30
0
41
1
10
107.119756356411
20
-5.93222148537592
30
0
41
1
10
107.146368081401
20
-5.87496544006316
30
0
41
1
10
107.165051909122
20
-5.83727901671389
30
0
41
1
10
107.223823171511
20
-5.72562597233613
30
0
41
1
10
107.266619838788
20
-5.65305973102338
30
0
41
1
10
107.405211693159
20
-5.44070995861409
30
0
41
1
10
107.51119387466
20
-5.30626965225491
30
0
41
1
10
107.659549436516
20
-5.1468155913521
30
0
41
1
10
107.690072011461
20
-5.11530951995195
30
0
41
1
10
107.752183764376
20
-5.05367570674738
30
0
41
1
10
107.783823028871
20
-5.02349191812883
30
0
41
1
10
107.880419139245
20
-4.93477085800939
30
0
41
1
10
107.947047838735
20
-4.87805679097121
30
0
41
1
10
108.15319849233
20
-4.71481498864003
30
0
41
1
10
108.298985665739
20
-4.61519169518678
30
0
41
1
10
108.490857002805
20
-4.501493079694
30
0
41
1
10
108.529674075133
20
-4.4793246983555
30
0
41
1
10
108.607732182375
20
-4.43634895121292
30
0
41
1
10
108.647034943747
20
-4.41550457063659
30
0
41
1
10
108.765738981409
20
-4.3548486662568
30
0
41
1
10
108.845934393135
20
-4.31691072532624
30
0
41
1
10
109.089496396501
20
-4.21016092786982
30
0
41
1
10
109.25582951839
20
-4.1483931218925
30
0
41
1
10
109.510871596539
20
-4.06904716059705
30
0
41
1
10
109.596808972993
20
-4.04481450732155
30
0
41
1
10
109.727076244326
20
-4.01174705025701
30
0
41
1
10
109.770725855048
20
-4.00127222586627
30
0
41
1
10
109.858479253713
20
-3.98141960679376
30
0
41
1
10
109.90262314629
20
-3.97203613558835
30
0
41
1
10
110.123310202908
20
-3.92808406612818
30
0
41
1
10
110.30055849465
20
-3.90213973195685
30
0
41
1
10
110.656360017706
20
-3.86754351766757
30
0
41
1
10
110.834915057918
20
-3.85891522403506
30
0
41
1
10
111.103700924253
20
-3.85862405664184
30
0
41
1
10
111.193456247085
20
-3.86065039553495
30
0
41
1
10
111.328329751258
20
-3.8668800919481
30
0
41
1
10
111.373370378802
20
-3.86949106244864
30
0
41
1
10
111.463333343704
20
-3.87576509782545
30
0
41
1
10
111.687578053743
20
-3.89404608204896
30
0
41
1
10
111.908550209839
20
-3.92514154500083
30
0
41
1
10
112.12701653319
20
-3.96599824974913
30
0
41
1
10
112.170586505592
20
-3.97464971999724
30
0
41
1
10
112.235746715894
20
-3.98838416784886
30
0
41
1
10
112.257434116133
20
-3.99308935069877
30
0
41
1
10
112.30073862223
20
-4.00277289797191
30
0
41
1
10
112.322373746241
20
-4.00768081641186
30
0
41
1
10
112.430569733857
20
-4.03213665780652
30
0
41
1
10
112.517098829007
20
-4.05179639990146
30
0
41
1
10
112.949604994319
20
-4.15057155124271
30
0
41
1
10
113.295159176299
20
-4.23113591820137
30
0
41
1
10
113.985315252756
20
-4.3954911209492
30
0
41
1
10
114.329915470684
20
-4.47928814548325
30
0
41
1
10
115.018197712222
20
-4.6499127660762
30
0
41
1
10
115.361878338791
20
-4.73674528122058
30
0
41
1
10
116.048472340151
20
-4.91279946135117
30
0
41
1
10
116.391383758762
20
-5.00202776948927
30
0
41
1
10
117.076788753902
20
-5.18149200452584
30
0
41
1
10
117.419286845927
20
-5.2717098097967
30
0
41
1
10
117.761860999579
20
-5.36134263843641
30
0
0
SPLINE
5
165
100
AcDbEntity
8
1
62
256
6
ByLayer
370
18
48
1
60
0
100
AcDbSpline
70
4
71
3
72
12
73
8
40
0
40
0
40
0
40
0
40
0.499999999999999
40
0.499999999999999
40
0.75
40
0.75
40
1
40
1
40
1
40
1
41
1
10
117.761860999579
20
-14.7110037475432
30
0
41
1
10
117.841614114205
20
-14.7115075531686
30
0
41
1
10
117.920721269011
20
-14.7169753691347
30
0
41
1
10
118.038455721577
20
-14.732396312295
30
0
41
1
10
118.077558517557
20
-14.7387500844129
30
0
41
1
10
118.15500254403
20
-14.7537688489608
30
0
41
1
10
118.193401243639
20
-14.7624398990479
30
0
41
1
10
118.231480942139
20
-14.7722551318204
30
0
0
SPLINE
5
166
100
AcDbEntity
8
1
62
256
6
ByLayer
370
18
48
1
60
0
100
AcDbSpline
70
4
71
3
72
16
73
12
40
0
40
0
40
0
40
0
40
0.124999999999992
40
0.124999999999992
40
0.249999999999984
40
0.249999999999984
40
0.49999999999999
40
0.49999999999999
40
0.749999999999995
40
0.749999999999995
40
1
40
1
40
1
40
1
41
1
10
120.077898281953
20
-15.2388169167239
30
0
41
1
10
120.000589340229
20
-15.2195549303593
30
0
41
1
10
119.923315965104
20
-15.2002760407284
30
0
41
1
10
119.768883291576
20
-15.1616708128101
30
0
41
1
10
119.691715531021
20
-15.1423454480557
30
0
41
1
10
119.460288141466
20
-15.0843229567692
30
0
41
1
10
119.306108133305
20
-15.0455780367904
30
0
41
1
10
118.998159114458
20
-14.9679015822269
30
0
41
1
10
118.844383817608
20
-14.9289714417027
30
0
41
1
10
118.537442713661
20
-14.8508406007227
30
0
41
1
10
118.384278130845
20
-14.8116393715391
30
0
41
1
10
118.231480942139
20
-14.7722551318204
30
0
0
SPLINE
5
167
100
AcDbEntity
8
1
62
256
6
ByLayer
370
18
48
1
60
0
100
AcDbSpline
70
4
71
3
72
10
73
6
40
0
40
0
40
0
40
0
40
0.5
40
0.5
40
1
40
1
40
1
40
1
41
1
10
120.537308409774
20
-15.2960216655115
30
0
41
1
10
120.459348512066
20
-15.2957450406018
30
0
41
1
10
120.382094018997
20
-15.2907612540705
30
0
41
1
10
120.228959948145
20
-15.2716636911243
30
0
41
1
10
120.153080669821
20
-15.2575490594442
30
0
41
1
10
120.077898281953
20
-15.2388169167238
30
0
0
SPLINE
5
168
100
AcDbEntity
8
1
62
256
6
ByLayer
370
18
48
1
60
0
100
AcDbSpline
70
4
71
3
72
16
73
12
40
0
40
0
40
0
40
0
40
0.499999999999996
40
0.499999999999996
40
0.749999999999998
40
0.749999999999998
40
0.812499999999999
40
0.812499999999999
40
0.874999999999999
40
0.874999999999999
40
1
40
1
40
1
40
1
41
1
10
126.299686010018
20
-15.3163640559183
30
0
41
1
10
125.339268289779
20
-15.3130215040062
30
0
41
1
10
124.378850004306
20
-15.3096264957306
30
0
41
1
10
122.938221960491
20
-15.3044564406079
30
0
41
1
10
122.458012601938
20
-15.3027203962158
30
0
41
1
10
121.857750657434
20
-15.3005339052992
30
0
41
1
10
121.737696358792
20
-15.3000910263456
30
0
41
1
10
121.497603559695
20
-15.2992434592101
30
0
41
1
10
121.377566203951
20
-15.2988415306054
30
0
41
1
10
121.017461903429
20
-15.2976512367775
30
0
41
1
10
120.77740188292
20
-15.2968735885805
30
0
41
1
10
120.537308409774
20
-15.2960216655115
30
0
0
SPLINE
5
169
100
AcDbEntity
8
1
62
256
6
ByLayer
370
18
48
1
60
0
100
AcDbSpline
70
4
71
3
72
8
73
4
40
0
40
0
40
0
40
0
40
1
40
1
40
1
40
1
41
1
10
126.323662973753
20
-15.3161481347074
30
0
41
1
10
126.315673224302
20
-15.3163198622536
30
0
41
1
10
126.307680904207
20
-15.3163918806328
30
0
41
1
10
126.299686010018
20
-15.3163640559183
30
0
0
SPLINE
5
16A
100
AcDbEntity
8
1
62
256
6
ByLayer
370
18
48
1
60
0
100
AcDbSpline
70
4
71
3
72
12
73
8
40
0
40
0
40
0
40
0
40
0.154035429813769
40
0.154035429813769
40
0.770177153786573
40
0.770177153786573
40
1
40
1
40
1
40
1
41
1
10
128.744802012279
20
-15.2638052429731
30
0
41
1
10
128.620488972112
20
-15.2665085277753
30
0
41
1
10
128.496175823115
20
-15.2692093692116
30
0
41
1
10
127.874609538052
20
-15.282701406984
30
0
41
1
10
127.377354785357
20
-15.2934560976763
30
0
41
1
10
126.694620140914
20
-15.3081696606079
30
0
41
1
10
126.509141670658
20
-15.3121615514388
30
0
41
1
10
126.323662973753
20
-15.3161481347074
30
0
0
SPLINE
5
16B
100
AcDbEntity
8
1
62
256
6
ByLayer
370
18
48
1
60
0
100
AcDbSpline
70
4
71
3
72
32
73
28
40
0
40
0
40
0
40
0
40
0.125000000000014
40
0.125000000000014
40
0.250000000000028
40
0.250000000000028
40
0.312500000000036
40
0.312500000000036
40
0.375000000000043
40
0.375000000000043
40
0.500000000000057
40
0.500000000000057
40
0.562500000000091
40
0.562500000000091
40
0.625000000000125
40
0.625000000000125
40
0.75000000000019
40
0.75000000000019
40
0.781250000000206
40
0.781250000000206
40
0.812500000000223
40
0.875000000000177
40
0.93750000000013
40
0.93750000000013
40
0.968750000000065
40
0.968750000000065
40
1
40
1
40
1
40
1
41
1
10
129.284206110778
20
-14.6664288152593
30
0
41
1
10
129.285145461323
20
-14.7020504604972
30
0
41
1
10
129.283037951405
20
-14.7372271414589
30
0
41
1
10
129.272924177514
20
-14.8067190487651
30
0
41
1
10
129.264919302877
20
-14.8410344779984
30
0
41
1
10
129.248188266737
20
-14.8918177701433
30
0
41
1
10
129.241779798538
20
-14.9087138920906
30
0
41
1
10
129.227493955753
20
-14.941743822762
30
0
41
1
10
129.21962555337
20
-14.9578841240228
30
0
41
1
10
129.193826951817
20
-15.0051722818261
30
0
41
1
10
129.17372663168
20
-15.0351994115761
30
0
41
1
10
129.13878638098
20
-15.0777665029592
30
0
41
1
10
129.126336163819
20
-15.0915405952972
30
0
41
1
10
129.099670931582
20
-15.1181773777566
30
0
41
1
10
129.085606070472
20
-15.1308802910891
30
0
41
1
10
129.041554846892
20
-15.1667269451083
30
0
41
1
10
129.009581733214
20
-15.1877977807926
30
0
41
1
10
128.965897624229
20
-15.2101028563352
30
0
41
1
10
128.956966291644
20
-15.2143600242474
30
0
41
1
10
128.938969858604
20
-15.2223359768871
30
0
41
1
10
128.911683164582
20
-15.2335400976242
30
0
41
1
10
128.864748694683
20
-15.2484238943913
30
0
41
1
10
128.825604895925
20
-15.2561780605516
30
0
41
1
10
128.795608704041
20
-15.2603329173635
30
0
41
1
10
128.785477488857
20
-15.2614416050449
30
0
41
1
10
128.765182119155
20
-15.263065212867
30
0
41
1
10
128.755006270334
20
-15.2635833433584
30
0
41
1
10
128.744802012279
20
-15.2638052429731
30
0
0
SPLINE
5
16C
100
AcDbEntity
8
1
62
256
6
ByLayer
370
18
48
1
60
0
100
AcDbSpline
70
4
71
3
72
8
73
4
40
0
40
0
40
0
40
0
40
1
40
1
40
1
40
1
41
1
10
129.284206110773
20
-13.6349884193615
30
0
41
1
10
129.284206110773
20
-13.9788019298153
30
0
41
1
10
129.284206110773
20
-14.3226153934432
30
0
41
1
10
129.284206110773
20
-14.6664288152595
30
0
0
SPLINE
5
16D
100
AcDbEntity
8
1
62
256
6
ByLayer
370
18
48
1
60
0
100
AcDbSpline
70
4
71
3
72
8
73
4
40
0
40
0
40
0
40
0
40
1
40
1
40
1
40
1
41
1
10
129.279891962182
20
-13.5325968821646
30
0
41
1
10
129.282766540859
20
-13.5666963605203
30
0
41
1
10
129.284206110773
20
-13.6008268400254
30
0
41
1
10
129.284206110773
20
-13.6349884193615
30
0
0
SPLINE
5
16E
100
AcDbEntity
8
1
62
256
6
ByLayer
370
18
48
1
60
0
100
AcDbSpline
70
4
71
3
72
8
73
4
40
0
40
0
40
0
40
0
40
1
40
1
40
1
40
1
41
1
10
129.155770865428
20
-12.0105648687433
30
0
41
1
10
129.195604859371
20
-12.517988054999
30
0
41
1
10
129.237129137033
20
-13.0253260105801
30
0
41
1
10
129.279891962182
20
-13.5325968821646
30
0
0
SPLINE
5
16F
100
AcDbEntity
8
1
62
256
6
ByLayer
370
18
48
1
60
0
100
AcDbSpline
70
4
71
3
72
12
73
8
40
0
40
0
40
0
40
0
40
0.500000000000005
40
0.500000000000005
40
0.750000000000003
40
0.750000000000003
40
1
40
1
40
1
40
1
41
1
10
129.093665440516
20
-11.692675784276
30
0
41
1
10
129.110195212094
20
-11.7446551429447
30
0
41
1
10
129.123570106713
20
-11.7971899626484
30
0
41
1
10
129.139089755136
20
-11.8767919982648
30
0
41
1
10
129.143503224426
20
-11.9034723252085
30
0
41
1
10
129.150787354037
20
-11.9569214849328
30
0
41
1
10
129.15366275273
20
-11.983710788689
30
0
41
1
10
129.155770865428
20
-12.0105648687433
30
0
0
SPLINE
5
170
100
AcDbEntity
8
1
62
256
6
ByLayer
370
18
48
1
60
0
100
AcDbSpline
70
4
71
3
72
10
73
6
40
0
40
0
40
0
40
0
40
0.5
40
0.5
40
1
40
1
40
1
40
1
41
1
10
128.40941734482
20
-9.34368486823274
30
0
41
1
10
128.511800477613
20
-9.73759590409475
30
0
41
1
10
128.621045777542
20
-10.1301549818073
30
0
41
1
10
128.850077148636
20
-10.9130484973768
30
0
41
1
10
128.969848552033
20
-11.3033224030152
30
0
41
1
10
129.093665440515
20
-11.692675784276
30
0
0
SPLINE
5
171
100
AcDbEntity
8
1
62
256
6
ByLayer
370
18
48
1
60
0
100
AcDbSpline
70
4
71
3
72
12
73
8
40
0
40
0
40
0
40
0
40
0.250000000000001
40
0.250000000000001
40
0.500000000000003
40
0.500000000000003
40
1
40
1
40
1
40
1
41
1
10
128.40941734482
20
-9.34368486823351
30
0
41
1
10
128.397697439739
20
-9.2985934569343
30
0
41
1
10
128.3877300315
20
-9.25326140090399
30
0
41
1
10
128.370935768551
20
-9.16216604286063
30
0
41
1
10
128.364105963299
20
-9.11636375631832
30
0
41
1
10
128.34797013914
20
-8.97864135914904
30
0
41
1
10
128.342997771317
20
-8.88661017428356
30
0
41
1
10
128.342997771317
20
-8.79439311135721
30
0
0
SPLINE
5
172
100
AcDbEntity
8
1
62
256
6
ByLayer
370
18
48
1
60
0
100
AcDbSpline
70
4
71
3
72
8
73
4
40
0
40
0
40
0
40
0
40
1
40
1
40
1
40
1
41
1
10
128.342997771317
20
-8.33814511136413
30
0
41
1
10
128.342997771317
20
-8.49022779254537
30
0
41
1
10
128.342997771317
20
-8.64231045916114
30
0
41
1
10
128.342997771317
20
-8.79439311135721
30
0
0
SPLINE
5
173
100
AcDbEntity
8
1
62
256
6
ByLayer
370
18
48
1
60
0
100
AcDbSpline
70
4
71
3
72
38
73
34
40
0
40
0
40
0
40
0
40
0.0625000000000063
40
0.0625000000000063
40
0.093750000000039
40
0.093750000000039
40
0.125000000000072
40
0.125000000000072
40
0.187500000000076
40
0.187500000000076
40
0.250000000000081
40
0.250000000000081
40
0.312500000000086
40
0.312500000000086
40
0.37500000000009
40
0.37500000000009
40
0.437500000000095
40
0.437500000000095
40
0.5000000000001
40
0.5000000000001
40
0.62500000000006
40
0.62500000000006
40
0.750000000000021
40
0.750000000000021
40
0.812500000000004
40
0.812500000000004
40
0.874999999999987
40
0.874999999999987
40
0.90624999999999
40
0.90624999999999
40
0.937499999999994
40
0.937499999999994
40
1
40
1
40
1
40
1
41
1
10
124.112067462594
20
13.3339366903395
30
0
41
1
10
124.123814527156
20
13.3271396400249
30
0
41
1
10
124.13638437196
20
13.3224030682753
30
0
41
1
10
124.156073737535
20
13.3173511113043
30
0
41
1
10
124.162781035531
20
13.3160239185037
30
0
41
1
10
124.176250777994
20
13.3140122998752
30
0
41
1
10
124.183039830468
20
13.3133208878579
30
0
41
1
10
124.203552144251
20
13.3120649384864
30
0
41
1
10
124.217273002348
20
13.3123180045092
30
0
41
1
10
124.244730055763
20
13.3145358382902
30
0
41
1
10
124.258424068885
20
13.3165052938138
30
0
41
1
10
124.285547096557
20
13.3218607442245
30
0
41
1
10
124.299048370945
20
13.3252651530356
30
0
41
1
10
124.325637023992
20
13.3332945934244
30
0
41
1
10
124.338739098915
20
13.3379196855914
30
0
41
1
10
124.364588499098
20
13.348306870391
30
0
41
1
10
124.377324312822
20
13.3540689471165
30
0
41
1
10
124.402200504745
20
13.3665748366304
30
0
41
1
10
124.414373944203
20
13.3733315519658
30
0
41
1
10
124.450102464828
20
13.3951068332493
30
0
41
1
10
124.472556447221
20
13.4114153998176
30
0
41
1
10
124.514355328206
20
13.4476326724337
30
0
41
1
10
124.53357015221
20
13.4674348495781
30
0
41
1
10
124.558777418691
20
13.499575025212
30
0
41
1
10
124.566596445233
20
13.5107340196597
30
0
41
1
10
124.580635893007
20
13.5337795438063
30
0
41
1
10
124.586906137495
20
13.5457380827152
30
0
41
1
10
124.594752388961
20
13.5642544045382
30
0
41
1
10
124.597102269729
20
13.570510981503
30
0
41
1
10
124.601189195468
20
13.5832234418019
30
0
41
1
10
124.602929956014
20
13.5897029652799
30
0
41
1
10
124.606988174087
20
13.6092025907037
30
0
41
1
10
124.608220605246
20
13.6223397424026
30
0
41
1
10
124.607232773227
20
13.6357011061099
30
0
0
SPLINE
5
174
100
AcDbEntity
8
1
62
256
6
ByLayer
370
18
48
1
60
0
100
AcDbSpline
70
4
71
3
72
8
73
4
40
0
40
0
40
0
40
0
40
1
40
1
40
1
40
1
41
1
10
124.607232773227
20
13.6357011061099
30
0
41
1
10
124.60669639795
20
13.6429560897602
30
0
41
1
10
124.606159657636
20
13.6502103705129
30
0
41
1
10
124.605622570652
20
13.6574639816639
30
0
0
SPLINE
5
175
100
AcDbEntity
8
1
62
256
6
ByLayer
370
18
48
1
60
0
100
AcDbSpline
70
4
71
3
72
28
73
24
40
0
40
0
40
0
40
0
40
0.250000000000036
40
0.250000000000036
40
0.375000000000025
40
0.375000000000025
40
0.500000000000015
40
0.500000000000015
40
0.625000000000005
40
0.625000000000005
40
0.687500000000002
40
0.687500000000002
40
0.75
40
0.75
40
0.812499999999998
40
0.812499999999998
40
0.843749999999997
40
0.843749999999997
40
0.874999999999996
40
0.874999999999996
40
0.937499999999998
40
0.937499999999998
40
1
40
1
40
1
40
1
41
1
10
123.786985431018
20
13.1798542119339
30
0
41
1
10
123.803452513706
20
13.2088245664508
30
0
41
1
10
123.822311227274
20
13.2364231498372
30
0
41
1
10
123.85423348006
20
13.2747961057865
30
0
41
1
10
123.865497986124
20
13.2870858306566
30
0
41
1
10
123.889321474945
20
13.3102561558457
30
0
41
1
10
123.90192529398
20
13.3211831784844
30
0
41
1
10
123.928523395751
20
13.3409578216484
30
0
41
1
10
123.942650043532
20
13.3499008564152
30
0
41
1
10
123.964800036962
20
13.3607531126455
30
0
41
1
10
123.972354063729
20
13.3639505841031
30
0
41
1
10
123.987889777647
20
13.3692815440429
30
0
41
1
10
123.99594737105
20
13.3714264693431
30
0
41
1
10
124.012118323776
20
13.3741920542435
30
0
41
1
10
124.020246605206
20
13.3748334711883
30
0
41
1
10
124.032514694701
20
13.3743838128875
30
0
41
1
10
124.036633183887
20
13.373990954394
30
0
41
1
10
124.044675777622
20
13.3727013608378
30
0
41
1
10
124.048624421605
20
13.3718057394648
30
0
41
1
10
124.060240813619
20
13.3683314616049
30
0
41
1
10
124.067768809413
20
13.3648855496331
30
0
41
1
10
124.081305208065
20
13.3562307380484
30
0
41
1
10
124.087415136446
20
13.3510237605771
30
0
41
1
10
124.0929237589
20
13.3450142722995
30
0
0
SPLINE
5
176
100
AcDbEntity
8
1
62
256
6
ByLayer
370
18
48
1
60
0
100
AcDbSpline
70
4
71
3
72
8
73
4
40
0
40
0
40
0
40
0
40
1
40
1
40
1
40
1
41
1
10
124.0929237589
20
13.3450142722995
30
0
41
1
10
124.099304405337
20
13.3413218522627
30
0
41
1
10
124.105685630322
20
13.337629326472
30
0
41
1
10
124.112067462594
20
13.3339366903395
30
0
0
SPLINE
5
177
100
AcDbEntity
8
1
62
256
6
ByLayer
370
18
48
1
60
0
100
AcDbSpline
70
4
71
3
72
30
73
26
40
0
40
0
40
0
40
0
40
0.249999999999988
40
0.249999999999988
40
0.374999999999982
40
0.374999999999982
40
0.499999999999976
40
0.499999999999976
40
0.62499999999997
40
0.62499999999997
40
0.687499999999967
40
0.687499999999967
40
0.749999999999964
40
0.749999999999964
40
0.781249999999987
40
0.781249999999987
40
0.81250000000001
40
0.81250000000001
40
0.875000000000004
40
0.875000000000004
40
0.906250000000003
40
0.906250000000003
40
0.937500000000002
40
0.937500000000002
40
1
40
1
40
1
40
1
41
1
10
124.886375612132
20
13.8498462905059
30
0
41
1
10
124.853457086291
20
13.8487109987666
30
0
41
1
10
124.820698820856
20
13.8448371439276
30
0
41
1
10
124.772546263388
20
13.83441881718
30
0
41
1
10
124.756691928102
20
13.8301741369204
30
0
41
1
10
124.725592511862
20
13.8198814553059
30
0
41
1
10
124.710349589515
20
13.813838086804
30
0
41
1
10
124.680988591975
20
13.7995257339737
30
0
41
1
10
124.666935818123
20
13.7912976241482
30
0
41
1
10
124.647556902454
20
13.7768757777963
30
0
41
1
10
124.641370088283
20
13.77171147094
30
0
41
1
10
124.629711285617
20
13.7604593255087
30
0
41
1
10
124.62429812147
20
13.7544168948719
30
0
41
1
10
124.617138636668
20
13.7447644737835
30
0
41
1
10
124.614904968971
20
13.7414407535624
30
0
41
1
10
124.610787719611
20
13.7345514679877
30
0
41
1
10
124.608896980406
20
13.7309663604189
30
0
41
1
10
124.603939489661
20
13.7200314733328
30
0
41
1
10
124.601545352329
20
13.7124604757971
30
0
41
1
10
124.599561342386
20
13.7006163337065
30
0
41
1
10
124.599177925651
20
13.6966062251784
30
0
41
1
10
124.59898561294
20
13.6886697881797
30
0
41
1
10
124.599171067275
20
13.6847142592532
30
0
41
1
10
124.600554714642
20
13.67288592106
30
0
41
1
10
124.6026143749
20
13.6650016121831
30
0
41
1
10
124.605622570652
20
13.6574639816639
30
0
0
SPLINE
5
178
100
AcDbEntity
8
1
62
256
6
ByLayer
370
18
48
1
60
0
100
AcDbSpline
70
4
71
3
72
38
73
34
40
0
40
0
40
0
40
0
40
0.0624999999999958
40
0.0624999999999958
40
0.0937499999999938
40
0.0937499999999938
40
0.124999999999992
40
0.124999999999992
40
0.187499999999993
40
0.187499999999993
40
0.249999999999995
40
0.249999999999995
40
0.312499999999996
40
0.312499999999996
40
0.374999999999997
40
0.374999999999997
40
0.437499999999999
40
0.437499999999999
40
0.5
40
0.5
40
0.625000000000003
40
0.625000000000003
40
0.750000000000006
40
0.750000000000006
40
0.812500000000008
40
0.812500000000008
40
0.875000000000009
40
0.875000000000009
40
0.906249999999996
40
0.906249999999996
40
0.937499999999984
40
0.937499999999984
40
1
40
1
40
1
40
1
41
1
10
123.817789502924
20
12.2468423844166
30
0
41
1
10
123.829341776651
20
12.252074932426
30
0
41
1
10
123.839576669073
20
12.2590992298061
30
0
41
1
10
123.853628731946
20
12.2714465421772
30
0
41
1
10
123.858086316362
20
12.275876327979
30
0
41
1
10
123.866492512146
20
12.2851466224686
30
0
41
1
10
123.870460243738
20
12.2900037192988
30
0
41
1
10
123.881754556745
20
12.3051607039028
30
0
41
1
10
123.888399176627
20
12.3159318517704
30
0
41
1
10
123.900278785934
20
12.3384997686172
30
0
41
1
10
123.905488777177
20
12.3502665291298
30
0
41
1
10
123.914610492912
20
12.3744544180911
30
0
41
1
10
123.91854307833
20
12.3869424198727
30
0
41
1
10
123.925202788946
20
12.4123560748984
30
0
41
1
10
123.927937165561
20
12.4252930234928
30
0
41
1
10
123.932302714077
20
12.4516110129569
30
0
41
1
10
123.933928175918
20
12.464983213391
30
0
41
1
10
123.936085665561
20
12.4918976755174
30
0
41
1
10
123.93662358028
20
12.5054733318654
30
0
41
1
10
123.936622320279
20
12.5465573763414
30
0
41
1
10
123.934490749691
20
12.5740530221176
30
0
41
1
10
123.925749777013
20
12.6289346716104
30
0
41
1
10
123.919162837763
20
12.6561546479829
30
0
41
1
10
123.905465967507
20
12.6956504669533
30
0
41
1
10
123.900241274699
20
12.7086319190194
30
0
41
1
10
123.888382487734
20
12.733763498616
30
0
41
1
10
123.881714395826
20
12.7459970040583
30
0
41
1
10
123.870438054215
20
12.7634350133839
30
0
41
1
10
123.866473845991
20
12.769083827424
30
0
41
1
10
123.858066450195
20
12.7800021696726
30
0
41
1
10
123.853605634471
20
12.7852888384595
30
0
41
1
10
123.839573828729
20
12.800233134628
30
0
41
1
10
123.829347906356
20
12.8090732330445
30
0
41
1
10
123.817789502924
20
12.8162167650889
30
0
0
SPLINE
5
179
100
AcDbEntity
8
1
62
256
6
ByLayer
370
18
48
1
60
0
100
AcDbSpline
70
4
71
3
72
8
73
4
40
0
40
0
40
0
40
0
40
1
40
1
40
1
40
1
41
1
10
123.817789502924
20
12.8162167650889
30
0
41
1
10
123.811513494743
20
12.8200955763632
30
0
41
1
10
123.805238076247
20
12.8239742463277
30
0
41
1
10
123.798963219549
20
12.8278527810704
30
0
0
SPLINE
5
17A
100
AcDbEntity
8
1
62
256
6
ByLayer
370
18
48
1
60
0
100
AcDbSpline
70
4
71
3
72
30
73
26
40
0
40
0
40
0
40
0
40
0.250000000000008
40
0.250000000000008
40
0.375000000000012
40
0.375000000000012
40
0.500000000000016
40
0.500000000000016
40
0.62500000000002
40
0.62500000000002
40
0.687500000000018
40
0.687500000000018
40
0.750000000000017
40
0.750000000000017
40
0.781249999999998
40
0.781249999999998
40
0.812499999999979
40
0.812499999999979
40
0.874999999999984
40
0.874999999999984
40
0.906249999999987
40
0.906249999999987
40
0.937499999999989
40
0.937499999999989
40
1
40
1
40
1
40
1
41
1
10
123.786985431018
20
13.1798542119339
30
0
41
1
10
123.770526168098
20
13.150897614646
30
0
41
1
10
123.75646720498
20
13.1205978123743
30
0
41
1
10
123.739781893894
20
13.0734636464601
30
0
41
1
10
123.734974229729
20
13.0574965107129
30
0
41
1
10
123.727193649973
20
13.0250751307969
30
0
41
1
10
123.724218105051
20
13.0086256779908
30
0
41
1
10
123.720717995447
20
12.9754151152607
30
0
41
1
10
123.72019385118
20
12.9587335852954
30
0
41
1
10
123.722027573745
20
12.933938389576
30
0
41
1
10
123.723078549435
20
12.9256960435979
30
0
41
1
10
123.726320119368
20
12.9092700982142
30
0
41
1
10
123.728503783572
20
12.9011626900484
30
0
41
1
10
123.732767159472
20
12.8894568894998
30
0
41
1
10
123.734355886913
20
12.8856199760153
30
0
41
1
10
123.737915602641
20
12.8780948354742
30
0
41
1
10
123.739899038889
20
12.8743890318129
30
0
41
1
10
123.746369139761
20
12.8637598393739
30
0
41
1
10
123.751388170264
20
12.8572648233444
30
0
41
1
10
123.760152622867
20
12.8485634993949
30
0
41
1
10
123.763269413934
20
12.8458563648715
30
0
41
1
10
123.769731126788
20
12.8409672637257
30
0
41
1
10
123.773097263865
20
12.8387632176959
30
0
41
1
10
123.783592005095
20
12.8328573640305
30
0
41
1
10
123.791175700476
20
12.8298602873348
30
0
41
1
10
123.798963219549
20
12.8278527810704
30
0
0
SPLINE
5
17B
100
AcDbEntity
8
1
62
256
6
ByLayer
370
18
48
1
60
0
100
AcDbSpline
70
4
71
3
72
8
73
4
40
0
40
0
40
0
40
0
40
1
40
1
40
1
40
1
41
1
10
123.798963219549
20
12.2383172014479
30
0
41
1
10
123.805238076247
20
12.2411579844219
30
0
41
1
10
123.811513494743
20
12.2439996960517
30
0
41
1
10
123.817789502924
20
12.2468423844166
30
0
0
SPLINE
5
17C
100
AcDbEntity
8
1
62
256
6
ByLayer
370
18
48
1
60
0
100
AcDbSpline
70
4
71
3
72
28
73
24
40
0
40
0
40
0
40
0
40
0.249999999999979
40
0.249999999999979
40
0.37499999999998
40
0.37499999999998
40
0.499999999999981
40
0.499999999999981
40
0.624999999999982
40
0.624999999999982
40
0.687499999999982
40
0.687499999999982
40
0.749999999999983
40
0.749999999999983
40
0.812499999999983
40
0.812499999999983
40
0.84375000000001
40
0.84375000000001
40
0.875000000000037
40
0.875000000000037
40
0.937500000000018
40
0.937500000000018
40
1
40
1
40
1
40
1
41
1
10
123.786985431018
20
11.9157014329573
30
0
41
1
10
123.770518348331
20
11.9435359563597
30
0
41
1
10
123.756445361557
20
11.9725958426148
30
0
41
1
10
123.739766930804
20
12.0175329938662
30
0
41
1
10
123.734952410463
20
12.0327517698145
30
0
41
1
10
123.727178815469
20
12.0634801697279
30
0
41
1
10
123.724202813158
20
12.0790493907403
30
0
41
1
10
123.720716777757
20
12.1101782624662
30
0
41
1
10
123.720192123529
20
12.125891780145
30
0
41
1
10
123.722054170047
20
12.1488281445642
30
0
41
1
10
123.723115616261
20
12.1563798397848
30
0
41
1
10
123.726350298472
20
12.1712345320277
30
0
41
1
10
123.728551684966
20
12.178602186232
30
0
41
1
10
123.734266808858
20
12.1925436389551
30
0
41
1
10
123.737770470459
20
12.1991402759979
30
0
41
1
10
123.744250898554
20
12.2083110127574
30
0
41
1
10
123.746629858517
20
12.2112556260294
30
0
41
1
10
123.751714447784
20
12.2167152140667
30
0
41
1
10
123.754431346802
20
12.2192496487527
30
0
41
1
10
123.763128949999
20
12.226237064133
30
0
41
1
10
123.769768217961
20
12.2300984157416
30
0
41
1
10
123.783768927882
20
12.2356638205255
30
0
41
1
10
123.791179297437
20
12.2374470239772
30
0
41
1
10
123.798963219549
20
12.2383172014479
30
0
0
SPLINE
5
17D
100
AcDbEntity
8
1
62
256
6
ByLayer
370
18
48
1
60
0
100
AcDbSpline
70
4
71
3
72
38
73
34
40
0
40
0
40
0
40
0
40
0.0624999999999047
40
0.0624999999999047
40
0.0937499999998823
40
0.0937499999998823
40
0.12499999999986
40
0.12499999999986
40
0.187499999999877
40
0.187499999999877
40
0.249999999999895
40
0.249999999999895
40
0.312499999999913
40
0.312499999999913
40
0.37499999999993
40
0.37499999999993
40
0.437499999999948
40
0.437499999999948
40
0.499999999999966
40
0.499999999999966
40
0.625000000000004
40
0.625000000000004
40
0.750000000000043
40
0.750000000000043
40
0.812500000000008
40
0.812500000000008
40
0.874999999999972
40
0.874999999999972
40
0.906249999999954
40
0.906249999999954
40
0.937499999999936
40
0.937499999999936
40
1
40
1
40
1
40
1
41
1
10
125.195788692568
20
13.6559991801053
30
0
41
1
10
125.197165582387
20
13.6426583381222
30
0
41
1
10
125.200604847965
20
13.6296725092393
30
0
41
1
10
125.207812239514
20
13.6105316183622
30
0
41
1
10
125.21057027249
20
13.6042107863154
30
0
41
1
10
125.216608425812
20
13.5918477904805
30
0
41
1
10
125.219898171692
20
13.5857796810601
30
0
41
1
10
125.230469246672
20
13.5678658491089
30
0
41
1
10
125.238368772591
20
13.5564345351262
30
0
41
1
10
125.255449567199
20
13.5344168600573
30
0
41
1
10
125.264610751204
20
13.523868412772
30
0
41
1
10
125.283816598227
20
13.5036998433092
30
0
41
1
10
125.29391553545
20
13.4940280723006
30
0
41
1
10
125.314752478257
20
13.4756366579691
30
0
41
1
10
125.325498908748
20
13.4669046927516
30
0
41
1
10
125.347591397622
20
13.4502987570786
30
0
41
1
10
125.358930892123
20
13.442434456851
30
0
41
1
10
125.38195439406
20
13.4276877851255
30
0
41
1
10
125.393666413604
20
13.4207839922271
30
0
41
1
10
125.429396015442
20
13.4014754273551
30
0
41
1
10
125.453676362797
20
13.3906268975811
30
0
41
1
10
125.502997564133
20
13.3733143111711
30
0
41
1
10
125.527888393608
20
13.3669069655169
30
0
41
1
10
125.564983928123
20
13.3615575147493
30
0
41
1
10
125.57734866584
20
13.3604882177159
30
0
41
1
10
125.601746295497
20
13.3600667089123
30
0
41
1
10
125.613858520188
20
13.3607081070412
30
0
41
1
10
125.631630296225
20
13.3632848137549
30
0
41
1
10
125.63747639375
20
13.3644116963575
30
0
41
1
10
125.648996021262
20
13.3672869940511
30
0
41
1
10
125.654688950975
20
13.369044065091
30
0
41
1
10
125.671211220654
20
13.375338426102
30
0
41
1
10
125.681566157999
20
13.3808594441278
30
0
41
1
10
125.690954003201
20
13.3883892152033
30
0
0
SPLINE
5
17E
100
AcDbEntity
8
1
62
256
6
ByLayer
370
18
48
1
60
0
100
AcDbSpline
70
4
71
3
72
8
73
4
40
0
40
0
40
0
40
0
40
1
40
1
40
1
40
1
41
1
10
125.690954003201
20
13.3883892152033
30
0
41
1
10
125.696051436737
20
13.392477747425
30
0
41
1
10
125.701147568114
20
13.3965661034523
30
0
41
1
10
125.706242461104
20
13.4006542910631
30
0
0
SPLINE
5
17F
100
AcDbEntity
8
1
62
256
6
ByLayer
370
18
48
1
60
0
100
AcDbSpline
70
4
71
3
72
28
73
24
40
0
40
0
40
0
40
0
40
0.250000000000199
40
0.250000000000199
40
0.375000000000247
40
0.375000000000247
40
0.500000000000296
40
0.500000000000296
40
0.625000000000344
40
0.625000000000344
40
0.687500000000369
40
0.687500000000369
40
0.750000000000393
40
0.750000000000393
40
0.812500000000417
40
0.812500000000417
40
0.843750000000369
40
0.843750000000369
40
0.875000000000321
40
0.875000000000321
40
0.937500000000161
40
0.937500000000161
40
1
40
1
40
1
40
1
41
1
10
124.886375612132
20
13.8498462905059
30
0
41
1
10
124.919309777507
20
13.8509821216203
30
0
41
1
10
124.952375777105
20
13.8493718472616
30
0
41
1
10
125.00143203827
20
13.8423023023369
30
0
41
1
10
125.017706504919
20
13.8391564591082
30
0
41
1
10
125.049807847875
20
13.8310390347762
30
0
41
1
10
125.065697132341
20
13.8260535643437
30
0
41
1
10
125.096560608288
20
13.813834854007
30
0
41
1
10
125.111685415032
20
13.8065391358209
30
0
41
1
10
125.132861753091
20
13.7934695794804
30
0
41
1
10
125.13968061979
20
13.7887534227101
30
0
41
1
10
125.152715442821
20
13.7784157321577
30
0
41
1
10
125.158983467023
20
13.7727361947939
30
0
41
1
10
125.170349465105
20
13.7605507214541
30
0
41
1
10
125.175472300352
20
13.7540428557515
30
0
41
1
10
125.182094104812
20
13.7434971872455
30
0
41
1
10
125.184127700597
20
13.7398335220566
30
0
41
1
10
125.187691046205
20
13.7324128656184
30
0
41
1
10
125.189235617237
20
13.7286358071475
30
0
41
1
10
125.193125685834
20
13.7170967215133
30
0
41
1
10
125.194716514219
20
13.70901065268
30
0
41
1
10
125.195667850351
20
13.6932201289976
30
0
41
1
10
125.195087442366
20
13.6854312510396
30
0
41
1
10
125.193543649353
20
13.6777401613212
30
0
0
SPLINE
5
180
100
AcDbEntity
8
1
62
256
6
ByLayer
370
18
48
1
60
0
100
AcDbSpline
70
4
71
3
72
8
73
4
40
0
40
0
40
0
40
0
40
1
40
1
40
1
40
1
41
1
10
125.193543649353
20
13.6777401613212
30
0
41
1
10
125.194292315816
20
13.670493847108
30
0
41
1
10
125.195040669109
20
13.6632468644484
30
0
41
1
10
125.195788692568
20
13.6559991801053
30
0
0
SPLINE
5
181
100
AcDbEntity
8
1
62
256
6
ByLayer
370
18
48
1
60
0
100
AcDbSpline
70
4
71
3
72
30
73
26
40
0
40
0
40
0
40
0
40
0.249999999999921
40
0.249999999999921
40
0.374999999999817
40
0.374999999999817
40
0.499999999999713
40
0.499999999999713
40
0.62499999999961
40
0.62499999999961
40
0.687499999999555
40
0.687499999999555
40
0.749999999999501
40
0.749999999999501
40
0.781249999999563
40
0.781249999999563
40
0.812499999999626
40
0.812499999999626
40
0.87499999999975
40
0.87499999999975
40
0.906249999999813
40
0.906249999999813
40
0.937499999999875
40
0.937499999999875
40
1
40
1
40
1
40
1
41
1
10
125.985765793245
20
13.2556855901013
30
0
41
1
10
125.969306530325
20
13.2835068956498
30
0
41
1
10
125.950741198584
20
13.309784236179
30
0
41
1
10
125.919729316106
20
13.3459949627966
30
0
41
1
10
125.908877583921
20
13.3575011822106
30
0
41
1
10
125.886062718083
20
13.3790708509167
30
0
41
1
10
125.874103855555
20
13.3891347149781
30
0
41
1
10
125.849023181726
20
13.4071674721399
30
0
41
1
10
125.835963505457
20
13.4151007056705
30
0
41
1
10
125.81563584564
20
13.4244923924572
30
0
41
1
10
125.808724084042
20
13.427208784629
30
0
41
1
10
125.794561477243
20
13.4315642176424
30
0
41
1
10
125.787373590236
20
13.4331755768595
30
0
41
1
10
125.77663103401
20
13.4344743283716
30
0
41
1
10
125.77304712023
20
13.434722986115
30
0
41
1
10
125.765874624454
20
13.4347992583421
30
0
41
1
10
125.762267960767
20
13.4346232169262
30
0
41
1
10
125.751673569443
20
13.4333932945991
30
0
41
1
10
125.744859446973
20
13.4316528218385
30
0
41
1
10
125.735090383194
20
13.4274236053142
30
0
41
1
10
125.7319286925
20
13.425745131104
30
0
41
1
10
125.725958777804
20
13.4219389450603
30
0
41
1
10
125.723126084454
20
13.4198014548247
30
0
41
1
10
125.715076872559
20
13.4127010773978
30
0
41
1
10
125.710289939751
20
13.4069962142482
30
0
41
1
10
125.706242461104
20
13.4006542910631
30
0
0
SPLINE
5
182
100
AcDbEntity
8
1
62
256
6
ByLayer
370
18
48
1
60
0
100
AcDbSpline
70
4
71
3
72
8
73
4
40
0
40
0
40
0
40
0
40
1
40
1
40
1
40
1
41
1
10
124.112067462594
20
11.7494205331614
30
0
41
1
10
124.105685630322
20
11.7467567206312
30
0
41
1
10
124.099304405337
20
11.7440938550819
30
0
41
1
10
124.0929237589
20
11.7414318898762
30
0
0
SPLINE
5
183
100
AcDbEntity
8
1
62
256
6
ByLayer
370
18
48
1
60
0
100
AcDbSpline
70
4
71
3
72
30
73
26
40
0
40
0
40
0
40
0
40
0.250000000000161
40
0.250000000000161
40
0.375000000000204
40
0.375000000000204
40
0.500000000000247
40
0.500000000000247
40
0.625000000000289
40
0.625000000000289
40
0.687500000000311
40
0.687500000000311
40
0.750000000000332
40
0.750000000000332
40
0.781250000000291
40
0.781250000000291
40
0.81250000000025
40
0.81250000000025
40
0.875000000000167
40
0.875000000000167
40
0.906250000000125
40
0.906250000000125
40
0.937500000000083
40
0.937500000000083
40
1
40
1
40
1
40
1
41
1
10
123.786985431018
20
11.9157014329573
30
0
41
1
10
123.803444693939
20
11.8878801274087
30
0
41
1
10
123.822277966833
20
11.8613055730724
30
0
41
1
10
123.854200577118
20
11.8240846213568
30
0
41
1
10
123.865442187174
20
11.8121459297956
30
0
41
1
10
123.889264994306
20
11.7894582018987
30
0
41
1
10
123.901840886626
20
11.7787098973516
30
0
41
1
10
123.92848198867
20
11.7589462347141
30
0
41
1
10
123.942479571571
20
11.7499726279649
30
0
41
1
10
123.964577188224
20
11.7386176160166
30
0
41
1
10
123.972141006346
20
11.7351779299448
30
0
41
1
10
123.987779144744
20
11.7291857630533
30
0
41
1
10
123.99578491444
20
11.7266671672127
30
0
41
1
10
124.007888079617
20
11.7238591598042
30
0
41
1
10
124.011948956115
20
11.7230814310209
30
0
41
1
10
124.020130390515
20
11.7218859933151
30
0
41
1
10
124.024272077734
20
11.7214685597142
30
0
41
1
10
124.036532869644
20
11.7208500266811
30
0
41
1
10
124.044545082843
20
11.7212615169333
30
0
41
1
10
124.056272944158
20
11.723317936691
30
0
41
1
10
124.060111669067
20
11.7242454104902
30
0
41
1
10
124.0674498055
20
11.7265338961523
30
0
41
1
10
124.070978477634
20
11.72789937171
30
0
41
1
10
124.081151453465
20
11.7326439633388
30
0
41
1
10
124.087412590903
20
11.7367135645516
30
0
41
1
10
124.0929237589
20
11.7414318898762
30
0
0
SPLINE
5
184
100
AcDbEntity
8
1
62
256
6
ByLayer
370
18
48
1
60
0
100
AcDbSpline
70
4
71
3
72
8
73
4
40
0
40
0
40
0
40
0
40
1
40
1
40
1
40
1
41
1
10
124.607232773227
20
11.4818105682594
30
0
41
1
10
124.60669639795
20
11.4759876036078
30
0
41
1
10
124.606159657636
20
11.4701661114262
30
0
41
1
10
124.605622570652
20
11.4643460196181
30
0
0
SPLINE
5
185
100
AcDbEntity
8
1
62
256
6
ByLayer
370
18
48
1
60
0
100
AcDbSpline
70
4
71
3
72
38
73
34
40
0
40
0
40
0
40
0
40
0.0312500000000052
40
0.0312500000000052
40
0.0625000000000103
40
0.0625000000000103
40
0.125000000000079
40
0.125000000000079
40
0.156250000000113
40
0.156250000000113
40
0.187500000000148
40
0.187500000000148
40
0.250000000000155
40
0.250000000000155
40
0.312500000000162
40
0.312500000000162
40
0.37500000000017
40
0.37500000000017
40
0.500000000000123
40
0.500000000000123
40
0.625000000000077
40
0.625000000000077
40
0.750000000000031
40
0.750000000000031
40
0.81250000000001
40
0.81250000000001
40
0.874999999999989
40
0.874999999999989
40
0.906249999999993
40
0.906249999999993
40
0.937499999999997
40
0.937499999999997
40
1
40
1
40
1
40
1
41
1
10
124.112067462594
20
11.7494205331614
30
0
41
1
10
124.117966916276
20
11.7518829981666
30
0
41
1
10
124.124109324121
20
11.7538867225711
30
0
41
1
10
124.136791319342
20
11.757152614418
30
0
41
1
10
124.14333151043
20
11.7584089147662
30
0
41
1
10
124.163073437583
20
11.7611943445038
30
0
41
1
10
124.176532515074
20
11.7617961657353
30
0
41
1
10
124.197063747565
20
11.7613484187127
30
0
41
1
10
124.203972144425
20
11.7609668759055
30
0
41
1
10
124.217699256484
20
11.7598136657138
30
0
41
1
10
124.224544123819
20
11.7590418163363
30
0
41
1
10
124.245031801008
20
11.7562152052539
30
0
41
1
10
124.258628174349
20
11.7536539090584
30
0
41
1
10
124.285727352149
20
11.7474084823823
30
0
41
1
10
124.299286039372
20
11.7437006617754
30
0
41
1
10
124.325807883238
20
11.7354384369191
30
0
41
1
10
124.338825491482
20
11.7308747551183
30
0
41
1
10
124.377215932425
20
11.7160315242736
30
0
41
1
10
124.401936783308
20
11.7046208807084
30
0
41
1
10
124.44966260696
20
11.6788792477345
30
0
41
1
10
124.472266236928
20
11.6647465133063
30
0
41
1
10
124.514145623098
20
11.6341792681097
30
0
41
1
10
124.53335418946
20
11.6178165369684
30
0
41
1
10
124.558656238563
20
11.5914869987486
30
0
41
1
10
124.566480398878
20
11.5824264052937
30
0
41
1
10
124.580580497652
20
11.5637228644415
30
0
41
1
10
124.586863698927
20
11.5540732836938
30
0
41
1
10
124.594724744493
20
11.5391742438664
30
0
41
1
10
124.597079140729
20
11.5341455644273
30
0
41
1
10
124.601174144781
20
11.5239349683369
30
0
41
1
10
124.602918537255
20
11.5187339521184
30
0
41
1
10
124.606985734294
20
11.5030845707674
30
0
41
1
10
124.608221630125
20
11.4925457363747
30
0
41
1
10
124.607232773227
20
11.4818105682594
30
0
0
SPLINE
5
186
100
AcDbEntity
8
1
62
256
6
ByLayer
370
18
48
1
60
0
100
AcDbSpline
70
4
71
3
72
24
73
20
40
0
40
0
40
0
40
0
40
0.249999999999922
40
0.249999999999922
40
0.374999999999932
40
0.374999999999932
40
0.499999999999942
40
0.499999999999942
40
0.624999999999953
40
0.624999999999953
40
0.749999999999963
40
0.749999999999963
40
0.812499999999973
40
0.812499999999973
40
0.874999999999982
40
0.874999999999982
40
0.937499999999991
40
0.937499999999991
40
1
40
1
40
1
40
1
41
1
10
124.886375612132
20
11.3215407325527
30
0
41
1
10
124.853445426247
20
11.3204050386826
30
0
41
1
10
124.82067564727
20
11.3217141923717
30
0
41
1
10
124.772506682295
20
11.3277746362388
30
0
41
1
10
124.756647248012
20
11.3304820421744
30
0
41
1
10
124.72553805264
20
11.3374826857269
30
0
41
1
10
124.710290870468
20
11.3417725075827
30
0
41
1
10
124.680922518281
20
11.3522842609586
30
0
41
1
10
124.666754330818
20
11.3585234550724
30
0
41
1
10
124.640789883613
20
11.3733904786461
30
0
41
1
10
124.629057513662
20
11.3819101368859
30
0
41
1
10
124.614622314616
20
11.3972774605668
30
0
41
1
10
124.610496957883
20
11.4026951289117
30
0
41
1
10
124.603928576253
20
11.414228566427
30
0
41
1
10
124.601496966374
20
11.4204114539059
30
0
41
1
10
124.598909348868
20
11.4328644562121
30
0
41
1
10
124.598700266889
20
11.439246230277
30
0
41
1
10
124.600577671625
20
11.4520550100551
30
0
41
1
10
124.602616865942
20
11.4582800010396
30
0
41
1
10
124.605622570652
20
11.4643460196181
30
0
0
SPLINE
5
187
100
AcDbEntity
8
1
62
256
6
ByLayer
370
18
48
1
60
0
100
AcDbSpline
70
4
71
3
72
38
73
34
40
0
40
0
40
0
40
0
40
0.062500000000109
40
0.062500000000109
40
0.093750000000134
40
0.093750000000134
40
0.125000000000159
40
0.125000000000159
40
0.187500000000165
40
0.187500000000165
40
0.25000000000017
40
0.25000000000017
40
0.312500000000176
40
0.312500000000176
40
0.375000000000182
40
0.375000000000182
40
0.437500000000188
40
0.437500000000188
40
0.500000000000194
40
0.500000000000194
40
0.625000000000205
40
0.625000000000205
40
0.750000000000217
40
0.750000000000217
40
0.812500000000204
40
0.812500000000204
40
0.875000000000192
40
0.875000000000192
40
0.90625000000016
40
0.90625000000016
40
0.937500000000128
40
0.937500000000128
40
1
40
1
40
1
40
1
41
1
10
125.985231962871
20
12.8909673639482
30
0
41
1
10
125.97604388711
20
12.8831123286207
30
0
41
1
10
125.968017621083
20
12.8736381117342
30
0
41
1
10
125.957105735905
20
12.8578075562931
30
0
41
1
10
125.953664790279
20
12.8522500636023
30
0
41
1
10
125.947207807781
20
12.8408176036791
30
0
41
1
10
125.944176926185
20
12.8349213057031
30
0
41
1
10
125.935588761587
20
12.8167625251477
30
0
41
1
10
125.930590717113
20
12.8041649130041
30
0
41
1
10
125.921717808806
20
12.7782618121514
30
0
41
1
10
125.917862141816
20
12.7649927670461
30
0
41
1
10
125.911149496251
20
12.7381326162606
30
0
41
1
10
125.908277407341
20
12.7244682584027
30
0
41
1
10
125.903433697475
20
12.6970402039878
30
0
41
1
10
125.901456785227
20
12.6832630378131
30
0
41
1
10
125.898308511125
20
12.6555947863321
30
0
41
1
10
125.89714133452
20
12.6417142328602
30
0
41
1
10
125.89559344419
20
12.6141235725076
30
0
41
1
10
125.895208519082
20
12.6003782123879
30
0
41
1
10
125.895209421507
20
12.5592945645529
30
0
41
1
10
125.896730580844
20
12.5324760176444
30
0
41
1
10
125.903034248868
20
12.480297949085
30
0
41
1
10
125.907799320559
20
12.4550988798605
30
0
41
1
10
125.917878986372
20
12.4196154460279
30
0
41
1
10
125.921745715913
20
12.4081403151318
30
0
41
1
10
125.930603292714
20
12.3863378288279
30
0
41
1
10
125.935619161212
20
12.3759370527102
30
0
41
1
10
125.944193868741
20
12.3614958318172
30
0
41
1
10
125.947222094032
20
12.356885257133
30
0
41
1
10
125.953680101783
20
12.3481292741709
30
0
41
1
10
125.957123624393
20
12.3439710380817
30
0
41
1
10
125.968019921863
20
12.3325048054247
30
0
41
1
10
125.976039011862
20
12.3261126364948
30
0
41
1
10
125.985231962871
20
12.3215929832758
30
0
0
SPLINE
5
188
100
AcDbEntity
8
1
62
256
6
ByLayer
370
18
48
1
60
0
100
AcDbSpline
70
4
71
3
72
8
73
4
40
0
40
0
40
0
40
0
40
1
40
1
40
1
40
1
41
1
10
125.985231962871
20
12.3215929832758
30
0
41
1
10
125.990223572316
20
12.319138891693
30
0
41
1
10
125.995213897204
20
12.3166857122065
30
0
41
1
10
126.000203000455
20
12.3142333998689
30
0
0
SPLINE
5
189
100
AcDbEntity
8
1
62
256
6
ByLayer
370
18
48
1
60
0
100
AcDbSpline
70
4
71
3
72
28
73
24
40
0
40
0
40
0
40
0
40
0.249999999999922
40
0.249999999999922
40
0.374999999999889
40
0.374999999999889
40
0.499999999999856
40
0.499999999999856
40
0.624999999999823
40
0.624999999999823
40
0.687499999999813
40
0.687499999999813
40
0.749999999999802
40
0.749999999999802
40
0.812499999999792
40
0.812499999999792
40
0.843749999999827
40
0.843749999999827
40
0.874999999999861
40
0.874999999999861
40
0.937499999999931
40
0.937499999999931
40
1
40
1
40
1
40
1
41
1
10
125.985765793245
20
13.2556855901013
30
0
41
1
10
126.002232875933
20
13.2278510666988
30
0
41
1
10
126.016574461217
20
13.1984932374637
30
0
41
1
10
126.034164047225
20
13.152545386967
30
0
41
1
10
126.039369448053
20
13.1368930267178
30
0
41
1
10
126.048151561331
20
13.1050459275889
30
0
41
1
10
126.051746489879
20
13.0887901624591
30
0
41
1
10
126.05679120283
20
13.0559323271835
30
0
41
1
10
126.05826286653
20
13.0391683389566
30
0
41
1
10
126.058177602306
20
13.0142610782341
30
0
41
1
10
126.057768728384
20
13.0059855169988
30
0
41
1
10
126.056001628818
20
12.9895029082573
30
0
41
1
10
126.054623876912
20
12.9812216371336
30
0
41
1
10
126.050729091516
20
12.9652609733761
30
0
41
1
10
126.04822186075
20
12.9575590451244
30
0
41
1
10
126.043409718776
20
12.9465377614734
30
0
41
1
10
126.041618891936
20
12.9429407613546
30
0
41
1
10
126.037744984949
20
12.936138223628
30
0
41
1
10
126.035653738067
20
12.9329097841182
30
0
41
1
10
126.02889869443
20
12.92376758395
30
0
41
1
10
126.023663627573
20
12.9183486218353
30
0
41
1
10
126.012494212455
20
12.909642602424
30
0
41
1
10
126.006523909277
20
12.9062620049023
30
0
41
1
10
126.000203000455
20
12.9037689794914
30
0
0
SPLINE
5
18A
100
AcDbEntity
8
1
62
256
6
ByLayer
370
18
48
1
60
0
100
AcDbSpline
70
4
71
3
72
8
73
4
40
0
40
0
40
0
40
0
40
1
40
1
40
1
40
1
41
1
10
126.000203000455
20
12.9037689794914
30
0
41
1
10
125.995213897204
20
12.8995019741123
30
0
41
1
10
125.990223572316
20
12.8952347720045
30
0
41
1
10
125.985231962871
20
12.8909673639482
30
0
0
SPLINE
5
18B
100
AcDbEntity
8
1
62
256
6
ByLayer
370
18
48
1
60
0
100
AcDbSpline
70
4
71
3
72
30
73
26
40
0
40
0
40
0
40
0
40
0.250000000000045
40
0.250000000000045
40
0.375000000000038
40
0.375000000000038
40
0.50000000000003
40
0.50000000000003
40
0.625000000000022
40
0.625000000000022
40
0.687500000000024
40
0.687500000000024
40
0.750000000000027
40
0.750000000000027
40
0.781250000000009
40
0.781250000000009
40
0.812499999999991
40
0.812499999999991
40
0.874999999999876
40
0.874999999999876
40
0.906249999999871
40
0.906249999999871
40
0.937499999999866
40
0.937499999999866
40
1
40
1
40
1
40
1
41
1
10
125.985765793245
20
11.9915328111247
30
0
41
1
10
126.002225056166
20
12.0204894084125
30
0
41
1
10
126.016551960437
20
12.050491996877
30
0
41
1
10
126.03414799933
20
12.0966159376932
30
0
41
1
10
126.039345541365
20
12.1121506012933
30
0
41
1
10
126.048134062416
20
12.1434539220185
30
0
41
1
10
126.051726637131
20
12.1592189343389
30
0
41
1
10
126.05678717495
20
12.1906985915934
30
0
41
1
10
126.058249225848
20
12.20633974834
30
0
41
1
10
126.058185460118
20
12.2291716188978
30
0
41
1
10
126.057786540953
20
12.2366906709759
30
0
41
1
10
126.056020502619
20
12.2514798824815
30
0
41
1
10
126.054654721104
20
12.2586800540237
30
0
41
1
10
126.051751954156
20
12.2688765986759
30
0
41
1
10
126.050640189431
20
12.2721844411205
30
0
41
1
10
126.048089412328
20
12.278590416183
30
0
41
1
10
126.046640999613
20
12.2817027448276
30
0
41
1
10
126.041837299326
20
12.2904834819063
30
0
41
1
10
126.038016359552
20
12.2956495154272
30
0
41
1
10
126.031210704484
20
12.3021780426102
30
0
41
1
10
126.028770947633
20
12.3041341767226
30
0
41
1
10
126.023677456517
20
12.3075055774869
30
0
41
1
10
126.021007298222
20
12.3089376088388
30
0
41
1
10
126.01263632093
20
12.312487676706
30
0
41
1
10
126.006526830178
20
12.313849491465
30
0
41
1
10
126.000203000455
20
12.3142333998689
30
0
0
SPLINE
5
18C
100
AcDbEntity
8
1
62
256
6
ByLayer
370
18
48
1
60
0
100
AcDbSpline
70
4
71
3
72
42
73
38
40
0
40
0
40
0
40
0
40
0.0625000000000399
40
0.0625000000000399
40
0.0937500000000567
40
0.0937500000000567
40
0.125000000000074
40
0.125000000000074
40
0.187500000000108
40
0.187500000000108
40
0.250000000000141
40
0.250000000000141
40
0.312500000000175
40
0.312500000000175
40
0.375000000000209
40
0.375000000000209
40
0.437500000000243
40
0.437500000000243
40
0.500000000000277
40
0.500000000000277
40
0.562500000000311
40
0.562500000000311
40
0.625000000000345
40
0.625000000000345
40
0.750000000000409
40
0.750000000000409
40
0.781250000000398
40
0.781250000000398
40
0.812500000000388
40
0.812500000000388
40
0.875000000000258
40
0.875000000000258
40
0.906250000000193
40
0.906250000000193
40
0.937500000000129
40
0.937500000000129
40
1
40
1
40
1
40
1
41
1
10
125.195788692568
20
11.5021086422549
30
0
41
1
10
125.19716709001
20
11.5128521835443
30
0
41
1
10
125.200612266698
20
11.5235608238084
30
0
41
1
10
125.20783221297
20
11.5396248801626
30
0
41
1
10
125.210594938279
20
11.5449787305478
30
0
41
1
10
125.216643280845
20
11.5555396935703
30
0
41
1
10
125.219938564035
20
11.5607685685152
30
0
41
1
10
125.2305274
20
11.576332365555
30
0
41
1
10
125.238439267025
20
11.5864344782513
30
0
41
1
10
125.255547438806
20
11.6062103287485
30
0
41
1
10
125.264722318242
20
11.6158498256014
30
0
41
1
10
125.283957438294
20
11.6346041097881
30
0
41
1
10
125.294071655612
20
11.6437672887576
30
0
41
1
10
125.314938648191
20
11.6615324182238
30
0
41
1
10
125.325700594998
20
11.6701456855535
30
0
41
1
10
125.347825212063
20
11.6868952410947
30
0
41
1
10
125.359179934373
20
11.6950221436906
30
0
41
1
10
125.38223482337
20
11.7106680739944
30
0
41
1
10
125.393964407329
20
11.7182093395792
30
0
41
1
10
125.417814159487
20
11.7327291799725
30
0
41
1
10
125.429850497711
20
11.7396568266347
30
0
41
1
10
125.454150841388
20
11.7528401839024
30
0
41
1
10
125.466461169498
20
11.759117299657
30
0
41
1
10
125.503363666666
20
11.7766728566724
30
0
41
1
10
125.52790611322
20
11.786724376994
30
0
41
1
10
125.558641882169
20
11.7967135698353
30
0
41
1
10
125.564792331139
20
11.7985793054625
30
0
41
1
10
125.577105256058
20
11.8020162919838
30
0
41
1
10
125.583286233151
20
11.803591261161
30
0
41
1
10
125.601637089726
20
11.8077638773754
30
0
41
1
10
125.613660222084
20
11.8098346836257
30
0
41
1
10
125.631346715878
20
11.8115848047882
30
0
41
1
10
125.63718377191
20
11.8119402513854
30
0
41
1
10
125.648727378575
20
11.8121071498167
30
0
41
1
10
125.654461321574
20
11.8119146980195
30
0
41
1
10
125.671091388107
20
11.8103595608217
30
0
41
1
10
125.68151171711
20
11.8080740575506
30
0
41
1
10
125.690954003201
20
11.8038730580252
30
0
0
SPLINE
5
18D
100
AcDbEntity
8
1
62
256
6
ByLayer
370
18
48
1
60
0
100
AcDbSpline
70
4
71
3
72
8
73
4
40
0
40
0
40
0
40
0
40
1
40
1
40
1
40
1
41
1
10
125.193543649353
20
11.4846221992754
30
0
41
1
10
125.194292315816
20
11.4904495880214
30
0
41
1
10
125.195040669109
20
11.4962783782961
30
0
41
1
10
125.195788692568
20
11.5021086422549
30
0
0
SPLINE
5
18E
100
AcDbEntity
8
1
62
256
6
ByLayer
370
18
48
1
60
0
100
AcDbSpline
70
4
71
3
72
28
73
24
40
0
40
0
40
0
40
0
40
0.250000000000027
40
0.250000000000027
40
0.374999999999991
40
0.374999999999991
40
0.499999999999955
40
0.499999999999955
40
0.624999999999919
40
0.624999999999919
40
0.687499999999904
40
0.687499999999904
40
0.749999999999889
40
0.749999999999889
40
0.812499999999874
40
0.812499999999874
40
0.843749999999917
40
0.843749999999917
40
0.874999999999959
40
0.874999999999959
40
0.93749999999998
40
0.93749999999998
40
1
40
1
40
1
40
1
41
1
10
124.886375612132
20
11.3215407325527
30
0
41
1
10
124.919309777507
20
11.3226765636671
30
0
41
1
10
124.952375777105
20
11.3262603872469
30
0
41
1
10
125.00143203827
20
11.3356715066467
30
0
41
1
10
125.017706504919
20
11.3394928301748
30
0
41
1
10
125.049807847876
20
11.3486709911757
30
0
41
1
10
125.065697132341
20
11.3540445489953
30
0
41
1
10
125.096560608288
20
11.3666093748779
30
0
41
1
10
125.111685415032
20
11.3738652086047
30
0
41
1
10
125.132861753091
20
11.3863632471346
30
0
41
1
10
125.13968061979
20
11.3908033691877
30
0
41
1
10
125.152715442821
20
11.4003616174259
30
0
41
1
10
125.158983467023
20
11.4055314747513
30
0
41
1
10
125.170349465105
20
11.4164189367945
30
0
41
1
10
125.175472300352
20
11.4221404983967
30
0
41
1
10
125.182094104812
20
11.4312348289071
30
0
41
1
10
125.184127700597
20
11.4343660927654
30
0
41
1
10
125.187691046205
20
11.4406478304027
30
0
41
1
10
125.189235617237
20
11.4438158447124
30
0
41
1
10
125.193125685834
20
11.4534014715141
30
0
41
1
10
125.194716514219
20
11.459991230604
30
0
41
1
10
125.195667850352
20
11.4726091133919
30
0
41
1
10
125.195087442366
20
11.4787108982374
30
0
41
1
10
125.193543649353
20
11.4846221992754
30
0
0
SPLINE
5
18F
100
AcDbEntity
8
1
62
256
6
ByLayer
370
18
48
1
60
0
100
AcDbSpline
70
4
71
3
72
28
73
24
40
0
40
0
40
0
40
0
40
0.250000000000123
40
0.250000000000123
40
0.375000000000185
40
0.375000000000185
40
0.500000000000246
40
0.500000000000246
40
0.625000000000308
40
0.625000000000308
40
0.687500000000257
40
0.687500000000257
40
0.750000000000205
40
0.750000000000205
40
0.812500000000154
40
0.812500000000154
40
0.843750000000129
40
0.843750000000129
40
0.875000000000103
40
0.875000000000103
40
0.937500000000052
40
0.937500000000052
40
1
40
1
40
1
40
1
41
1
10
125.985765793245
20
11.9915328111247
30
0
41
1
10
125.969298710557
20
11.9625624566077
30
0
41
1
10
125.9507085955
20
11.9346659302414
30
0
41
1
10
125.919697497969
20
11.8952822750467
30
0
41
1
10
125.908823872392
20
11.8825589658757
30
0
41
1
10
125.886008901856
20
11.858269941471
30
0
41
1
10
125.874024009056
20
11.846656374715
30
0
41
1
10
125.848984584835
20
11.8251527680014
30
0
41
1
10
125.835804946528
20
11.8151592626864
30
0
41
1
10
125.815431735391
20
11.8023361101528
30
0
41
1
10
125.808530280916
20
11.7984147726805
30
0
41
1
10
125.794462149642
20
11.7914558962421
30
0
41
1
10
125.787228190828
20
11.7883973540224
30
0
41
1
10
125.772877576598
20
11.7836125580876
30
0
41
1
10
125.765745726003
20
11.7818658499339
30
0
41
1
10
125.75514592263
20
11.7804649613433
30
0
41
1
10
125.751615566567
20
11.78020543299
30
0
41
1
10
125.744783655111
20
11.7801520768569
30
0
41
1
10
125.741460663264
20
11.7803536934061
30
0
41
1
10
125.731786830811
20
11.7816731864781
30
0
41
1
10
125.725663036122
20
11.7835614879438
30
0
41
1
10
125.714957932272
20
11.7890756849012
30
0
41
1
10
125.710288070269
20
11.7926852683024
30
0
41
1
10
125.706242461104
20
11.7970719086398
30
0
0
SPLINE
5
190
100
AcDbEntity
8
1
62
256
6
ByLayer
370
18
48
1
60
0
100
AcDbSpline
70
4
71
3
72
8
73
4
40
0
40
0
40
0
40
0
40
1
40
1
40
1
40
1
41
1
10
125.706242461104
20
11.7970719086398
30
0
41
1
10
125.701147568114
20
11.7993381062715
30
0
41
1
10
125.696051436737
20
11.8016051415842
30
0
41
1
10
125.690954003201
20
11.8038730580252
30
0
0
SPLINE
5
191
100
AcDbEntity
8
1
62
256
6
ByLayer
370
18
48
1
60
0
100
AcDbSpline
70
4
71
3
72
10
73
6
40
0
40
0
40
0
40
0
40
0.0665915546082495
40
0.94320476345616
40
1
40
1
40
1
40
1
41
1
10
129.912381019362
20
-7.2311201220719
30
0
41
1
10
129.912479895053
20
-7.23170364929115
30
0
41
1
10
129.913867967332
20
-7.23996604176645
30
0
41
1
10
129.915152241468
20
-7.2486844009407
30
0
41
1
10
129.916272860408
20
-7.25677102059259
30
0
41
1
10
129.91634077869
20
-7.25726288250155
30
0
0
SPLINE
5
192
100
AcDbEntity
8
1
62
256
6
ByLayer
370
18
48
1
60
0
100
AcDbSpline
70
4
71
3
72
11
73
7
40
0
40
0
40
0
40
0
40
0.0827849988714376
40
0.541392499435719
40
0.770696249717859
40
1
40
1
40
1
40
1
41
1
10
129.832970298984
20
-6.79596439849632
30
0
41
1
10
129.833645773949
20
-6.79801172572309
30
0
41
1
10
129.837959576874
20
-6.81138860230473
30
0
41
1
10
129.843123435998
20
-6.83031491921051
30
0
41
1
10
129.84769472037
20
-6.85263155534727
30
0
41
1
10
129.849440961188
20
-6.86371488892547
30
0
41
1
10
129.850175571522
20
-6.86923638049561
30
0
0
SPLINE
5
193
100
AcDbEntity
8
1
62
256
6
ByLayer
370
18
48
1
60
0
100
AcDbSpline
70
4
71
3
72
32
73
28
40
0
40
0
40
0
40
0
40
0.0201722500279436
40
0.030957120221128
40
0.106451211573419
40
0.192730173118894
40
0.365288096209843
40
0.451567057755318
40
0.494706538528056
40
0.537846019300793
40
0.543238454397386
40
0.548630889493978
40
0.55402332459057
40
0.556719542138866
40
0.559415759687162
40
0.564808194783754
40
0.570200629880346
40
0.580985500073531
40
0.624124980846268
40
0.710403942391743
40
0.796682903937218
40
0.882961865482693
40
0.969240827028168
40
0.980025697221353
40
0.990810567414537
40
0.996203002511129
40
1
40
1
40
1
40
1
41
1
10
129.91634077869
20
-7.25726288250155
30
0
41
1
10
129.91732115367
20
-7.26436272497747
30
0
41
1
10
129.918739924241
20
-7.27519901297984
30
0
41
1
10
129.923680053539
20
-7.31223714072627
30
0
41
1
10
129.931710343282
20
-7.37228595118768
30
0
41
1
10
129.947335198901
20
-7.48865279610897
30
0
41
1
10
129.963545238746
20
-7.60878485036775
30
0
41
1
10
129.977742849314
20
-7.71389803131061
30
0
41
1
10
129.985810130877
20
-7.77394856420148
30
0
41
1
10
129.990185148471
20
-7.80587425664888
30
0
41
1
10
129.992707838592
20
-7.82463836303737
30
0
41
1
10
129.993445805513
20
-7.83026404715503
30
0
41
1
10
129.994101039829
20
-7.83496687143597
30
0
41
1
10
129.9946008048
20
-7.83871372777477
30
0
41
1
10
129.994902497332
20
-7.84243439051053
30
0
41
1
10
129.995053481841
20
-7.84706053101098
30
0
41
1
10
129.995307187595
20
-7.85446338866879
30
0
41
1
10
129.996166088345
20
-7.87483183898073
30
0
41
1
10
129.998060268622
20
-7.92292884135475
30
0
41
1
10
129.999734637012
20
-7.99675389752619
30
0
41
1
10
130.000218058847
20
-8.08508433291854
30
0
41
1
10
129.999124040854
20
-8.17315180276685
30
0
41
1
10
129.997195194351
20
-8.23534429873146
30
0
41
1
10
129.995681080144
20
-8.27186581465307
30
0
41
1
10
129.995260391952
20
-8.28101351640998
30
0
41
1
10
129.995011124063
20
-8.28771530151192
30
0
41
1
10
129.994861919497
20
-8.29089853366773
30
0
41
1
10
129.994781401294
20
-8.29225204255803
30
0
0
SPLINE
5
194
100
AcDbEntity
8
1
62
256
6
ByLayer
370
13
48
1
60
0
100
AcDbSpline
70
4
71
3
72
9
73
5
40
0
40
0
40
0
40
0
40
0.253089698189947
40
1
40
1
40
1
40
1
41
1
10
129.916357481279
20
-7.25726530844031
30
0
41
1
10
129.91076957525
20
-7.22450304465048
30
0
41
1
10
129.888697325619
20
-7.09509198061136
30
0
41
1
10
129.866646005396
20
-6.96580362708306
30
0
41
1
10
129.850175571522
20
-6.86923638049561
30
0
0
SPLINE
5
195
100
AcDbEntity
8
1
62
256
6
ByLayer
370
18
48
1
60
0
100
AcDbSpline
70
4
71
3
72
14
73
10
40
0
40
0
40
0
40
0
40
0.0378519720889981
40
0.0941727836943063
40
0.206814406904923
40
0.432097653326156
40
0.657380899747388
40
0.882664146168621
40
1
40
1
40
1
40
1
41
1
10
120.017098083943
20
-6.44922063407566
30
0
41
1
10
120.012477401105
20
-6.44376553531782
30
0
41
1
10
120.001013967525
20
-6.43016858019453
30
0
41
1
10
119.976559418916
20
-6.40011610377701
30
0
41
1
10
119.932545668973
20
-6.34294598878864
30
0
41
1
10
119.877393832704
20
-6.26168957565361
30
0
41
1
10
119.823681184772
20
-6.1651377577974
30
0
41
1
10
119.789085265227
20
-6.08485225631284
30
0
41
1
10
119.773165080776
20
-6.03704518724373
30
0
41
1
10
119.768283864169
20
-6.02073906124127
30
0
0
SPLINE
5
196
100
AcDbEntity
8
1
62
256
6
ByLayer
370
18
48
1
60
0
100
AcDbSpline
70
4
71
3
72
13
73
9
40
0
40
0
40
0
40
0
40
0.175392477007281
40
0.350784954014562
40
0.526177431021842
40
0.701569908029123
40
0.876962385036404
40
1
40
1
40
1
40
1
41
1
10
120.307499763344
20
-6.11757810170832
30
0
41
1
10
120.302170364899
20
-6.11166418430139
30
0
41
1
10
120.291528410884
20
-6.09983667760207
30
0
41
1
10
120.275637704193
20
-6.08209696656112
30
0
41
1
10
120.259840917533
20
-6.06435936919269
30
0
41
1
10
120.244159746604
20
-6.04662445016115
30
0
41
1
10
120.230162507262
20
-6.03065708289384
30
0
41
1
10
120.221423583257
20
-6.02060229513444
30
0
41
1
10
120.217835052385
20
-6.01645727624629
30
0
0
SPLINE
5
197
100
AcDbEntity
8
1
62
256
6
ByLayer
370
18
48
1
60
0
100
AcDbSpline
70
4
71
3
72
19
73
15
40
0
40
0
40
0
40
0
40
0.125
40
0.25
40
0.3125
40
0.34375
40
0.359375
40
0.375
40
0.4375
40
0.46875
40
0.5
40
0.625
40
0.75
40
1
40
1
40
1
40
1
41
1
10
129.590721698526
20
-6.29068292913334
30
0
41
1
10
129.594929362119
20
-6.31665730068141
30
0
41
1
10
129.607141422941
20
-6.36807058330854
30
0
41
1
10
129.631571775133
20
-6.42996894646032
30
0
41
1
10
129.653310748657
20
-6.47151218822927
30
0
41
1
10
129.665299152227
20
-6.49177713048908
30
0
41
1
10
129.672463571221
20
-6.50320372138546
30
0
41
1
10
129.683521208456
20
-6.52018592622684
30
0
41
1
10
129.697320453455
20
-6.5395260367585
30
0
41
1
10
129.71431282912
20
-6.56088968666722
30
0
41
1
10
129.738558587829
20
-6.59368647222257
30
0
41
1
10
129.771357789847
20
-6.64490944326423
30
0
41
1
10
129.818712530987
20
-6.7409055910251
30
0
41
1
10
129.841232707132
20
-6.8173639405214
30
0
41
1
10
129.850175571522
20
-6.86923638049561
30
0
0
SPLINE
5
198
100
AcDbEntity
8
1
62
256
6
ByLayer
370
18
48
1
60
0
100
AcDbSpline
70
4
71
3
72
32
73
28
40
0
40
0
40
0
40
0
40
0.249999999999949
40
0.374999999999923
40
0.499999999999898
40
0.531249999999892
40
0.546874999999888
40
0.546874999999888
40
0.554687499999885
40
0.554687499999885
40
0.555664062499884
40
0.555664062499884
40
0.556640624999884
40
0.556640624999884
40
0.558593749999884
40
0.558593749999884
40
0.560546874999885
40
0.562499999999885
40
0.562499999999885
40
0.566406249999885
40
0.566406249999885
40
0.570312499999885
40
0.578124999999886
40
0.593749999999888
40
0.624999999999896
40
0.749999999999931
40
1
40
1
40
1
40
1
41
1
10
129.850175571522
20
-6.86923638049561
30
0
41
1
10
129.861755968936
20
-6.95627682448631
30
0
41
1
10
129.879235208681
20
-7.08685269436344
30
0
41
1
10
129.902712067058
20
-7.26097663351234
30
0
41
1
10
129.915986898963
20
-7.35865482601852
30
0
41
1
10
129.924085254237
20
-7.41899530831736
30
0
41
1
10
129.926323589736
20
-7.43488121439898
30
0
41
1
10
129.927414669612
20
-7.44339691476833
30
0
41
1
10
129.927765643262
20
-7.44633282051353
30
0
41
1
10
129.928203011898
20
-7.44890332829212
30
0
41
1
10
129.928251543998
20
-7.44916901427109
30
0
41
1
10
129.928340884903
20
-7.44977591625616
30
0
41
1
10
129.928382897137
20
-7.45011403637437
30
0
41
1
10
129.928491153861
20
-7.4509508919507
30
0
41
1
10
129.928536849987
20
-7.45132795692243
30
0
41
1
10
129.928613498595
20
-7.45234607184454
30
0
41
1
10
129.928677557831
20
-7.45361906686028
30
0
41
1
10
129.928732913528
20
-7.45508255533832
30
0
41
1
10
129.928816290362
20
-7.45731418797385
30
0
41
1
10
129.928872444564
20
-7.45879451846994
30
0
41
1
10
129.928985581148
20
-7.46166543543305
30
0
41
1
10
129.929156444349
20
-7.46587916320195
30
0
41
1
10
129.929558057017
20
-7.4752310454748
30
0
41
1
10
129.930331598507
20
-7.49336128949429
30
0
41
1
10
129.932422084517
20
-7.55218677124196
30
0
41
1
10
129.935108537264
20
-7.69085880768461
30
0
41
1
10
129.932556034678
20
-7.81803618106184
30
0
41
1
10
129.928584246399
20
-7.90244813898829
30
0
0
SPLINE
5
199
100
AcDbEntity
8
1
62
256
6
ByLayer
370
18
48
1
60
0
100
AcDbSpline
70
4
71
3
72
21
73
17
40
0
40
0
40
0
40
0
40
0.0039822658528485
40
0.0174419649629451
40
0.0309016640730418
40
0.0847404605134284
40
0.138579256953815
40
0.246256849834588
40
0.353934442715361
40
0.461612035596134
40
0.569289628476907
40
0.676967221357681
40
0.784644814238454
40
0.892322407119227
40
0.946161203559613
40
1
40
1
40
1
40
1
41
1
10
129.994781401294
20
-8.29225204255803
30
0
41
1
10
129.994747568833
20
-8.2928207653429
30
0
41
1
10
129.994584795126
20
-8.29534127793735
30
0
41
1
10
129.994150479916
20
-8.30008953091087
30
0
41
1
10
129.992334112957
20
-8.31257326766556
30
0
41
1
10
129.986929567401
20
-8.33038036016995
30
0
41
1
10
129.97000534434
20
-8.36062548304781
30
0
41
1
10
129.935889159073
20
-8.39458946753675
30
0
41
1
10
129.874631319498
20
-8.42942259400223
30
0
41
1
10
129.795235367171
20
-8.45686344181408
30
0
41
1
10
129.699072173396
20
-8.4765531511284
30
0
41
1
10
129.588846344678
20
-8.48780412375768
30
0
41
1
10
129.467171549788
20
-8.49029455539042
30
0
41
1
10
129.35871824425
20
-8.48484036901581
30
0
41
1
10
129.269916247304
20
-8.4760823309995
30
0
41
1
10
129.224747847267
20
-8.47016111607343
30
0
41
1
10
129.202918998571
20
-8.46693873041443
30
0
0
SPLINE
5
19A
100
AcDbEntity
8
1
62
256
6
ByLayer
370
18
48
1
60
0
100
AcDbSpline
70
4
71
3
72
8
73
4
40
0
40
0
40
0
40
0
40
1
40
1
40
1
40
1
41
1
10
129.202918998571
20
-8.46693873041443
30
0
41
1
10
129.202595118731
20
-8.46689091910895
30
0
41
1
10
129.202272092049
20
-8.46684323384412
30
0
41
1
10
129.201949893205
20
-8.46679567088182
30
0
0
SPLINE
5
19B
100
AcDbEntity
8
1
62
256
6
ByLayer
370
13
48
1
60
0
100
AcDbSpline
70
4
71
3
72
8
73
4
40
0
40
0
40
0
40
0
40
1
40
1
40
1
40
1
41
1
10
129.994763879326
20
-8.29224909332797
30
0
41
1
10
129.972704045019
20
-8.16231524222817
30
0
41
1
10
129.95064416581
20
-8.03238158155645
30
0
41
1
10
129.928584246399
20
-7.90244813898829
30
0
0
SPLINE
5
19C
100
AcDbEntity
8
1
62
256
6
ByLayer
370
18
48
1
60
0
100
AcDbSpline
70
4
71
3
72
17
73
13
40
0
40
0
40
0
40
0
40
0.125
40
0.25
40
0.3125
40
0.375
40
0.4375
40
0.46875
40
0.5
40
0.625
40
0.75
40
1
40
1
40
1
40
1
41
1
10
129.73041286905
20
-7.29595853513311
30
0
41
1
10
129.734637865982
20
-7.32227766127457
30
0
41
1
10
129.746053796185
20
-7.37442689768918
30
0
41
1
10
129.767498293521
20
-7.43768520719411
30
0
41
1
10
129.788748542402
20
-7.48675015930479
30
0
41
1
10
129.807034435234
20
-7.52250466952304
30
0
41
1
10
129.821273390404
20
-7.55275201364139
30
0
41
1
10
129.832118370232
20
-7.57718174886259
30
0
41
1
10
129.847849062323
20
-7.61404589202374
30
0
41
1
10
129.869467459255
20
-7.67011918451124
30
0
41
1
10
129.902040405004
20
-7.77177039290015
30
0
41
1
10
129.919799333261
20
-7.84986570518205
30
0
41
1
10
129.928584246399
20
-7.90244813898829
30
0
0
SPLINE
5
19D
100
AcDbEntity
8
1
62
256
6
ByLayer
370
13
48
1
60
0
100
AcDbSpline
70
4
71
3
72
26
73
22
40
0
40
0
40
0
40
0
40
0.00390625
40
0.0078125
40
0.015625
40
0.03125
40
0.0625
40
0.125
40
0.1875
40
0.25
40
0.3125
40
0.375
40
0.4375
40
0.5
40
0.625
40
0.6875
40
0.75
40
0.8125
40
0.875
40
0.9375
40
1
40
1
40
1
40
1
41
1
10
129.928584246399
20
-7.90244813898829
30
0
41
1
10
129.928556366387
20
-7.90304058758213
30
0
41
1
10
129.9284917548
20
-7.90422397688482
30
0
41
1
10
129.928327125069
20
-7.90658465106389
30
0
41
1
10
129.927946080039
20
-7.91069961543167
30
0
41
1
10
129.926812211659
20
-7.91886315177268
30
0
41
1
10
129.923057311032
20
-7.93491240997909
30
0
41
1
10
129.91344383864
20
-7.95697619521599
30
0
41
1
10
129.895107821075
20
-7.98184686842728
30
0
41
1
10
129.870106092348
20
-8.00490918452689
30
0
41
1
10
129.838572791992
20
-8.02596065547615
30
0
41
1
10
129.800741600958
20
-8.04481993056973
30
0
41
1
10
129.756846200199
20
-8.06130565910237
30
0
41
1
10
129.690664129174
20
-8.07990310977959
30
0
41
1
10
129.61364586756
20
-8.09309709147973
30
0
41
1
10
129.52753293835
20
-8.10032429005503
30
0
41
1
10
129.458984912594
20
-8.10267231587912
30
0
41
1
10
129.387071090315
20
-8.10186568738925
30
0
41
1
10
129.31250707753
20
-8.09788959825292
30
0
41
1
10
129.236054131839
20
-8.09077962885902
30
0
41
1
10
129.184355130969
20
-8.08401644230173
30
0
41
1
10
129.158453495722
20
-8.0801556244983
30
0
0
SPLINE
5
19E
100
AcDbEntity
8
1
62
256
6
ByLayer
370
18
48
1
60
0
100
AcDbSpline
70
4
71
3
72
23
73
19
40
0
40
0
40
0
40
0
40
0.25
40
0.375
40
0.4375
40
0.5
40
0.515625
40
0.53125
40
0.546875
40
0.5546875
40
0.5625
40
0.5703125
40
0.578125
40
0.59375
40
0.625
40
0.75
40
0.875
40
1
40
1
40
1
40
1
41
1
10
129.590721698526
20
-6.29068292913334
30
0
41
1
10
129.602362629403
20
-6.37445589629996
30
0
41
1
10
129.619824025719
20
-6.50011534704996
30
0
41
1
10
129.640195654754
20
-6.64671803959158
30
0
41
1
10
129.651836585631
20
-6.73049100675823
30
0
41
1
10
129.658384609249
20
-6.77761330078945
30
0
41
1
10
129.662749958328
20
-6.80902816347697
30
0
41
1
10
129.664932632867
20
-6.82473559482071
30
0
41
1
10
129.666751528317
20
-6.83782512094049
30
0
41
1
10
129.668206644676
20
-6.84829674183632
30
0
41
1
10
129.669297981946
20
-6.85615045750819
30
0
41
1
10
129.670389319216
20
-6.86400417318006
30
0
41
1
10
129.671844435575
20
-6.87447579407589
30
0
41
1
10
129.674390889205
20
-6.89280113064362
30
0
41
1
10
129.682394029183
20
-6.95039504557067
30
0
41
1
10
129.695490076419
20
-7.04463963363315
30
0
41
1
10
129.712951472735
20
-7.17029908438312
30
0
41
1
10
129.724592403612
20
-7.25407205154977
30
0
41
1
10
129.73041286905
20
-7.29595853513311
30
0
0
SPLINE
5
19F
100
AcDbEntity
8
1
62
256
6
ByLayer
370
18
48
1
60
0
100
AcDbSpline
70
4
71
3
72
8
73
4
40
0
40
0
40
0
40
0
40
1
40
1
40
1
40
1
41
1
10
129.284424775945
20
-4.39987823524601
30
0
41
1
10
129.386523750139
20
-5.03014646654179
30
0
41
1
10
129.488622724333
20
-5.66041469783758
30
0
41
1
10
129.590721698526
20
-6.29068292913334
30
0
0
SPLINE
5
1A0
100
AcDbEntity
8
1
62
256
6
ByLayer
370
18
48
1
60
0
100
AcDbSpline
70
4
71
3
72
8
73
4
40
0
40
0
40
0
40
0
40
1
40
1
40
1
40
1
41
1
10
120.398558185439
20
-5.96837659807156
30
0
41
1
10
120.365982716131
20
-6.01657252299799
30
0
41
1
10
120.335574741366
20
-6.06638550603978
30
0
41
1
10
120.307499763344
20
-6.11757810170764
30
0
0
SPLINE
5
1A1
100
AcDbEntity
8
1
62
256
6
ByLayer
370
18
48
1
60
0
100
AcDbSpline
70
4
71
3
72
13
73
9
40
0
40
0
40
0
40
0
40
0.0057624935460889
40
0.0296303931158633
40
0.220573589674059
40
0.60245998279045
40
0.984346375906841
40
1
40
1
40
1
40
1
41
1
10
120.445198015954
20
-6.95303896807977
30
0
41
1
10
120.444291294769
20
-6.95197712396924
30
0
41
1
10
120.439787248168
20
-6.94664602912485
30
0
41
1
10
120.409013112203
20
-6.91051231098518
30
0
41
1
10
120.322959247799
20
-6.80914473889069
30
0
41
1
10
120.187160905623
20
-6.64938459178504
30
0
41
1
10
120.076687813943
20
-6.51941711996656
30
0
41
1
10
120.019352620368
20
-6.45188230103631
30
0
41
1
10
120.017098083943
20
-6.44922063407566
30
0
0
SPLINE
5
1A2
100
AcDbEntity
8
1
62
256
6
ByLayer
370
18
48
1
60
0
100
AcDbSpline
70
4
71
3
72
8
73
4
40
0
40
0
40
0
40
0
40
1
40
1
40
1
40
1
41
1
10
120.307499763344
20
-6.11757810170764
30
0
41
1
10
120.453776509699
20
-6.27989822194482
30
0
41
1
10
120.601304105601
20
-6.44224636154448
30
0
41
1
10
120.75199838964
20
-6.60464655158029
30
0
0
SPLINE
5
1A3
100
AcDbEntity
8
1
62
256
6
ByLayer
370
13
48
1
60
0
100
AcDbSpline
70
4
71
3
72
11
73
7
40
0
40
0
40
0
40
0
40
0.249255883717642
40
0.499007727858603
40
0.749255708865787
40
1
40
1
40
1
40
1
41
1
10
120.307499763345
20
-6.11757810170906
30
0
41
1
10
120.283289444421
20
-6.14507809463657
30
0
41
1
10
120.234820633749
20
-6.20013279899183
30
0
41
1
10
120.162228685051
20
-6.28292125029083
30
0
41
1
10
120.089614458845
20
-6.36595637898202
30
0
41
1
10
120.041278368638
20
-6.4214495219901
30
0
41
1
10
120.017086381358
20
-6.44922358075328
30
0
0
SPLINE
5
1A4
100
AcDbEntity
8
1
62
256
6
ByLayer
370
18
48
1
60
0
100
AcDbSpline
70
4
71
3
72
20
73
16
40
0
40
0
40
0
40
0
40
0.0166268555035963
40
0.0415115835803994
40
0.0663963116572025
40
0.165935223964415
40
0.265474136271627
40
0.315243592425233
40
0.464551960886052
40
0.663629785500477
40
0.862707610114901
40
0.912477066268508
40
0.962246522422114
40
0.987131250498917
40
1
40
1
40
1
40
1
41
1
10
121.000000033228
20
-7.18747944973251
30
0
41
1
10
120.996273497256
20
-7.18686275734294
30
0
41
1
10
120.986577097465
20
-7.18524454690606
30
0
41
1
10
120.97066755806
20
-7.1824273542571
30
0
41
1
10
120.934505039635
20
-7.17561212118719
30
0
41
1
10
120.881415180928
20
-7.1641031086306
30
0
41
1
10
120.823874166772
20
-7.14892032217409
30
0
41
1
10
120.75624243604
20
-7.12859819399037
30
0
41
1
10
120.670903353885
20
-7.09836853882368
30
0
41
1
10
120.568339201649
20
-7.05052392414933
30
0
41
1
10
120.502981983226
20
-7.0072714598987
30
0
41
1
10
120.469480238427
20
-6.97841891024279
30
0
41
1
10
120.457081745903
20
-6.96627184152911
30
0
41
1
10
120.449121515744
20
-6.95759673692916
30
0
41
1
10
120.446169086909
20
-6.95417617099517
30
0
41
1
10
120.445198015954
20
-6.95303896807977
30
0
0
SPLINE
5
1A5
100
AcDbEntity
8
1
62
256
6
ByLayer
370
13
48
1
60
0
100
AcDbSpline
70
4
71
3
72
9
73
5
40
0
40
0
40
0
40
0
40
0.251786661021059
40
1
40
1
40
1
40
1
41
1
10
120.445202091768
20
-6.95304114306998
30
0
41
1
10
120.470892027001
20
-6.92379336045454
30
0
41
1
10
120.57298853525
20
-6.80763231369224
30
0
41
1
10
120.675330059926
20
-6.6914895488182
30
0
41
1
10
120.75199838964
20
-6.6046465515804
30
0
0
SPLINE
5
1A6
100
AcDbEntity
8
1
62
256
6
ByLayer
370
18
48
1
60
0
100
AcDbSpline
70
4
71
3
72
17
73
13
40
0
40
0
40
0
40
0
40
0.0600950229142429
40
0.184038916465191
40
0.431926703567088
40
0.679814490668985
40
0.927702277770881
40
0.989674224546356
40
0.993547471219823
40
0.99742071789329
40
0.999357341230023
40
1
40
1
40
1
40
1
41
1
10
128.710039753083
20
-8.39412577053278
30
0
41
1
10
128.555697238019
20
-8.37125729401117
30
0
41
1
10
128.083017176691
20
-8.30089581170324
30
0
41
1
10
126.973474063612
20
-8.1341439229987
30
0
41
1
10
125.381087104086
20
-7.88986472772689
30
0
41
1
10
123.46971468741
20
-7.58891466479415
30
0
41
1
10
122.03322452542
20
-7.35698421026561
30
0
41
1
10
121.230941525311
20
-7.22546310520437
30
0
41
1
10
121.049911718488
20
-7.19569607113755
30
0
41
1
10
121.02517635643
20
-7.19162652650272
30
0
41
1
10
121.009123376572
20
-7.18898385563855
30
0
41
1
10
121.00185084977
20
-7.18778573537799
30
0
41
1
10
121.000000033228
20
-7.18747944973251
30
0
0
SPLINE
5
1A7
100
AcDbEntity
8
1
62
256
6
ByLayer
370
18
48
1
60
0
100
AcDbSpline
70
4
71
3
72
11
73
7
40
0
40
0
40
0
40
0
40
0.0589687449405123
40
0.484373627158196
40
0.970550635406977
40
1
40
1
40
1
40
1
41
1
10
129.201949893205
20
-8.46679567088182
30
0
41
1
10
129.191414315614
20
-8.46524040992992
30
0
41
1
10
129.11214494895
20
-8.45353952656839
30
0
41
1
10
128.953296028606
20
-8.43010454737916
30
0
41
1
10
128.799262241994
20
-8.40734378692289
30
0
41
1
10
128.714860271244
20
-8.39484001253106
30
0
41
1
10
128.710039753083
20
-8.39412577053278
30
0
0
SPLINE
5
1A8
100
AcDbEntity
8
1
62
256
6
ByLayer
370
13
48
1
60
0
100
AcDbSpline
70
4
71
3
72
8
73
4
40
0
40
0
40
0
40
0
40
1
40
1
40
1
40
1
41
1
10
129.158453495722
20
-8.0801556244983
30
0
41
1
10
129.172952183141
20
-8.20909982238379
30
0
41
1
10
129.187450999234
20
-8.33798001455688
30
0
41
1
10
129.201949898055
20
-8.46679568399688
30
0
0
SPLINE
5
1A9
100
AcDbEntity
8
1
62
256
6
ByLayer
370
13
48
1
60
0
100
AcDbSpline
70
4
71
3
72
9
73
5
40
0
40
0
40
0
40
0
40
0.501219718031177
40
1
40
1
40
1
40
1
41
1
10
121.228614534917
20
-6.83126042586545
30
0
41
1
10
121.190415297206
20
-6.89075421723979
30
0
41
1
10
121.11420273745
20
-7.00945224374212
30
0
41
1
10
121.038005850049
20
-7.12823611770276
30
0
41
1
10
121.000000345066
20
-7.1874831718502
30
0
0
SPLINE
5
1AA
100
AcDbEntity
8
1
62
256
6
ByLayer
370
18
48
1
60
0
100
AcDbSpline
70
4
71
3
72
16
73
12
40
0
40
0
40
0
40
0
40
0.25
40
0.5
40
0.625
40
0.6875
40
0.75
40
0.78125
40
0.8125
40
0.875
40
1
40
1
40
1
40
1
41
1
10
129.158453495713
20
-8.0801556244993
30
0
41
1
10
129.152709061122
20
-8.03102475351218
30
0
41
1
10
129.141148163251
20
-7.93114916742081
30
0
41
1
10
129.126624339622
20
-7.80320469852302
30
0
41
1
10
129.116475237756
20
-7.71251317767164
30
0
41
1
10
129.110689122804
20
-7.66043674539722
30
0
41
1
10
129.1070800742
20
-7.62779900064533
30
0
41
1
10
129.104198973012
20
-7.60163483874172
30
0
41
1
10
129.101316243429
20
-7.57548758006945
30
0
41
1
10
129.09624914323
20
-7.52994986495065
30
0
41
1
10
129.091890367956
20
-7.49140382901481
30
0
41
1
10
129.088991284849
20
-7.46605293131915
30
0
0
SPLINE
5
1AB
100
AcDbEntity
8
1
62
256
6
ByLayer
370
18
48
1
60
0
100
AcDbSpline
70
4
71
3
72
47
73
43
40
0
40
0
40
0
40
0
40
0.0248207090807029
40
0.0496506043499428
40
0.0744896876533751
40
0.0993379606766007
40
0.124195424944879
40
0.14906208182294
40
0.173937932514774
40
0.198822978063436
40
0.223717219350833
40
0.24862065709755
40
0.273533291862637
40
0.298455124043422
40
0.323386153875325
40
0.348326381431688
40
0.373275806623565
40
0.398234429199586
40
0.42320224874572
40
0.448179264685188
40
0.473165476278215
40
0.498160882621923
40
0.523165482804097
40
0.548179276888425
40
0.573202265356142
40
0.598234448633268
40
0.623275827088499
40
0.648326401033141
40
0.673386170721074
40
0.698455136348685
40
0.723533298054841
40
0.748620655920814
40
0.773717209970267
40
0.79882296016918
40
0.823937906425844
40
0.849062048590788
40
0.874195386456768
40
0.89933791975873
40
0.924489648173771
40
0.949650571321104
40
0.974820688762052
40
1
40
1
40
1
40
1
41
1
10
129.158453495713
20
-8.08015562449941
30
0
41
1
10
129.092883776266
20
-8.07037391983727
30
0
41
1
10
128.961720069902
20
-8.05080689028671
30
0
41
1
10
128.764926419859
20
-8.02134271764771
30
0
41
1
10
128.568051741217
20
-7.9917885865124
30
0
41
1
10
128.371095428726
20
-7.96213678719232
30
0
41
1
10
128.174057967232
20
-7.93238947895307
30
0
41
1
10
127.976939550131
20
-7.90254617573564
30
0
41
1
10
127.77974044976
20
-7.87260710120731
30
0
41
1
10
127.582460918096
20
-7.84257228927865
30
0
41
1
10
127.385101213376
20
-7.8124418252518
30
0
41
1
10
127.187661592963
20
-7.78221578116822
30
0
41
1
10
126.990142315257
20
-7.75189423314077
30
0
41
1
10
126.792543639184
20
-7.72147725670575
30
0
41
1
10
126.594865824335
20
-7.69096492806841
30
0
41
1
10
126.397109130924
20
-7.66035732376682
30
0
41
1
10
126.199273819805
20
-7.62965452076466
30
0
41
1
10
126.001360152462
20
-7.59885659641145
30
0
41
1
10
125.803368391019
20
-7.56796362850397
30
0
41
1
10
125.605298798223
20
-7.53697569507449
30
0
41
1
10
125.407151637499
20
-7.50589287517246
30
0
41
1
10
125.208927172337
20
-7.47471524587817
30
0
41
1
10
125.01062566405
20
-7.44344289273513
30
0
41
1
10
124.812247364167
20
-7.41207582620802
30
0
41
1
10
124.613792519683
20
-7.38061404054037
30
0
41
1
10
124.415261377223
20
-7.34905753408424
30
0
41
1
10
124.216654183923
20
-7.31740630431349
30
0
41
1
10
124.017971187537
20
-7.28566034921349
30
0
41
1
10
123.819212636411
20
-7.25381966690986
30
0
41
1
10
123.620378779489
20
-7.22188425576164
30
0
41
1
10
123.421469866315
20
-7.18985411435705
30
0
41
1
10
123.22248614703
20
-7.15772924143462
30
0
41
1
10
123.023427872371
20
-7.12550963620043
30
0
41
1
10
122.824295293686
20
-7.0931952971348
30
0
41
1
10
122.625088662885
20
-7.06078622644745
30
0
41
1
10
122.42580823262
20
-7.02828241343926
30
0
41
1
10
122.22645425561
20
-6.99568389662875
30
0
41
1
10
122.027026987173
20
-6.96299053176358
30
0
41
1
10
121.82752667576
20
-6.93020285808629
30
0
41
1
10
121.627953598327
20
-6.89731886361071
30
0
41
1
10
121.428307928225
20
-6.86434606389261
30
0
41
1
10
121.295187101966
20
-6.84229031433321
30
0
41
1
10
121.228614534917
20
-6.83126042586545
30
0
0
SPLINE
5
1AC
100
AcDbEntity
8
1
62
256
6
ByLayer
370
18
48
1
60
0
100
AcDbSpline
70
4
71
3
72
16
73
12
40
0
40
0
40
0
40
0
40
0.25
40
0.375
40
0.5
40
0.5625
40
0.625
40
0.75
40
0.8125
40
0.875
40
1
40
1
40
1
40
1
41
1
10
121.228614534917
20
-6.83126042586548
30
0
41
1
10
121.260398592944
20
-6.78667755574472
30
0
41
1
10
121.308049351959
20
-6.71932320712952
30
0
41
1
10
121.37144215107
20
-6.62868073509554
30
0
41
1
10
121.410984373948
20
-6.57170608840906
30
0
41
1
10
121.442559606932
20
-6.52594781753166
30
0
41
1
10
121.474092877674
20
-6.48007756988986
30
0
41
1
10
121.505558807014
20
-6.4340499454832
30
0
41
1
10
121.536949361685
20
-6.38788764460102
30
0
41
1
10
121.568257937569
20
-6.3415779741506
30
0
41
1
10
121.59203895727
20
-6.30741924590174
30
0
41
1
10
121.607922359248
20
-6.28500945070442
30
0
0
SPLINE
5
1AD
100
AcDbEntity
8
1
62
256
6
ByLayer
370
18
48
1
60
0
100
AcDbSpline
70
4
71
3
72
18
73
14
40
0
40
0
40
0
40
0
40
0.25
40
0.375
40
0.5
40
0.5625
40
0.625
40
0.640625
40
0.65625
40
0.6875
40
0.75
40
0.875
40
1
40
1
40
1
40
1
41
1
10
120.75199838964
20
-6.60464655158029
30
0
41
1
10
120.788357080905
20
-6.55762698860599
30
0
41
1
10
120.843593075449
20
-6.48764738878916
30
0
41
1
10
120.918527425711
20
-6.39540152536463
30
0
41
1
10
120.96595708118
20
-6.338255313876
30
0
41
1
10
121.004230296263
20
-6.29281573405771
30
0
41
1
10
121.024774132762
20
-6.26643024139054
30
0
41
1
10
121.038109400607
20
-6.2485664676291
30
0
41
1
10
121.046902297604
20
-6.23658508298868
30
0
41
1
10
121.062031575338
20
-6.21543001039228
30
0
41
1
10
121.09123353955
20
-6.17238431628078
30
0
41
1
10
121.129797952196
20
-6.10887489340516
30
0
41
1
10
121.157143709866
20
-6.05621982510931
30
0
41
1
10
121.169899599986
20
-6.02950134700384
30
0
0
SPLINE
5
1AE
100
AcDbEntity
8
1
62
256
6
ByLayer
370
18
48
1
60
0
100
AcDbSpline
70
4
71
3
72
18
73
14
40
0
40
0
40
0
40
0
40
0.125
40
0.25
40
0.375
40
0.5
40
0.625
40
0.6875
40
0.75
40
0.8125
40
0.875
40
0.9375
40
1
40
1
40
1
40
1
41
1
10
120.75199838964
20
-6.60464655158029
30
0
41
1
10
120.76231821376
20
-6.61576801785867
30
0
41
1
10
120.785153967777
20
-6.63805384653563
30
0
41
1
10
120.826282631496
20
-6.67130342991118
30
0
41
1
10
120.874605438329
20
-6.70405339655048
30
0
41
1
10
120.930641142041
20
-6.73578189247442
30
0
41
1
10
120.984099612645
20
-6.7607338716019
30
0
41
1
10
121.030877823399
20
-6.77923872482617
30
0
41
1
10
121.067807841925
20
-6.79220715349126
30
0
41
1
10
121.106424864239
20
-6.8040835246891
30
0
41
1
10
121.146360772999
20
-6.81469511710293
30
0
41
1
10
121.187247450864
20
-6.82386920941605
30
0
41
1
10
121.21482466996
20
-6.82897404135122
30
0
41
1
10
121.228614534917
20
-6.83126042586548
30
0
0
SPLINE
5
1AF
100
AcDbEntity
8
1
62
256
6
ByLayer
370
13
48
1
60
0
100
AcDbSpline
70
4
71
3
72
15
73
11
40
0
40
0
40
0
40
0
40
0.125
40
0.25
40
0.375
40
0.5
40
0.625
40
0.75
40
0.875
40
1
40
1
40
1
40
1
41
1
10
129.088991284858
20
-7.46605293131503
30
0
41
1
10
129.134796413539
20
-7.47328423063155
30
0
41
1
10
129.22626271399
20
-7.48404146006106
30
0
41
1
10
129.356083896434
20
-7.48777993776466
30
0
41
1
10
129.472132207657
20
-7.47915846893082
30
0
41
1
10
129.569861414004
20
-7.45922792403803
30
0
41
1
10
129.646417264142
20
-7.42945751771529
30
0
41
1
10
129.700013181302
20
-7.39138608522242
30
0
41
1
10
129.729526158915
20
-7.34655248906654
30
0
41
1
10
129.73281048943
20
-7.31321280589938
30
0
41
1
10
129.73041286905
20
-7.29595853513308
30
0
0
SPLINE
5
1B0
100
AcDbEntity
8
1
62
256
6
ByLayer
370
13
48
1
60
0
100
AcDbSpline
70
4
71
3
72
8
73
4
40
0
40
0
40
0
40
0
40
1
40
1
40
1
40
1
41
1
10
129.73041286905
20
-7.29595853513308
30
0
41
1
10
129.596681522992
20
-6.46289469557919
30
0
41
1
10
129.462950176935
20
-5.62983085602525
30
0
41
1
10
129.329218830877
20
-4.79676701647136
30
0
0
SPLINE
5
1B1
100
AcDbEntity
8
1
62
256
6
ByLayer
370
13
48
1
60
0
100
AcDbSpline
70
4
71
3
72
8
73
4
40
0
40
0
40
0
40
0
40
1
40
1
40
1
40
1
41
1
10
129.329218830877
20
-4.79676701647108
30
0
41
1
10
129.325789822004
20
-4.77540640520047
30
0
41
1
10
129.32236081313
20
-4.75404579392983
30
0
41
1
10
129.318931804257
20
-4.73268518265922
30
0
0
SPLINE
5
1B2
100
AcDbEntity
8
1
62
256
6
ByLayer
370
13
48
1
60
0
100
AcDbSpline
70
4
71
3
72
8
73
4
40
0
40
0
40
0
40
0
40
1
40
1
40
1
40
1
41
1
10
121.27761291051
20
-4.14240496699034
30
0
41
1
10
121.396243430501
20
-3.84778055006788
30
0
41
1
10
121.514873950491
20
-3.55315613314517
30
0
41
1
10
121.633504470479
20
-3.25853171621765
30
0
0
SPLINE
5
1B3
100
AcDbEntity
8
1
62
256
6
ByLayer
370
13
48
1
60
0
100
AcDbSpline
70
4
71
3
72
8
73
4
40
0
40
0
40
0
40
0
40
1
40
1
40
1
40
1
41
1
10
121.169899599986
20
-6.02950134700384
30
0
41
1
10
121.150290767398
20
-6.00642465779211
30
0
41
1
10
121.13068193481
20
-5.98334796858038
30
0
41
1
10
121.111073102222
20
-5.96027127936867
30
0
0
SPLINE
5
1B4
100
AcDbEntity
8
1
62
256
6
ByLayer
370
13
48
1
60
0
100
AcDbSpline
70
4
71
3
72
8
73
4
40
0
40
0
40
0
40
0
40
1
40
1
40
1
40
1
41
1
10
128.790302651365
20
-4.85418403645178
30
0
41
1
10
128.792791723311
20
-4.87594961057596
30
0
41
1
10
128.795280795257
20
-4.89771518470016
30
0
41
1
10
128.797769867203
20
-4.91948075882434
30
0
0
SPLINE
5
1B5
100
AcDbEntity
8
1
62
256
6
ByLayer
370
18
48
1
60
0
100
AcDbSpline
70
4
71
3
72
8
73
4
40
0
40
0
40
0
40
0
40
1
40
1
40
1
40
1
41
1
10
129.088991284859
20
-7.46605293132126
30
0
41
1
10
126.595301642991
20
-7.07237177111557
30
0
41
1
10
124.101612001087
20
-6.67869061089354
30
0
41
1
10
121.607922359248
20
-6.28500945070027
30
0
0
SPLINE
5
1B6
100
AcDbEntity
8
1
62
256
6
ByLayer
370
13
48
1
60
0
100
AcDbSpline
70
4
71
3
72
8
73
4
40
0
40
0
40
0
40
0
40
1
40
1
40
1
40
1
41
1
10
128.797769867202
20
-4.91948075882277
30
0
41
1
10
128.894843673088
20
-5.76833814965292
30
0
41
1
10
128.991917478973
20
-6.61719554048219
30
0
41
1
10
129.088991284858
20
-7.46605293131503
30
0
0
SPLINE
5
1B7
100
AcDbEntity
8
1
62
256
6
ByLayer
370
13
48
1
60
0
100
AcDbSpline
70
4
71
3
72
12
73
8
40
0
40
0
40
0
40
0
40
0.130933762590391
40
0.130933762590391
40
0.846851358087277
40
0.846851358087277
40
1
40
1
40
1
40
1
41
1
10
126.407984434105
20
-4.47808518918953
30
0
41
1
10
126.219362267145
20
-4.52749585874679
30
0
41
1
10
126.030740100185
20
-4.57690652830433
30
0
41
1
10
124.810772575422
20
-4.8964840902058
30
0
41
1
10
123.779427217624
20
-5.16665098256658
30
0
41
1
10
122.52745710933
20
-5.49461180672208
30
0
41
1
10
122.306832358826
20
-5.55240573848377
30
0
41
1
10
122.086207608322
20
-5.61019967024691
30
0
0
SPLINE
5
1B8
100
AcDbEntity
8
1
62
256
6
ByLayer
370
13
48
1
60
0
100
AcDbSpline
70
4
71
3
72
8
73
4
40
0
40
0
40
0
40
0
40
1
40
1
40
1
40
1
41
1
10
122.338617530971
20
-3.58150562453278
30
0
41
1
10
122.348606573118
20
-3.56058258416601
30
0
41
1
10
122.358595615265
20
-3.53965954379925
30
0
41
1
10
122.368584657412
20
-3.51873650343248
30
0
0
SPLINE
5
1B9
100
AcDbEntity
8
1
62
256
6
ByLayer
370
18
48
1
60
0
100
AcDbSpline
70
4
71
3
72
8
73
4
40
0
40
0
40
0
40
0
40
1
40
1
40
1
40
1
41
1
10
121.169899517609
20
-6.02950128257183
30
0
41
1
10
121.559472188732
20
-5.21350272988988
30
0
41
1
10
121.949044859854
20
-4.39750417720839
30
0
41
1
10
122.338617530975
20
-3.58150562452715
30
0
0
SPLINE
5
1BA
100
AcDbEntity
8
1
62
256
6
ByLayer
370
18
48
1
60
0
100
AcDbSpline
70
4
71
3
72
18
73
14
40
0
40
0
40
0
40
0
40
0.125
40
0.25
40
0.375
40
0.5
40
0.625
40
0.6875
40
0.75
40
0.8125
40
0.875
40
0.9375
40
1
40
1
40
1
40
1
41
1
10
121.169896046975
20
-6.02949982576197
30
0
41
1
10
121.179995197017
20
-6.04138491746153
30
0
41
1
10
121.200735346078
20
-6.0651782032723
30
0
41
1
10
121.234846955414
20
-6.10091333859586
30
0
41
1
10
121.273376824618
20
-6.13666056877716
30
0
41
1
10
121.318331102481
20
-6.17222249117262
30
0
41
1
10
121.363336244671
20
-6.20127493899929
30
0
41
1
10
121.405509833364
20
-6.22350872309187
30
0
41
1
10
121.440429291464
20
-6.23931573325672
30
0
41
1
10
121.478790479436
20
-6.25387030005274
30
0
41
1
10
121.520145515317
20
-6.26665440339232
30
0
41
1
10
121.563590907601
20
-6.27723412209807
30
0
41
1
10
121.593160780576
20
-6.28267900620915
30
0
41
1
10
121.607922359248
20
-6.28500945070857
30
0
0
SPLINE
5
1BB
100
AcDbEntity
8
1
62
256
6
ByLayer
370
18
48
1
60
0
100
AcDbSpline
70
4
71
3
72
15
73
11
40
0
40
0
40
0
40
0
40
0.105547317957895
40
0.21109463591579
40
0.422189271831579
40
0.633283907747368
40
0.844378543663158
40
0.897152202642105
40
0.949925861621053
40
1
40
1
40
1
40
1
41
1
10
121.607922359248
20
-6.28500945070857
30
0
41
1
10
121.624749570766
20
-6.261268040376
30
0
41
1
10
121.658404011107
20
-6.21378540480282
30
0
41
1
10
121.725712934985
20
-6.11882059573344
30
0
41
1
10
121.809849122039
20
-6.00011492899586
30
0
41
1
10
121.910812441909
20
-5.85766701052435
30
0
41
1
10
121.986535430848
20
-5.75083261664358
30
0
41
1
10
122.037015441008
20
-5.67959859811288
30
0
41
1
10
122.061825945845
20
-5.64459442279224
30
0
41
1
10
122.078225711975
20
-5.6214772145502
30
0
41
1
10
122.086207826623
20
-5.61020151511755
30
0
0
SPLINE
5
1BC
100
AcDbEntity
8
1
62
256
6
ByLayer
370
18
48
1
60
0
100
AcDbSpline
70
4
71
3
72
13
73
9
40
0
40
0
40
0
40
0
40
0.0113848368122859
40
0.233982789263913
40
0.456580741715541
40
0.679178694167168
40
0.901776646618796
40
1
40
1
40
1
40
1
41
1
10
122.086207258534
20
-5.6102011089082
30
0
41
1
10
122.086637514812
20
-5.60959331982821
30
0
41
1
10
122.095480051488
20
-5.59710072891232
30
0
41
1
10
122.112728376454
20
-5.57267119534586
30
0
41
1
10
122.137915371952
20
-5.5366651728763
30
0
41
1
10
122.163048705374
20
-5.50044079227922
30
0
41
1
10
122.18344623253
20
-5.47079836540601
30
0
41
1
10
122.195457179104
20
-5.45323072788088
30
0
41
1
10
122.199133142394
20
-5.44784938160564
30
0
0
SPLINE
5
1BD
100
AcDbEntity
8
1
62
256
6
ByLayer
370
18
48
1
60
0
100
AcDbSpline
70
4
71
3
72
8
73
4
40
0
40
0
40
0
40
0
40
1
40
1
40
1
40
1
41
1
10
123.253773224981
20
-3.90292516279229
30
0
41
1
10
123.240013234614
20
-3.92308193922318
30
0
41
1
10
123.226253244247
20
-3.94323871565408
30
0
41
1
10
123.21249325388
20
-3.96339549208497
30
0
0
SPLINE
5
1BE
100
AcDbEntity
8
1
62
256
6
ByLayer
370
18
48
1
60
0
100
AcDbSpline
70
4
71
3
72
8
73
4
40
0
40
0
40
0
40
0
40
1
40
1
40
1
40
1
41
1
10
123.21249325388
20
-3.963395492085
30
0
41
1
10
122.874706640895
20
-4.45821337041508
30
0
41
1
10
122.536920027911
20
-4.95303124874513
30
0
41
1
10
122.199133414927
20
-5.44784912707524
30
0
0
SPLINE
5
1BF
100
AcDbEntity
8
1
62
256
6
ByLayer
370
13
48
1
60
0
100
AcDbSpline
70
4
71
3
72
10
73
6
40
0
40
0
40
0
40
0
40
0.525210305152619
40
0.525210305152619
40
1
40
1
40
1
40
1
41
1
10
126.101011817128
20
-4.4257294710838
30
0
41
1
10
125.417909587129
20
-4.60467205829113
30
0
41
1
10
124.734807357132
20
-4.78361464550403
30
0
41
1
10
123.434181258801
20
-5.12432118813925
30
0
41
1
10
122.816657390467
20
-5.28608514355966
30
0
41
1
10
122.199133522136
20
-5.4478490989913
30
0
0
SPLINE
5
1C0
100
AcDbEntity
8
1
62
256
6
ByLayer
370
18
48
1
60
0
100
AcDbSpline
70
4
71
3
72
8
73
4
40
0
40
0
40
0
40
0
40
1
40
1
40
1
40
1
41
1
10
122.368584657408
20
-3.51873650342702
30
0
41
1
10
122.257811847987
20
-3.38837332731242
30
0
41
1
10
122.147039038568
20
-3.25801015119671
30
0
41
1
10
122.036266229148
20
-3.12764697507995
30
0
0
SPLINE
5
1C1
100
AcDbEntity
8
1
62
256
6
ByLayer
370
18
48
1
60
0
100
AcDbSpline
70
4
71
3
72
27
73
23
40
0
40
0
40
0
40
0
40
0.124999999999977
40
0.124999999999977
40
0.249999999999953
40
0.249999999999953
40
0.281249999999947
40
0.281249999999947
40
0.312499999999941
40
0.312499999999941
40
0.374999999999961
40
0.374999999999961
40
0.499999999999969
40
0.499999999999969
40
0.562499999999973
40
0.562499999999973
40
0.624999999999977
40
0.624999999999977
40
0.749999999999985
40
0.874999999999992
40
0.874999999999992
40
1
40
1
40
1
40
1
41
1
10
123.25377322498
20
-3.90292516279388
30
0
41
1
10
123.205002667054
20
-3.89399057761142
30
0
41
1
10
123.157013386217
20
-3.88389253915616
30
0
41
1
10
123.062511493587
20
-3.86149745313739
30
0
41
1
10
123.015999159535
20
-3.84919999197069
30
0
41
1
10
122.958817667992
20
-3.83240016303415
30
0
41
1
10
122.947429666933
20
-3.82896827450196
30
0
41
1
10
122.924751478663
20
-3.82195883612863
30
0
41
1
10
122.913456491989
20
-3.81837928904324
30
0
41
1
10
122.879997587305
20
-3.80751070386367
30
0
41
1
10
122.858164980265
20
-3.80006352230816
30
0
41
1
10
122.794055624143
20
-3.77713102023276
30
0
41
1
10
122.753157470114
20
-3.7610589431446
30
0
41
1
10
122.694619161041
20
-3.73575529629738
30
0
41
1
10
122.675577209758
20
-3.72712035797829
30
0
41
1
10
122.638451888029
20
-3.70944249090044
30
0
41
1
10
122.620356303056
20
-3.70038858190972
30
0
41
1
10
122.568420675064
20
-3.67306733364279
30
0
41
1
10
122.504769408339
20
-3.63592351797706
30
0
41
1
10
122.452223565529
20
-3.59735986253813
30
0
41
1
10
122.405427772708
20
-3.55806105734177
30
0
41
1
10
122.385331983176
20
-3.53840243532721
30
0
41
1
10
122.368584549232
20
-3.51873650017015
30
0
0
SPLINE
5
1C2
100
AcDbEntity
8
1
62
256
6
ByLayer
370
18
48
1
60
0
100
AcDbSpline
70
4
71
3
72
8
73
4
40
0
40
0
40
0
40
0
40
1
40
1
40
1
40
1
41
1
10
126.40798443411
20
-4.47808518918842
30
0
41
1
10
126.305617152232
20
-4.46192436884394
30
0
41
1
10
126.203256301416
20
-4.44450340067866
30
0
41
1
10
126.101011817117
20
-4.42572947107624
30
0
0
SPLINE
5
1C3
100
AcDbEntity
8
1
62
256
6
ByLayer
370
18
48
1
60
0
100
AcDbSpline
70
4
71
3
72
8
73
4
40
0
40
0
40
0
40
0
40
1
40
1
40
1
40
1
41
1
10
128.790302651362
20
-4.85418403644928
30
0
41
1
10
127.996196578946
20
-4.72881775402703
30
0
41
1
10
127.202090506527
20
-4.60345147160285
30
0
41
1
10
126.407984434107
20
-4.4780851891791
30
0
0
SPLINE
5
1C4
100
AcDbEntity
8
1
62
256
6
ByLayer
370
18
48
1
60
0
100
AcDbSpline
70
4
71
3
72
15
73
11
40
0
40
0
40
0
40
0
40
0.125
40
0.25
40
0.375
40
0.5
40
0.625
40
0.75
40
0.875
40
1
40
1
40
1
40
1
41
1
10
128.790302650118
20
-4.85418402554819
30
0
41
1
10
128.826289930951
20
-4.85986537772735
30
0
41
1
10
128.898136773023
20
-4.8685433626197
30
0
41
1
10
129.001236464465
20
-4.87300040256801
30
0
41
1
10
129.095555809815
20
-4.86871346445315
30
0
41
1
10
129.177305252458
20
-4.85583685663065
30
0
41
1
10
129.24317463496
20
-4.83487016890305
30
0
41
1
10
129.290486794187
20
-4.80664666045843
30
0
41
1
10
129.317315178785
20
-4.77229906141173
30
0
41
1
10
129.320815517887
20
-4.7462411689547
30
0
41
1
10
129.318931802539
20
-4.73268517195788
30
0
0
SPLINE
5
1C5
100
AcDbEntity
8
1
62
256
6
ByLayer
370
18
48
1
60
0
100
AcDbSpline
70
4
71
3
72
8
73
4
40
0
40
0
40
0
40
0
40
1
40
1
40
1
40
1
41
1
10
129.284422015116
20
-4.48433842559788
30
0
41
1
10
129.295925278162
20
-4.56712067795107
30
0
41
1
10
129.307428541208
20
-4.64990293030468
30
0
41
1
10
129.318931804254
20
-4.7326851826588
30
0
0
SPLINE
5
1C6
100
AcDbEntity
8
1
62
256
6
ByLayer
370
18
48
1
60
0
100
AcDbSpline
70
4
71
3
72
13
73
9
40
0
40
0
40
0
40
0
40
0.0253899741178753
40
0.111205794725456
40
0.197021615333038
40
0.540284897763362
40
0.883548180193687
40
1
40
1
40
1
40
1
41
1
10
129.994781401294
20
-6.83062933732066
30
0
41
1
10
129.994747568833
20
-6.83162258725363
30
0
41
1
10
129.994584795126
20
-6.83602982322969
30
0
41
1
10
129.994150479916
20
-6.84438478376765
30
0
41
1
10
129.992334112957
20
-6.86662884386595
30
0
41
1
10
129.986929567401
20
-6.89952130786097
30
0
41
1
10
129.977032073268
20
-6.93408964192284
30
0
41
1
10
129.969815865946
20
-6.95374646550644
30
0
41
1
10
129.967888802768
20
-6.9587174211988
30
0
0
SPLINE
5
1C7
100
AcDbEntity
8
1
62
256
6
ByLayer
370
18
48
1
60
0
100
AcDbSpline
70
4
71
3
72
32
73
28
40
0
40
0
40
0
40
0
40
0.0201722500279436
40
0.030957120221128
40
0.106451211573419
40
0.192730173118894
40
0.365288096209843
40
0.451567057755318
40
0.494706538528056
40
0.537846019300793
40
0.543238454397386
40
0.548630889493978
40
0.55402332459057
40
0.556719542138866
40
0.559415759687162
40
0.564808194783754
40
0.570200629880346
40
0.580985500073531
40
0.624124980846268
40
0.710403942391743
40
0.796682903937218
40
0.882961865482693
40
0.969240827028168
40
0.980025697221353
40
0.990810567414537
40
0.996203002511129
40
1
40
1
40
1
40
1
41
1
10
129.91634077869
20
-5.08181054984539
30
0
41
1
10
129.91732115367
20
-5.09362111815415
30
0
41
1
10
129.918739924241
20
-5.11167980680469
30
0
41
1
10
129.923680053539
20
-5.17336517472057
30
0
41
1
10
129.931710343282
20
-5.27336330668317
30
0
41
1
10
129.947335198901
20
-5.46711723843742
30
0
41
1
10
129.963545238746
20
-5.66710786926353
30
0
41
1
10
129.977742849314
20
-5.84210102709912
30
0
41
1
10
129.985810130877
20
-5.9421111387739
30
0
41
1
10
129.990185148471
20
-5.9952173193779
30
0
41
1
10
129.992707838592
20
-6.02647183135562
30
0
41
1
10
129.993445805513
20
-6.03585203360447
30
0
41
1
10
129.994101039829
20
-6.04365457328484
30
0
41
1
10
129.9946008048
20
-6.04991073874371
30
0
41
1
10
129.994902497332
20
-6.05619796609241
30
0
41
1
10
129.995053481841
20
-6.06408805208946
30
0
41
1
10
129.995307187595
20
-6.07671073568565
30
0
41
1
10
129.996166088345
20
-6.11140656137789
30
0
41
1
10
129.998060268622
20
-6.19345282192896
30
0
41
1
10
129.999734637012
20
-6.31982313965131
30
0
41
1
10
130.000218058847
20
-6.47168335198978
30
0
41
1
10
129.999124040854
20
-6.62376275713322
30
0
41
1
10
129.997195194351
20
-6.73164331190773
30
0
41
1
10
129.995681080144
20
-6.79515448809988
30
0
41
1
10
129.995260391952
20
-6.81107961622038
30
0
41
1
10
129.995011124063
20
-6.82272260399176
30
0
41
1
10
129.994861919497
20
-6.8282654921392
30
0
41
1
10
129.994781401294
20
-6.83062933732066
30
0
0
SPLINE
5
1C8
100
AcDbEntity
8
1
62
256
6
ByLayer
370
13
48
1
60
0
100
AcDbSpline
70
4
71
3
72
8
73
4
40
0
40
0
40
0
40
0
40
1
40
1
40
1
40
1
41
1
10
129.994763879326
20
-6.83063144992036
30
0
41
1
10
129.972704045019
20
-6.93911715537084
30
0
41
1
10
129.95064416581
20
-7.04760270024855
30
0
41
1
10
129.928584246399
20
-7.15608806144633
30
0
0
SPLINE
5
1C9
100
AcDbEntity
8
1
62
256
6
ByLayer
370
18
48
1
60
0
100
AcDbSpline
70
4
71
3
72
32
73
28
40
0
40
0
40
0
40
0
40
0.25000000000003
40
0.375000000000046
40
0.500000000000061
40
0.531250000000067
40
0.546875000000069
40
0.546875000000069
40
0.554687500000069
40
0.554687500000069
40
0.555664062500069
40
0.555664062500069
40
0.556640625000068
40
0.556640625000068
40
0.558593750000068
40
0.558593750000068
40
0.560546875000067
40
0.562500000000067
40
0.562500000000067
40
0.566406250000066
40
0.566406250000066
40
0.570312500000066
40
0.578125000000064
40
0.593750000000061
40
0.625000000000056
40
0.750000000000037
40
1
40
1
40
1
40
1
41
1
10
129.850175571522
20
-5.41031593152923
30
0
41
1
10
129.861755968936
20
-5.55528905680248
30
0
41
1
10
129.879235208681
20
-5.77272920870968
30
0
41
1
10
129.902712067052
20
-6.06261682599947
30
0
41
1
10
129.915986898963
20
-6.22521277484142
30
0
41
1
10
129.924085254237
20
-6.32564713837516
30
0
41
1
10
129.926323589736
20
-6.35208934715595
30
0
41
1
10
129.927414669612
20
-6.3662623626561
30
0
41
1
10
129.927765643262
20
-6.37114870891423
30
0
41
1
10
129.928203011898
20
-6.37542823141348
30
0
41
1
10
129.928251543998
20
-6.37587045885078
30
0
41
1
10
129.928340884903
20
-6.37688171367628
30
0
41
1
10
129.928382897137
20
-6.37744558380857
30
0
41
1
10
129.928491153861
20
-6.37884577518849
30
0
41
1
10
129.928536849987
20
-6.3794843333437
30
0
41
1
10
129.928613498595
20
-6.38121403226901
30
0
41
1
10
129.928677557831
20
-6.3833807502397
30
0
41
1
10
129.928732913528
20
-6.38587361083307
30
0
41
1
10
129.928816290362
20
-6.38967395493086
30
0
41
1
10
129.928872444564
20
-6.3921945381627
30
0
41
1
10
129.928985581148
20
-6.39708370238782
30
0
41
1
10
129.929156444349
20
-6.40426023320566
30
0
41
1
10
129.929558057017
20
-6.42019193244951
30
0
41
1
10
129.930331598507
20
-6.45109692788478
30
0
41
1
10
129.932422084517
20
-6.5514897629499
30
0
41
1
10
129.935108537264
20
-6.78909115934158
30
0
41
1
10
129.932556034678
20
-7.00910309766735
30
0
41
1
10
129.928584246399
20
-7.15608806144633
30
0
0
SPLINE
5
1CA
100
AcDbEntity
8
1
62
256
6
ByLayer
370
18
48
1
60
0
100
AcDbSpline
70
4
71
3
72
17
73
13
40
0
40
0
40
0
40
0
40
0.0295634678907697
40
0.073544695850052
40
0.161507151768617
40
0.337432063605746
40
0.513356975442876
40
0.689281887280005
40
0.865206799117134
40
0.953169255035699
40
0.997150482994981
40
1
40
1
40
1
40
1
41
1
10
129.642418217079
20
-4.26029152122584
30
0
41
1
10
129.647039779199
20
-4.26774069187613
30
0
41
1
10
129.658504319862
20
-4.28632877717138
30
0
41
1
10
129.682960106921
20
-4.32778287488716
30
0
41
1
10
129.726974394452
20
-4.40769579505232
30
0
41
1
10
129.78212582433
20
-4.52439264705348
30
0
41
1
10
129.835837972566
20
-4.66802627482301
30
0
41
1
10
129.877009882006
20
-4.81520131981156
30
0
41
1
10
129.900615245205
20
-4.94000558646482
30
0
41
1
10
129.911701865802
20
-5.02866847175491
30
0
41
1
10
129.915152241468
20
-5.0675419426845
30
0
41
1
10
129.916272860408
20
-5.08099233892116
30
0
41
1
10
129.91634077869
20
-5.08181054984539
30
0
0
SPLINE
5
1CB
100
AcDbEntity
8
1
62
256
6
ByLayer
370
13
48
1
60
0
100
AcDbSpline
70
4
71
3
72
9
73
5
40
0
40
0
40
0
40
0
40
0.25308969818995
40
1
40
1
40
1
40
1
41
1
10
129.916357481279
20
-5.08180769676559
30
0
41
1
10
129.91076957525
20
-5.1095444778903
30
0
41
1
10
129.888697325619
20
-5.2191048666777
30
0
41
1
10
129.866646005396
20
-5.3285613678155
30
0
41
1
10
129.850175571522
20
-5.41031593152923
30
0
0
SPLINE
5
1CC
100
AcDbEntity
8
1
62
256
6
ByLayer
370
18
48
1
60
0
100
AcDbSpline
70
4
71
3
72
19
73
15
40
0
40
0
40
0
40
0
40
0.125
40
0.25
40
0.3125
40
0.34375
40
0.359375
40
0.375
40
0.4375
40
0.46875
40
0.5
40
0.625
40
0.75
40
1
40
1
40
1
40
1
41
1
10
129.590721698526
20
-5.97644744703931
30
0
41
1
10
129.594929362119
20
-5.95126189927993
30
0
41
1
10
129.607141422941
20
-5.90128936582065
30
0
41
1
10
129.631571775133
20
-5.84082338837325
30
0
41
1
10
129.653310748657
20
-5.80007553620703
30
0
41
1
10
129.665299152227
20
-5.78015559337055
30
0
41
1
10
129.672463571221
20
-5.76891096413945
30
0
41
1
10
129.683521208456
20
-5.75218645841358
30
0
41
1
10
129.697320453455
20
-5.7331023546347
30
0
41
1
10
129.71431282912
20
-5.71196715587578
30
0
41
1
10
129.738558587829
20
-5.67957825123653
30
0
41
1
10
129.771357789847
20
-5.62914976994713
30
0
41
1
10
129.818712530987
20
-5.53508099333609
30
0
41
1
10
129.841232707132
20
-5.46062981266616
30
0
41
1
10
129.850175571522
20
-5.41031593152923
30
0
0
SPLINE
5
1CD
100
AcDbEntity
8
1
62
256
6
ByLayer
370
18
48
1
60
0
100
AcDbSpline
70
4
71
3
72
28
73
24
40
0
40
0
40
0
40
0
40
0.03125
40
0.0625
40
0.09375
40
0.125
40
0.15625
40
0.1875
40
0.21875
40
0.25
40
0.3125
40
0.375
40
0.4375
40
0.5
40
0.5625
40
0.625
40
0.6875
40
0.75
40
0.8125
40
0.875
40
0.9375
40
0.96875
40
1
40
1
40
1
40
1
41
1
10
129.490937372161
20
-4.59978948439581
30
0
41
1
10
129.496266770606
20
-4.60772952717815
30
0
41
1
10
129.506908724621
20
-4.62361613081339
30
0
41
1
10
129.522799431312
20
-4.64747374207147
30
0
41
1
10
129.538596217972
20
-4.67136721072836
30
0
41
1
10
129.554277388901
20
-4.6953046883776
30
0
41
1
10
129.569821248398
20
-4.71929432661281
30
0
41
1
10
129.585205468049
20
-4.74334388814347
30
0
41
1
10
129.60040771944
20
-4.76746113567918
30
0
41
1
10
129.620404992395
20
-4.79971806401298
30
0
41
1
10
129.644835020865
20
-4.84024725299059
30
0
41
1
10
129.67305656441
20
-4.88927226417698
30
0
41
1
10
129.699995627068
20
-4.93874439849313
30
0
41
1
10
129.725452288855
20
-4.98871229003169
30
0
41
1
10
129.749226629782
20
-5.03922457288536
30
0
41
1
10
129.77110922461
20
-5.09032006044834
30
0
41
1
10
129.790887512483
20
-5.14203120950793
30
0
41
1
10
129.808345843344
20
-5.19438113881594
30
0
41
1
10
129.823268189796
20
-5.24738219590961
30
0
41
1
10
129.835441471388
20
-5.30103436293612
30
0
41
1
10
129.843123435998
20
-5.34627558684477
30
0
41
1
10
129.84769472037
20
-5.3827728522372
30
0
41
1
10
129.849440961188
20
-5.40111922865168
30
0
41
1
10
129.850175571522
20
-5.41031593152923
30
0
0
SPLINE
5
1CE
100
AcDbEntity
8
1
62
256
6
ByLayer
370
13
48
1
60
0
100
AcDbSpline
70
4
71
3
72
8
73
4
40
0
40
0
40
0
40
0
40
1
40
1
40
1
40
1
41
1
10
129.329218830877
20
-9.65364453531791
30
0
41
1
10
129.325789822004
20
-9.67078376718206
30
0
41
1
10
129.32236081313
20
-9.68792299904621
30
0
41
1
10
129.318931804257
20
-9.70506223091036
30
0
0
SPLINE
5
1CF
100
AcDbEntity
8
1
62
256
6
ByLayer
370
13
48
1
60
0
100
AcDbSpline
70
4
71
3
72
8
73
4
40
0
40
0
40
0
40
0
40
1
40
1
40
1
40
1
41
1
10
129.563384481658
20
-8.48321321487623
30
0
41
1
10
129.485329264731
20
-8.87335698835673
30
0
41
1
10
129.407274047804
20
-9.26350076183724
30
0
41
1
10
129.329218830877
20
-9.65364453531771
30
0
0
SPLINE
5
1D0
100
AcDbEntity
8
1
62
256
6
ByLayer
370
18
48
1
60
0
100
AcDbSpline
70
4
71
3
72
8
73
4
40
0
40
0
40
0
40
0
40
1
40
1
40
1
40
1
41
1
10
129.590721698526
20
-5.97644744703931
30
0
41
1
10
129.598324674073
20
-6.06744437753062
30
0
41
1
10
129.60592764962
20
-6.15844130802191
30
0
41
1
10
129.613530625166
20
-6.24943823851319
30
0
0
SPLINE
5
1D1
100
AcDbEntity
8
1
62
256
6
ByLayer
370
18
48
1
60
0
100
AcDbSpline
70
4
71
3
72
11
73
7
40
0
40
0
40
0
40
0
40
0.0678631202913153
40
0.524574228222044
40
0.981285336152773
40
1
40
1
40
1
40
1
41
1
10
129.284447480499
20
-3.68551675866249
30
0
41
1
10
129.292591457548
20
-3.69860072526842
30
0
41
1
10
129.355645092621
20
-3.79992103467333
30
0
41
1
10
129.472353823171
20
-3.98722194242882
30
0
41
1
10
129.582828045759
20
-4.1645075406191
30
0
41
1
10
129.640164334888
20
-4.25665864718204
30
0
41
1
10
129.642418217079
20
-4.26029152122584
30
0
0
SPLINE
5
1D2
100
AcDbEntity
8
1
62
256
6
ByLayer
370
13
48
1
60
0
100
AcDbSpline
70
4
71
3
72
11
73
7
40
0
40
0
40
0
40
0
40
0.249255887038224
40
0.499007732287026
40
0.749255712187901
40
1
40
1
40
1
40
1
41
1
10
129.49093737216
20
-4.5997894843949
30
0
41
1
10
129.503623375263
20
-4.57159653611564
30
0
41
1
10
129.529020623511
20
-4.51515454249019
30
0
41
1
10
129.566930225105
20
-4.43037392262522
30
0
41
1
10
129.604766373962
20
-4.34540291568206
30
0
41
1
10
129.629867511736
20
-4.288677797807
30
0
41
1
10
129.642430513842
20
-4.26028714150493
30
0
0
SPLINE
5
1D3
100
AcDbEntity
8
1
62
256
6
ByLayer
370
13
48
1
60
0
100
AcDbSpline
70
4
71
3
72
8
73
4
40
0
40
0
40
0
40
0
40
1
40
1
40
1
40
1
41
1
10
129.564875520952
20
-6.13115328921978
30
0
41
1
10
129.573490913477
20
-6.07958467515962
30
0
41
1
10
129.582106306001
20
-6.02801606109946
30
0
41
1
10
129.590721698526
20
-5.97644744703931
30
0
0
SPLINE
5
1D4
100
AcDbEntity
8
1
62
256
6
ByLayer
370
18
48
1
60
0
100
AcDbSpline
70
4
71
3
72
9
73
5
40
0
40
0
40
0
40
0
40
0.450983544456225
40
1
40
1
40
1
40
1
41
1
10
129.492754484931
20
-5.6527444348489
30
0
41
1
10
129.515651590828
20
-5.69917678901123
30
0
41
1
10
129.56060151782
20
-5.80401788759161
30
0
41
1
10
129.58553385904
20
-5.91435630044577
30
0
41
1
10
129.590721698526
20
-5.97644744703931
30
0
0
SPLINE
5
1D5
100
AcDbEntity
8
1
62
256
6
ByLayer
370
18
48
1
60
0
100
AcDbSpline
70
4
71
3
72
11
73
7
40
0
40
0
40
0
40
0
40
0.0464280056752324
40
0.284821004256424
40
0.523214002837616
40
1
40
1
40
1
40
1
41
1
10
129.379153099123
20
-4.96471831093859
30
0
41
1
10
129.381497977549
20
-4.95922915667191
30
0
41
1
10
129.39570974389
20
-4.9254954747586
30
0
41
1
10
129.419878743208
20
-4.86288717484524
30
0
41
1
10
129.457928710019
20
-4.74716404748364
30
0
41
1
10
129.47962047109
20
-4.65892761917868
30
0
41
1
10
129.490937372161
20
-4.59978948439669
30
0
0
SPLINE
5
1D6
100
AcDbEntity
8
1
62
256
6
ByLayer
370
18
48
1
60
0
100
AcDbSpline
70
4
71
3
72
8
73
4
40
0
40
0
40
0
40
0
40
1
40
1
40
1
40
1
41
1
10
129.490937372161
20
-4.59978948439669
30
0
41
1
10
129.422975916194
20
-4.49853661816306
30
0
41
1
10
129.354744450232
20
-4.39738688679262
30
0
41
1
10
129.286050832824
20
-4.29641694245797
30
0
0
SPLINE
5
1D7
100
AcDbEntity
8
1
62
256
6
ByLayer
370
18
48
1
60
0
100
AcDbSpline
70
4
71
3
72
9
73
5
40
0
40
0
40
0
40
0
40
0.277392993009031
40
1
40
1
40
1
40
1
41
1
10
129.30598210589
20
-9.80098796355139
30
0
41
1
10
129.309084110237
20
-9.79201826046992
30
0
41
1
10
129.318393496603
20
-9.75966689976761
30
0
41
1
10
129.320815517887
20
-9.72760766444873
30
0
41
1
10
129.318931802539
20
-9.70506223949687
30
0
0
SPLINE
5
1D8
100
AcDbEntity
8
1
62
256
6
ByLayer
370
18
48
1
60
0
100
AcDbSpline
70
4
71
3
72
8
73
4
40
0
40
0
40
0
40
0
40
1
40
1
40
1
40
1
41
1
10
129.215561344406
20
-8.46786312481245
30
0
41
1
10
129.229680256114
20
-8.63684665230571
30
0
41
1
10
129.243799167821
20
-8.80583017979956
30
0
41
1
10
129.257918079529
20
-8.97481370729432
30
0
0
SPLINE
5
1D9
100
AcDbEntity
8
1
62
256
6
ByLayer
370
18
48
1
60
0
100
AcDbSpline
70
4
71
3
72
8
73
4
40
0
40
0
40
0
40
0
40
1
40
1
40
1
40
1
41
1
10
129.284204272171
20
-9.2894224851461
30
0
41
1
10
129.295780116199
20
-9.4279690670669
30
0
41
1
10
129.307355960226
20
-9.56651564898843
30
0
41
1
10
129.318931804254
20
-9.70506223091087
30
0
0
SPLINE
5
1DA
100
AcDbEntity
8
1
62
256
6
ByLayer
370
13
48
1
60
0
100
AcDbSpline
70
4
71
3
72
11
73
7
40
0
40
0
40
0
40
0
40
0.198770925699071
40
0.465847283799381
40
0.732923641899691
40
1
40
1
40
1
40
1
41
1
10
120.358083001787
20
9.32910333131463
30
0
41
1
10
120.375713812259
20
9.32190852735093
30
0
41
1
10
120.417722688125
20
9.30661100986805
30
0
41
1
10
120.485930057975
20
9.28850972405584
30
0
41
1
10
120.562383003666
20
9.27641597640468
30
0
41
1
10
120.614082004536
20
9.2735212614711
30
0
41
1
10
120.639983639783
20
9.27334745524237
30
0
0
SPLINE
5
1DB
100
AcDbEntity
8
1
62
256
6
ByLayer
370
13
48
1
60
0
100
AcDbSpline
70
4
71
3
72
8
73
4
40
0
40
0
40
0
40
0
40
1
40
1
40
1
40
1
41
1
10
128.145125733345
20
9.31647459283514
30
0
41
1
10
128.15834210198
20
9.31725404597967
30
0
41
1
10
128.171558470616
20
9.31803349912423
30
0
41
1
10
128.184774839251
20
9.31881295226876
30
0
0
SPLINE
5
1DC
100
AcDbEntity
8
1
62
256
6
ByLayer
370
13
48
1
60
0
100
AcDbSpline
70
4
71
3
72
8
73
4
40
0
40
0
40
0
40
0
40
1
40
1
40
1
40
1
41
1
10
120.917823663847
20
9.25827531905898
30
0
41
1
10
121.097087124739
20
9.22882384427515
30
0
41
1
10
121.276350585631
20
9.19937236949127
30
0
41
1
10
121.455614046522
20
9.16992089470739
30
0
0
SPLINE
5
1DD
100
AcDbEntity
8
1
62
256
6
ByLayer
370
18
48
1
60
0
100
AcDbSpline
70
4
71
3
72
8
73
4
40
0
40
0
40
0
40
0
40
1
40
1
40
1
40
1
41
1
10
128.153903484159
20
9.313027132625
30
0
41
1
10
128.164247023051
20
9.31363557468796
30
0
41
1
10
128.174512680324
20
9.31556350300073
30
0
41
1
10
128.184774806676
20
9.31881295034759
30
0
0
SPLINE
5
1DE
100
AcDbEntity
8
1
62
256
6
ByLayer
370
18
48
1
60
0
100
AcDbSpline
70
4
71
3
72
9
73
5
40
0
40
0
40
0
40
0
40
0.50045236150146
40
1
40
1
40
1
40
1
41
1
10
120.639983639792
20
9.27334745524311
30
0
41
1
10
120.663359753987
20
9.26447756036092
30
0
41
1
10
120.710122110308
20
9.25123575098689
30
0
41
1
10
120.75664337756
20
9.24702211841472
30
0
41
1
10
120.779738716402
20
9.24716726784922
30
0
0
SPLINE
5
1DF
100
AcDbEntity
8
1
62
256
6
ByLayer
370
18
48
1
60
0
100
AcDbSpline
70
4
71
3
72
11
73
7
40
0
40
0
40
0
40
0
40
0.478567842599808
40
0.717851763899712
40
0.957135685199616
40
1
40
1
40
1
40
1
41
1
10
128.569822600589
20
9.40089918503432
30
0
41
1
10
128.555620002128
20
9.39550384790905
30
0
41
1
10
128.534275238652
20
9.3892204485455
30
0
41
1
10
128.505774023778
20
9.38449149944617
30
0
41
1
10
128.490239315503
20
9.38324810166105
30
0
41
1
10
128.481833342737
20
9.3830029276603
30
0
41
1
10
128.480556303641
20
9.38297549384328
30
0
0
SPLINE
5
1E0
100
AcDbEntity
8
1
62
256
6
ByLayer
370
18
48
1
60
0
100
AcDbSpline
70
4
71
3
72
20
73
16
40
0
40
0
40
0
40
0
40
0.0013471400125723
40
0.0169510909498759
40
0.0325550418871794
40
0.0637629437617865
40
0.126178747511001
40
0.251010355009429
40
0.375841962507858
40
0.500673570006286
40
0.625505177504715
40
0.750336785003143
40
0.875168392501572
40
0.937584196250786
40
1
40
1
40
1
40
1
41
1
10
121.013137097391
20
11.3104268241252
30
0
41
1
10
121.013152549238
20
11.31084392204
30
0
41
1
10
121.013367165269
20
11.3163858905242
30
0
41
1
10
121.014322201428
20
11.3348981546778
30
0
41
1
10
121.01554368225
20
11.3650249382129
30
0
41
1
10
121.018180014773
20
11.4208000544507
30
0
41
1
10
121.022996291071
20
11.5303897779063
30
0
41
1
10
121.030130891413
20
11.6878797311639
30
0
41
1
10
121.038620743989
20
11.8766188607588
30
0
41
1
10
121.047064504113
20
12.0652565588437
30
0
41
1
10
121.055487747171
20
12.2539402082232
30
0
41
1
10
121.063891239722
20
12.442652903581
30
0
41
1
10
121.070878330224
20
12.5999236002642
30
0
41
1
10
121.076458893932
20
12.7257377752838
30
0
41
1
10
121.079246203434
20
12.7886426599082
30
0
41
1
10
121.08040830687
20
12.8148857299891
30
0
0
SPLINE
5
1E1
100
AcDbEntity
8
1
62
256
6
ByLayer
370
18
48
1
60
0
100
AcDbSpline
70
4
71
3
72
8
73
4
40
0
40
0
40
0
40
0
40
1
40
1
40
1
40
1
41
1
10
121.08040830687
20
12.8148857299891
30
0
41
1
10
121.080485438528
20
12.8166275469826
30
0
41
1
10
121.080562986141
20
12.8183636342646
30
0
41
1
10
121.080640962586
20
12.8200941805061
30
0
0
SPLINE
5
1E2
100
AcDbEntity
8
1
62
256
6
ByLayer
370
18
48
1
60
0
100
AcDbSpline
70
4
71
3
72
18
73
14
40
0
40
0
40
0
40
0
40
0.121162915242483
40
0.246484790770075
40
0.497128541825258
40
0.62245041735285
40
0.747772292880442
40
0.873094168408034
40
0.935755106171829
40
0.967085575053727
40
0.982750809494676
40
0.998416043935625
40
1
40
1
40
1
40
1
41
1
10
121.080640962586
20
12.8200941805061
30
0
41
1
10
121.082912648949
20
12.8705101530593
30
0
41
1
10
121.08827441561
20
12.9635055156826
30
0
41
1
10
121.104783702311
20
13.1507501783709
30
0
41
1
10
121.131648476776
20
13.3385208514389
30
0
41
1
10
121.171959660076
20
13.524766988836
30
0
41
1
10
121.209732593206
20
13.6626794624255
30
0
41
1
10
121.247880407827
20
13.7747026833414
30
0
41
1
10
121.279460867476
20
13.8535566546224
30
0
41
1
10
121.29508413618
20
13.8899842477668
30
0
41
1
10
121.306342450611
20
13.9150272245715
30
0
41
1
10
121.311059066503
20
13.9253146751157
30
0
41
1
10
121.312808613017
20
13.9291127185585
30
0
41
1
10
121.312963747417
20
13.9294493046212
30
0
0
SPLINE
5
1E3
100
AcDbEntity
8
1
62
256
6
ByLayer
370
18
48
1
60
0
100
AcDbSpline
70
4
71
3
72
18
73
14
40
0
40
0
40
0
40
0
40
0.0140665084469239
40
0.061012917720368
40
0.12360813008496
40
0.186203342449552
40
0.248798554814144
40
0.499179404272513
40
0.749560253730881
40
0.874750678460066
40
0.937345890824658
40
0.99994110318925
40
1
40
1
40
1
40
1
41
1
10
121.312963747417
20
13.9294493046212
30
0
41
1
10
121.314342883322
20
13.9324415353747
30
0
41
1
10
121.318431683423
20
13.9412449504636
30
0
41
1
10
121.325278822887
20
13.9559834330683
30
0
41
1
10
121.332728977938
20
13.9719370739507
30
0
41
1
10
121.34265644082
20
13.9931870031692
30
0
41
1
10
121.364011913481
20
14.0388211114952
30
0
41
1
10
121.393799066632
20
14.1019344680514
30
0
41
1
10
121.428381534133
20
14.1744043695646
30
0
41
1
10
121.452409355902
20
14.2242812853716
30
0
41
1
10
121.466532892107
20
14.2534650722528
30
0
41
1
10
121.473446605364
20
14.2677278653337
30
0
41
1
10
121.476815058076
20
14.2746262157332
30
0
41
1
10
121.476819258084
20
14.2746348169963
30
0
0
SPLINE
5
1E4
100
AcDbEntity
8
1
62
256
6
ByLayer
370
18
48
1
60
0
100
AcDbSpline
70
4
71
3
72
24
73
20
40
0
40
0
40
0
40
0
40
0.062450025914625
40
0.124960610188413
40
0.24998177873599
40
0.265609424804437
40
0.281237070872884
40
0.300771628458443
40
0.312492363009778
40
0.343747655146672
40
0.375002947283566
40
0.500024115831142
40
0.750066452926295
40
0.875087621473872
40
0.93759820574766
40
0.968853497884554
40
0.984481143953001
40
0.992294966987225
40
1
40
1
40
1
40
1
41
1
10
121.476819070011
20
14.27463443184
30
0
41
1
10
121.480181569966
20
14.2815205396697
30
0
41
1
10
121.486731665881
20
14.2948307635076
30
0
41
1
10
121.499827814833
20
14.3206314656743
30
0
41
1
10
121.511137495978
20
14.3419712073835
30
0
41
1
10
121.520063518905
20
14.3581962238233
30
0
41
1
10
121.522981157283
20
14.3634557781449
30
0
41
1
10
121.525692036825
20
14.3682968177245
30
0
41
1
10
121.529328012948
20
14.3747352669767
30
0
41
1
10
121.533681302633
20
14.3823545981038
30
0
41
1
10
121.544814798589
20
14.4015090310995
30
0
41
1
10
121.569699623789
20
14.4425116254506
30
0
41
1
10
121.60289942116
20
14.4916531055094
30
0
41
1
10
121.635027832581
20
14.5325445537018
30
0
41
1
10
121.652876637454
20
14.5514148607597
30
0
41
1
10
121.662323929847
20
14.5603117726161
30
0
41
1
10
121.667345102171
20
14.5644330422174
30
0
41
1
10
121.670366655881
20
14.5666292621602
30
0
41
1
10
121.671871641205
20
14.5676785773317
30
0
41
1
10
121.672728682212
20
14.5681596745444
30
0
0
SPLINE
5
1E5
100
AcDbEntity
8
1
62
256
6
ByLayer
370
18
48
1
60
0
100
AcDbSpline
70
4
71
3
72
30
73
26
40
0
40
0
40
0
40
0
40
0.0001094202678005
40
0.007968510625337
40
0.0158276009828735
40
0.0315457816979465
40
0.0629821431280926
40
0.125854865988385
40
0.251600311708969
40
0.377345757429553
40
0.408782118859699
40
0.416641209217236
40
0.424500299574772
40
0.432359389932309
40
0.440218480289845
40
0.471654841719991
40
0.503091203150137
40
0.51880938386521
40
0.628836648870722
40
0.754582094591306
40
0.817454817451598
40
0.88032754031189
40
0.943200263172182
40
0.974636624602328
40
1
40
1
40
1
40
1
41
1
10
121.672728682212
20
14.5681596745444
30
0
41
1
10
121.67274078307
20
14.5681664673221
30
0
41
1
10
121.673623620217
20
14.5686605710747
30
0
41
1
10
121.675611064627
20
14.5695573854571
30
0
41
1
10
121.679434457908
20
14.5713698042945
30
0
41
1
10
121.686200291424
20
14.574481203785
30
0
41
1
10
121.699757180006
20
14.5805575623863
30
0
41
1
10
121.727137474211
20
14.5920724900236
30
0
41
1
10
121.766868458334
20
14.6067779713718
30
0
41
1
10
121.803234649234
20
14.6180242910833
30
0
41
1
10
121.824616961373
20
14.6239091334075
30
0
41
1
10
121.830737295662
20
14.6255431501632
30
0
41
1
10
121.833799635866
20
14.6263507293884
30
0
41
1
10
121.836864101739
20
14.6271489236614
30
0
41
1
10
121.842997190044
20
14.628726630704
30
0
41
1
10
121.852212054165
20
14.631023467133
30
0
41
1
10
121.862475343109
20
14.6334539109492
30
0
41
1
10
121.883034956318
20
14.6381359396268
30
0
41
1
10
121.916054817502
20
14.6448706374595
30
0
41
1
10
121.955286354628
20
14.6512861994782
30
0
41
1
10
121.989469447952
20
14.6557358046176
30
0
41
1
10
122.014556602921
20
14.6585369861661
30
0
41
1
10
122.03281784577
20
14.6602954756598
30
0
41
1
10
122.050268000138
20
14.6616331608712
30
0
41
1
10
122.048059267316
20
14.6615391594867
30
0
41
1
10
122.06431085612
20
14.6625796745521
30
0
0
SPLINE
5
1E6
100
AcDbEntity
8
1
62
256
6
ByLayer
370
18
48
1
60
0
100
AcDbSpline
70
4
71
3
72
25
73
21
40
0
40
0
40
0
40
0
40
0.0059772068261373
40
0.0214474905650106
40
0.0369177743038838
40
0.0678583417816304
40
0.129739476737123
40
0.253501746648109
40
0.485556002731208
40
0.501026286470082
40
0.531966853947828
40
0.562907421425575
40
0.624788556381068
40
0.748550826292054
40
0.87231309620304
40
0.934194231158533
40
0.965134798636279
40
0.980605082375153
40
0.996075366114026
40
1
40
1
40
1
40
1
41
1
10
122.06431085612
20
14.662579674552
30
0
41
1
10
122.068202123361
20
14.6628288146353
30
0
41
1
10
122.085710930629
20
14.6639454682096
30
0
41
1
10
122.143631993084
20
14.6676165205751
30
0
41
1
10
122.296038605169
20
14.6771866687155
30
0
41
1
10
122.501197708251
20
14.6897097831041
30
0
41
1
10
122.954796722942
20
14.7163790074783
30
0
41
1
10
123.802882110343
20
14.7617535679823
30
0
41
1
10
124.564204092749
20
14.7954006298599
30
0
41
1
10
125.135347573594
20
14.8170634533937
30
0
41
1
10
125.293993455071
20
14.8228945457629
30
0
41
1
10
125.547769953163
20
14.831828481475
30
0
41
1
10
125.991608513775
20
14.8464284637878
30
0
41
1
10
126.624200332587
20
14.8643564324123
30
0
41
1
10
127.252998593043
20
14.8784489875269
30
0
41
1
10
127.705588715603
20
14.8865205492347
30
0
41
1
10
127.912489327893
20
14.8898072674441
30
0
41
1
10
128.062248298823
20
14.8919741004023
30
0
41
1
10
128.11954805255
20
14.8927769021796
30
0
41
1
10
128.139576225701
20
14.8930433016101
30
0
41
1
10
128.143208686536
20
14.8930906969101
30
0
0
SPLINE
5
1E7
100
AcDbEntity
8
1
62
256
6
ByLayer
370
18
48
1
60
0
100
AcDbSpline
70
4
71
3
72
33
73
29
40
0
40
0
40
0
40
0
40
0.0273823410709341
40
0.058742544438547
40
0.0901027478061598
40
0.121462951173773
40
0.184183357908998
40
0.246903764644224
40
0.309624171379449
40
0.372344578114675
40
0.403704781482288
40
0.435064984849901
40
0.497785391585126
40
0.529145594952739
40
0.560505798320352
40
0.591866001687965
40
0.623226205055578
40
0.685946611790803
40
0.717306815158416
40
0.748667018526029
40
0.764347120209835
40
0.811387425261255
40
0.87410783199648
40
0.936828238731706
40
0.968188442099319
40
0.983868543783125
40
0.999548645466931
40
1
40
1
40
1
40
1
41
1
10
128.143208686536
20
14.8930906969101
30
0
41
1
10
128.168213393611
20
14.8934169511071
30
0
41
1
10
128.17912866361
20
14.8934549237561
30
0
41
1
10
128.204420840536
20
14.893330101851
30
0
41
1
10
128.235379409701
20
14.8929111498335
30
0
41
1
10
128.27775935251
20
14.8918768817006
30
0
41
1
10
128.328825215457
20
14.8895935517049
30
0
41
1
10
128.390326214164
20
14.8851666703817
30
0
41
1
10
128.451546730691
20
14.8789124628795
30
0
41
1
10
128.502211932035
20
14.8716115731065
30
0
41
1
10
128.542715721129
20
14.8639871159385
30
0
41
1
10
128.582578737679
20
14.8535941794617
30
0
41
1
10
128.620183485716
20
14.8370074189114
30
0
41
1
10
128.652513524019
20
14.8119246551123
30
0
41
1
10
128.673396290378
20
14.7898535649941
30
0
41
1
10
128.691715464763
20
14.7653470647262
30
0
41
1
10
128.713082774111
20
14.7306963220395
30
0
41
1
10
128.730459927796
20
14.6935558339335
30
0
41
1
10
128.743083260818
20
14.6548628074322
30
0
41
1
10
128.749554717908
20
14.6302776875465
30
0
41
1
10
128.756461394939
20
14.6005906562513
30
0
41
1
10
128.764174423507
20
14.5606638110979
30
0
41
1
10
128.771406799815
20
14.5048248047464
30
0
41
1
10
128.774967712712
20
14.4530177557267
30
0
41
1
10
128.776009439676
20
14.4184234418973
30
0
41
1
10
128.776162109814
20
14.3957770508409
30
0
41
1
10
128.776118766778
20
14.3859812962114
30
0
41
1
10
128.776086825966
20
14.3817275515228
30
0
41
1
10
128.776085924829
20
14.3816090762866
30
0
0
SPLINE
5
1E8
100
AcDbEntity
8
1
62
256
6
ByLayer
370
18
48
1
60
0
100
AcDbSpline
70
4
71
3
72
22
73
18
40
0
40
0
40
0
40
0
40
0.0112892879508356
40
0.0621620442639588
40
0.124774667418572
40
0.249999913727798
40
0.500450406346251
40
0.750900898964703
40
0.813513522119316
40
0.82916667790797
40
0.844819833696623
40
0.860472989485276
40
0.876126145273929
40
0.938738768428543
40
0.970045080005849
40
0.985698235794502
40
1
40
1
40
1
40
1
41
1
10
128.776085924829
20
14.3816090762866
30
0
41
1
10
128.776063346778
20
14.3786406703441
30
0
41
1
10
128.775913308041
20
14.364174749178
30
0
41
1
10
128.775671225301
20
14.341464162393
30
0
41
1
10
128.775261540323
20
14.3078804469146
30
0
41
1
10
128.77426736477
20
14.2249303662415
30
0
41
1
10
128.772695871581
20
14.1174345219746
30
0
41
1
10
128.771111439538
20
14.0173654203765
30
0
41
1
10
128.769995165663
20
13.9594129468379
30
0
41
1
10
128.769669245538
20
13.9428474554993
30
0
41
1
10
128.769505225085
20
13.9345612952157
30
0
41
1
10
128.769340480796
20
13.9262698340549
30
0
41
1
10
128.76901021766
20
13.9096725374527
30
0
41
1
10
128.768624614778
20
13.8902560965641
30
0
41
1
10
128.768309303696
20
13.8712219103864
30
0
41
1
10
128.768065301568
20
13.859915728715
30
0
41
1
10
128.768098834691
20
13.8561441774751
30
0
41
1
10
128.767935239055
20
13.8517300238919
30
0
0
SPLINE
5
1E9
100
AcDbEntity
8
1
62
256
6
ByLayer
370
18
48
1
60
0
100
AcDbSpline
70
4
71
3
72
21
73
17
40
0
40
0
40
0
40
0
40
0.0013467736322137
40
0.0169464397395101
40
0.0325461058468065
40
0.0637454380613992
40
0.126144102490585
40
0.250941431348955
40
0.375738760207326
40
0.500536089065697
40
0.625333417924068
40
0.750130746782439
40
0.87492807564081
40
0.937326740069995
40
0.99972540449918
40
1
40
1
40
1
40
1
41
1
10
128.767935239055
20
13.8517300238919
30
0
41
1
10
128.767919780699
20
13.8513129250002
30
0
41
1
10
128.767705089919
20
13.8457709562374
30
0
41
1
10
128.766750123631
20
13.8272586926705
30
0
41
1
10
128.765528631884
20
13.7971319095252
30
0
41
1
10
128.762892305426
20
13.7413567930708
30
0
41
1
10
128.758076025077
20
13.6317670697596
30
0
41
1
10
128.750941426653
20
13.4742771164333
30
0
41
1
10
128.742462840994
20
13.2857958896719
30
0
41
1
10
128.734015091274
20
13.0970656346995
30
0
41
1
10
128.725546080984
20
12.9073306060746
30
0
41
1
10
128.717159436561
20
12.7190112835149
30
0
41
1
10
128.710325559793
20
12.565275336201
30
0
41
1
10
128.704410035376
20
12.4317218626872
30
0
41
1
10
128.701663717432
20
12.3691208520084
30
0
41
1
10
128.700435594538
20
12.3421806310166
30
0
41
1
10
128.700430216471
20
12.3420626803758
30
0
0
SPLINE
5
1EA
100
AcDbEntity
8
1
62
256
6
ByLayer
370
18
48
1
60
0
100
AcDbSpline
70
4
71
3
72
20
73
16
40
0
40
0
40
0
40
0
40
0.0153299547324703
40
0.0309345924798121
40
0.0621438679744956
40
0.124562418963863
40
0.249399520942597
40
0.499073724900065
40
0.748747928857533
40
0.873585030836267
40
0.936003581825634
40
0.967212857320318
40
0.98281749506766
40
0.998422132815002
40
1
40
1
40
1
40
1
41
1
10
128.700430216471
20
12.3420626803758
30
0
41
1
10
128.700130068603
20
12.33547989991
30
0
41
1
10
128.699542049116
20
12.3227291368919
30
0
41
1
10
128.698385138665
20
12.2989049645963
30
0
41
1
10
128.696288520522
20
12.2607920413766
30
0
41
1
10
128.690812551791
20
12.1757116891467
30
0
41
1
10
128.676303378606
20
12.0119826393375
30
0
41
1
10
128.642748748857
20
11.7765933482074
30
0
41
1
10
128.586598849035
20
11.5442866708206
30
0
41
1
10
128.533191911731
20
11.3874541683797
30
0
41
1
10
128.501611449365
20
11.308600191257
30
0
41
1
10
128.485988189947
20
11.2721726181311
30
0
41
1
10
128.474729865014
20
11.2471296186988
30
0
41
1
10
128.470013249329
20
11.2368421684713
30
0
41
1
10
128.468263713174
20
11.2330441473983
30
0
41
1
10
128.468108576516
20
11.2327075564316
30
0
0
SPLINE
5
1EB
100
AcDbEntity
8
1
62
256
6
ByLayer
370
18
48
1
60
0
100
AcDbSpline
70
4
71
3
72
18
73
14
40
0
40
0
40
0
40
0
40
0.0140664959635778
40
0.0610129915045275
40
0.123608318892461
40
0.186203646280393
40
0.248798973668327
40
0.499180283220059
40
0.749561592771791
40
0.874752247547657
40
0.93734757493559
40
0.999942902323523
40
1
40
1
40
1
40
1
41
1
10
128.468108576516
20
11.2327075564316
30
0
41
1
10
128.46672945771
20
11.2297153627236
30
0
41
1
10
128.462640732849
20
11.2209121099005
30
0
41
1
10
128.455793706369
20
11.2061738700605
30
0
41
1
10
128.448343671883
20
11.1902204862188
30
0
41
1
10
128.438416368073
20
11.1689708955135
30
0
41
1
10
128.417061226933
20
11.1233374906011
30
0
41
1
10
128.387274464797
20
11.0602249512819
30
0
41
1
10
128.352692302576
20
10.9877556627573
30
0
41
1
10
128.328664404124
20
10.9378785675583
30
0
41
1
10
128.314540965085
20
10.9086949549943
30
0
41
1
10
128.307627279524
20
10.8944322088937
30
0
41
1
10
128.304258831216
20
10.8875338623565
30
0
41
1
10
128.304254816501
20
10.887525640552
30
0
0
SPLINE
5
1EC
100
AcDbEntity
8
1
62
256
6
ByLayer
370
18
48
1
60
0
100
AcDbSpline
70
4
71
3
72
24
73
20
40
0
40
0
40
0
40
0
40
0.0624488107757113
40
0.124958142841036
40
0.249976806971685
40
0.265604139988016
40
0.281231473004347
40
0.300765639274761
40
0.312486139037009
40
0.343740805069671
40
0.374995471102334
40
0.500014135232982
40
0.75005146349428
40
0.875070127624929
40
0.937579459690254
40
0.968834125722916
40
0.984461458739247
40
0.992275125247412
40
1
40
1
40
1
40
1
41
1
10
128.30425463059
20
10.8875252598196
30
0
41
1
10
128.300892038052
20
10.8806389586742
30
0
41
1
10
128.294341649855
20
10.8673281327648
30
0
41
1
10
128.281244898926
20
10.841526198919
30
0
41
1
10
128.269935050349
20
10.8201861111431
30
0
41
1
10
128.261008942488
20
10.8039609193835
30
0
41
1
10
128.258091279495
20
10.7987013142746
30
0
41
1
10
128.255380380149
20
10.7938602338572
30
0
41
1
10
128.251744380803
20
10.7874217367438
30
0
41
1
10
128.247391068465
20
10.779802358979
30
0
41
1
10
128.236257530733
20
10.7606478401339
30
0
41
1
10
128.211372684379
20
10.7196452031643
30
0
41
1
10
128.178172896471
20
10.6705037421933
30
0
41
1
10
128.146044485046
20
10.6296122940118
30
0
41
1
10
128.128195680171
20
10.610741986961
30
0
41
1
10
128.118748387776
20
10.6018450751074
30
0
41
1
10
128.11372721544
20
10.5977238055297
30
0
41
1
10
128.11070372184
20
10.5955261756035
30
0
41
1
10
128.109196797955
20
10.5944755663831
30
0
41
1
10
128.108336960449
20
10.5939934283477
30
0
0
SPLINE
5
1ED
100
AcDbEntity
8
1
62
256
6
ByLayer
370
18
48
1
60
0
100
AcDbSpline
70
4
71
3
72
30
73
26
40
0
40
0
40
0
40
0
40
8.93097324388E-05
40
0.0079485581577898
40
0.0158078065831407
40
0.0315263034338426
40
0.0629632971352464
40
0.125837284538054
40
0.251585259343669
40
0.377333234149284
40
0.408770227850688
40
0.416629476276039
40
0.42448872470139
40
0.432347973126741
40
0.440207221552092
40
0.471644215253495
40
0.503081208954899
40
0.518799705805601
40
0.628829183760514
40
0.754577158566129
40
0.817451145968937
40
0.880325133371744
40
0.943199120774552
40
0.974636114475956
40
1
40
1
40
1
40
1
41
1
10
128.108336960449
20
10.5939934283477
30
0
41
1
10
128.108327077249
20
10.5939878865255
30
0
41
1
10
128.107446171901
20
10.5934951371239
30
0
41
1
10
128.105461252964
20
10.5925994623305
30
0
41
1
10
128.101637859686
20
10.5907870434907
30
0
41
1
10
128.094872026175
20
10.5876756439934
30
0
41
1
10
128.081315137603
20
10.5815992853817
30
0
41
1
10
128.053934843415
20
10.5700843577266
30
0
41
1
10
128.014203859311
20
10.5553788763644
30
0
41
1
10
127.977837668423
20
10.544132556649
30
0
41
1
10
127.956455356291
20
10.5382477143241
30
0
41
1
10
127.950335022004
20
10.5366136975683
30
0
41
1
10
127.9472726818
20
10.535806118343
30
0
41
1
10
127.944208215928
20
10.53500792407
30
0
41
1
10
127.938075127625
20
10.5334302170274
30
0
41
1
10
127.928860263506
20
10.5311333805984
30
0
41
1
10
127.918596974565
20
10.5287029367823
30
0
41
1
10
127.898037361361
20
10.524020908105
30
0
41
1
10
127.865017500186
20
10.5172862102727
30
0
41
1
10
127.82578596307
20
10.5108706482545
30
0
41
1
10
127.791602869755
20
10.5064210431155
30
0
41
1
10
127.766515714793
20
10.5036198615673
30
0
41
1
10
127.748254471948
20
10.5018613720738
30
0
41
1
10
127.730804317585
20
10.5005236868626
30
0
41
1
10
127.73301305041
20
10.5006176882474
30
0
41
1
10
127.716761461608
20
10.499577173182
30
0
0
SPLINE
5
1EE
100
AcDbEntity
8
1
62
256
6
ByLayer
370
18
48
1
60
0
100
AcDbSpline
70
4
71
3
72
25
73
21
40
0
40
0
40
0
40
0
40
0.0059772068266383
40
0.0214474905654928
40
0.0369177743043472
40
0.0678583417820561
40
0.129739476737474
40
0.253501746648309
40
0.485556002731126
40
0.50102628646998
40
0.531966853947689
40
0.562907421425398
40
0.624788556380816
40
0.748550826291651
40
0.872313096202487
40
0.934194231157905
40
0.965134798635613
40
0.980605082374468
40
0.996075366113322
40
1
40
1
40
1
40
1
41
1
10
127.716761461608
20
10.499577173182
30
0
41
1
10
127.712870194367
20
10.4993280330987
30
0
41
1
10
127.6953613871
20
10.4982113795243
30
0
41
1
10
127.637440324644
20
10.4945403271584
30
0
41
1
10
127.485033712558
20
10.484970179017
30
0
41
1
10
127.279874609477
20
10.472447064627
30
0
41
1
10
126.826275594784
20
10.4457778402498
30
0
41
1
10
125.978190207382
20
10.4004032797402
30
0
41
1
10
125.216868224973
20
10.3667562178576
30
0
41
1
10
124.645724744127
20
10.3450933943201
30
0
41
1
10
124.487078862649
20
10.3392623019499
30
0
41
1
10
124.233302364556
20
10.3303283662361
30
0
41
1
10
123.789463803942
20
10.3157283839205
30
0
41
1
10
123.156871985129
20
10.2978004152921
30
0
41
1
10
122.528073724674
20
10.2837078601736
30
0
41
1
10
122.075483602114
20
10.2756362984631
30
0
41
1
10
121.868582989826
20
10.2723495802525
30
0
41
1
10
121.718824018895
20
10.2701827472934
30
0
41
1
10
121.661524265169
20
10.2693799455157
30
0
41
1
10
121.641496092019
20
10.2691135460851
30
0
41
1
10
121.637863631183
20
10.2690661507851
30
0
0
SPLINE
5
1EF
100
AcDbEntity
8
1
62
256
6
ByLayer
370
18
48
1
60
0
100
AcDbSpline
70
4
71
3
72
33
73
29
40
0
40
0
40
0
40
0
40
0.0273823484113862
40
0.0587425601866203
40
0.0901027719618544
40
0.121462983737088
40
0.184183407287557
40
0.246903830838025
40
0.309624254388493
40
0.372344677938961
40
0.403704889714195
40
0.43506510148943
40
0.497785525039898
40
0.529145736815132
40
0.560505948590366
40
0.5918661603656
40
0.623226372140834
40
0.685946795691302
40
0.717307007466536
40
0.74866721924177
40
0.764347325129387
40
0.811387642792239
40
0.874108066342707
40
0.936828489893175
40
0.968188701668409
40
0.983868807556026
40
0.999548913443643
40
1
40
1
40
1
40
1
41
1
10
121.637863631183
20
10.2690661507851
30
0
41
1
10
121.612858924113
20
10.268739896588
30
0
41
1
10
121.60194365412
20
10.268701923939
30
0
41
1
10
121.576651477201
20
10.2688267458441
30
0
41
1
10
121.545692908044
20
10.2692456978615
30
0
41
1
10
121.503312965245
20
10.2702799659946
30
0
41
1
10
121.452247102308
20
10.2725632959904
30
0
41
1
10
121.390746103613
20
10.276990177314
30
0
41
1
10
121.329525587099
20
10.2832443848168
30
0
41
1
10
121.278860385764
20
10.290545274591
30
0
41
1
10
121.238356596678
20
10.2981697317613
30
0
41
1
10
121.198493580137
20
10.3085626682411
30
0
41
1
10
121.16088883211
20
10.3251494287945
30
0
41
1
10
121.128558793813
20
10.3502321925881
30
0
41
1
10
121.107676027456
20
10.3723032826989
30
0
41
1
10
121.08935685307
20
10.3968097829591
30
0
41
1
10
121.067989543721
20
10.431460525635
30
0
41
1
10
121.050612390032
20
10.4686010137288
30
0
41
1
10
121.037989057006
20
10.5072940402222
30
0
41
1
10
121.031517597626
20
10.5318791698337
30
0
41
1
10
121.024610929097
20
10.5615661649279
30
0
41
1
10
121.016897923222
20
10.6014929134781
30
0
41
1
10
121.009665543079
20
10.65733193613
30
0
41
1
10
121.006104473412
20
10.709139652346
30
0
41
1
10
121.005063092115
20
10.7437324948685
30
0
41
1
10
121.004909878779
20
10.7663811976767
30
0
41
1
10
121.004953430441
20
10.77617593567
30
0
41
1
10
121.004985591577
20
10.780429375124
30
0
41
1
10
121.004986498434
20
10.7805477739147
30
0
0
SPLINE
5
1F0
100
AcDbEntity
8
1
62
256
6
ByLayer
370
18
48
1
60
0
100
AcDbSpline
70
4
71
3
72
22
73
18
40
0
40
0
40
0
40
0
40
0.0112895525261346
40
0.0621622950429715
40
0.12477490121754
40
0.250000113566677
40
0.500450538264951
40
0.750900962963225
40
0.813513569137793
40
0.829166720681435
40
0.844819872225077
40
0.860473023768719
40
0.876126175312361
40
0.93873878148693
40
0.970045084574214
40
0.985698236117856
40
1
40
1
40
1
40
1
41
1
10
121.004986498434
20
10.7805477739147
30
0
41
1
10
121.005009233863
20
10.7835160979744
30
0
41
1
10
121.005160429968
20
10.7979817619539
30
0
41
1
10
121.005402640437
20
10.8206925816722
30
0
41
1
10
121.005809686849
20
10.8542764624453
30
0
41
1
10
121.006805623935
20
10.9372264239276
30
0
41
1
10
121.008365697862
20
11.0447221385637
30
0
41
1
10
121.009988218423
20
11.1447918522473
30
0
41
1
10
121.011052075891
20
11.202743465869
30
0
41
1
10
121.011368070443
20
11.2193087908885
30
0
41
1
10
121.011528657298
20
11.2275948922017
30
0
41
1
10
121.011692016255
20
11.2358863268962
30
0
41
1
10
121.012024643425
20
11.2524836522038
30
0
41
1
10
121.012431008502
20
11.2719004131959
30
0
41
1
10
121.012762679533
20
11.2909348971475
30
0
41
1
10
121.01300737239
20
11.3022411177318
30
0
41
1
10
121.012973570167
20
11.3060126681703
30
0
41
1
10
121.013137097391
20
11.3104268241252
30
0
0
SPLINE
5
1F1
100
AcDbEntity
8
1
62
256
6
ByLayer
370
13
48
1
60
0
100
AcDbSpline
70
4
71
3
72
8
73
4
40
0
40
0
40
0
40
0
40
1
40
1
40
1
40
1
41
1
10
120.639983639783
20
9.27334745524237
30
0
41
1
10
120.579179082184
20
9.29663840990887
30
0
41
1
10
120.518373986121
20
9.3201056022169
30
0
41
1
10
120.457568544287
20
9.3437492512372
30
0
0
SPLINE
5
1F2
100
AcDbEntity
8
1
62
256
6
ByLayer
370
18
48
1
60
0
100
AcDbSpline
70
4
71
3
72
47
73
43
40
0
40
0
40
0
40
0
40
0.0248207090807143
40
0.0496506043499431
40
0.0744896876533802
40
0.099337960676611
40
0.124195424944894
40
0.149062081822954
40
0.173937932514783
40
0.198822978063444
40
0.223717219350846
40
0.248620657097567
40
0.273533291862651
40
0.298455124043436
40
0.323386153875338
40
0.3483263814317
40
0.373275806623581
40
0.398234429199596
40
0.423202248745735
40
0.448179264685202
40
0.473165476278231
40
0.498160882621937
40
0.523165482804112
40
0.548179276888437
40
0.573202265356157
40
0.598234448633283
40
0.623275827088518
40
0.648326401033156
40
0.673386170721083
40
0.698455136348698
40
0.723533298054851
40
0.748620655920824
40
0.773717209970279
40
0.798822960169191
40
0.823937906425848
40
0.849062048590797
40
0.874195386456773
40
0.899337919758736
40
0.924489648173779
40
0.949650571321104
40
0.974820688762057
40
1
40
1
40
1
40
1
41
1
10
120.639983639791
20
9.27334745524277
30
0
41
1
10
120.705553357428
20
9.27292932623587
30
0
41
1
10
120.836717060169
20
9.27209291347174
30
0
41
1
10
121.033510682859
20
9.27112580757696
30
0
41
1
10
121.230385320541
20
9.2703687044523
30
0
41
1
10
121.427341578666
20
9.26984218683842
30
0
41
1
10
121.624378974747
20
9.26954060013114
30
0
41
1
10
121.821497317154
20
9.26946532292817
30
0
41
1
10
122.018696335464
20
9.26961584726689
30
0
41
1
10
122.215975779562
20
9.26999216999567
30
0
41
1
10
122.413335393073
20
9.27059415165414
30
0
41
1
10
122.610774920482
20
9.27142168835789
30
0
41
1
10
122.808294105228
20
9.27247466571842
30
0
41
1
10
123.005892690217
20
9.27375297119923
30
0
41
1
10
123.203570417679
20
9.27525649080417
30
0
41
1
10
123.401327029208
20
9.27698510997047
30
0
41
1
10
123.599162265754
20
9.27893871331963
30
0
41
1
10
123.797075867622
20
9.28111718476853
30
0
41
1
10
123.995067574474
20
9.28352040734438
30
0
41
1
10
124.19313712533
20
9.28614826382255
30
0
41
1
10
124.391284258551
20
9.28900063436873
30
0
41
1
10
124.589508712323
20
9.2920774053525
30
0
41
1
10
124.787810227372
20
9.29537843652105
30
0
41
1
10
124.986188550981
20
9.29890381198561
30
0
41
1
10
125.184643434265
20
9.30265366336201
30
0
41
1
10
125.383174628868
20
9.306628109765
30
0
41
1
10
125.581781885857
20
9.31082727341098
30
0
41
1
10
125.780464955675
20
9.3152512754325
30
0
41
1
10
125.979223588151
20
9.31990023699868
30
0
41
1
10
126.178057532498
20
9.32477427903231
30
0
41
1
10
126.376966537313
20
9.32987352223063
30
0
41
1
10
126.575950350574
20
9.33519808727706
30
0
41
1
10
126.775008719645
20
9.34074809398348
30
0
41
1
10
126.97414139126
20
9.34652366452218
30
0
41
1
10
127.173348111576
20
9.35252491136052
30
0
41
1
10
127.372628625981
20
9.35875198232452
30
0
41
1
10
127.571982679793
20
9.36520489233502
30
0
41
1
10
127.771410015665
20
9.371884151731
30
0
41
1
10
127.970910383265
20
9.37878842005625
30
0
41
1
10
128.170483503125
20
9.38592326705987
30
0
41
1
10
128.370129201629
20
9.39326845827594
30
0
41
1
10
128.503250031655
20
9.39835529982946
30
0
41
1
10
128.569822600589
20
9.40089918503443
30
0
0
SPLINE
5
1F3
100
AcDbEntity
8
1
62
256
6
ByLayer
370
13
48
1
60
0
100
AcDbSpline
70
4
71
3
72
9
73
5
40
0
40
0
40
0
40
0
40
0.501219718031044
40
1
40
1
40
1
40
1
41
1
10
128.569822600589
20
9.40089918503443
30
0
41
1
10
128.584809904314
20
9.40785248557023
30
0
41
1
10
128.614711568567
20
9.42172524493233
30
0
41
1
10
128.644606997742
20
9.4352979105532
30
0
41
1
10
128.659518248336
20
9.44206768853866
30
0
0
SPLINE
5
1F4
100
AcDbEntity
8
1
62
256
6
ByLayer
370
18
48
1
60
0
100
AcDbSpline
70
4
71
3
72
11
73
7
40
0
40
0
40
0
40
0
40
0.143776238263084
40
0.429184158842056
40
0.714592079421028
40
1
40
1
40
1
40
1
41
1
10
128.711403060432
20
9.43265823152149
30
0
41
1
10
128.704927203982
20
9.42992904970063
30
0
41
1
10
128.685406299562
20
9.42226177808388
30
0
41
1
10
128.652076362506
20
9.4119791662668
30
0
41
1
10
128.611189684641
20
9.4039320898423
30
0
41
1
10
128.583612465545
20
9.40143058656113
30
0
41
1
10
128.569822600589
20
9.40089918503432
30
0
0
SPLINE
5
1F5
100
AcDbEntity
8
1
62
256
6
ByLayer
370
18
48
1
60
0
100
AcDbSpline
70
4
71
3
72
21
73
17
40
0
40
0
40
0
40
0
40
0.0039822658528485
40
0.0174419649629451
40
0.0309016640730418
40
0.0847404605134284
40
0.138579256953815
40
0.246256849834588
40
0.353934442715361
40
0.461612035596134
40
0.569289628476907
40
0.676967221357681
40
0.784644814238454
40
0.892322407119227
40
0.946161203559613
40
1
40
1
40
1
40
1
41
1
10
129.994781401294
20
15.156970175337
30
0
41
1
10
129.994747568834
20
15.1585206872864
30
0
41
1
10
129.994584795126
20
15.1653975045323
30
0
41
1
10
129.994150479916
20
15.1784033931343
30
0
41
1
10
129.992334112957
20
15.21286800496
30
0
41
1
10
129.986929567401
20
15.2631615669446
30
0
41
1
10
129.97000534434
20
15.3517419806317
30
0
41
1
10
129.935889159073
20
15.457435051186
30
0
41
1
10
129.874631319499
20
15.5767122020099
30
0
41
1
10
129.795235367172
20
15.6835392834775
30
0
41
1
10
129.699072173396
20
15.7762984815284
30
0
41
1
10
129.588846344678
20
15.8519260077923
30
0
41
1
10
129.467171549789
20
15.9084216590164
30
0
41
1
10
129.358718244251
20
15.9379610525333
30
0
41
1
10
129.269916247305
20
15.9505000194213
30
0
41
1
10
129.224747847267
20
15.952975820705
30
0
41
1
10
129.202918998571
20
15.9532300416562
30
0
0
SPLINE
5
1F6
100
AcDbEntity
8
1
62
256
6
ByLayer
370
18
48
1
60
0
100
AcDbSpline
70
4
71
3
72
8
73
4
40
0
40
0
40
0
40
0
40
1
40
1
40
1
40
1
41
1
10
129.202918998571
20
15.9532300416562
30
0
41
1
10
129.202595118731
20
15.9532338135931
30
0
41
1
10
129.202272092049
20
15.9532375748643
30
0
41
1
10
129.201949893205
20
15.9532413257658
30
0
0
SPLINE
5
1F7
100
AcDbEntity
8
1
62
256
6
ByLayer
370
18
48
1
60
0
100
AcDbSpline
70
4
71
3
72
11
73
7
40
0
40
0
40
0
40
0
40
0.0589687449404106
40
0.484373627158131
40
0.970550635406954
40
1
40
1
40
1
40
1
41
1
10
129.201949893205
20
15.9532413257658
30
0
41
1
10
129.191414315614
20
15.9533639764653
30
0
41
1
10
129.11214494895
20
15.9542803639675
30
0
41
1
10
128.953296028606
20
15.956016448998
30
0
41
1
10
128.799262241994
20
15.9575046219943
30
0
41
1
10
128.714860271244
20
15.9582551672233
30
0
41
1
10
128.710039753083
20
15.9582978223182
30
0
0
SPLINE
5
1F8
100
AcDbEntity
8
1
62
256
6
ByLayer
370
18
48
1
60
0
100
AcDbSpline
70
4
71
3
72
17
73
13
40
0
40
0
40
0
40
0
40
0.0600950229142426
40
0.184038916465191
40
0.431926703567088
40
0.679814490668985
40
0.927702277770881
40
0.989674224546356
40
0.993547471219823
40
0.99742071789329
40
0.999357341230023
40
1
40
1
40
1
40
1
41
1
10
128.710039753083
20
15.9582978223182
30
0
41
1
10
128.555697238019
20
15.9596635457531
30
0
41
1
10
128.083017176691
20
15.9631824368963
30
0
41
1
10
126.973474063612
20
15.9668658794884
30
0
41
1
10
125.381087104086
20
15.958877886409
30
0
41
1
10
123.46971468741
20
15.9283449109963
30
0
41
1
10
122.03322452542
20
15.8898491503552
30
0
41
1
10
121.230941525311
20
15.8629830713014
30
0
41
1
10
121.049911718488
20
15.8566771794488
30
0
41
1
10
121.025176356431
20
15.8558094341402
30
0
41
1
10
121.009123376572
20
15.8552420059975
30
0
41
1
10
121.00185084977
20
15.8549824999787
30
0
41
1
10
121.000000033229
20
15.8549127531505
30
0
0
SPLINE
5
1F9
100
AcDbEntity
8
1
62
256
6
ByLayer
370
18
48
1
60
0
100
AcDbSpline
70
4
71
3
72
20
73
16
40
0
40
0
40
0
40
0
40
0.016626855503596
40
0.0415115835803986
40
0.0663963116572012
40
0.165935223964412
40
0.265474136271622
40
0.315243592425227
40
0.464551960886043
40
0.663629785500464
40
0.862707610114884
40
0.91247706626849
40
0.962246522422095
40
0.987131250498897
40
1
40
1
40
1
40
1
41
1
10
121.000000033229
20
15.8549127531505
30
0
41
1
10
120.996273497256
20
15.8547723210448
30
0
41
1
10
120.986577097465
20
15.8543702138337
30
0
41
1
10
120.97066755806
20
15.8532725100093
30
0
41
1
10
120.934505039636
20
15.8496649595751
30
0
41
1
10
120.881415180928
20
15.8403060476596
30
0
41
1
10
120.823874166773
20
15.8228432819653
30
0
41
1
10
120.75624243604
20
15.7956257486769
30
0
41
1
10
120.670903353885
20
15.7488883254343
30
0
41
1
10
120.568339201649
20
15.6616084725403
30
0
41
1
10
120.502981983227
20
15.5714970577247
30
0
41
1
10
120.469480238427
20
15.5072567336761
30
0
41
1
10
120.457081745903
20
15.479513643655
30
0
41
1
10
120.449121515744
20
15.459334600806
30
0
41
1
10
120.446169086909
20
15.4513011143995
30
0
41
1
10
120.445198015954
20
15.4486259343328
30
0
0
SPLINE
5
1FA
100
AcDbEntity
8
1
62
256
6
ByLayer
370
18
48
1
60
0
100
AcDbSpline
70
4
71
3
72
13
73
9
40
0
40
0
40
0
40
0
40
0.0057624935460902
40
0.0296303931158646
40
0.22057358967406
40
0.602459982790451
40
0.984346375906842
40
1
40
1
40
1
40
1
41
1
10
120.445198015954
20
15.4486259343328
30
0
41
1
10
120.444291294769
20
15.4461280299045
30
0
41
1
10
120.439787248168
20
15.4335669940964
30
0
41
1
10
120.409013112203
20
15.3485216840196
30
0
41
1
10
120.322959247799
20
15.109841170195
30
0
41
1
10
120.187160905623
20
14.7337534852391
30
0
41
1
10
120.076687813943
20
14.4278187545572
30
0
41
1
10
120.019352620368
20
14.2688209339597
30
0
41
1
10
120.017098083944
20
14.2625524373621
30
0
0
SPLINE
5
1FB
100
AcDbEntity
8
1
62
256
6
ByLayer
370
18
48
1
60
0
100
AcDbSpline
70
4
71
3
72
17
73
13
40
0
40
0
40
0
40
0
40
0.0295588681041414
40
0.0735401813589745
40
0.161502807868641
40
0.337428060887974
40
0.513353313907306
40
0.689278566926639
40
0.865203819945972
40
0.953166446455638
40
0.997147759710471
40
1
40
1
40
1
40
1
41
1
10
120.017098083944
20
14.2625524373621
30
0
41
1
10
120.012477401105
20
14.2497051245658
30
0
41
1
10
120.001013967525
20
14.2176608748804
30
0
41
1
10
119.976559418916
20
14.1464730128036
30
0
41
1
10
119.932545668973
20
14.0100198786162
30
0
41
1
10
119.877393832704
20
13.8130396167188
30
0
41
1
10
119.823681184772
20
13.5741415047902
30
0
41
1
10
119.782509241496
20
13.3328285876769
30
0
41
1
10
119.75890372296
20
13.1310285662269
30
0
41
1
10
119.747816977133
20
12.9890907207531
30
0
41
1
10
119.744366498414
20
12.9272114218537
30
0
41
1
10
119.743245805417
20
12.9058184333495
30
0
41
1
10
119.743177822035
20
12.9045159583999
30
0
0
SPLINE
5
1FC
100
AcDbEntity
8
1
62
256
6
ByLayer
370
18
48
1
60
0
100
AcDbSpline
70
4
71
3
72
32
73
28
40
0
40
0
40
0
40
0
40
0.0201709153615368
40
0.0309557845938299
40
0.106449869219882
40
0.192728823078228
40
0.365286730794918
40
0.451565684653264
40
0.494705161582436
40
0.537844638511609
40
0.543237073127756
40
0.548629507743902
40
0.554021942360049
40
0.556718159668122
40
0.559414376976195
40
0.564806811592342
40
0.570199246208489
40
0.580984115440782
40
0.624123592369955
40
0.7104025462283
40
0.796681500086645
40
0.882960453944991
40
0.969239407803336
40
0.980024277035629
40
0.990809146267922
40
0.996201580884069
40
1
40
1
40
1
40
1
41
1
10
119.743177822034
20
12.9045159583999
30
0
41
1
10
119.742197507187
20
12.8857343755752
30
0
41
1
10
119.740778775755
20
12.8570362279947
30
0
41
1
10
119.735838587743
20
12.7589815933847
30
0
41
1
10
119.727807861939
20
12.6000170540276
30
0
41
1
10
119.712181734768
20
12.2919935272451
30
0
41
1
10
119.69597052215
20
11.9740349374857
30
0
41
1
10
119.681773484309
20
11.6958204905592
30
0
41
1
10
119.673709311376
20
11.5368386087892
30
0
41
1
10
119.669332011784
20
11.452382984864
30
0
41
1
10
119.666810902788
20
11.4027007719958
30
0
41
1
10
119.666073724088
20
11.3877956762139
30
0
41
1
10
119.665416012483
20
11.3753771687926
30
0
41
1
10
119.664918390147
20
11.3654395699724
30
0
41
1
10
119.664617826301
20
11.3554997301246
30
0
41
1
10
119.66446531317
20
11.3430734443762
30
0
41
1
10
119.664209481389
20
11.3231914457498
30
0
41
1
10
119.6633492985
20
11.2685159550372
30
0
41
1
10
119.661460949219
20
11.1392841302022
30
0
41
1
10
119.659783603754
20
10.9405123542056
30
0
41
1
10
119.659299662215
20
10.7020390250073
30
0
41
1
10
119.660394393012
20
10.4636206496104
30
0
41
1
10
119.662323328081
20
10.2947814168409
30
0
41
1
10
119.663837451099
20
10.1954775216608
30
0
41
1
10
119.664258109309
20
10.1705876244356
30
0
41
1
10
119.664507478487
20
10.152375177928
30
0
41
1
10
119.664656697292
20
10.1437115987375
30
0
41
1
10
119.664737225365
20
10.1400201502355
30
0
0
SPLINE
5
1FD
100
AcDbEntity
8
1
62
256
6
ByLayer
370
18
48
1
60
0
100
AcDbSpline
70
4
71
3
72
25
73
21
40
0
40
0
40
0
40
0
40
0.0039779528290632
40
0.0174350682297109
40
0.0308921836303586
40
0.0847206452329494
40
0.13854910683554
40
0.246206030040722
40
0.353862953245904
40
0.461519876451085
40
0.569176799656267
40
0.676833722861449
40
0.78449064606663
40
0.892147569271812
40
0.945976030874403
40
0.972890261675698
40
0.986347377076346
40
0.989711655926508
40
0.999804492476994
40
1
40
1
40
1
40
1
41
1
10
119.664737225365
20
10.1400201502355
30
0
41
1
10
119.664771019159
20
10.1384710252046
30
0
41
1
10
119.664933691143
20
10.1315956934359
30
0
41
1
10
119.665367584813
20
10.118591628997
30
0
41
1
10
119.667182124467
20
10.0841286713588
30
0
41
1
10
119.672581191453
20
10.0338409487201
30
0
41
1
10
119.689494058034
20
9.94527251787221
30
0
41
1
10
119.723602420907
20
9.83958731669398
30
0
41
1
10
119.784870224059
20
9.72029816899129
30
0
41
1
10
119.864290668759
20
9.61344289236482
30
0
41
1
10
119.960479809797
20
9.5206538807696
30
0
41
1
10
120.070718907009
20
9.44501067394813
30
0
41
1
10
120.192409558182
20
9.38852505166815
30
0
41
1
10
120.300818130893
20
9.35897162965753
30
0
41
1
10
120.378625351276
20
9.3480582443585
30
0
41
1
10
120.41764045821
20
9.34505489328558
30
0
41
1
10
120.436464180523
20
9.34426792732745
30
0
41
1
10
120.44777099184
20
9.34394086401227
30
0
41
1
10
120.453375355396
20
9.34382825494183
30
0
41
1
10
120.457490694242
20
9.3437559457702
30
0
41
1
10
120.457568858482
20
9.34375457619237
30
0
0
SPLINE
5
1FE
100
AcDbEntity
8
1
62
256
6
ByLayer
370
18
48
1
60
0
100
AcDbSpline
70
4
71
3
72
14
73
10
40
0
40
0
40
0
40
0
40
0.022317817720149
40
0.0602489413240069
40
0.12093873909018
40
0.242318334622525
40
0.485077525687215
40
0.970595907816596
40
1
40
1
40
1
40
1
41
1
10
120.457568858482
20
9.34375457619237
30
0
41
1
10
120.46152582746
20
9.34368524299234
30
0
41
1
10
120.47193963842
20
9.34352920589072
30
0
41
1
10
120.49178122949
20
9.34332396493775
30
0
41
1
10
120.526696586431
20
9.34296473803576
30
0
41
1
10
120.597125508266
20
9.34214324701986
30
0
41
1
10
120.735868991267
20
9.34068307623349
30
0
41
1
10
120.860202839084
20
9.33948566411399
30
0
41
1
10
120.944655575046
20
9.33873595218819
30
0
41
1
10
120.949478016499
20
9.33869334939223
30
0
0
SPLINE
5
1FF
100
AcDbEntity
8
1
62
256
6
ByLayer
370
18
48
1
60
0
100
AcDbSpline
70
4
71
3
72
17
73
13
40
0
40
0
40
0
40
0
40
0.0600953370059854
40
0.184039170570552
40
0.431926837699686
40
0.679814504828819
40
0.927702171957953
40
0.989674088740236
40
0.993547333539129
40
0.997420578338021
40
0.999357200737468
40
1
40
1
40
1
40
1
41
1
10
120.949478016499
20
9.33869334939223
30
0
41
1
10
121.10391122951
20
9.33732904321542
30
0
41
1
10
121.576413264107
20
9.33380635151917
30
0
41
1
10
122.686099973982
20
9.33012553354209
30
0
41
1
10
124.27841925284
20
9.33811223658091
30
0
41
1
10
126.189790018378
20
9.36864517116845
30
0
41
1
10
127.626292982166
20
9.40714111951434
30
0
41
1
10
128.428576285579
20
9.43400727276102
30
0
41
1
10
128.609605618195
20
9.44031312299697
30
0
41
1
10
128.634341020664
20
9.44118087160609
30
0
41
1
10
128.650394488405
20
9.44174832388168
30
0
41
1
10
128.65766735426
20
9.44200783357999
30
0
41
1
10
128.659518562835
20
9.44207759414724
30
0
0
SPLINE
5
200
100
AcDbEntity
8
1
62
256
6
ByLayer
370
18
48
1
60
0
100
AcDbSpline
70
4
71
3
72
20
73
16
40
0
40
0
40
0
40
0
40
0.0166250397104595
40
0.0415097580126881
40
0.0663944763149166
40
0.165933349523831
40
0.265472222732745
40
0.315241659337203
40
0.464549969150574
40
0.663627715568403
40
0.862705461986231
40
0.912474898590689
40
0.962244335195146
40
0.987129053497374
40
1
40
1
40
1
40
1
41
1
10
128.659518562835
20
9.44207759414724
30
0
41
1
10
128.663244666185
20
9.44221800786767
30
0
41
1
10
128.672940456806
20
9.44262008375671
30
0
41
1
10
128.688849519462
20
9.44371771455599
30
0
41
1
10
128.725012272557
20
9.44732516115209
30
0
41
1
10
128.778102215708
20
9.4566838781669
30
0
41
1
10
128.83564325311
20
9.47414638317855
30
0
41
1
10
128.90327519731
20
9.50136359767475
30
0
41
1
10
128.988614569264
20
9.54810061691617
30
0
41
1
10
129.091179303267
20
9.63537985579077
30
0
41
1
10
129.156536375429
20
9.72549134550761
30
0
41
1
10
129.190038815098
20
9.78973123338758
30
0
41
1
10
129.202437693308
20
9.81747385587514
30
0
41
1
10
129.210398426839
20
9.83765281872041
30
0
41
1
10
129.213351081887
20
9.84568681623003
30
0
41
1
10
129.214322325648
20
9.84836247620015
30
0
0
SPLINE
5
201
100
AcDbEntity
8
1
62
256
6
ByLayer
370
18
48
1
60
0
100
AcDbSpline
70
4
71
3
72
13
73
9
40
0
40
0
40
0
40
0
40
0.0057614727139778
40
0.0296295181346259
40
0.220573881499811
40
0.60246260823018
40
0.984351334960549
40
1
40
1
40
1
40
1
41
1
10
129.214322325648
20
9.84836247620012
30
0
41
1
10
129.215228886863
20
9.85085994352218
30
0
41
1
10
129.219732808132
20
9.86342077240303
30
0
41
1
10
129.2505049918
20
9.94846680788223
30
0
41
1
10
129.336556997133
20
10.1871504921541
30
0
41
1
10
129.472353823171
20
10.5632398702171
30
0
41
1
10
129.582828045759
20
10.8691711742398
30
0
41
1
10
129.640164334888
20
11.0281671501088
30
0
41
1
10
129.642418217079
20
11.0344336271425
30
0
0
SPLINE
5
202
100
AcDbEntity
8
1
62
256
6
ByLayer
370
18
48
1
60
0
100
AcDbSpline
70
4
71
3
72
17
73
13
40
0
40
0
40
0
40
0
40
0.0295634678907697
40
0.073544695850052
40
0.161507151768617
40
0.337432063605746
40
0.513356975442876
40
0.689281887280005
40
0.865206799117134
40
0.953169255035699
40
0.997150482994981
40
1
40
1
40
1
40
1
41
1
10
129.642418217079
20
11.0344336271425
30
0
41
1
10
129.647039779199
20
11.0472829734831
30
0
41
1
10
129.658504319863
20
11.0793292899216
30
0
41
1
10
129.682960106921
20
11.150519366596
30
0
41
1
10
129.726974394452
20
11.2869730793346
30
0
41
1
10
129.78212582433
20
11.4839542850676
30
0
41
1
10
129.835837972566
20
11.7228527535193
30
0
41
1
10
129.877009882006
20
11.96416553457
30
0
41
1
10
129.900615245205
20
12.1659655281595
30
0
41
1
10
129.911701865802
20
12.3079034367708
30
0
41
1
10
129.915152241468
20
12.3697814198538
30
0
41
1
10
129.916272860408
20
12.3911731602741
30
0
41
1
10
129.916340778691
20
12.3924743941718
30
0
0
SPLINE
5
203
100
AcDbEntity
8
1
62
256
6
ByLayer
370
18
48
1
60
0
100
AcDbSpline
70
4
71
3
72
32
73
28
40
0
40
0
40
0
40
0
40
0.0201722500279436
40
0.030957120221128
40
0.106451211573419
40
0.192730173118894
40
0.365288096209843
40
0.451567057755318
40
0.494706538528056
40
0.537846019300793
40
0.543238454397386
40
0.548630889493978
40
0.55402332459057
40
0.556719542138866
40
0.559415759687162
40
0.564808194783754
40
0.570200629880346
40
0.580985500073531
40
0.624124980846268
40
0.710403942391743
40
0.796682903937218
40
0.882961865482693
40
0.969240827028168
40
0.980025697221353
40
0.990810567414537
40
0.996203002511129
40
1
40
1
40
1
40
1
41
1
10
129.916340778691
20
12.3924743941718
30
0
41
1
10
129.91732115367
20
12.4112572182334
30
0
41
1
10
129.918739924241
20
12.4399566069065
30
0
41
1
10
129.923680053539
20
12.5380126065421
30
0
41
1
10
129.931710343282
20
12.6969776340263
30
0
41
1
10
129.947335198901
20
13.005002575989
30
0
41
1
10
129.963545238746
20
13.3229624666912
30
0
41
1
10
129.977742849314
20
13.6011762637452
30
0
41
1
10
129.985810130877
20
13.7601547227562
30
0
41
1
10
129.990185148471
20
13.8446129353867
30
0
41
1
10
129.992707838592
20
13.8942932917871
30
0
41
1
10
129.993445805513
20
13.9091975069347
30
0
41
1
10
129.994101039829
20
13.921618901005
30
0
41
1
10
129.9946008048
20
13.9315539782972
30
0
41
1
10
129.994902497332
20
13.9414924320812
30
0
41
1
10
129.995053481841
20
13.9539204104759
30
0
41
1
10
129.995307187596
20
13.9738048196155
30
0
41
1
10
129.996166088345
20
14.0284816905514
30
0
41
1
10
129.998060268622
20
14.157707069896
30
0
41
1
10
129.999734637012
20
14.3564821049403
30
0
41
1
10
130.000218058847
20
14.594955979898
30
0
41
1
10
129.999124040854
20
14.8333735416589
30
0
41
1
10
129.997195194351
20
15.0022126559037
30
0
41
1
10
129.995681080144
20
15.1015165293447
30
0
41
1
10
129.995260391952
20
15.12640635634
30
0
41
1
10
129.995011124063
20
15.1446176907009
30
0
41
1
10
129.994861919498
20
15.1532800968595
30
0
41
1
10
129.994781401294
20
15.156970175337
30
0
0
SPLINE
5
204
100
AcDbEntity
8
1
62
256
6
ByLayer
370
18
48
1
60
0
100
AcDbSpline
70
2053
71
3
72
165
73
161
40
0
40
0
40
0
40
0
40
0.001953125
40
0.00390625
40
0.0078125
40
0.01171875
40
0.015625
40
0.01953125
40
0.0234375
40
0.02734375
40
0.03125
40
0.033203125
40
0.03515625
40
0.03564453125
40
0.0361328125
40
0.03662109375
40
0.037109375
40
0.0380859375
40
0.0390625
40
0.046875
40
0.0546875
40
0.0625
40
0.0703125
40
0.07421875
40
0.0751953125
40
0.07568359375
40
0.076171875
40
0.076416015625
40
0.07666015625
40
0.0771484375
40
0.07763671875
40
0.078125
40
0.08203125
40
0.0859375
40
0.09375
40
0.109375
40
0.1171875
40
0.1240234375
40
0.125
40
0.126953125
40
0.12890625
40
0.1328125
40
0.140625
40
0.1484375
40
0.15625
40
0.1640625
40
0.16796875
40
0.169921875
40
0.171875
40
0.1875
40
0.203125
40
0.2109375
40
0.2119140625
40
0.21240234375
40
0.212890625
40
0.2138671875
40
0.21484375
40
0.21875
40
0.22265625
40
0.2255859375
40
0.2265625
40
0.228515625
40
0.23046875
40
0.23095703125
40
0.2314453125
40
0.23193359375
40
0.232421875
40
0.2333984375
40
0.234375
40
0.25
40
0.3125
40
0.375
40
0.4375
40
0.46875
40
0.484375
40
0.4921875
40
0.49609375
40
0.498046875
40
0.4990234375
40
0.4996337890625
40
0.5
40
0.5003662109375
40
0.50048828125
40
0.5009765625
40
0.501953125
40
0.50390625
40
0.5078125
40
0.51171875
40
0.515625
40
0.51953125
40
0.5234375
40
0.52734375
40
0.53125
40
0.533203125
40
0.53515625
40
0.53564453125
40
0.5361328125
40
0.53662109375
40
0.537109375
40
0.5380859375
40
0.5390625
40
0.546875
40
0.5546875
40
0.5625
40
0.5703125
40
0.57421875
40
0.5751953125
40
0.57568359375
40
0.576171875
40
0.576416015625
40
0.57666015625
40
0.5771484375
40
0.57763671875
40
0.578125
40
0.58203125
40
0.5859375
40
0.59375
40
0.609375
40
0.6171875
40
0.6240234375
40
0.625
40
0.626953125
40
0.62890625
40
0.6328125
40
0.640625
40
0.6484375
40
0.65625
40
0.6640625
40
0.66796875
40
0.669921875
40
0.671875
40
0.6875
40
0.703125
40
0.7109375
40
0.7119140625
40
0.71240234375
40
0.712890625
40
0.7138671875
40
0.71484375
40
0.71875
40
0.72265625
40
0.7255859375
40
0.7265625
40
0.728515625
40
0.73046875
40
0.73095703125
40
0.7314453125
40
0.73193359375
40
0.732421875
40
0.7333984375
40
0.734375
40
0.75
40
0.8125
40
0.875
40
0.9375
40
0.96875
40
0.984375
40
0.9921875
40
0.9990234375
40
1
40
1
40
1
40
1
41
1
10
129.191953552289
20
15.7570102315667
30
0
41
1
10
129.210090155779
20
15.7567989997509
30
0
41
1
10
129.244557946994
20
15.7548816094969
30
0
41
1
10
129.312719443174
20
15.7451563089908
30
0
41
1
10
129.395582889474
20
15.7222742529
30
0
41
1
10
129.488439107701
20
15.6786768393817
30
0
41
1
10
129.572543439264
20
15.6205184893739
30
0
41
1
10
129.645723914831
20
15.5493772125961
30
0
41
1
10
129.706392199019
20
15.4672645902546
30
0
41
1
10
129.752959956445
20
15.3761922035556
30
0
41
1
10
129.779094935138
20
15.2949649965492
30
0
41
1
10
129.791921227716
20
15.2270751611416
30
0
41
1
10
129.795999646602
20
15.1887113472651
30
0
41
1
10
129.797341874175
20
15.1637890642997
30
0
41
1
10
129.797789892599
20
15.1507235565053
30
0
41
1
10
129.798067063968
20
15.1363185974969
30
0
41
1
10
129.798342074337
20
15.1162951836325
30
0
41
1
10
129.798758386978
20
15.0915515373872
30
0
41
1
10
129.800589840596
20
14.9932539219432
30
0
41
1
10
129.803286191498
20
14.8248522693251
30
0
41
1
10
129.805247650558
20
14.5876744794968
30
0
41
1
10
129.804272475636
20
14.3503109923787
30
0
41
1
10
129.800730992068
20
14.1525113745376
30
0
41
1
10
129.797248185832
20
14.0239447413925
30
0
41
1
10
129.795579703782
20
13.9695518491365
30
0
41
1
10
129.79495207101
20
13.9497726937743
30
0
41
1
10
129.794551162037
20
13.9374107550092
30
0
41
1
10
129.794225296676
20
13.9275212244542
30
0
41
1
10
129.79389602083
20
13.9176317076891
30
0
41
1
10
129.793478059433
20
13.9052698378734
30
0
41
1
10
129.792966409039
20
13.8904356368303
30
0
41
1
10
129.79122755141
20
13.8409884455084
30
0
41
1
10
129.788018608123
20
13.7569293564723
30
0
41
1
10
129.781265687737
20
13.5987004985116
30
0
41
1
10
129.767928579117
20
13.321790097721
30
0
41
1
10
129.750817433402
20
13.0052530006952
30
0
41
1
10
129.734934910423
20
12.6985639627755
30
0
41
1
10
129.726877286235
20
12.5401035004582
30
0
41
1
10
129.721955289086
20
12.4414777709758
30
0
41
1
10
129.719517474656
20
12.3922547167092
30
0
41
1
10
129.715174888178
20
12.3143299518048
30
0
41
1
10
129.704578296794
20
12.1787739532787
30
0
41
1
10
129.681938796604
20
11.9851803510457
30
0
41
1
10
129.642539878699
20
11.7542966881168
30
0
41
1
10
129.591071620517
20
11.5254083870582
30
0
41
1
10
129.538258769634
20
11.336803189501
30
0
41
1
10
129.496126767936
20
11.2062012974272
30
0
41
1
10
129.470635315032
20
11.1320015948429
30
0
41
1
10
129.403494196788
20
10.9458004768327
30
0
41
1
10
129.287117374527
20
10.6235921772467
30
0
41
1
10
129.150330370109
20
10.2444465733509
30
0
41
1
10
129.06671020969
20
10.0130030637392
30
0
41
1
10
129.03330759248
20
9.92030876875842
30
0
41
1
10
129.027277892907
20
9.90371831384863
30
0
41
1
10
129.021382379442
20
9.88858037083023
30
0
41
1
10
129.013142085641
20
9.87020087733407
30
0
41
1
10
128.990761345232
20
9.82716693634123
30
0
41
1
10
128.947624812425
20
9.76769501027934
30
0
41
1
10
128.879290429673
20
9.70920074903492
30
0
41
1
10
128.822233404798
20
9.67789390456142
30
0
41
1
10
128.777248783739
20
9.65972804281344
30
0
41
1
10
128.738592135495
20
9.64801530968137
30
0
41
1
10
128.702665795466
20
9.64169831540292
30
0
41
1
10
128.679244122514
20
9.63932631529852
30
0
41
1
10
128.667260123126
20
9.63849182983728
30
0
41
1
10
128.653740790415
20
9.63796025041853
30
0
41
1
10
128.634165429446
20
9.637333223871
30
0
41
1
10
128.609196499722
20
9.63643757413925
30
0
41
1
10
128.430177672146
20
9.63019293572577
30
0
41
1
10
127.624591884642
20
9.60323112865009
30
0
41
1
10
126.192475752867
20
9.56485970556827
30
0
41
1
10
124.283242392657
20
9.53436014090082
30
0
41
1
10
122.692568221903
20
9.52638429078013
30
0
41
1
10
121.579611945353
20
9.53007215709255
30
0
41
1
10
121.022945506478
20
9.53424962012278
30
0
41
1
10
120.74506294913
20
9.53692150973046
30
0
41
1
10
120.60551336775
20
9.53839570972971
30
0
41
1
10
120.536690566608
20
9.53919146299174
30
0
41
1
10
120.4996454405
20
9.53958557670396
30
0
41
1
10
120.479861370639
20
9.53981798734964
30
0
41
1
10
120.46682045396
20
9.53997871370922
30
0
41
1
10
120.45887281885
20
9.54013837032298
30
0
41
1
10
120.449998854175
20
9.54040919866276
30
0
41
1
10
120.435962494169
20
9.54102885158954
30
0
41
1
10
120.406870961486
20
9.54329307046041
30
0
41
1
10
120.346512916193
20
9.55181423201586
30
0
41
1
10
120.264028361777
20
9.5746746640495
30
0
41
1
10
120.171218416827
20
9.61826178715503
30
0
41
1
10
120.086994646978
20
9.67642890835799
30
0
41
1
10
120.013771706986
20
9.74760142109065
30
0
41
1
10
119.953100199113
20
9.82974634541134
30
0
41
1
10
119.906530725624
20
9.92083070137846
30
0
41
1
10
119.880402146693
20
10.0020513656051
30
0
41
1
10
119.867588713637
20
10.0699275017476
30
0
41
1
10
119.863516288215
20
10.1082849009699
30
0
41
1
10
119.862176129397
20
10.1332048899246
30
0
41
1
10
119.86172869806
20
10.1462698291
30
0
41
1
10
119.861451604575
20
10.1606749797766
30
0
41
1
10
119.861176410975
20
10.1806989908938
30
0
41
1
10
119.860760065768
20
10.205442764344
30
0
41
1
10
119.858928965805
20
10.303739387718
30
0
41
1
10
119.856232603976
20
10.4721416601407
30
0
41
1
10
119.854271442988
20
10.709318987082
30
0
41
1
10
119.855246445871
20
10.9466827196293
30
0
41
1
10
119.858787453239
20
11.1444829107824
30
0
41
1
10
119.862269877254
20
11.2730499947581
30
0
41
1
10
119.863938192676
20
11.3274430825759
30
0
41
1
10
119.864565764533
20
11.3472223093336
30
0
41
1
10
119.864966635347
20
11.3595842927876
30
0
41
1
10
119.865292470154
20
11.3694738591032
30
0
41
1
10
119.865621715436
20
11.3793634116251
30
0
41
1
10
119.866039638629
20
11.3917253261105
30
0
41
1
10
119.866551243234
20
11.406559580654
30
0
41
1
10
119.868289948593
20
11.4560069497633
30
0
41
1
10
119.871498637158
20
11.5400663352937
30
0
41
1
10
119.878251132565
20
11.6982956868685
30
0
41
1
10
119.891587747237
20
11.9752066633584
30
0
41
1
10
119.908699387128
20
12.29174321652
30
0
41
1
10
119.924583199206
20
12.5984308147966
30
0
41
1
10
119.932641330251
20
12.756890722409
30
0
41
1
10
119.937563470876
20
12.8555162766162
30
0
41
1
10
119.940001321322
20
12.9047392782956
30
0
41
1
10
119.944343940957
20
12.9826639870811
30
0
41
1
10
119.954940650126
20
13.1182200294334
30
0
41
1
10
119.977580208693
20
13.3118136972156
30
0
41
1
10
120.01697935097
20
13.542697272075
30
0
41
1
10
120.068447896956
20
13.7715851189677
30
0
41
1
10
120.121260964797
20
13.9601894668329
30
0
41
1
10
120.163392569388
20
14.090790876039
30
0
41
1
10
120.188883499527
20
14.1649903317252
30
0
41
1
10
120.256022548229
20
14.3511916487595
30
0
41
1
10
120.372397119695
20
14.6734006785658
30
0
41
1
10
120.509185741591
20
15.0525443700357
30
0
41
1
10
120.592808385128
20
15.2839857771636
30
0
41
1
10
120.626212246388
20
15.3766783437348
30
0
41
1
10
120.632242161573
20
15.3932688724409
30
0
41
1
10
120.638137739391
20
15.40840691759
30
0
41
1
10
120.646377909215
20
15.4267864892694
30
0
41
1
10
120.668758187214
20
15.4698209353461
30
0
41
1
10
120.711893759415
20
15.5292939105867
30
0
41
1
10
120.780227776949
20
15.5877885985723
30
0
41
1
10
120.837284735427
20
15.6190955743202
30
0
41
1
10
120.882269253435
20
15.6372616125506
30
0
41
1
10
120.920925753642
20
15.648974573763
30
0
41
1
10
120.956851917704
20
15.6552917988146
30
0
41
1
10
120.980273578969
20
15.657663935599
30
0
41
1
10
120.992257557193
20
15.6584984719133
30
0
41
1
10
121.005776713833
20
15.6590300619839
30
0
41
1
10
121.025351948023
20
15.6596570839109
30
0
41
1
10
121.050320919963
20
15.6605527354435
30
0
41
1
10
121.229339747322
20
15.6667973753071
30
0
41
1
10
122.034924728944
20
15.6937592287047
30
0
41
1
10
123.467054566504
20
15.7321299605931
30
0
41
1
10
125.376286041021
20
15.7626296217427
30
0
41
1
10
126.966891004044
20
15.7706089850933
30
0
41
1
10
128.079991577497
20
15.7669138063138
30
0
41
1
10
128.636440113111
20
15.7627478865059
30
0
41
1
10
128.944455297822
20
15.759772044184
30
0
41
1
10
129.103413460477
20
15.758034762105
30
0
41
1
10
129.182885250544
20
15.7571158474746
30
0
41
1
10
129.191953552289
20
15.7570102315667
30
0
0
SPLINE
5
205
100
AcDbEntity
8
1
62
256
6
ByLayer
370
18
48
1
60
0
100
AcDbSpline
70
4
71
3
72
15
73
11
40
0
40
0
40
0
40
0
40
0.0481250192481007
40
0.116809825816503
40
0.182685804965788
40
0.248192076344398
40
0.404332422285993
40
0.606241156587915
40
0.856902452897418
40
1
40
1
40
1
40
1
41
1
10
121.664944993378
20
-3.261662235308
30
0
41
1
10
121.686935975161
20
-3.24873908180177
30
0
41
1
10
121.7404658641
20
-3.21960240020314
30
0
41
1
10
121.827311586529
20
-3.18286422305599
30
0
41
1
10
121.917689842026
20
-3.15253446657343
30
0
41
1
10
122.031056059127
20
-3.12396056677832
30
0
41
1
10
122.152617302435
20
-3.10877323437495
30
0
41
1
10
122.255605181321
20
-3.11134666777332
30
0
41
1
10
122.296840132303
20
-3.11424843687991
30
0
41
1
10
122.306232017245
20
-3.11306901530847
30
0
41
1
10
122.307596037619
20
-3.11105493319141
30
0
0
SPLINE
5
206
100
AcDbEntity
8
1
62
256
6
ByLayer
370
18
48
1
60
0
100
AcDbSpline
70
4
71
3
72
9
73
5
40
0
40
0
40
0
40
0
40
0.670310107457017
40
1
40
1
40
1
40
1
41
1
10
121.562803328846
20
-3.32287831982109
30
0
41
1
10
121.584527875904
20
-3.30789400577913
30
0
41
1
10
121.6180752011
20
-3.28666577511316
30
0
41
1
10
121.653179466773
20
-3.26774995598882
30
0
41
1
10
121.664944993378
20
-3.261662235308
30
0
0
SPLINE
5
207
100
AcDbEntity
8
1
62
256
6
ByLayer
370
18
48
1
60
0
100
AcDbSpline
70
4
71
1
72
4
73
2
40
0
40
0
40
1
40
1
41
1
10
129.216340152852
20
-4.76030460028383
30
0
41
1
10
129.263086407325
20
-4.72382788408558
30
0
0
SPLINE
5
208
100
AcDbEntity
8
1
62
256
6
ByLayer
370
18
48
1
60
0
100
AcDbSpline
70
4
71
2
72
6
73
3
40
0
40
0
40
0
40
1
40
1
40
1
41
1
10
129.91272871661
20
-7.23319569715892
30
0
41
1
10
129.881213757694
20
-7.04957947441068
30
0
41
1
10
129.84820331469
20
-6.85626708637463
30
0
0
SPLINE
5
209
100
AcDbEntity
8
1
62
256
6
ByLayer
370
18
48
1
60
0
100
AcDbSpline
70
4
71
3
72
11
73
7
40
0
40
0
40
0
40
0
40
0.250166917076418
40
0.500228975018022
40
0.750211860278136
40
1
40
1
40
1
40
1
41
1
10
129.832749356751
20
-6.79533608673233
30
0
41
1
10
129.822952652313
20
-6.7442320332591
30
0
41
1
10
129.793248150682
20
-6.6456642411946
30
0
41
1
10
129.71284543767
20
-6.50941399250914
30
0
41
1
10
129.61320826988
20
-6.38263052035148
30
0
41
1
10
129.584856377804
20
-6.28299903027542
30
0
41
1
10
129.575953623289
20
-6.23120490652843
30
0
0
SPLINE
5
20A
100
AcDbEntity
8
1
62
256
6
ByLayer
370
18
48
1
60
0
100
AcDbSpline
70
4
71
2
72
6
73
3
40
0
40
0
40
0
40
1
40
1
40
1
41
1
10
129.931786917583
20
-7.14032338879275
30
0
41
1
10
129.950132349793
20
-7.04823034465454
30
0
41
1
10
129.968511895804
20
-6.95613904718397
30
0
0
SPLINE
5
20B
100
AcDbEntity
8
1
62
256
6
ByLayer
370
18
48
1
60
0
100
AcDbSpline
70
4
71
1
72
4
73
2
40
0
40
0
40
1
40
1
41
1
10
129.310400409209
20
-9.77851690867641
30
0
41
1
10
129.572428704545
20
-8.48230515043457
30
0
0
SPLINE
5
20C
100
AcDbEntity
8
1
62
256
6
ByLayer
370
18
48
1
60
0
100
AcDbSpline
70
4
71
2
72
6
73
3
40
0
40
0
40
0
40
1
40
1
40
1
41
1
10
120.170416861414
20
9.40096997271428
30
0
41
1
10
120.266339807993
20
9.36407173891789
30
0
41
1
10
120.362154930546
20
9.32745562008233
30
0
0
SPLINE
5
20D
100
AcDbEntity
8
1
62
256
6
ByLayer
370
18
48
1
60
0
100
AcDbSpline
70
4
71
2
72
6
73
3
40
0
40
0
40
0
40
1
40
1
40
1
41
1
10
128.705422748034
20
9.43018439778922
30
0
41
1
10
128.766893428196
20
9.45240918719949
30
0
41
1
10
128.830499563924
20
9.47326704470632
30
0
0
SPLINE
5
20E
100
AcDbEntity
8
1
62
256
6
ByLayer
370
18
48
1
60
0
100
AcDbSpline
70
4
71
1
72
4
73
2
40
0
40
0
40
1
40
1
41
1
10
120.942866074502
20
9.24825382212057
30
0
41
1
10
121.436506902611
20
9.16701459646234
30
0
0
SPLINE
5
20F
100
AcDbEntity
8
1
62
256
6
ByLayer
370
18
48
1
60
0
100
AcDbSpline
70
4
71
2
72
6
73
3
40
0
40
0
40
0
40
1
40
1
40
1
41
1
10
120.362117083941
20
9.32747397272888
30
0
41
1
10
120.565179899735
20
9.24826357362664
30
0
41
1
10
120.776338068413
20
9.24716076562467
30
0
0
SPLINE
5
210
100
AcDbEntity
8
1
62
256
6
ByLayer
370
18
48
1
60
0
100
AcDbSpline
70
4
71
3
72
18
73
14
40
0
40
0
40
0
40
0
40
0.145979403609141
40
0.272353770251127
40
0.378512450323468
40
0.463969715313836
40
0.528885610645535
40
0.585495642797984
40
0.649360208095074
40
0.713863351780604
40
0.792993201620368
40
0.888081493930393
40
1
40
1
40
1
40
1
41
1
10
120.779603527858
20
9.24716644392518
30
0
41
1
10
121.151191171916
20
9.24918959824615
30
0
41
1
10
121.8448191708
20
9.25388161229091
30
0
41
1
10
122.809540334092
20
9.26229698564791
30
0
41
1
10
123.620974929444
20
9.27182164209819
30
0
41
1
10
124.276464650862
20
9.28139556385526
30
0
41
1
10
124.806765687034
20
9.29047230487453
30
0
41
1
10
125.282712565675
20
9.29960165320702
30
0
41
1
10
125.758183464833
20
9.30969566966763
30
0
41
1
10
126.293036216112
20
9.32220033201764
30
0
41
1
10
126.910680552066
20
9.33800050611822
30
0
41
1
10
127.652815647444
20
9.35882355366221
30
0
41
1
10
128.19092622816
20
9.37436712571207
30
0
41
1
10
128.482242125917
20
9.3830157842774
30
0
0
SPLINE
5
211
100
AcDbEntity
8
1
62
256
6
ByLayer
370
18
48
1
60
0
100
AcDbSpline
70
4
71
2
72
6
73
3
40
0
40
0
40
0
40
1
40
1
40
1
41
1
10
128.488405386118
20
9.38326809225336
30
0
41
1
10
128.592159631086
20
9.39037797284189
30
0
41
1
10
128.693596389767
20
9.42562082399505
30
0
0
LINE
5
7A
100
AcDbEntity
8
81
62
256
6
ByLayer
370
18
48
1
60
0
100
AcDbLine
10
130
20
16
30
0
11
135
21
16
31
0
39
0
210
0
220
0
230
1
0
LINE
5
7B
100
AcDbEntity
8
SK4
62
256
6
ByLayer
370
18
48
0.05
60
0
100
AcDbLine
10
-5
20
0
30
0
11
135
21
0
31
0
39
0
210
0
220
0
230
1
0
LINE
5
7D
100
AcDbEntity
8
80
62
256
6
ByLayer
370
18
48
1
60
0
100
AcDbLine
10
0
20
0
30
0
11
-5
21
0
31
0
39
0
210
0
220
0
230
1
0
LINE
5
7E
100
AcDbEntity
8
4
62
256
6
ByLayer
370
18
48
0.05
60
0
100
AcDbLine
10
61
20
0
30
0
11
135
21
0
31
0
39
0
210
0
220
0
230
1
0
LINE
5
80
100
AcDbEntity
8
1
62
256
6
ByLayer
370
18
48
1
60
0
100
AcDbLine
10
61
20
-15.996
30
0
11
61
21
15.996
31
0
39
0
210
0
220
0
230
1
0
LINE
5
81
100
AcDbEntity
8
1
62
256
6
ByLayer
370
18
48
1
60
0
100
AcDbLine
10
129.284206
20
10.05769
30
0
11
129.284206
21
9.162004
31
0
39
0
210
0
220
0
230
1
0
LINE
5
82
100
AcDbEntity
8
1
62
256
6
ByLayer
370
13
48
1
60
0
100
AcDbLine
10
129.279892
20
9.159938
30
0
11
129.279892
21
10.051749
31
0
39
0
210
0
220
0
230
1
0
LINE
5
83
100
AcDbEntity
8
1
62
256
6
ByLayer
370
13
48
1
60
0
100
AcDbLine
10
129.155771
20
9.749333
30
0
11
129.155771
21
9.189284
31
0
39
0
210
0
220
0
230
1
0
LINE
5
84
100
AcDbEntity
8
1
62
256
6
ByLayer
370
13
48
1
60
0
100
AcDbLine
10
128.409417
20
9.405711
30
0
11
128.409417
21
9.177545
31
0
39
0
210
0
220
0
230
1
0
LINE
5
85
100
AcDbEntity
8
1
62
256
6
ByLayer
370
13
48
1
60
0
100
AcDbLine
10
129.093665
20
9.188423
30
0
11
129.093665
21
9.676137
31
0
39
0
210
0
220
0
230
1
0
LINE
5
86
100
AcDbEntity
8
1
62
256
6
ByLayer
370
18
48
1
60
0
100
AcDbLine
10
121.369769
20
9.156849
30
0
11
122.018909
21
9.255722
31
0
39
0
210
0
220
0
230
1
0
LINE
5
87
100
AcDbEntity
8
1
62
256
6
ByLayer
370
13
48
1
60
0
100
AcDbLine
10
120.537308
20
-15.322836
30
0
11
120.537308
21
-15.296022
31
0
39
0
210
0
220
0
230
1
0
LINE
5
88
100
AcDbEntity
8
1
62
256
6
ByLayer
370
13
48
1
60
0
100
AcDbLine
10
126.299686
20
-15.352253
30
0
11
126.299686
21
-15.316364
31
0
39
0
210
0
220
0
230
1
0
LINE
5
89
100
AcDbEntity
8
1
62
256
6
ByLayer
370
13
48
1
60
0
100
AcDbLine
10
126.323663
20
-15.352088
30
0
11
126.323663
21
-15.316148
31
0
39
0
210
0
220
0
230
1
0
LINE
5
8A
100
AcDbEntity
8
1
62
256
6
ByLayer
370
13
48
1
60
0
100
AcDbLine
10
120.077898
20
-15.266945
30
0
11
120.077898
21
-15.238817
31
0
39
0
210
0
220
0
230
1
0
LINE
5
8B
100
AcDbEntity
8
1
62
256
6
ByLayer
370
13
48
1
60
0
100
AcDbLine
10
118.231481
20
-14.820917
30
0
11
118.231481
21
-14.772255
31
0
39
0
210
0
220
0
230
1
0
LINE
5
8C
100
AcDbEntity
8
1
62
256
6
ByLayer
370
13
48
1
60
0
100
AcDbLine
10
128.744802
20
-15.306388
30
0
11
128.744802
21
-15.263805
31
0
39
0
210
0
220
0
230
1
0
LINE
5
8D
100
AcDbEntity
8
1
62
256
6
ByLayer
370
18
48
1
60
0
100
AcDbLine
10
129.284206
20
-9.183716
30
0
11
129.284206
21
-13.660973
31
0
39
0
210
0
220
0
230
1
0
LINE
5
8E
100
AcDbEntity
8
1
62
256
6
ByLayer
370
13
48
1
60
0
100
AcDbLine
10
129.279892
20
-13.553927
30
0
11
129.279892
21
-9.126557
31
0
39
0
210
0
220
0
230
1
0
LINE
5
8F
100
AcDbEntity
8
1
62
256
6
ByLayer
370
13
48
1
60
0
100
AcDbLine
10
129.155771
20
-12.03647
30
0
11
129.155771
21
-8.471004
31
0
39
0
210
0
220
0
230
1
0
LINE
5
90
100
AcDbEntity
8
1
62
256
6
ByLayer
370
13
48
1
60
0
100
AcDbLine
10
129.093665
20
-11.721287
30
0
11
129.093665
21
-8.461169
31
0
39
0
210
0
220
0
230
1
0
LINE
5
91
100
AcDbEntity
8
1
62
256
6
ByLayer
370
13
48
1
60
0
100
AcDbLine
10
128.409417
20
-8.358912
30
0
11
128.409417
21
-9.355544
31
0
39
0
210
0
220
0
230
1
0
LINE
5
92
100
AcDbEntity
8
1
62
256
6
ByLayer
370
18
48
1
60
0
100
AcDbLine
10
115.71845
20
-5.4991
30
0
11
115.718477
21
-5.499109
31
0
39
0
210
0
220
0
230
1
0
LINE
5
93
100
AcDbEntity
8
1
62
256
6
ByLayer
370
13
48
1
60
0
100
AcDbLine
10
116.604842
20
-5.856973
30
0
11
116.787882
21
-6.018338
31
0
39
0
210
0
220
0
230
1
0
LINE
5
94
100
AcDbEntity
8
1
62
256
6
ByLayer
370
13
48
1
60
0
100
AcDbLine
10
117.060229
20
-6.00718
30
0
11
116.604842
21
-5.856973
31
0
39
0
210
0
220
0
230
1
0
LINE
5
95
100
AcDbEntity
8
1
62
256
6
ByLayer
370
13
48
1
60
0
100
AcDbLine
10
117.761861
20
-14.711004
30
0
11
117.761861
21
-14.765
31
0
39
0
210
0
220
0
230
1
0
LINE
5
96
100
AcDbEntity
8
1
62
256
6
ByLayer
370
13
48
1
60
0
100
AcDbLine
10
117.761861
20
-5.361343
30
0
11
117.761861
21
8.980504
31
0
39
0
210
0
220
0
230
1
0
LINE
5
97
100
AcDbEntity
8
1
62
256
6
ByLayer
370
18
48
1
60
0
100
AcDbLine
10
128.748442
20
-4.800259
30
0
11
123.3218
21
-3.891188
31
0
39
0
210
0
220
0
230
1
0
LINE
5
98
100
AcDbEntity
8
1
62
256
6
ByLayer
370
13
48
1
60
0
100
AcDbLine
10
118.231481
20
8.961588
30
0
11
118.231481
21
-5.50206
31
0
39
0
210
0
220
0
230
1
0
LINE
5
99
100
AcDbEntity
8
1
62
256
6
ByLayer
370
13
48
1
60
0
100
AcDbLine
10
127.954417
20
1.264406
30
0
11
128.497471
21
4.134213
31
0
39
0
210
0
220
0
230
1
0
LINE
5
9A
100
AcDbEntity
8
1
62
256
6
ByLayer
370
13
48
1
60
0
100
AcDbLine
10
120.077898
20
-6.067849
30
0
11
120.077898
21
8.981993
31
0
39
0
210
0
220
0
230
1
0
LINE
5
9B
100
AcDbEntity
8
1
62
256
6
ByLayer
370
13
48
1
60
0
100
AcDbLine
10
126.323663
20
9.127738
30
0
11
126.323663
21
6.451658
31
0
39
0
210
0
220
0
230
1
0
LINE
5
9C
100
AcDbEntity
8
1
62
256
6
ByLayer
370
13
48
1
60
0
100
AcDbLine
10
126.323663
20
-0.94639
30
0
11
126.323663
21
-4.295447
31
0
39
0
210
0
220
0
230
1
0
LINE
5
9D
100
AcDbEntity
8
1
62
256
6
ByLayer
370
13
48
1
60
0
100
AcDbLine
10
128.744802
20
-4.717174
30
0
11
128.744802
21
9.176337
31
0
39
0
210
0
220
0
230
1
0
LINE
5
9E
100
AcDbEntity
8
1
62
256
6
ByLayer
370
13
48
1
60
0
100
AcDbLine
10
126.299686
20
6.439258
30
0
11
126.299686
21
9.127233
31
0
39
0
210
0
220
0
230
1
0
LINE
5
9F
100
AcDbEntity
8
1
62
256
6
ByLayer
370
13
48
1
60
0
100
AcDbLine
10
120.537308
20
8.995746
30
0
11
120.537308
21
-5.934973
31
0
39
0
210
0
220
0
230
1
0
LINE
5
A0
100
AcDbEntity
8
1
62
256
6
ByLayer
370
13
48
1
60
0
100
AcDbLine
10
126.299686
20
-4.291428
30
0
11
126.299686
21
-0.947612
31
0
39
0
210
0
220
0
230
1
0
LINE
5
A1
100
AcDbEntity
8
1
62
256
6
ByLayer
370
13
48
1
60
0
100
AcDbLine
10
127.954417
20
1.264406
30
0
11
127.954417
21
0.608234
31
0
39
0
210
0
220
0
230
1
0
LINE
5
A2
100
AcDbEntity
8
1
62
256
6
ByLayer
370
13
48
1
60
0
100
AcDbLine
10
89.6
20
14.765
30
0
11
89.6
21
-14.765
31
0
39
0
210
0
220
0
230
1
0
LINE
5
A3
100
AcDbEntity
8
1
62
256
6
ByLayer
370
18
48
1
60
0
100
AcDbLine
10
88.8
20
15.696
30
0
11
88.8
21
-15.696
31
0
39
0
210
0
220
0
230
1
0
LINE
5
A4
100
AcDbEntity
8
1
62
256
6
ByLayer
370
18
48
1
60
0
100
AcDbLine
10
88.5
20
15.996
30
0
11
88.5
21
-15.996
31
0
39
0
210
0
220
0
230
1
0
LINE
5
A5
100
AcDbEntity
8
1
62
256
6
ByLayer
370
18
48
1
60
0
100
AcDbLine
10
124.348722
20
13.071427
30
0
11
124.331506
21
13.080367
31
0
39
0
210
0
220
0
230
1
0
LINE
5
A6
100
AcDbEntity
8
1
62
256
6
ByLayer
370
18
48
1
60
0
100
AcDbLine
10
124.844205
20
13.392816
30
0
11
124.843888
21
13.373192
31
0
39
0
210
0
220
0
230
1
0
LINE
5
A7
100
AcDbEntity
8
1
62
256
6
ByLayer
370
13
48
1
60
0
100
AcDbLine
10
124.112067
20
13.333937
30
0
11
124.348722
21
13.071427
31
0
39
0
210
0
220
0
230
1
0
LINE
5
A8
100
AcDbEntity
8
1
62
256
6
ByLayer
370
13
48
1
60
0
100
AcDbLine
10
124.607233
20
13.635701
30
0
11
124.843888
21
13.373192
31
0
39
0
210
0
220
0
230
1
0
LINE
5
A9
100
AcDbEntity
8
1
62
256
6
ByLayer
370
18
48
1
60
0
100
AcDbLine
10
124.092924
20
13.345014
30
0
11
124.331506
21
13.080367
31
0
39
0
210
0
220
0
230
1
0
LINE
5
AA
100
AcDbEntity
8
1
62
256
6
ByLayer
370
18
48
1
60
0
100
AcDbLine
10
124.605623
20
13.657464
30
0
11
124.844205
21
13.392816
31
0
39
0
210
0
220
0
230
1
0
LINE
5
AB
100
AcDbEntity
8
1
62
256
6
ByLayer
370
18
48
1
60
0
100
AcDbLine
10
124.054444
20
11.984333
30
0
11
124.037546
21
11.97367
31
0
39
0
210
0
220
0
230
1
0
LINE
5
AC
100
AcDbEntity
8
1
62
256
6
ByLayer
370
13
48
1
60
0
100
AcDbLine
10
123.81779
20
12.246842
30
0
11
124.054444
21
11.984333
31
0
39
0
210
0
220
0
230
1
0
LINE
5
AD
100
AcDbEntity
8
1
62
256
6
ByLayer
370
13
48
1
60
0
100
AcDbLine
10
125.690954
20
13.388389
30
0
11
125.927609
21
13.12588
31
0
39
0
210
0
220
0
230
1
0
LINE
5
AE
100
AcDbEntity
8
1
62
256
6
ByLayer
370
18
48
1
60
0
100
AcDbLine
10
125.944825
20
13.136007
30
0
11
125.927609
21
13.12588
31
0
39
0
210
0
220
0
230
1
0
LINE
5
AF
100
AcDbEntity
8
1
62
256
6
ByLayer
370
18
48
1
60
0
100
AcDbLine
10
123.798963
20
12.238317
30
0
11
124.037546
21
11.97367
31
0
39
0
210
0
220
0
230
1
0
LINE
5
B0
100
AcDbEntity
8
1
62
256
6
ByLayer
370
13
48
1
60
0
100
AcDbLine
10
124.607233
20
11.481811
30
0
11
124.739815
21
11.334744
31
0
39
0
210
0
220
0
230
1
0
LINE
5
B1
100
AcDbEntity
8
1
62
256
6
ByLayer
370
18
48
1
60
0
100
AcDbLine
10
125.706242
20
13.400654
30
0
11
125.944825
21
13.136007
31
0
39
0
210
0
220
0
230
1
0
LINE
5
B2
100
AcDbEntity
8
1
62
256
6
ByLayer
370
13
48
1
60
0
100
AcDbLine
10
125.985232
20
12.321593
30
0
11
126.056358
21
12.242697
31
0
39
0
210
0
220
0
230
1
0
LINE
5
B3
100
AcDbEntity
8
1
62
256
6
ByLayer
370
18
48
1
60
0
100
AcDbLine
10
124.605623
20
11.464346
30
0
11
124.717123
21
11.340665
31
0
39
0
210
0
220
0
230
1
0
LINE
5
B4
100
AcDbEntity
8
1
62
256
6
ByLayer
370
18
48
1
60
0
100
AcDbLine
10
126.000203
20
12.314233
30
0
11
126.054708
21
12.253774
31
0
39
0
210
0
220
0
230
1
0
LINE
5
B5
100
AcDbEntity
8
1
62
256
6
ByLayer
370
18
48
1
60
0
100
AcDbLine
10
123.253773
20
-3.902925
30
0
11
126.101012
21
-4.425729
31
0
39
0
210
0
220
0
230
1
0
LINE
5
B6
100
AcDbEntity
8
SK1
62
256
6
ByLayer
370
18
48
1
60
0
100
AcDbLine
10
0
20
14.496
30
0
11
0
21
-14.496
31
0
39
0
210
0
220
0
230
1
0
LINE
5
B8
100
AcDbEntity
8
SK1
62
256
6
ByLayer
370
18
48
1
60
0
100
AcDbLine
10
61
20
-15.996
30
0
11
61
21
15.996
31
0
39
0
210
0
220
0
230
1
0
LINE
5
B9
100
AcDbEntity
8
SK1
62
256
6
ByLayer
370
18
48
1
60
0
100
AcDbLine
10
1.5
20
15.996
30
0
11
1.5
21
-15.996
31
0
39
0
210
0
220
0
230
1
0
LINE
5
BA
100
AcDbEntity
8
1
62
256
6
ByLayer
370
18
48
1
60
0
100
AcDbLine
10
61
20
-15.996
30
0
11
88.5
21
-15.996
31
0
39
0
210
0
220
0
230
1
0
LINE
5
BB
100
AcDbEntity
8
1
62
256
6
ByLayer
370
18
48
1
60
0
100
AcDbLine
10
88.5
20
15.996
30
0
11
61
21
15.996
31
0
39
0
210
0
220
0
230
1
0
LINE
5
BC
100
AcDbEntity
8
1
62
256
6
ByLayer
370
18
48
1
60
0
100
AcDbLine
10
129.284422
20
9.163308
30
0
11
129.284422
21
10.047026
31
0
39
0
210
0
220
0
230
1
0
LINE
5
BD
100
AcDbEntity
8
1
62
256
6
ByLayer
370
18
48
1
60
0
100
AcDbLine
10
120.537308
20
-15.322836
30
0
11
126.299686
21
-15.352253
31
0
39
0
210
0
220
0
230
1
0
LINE
5
BE
100
AcDbEntity
8
1
62
256
6
ByLayer
370
18
48
1
60
0
100
AcDbLine
10
126.323663
20
-15.352088
30
0
11
128.744802
21
-15.306388
31
0
39
0
210
0
220
0
230
1
0
LINE
5
BF
100
AcDbEntity
8
1
62
256
6
ByLayer
370
18
48
1
60
0
100
AcDbLine
10
118.231481
20
-14.820917
30
0
11
120.077898
21
-15.266945
31
0
39
0
210
0
220
0
230
1
0
LINE
5
C0
100
AcDbEntity
8
1
62
256
6
ByLayer
370
18
48
1
60
0
100
AcDbLine
10
129.284422
20
-13.59449
30
0
11
129.284422
21
-9.759313
31
0
39
0
210
0
220
0
230
1
0
LINE
5
C1
100
AcDbEntity
8
1
62
256
6
ByLayer
370
18
48
1
60
0
100
AcDbLine
10
129.284422
20
-14.756486
30
0
11
129.284422
21
-14.681476
31
0
39
0
210
0
220
0
230
1
0
LINE
5
C2
100
AcDbEntity
8
1
62
256
6
ByLayer
370
18
48
1
60
0
100
AcDbLine
10
89.6
20
-14.765
30
0
11
117.761861
21
-14.765
31
0
39
0
210
0
220
0
230
1
0
LINE
5
C3
100
AcDbEntity
8
1
62
256
6
ByLayer
370
18
48
1
60
0
100
AcDbLine
10
106.541977
20
14.765
30
0
11
89.6
21
14.765
31
0
39
0
210
0
220
0
230
1
0
LINE
5
C4
100
AcDbEntity
8
1
62
256
6
ByLayer
370
18
48
1
60
0
100
AcDbLine
10
129.284422
20
-4.693761
30
0
11
129.284422
21
9.159191
31
0
39
0
210
0
220
0
230
1
0
LINE
5
C5
100
AcDbEntity
8
1
62
256
6
ByLayer
370
18
48
1
60
0
100
AcDbLine
10
88.8
20
15.696
30
0
11
88.5
21
15.996
31
0
39
0
210
0
220
0
230
1
0
LINE
5
C6
100
AcDbEntity
8
1
62
256
6
ByLayer
370
18
48
1
60
0
100
AcDbLine
10
88.5
20
-15.996
30
0
11
88.8
21
-15.696
31
0
39
0
210
0
220
0
230
1
0
LINE
5
C7
100
AcDbEntity
8
1
62
256
6
ByLayer
370
18
48
1
60
0
100
AcDbLine
10
124.084636
20
12.528871
30
0
11
123.851577
21
12.787392
31
0
39
0
210
0
220
0
230
1
0
LINE
5
C8
100
AcDbEntity
8
1
62
256
6
ByLayer
370
18
48
1
60
0
100
AcDbLine
10
125.265904
20
13.522754
30
0
11
125.492446
21
13.271462
31
0
39
0
210
0
220
0
230
1
0
LINE
5
C9
100
AcDbEntity
8
1
62
256
6
ByLayer
370
18
48
1
60
0
100
AcDbLine
10
124.783885
20
11.341329
30
0
11
124.5574
21
11.592558
31
0
39
0
210
0
220
0
230
1
0
LINE
5
CA
100
AcDbEntity
8
1
62
256
6
ByLayer
370
18
48
1
60
0
100
AcDbLine
10
125.958635
20
12.342441
30
0
11
126.056211
21
12.234206
31
0
39
0
210
0
220
0
230
1
0
LINE
5
CB
100
AcDbEntity
8
1
62
256
6
ByLayer
370
18
48
1
60
0
100
AcDbLine
10
126.81775
20
13.192431
30
0
11
126.668427
21
13.492825
31
0
39
0
210
0
220
0
230
1
0
LINE
5
CC
100
AcDbEntity
8
1
62
256
6
ByLayer
370
18
48
1
60
0
100
AcDbLine
10
123.799986
20
10.906898
30
0
11
124.083346
21
10.727339
31
0
39
0
210
0
220
0
230
1
0
LINE
5
CD
100
AcDbEntity
8
SK1
62
256
6
ByLayer
370
18
48
1
60
0
100
AcDbLine
10
0
20
-14.496
30
0
11
1.5
21
-15.996
31
0
39
0
210
0
220
0
230
1
0
LINE
5
CE
100
AcDbEntity
8
SK1
62
256
6
ByLayer
370
18
48
1
60
0
100
AcDbLine
10
1.5
20
15.996
30
0
11
0
21
14.496
31
0
39
0
210
0
220
0
230
1
0
LINE
5
CF
100
AcDbEntity
8
SK1
62
256
6
ByLayer
370
18
48
1
60
0
100
AcDbLine
10
1.5
20
-15.996
30
0
11
61
21
-15.996
31
0
39
0
210
0
220
0
230
1
0
LINE
5
D0
100
AcDbEntity
8
SK1
62
256
6
ByLayer
370
18
48
1
60
0
100
AcDbLine
10
61
20
15.996
30
0
11
1.5
21
15.996
31
0
39
0
210
0
220
0
230
1
0
LINE
5
D1
100
AcDbEntity
8
SK2
62
256
6
ByLayer
370
18
48
1
60
0
100
AcDbLine
10
130
20
48.25
30
0
11
0
21
48.25
31
0
39
0
210
0
220
0
230
1
0
LINE
5
D3
100
AcDbEntity
8
SK2
62
256
6
ByLayer
370
18
48
1
60
0
100
AcDbLine
10
0
20
16.0835
30
0
11
0
21
50.25
31
0
39
0
210
0
220
0
230
1
0
LINE
5
D4
100
AcDbEntity
8
SK2
62
256
6
ByLayer
370
18
48
1
60
0
100
AcDbLine
10
130
20
17.5875
30
0
11
130
21
50.25
31
0
39
0
210
0
220
0
230
1
0
LINE
5
D5
100
AcDbEntity
8
1
62
256
6
ByLayer
370
18
48
1
60
1
100
AcDbLine
10
0
20
48.25
30
0
11
3.499998
21
48.710784
31
0
39
0
210
0
220
0
230
1
0
LINE
5
D6
100
AcDbEntity
8
1
62
256
6
ByLayer
370
18
48
1
60
1
100
AcDbLine
10
3.499998
20
48.710784
30
0
11
3.500002
21
47.789216
31
0
39
0
210
0
220
0
230
1
0
LINE
5
D7
100
AcDbEntity
8
1
62
256
6
ByLayer
370
18
48
1
60
1
100
AcDbLine
10
3.500002
20
47.789216
30
0
11
0
21
48.25
31
0
39
0
210
0
220
0
230
1
0
LINE
5
D8
100
AcDbEntity
8
1
62
256
6
ByLayer
370
18
48
1
60
1
100
AcDbLine
10
130
20
48.25
30
0
11
126.500002
21
47.789216
31
0
39
0
210
0
220
0
230
1
0
LINE
5
D9
100
AcDbEntity
8
1
62
256
6
ByLayer
370
18
48
1
60
1
100
AcDbLine
10
126.500002
20
47.789216
30
0
11
126.499998
21
48.710784
31
0
39
0
210
0
220
0
230
1
0
LINE
5
DA
100
AcDbEntity
8
1
62
256
6
ByLayer
370
18
48
1
60
1
100
AcDbLine
10
126.499998
20
48.710784
30
0
11
130
21
48.25
31
0
39
0
210
0
220
0
230
1
0
LINE
5
DB
100
AcDbEntity
8
2
62
256
6
ByLayer
370
13
48
1
60
0
100
AcDbLine
10
140.384466
20
16
30
0
11
140.384466
21
-16
31
0
39
0
210
0
220
0
230
1
0
LINE
5
DD
100
AcDbEntity
8
2
62
256
6
ByLayer
370
13
48
1
60
0
100
AcDbLine
10
131.5875
20
-16
30
0
11
142.384466
21
-16
31
0
39
0
210
0
220
0
230
1
0
LINE
5
DE
100
AcDbEntity
8
2
62
256
6
ByLayer
370
13
48
1
60
0
100
AcDbLine
10
131.5875
20
16
30
0
11
142.384466
21
16
31
0
39
0
210
0
220
0
230
1
0
LINE
5
DF
100
AcDbEntity
8
1
62
256
6
ByLayer
370
18
48
1
60
1
100
AcDbLine
10
140.384466
20
-16
30
0
11
139.923683
21
-12.500002
31
0
39
0
210
0
220
0
230
1
0
LINE
5
E0
100
AcDbEntity
8
1
62
256
6
ByLayer
370
18
48
1
60
1
100
AcDbLine
10
139.923683
20
-12.500002
30
0
11
140.84525
21
-12.499998
31
0
39
0
210
0
220
0
230
1
0
LINE
5
E1
100
AcDbEntity
8
1
62
256
6
ByLayer
370
18
48
1
60
1
100
AcDbLine
10
140.84525
20
-12.499998
30
0
11
140.384466
21
-16
31
0
39
0
210
0
220
0
230
1
0
LINE
5
E2
100
AcDbEntity
8
1
62
256
6
ByLayer
370
18
48
1
60
1
100
AcDbLine
10
140.384466
20
16
30
0
11
140.84525
21
12.500002
31
0
39
0
210
0
220
0
230
1
0
LINE
5
E3
100
AcDbEntity
8
1
62
256
6
ByLayer
370
18
48
1
60
1
100
AcDbLine
10
140.84525
20
12.500002
30
0
11
139.923683
21
12.499998
31
0
39
0
210
0
220
0
230
1
0
LINE
5
E4
100
AcDbEntity
8
1
62
256
6
ByLayer
370
18
48
1
60
1
100
AcDbLine
10
139.923683
20
12.499998
30
0
11
140.384466
21
16
31
0
39
0
210
0
220
0
230
1
0
LINE
5
E5
100
AcDbEntity
8
SK2
62
256
6
ByLayer
370
18
48
1
60
0
100
AcDbLine
10
-16.6
20
15.996
30
0
11
-16.6
21
-15.996
31
0
39
0
210
0
220
0
230
1
0
LINE
5
E6
100
AcDbEntity
8
SK2
62
256
6
ByLayer
370
18
48
1
60
0
100
AcDbLine
10
-0.0875
20
-15.996
30
0
11
-18.6
21
-15.996
31
0
39
0
210
0
220
0
230
1
0
LINE
5
E7
100
AcDbEntity
8
SK2
62
256
6
ByLayer
370
18
48
1
60
0
100
AcDbLine
10
-0.0875
20
15.996
30
0
11
-18.6
21
15.996
31
0
39
0
210
0
220
0
230
1
0
LINE
5
E8
100
AcDbEntity
8
1
62
256
6
ByLayer
370
18
48
1
60
1
100
AcDbLine
10
-16.6
20
-15.996
30
0
11
-17.060784
21
-12.496002
31
0
39
0
210
0
220
0
230
1
0
LINE
5
E9
100
AcDbEntity
8
1
62
256
6
ByLayer
370
18
48
1
60
1
100
AcDbLine
10
-17.060784
20
-12.496002
30
0
11
-16.139216
21
-12.495998
31
0
39
0
210
0
220
0
230
1
0
LINE
5
EA
100
AcDbEntity
8
1
62
256
6
ByLayer
370
18
48
1
60
1
100
AcDbLine
10
-16.139216
20
-12.495998
30
0
11
-16.6
21
-15.996
31
0
39
0
210
0
220
0
230
1
0
LINE
5
EB
100
AcDbEntity
8
1
62
256
6
ByLayer
370
18
48
1
60
1
100
AcDbLine
10
-16.6
20
15.996
30
0
11
-16.139216
21
12.496002
31
0
39
0
210
0
220
0
230
1
0
LINE
5
EC
100
AcDbEntity
8
1
62
256
6
ByLayer
370
18
48
1
60
1
100
AcDbLine
10
-16.139216
20
12.496002
30
0
11
-17.060784
21
12.495998
31
0
39
0
210
0
220
0
230
1
0
LINE
5
ED
100
AcDbEntity
8
1
62
256
6
ByLayer
370
18
48
1
60
1
100
AcDbLine
10
-17.060784
20
12.495998
30
0
11
-16.6
21
15.996
31
0
39
0
210
0
220
0
230
1
0
LINE
5
215
100
AcDbEntity
8
1
62
256
6
ByLayer
370
18
48
1
60
1
100
AcDbLine
10
0
20
48.25
30
0
11
3.499998
21
48.710784
31
0
39
0
210
0
220
0
230
1
0
LINE
5
216
100
AcDbEntity
8
1
62
256
6
ByLayer
370
18
48
1
60
1
100
AcDbLine
10
3.499998
20
48.710784
30
0
11
3.500002
21
47.789216
31
0
39
0
210
0
220
0
230
1
0
LINE
5
217
100
AcDbEntity
8
1
62
256
6
ByLayer
370
18
48
1
60
1
100
AcDbLine
10
3.500002
20
47.789216
30
0
11
0
21
48.25
31
0
39
0
210
0
220
0
230
1
0
LINE
5
219
100
AcDbEntity
8
1
62
256
6
ByLayer
370
18
48
1
60
1
100
AcDbLine
10
130
20
48.25
30
0
11
126.500002
21
47.789216
31
0
39
0
210
0
220
0
230
1
0
LINE
5
21A
100
AcDbEntity
8
1
62
256
6
ByLayer
370
18
48
1
60
1
100
AcDbLine
10
126.500002
20
47.789216
30
0
11
126.499998
21
48.710784
31
0
39
0
210
0
220
0
230
1
0
LINE
5
21B
100
AcDbEntity
8
1
62
256
6
ByLayer
370
18
48
1
60
1
100
AcDbLine
10
126.499998
20
48.710784
30
0
11
130
21
48.25
31
0
39
0
210
0
220
0
230
1
0
LINE
5
21F
100
AcDbEntity
8
1
62
256
6
ByLayer
370
18
48
1
60
1
100
AcDbLine
10
140.384466
20
-16
30
0
11
139.923683
21
-12.500002
31
0
39
0
210
0
220
0
230
1
0
LINE
5
220
100
AcDbEntity
8
1
62
256
6
ByLayer
370
18
48
1
60
1
100
AcDbLine
10
139.923683
20
-12.500002
30
0
11
140.84525
21
-12.499998
31
0
39
0
210
0
220
0
230
1
0
LINE
5
221
100
AcDbEntity
8
1
62
256
6
ByLayer
370
18
48
1
60
1
100
AcDbLine
10
140.84525
20
-12.499998
30
0
11
140.384466
21
-16
31
0
39
0
210
0
220
0
230
1
0
LINE
5
223
100
AcDbEntity
8
1
62
256
6
ByLayer
370
18
48
1
60
1
100
AcDbLine
10
140.384466
20
16
30
0
11
140.84525
21
12.500002
31
0
39
0
210
0
220
0
230
1
0
LINE
5
224
100
AcDbEntity
8
1
62
256
6
ByLayer
370
18
48
1
60
1
100
AcDbLine
10
140.84525
20
12.500002
30
0
11
139.923683
21
12.499998
31
0
39
0
210
0
220
0
230
1
0
LINE
5
225
100
AcDbEntity
8
1
62
256
6
ByLayer
370
18
48
1
60
1
100
AcDbLine
10
139.923683
20
12.499998
30
0
11
140.384466
21
16
31
0
39
0
210
0
220
0
230
1
0
LINE
5
229
100
AcDbEntity
8
1
62
256
6
ByLayer
370
18
48
1
60
1
100
AcDbLine
10
-16.6
20
-15.996
30
0
11
-17.060784
21
-12.496002
31
0
39
0
210
0
220
0
230
1
0
LINE
5
22A
100
AcDbEntity
8
1
62
256
6
ByLayer
370
18
48
1
60
1
100
AcDbLine
10
-17.060784
20
-12.496002
30
0
11
-16.139216
21
-12.495998
31
0
39
0
210
0
220
0
230
1
0
LINE
5
22B
100
AcDbEntity
8
1
62
256
6
ByLayer
370
18
48
1
60
1
100
AcDbLine
10
-16.139216
20
-12.495998
30
0
11
-16.6
21
-15.996
31
0
39
0
210
0
220
0
230
1
0
LINE
5
22D
100
AcDbEntity
8
1
62
256
6
ByLayer
370
18
48
1
60
1
100
AcDbLine
10
-16.6
20
15.996
30
0
11
-16.139216
21
12.496002
31
0
39
0
210
0
220
0
230
1
0
LINE
5
22E
100
AcDbEntity
8
1
62
256
6
ByLayer
370
18
48
1
60
1
100
AcDbLine
10
-16.139216
20
12.496002
30
0
11
-17.060784
21
12.495998
31
0
39
0
210
0
220
0
230
1
0
LINE
5
22F
100
AcDbEntity
8
1
62
256
6
ByLayer
370
18
48
1
60
1
100
AcDbLine
10
-17.060784
20
12.495998
30
0
11
-16.6
21
15.996
31
0
39
0
210
0
220
0
230
1
0
MTEXT
5
212
100
AcDbEntity
8
SK2
62
256
6
ByLayer
370
18
48
1
60
0
100
AcDbMText
10
62.224734
20
49.282634
30
0
210
0
220
0
230
1
1
\W0.6217;130
40
3.5
41
0
44
1.084337
50
0
71
7
72
5
7
iso_b_vert
0
MTEXT
5
21D
100
AcDbEntity
8
2
62
256
6
ByLayer
370
18
48
1
60
0
100
AcDbMText
10
138.819833
20
-4.530622
30
0
210
0
220
0
230
1
1
%%c
40
3.5
41
0
44
1.084337
50
90
71
7
72
5
7
iso_b_vert
0
MTEXT
5
21E
100
AcDbEntity
8
2
62
256
6
ByLayer
370
18
48
1
60
0
100
AcDbMText
10
138.819833
20
2.442034
30
0
210
0
220
0
230
1
1
\W0.6740;32
40
3.5
41
0
44
1.084337
50
90
71
7
72
5
7
iso_b_vert
0
MTEXT
5
227
100
AcDbEntity
8
SK2
62
256
6
ByLayer
370
18
48
1
60
0
100
AcDbMText
10
-18.164634
20
-4.530622
30
0
210
0
220
0
230
1
1
%%c
40
3.5
41
0
44
1.084337
50
90
71
7
72
5
7
iso_b_vert
0
MTEXT
5
228
100
AcDbEntity
8
SK2
62
256
6
ByLayer
370
18
48
1
60
0
100
AcDbMText
10
-18.164634
20
2.442034
30
0
210
0
220
0
230
1
1
\W0.6740;32
40
3.5
41
0
44
1.084337
50
90
71
7
72
5
7
iso_b_vert
0
MTEXT
5
231
100
AcDbEntity
8
SK6
62
256
6
ByLayer
370
18
48
1
60
0
100
AcDbMText
10
44.323403
20
-42.217366
30
0
210
0
220
0
230
1
1
\W0.7699;MS20-R032A32-10M
40
3.5
41
0
44
1.084337
50
0
71
7
72
5
7
iso_b_vert
0
HATCH
5
218
100
AcDbEntity
8
SK2
62
256
6
ByLayer
370
13
48
1
60
0
100
AcDbHatch
10
0
20
0
30
0
210
0
220
0
230
1
2
ANSI31
70
0
71
0
91
1
92
5
93
3
72
1
10
-5.68E-14
20
48.2499999999995
11
3.49999830744676
21
48.7107837415523
72
1
10
3.49999830744676
20
48.7107837415523
11
3.50000169255313
21
47.7892162584467
72
1
10
3.50000169255313
20
47.7892162584467
11
-5.68E-14
21
48.2499999999995
97
0
75
0
76
1
52
0
41
0.0062
77
0
78
1
53
45
43
0
44
0
45
-0.0139193969876572
46
0.0139193969876572
79
0
47
0
98
1
10
0
20
0
0
HATCH
5
21C
100
AcDbEntity
8
SK2
62
256
6
ByLayer
370
13
48
1
60
0
100
AcDbHatch
10
0
20
0
30
0
210
0
220
0
230
1
2
ANSI31
70
0
71
0
91
1
92
5
93
3
72
1
10
130
20
48.2499999999995
11
126.500001692553
21
47.7892162584467
72
1
10
126.500001692553
20
47.7892162584467
11
126.499998307447
21
48.7107837415523
72
1
10
126.499998307447
20
48.7107837415523
11
130
21
48.2499999999995
97
0
75
0
76
1
52
0
41
0.0062
77
0
78
1
53
45
43
0
44
0
45
-0.0139193969876572
46
0.0139193969876572
79
0
47
0
98
1
10
0
20
0
0
HATCH
5
222
100
AcDbEntity
8
2
62
256
6
ByLayer
370
13
48
1
60
0
100
AcDbHatch
10
0
20
0
30
0
210
0
220
0
230
1
2
ANSI31
70
0
71
0
91
1
92
5
93
3
72
1
10
140.38446629112
20
-16.0000000000005
11
139.923682549567
21
-12.5000016925537
72
1
10
139.923682549567
20
-12.5000016925537
11
140.845250032672
21
-12.4999983074473
72
1
10
140.845250032672
20
-12.4999983074473
11
140.38446629112
21
-16.0000000000005
97
0
75
0
76
1
52
0
41
0.0062
77
0
78
1
53
45
43
0
44
0
45
-0.0139193969876572
46
0.0139193969876572
79
0
47
0
98
1
10
0
20
0
0
HATCH
5
226
100
AcDbEntity
8
2
62
256
6
ByLayer
370
13
48
1
60
0
100
AcDbHatch
10
0
20
0
30
0
210
0
220
0
230
1
2
ANSI31
70
0
71
0
91
1
92
5
93
3
72
1
10
140.38446629112
20
15.9999999999995
11
140.845250032672
21
12.5000016925527
72
1
10
140.845250032672
20
12.5000016925527
11
139.923682549567
21
12.4999983074463
72
1
10
139.923682549567
20
12.4999983074463
11
140.38446629112
21
15.9999999999995
97
0
75
0
76
1
52
0
41
0.0062
77
0
78
1
53
45
43
0
44
0
45
-0.0139193969876572
46
0.0139193969876572
79
0
47
0
98
1
10
0
20
0
0
HATCH
5
22C
100
AcDbEntity
8
SK2
62
256
6
ByLayer
370
13
48
1
60
0
100
AcDbHatch
10
0
20
0
30
0
210
0
220
0
230
1
2
ANSI31
70
0
71
0
91
1
92
5
93
3
72
1
10
-16.6000000000001
20
-15.9960000000003
11
-17.0607837415528
21
-12.4960016925535
72
1
10
-17.0607837415528
20
-12.4960016925535
11
-16.1392162584473
21
-12.4959983074471
72
1
10
-16.1392162584473
20
-12.4959983074471
11
-16.6000000000001
21
-15.9960000000003
97
0
75
0
76
1
52
0
41
0.0062
77
0
78
1
53
45
43
0
44
0
45
-0.0139193969876572
46
0.0139193969876572
79
0
47
0
98
1
10
0
20
0
0
HATCH
5
230
100
AcDbEntity
8
SK2
62
256
6
ByLayer
370
13
48
1
60
0
100
AcDbHatch
10
0
20
0
30
0
210
0
220
0
230
1
2
ANSI31
70
0
71
0
91
1
92
5
93
3
72
1
10
-16.6000000000001
20
15.9959999999997
11
-16.1392162584473
21
12.4960016925529
72
1
10
-16.1392162584473
20
12.4960016925529
11
-17.0607837415528
21
12.4959983074465
72
1
10
-17.0607837415528
20
12.4959983074465
11
-16.6000000000001
21
15.9959999999997
97
0
75
0
76
1
52
0
41
0.0062
77
0
78
1
53
45
43
0
44
0
45
-0.0139193969876572
46
0.0139193969876572
79
0
47
0
98
1
10
0
20
0
0
DIMENSION
5
234
100
AcDbEntity
8
2
62
256
6
ByLayer
370
18
48
1
60
0
100
AcDbDimension
2
_U0
10
121
20
28.25
30
0
11
125.5
21
28.25
31
0
70
32
71
1
72
1
41
1
210
0
220
0
230
1
3
Standard
100
AcDbAlignedDimension
13
130
23
16
33
0
14
121
24
16
34
0
50
0
100
AcDbRotatedDimension
1001
ACAD
1000
DSTYLE
1002
{
1070
   371
1070
    13
1070
   372
1070
    13
1070
   170
1070
     0
1070
   144
1040
1.0
1070
   277
1070
     2
1070
   284
1070
     8
1070
   278
1070
    46
1070
   146
1040
1.0
1070
   345
1005
16
1070
   347
1005
16
1070
   346
1005
16
1070
   344
1005
0
1070
   343
1005
0
1070
   172
1070
     1
1070
    76
1070
     0
1070
    75
1070
     0
1070
   282
1070
     0
1070
   281
1070
     0
1070
    71
1070
     0
1070
    74
1070
     0
1070
   279
1070
     0
1070
   173
1070
     1
1070
   340
1005
213
1070
   271
1070
     2
1070
   272
1070
     2
1070
    77
1070
     1
1070
    73
1070
     1
1070
   171
1070
     3
1070
   274
1070
     4
1070
   177
1070
     2
1070
   176
1070
     2
1070
   178
1070
     2
1070
    78
1070
     8
1070
    48
1040
-0.1
1070
    41
1040
3.5
1070
   147
1040
1.75
1070
    42
1040
1.5875
1070
    44
1040
2.0
1070
   140
1040
3.5
1002
}
1001
ACAD_DSTYLE_DIM_LINETYPE
1070
   380
1005
16
1001
ACAD_DSTYLE_DIM_EXT1_LINETYPE
1070
   381
1005
16
1001
ACAD_DSTYLE_DIM_EXT2_LINETYPE
1070
   382
1005
16
0
DIMENSION
5
24E
100
AcDbEntity
8
2
62
256
6
ByLayer
370
18
48
1
60
0
100
AcDbDimension
2
_U1
10
90
20
38.25
30
0
11
110
21
38.25
31
0
70
32
71
1
72
1
41
1
210
0
220
0
230
1
3
Standard
100
AcDbAlignedDimension
13
130
23
16
33
0
14
90
24
16
34
0
50
0
100
AcDbRotatedDimension
1001
ACAD
1000
DSTYLE
1002
{
1070
   371
1070
    13
1070
   372
1070
    13
1070
   170
1070
     0
1070
   144
1040
1.0
1070
   277
1070
     2
1070
   284
1070
     8
1070
   278
1070
    46
1070
   146
1040
1.0
1070
   345
1005
16
1070
   347
1005
16
1070
   346
1005
16
1070
   344
1005
0
1070
   343
1005
0
1070
   172
1070
     1
1070
    76
1070
     0
1070
    75
1070
     0
1070
   282
1070
     0
1070
   281
1070
     0
1070
    71
1070
     0
1070
    74
1070
     0
1070
   279
1070
     0
1070
   173
1070
     1
1070
   340
1005
213
1070
   271
1070
     2
1070
   272
1070
     2
1070
    77
1070
     1
1070
    73
1070
     1
1070
   171
1070
     3
1070
   274
1070
     4
1070
   177
1070
     2
1070
   176
1070
     2
1070
   178
1070
     2
1070
    78
1070
     8
1070
    48
1040
-0.1
1070
    41
1040
3.5
1070
   147
1040
1.75
1070
    42
1040
1.5875
1070
    44
1040
2.0
1070
   140
1040
3.5
1002
}
1001
ACAD_DSTYLE_DIM_LINETYPE
1070
   380
1005
16
1001
ACAD_DSTYLE_DIM_EXT1_LINETYPE
1070
   381
1005
16
1001
ACAD_DSTYLE_DIM_EXT2_LINETYPE
1070
   382
1005
16
0
DIMENSION
5
266
100
AcDbEntity
8
SK2
62
256
6
ByLayer
370
18
48
1
60
0
100
AcDbDimension
2
_U2
10
61
20
-31.75
30
0
11
95.5
21
-31.75
31
0
70
32
71
1
72
1
41
1
210
0
220
0
230
1
3
Standard
100
AcDbAlignedDimension
13
130
23
-16
33
0
14
61
24
-15.996
34
0
50
0
100
AcDbRotatedDimension
1001
ACAD
1000
DSTYLE
1002
{
1070
   371
1070
    13
1070
   372
1070
    13
1070
   170
1070
     0
1070
   144
1040
1.0
1070
   277
1070
     2
1070
   284
1070
     8
1070
   278
1070
    46
1070
   146
1040
1.0
1070
   345
1005
16
1070
   347
1005
16
1070
   346
1005
16
1070
   344
1005
0
1070
   343
1005
0
1070
   172
1070
     1
1070
    76
1070
     0
1070
    75
1070
     0
1070
   282
1070
     0
1070
   281
1070
     0
1070
    71
1070
     0
1070
    74
1070
     0
1070
   279
1070
     0
1070
   173
1070
     1
1070
   340
1005
213
1070
   271
1070
     2
1070
   272
1070
     2
1070
    77
1070
     1
1070
    73
1070
     1
1070
   171
1070
     3
1070
   274
1070
     4
1070
   177
1070
     2
1070
   176
1070
     2
1070
   178
1070
     2
1070
    78
1070
     8
1070
    48
1040
-0.1
1070
    41
1040
3.5
1070
   147
1040
1.75
1070
    42
1040
1.5875
1070
    44
1040
2.0
1070
   140
1040
3.5
1002
}
1001
ACAD_DSTYLE_DIM_LINETYPE
1070
   380
1005
16
1001
ACAD_DSTYLE_DIM_EXT1_LINETYPE
1070
   381
1005
16
1001
ACAD_DSTYLE_DIM_EXT2_LINETYPE
1070
   382
1005
16
0
ENDSEC
0
SECTION
2
OBJECTS
0
DICTIONARY
5
2ef
330
0
100
AcDbDictionary
280
0
281
1
3
ACAD_GROUP
350
2f0
3
ACAD_MLINESTYLE
350
2f1
0
DICTIONARY
5
2f0
330
0
100
AcDbDictionary
280
0
281
1
0
DICTIONARY
5
2f1
330
0
100
AcDbDictionary
280
0
281
1
3
Standard
350
18
0
MLINESTYLE
5
18
330
2f1
100
AcDbMlineStyle
2
Standard
70
0
3

62
256
51
90
52
90
71
2
49
-0.5
62
256
6
ByLayer
49
0.5
62
256
6
ByLayer
0
RASTERVARIABLES
5
2dd
330

100
AcDbRasterVariables
90
0
70
1
71
1
72
1
0
ENDSEC
0
EOF
