0
SECTION
2
HEADER
9
$ACADVER
1
AC1015
9
$DWGCODEPAGE
3
ANSI_1252
9
$HANDSEED
5
27a
9
$ANGBASE
50
0
9
$ANGDIR
70
0
9
$ATTMODE
70
1
9
$AUNITS
70
0
9
$AUPREC
70
0
9
$CECOLOR
62
256
9
$CELTSCALE
40
1
9
$CELTYPE
6
ByLayer
9
$CELWEIGHT
370
18
9
$CLAYER
8
0
9
$CMLJUST
70
0
9
$CMLSCALE
40
1
9
$CMLSTYLE
2
Standard
9
$DIMSTYLE
2
Standard
9
$TEXTSIZE
40
0.2
9
$TEXTSTYLE
7
Standard
9
$LUNITS
70
2
9
$LUPREC
70
4
9
$EXTNAMES
290
1
9
$INSUNITS
70
4
9
$LTSCALE
40
1
9
$LWDISPLAY
290
1
9
$PDMODE
70
0
9
$PDSIZE
40
0
9
$PLINEGEN
70
0
0
ENDSEC
0
SECTION
2
CLASSES
0
CLASS
1
RASTERVARIABLES
2
AcDbRasterVariables
3
ISM
90
0
280
0
281
0
0
ENDSEC
0
SECTION
2
TABLES
0
TABLE
2
VPORT
5
270
100
AcDbSymbolTable
0
VPORT
5
1
100
AcDbSymbolTableRecord
100
AcDbViewportTableRecord
2
*Active
70
0
10
0
20
0
11
1
21
1
12
-1
22
1
13
0
23
0
14
0.5
24
0.5
15
10
25
10
16
0
26
0
36
1
17
0
27
0
37
0
0
ENDTAB
0
TABLE
2
LTYPE
5
271
100
AcDbSymbolTable
0
LTYPE
5
14
100
AcDbSymbolTableRecord
100
AcDbLinetypeTableRecord
70
0
2
ByBlock
3

72
65
73
0
40
0
0
LTYPE
5
15
100
AcDbSymbolTableRecord
100
AcDbLinetypeTableRecord
70
0
2
ByLayer
3

72
65
73
0
40
0
0
LTYPE
5
16
100
AcDbSymbolTableRecord
100
AcDbLinetypeTableRecord
70
0
2
Continuous
3
Solid line
72
65
73
0
40
0
0
LTYPE
5
6E
100
AcDbSymbolTableRecord
100
AcDbLinetypeTableRecord
70
0
2
CENTER
3
____ _ ____ _ ____ _ ____
72
65
73
4
40
47.5
49
22
74
0
49
-8.5
74
0
49
8.5
74
0
49
-8.5
74
0
0
LTYPE
5
6F
100
AcDbSymbolTableRecord
100
AcDbLinetypeTableRecord
70
0
2
DASHED
3
__ __ __ __ __ __ __ __ __
72
65
73
2
40
25.72
49
12.86
74
0
49
-12.86
74
0
0
ENDTAB
0
TABLE
2
LAYER
5
272
100
AcDbSymbolTable
0
LAYER
5
10
100
AcDbSymbolTableRecord
100
AcDbLayerTableRecord
2
0
70
0
62
7
6
Continuous
290
1
370
-3
390
0
0
LAYER
5
71
100
AcDbSymbolTableRecord
100
AcDbLayerTableRecord
2
80
70
0
62
-6
6
Continuous
290
1
370
-3
390
0
0
LAYER
5
73
100
AcDbSymbolTableRecord
100
AcDbLayerTableRecord
2
1
70
0
62
4
6
Continuous
290
1
370
-3
390
0
0
LAYER
5
75
100
AcDbSymbolTableRecord
100
AcDbLayerTableRecord
2
81
70
0
62
-3
6
Continuous
290
1
370
-3
390
0
0
LAYER
5
7C
100
AcDbSymbolTableRecord
100
AcDbLayerTableRecord
2
4
70
0
62
-2
6
CENTER
290
1
370
-3
390
0
0
LAYER
5
BD
100
AcDbSymbolTableRecord
100
AcDbLayerTableRecord
2
2
70
0
62
7
6
Continuous
290
1
370
-3
390
0
0
LAYER
5
1B5
100
AcDbSymbolTableRecord
100
AcDbLayerTableRecord
2
Defpoints
70
0
62
7
6
Continuous
290
0
370
-3
390
0
0
LAYER
5
25c
100
AcDbSymbolTableRecord
100
AcDbLayerTableRecord
2
SK4
70
0
62
2
6
CENTER
290
1
370
-3
390
0
0
LAYER
5
25d
100
AcDbSymbolTableRecord
100
AcDbLayerTableRecord
2
SK1
70
0
62
4
6
Continuous
290
1
370
-3
390
0
0
LAYER
5
25e
100
AcDbSymbolTableRecord
100
AcDbLayerTableRecord
2
SK2
70
0
62
7
6
Continuous
290
1
370
-3
390
0
0
LAYER
5
25f
100
AcDbSymbolTableRecord
100
AcDbLayerTableRecord
2
SK6
70
0
62
5
6
Continuous
290
1
370
-3
390
0
0
ENDTAB
0
TABLE
2
STYLE
5
273
100
AcDbSymbolTable
0
STYLE
5
11
100
AcDbSymbolTableRecord
100
AcDbTextStyleTableRecord
2
Standard
3
txt
70
0
71
0
40
0
41
1
42
0
50
0
0
STYLE
5
191
100
AcDbSymbolTableRecord
100
AcDbTextStyleTableRecord
2
iso_b_vert
3
simplex.shx
70
0
71
0
40
0
41
1
42
0
50
0
0
STYLE
5
192
100
AcDbSymbolTableRecord
100
AcDbTextStyleTableRecord
2
DWGDirectTextStyle
3
simplex
70
0
71
0
40
0
41
1
42
0
50
0
0
ENDTAB
0
TABLE
2
DIMSTYLE
5
274
100
AcDbSymbolTable
100
AcDbDimStyleTable
0
DIMSTYLE
105
27
100
AcDbSymbolTableRecord
100
AcDbDimStyleTableRecord
2
Standard
70
0
3
<>
41
0.18
42
0.0625
44
0.18
140
0.18
147
0.09
73
0
74
0
77
1
271
2
275
0
278
52
280
0
340
11
0
ENDTAB
0
TABLE
2
VIEW
5
275
100
AcDbSymbolTable
0
ENDTAB
0
TABLE
2
UCS
5
276
100
AcDbSymbolTable
0
ENDTAB
0
TABLE
2
APPID
5
277
100
AcDbSymbolTable
0
APPID
5
12
100
AcDbSymbolTableRecord
100
AcDbRegAppTableRecord
2
ACAD
70
0
0
APPID
5
1B1
100
AcDbSymbolTableRecord
100
AcDbRegAppTableRecord
2
ACAD_DSTYLE_DIMBREAK
70
0
0
APPID
5
21B
100
AcDbSymbolTableRecord
100
AcDbRegAppTableRecord
2
ACAD_DSTYLE_DIM_LINETYPE
70
0
0
APPID
5
21C
100
AcDbSymbolTableRecord
100
AcDbRegAppTableRecord
2
ACAD_DSTYLE_DIM_EXT1_LINETYPE
70
0
0
APPID
5
21D
100
AcDbSymbolTableRecord
100
AcDbRegAppTableRecord
2
ACAD_DSTYLE_DIM_EXT2_LINETYPE
70
0
0
APPID
5
258
100
AcDbSymbolTableRecord
100
AcDbRegAppTableRecord
2
ACAD_MLEADERVER
70
0
0
ENDTAB
0
TABLE
2
BLOCK_RECORD
5
278
100
AcDbSymbolTable
0
BLOCK_RECORD
5
1F
100
AcDbSymbolTableRecord
100
AcDbBlockTableRecord
2
*Model_Space
340
0
70
0
0
BLOCK_RECORD
5
1B
100
AcDbSymbolTableRecord
100
AcDbBlockTableRecord
2
*Paper_Space
340
0
70
0
0
BLOCK_RECORD
5
23
100
AcDbSymbolTableRecord
100
AcDbBlockTableRecord
2
*Paper_Space0
340
0
70
0
0
BLOCK_RECORD
5
1B6
100
AcDbSymbolTableRecord
100
AcDbBlockTableRecord
2
*D1
340
0
70
0
0
BLOCK_RECORD
5
1C3
100
AcDbSymbolTableRecord
100
AcDbBlockTableRecord
2
_U0
340
0
70
0
0
BLOCK_RECORD
5
1CF
100
AcDbSymbolTableRecord
100
AcDbBlockTableRecord
2
*D3
340
0
70
0
0
BLOCK_RECORD
5
1DB
100
AcDbSymbolTableRecord
100
AcDbBlockTableRecord
2
_U1
340
0
70
0
0
BLOCK_RECORD
5
1E7
100
AcDbSymbolTableRecord
100
AcDbBlockTableRecord
2
*D5
340
0
70
0
0
BLOCK_RECORD
5
1F3
100
AcDbSymbolTableRecord
100
AcDbBlockTableRecord
2
_U2
340
0
70
0
0
ENDTAB
0
ENDSEC
0
SECTION
2
BLOCKS
0
BLOCK
5
20
100
AcDbEntity
8
0
100
AcDbBlockBegin
2
*Model_Space
70
0
10
0
20
0
30
0
3
*Model_Space
0
ENDBLK
5
21
100
AcDbEntity
8
0
100
AcDbBlockEnd
0
BLOCK
5
1C
100
AcDbEntity
8
0
100
AcDbBlockBegin
2
*Paper_Space
70
0
10
0
20
0
30
0
3
*Paper_Space
0
ENDBLK
5
1D
100
AcDbEntity
8
0
100
AcDbBlockEnd
0
BLOCK
5
24
100
AcDbEntity
8
0
100
AcDbBlockBegin
2
*Paper_Space0
70
0
10
0
20
0
30
0
3
*Paper_Space0
0
ENDBLK
5
25
100
AcDbEntity
8
0
100
AcDbBlockEnd
0
BLOCK
5
1B7
100
AcDbEntity
8
0
100
AcDbBlockBegin
2
*D1
70
1
10
0
20
0
30
0
3
*D1
0
LINE
5
1B9
100
AcDbEntity
8
0
62
256
6
ByLayer
370
-2
48
1
60
0
100
AcDbLine
10
145
20
9.5875
30
0
11
145
21
22.25
31
0
39
0
210
0
220
0
230
1
0
LINE
5
1BA
100
AcDbEntity
8
0
62
256
6
ByLayer
370
-2
48
1
60
0
100
AcDbLine
10
136
20
9.5875
30
0
11
136
21
22.25
31
0
39
0
210
0
220
0
230
1
0
LINE
5
1BB
100
AcDbEntity
8
0
62
256
6
ByLayer
370
-2
48
1
60
0
100
AcDbLine
10
148.5
20
20.25
30
0
11
152
21
20.25
31
0
39
0
210
0
220
0
230
1
0
LINE
5
1BC
100
AcDbEntity
8
0
62
256
6
ByLayer
370
-2
48
1
60
0
100
AcDbLine
10
132.5
20
20.25
30
0
11
129
21
20.25
31
0
39
0
210
0
220
0
230
1
0
SOLID
5
1BD
100
AcDbEntity
8
0
62
256
6
ByLayer
370
-1
48
1
60
0
100
AcDbTrace
10
148.5
20
20.833333
30
0
11
148.5
21
19.666667
31
0
12
145
22
20.25
32
0
13
145
23
20.25
33
0
39
0
210
0
220
0
230
1
0
SOLID
5
1BE
100
AcDbEntity
8
0
62
256
6
ByLayer
370
-1
48
1
60
0
100
AcDbTrace
10
132.5
20
19.666667
30
0
11
132.5
21
20.833333
31
0
12
136
22
20.25
32
0
13
136
23
20.25
33
0
39
0
210
0
220
0
230
1
0
MTEXT
5
1BF
100
AcDbEntity
8
0
62
256
6
ByLayer
370
18
48
1
60
0
100
AcDbMText
10
140.5
20
27.25
30
0
210
0
220
0
230
1
1
\A1;9
40
3.5
41
0
44
1
50
0
71
5
72
5
7
iso_b_vert
0
POINT
5
1C0
100
AcDbEntity
8
Defpoints
62
0
6
ByLayer
370
-1
48
1
60
0
100
AcDbPoint
10
145
20
8
30
0
39
0
210
0
220
0
230
1
50
360
0
POINT
5
1C1
100
AcDbEntity
8
Defpoints
62
0
6
ByLayer
370
-1
48
1
60
0
100
AcDbPoint
10
136
20
8
30
0
39
0
210
0
220
0
230
1
50
360
0
POINT
5
1C2
100
AcDbEntity
8
Defpoints
62
0
6
ByLayer
370
-1
48
1
60
0
100
AcDbPoint
10
136
20
20.25
30
0
39
0
210
0
220
0
230
1
50
360
0
ENDBLK
5
1B8
100
AcDbEntity
8
0
100
AcDbBlockEnd
0
BLOCK
5
1CA
100
AcDbEntity
8
0
100
AcDbBlockBegin
2
_U0
70
0
10
0
20
0
30
0
3
_U0
0
MTEXT
5
1C4
100
AcDbEntity
8
2
62
256
6
ByLayer
370
18
48
1
60
0
100
AcDbMText
10
139.902767
20
21.282634
30
0
210
0
220
0
230
1
1
\W0.5742;9
40
3.5
41
0
44
1.084337
50
0
71
7
72
5
7
iso_b_vert
0
LINE
5
1C5
100
AcDbEntity
8
2
62
256
6
ByLayer
370
13
48
1
60
0
100
AcDbLine
10
145
20
9.5875
30
0
11
145
21
22.25
31
0
39
0
210
0
220
0
230
1
0
LINE
5
1C6
100
AcDbEntity
8
2
62
256
6
ByLayer
370
13
48
1
60
0
100
AcDbLine
10
136
20
9.5875
30
0
11
136
21
22.25
31
0
39
0
210
0
220
0
230
1
0
LINE
5
1C7
100
AcDbEntity
8
2
62
256
6
ByLayer
370
13
48
1
60
0
100
AcDbLine
10
145
20
20.25
30
0
11
136
21
20.25
31
0
39
0
210
0
220
0
230
1
0
SOLID
5
1C8
100
AcDbEntity
8
2
62
256
6
ByLayer
370
18
48
1
60
0
100
AcDbTrace
10
145
20
20.25
30
0
11
141.500002
21
19.789216
31
0
12
141.499998
22
20.710784
32
0
13
141.499998
23
20.710784
33
0
39
0
210
0
220
0
230
1
0
SOLID
5
1C9
100
AcDbEntity
8
2
62
256
6
ByLayer
370
18
48
1
60
0
100
AcDbTrace
10
136
20
20.25
30
0
11
139.499998
21
20.710784
31
0
12
139.500002
22
19.789216
32
0
13
139.500002
23
19.789216
33
0
39
0
210
0
220
0
230
1
0
ENDBLK
5
1CB
100
AcDbEntity
8
0
100
AcDbBlockEnd
0
BLOCK
5
1D0
100
AcDbEntity
8
0
100
AcDbBlockBegin
2
*D3
70
1
10
0
20
0
30
0
3
*D3
0
LINE
5
1D2
100
AcDbEntity
8
0
62
256
6
ByLayer
370
-2
48
1
60
0
100
AcDbLine
10
145
20
9.5875
30
0
11
145
21
32.25
31
0
39
0
210
0
220
0
230
1
0
LINE
5
1D3
100
AcDbEntity
8
0
62
256
6
ByLayer
370
-2
48
1
60
0
100
AcDbLine
10
120
20
9.5875
30
0
11
120
21
32.25
31
0
39
0
210
0
220
0
230
1
0
LINE
5
1D4
100
AcDbEntity
8
0
62
256
6
ByLayer
370
-2
48
1
60
0
100
AcDbLine
10
141.5
20
30.25
30
0
11
123.5
21
30.25
31
0
39
0
210
0
220
0
230
1
0
SOLID
5
1D5
100
AcDbEntity
8
0
62
256
6
ByLayer
370
-1
48
1
60
0
100
AcDbTrace
10
141.5
20
29.666667
30
0
11
141.5
21
30.833333
31
0
12
145
22
30.25
32
0
13
145
23
30.25
33
0
39
0
210
0
220
0
230
1
0
SOLID
5
1D6
100
AcDbEntity
8
0
62
256
6
ByLayer
370
-1
48
1
60
0
100
AcDbTrace
10
123.5
20
30.833333
30
0
11
123.5
21
29.666667
31
0
12
120
22
30.25
32
0
13
120
23
30.25
33
0
39
0
210
0
220
0
230
1
0
MTEXT
5
1D7
100
AcDbEntity
8
0
62
256
6
ByLayer
370
18
48
1
60
0
100
AcDbMText
10
132.5
20
37.25
30
0
210
0
220
0
230
1
1
\A1;25
40
3.5
41
0
44
1
50
0
71
5
72
5
7
iso_b_vert
0
POINT
5
1D8
100
AcDbEntity
8
Defpoints
62
0
6
ByLayer
370
-1
48
1
60
0
100
AcDbPoint
10
145
20
8
30
0
39
0
210
0
220
0
230
1
50
360
0
POINT
5
1D9
100
AcDbEntity
8
Defpoints
62
0
6
ByLayer
370
-1
48
1
60
0
100
AcDbPoint
10
120
20
8
30
0
39
0
210
0
220
0
230
1
50
360
0
POINT
5
1DA
100
AcDbEntity
8
Defpoints
62
0
6
ByLayer
370
-1
48
1
60
0
100
AcDbPoint
10
120
20
30.25
30
0
39
0
210
0
220
0
230
1
50
360
0
ENDBLK
5
1D1
100
AcDbEntity
8
0
100
AcDbBlockEnd
0
BLOCK
5
1E2
100
AcDbEntity
8
0
100
AcDbBlockBegin
2
_U1
70
0
10
0
20
0
30
0
3
_U1
0
MTEXT
5
1DC
100
AcDbEntity
8
2
62
256
6
ByLayer
370
18
48
1
60
0
100
AcDbMText
10
130.595034
20
31.282634
30
0
210
0
220
0
230
1
1
\W0.6740;25
40
3.5
41
0
44
1.084337
50
0
71
7
72
5
7
iso_b_vert
0
LINE
5
1DD
100
AcDbEntity
8
2
62
256
6
ByLayer
370
13
48
1
60
0
100
AcDbLine
10
145
20
9.5875
30
0
11
145
21
32.25
31
0
39
0
210
0
220
0
230
1
0
LINE
5
1DE
100
AcDbEntity
8
2
62
256
6
ByLayer
370
13
48
1
60
0
100
AcDbLine
10
120
20
9.5875
30
0
11
120
21
32.25
31
0
39
0
210
0
220
0
230
1
0
LINE
5
1DF
100
AcDbEntity
8
2
62
256
6
ByLayer
370
13
48
1
60
0
100
AcDbLine
10
145
20
30.25
30
0
11
120
21
30.25
31
0
39
0
210
0
220
0
230
1
0
SOLID
5
1E0
100
AcDbEntity
8
2
62
256
6
ByLayer
370
18
48
1
60
0
100
AcDbTrace
10
145
20
30.25
30
0
11
141.500002
21
29.789216
31
0
12
141.499998
22
30.710784
32
0
13
141.499998
23
30.710784
33
0
39
0
210
0
220
0
230
1
0
SOLID
5
1E1
100
AcDbEntity
8
2
62
256
6
ByLayer
370
18
48
1
60
0
100
AcDbTrace
10
120
20
30.25
30
0
11
123.499998
21
30.710784
31
0
12
123.500002
22
29.789216
32
0
13
123.500002
23
29.789216
33
0
39
0
210
0
220
0
230
1
0
ENDBLK
5
1E3
100
AcDbEntity
8
0
100
AcDbBlockEnd
0
BLOCK
5
1E8
100
AcDbEntity
8
0
100
AcDbBlockBegin
2
*D5
70
1
10
0
20
0
30
0
3
*D5
0
LINE
5
1EA
100
AcDbEntity
8
0
62
256
6
ByLayer
370
-2
48
1
60
0
100
AcDbLine
10
145
20
-9.5875
30
0
11
145
21
-25.75
31
0
39
0
210
0
220
0
230
1
0
LINE
5
1EB
100
AcDbEntity
8
0
62
256
6
ByLayer
370
-2
48
1
60
0
100
AcDbLine
10
49
20
-9.58475
30
0
11
49
21
-25.75
31
0
39
0
210
0
220
0
230
1
0
LINE
5
1EC
100
AcDbEntity
8
0
62
256
6
ByLayer
370
-2
48
1
60
0
100
AcDbLine
10
141.5
20
-23.75
30
0
11
52.5
21
-23.75
31
0
39
0
210
0
220
0
230
1
0
SOLID
5
1ED
100
AcDbEntity
8
0
62
256
6
ByLayer
370
-1
48
1
60
0
100
AcDbTrace
10
141.5
20
-24.333333
30
0
11
141.5
21
-23.166667
31
0
12
145
22
-23.75
32
0
13
145
23
-23.75
33
0
39
0
210
0
220
0
230
1
0
SOLID
5
1EE
100
AcDbEntity
8
0
62
256
6
ByLayer
370
-1
48
1
60
0
100
AcDbTrace
10
52.5
20
-23.166667
30
0
11
52.5
21
-24.333333
31
0
12
49
22
-23.75
32
0
13
49
23
-23.75
33
0
39
0
210
0
220
0
230
1
0
MTEXT
5
1EF
100
AcDbEntity
8
0
62
256
6
ByLayer
370
18
48
1
60
0
100
AcDbMText
10
97
20
-16.75
30
0
210
0
220
0
230
1
1
\A1;96
40
3.5
41
0
44
1
50
0
71
5
72
5
7
iso_b_vert
0
POINT
5
1F0
100
AcDbEntity
8
Defpoints
62
0
6
ByLayer
370
-1
48
1
60
0
100
AcDbPoint
10
145
20
-8
30
0
39
0
210
0
220
0
230
1
50
360
0
POINT
5
1F1
100
AcDbEntity
8
Defpoints
62
0
6
ByLayer
370
-1
48
1
60
0
100
AcDbPoint
10
49
20
-7.99725
30
0
39
0
210
0
220
0
230
1
50
360
0
POINT
5
1F2
100
AcDbEntity
8
Defpoints
62
0
6
ByLayer
370
-1
48
1
60
0
100
AcDbPoint
10
49
20
-23.75
30
0
39
0
210
0
220
0
230
1
50
360
0
ENDBLK
5
1E9
100
AcDbEntity
8
0
100
AcDbBlockEnd
0
BLOCK
5
1FB
100
AcDbEntity
8
0
100
AcDbBlockBegin
2
_U2
70
0
10
0
20
0
30
0
3
_U2
0
MTEXT
5
1F4
100
AcDbEntity
8
SK2
62
256
6
ByLayer
370
18
48
1
60
0
100
AcDbMText
10
86.824501
20
-22.717366
30
0
210
0
220
0
230
1
1
\W0.7298;OHX =
40
3.5
41
0
44
1.084337
50
0
71
7
72
5
7
iso_b_vert
0
MTEXT
5
1F5
100
AcDbEntity
8
SK2
62
256
6
ByLayer
370
18
48
1
60
0
100
AcDbMText
10
103.365566
20
-22.717366
30
0
210
0
220
0
230
1
1
\W0.6740;96
40
3.5
41
0
44
1.084337
50
0
71
7
72
5
7
iso_b_vert
0
LINE
5
1F6
100
AcDbEntity
8
SK2
62
256
6
ByLayer
370
13
48
1
60
0
100
AcDbLine
10
145
20
-9.5875
30
0
11
145
21
-25.75
31
0
39
0
210
0
220
0
230
1
0
LINE
5
1F7
100
AcDbEntity
8
SK2
62
256
6
ByLayer
370
13
48
1
60
0
100
AcDbLine
10
49
20
-9.58475
30
0
11
49
21
-25.75
31
0
39
0
210
0
220
0
230
1
0
LINE
5
1F8
100
AcDbEntity
8
SK2
62
256
6
ByLayer
370
13
48
1
60
0
100
AcDbLine
10
145
20
-23.75
30
0
11
49
21
-23.75
31
0
39
0
210
0
220
0
230
1
0
SOLID
5
1F9
100
AcDbEntity
8
SK2
62
256
6
ByLayer
370
18
48
1
60
0
100
AcDbTrace
10
145
20
-23.75
30
0
11
141.500002
21
-24.210784
31
0
12
141.499998
22
-23.289216
32
0
13
141.499998
23
-23.289216
33
0
39
0
210
0
220
0
230
1
0
SOLID
5
1FA
100
AcDbEntity
8
SK2
62
256
6
ByLayer
370
18
48
1
60
0
100
AcDbTrace
10
49
20
-23.75
30
0
11
52.499998
21
-23.289216
31
0
12
52.500002
22
-24.210784
32
0
13
52.500002
23
-24.210784
33
0
39
0
210
0
220
0
230
1
0
ENDBLK
5
1FC
100
AcDbEntity
8
0
100
AcDbBlockEnd
0
ENDSEC
0
SECTION
2
ENTITIES
0
ARC
5
CF
100
AcDbEntity
8
1
62
256
6
ByLayer
370
18
48
1
60
0
100
AcDbCircle
39
0
10
119.553863
20
7.965
30
0
40
0.8
210
0
220
0
230
1
100
AcDbArc
50
199.553536
51
270
0
ARC
5
D0
100
AcDbEntity
8
1
62
256
6
ByLayer
370
18
48
1
60
0
100
AcDbCircle
39
0
10
119.553863
20
-7.965
30
0
40
0.8
210
0
220
0
230
1
100
AcDbArc
50
90
51
160.446464
0
ELLIPSE
5
D1
100
AcDbEntity
8
1
62
256
6
ByLayer
370
13
48
1
60
0
100
AcDbEllipse
10
134.558377
20
4.59761
30
0
11
0.922044245571633
21
-0.387084498796114
31
0
210
0
220
0
230
1
40
0.198147
41
-1.81469104133805
42
-1.3956417439759
0
ELLIPSE
5
D2
100
AcDbEntity
8
1
62
256
6
ByLayer
370
18
48
1
60
0
100
AcDbEllipse
10
137.080322
20
-7.57341
30
0
11
3.03314501106927
21
2.21930966777864
31
0
210
0
220
0
230
1
40
0.31453
41
1.65275047345317
42
1.68720664377297
0
ELLIPSE
5
D3
100
AcDbEntity
8
1
62
256
6
ByLayer
370
18
48
1
60
0
100
AcDbEllipse
10
134.474678
20
-9.980523
30
0
11
12.1778713560785
21
12.0183012271455
31
0
210
0
220
0
230
1
40
0.065224
41
1.33600380149831
42
1.35765565353344
0
ELLIPSE
5
D4
100
AcDbEntity
8
1
62
256
6
ByLayer
370
18
48
1
60
0
100
AcDbEllipse
10
175.244778
20
-8.782427
30
0
11
57.6884252455675
21
-3.41557619250719
31
0
210
0
220
0
230
1
40
0.00752
41
2.15261954637137
42
2.27011954588729
0
ELLIPSE
5
D5
100
AcDbEntity
8
1
62
256
6
ByLayer
370
13
48
1
60
0
100
AcDbEllipse
10
140.726677
20
-2.354284
30
0
11
-1.75
21
6.43155504981979E-15
31
0
210
0
220
0
230
1
40
0.266582
41
0.0985357881573838
42
0.602568424284933
0
ELLIPSE
5
D6
100
AcDbEntity
8
1
62
256
6
ByLayer
370
18
48
1
60
0
100
AcDbEllipse
10
140.573761
20
-2.663922
30
0
11
-1.16560672471404
21
0.575639612345527
31
0
210
0
220
0
230
1
40
0.955567
41
-2.70066807233699
42
0.440924581252838
0
ELLIPSE
5
D7
100
AcDbEntity
8
1
62
256
6
ByLayer
370
13
48
1
60
0
100
AcDbEllipse
10
140.726677
20
-2.354284
30
0
11
-1.75
21
6.43155504981979E-15
31
0
210
0
220
0
230
1
40
0.266582
41
2.27722484150556
42
3.01069295969022
0
ELLIPSE
5
D8
100
AcDbEntity
8
1
62
256
6
ByLayer
370
18
48
1
60
0
100
AcDbEllipse
10
141.626881
20
0.000495
30
0
11
0.27325965185866
21
7.66757349807491
31
0
210
0
220
0
230
1
40
0.126771
41
-1.8941498090493
42
-1.88541323051381
0
ELLIPSE
5
D9
100
AcDbEntity
8
1
62
256
6
ByLayer
370
13
48
1
60
0
100
AcDbEllipse
10
140.726677
20
-2.354284
30
0
11
1.56908597557666
21
-0.774899478157426
31
0
210
0
220
0
230
1
40
0.955567
41
0.44092458125285
42
3.14155966742081
0
ELLIPSE
5
DA
100
AcDbEntity
8
1
62
256
6
ByLayer
370
18
48
1
60
0
100
AcDbEllipse
10
140.646734
20
-2.973282
30
0
11
-0.941451585345983
21
0.464939686894479
31
0
210
0
220
0
230
1
40
0.955567
41
0
42
6.28318530717959
0
ELLIPSE
5
DB
100
AcDbEntity
8
1
62
256
6
ByLayer
370
18
48
1
60
0
100
AcDbEllipse
10
140.026734
20
4.228713
30
0
11
0.891599482350535
21
0.440320023474131
31
0
210
0
220
0
230
1
40
0.955567
41
0.0956006724842729
42
0.606272969943739
0
ELLIPSE
5
DC
100
AcDbEntity
8
1
62
256
6
ByLayer
370
18
48
1
60
0
100
AcDbEllipse
10
140.026734
20
4.228713
30
0
11
0.891599482350535
21
0.440320023474131
31
0
210
0
220
0
230
1
40
0.955567
41
0.606272969943784
42
1.65347052114035
0
ELLIPSE
5
DD
100
AcDbEntity
8
1
62
256
6
ByLayer
370
18
48
1
60
0
100
AcDbEllipse
10
140.026734
20
4.228713
30
0
11
0.891599482350535
21
0.440320023474131
31
0
210
0
220
0
230
1
40
0.955567
41
1.65347052114038
42
2.70066807233697
0
ELLIPSE
5
DE
100
AcDbEntity
8
1
62
256
6
ByLayer
370
18
48
1
60
0
100
AcDbEllipse
10
140.026734
20
4.228713
30
0
11
-0.891599482350535
21
-0.44032002347413
31
0
210
0
220
0
230
1
40
0.955567
41
-0.440924581252821
42
0.00220399703507743
0
ELLIPSE
5
DF
100
AcDbEntity
8
1
62
256
6
ByLayer
370
18
48
1
60
0
100
AcDbEllipse
10
139.460768
20
5.16181
30
0
11
0.259968029880836
21
0.154303642953898
31
0
210
0
220
0
230
1
40
0.465728
41
-2.85323025291354
42
-1.56634559235423
0
ELLIPSE
5
E0
100
AcDbEntity
8
1
62
256
6
ByLayer
370
18
48
1
60
0
100
AcDbEllipse
10
139.460768
20
5.16181
30
0
11
0.259968029881074
21
0.154303642953556
31
0
210
0
220
0
230
1
40
0.465728
41
-1.5663455923515
42
-0.279460931791909
0
ELLIPSE
5
E1
100
AcDbEntity
8
1
62
256
6
ByLayer
370
18
48
1
60
0
100
AcDbEllipse
10
140.026734
20
5.329145
30
0
11
0.299744434525999
21
0.0135543193226839
31
0
210
0
220
0
230
1
40
0.472777
41
0.746737837963167
42
-3.00209510731758
0
ELLIPSE
5
E2
100
AcDbEntity
8
1
62
256
6
ByLayer
370
18
48
1
60
0
100
AcDbEllipse
10
139.046409
20
4.744523
30
0
11
0.15319959739449
21
0.255819674302767
31
0
210
0
220
0
230
1
40
0.478714
41
-0.134417213672184
42
2.11799758069273
0
ELLIPSE
5
E3
100
AcDbEntity
8
1
62
256
6
ByLayer
370
18
48
1
60
0
100
AcDbEllipse
10
140.592701
20
5.201537
30
0
11
0.261578672059258
21
-0.133067022646365
31
0
210
0
220
0
230
1
40
0.494185
41
-2.56349352911802
42
-1.59865251497709
0
ELLIPSE
5
E4
100
AcDbEntity
8
1
62
256
6
ByLayer
370
18
48
1
60
0
100
AcDbEllipse
10
140.592701
20
5.201537
30
0
11
0.261578672055374
21
-0.133067022644944
31
0
210
0
220
0
230
1
40
0.494185
41
-1.59865251497332
42
-0.311767854406865
0
ELLIPSE
5
E5
100
AcDbEntity
8
1
62
256
6
ByLayer
370
18
48
1
60
0
100
AcDbEllipse
10
138.894802
20
4.188986
30
0
11
0.00342773113876335
21
0.291496847409018
31
0
210
0
220
0
230
1
40
0.500862
41
-2.834207624076
42
-1.54732296351135
0
ELLIPSE
5
E6
100
AcDbEntity
8
1
62
256
6
ByLayer
370
18
48
1
60
0
100
AcDbEllipse
10
138.894802
20
4.188986
30
0
11
0.00342773113749455
21
0.291496847409044
31
0
210
0
220
0
230
1
40
0.500862
41
-1.54732296352139
42
-0.713400533125162
0
ELLIPSE
5
E7
100
AcDbEntity
8
1
62
256
6
ByLayer
370
18
48
1
60
0
100
AcDbEllipse
10
141.00706
20
4.813335
30
0
11
0.150555597691561
21
-0.246756311600918
31
0
210
0
220
0
230
1
40
0.509413
41
2.22638655588992
42
-2.98586786815906
0
ELLIPSE
5
E8
100
AcDbEntity
8
1
62
256
6
ByLayer
370
18
48
1
60
0
100
AcDbEllipse
10
139.046409
20
3.644091
30
0
11
0.150555597691557
21
-0.246756311600919
31
0
210
0
220
0
230
1
40
0.509413
41
2.97557131542611
42
-2.60168779657262
0
ELLIPSE
5
E9
100
AcDbEntity
8
1
62
256
6
ByLayer
370
18
48
1
60
0
100
AcDbEllipse
10
139.837471
20
4.611949
30
0
11
1.15578872960977
21
0.570790955610748
31
0
210
0
220
0
230
1
40
0.955567
41
-3.0589184592443
42
-2.8700298862804
0
ELLIPSE
5
EA
100
AcDbEntity
8
1
62
256
6
ByLayer
370
18
48
1
60
0
100
AcDbEllipse
10
139.837471
20
4.611949
30
0
11
1.15578872960977
21
0.570790955610748
31
0
210
0
220
0
230
1
40
0.955567
41
2.17706929673868
42
-3.0589184592443
0
ELLIPSE
5
EB
100
AcDbEntity
8
1
62
256
6
ByLayer
370
18
48
1
60
0
100
AcDbEllipse
10
139.837471
20
4.611949
30
0
11
1.15578872960977
21
0.570790955610748
31
0
210
0
220
0
230
1
40
0.955567
41
1.12987174554207
42
2.17706929673868
0
ELLIPSE
5
EC
100
AcDbEntity
8
1
62
256
6
ByLayer
370
18
48
1
60
0
100
AcDbEllipse
10
139.837471
20
4.611949
30
0
11
1.15578872960977
21
0.570790955610748
31
0
210
0
220
0
230
1
40
0.955567
41
0.0826741943455035
42
1.12987174554207
0
ELLIPSE
5
ED
100
AcDbEntity
8
1
62
256
6
ByLayer
370
18
48
1
60
0
100
AcDbEllipse
10
139.837471
20
4.611949
30
0
11
1.15578872960977
21
0.570790955610748
31
0
210
0
220
0
230
1
40
0.955567
41
-0.964523356851139
42
0.0826741943455043
0
ELLIPSE
5
EE
100
AcDbEntity
8
1
62
256
6
ByLayer
370
18
48
1
60
0
100
AcDbEllipse
10
139.837471
20
4.611949
30
0
11
1.15578872960977
21
0.570790955610748
31
0
210
0
220
0
230
1
40
0.955567
41
-1.25824588451981
42
-0.964523356851139
0
ELLIPSE
5
EF
100
AcDbEntity
8
1
62
256
6
ByLayer
370
18
48
1
60
0
100
AcDbEllipse
10
140.020208
20
4.241928
30
0
11
1.7094460044594
21
0.844216848160298
31
0
210
0
220
0
230
1
40
0.955567
41
-0.756949015404792
42
-0.440924293688208
0
ELLIPSE
5
F0
100
AcDbEntity
8
1
62
256
6
ByLayer
370
18
48
1
60
0
100
AcDbEllipse
10
140.020208
20
4.241928
30
0
11
1.7094460044594
21
0.844216848160298
31
0
210
0
220
0
230
1
40
0.955567
41
-0.44092483789109
42
-0.228572863832499
0
ELLIPSE
5
F1
100
AcDbEntity
8
1
62
256
6
ByLayer
370
13
48
1
60
0
100
AcDbEllipse
10
139.837471
20
4.611949
30
0
11
1.34493083620857
21
0.664199552706351
31
0
210
0
220
0
230
1
40
0.955567
41
-1.1299149679307
42
-0.440924749808997
0
ELLIPSE
5
F2
100
AcDbEntity
8
1
62
256
6
ByLayer
370
13
48
1
60
0
100
AcDbEllipse
10
139.837471
20
4.611949
30
0
11
1.34493083620857
21
0.664199552706351
31
0
210
0
220
0
230
1
40
0.955567
41
-0.440924749808991
42
0
0
ELLIPSE
5
F3
100
AcDbEntity
8
1
62
256
6
ByLayer
370
13
48
1
60
0
100
AcDbEllipse
10
139.837471
20
4.611949
30
0
11
1.34493083620857
21
0.664199552706351
31
0
210
0
220
0
230
1
40
0.955567
41
0
42
-2.9873820892594
0
ELLIPSE
5
F4
100
AcDbEntity
8
1
62
256
6
ByLayer
370
18
48
1
60
0
100
AcDbEllipse
10
139.845761
20
4.595164
30
0
11
1.79324111494476
21
0.885599403608468
31
0
210
0
220
0
230
1
40
0.955567
41
-0.944560917512133
42
-0.440924403960184
0
ELLIPSE
5
F5
100
AcDbEntity
8
1
62
256
6
ByLayer
370
18
48
1
60
0
100
AcDbEllipse
10
139.845761
20
4.595164
30
0
11
1.79324111494476
21
0.885599403608468
31
0
210
0
220
0
230
1
40
0.955567
41
-0.440924403960183
42
-4.64738955876524E-16
0
ELLIPSE
5
F6
100
AcDbEntity
8
1
62
256
6
ByLayer
370
18
48
1
60
0
100
AcDbEllipse
10
139.845761
20
4.595164
30
0
11
1.79324111494476
21
0.885599403608468
31
0
210
0
220
0
230
1
40
0.955567
41
0
42
3.10563876107298
0
ELLIPSE
5
F7
100
AcDbEntity
8
1
62
256
6
ByLayer
370
13
48
1
60
0
100
AcDbEllipse
10
140.008229
20
4.266184
30
0
11
1.78429096121243
21
0.881179333857951
31
0
210
0
220
0
230
1
40
0.955567
41
-0.553628997541136
42
-1.40121037685691E-15
0
ELLIPSE
5
F8
100
AcDbEntity
8
1
62
256
6
ByLayer
370
13
48
1
60
0
100
AcDbEllipse
10
140.008229
20
4.266184
30
0
11
1.78429096121243
21
0.881179333857951
31
0
210
0
220
0
230
1
40
0.955567
41
0
42
0.0704679290290505
0
ELLIPSE
5
F9
100
AcDbEntity
8
1
62
256
6
ByLayer
370
13
48
1
60
0
100
AcDbEllipse
10
139.970893
20
4.341784
30
0
11
1.90003325855683
21
0.938339137214136
31
0
210
0
220
0
230
1
40
0.955567
41
2.66218363998844
42
2.70066804120055
0
ELLIPSE
5
FA
100
AcDbEntity
8
1
62
256
6
ByLayer
370
13
48
1
60
0
100
AcDbEllipse
10
139.970893
20
4.341784
30
0
11
1.90003325855683
21
0.938339137214136
31
0
210
0
220
0
230
1
40
0.955567
41
-0.280212427646105
42
-4.38618113467804E-16
0
ELLIPSE
5
FB
100
AcDbEntity
8
1
62
256
6
ByLayer
370
13
48
1
60
0
100
AcDbEllipse
10
139.970893
20
4.341784
30
0
11
1.90003325855683
21
0.938339137214136
31
0
210
0
220
0
230
1
40
0.955567
41
0
42
0.479267340510232
0
ELLIPSE
5
FC
100
AcDbEntity
8
1
62
256
6
ByLayer
370
13
48
1
60
0
100
AcDbEllipse
10
139.970893
20
4.341784
30
0
11
1.90003325855683
21
0.938339137214136
31
0
210
0
220
0
230
1
40
0.955567
41
2.70066804120055
42
2.95710058526327
0
ELLIPSE
5
FD
100
AcDbEntity
8
1
62
256
6
ByLayer
370
18
48
1
60
0
100
AcDbEllipse
10
139.840599
20
4.605617
30
0
11
-1.99410473995434
21
-0.984796720150365
31
0
210
0
220
0
230
1
40
0.955567
41
2.24219188372883
42
-0.075812698349935
0
POINT
5
70
100
AcDbEntity
8
80
62
256
6
ByLayer
370
18
48
1
60
0
100
AcDbPoint
10
0
20
0
30
0
39
0
210
0
220
0
230
1
50
360
0
POINT
5
72
100
AcDbEntity
8
1
62
256
6
ByLayer
370
18
48
1
60
0
100
AcDbPoint
10
49
20
0
30
0
39
0
210
0
220
0
230
1
50
360
0
POINT
5
74
100
AcDbEntity
8
81
62
256
6
ByLayer
370
18
48
1
60
0
100
AcDbPoint
10
145
20
8
30
0
39
0
210
0
220
0
230
1
50
360
0
POINT
5
76
100
AcDbEntity
8
1
62
256
6
ByLayer
370
18
48
1
60
1
100
AcDbPoint
10
136
20
8
30
0
39
0
210
0
220
0
230
1
50
360
0
POINT
5
77
100
AcDbEntity
8
1
62
256
6
ByLayer
370
18
48
1
60
1
100
AcDbPoint
10
120
20
8
30
0
39
0
210
0
220
0
230
1
50
360
0
POINT
5
78
100
AcDbEntity
8
1
62
256
6
ByLayer
370
18
48
1
60
1
100
AcDbPoint
10
145
20
-8
30
0
39
0
210
0
220
0
230
1
50
360
0
POINT
5
79
100
AcDbEntity
8
1
62
256
6
ByLayer
370
18
48
1
60
1
100
AcDbPoint
10
49
20
-7.99725
30
0
39
0
210
0
220
0
230
1
50
360
0
SPLINE
5
FE
100
AcDbEntity
8
1
62
256
6
ByLayer
370
18
48
1
60
0
100
AcDbSpline
70
4
71
3
72
12
73
8
40
0
40
0
40
0
40
0
40
0.250000000000001
40
0.250000000000001
40
0.500000000000002
40
0.500000000000002
40
1
40
1
40
1
40
1
41
1
10
136.03471395059
20
-6.88361770079459
30
0
41
1
10
136.019533188092
20
-6.89148466347581
30
0
41
1
10
136.004314838734
20
-6.89998366113241
30
0
41
1
10
135.973885698086
20
-6.91820798006219
30
0
41
1
10
135.95883281315
20
-6.92783740617892
30
0
41
1
10
135.914134863902
20
-6.95819355304025
30
0
41
1
10
135.884949633456
20
-6.98038367651765
30
0
41
1
10
135.856326426654
20
-7.0043683119508
30
0
0
SPLINE
5
FF
100
AcDbEntity
8
1
62
256
6
ByLayer
370
18
48
1
60
0
100
AcDbSpline
70
4
71
3
72
8
73
4
40
0
40
0
40
0
40
0
40
1
40
1
40
1
40
1
41
1
10
143.595998405989
20
-6.54414246604466
30
0
41
1
10
143.585261341818
20
-6.54395732370563
30
0
41
1
10
143.574486144192
20
-6.54357167625992
30
0
41
1
10
143.563672883782
20
-6.54298510885991
30
0
0
SPLINE
5
100
100
AcDbEntity
8
1
62
256
6
ByLayer
370
18
48
1
60
0
100
AcDbSpline
70
4
71
3
72
19
73
15
40
0
40
0
40
0
40
0
40
0.249999999999965
40
0.249999999999965
40
0.312499999999956
40
0.312499999999956
40
0.374999999999948
40
0.374999999999948
40
0.499999999999929
40
0.624999999999911
40
0.624999999999911
40
0.749999999999892
40
0.749999999999892
40
1
40
1
40
1
40
1
41
1
10
143.595998406033
20
-6.54414246615141
30
0
41
1
10
143.633126312433
20
-6.54478267350299
30
0
41
1
10
143.669673408928
20
-6.54183115816537
30
0
41
1
10
143.714627586171
20
-6.53368337630283
30
0
41
1
10
143.723581572887
20
-6.53182873349127
30
0
41
1
10
143.741414249581
20
-6.52766114753803
30
0
41
1
10
143.750291721171
20
-6.52534665595039
30
0
41
1
10
143.776504373899
20
-6.51779645350206
30
0
41
1
10
143.810546335249
20
-6.506069623375
30
0
41
1
10
143.842814623177
20
-6.49111546934347
30
0
41
1
10
143.874189215818
20
-6.4745430277047
30
0
41
1
10
143.889454936878
20
-6.46543080927043
30
0
41
1
10
143.93370014944
20
-6.43568864170462
30
0
41
1
10
143.960331700864
20
-6.41324036567786
30
0
41
1
10
143.984197955593
20
-6.38829209329569
30
0
0
SPLINE
5
101
100
AcDbEntity
8
1
62
256
6
ByLayer
370
18
48
1
60
0
100
AcDbSpline
70
4
71
3
72
16
73
12
40
0
40
0
40
0
40
0
40
0.25000000000012
40
0.25000000000012
40
0.375000000000179
40
0.437500000000208
40
0.437500000000208
40
0.500000000000238
40
0.500000000000238
40
0.750000000000119
40
1
40
1
40
1
40
1
41
1
10
137.728441795215
20
-6.03885439078726
30
0
41
1
10
137.771969364912
20
-6.05238507347897
30
0
41
1
10
137.813250812724
20
-6.06706592253801
30
0
41
1
10
137.871802459969
20
-6.09081313269115
30
0
41
1
10
137.900232731923
20
-6.10311971742817
30
0
41
1
10
137.927366798946
20
-6.11609004678539
30
0
41
1
10
137.945162956664
20
-6.1248870816537
30
0
41
1
10
137.953925489115
20
-6.12936690604749
30
0
41
1
10
137.996683018591
20
-6.15198141295173
30
0
41
1
10
138.05882171753
20
-6.18974640613138
30
0
41
1
10
138.10866821804
20
-6.23061079363168
30
0
41
1
10
138.130399543283
20
-6.25184780958759
30
0
0
SPLINE
5
102
100
AcDbEntity
8
1
62
256
6
ByLayer
370
18
48
1
60
0
100
AcDbSpline
70
4
71
3
72
14
73
10
40
0
40
0
40
0
40
0
40
0.249999999999956
40
0.249999999999956
40
0.375000000000004
40
0.375000000000004
40
0.500000000000052
40
0.500000000000052
40
1
40
1
40
1
40
1
41
1
10
136.545377814247
20
-6.41207343770606
30
0
41
1
10
136.515408352888
20
-6.42835008038966
30
0
41
1
10
136.486668797027
20
-6.44550857815241
30
0
41
1
10
136.4453396071
20
-6.47277544710838
30
0
41
1
10
136.431860054693
20
-6.48211952232433
30
0
41
1
10
136.405485206314
20
-6.50135649039001
30
0
41
1
10
136.392563587721
20
-6.51127207206343
30
0
41
1
10
136.329914669367
20
-6.56189245832888
30
0
41
1
10
136.285742532627
20
-6.60587557709547
30
0
41
1
10
136.246336517324
20
-6.65436421719858
30
0
0
SPLINE
5
103
100
AcDbEntity
8
1
62
256
6
ByLayer
370
18
48
1
60
0
100
AcDbSpline
70
4
71
3
72
10
73
6
40
0
40
0
40
0
40
0
40
0.949019227412991
40
0.949019227412991
40
1
40
1
40
1
40
1
41
1
10
136.545377814244
20
-6.41207343770171
30
0
41
1
10
136.502551398536
20
-6.22160952515929
30
0
41
1
10
136.45510009662
20
-6.03157447032325
30
0
41
1
10
136.400450068583
20
-5.83176199632527
30
0
41
1
10
136.397650719984
20
-5.8215749458378
30
0
41
1
10
136.394838485772
20
-5.81138866937422
30
0
0
SPLINE
5
104
100
AcDbEntity
8
1
62
256
6
ByLayer
370
18
48
1
60
0
100
AcDbSpline
70
4
71
3
72
8
73
4
40
0
40
0
40
0
40
0
40
1
40
1
40
1
40
1
41
1
10
141.128240519801
20
-6.05824103707337
30
0
41
1
10
141.127657460729
20
-6.05822953623715
30
0
41
1
10
141.127074301345
20
-6.05821907288006
30
0
41
1
10
141.126491071361
20
-6.05820964830775
30
0
0
SPLINE
5
105
100
AcDbEntity
8
1
62
256
6
ByLayer
370
18
48
1
60
0
100
AcDbSpline
70
4
71
3
72
43
73
39
40
0
40
0
40
0
40
0
40
0.0131509291599698
40
0.0131509291599698
40
0.0580077051072598
40
0.0580077051072598
40
0.080436093080905
40
0.080436093080905
40
0.0916502870677227
40
0.0916502870677227
40
0.102864481054541
40
0.102864481054541
40
0.147721257001822
40
0.147721257001822
40
0.192578032949103
40
0.192578032949103
40
0.237434808896385
40
0.237434808896385
40
0.2486490028832
40
0.2486490028832
40
0.259863196870016
40
0.282291584843646
40
0.282291584843646
40
0.327148360790918
40
0.327148360790918
40
0.372005136738189
40
0.372005136738189
40
0.461718688632732
40
0.461718688632732
40
0.551432240527275
40
0.551432240527275
40
0.641145792421818
40
0.641145792421818
40
0.820572896210904
40
0.820572896210904
40
0.910286448105452
40
0.910286448105452
40
1
40
1
40
1
40
1
41
1
10
126.854954609477
20
-6.64304122360761
30
0
41
1
10
126.884541474806
20
-6.63514265073863
30
0
41
1
10
126.914473791302
20
-6.62735945022987
30
0
41
1
10
127.047967576012
20
-6.59356550286566
30
0
41
1
10
127.155072763779
20
-6.5688511370129
30
0
41
1
10
127.321168249107
20
-6.5343093752131
30
0
41
1
10
127.377439423955
20
-6.52321496230272
30
0
41
1
10
127.463183223747
20
-6.50725395162047
30
0
41
1
10
127.491947531047
20
-6.50205503076634
30
0
41
1
10
127.549603055177
20
-6.49194659366987
30
0
41
1
10
127.578528633014
20
-6.48703088686344
30
0
41
1
10
127.723632871671
20
-6.46314866559661
30
0
41
1
10
127.841229765525
20
-6.44626063061986
30
0
41
1
10
128.07924008147
20
-6.41706938973513
30
0
41
1
10
128.199660586496
20
-6.40477692255618
30
0
41
1
10
128.443233601342
20
-6.38496836559142
30
0
41
1
10
128.566391726347
20
-6.37746160509124
30
0
41
1
10
128.722067775535
20
-6.3712286165061
30
0
41
1
10
128.753270060406
20
-6.37014074088358
30
0
41
1
10
128.815495939274
20
-6.36829182063428
30
0
41
1
10
128.908695402219
20
-6.36600274613875
30
0
41
1
10
129.001481650866
20
-6.36515655300303
30
0
41
1
10
129.186516957908
20
-6.36534576117478
30
0
41
1
10
129.309160418682
20
-6.36797472235355
30
0
41
1
10
129.553046990084
20
-6.37807662803559
30
0
41
1
10
129.674295017706
20
-6.38553276017399
30
0
41
1
10
130.035896137912
20
-6.41501583563721
30
0
41
1
10
130.276814016163
20
-6.43482783570153
30
0
41
1
10
130.758334480297
20
-6.4747016456171
30
0
41
1
10
130.998930232613
20
-6.49478677402612
30
0
41
1
10
131.479749469259
20
-6.53525049605182
30
0
41
1
10
131.719851234709
20
-6.55561867633884
30
0
41
1
10
132.439008586186
20
-6.6170241863351
30
0
41
1
10
132.916953479183
20
-6.65840772945597
30
0
41
1
10
133.631515308754
20
-6.7200972172501
30
0
41
1
10
133.869313556061
20
-6.74058694797259
30
0
41
1
10
134.344187713291
20
-6.78111498742862
30
0
41
1
10
134.58124902958
20
-6.80116902536784
30
0
41
1
10
134.8180957092
20
-6.82070115907135
30
0
0
SPLINE
5
106
100
AcDbEntity
8
1
62
256
6
ByLayer
370
18
48
1
60
0
100
AcDbSpline
70
4
71
3
72
8
73
4
40
0
40
0
40
0
40
0
40
1
40
1
40
1
40
1
41
1
10
135.178919451174
20
-6.88097164669634
30
0
41
1
10
135.059510362008
20
-6.85075184419605
30
0
41
1
10
134.939232706415
20
-6.83069101423766
30
0
41
1
10
134.8180957092
20
-6.82070115907138
30
0
0
SPLINE
5
107
100
AcDbEntity
8
1
62
256
6
ByLayer
370
18
48
1
60
0
100
AcDbSpline
70
4
71
3
72
8
73
4
40
0
40
0
40
0
40
0
40
1
40
1
40
1
40
1
41
1
10
141.126491071361
20
-4.42494454816796
30
0
41
1
10
141.127074331035
20
-4.42479734883594
30
0
41
1
10
141.127657480495
20
-4.42464920062824
30
0
41
1
10
141.128240519801
20
-4.42450010416158
30
0
0
SPLINE
5
108
100
AcDbEntity
8
1
62
256
6
ByLayer
370
18
48
1
60
0
100
AcDbSpline
70
4
71
3
72
16
73
12
40
0
40
0
40
0
40
0
40
0.093998097731317
40
0.093998097731317
40
0.320498573298488
40
0.320498573298488
40
0.546999048865659
40
0.546999048865659
40
0.773499524432829
40
0.773499524432829
40
1
40
1
40
1
40
1
41
1
10
141.722272862344
20
-3.27417396761211
30
0
41
1
10
141.730496155636
20
-3.25757449188401
30
0
41
1
10
141.738395377426
20
-3.24085013563692
30
0
41
1
10
141.764214498645
20
-3.1833958252987
30
0
41
1
10
141.780570056359
20
-3.14206155653596
30
0
41
1
10
141.80928028872
20
-3.05783822101799
30
0
41
1
10
141.821637234704
20
-3.0149500347666
30
0
41
1
10
141.841903305383
20
-2.92743625837935
30
0
41
1
10
141.849613736502
20
-2.88361707310111
30
0
41
1
10
141.859975384187
20
-2.79625118527682
30
0
41
1
10
141.862638939007
20
-2.75265247839238
30
0
41
1
10
141.862638939007
20
-2.70915708363262
30
0
0
SPLINE
5
109
100
AcDbEntity
8
1
62
256
6
ByLayer
370
18
48
1
60
0
100
AcDbSpline
70
4
71
3
72
9
73
5
40
0
40
0
40
0
40
0
40
0.5
40
1
40
1
40
1
40
1
41
1
10
134.261288502674
20
4.51379197547701
30
0
41
1
10
134.218046271234
20
4.41353267206316
30
0
41
1
10
134.143253756689
20
4.21039404436451
30
0
41
1
10
134.091973317365
20
4.00192569096976
30
0
41
1
10
134.072502744481
20
3.89627891444593
30
0
0
SPLINE
5
10A
100
AcDbEntity
8
1
62
256
6
ByLayer
370
18
48
1
60
0
100
AcDbSpline
70
4
71
3
72
10
73
6
40
0
40
0
40
0
40
0
40
0.0397024859511579
40
0.0397024859511579
40
1
40
1
40
1
40
1
41
1
10
134.802212912014
20
5.76360381591545
30
0
41
1
10
134.795030986301
20
5.74707461757498
30
0
41
1
10
134.78785008887
20
5.73054493178765
30
0
41
1
10
134.607007771796
20
5.31419408425307
30
0
41
1
10
134.43393975532
20
4.91409264792918
30
0
41
1
10
134.261288502674
20
4.51379197547698
30
0
0
SPLINE
5
10B
100
AcDbEntity
8
1
62
256
6
ByLayer
370
18
48
1
60
0
100
AcDbSpline
70
4
71
3
72
8
73
4
40
0
40
0
40
0
40
0
40
1
40
1
40
1
40
1
41
1
10
135.178919451174
20
6.88097164669531
30
0
41
1
10
135.059510362008
20
6.85075184419506
30
0
41
1
10
134.939232706415
20
6.83069101423663
30
0
41
1
10
134.818095709201
20
6.82070115907035
30
0
0
SPLINE
5
10C
100
AcDbEntity
8
1
62
256
6
ByLayer
370
18
48
1
60
0
100
AcDbSpline
70
4
71
3
72
54
73
50
40
0
40
0
40
0
40
0
40
0.0599125204603165
40
0.0599125204603165
40
0.119825040920633
40
0.119825040920633
40
0.17973756138095
40
0.17973756138095
40
0.239650081841266
40
0.239650081841266
40
0.299562602301582
40
0.299562602301582
40
0.359475122761899
40
0.359475122761899
40
0.389431382992057
40
0.389431382992057
40
0.404409513107139
40
0.404409513107139
40
0.419387643222221
40
0.419387643222221
40
0.479300163682544
40
0.479300163682544
40
0.539212684142866
40
0.539212684142866
40
0.599125204603189
40
0.599125204603189
40
0.614103334718273
40
0.614103334718273
40
0.629081464833357
40
0.659037725063526
40
0.659037725063526
40
0.718950245523859
40
0.718950245523859
40
0.778862765984192
40
0.778862765984192
40
0.793840896099273
40
0.793840896099273
40
0.808819026214353
40
0.808819026214353
40
0.838775286444518
40
0.838775286444518
40
0.898687806904845
40
0.898687806904845
40
0.958600327365171
40
0.958600327365171
40
0.973578457480253
40
0.973578457480253
40
0.988556587595335
40
1
40
1
40
1
40
1
41
1
10
134.818095709201
20
3.78332934952471
30
0
41
1
10
134.572051965167
20
3.81201754916546
30
0
41
1
10
134.32751818836
20
3.84467079381429
30
0
41
1
10
133.841634742736
20
3.91805522358081
30
0
41
1
10
133.600273119146
20
3.95875427452472
30
0
41
1
10
133.120825424184
20
4.04808857590294
30
0
41
1
10
132.882787411943
20
4.09685601056802
30
0
41
1
10
132.410684662346
20
4.20363449683541
30
0
41
1
10
132.176609609831
20
4.26161735713052
30
0
41
1
10
131.712692808553
20
4.38677022780274
30
0
41
1
10
131.482829709805
20
4.45388700393542
30
0
41
1
10
131.027562234409
20
4.59696449002499
30
0
41
1
10
130.802156936746
20
4.67292700405039
30
0
41
1
10
130.467717084389
20
4.79342548026637
30
0
41
1
10
130.356850359381
20
4.83468612043623
30
0
41
1
10
130.191521995977
20
4.89820798486079
30
0
41
1
10
130.136574540516
20
4.91965364583618
30
0
41
1
10
130.027012852484
20
4.96308509560626
30
0
41
1
10
129.972342255826
20
4.98509435644425
30
0
41
1
10
129.700929748134
20
5.09603284389678
30
0
41
1
10
129.489501460096
20
5.18783377709684
30
0
41
1
10
129.078773225479
20
5.37627219123868
30
0
41
1
10
128.879470820791
20
5.47291171873846
30
0
41
1
10
128.493760818405
20
5.66933851624597
30
0
41
1
10
128.307353435
20
5.76913357998538
30
0
41
1
10
128.0829624052
20
5.89445980760033
30
0
41
1
10
128.038485473233
20
5.91957091074244
30
0
41
1
10
127.950959284145
20
5.9694940304538
30
0
41
1
10
127.821610270436
20
6.04404070702037
30
0
41
1
10
127.69806904359
20
6.11737656667009
30
0
41
1
10
127.458684465929
20
6.26187789951734
30
0
41
1
10
127.309369025311
20
6.35533521430838
30
0
41
1
10
127.030905084487
20
6.5332035022617
30
0
41
1
10
126.901742769334
20
6.61761771508776
30
0
41
1
10
126.752616057242
20
6.71509800212846
30
0
41
1
10
126.723407236937
20
6.73419062571691
30
0
41
1
10
126.666219007951
20
6.77150276733573
30
0
41
1
10
126.638206327019
20
6.7897438543898
30
0
41
1
10
126.55666853902
20
6.84263007910005
30
0
41
1
10
126.505427096127
20
6.87557907451767
30
0
41
1
10
126.360484380335
20
6.96711951196926
30
0
41
1
10
126.275537647331
20
7.01841412283662
30
0
41
1
10
126.126586004665
20
7.09936191967131
30
0
41
1
10
126.062566119617
20
7.12902685892388
30
0
41
1
10
125.994739178915
20
7.1509535967098
30
0
41
1
10
125.981768164508
20
7.15458299762699
30
0
41
1
10
125.957154166095
20
7.16025070363526
30
0
41
1
10
125.936607463031
20
7.16385252507311
30
0
41
1
10
125.918046103495
20
7.16497881338313
30
0
41
1
10
125.910371249485
20
7.16499957685485
30
0
0
SPLINE
5
10D
100
AcDbEntity
8
1
62
256
6
ByLayer
370
18
48
1
60
0
100
AcDbSpline
70
4
71
3
72
43
73
39
40
0
40
0
40
0
40
0
40
0.0130545866013027
40
0.0130545866013027
40
0.0579157417557796
40
0.0579157417557796
40
0.0803463193330135
40
0.0803463193330135
40
0.0915616081216351
40
0.0915616081216351
40
0.102776896910257
40
0.102776896910257
40
0.147638052064752
40
0.147638052064752
40
0.192499207219248
40
0.192499207219248
40
0.237360362373743
40
0.237360362373743
40
0.248575651162362
40
0.248575651162362
40
0.259790939950981
40
0.282221517528219
40
0.282221517528219
40
0.327082672682705
40
0.327082672682705
40
0.37194382783719
40
0.37194382783719
40
0.461666138146162
40
0.461666138146162
40
0.551388448455133
40
0.551388448455133
40
0.641110758764105
40
0.641110758764105
40
0.820555379382057
40
0.820555379382057
40
0.910277689691029
40
0.910277689691029
40
1
40
1
40
1
40
1
41
1
10
126.855613520007
20
6.64286535375726
30
0
41
1
10
126.884985857165
20
6.63502711094083
30
0
41
1
10
126.914698438188
20
6.62730258087672
30
0
41
1
10
127.047967576011
20
6.59356550286478
30
0
41
1
10
127.155072763778
20
6.56885113701202
30
0
41
1
10
127.321168249107
20
6.53430937521222
30
0
41
1
10
127.377439423955
20
6.52321496230184
30
0
41
1
10
127.463183223746
20
6.50725395161959
30
0
41
1
10
127.491947531047
20
6.50205503076543
30
0
41
1
10
127.549603055177
20
6.49194659366898
30
0
41
1
10
127.578528633013
20
6.48703088686256
30
0
41
1
10
127.723632871671
20
6.4631486655957
30
0
41
1
10
127.841229765525
20
6.44626063061895
30
0
41
1
10
128.07924008147
20
6.41706938973419
30
0
41
1
10
128.199660586495
20
6.40477692255527
30
0
41
1
10
128.443233601342
20
6.38496836559048
30
0
41
1
10
128.566391726346
20
6.3774616050903
30
0
41
1
10
128.722067775535
20
6.37122861650516
30
0
41
1
10
128.753270060406
20
6.37014074088262
30
0
41
1
10
128.815495939274
20
6.36829182063332
30
0
41
1
10
128.908695402218
20
6.36600274613778
30
0
41
1
10
129.001481650866
20
6.36515655300207
30
0
41
1
10
129.186516957908
20
6.36534576117381
30
0
41
1
10
129.309160418682
20
6.36797472235259
30
0
41
1
10
129.553046990083
20
6.37807662803459
30
0
41
1
10
129.674295017705
20
6.38553276017299
30
0
41
1
10
130.035896137912
20
6.41501583563624
30
0
41
1
10
130.276814016163
20
6.4348278357005
30
0
41
1
10
130.758334480297
20
6.47470164561611
30
0
41
1
10
130.998930232613
20
6.49478677402513
30
0
41
1
10
131.479749469259
20
6.53525049605082
30
0
41
1
10
131.719851234709
20
6.55561867633784
30
0
41
1
10
132.439008586186
20
6.61702418633411
30
0
41
1
10
132.916953479183
20
6.65840772945495
30
0
41
1
10
133.631515308754
20
6.72009721724908
30
0
41
1
10
133.869313556061
20
6.74058694797156
30
0
41
1
10
134.344187713291
20
6.7811149874276
30
0
41
1
10
134.58124902958
20
6.80116902536685
30
0
41
1
10
134.818095709201
20
6.82070115907035
30
0
0
SPLINE
5
10E
100
AcDbEntity
8
1
62
256
6
ByLayer
370
18
48
1
60
0
100
AcDbSpline
70
4
71
3
72
8
73
4
40
0
40
0
40
0
40
0
40
1
40
1
40
1
40
1
41
1
10
134.818095709201
20
3.78332934952471
30
0
41
1
10
134.939503848332
20
3.76917340767343
30
0
41
1
10
135.059774714108
20
3.75990249898624
30
0
41
1
10
135.178919451174
20
3.75548126902552
30
0
0
SPLINE
5
10F
100
AcDbEntity
8
1
62
256
6
ByLayer
370
18
48
1
60
0
100
AcDbSpline
70
4
71
3
72
17
73
13
40
0
40
0
40
0
40
0
40
0.125000000000018
40
0.125000000000018
40
0.250000000000036
40
0.250000000000036
40
0.500000000000072
40
0.750000000000107
40
0.750000000000107
40
0.875000000000054
40
0.875000000000054
40
1
40
1
40
1
40
1
41
1
10
135.85632642665
20
-7.00436831194691
30
0
41
1
10
135.833362396718
20
-6.99917018811351
30
0
41
1
10
135.810185883804
20
-6.99409724718376
30
0
41
1
10
135.763950785605
20
-6.98432432658498
30
0
41
1
10
135.740845406123
20
-6.97961310317621
30
0
41
1
10
135.671564385531
20
-6.96600192227848
30
0
41
1
10
135.57928283249
20
-6.94924497883665
30
0
41
1
10
135.48718590068
20
-6.93528837862084
30
0
41
1
10
135.418188604059
20
-6.92590308365345
30
0
41
1
10
135.395202144328
20
-6.92295527596076
30
0
41
1
10
135.349256511426
20
-6.91742975735963
30
0
41
1
10
135.326388927561
20
-6.91486354341777
30
0
41
1
10
135.303715142353
20
-6.91250282242623
30
0
0
SPLINE
5
110
100
AcDbEntity
8
1
62
256
6
ByLayer
370
18
48
1
60
0
100
AcDbSpline
70
4
71
3
72
14
73
10
40
0
40
0
40
0
40
0
40
0.25
40
0.25
40
0.5
40
0.5
40
0.75
40
0.75
40
1
40
1
40
1
40
1
41
1
10
136.246336517324
20
-6.65436421719844
30
0
41
1
10
136.207651071133
20
-6.68864892565438
30
0
41
1
10
136.170179805405
20
-6.72161764939227
30
0
41
1
10
136.098043069623
20
-6.78496238896184
30
0
41
1
10
136.063375479758
20
-6.81533816466256
30
0
41
1
10
135.997413506974
20
-6.87356073573849
30
0
41
1
10
135.966115104129
20
-6.90140695246467
30
0
41
1
10
135.907738752851
20
-6.95467021401649
30
0
41
1
10
135.880652529506
20
-6.98008591901822
30
0
41
1
10
135.856326426658
20
-7.00436831194673
30
0
0
SPLINE
5
111
100
AcDbEntity
8
1
62
256
6
ByLayer
370
18
48
1
60
0
100
AcDbSpline
70
4
71
3
72
64
73
60
40
0
40
0
40
0
40
0
40
0.0624999999999296
40
0.0624999999999296
40
0.124999999999859
40
0.124999999999859
40
0.140624999999839
40
0.140624999999839
40
0.156249999999819
40
0.156249999999819
40
0.187499999999788
40
0.187499999999788
40
0.249999999999732
40
0.249999999999732
40
0.265624999999717
40
0.265624999999717
40
0.281249999999702
40
0.281249999999702
40
0.312499999999672
40
0.312499999999672
40
0.374999999999607
40
0.374999999999607
40
0.390624999999591
40
0.390624999999591
40
0.406249999999575
40
0.406249999999575
40
0.437499999999543
40
0.437499999999543
40
0.499999999999479
40
0.499999999999479
40
0.515624999999463
40
0.515624999999463
40
0.531249999999448
40
0.562499999999436
40
0.593749999999424
40
0.593749999999424
40
0.609374999999429
40
0.609374999999429
40
0.624999999999434
40
0.624999999999434
40
0.687499999999524
40
0.687499999999524
40
0.703124999999527
40
0.703124999999527
40
0.718749999999531
40
0.718749999999531
40
0.749999999999563
40
0.749999999999563
40
0.812499999999653
40
0.812499999999653
40
0.843749999999711
40
0.843749999999711
40
0.874999999999768
40
0.874999999999768
40
0.937499999999884
40
0.937499999999884
40
0.968749999999942
40
0.968749999999942
40
1
40
1
40
1
40
1
41
1
10
136.246336517324
20
-6.65436421719841
30
0
41
1
10
136.202324063031
20
-6.62562633023703
30
0
41
1
10
136.162608584848
20
-6.59597290342427
30
0
41
1
10
136.091793874892
20
-6.53453647697148
30
0
41
1
10
136.060689462659
20
-6.50275552965357
30
0
41
1
10
136.027608943069
20
-6.46143407746135
30
0
41
1
10
136.021284717935
20
-6.45308960915347
30
0
41
1
10
136.009238915854
20
-6.4362317433179
30
0
41
1
10
136.003541081829
20
-6.42774946371992
30
0
41
1
10
135.987522372891
20
-6.40229121989489
30
0
41
1
10
135.978229732726
20
-6.38524185048135
30
0
41
1
10
135.954492948429
20
-6.33383489066375
30
0
41
1
10
135.944155910973
20
-6.29921671744103
30
0
41
1
10
135.93850117312
20
-6.25544730483264
30
0
41
1
10
135.937736255688
20
-6.24666872648746
30
0
41
1
10
135.936960527601
20
-6.22906117021353
30
0
41
1
10
135.936951188725
20
-6.22020772628872
30
0
41
1
10
135.938085332751
20
-6.19376377678395
30
0
41
1
10
135.9403761561
20
-6.17634089736481
30
0
41
1
10
135.9517959866
20
-6.12470806374137
30
0
41
1
10
135.965431103323
20
-6.09112255222092
30
0
41
1
10
135.990404646985
20
-6.05039857358767
30
0
41
1
10
135.995799129735
20
-6.04231757729588
30
0
41
1
10
136.007411951358
20
-6.02629246342883
30
0
41
1
10
136.013648077414
20
-6.01832984460287
30
0
41
1
10
136.033396976895
20
-5.99493538621161
30
0
41
1
10
136.04799312333
20
-5.97992115111649
30
0
41
1
10
136.095996366238
20
-5.93667194037945
30
0
41
1
10
136.133582243145
20
-5.91021183285656
30
0
41
1
10
136.18783604005
20
-5.88052675115924
30
0
41
1
10
136.199087259117
20
-5.8747455395783
30
0
41
1
10
136.222089909497
20
-5.86365885226911
30
0
41
1
10
136.257387351292
20
-5.84771294850998
30
0
41
1
10
136.320083040592
20
-5.8245305760843
30
0
41
1
10
136.374244955231
20
-5.80962009482911
30
0
41
1
10
136.41635835483
20
-5.79983268017273
30
0
41
1
10
136.430645130313
20
-5.79680303592184
30
0
41
1
10
136.4597189039
20
-5.79121793070453
30
0
41
1
10
136.474461328778
20
-5.78867236009225
30
0
41
1
10
136.548657929649
20
-5.77724624345595
30
0
41
1
10
136.610042178236
20
-5.77215235649638
30
0
41
1
10
136.689052596501
20
-5.77053394287677
30
0
41
1
10
136.704969564945
20
-5.7704489902813
30
0
41
1
10
136.737030192519
20
-5.77075357201565
30
0
41
1
10
136.753204738428
20
-5.77114444212725
30
0
41
1
10
136.801834737534
20
-5.77301708370564
30
0
41
1
10
136.834284664043
20
-5.77518907408029
30
0
41
1
10
136.931714513582
20
-5.78428737341818
30
0
41
1
10
136.99677340029
20
-5.7937835448308
30
0
41
1
10
137.094506437453
20
-5.81270796530683
30
0
41
1
10
137.127190363005
20
-5.81982291627347
30
0
41
1
10
137.191804875587
20
-5.83537044352371
30
0
41
1
10
137.223819041528
20
-5.84381536728745
30
0
41
1
10
137.319039629095
20
-5.8710239264353
30
0
41
1
10
137.381428510909
20
-5.89165196310989
30
0
41
1
10
137.473509689399
20
-5.92597302776713
30
0
41
1
10
137.503997719133
20
-5.93799844723864
30
0
41
1
10
137.564251261792
20
-5.96305268801166
30
0
41
1
10
137.593977716236
20
-5.97606286368045
30
0
41
1
10
137.62331524765
20
-5.9895340993059
30
0
0
SPLINE
5
112
100
AcDbEntity
8
1
62
256
6
ByLayer
370
18
48
1
60
0
100
AcDbSpline
70
4
71
3
72
16
73
12
40
0
40
0
40
0
40
0
40
0.25
40
0.25
40
0.5
40
0.5
40
0.625
40
0.625
40
0.75
40
0.75
40
1
40
1
40
1
40
1
41
1
10
137.62331524765
20
3.77752534444508
30
0
41
1
10
137.418811248838
20
3.76866206446903
30
0
41
1
10
137.214280430248
20
3.75949975184923
30
0
41
1
10
136.805747247612
20
3.74604003404724
30
0
41
1
10
136.601715239514
20
3.74145583537674
30
0
41
1
10
136.296108917982
20
3.73845727022348
30
0
41
1
10
136.194315868446
20
3.73812217110239
30
0
41
1
10
135.990874997726
20
3.73868010583692
30
0
41
1
10
135.889223624065
20
3.73953991547455
30
0
41
1
10
135.584435192785
20
3.74342128309274
30
0
41
1
10
135.381486180338
20
3.74796441084069
30
0
41
1
10
135.178919451174
20
3.75548126902581
30
0
0
SPLINE
5
113
100
AcDbEntity
8
1
62
256
6
ByLayer
370
18
48
1
60
0
100
AcDbSpline
70
4
71
3
72
8
73
4
40
0
40
0
40
0
40
0
40
1
40
1
40
1
40
1
41
1
10
135.178919451174
20
-6.88097164669634
30
0
41
1
10
135.220519676629
20
-6.8914997447333
30
0
41
1
10
135.262117748593
20
-6.9020106313215
30
0
41
1
10
135.303715142353
20
-6.91250282242626
30
0
0
SPLINE
5
114
100
AcDbEntity
8
1
62
256
6
ByLayer
370
18
48
1
60
0
100
AcDbSpline
70
4
71
3
72
26
73
22
40
0
40
0
40
0
40
0
40
0.125000000000015
40
0.125000000000015
40
0.250000000000029
40
0.250000000000029
40
0.375000000000044
40
0.375000000000044
40
0.500000000000059
40
0.500000000000059
40
0.625000000000073
40
0.625000000000073
40
0.68750000000008
40
0.68750000000008
40
0.750000000000086
40
0.750000000000086
40
0.874999999999963
40
0.874999999999963
40
0.937499999999981
40
0.937499999999981
40
1
40
1
40
1
40
1
41
1
10
143.653727049558
20
-6.25367814857273
30
0
41
1
10
143.646999006956
20
-6.24561760160401
30
0
41
1
10
143.639892257793
20
-6.23760776813614
30
0
41
1
10
143.624760575172
20
-6.22171105745372
30
0
41
1
10
143.616743014466
20
-6.21383318039332
30
0
41
1
10
143.599693314165
20
-6.19834270982591
30
0
41
1
10
143.590652362627
20
-6.19071817726618
30
0
41
1
10
143.571256166088
20
-6.17577649128745
30
0
41
1
10
143.560905316838
20
-6.16845830981646
30
0
41
1
10
143.538431252691
20
-6.15423645721421
30
0
41
1
10
143.526311109937
20
-6.14733944635361
30
0
41
1
10
143.50663229786
20
-6.13764774989198
30
0
41
1
10
143.499809613049
20
-6.13451955672295
30
0
41
1
10
143.48552261473
20
-6.12851284660971
30
0
41
1
10
143.478020690196
20
-6.12562138137801
30
0
41
1
10
143.454628773004
20
-6.11753008613744
30
0
41
1
10
143.437922441071
20
-6.11289659569169
30
0
41
1
10
143.410329820488
20
-6.10767967576192
30
0
41
1
10
143.400860218657
20
-6.10627003003404
30
0
41
1
10
143.381603333527
20
-6.10423056860822
30
0
41
1
10
143.371774664736
20
-6.10359236757554
30
0
41
1
10
143.361720437992
20
-6.10338396565311
30
0
0
SPLINE
5
115
100
AcDbEntity
8
1
62
256
6
ByLayer
370
18
48
1
60
0
100
AcDbSpline
70
4
71
3
72
22
73
18
40
0
40
0
40
0
40
0
40
0.24999999999999
40
0.24999999999999
40
0.374999999999984
40
0.374999999999984
40
0.499999999999978
40
0.499999999999978
40
0.624999999999973
40
0.624999999999973
40
0.749999999999967
40
0.749999999999967
40
0.874999999999961
40
0.874999999999961
40
0.937499999999981
40
0.937499999999981
40
1
40
1
40
1
40
1
41
1
10
143.653727049542
20
-6.25367814857495
30
0
41
1
10
143.677332367172
20
-6.28195855384547
30
0
41
1
10
143.701944637646
20
-6.30753926803217
30
0
41
1
10
143.740423090607
20
-6.34093330382746
30
0
41
1
10
143.7535114439
20
-6.3512299940158
30
0
41
1
10
143.780263586968
20
-6.36988587191678
30
0
41
1
10
143.793863686058
20
-6.37819900549491
30
0
41
1
10
143.82146703888
20
-6.39239960268119
30
0
41
1
10
143.835483478847
20
-6.39830094952433
30
0
41
1
10
143.864030915602
20
-6.40716165727596
30
0
41
1
10
143.878564983753
20
-6.41013100340706
30
0
41
1
10
143.908281753878
20
-6.4121957484569
30
0
41
1
10
143.923265673635
20
-6.41128360103093
30
0
41
1
10
143.945966508812
20
-6.40601649744215
30
0
41
1
10
143.953571012216
20
-6.40360570110553
30
0
41
1
10
143.968861336538
20
-6.39720482918207
30
0
41
1
10
143.976579900522
20
-6.3931896667973
30
0
41
1
10
143.984197955592
20
-6.38829209330089
30
0
0
SPLINE
5
116
100
AcDbEntity
8
1
62
256
6
ByLayer
370
18
48
1
60
0
100
AcDbSpline
70
4
71
3
72
18
73
14
40
0
40
0
40
0
40
0
40
0.125
40
0.125
40
0.25
40
0.25
40
0.5
40
0.5
40
0.625
40
0.625
40
0.75
40
0.75
40
1
40
1
40
1
40
1
41
1
10
144.107233537471
20
-5.99814572051073
30
0
41
1
10
144.107768346209
20
-6.01639736114868
30
0
41
1
10
144.107612793219
20
-6.03456921708457
30
0
41
1
10
144.1058483112
20
-6.07077099107775
30
0
41
1
10
144.104226696433
20
-6.0888415661683
30
0
41
1
10
144.097216831803
20
-6.14183584238179
30
0
41
1
10
144.089694588501
20
-6.17588857416658
30
0
41
1
10
144.074130665359
20
-6.22524089325682
30
0
41
1
10
144.068226449971
20
-6.24140203239298
30
0
41
1
10
144.054947882756
20
-6.27315513973721
30
0
41
1
10
144.047567887721
20
-6.28873636887707
30
0
41
1
10
144.023621133628
20
-6.33381455883401
30
0
41
1
10
144.00514332156
20
-6.36195515826105
30
0
41
1
10
143.984197955592
20
-6.38829209330098
30
0
0
SPLINE
5
117
100
AcDbEntity
8
1
62
256
6
ByLayer
370
18
48
1
60
0
100
AcDbSpline
70
4
71
3
72
34
73
30
40
0
40
0
40
0
40
0
40
0.124999999999955
40
0.124999999999955
40
0.187499999999927
40
0.187499999999927
40
0.249999999999899
40
0.249999999999899
40
0.374999999999844
40
0.374999999999844
40
0.406249999999858
40
0.406249999999858
40
0.437499999999873
40
0.437499999999873
40
0.499999999999903
40
0.499999999999903
40
0.625000000000011
40
0.625000000000011
40
0.656250000000052
40
0.656250000000052
40
0.687500000000093
40
0.750000000000114
40
0.812500000000135
40
0.812500000000135
40
0.843750000000113
40
0.843750000000113
40
0.87500000000009
40
0.87500000000009
40
1
40
1
40
1
40
1
41
1
10
144.107233537471
20
3.43756003203845
30
0
41
1
10
144.10866312464
20
3.45517304725246
30
0
41
1
10
144.105151246246
20
3.47259619770762
30
0
41
1
10
144.092744648526
20
3.49845662018859
30
0
41
1
10
144.087410464003
20
3.50703070361809
30
0
41
1
10
144.074283840275
20
3.52408441224654
30
0
41
1
10
144.066451040399
20
3.53258902251849
30
0
41
1
10
144.039725495315
20
3.55740899032028
30
0
41
1
10
144.017535067673
20
3.57321172292757
30
0
41
1
10
143.984344022727
20
3.59203758364956
30
0
41
1
10
143.977430673821
20
3.59575595461897
30
0
41
1
10
143.963043795541
20
3.60309741018568
30
0
41
1
10
143.955550240648
20
3.60672957377844
30
0
41
1
10
143.932357512229
20
3.61741130715285
30
0
41
1
10
143.916023430336
20
3.62421624723163
30
0
41
1
10
143.86447993199
20
3.64370980654147
30
0
41
1
10
143.826754323688
20
3.65548624962213
30
0
41
1
10
143.77526182387
20
3.66863510223931
30
0
41
1
10
143.764713610151
20
3.67119231497571
30
0
41
1
10
143.743375279595
20
3.67609745084528
30
0
41
1
10
143.710981341214
20
3.68314943914862
30
0
41
1
10
143.65509862275
20
3.693405340998
30
0
41
1
10
143.608399559429
20
3.70003349343276
30
0
41
1
10
143.572615040815
20
3.70440320132065
30
0
41
1
10
143.560559930517
20
3.70575935116983
30
0
41
1
10
143.536190699475
20
3.70826674967682
30
0
41
1
10
143.523870665994
20
3.70941780634794
30
0
41
1
10
143.46222378137
20
3.71460121515003
30
0
41
1
10
143.412285648901
20
3.71698749529918
30
0
41
1
10
143.361720437992
20
3.71759503479424
30
0
0
SPLINE
5
118
100
AcDbEntity
8
1
62
256
6
ByLayer
370
18
48
1
60
0
100
AcDbSpline
70
4
71
3
72
35
73
31
40
0
40
0
40
0
40
0
40
0.0624999999999911
40
0.0624999999999911
40
0.124999999999982
40
0.124999999999982
40
0.187499999999973
40
0.187499999999973
40
0.218749999999969
40
0.218749999999969
40
0.249999999999964
40
0.249999999999964
40
0.374999999999924
40
0.374999999999924
40
0.406249999999913
40
0.406249999999913
40
0.437499999999902
40
0.499999999999897
40
0.499999999999897
40
0.624999999999888
40
0.624999999999888
40
0.656249999999894
40
0.656249999999894
40
0.687499999999899
40
0.687499999999899
40
0.749999999999919
40
0.749999999999919
40
0.87499999999996
40
0.87499999999996
40
1
40
1
40
1
40
1
41
1
10
141.128240519801
20
-4.42450010416158
30
0
41
1
10
141.18329564683
20
-4.41042125077061
30
0
41
1
10
141.236692435282
20
-4.39373351530281
30
0
41
1
10
141.340420102415
20
-4.35545144375504
30
0
41
1
10
141.390749690753
20
-4.33385510949623
30
0
41
1
10
141.488481101206
20
-4.28587574072171
30
0
41
1
10
141.53588222622
20
-4.25949169688079
30
0
41
1
10
141.604831889962
20
-4.21630955650872
30
0
41
1
10
141.627438035757
20
-4.20131869950043
30
0
41
1
10
141.671436239
20
-4.17049610872971
30
0
41
1
10
141.692896349565
20
-4.15462298142771
30
0
41
1
10
141.797625312485
20
-4.07301727866852
30
0
41
1
10
141.873236722513
20
-4.0006104106867
30
0
41
1
10
141.958825580128
20
-3.90176199434907
30
0
41
1
10
141.975524362831
20
-3.88153129041268
30
0
41
1
10
142.007789339756
20
-3.84056914194144
30
0
41
1
10
142.05456155872
20
-3.77829898130131
30
0
41
1
10
142.09674525416
20
-3.71363747178859
30
0
41
1
10
142.17560046367
20
-3.58130488770001
30
0
41
1
10
142.220847295941
20
-3.48908018789439
30
0
41
1
10
142.269687291771
20
-3.36917457103053
30
0
41
1
10
142.279067141912
20
-3.34496138286025
30
0
41
1
10
142.297078639976
20
-3.29607744294907
30
0
41
1
10
142.305721549275
20
-3.27137125480897
30
0
41
1
10
142.330456565356
20
-3.19691536824854
30
0
41
1
10
142.345372686259
20
-3.14680366293754
30
0
41
1
10
142.385904000215
20
-2.99510932471165
30
0
41
1
10
142.407321288114
20
-2.89217026816959
30
0
41
1
10
142.441005548386
20
-2.68292373747508
30
0
41
1
10
142.453262805048
20
-2.5766149356117
30
0
41
1
10
142.461705449199
20
-2.46870763411576
30
0
0
SPLINE
5
119
100
AcDbEntity
8
1
62
256
6
ByLayer
370
18
48
1
60
0
100
AcDbSpline
70
4
71
3
72
8
73
4
40
0
40
0
40
0
40
0
40
1
40
1
40
1
40
1
41
1
10
143.361720437992
20
-6.10338396565311
30
0
41
1
10
142.617263357698
20
-6.08795301400824
30
0
41
1
10
141.872768022936
20
-6.07292683701831
30
0
41
1
10
141.128240519801
20
-6.05824103707337
30
0
0
SPLINE
5
11A
100
AcDbEntity
8
1
62
256
6
ByLayer
370
18
48
1
60
0
100
AcDbSpline
70
4
71
3
72
8
73
4
40
0
40
0
40
0
40
0
40
1
40
1
40
1
40
1
41
1
10
143.361720437992
20
3.71759503479424
30
0
41
1
10
142.617227123934
20
3.72654009967135
30
0
41
1
10
141.872734101796
20
3.73550878254352
30
0
41
1
10
141.128240519802
20
3.74443111615056
30
0
0
SPLINE
5
11B
100
AcDbEntity
8
1
62
256
6
ByLayer
370
18
48
1
60
0
100
AcDbSpline
70
4
71
3
72
8
73
4
40
0
40
0
40
0
40
0
40
1
40
1
40
1
40
1
41
1
10
141.128240519802
20
3.74443111615056
30
0
41
1
10
141.127657372095
20
3.7444381048453
30
0
41
1
10
141.127074222158
20
3.74444491341578
30
0
41
1
10
141.126491071361
20
3.74445154184718
30
0
0
SPLINE
5
11C
100
AcDbEntity
8
1
62
256
6
ByLayer
370
18
48
1
60
0
100
AcDbSpline
70
4
71
3
72
17
73
13
40
0
40
0
40
0
40
0
40
0.125
40
0.125
40
0.249999999999999
40
0.249999999999999
40
0.499999999999998
40
0.749999999999997
40
0.749999999999997
40
0.874999999999999
40
0.874999999999999
40
1
40
1
40
1
40
1
41
1
10
139.11337004903
20
-1.67704790262707
30
0
41
1
10
139.101157065425
20
-1.7058293746548
30
0
41
1
10
139.089730375954
20
-1.73497886415549
30
0
41
1
10
139.068483522576
20
-1.794025297368
30
0
41
1
10
139.058655554848
20
-1.82396932779025
30
0
41
1
10
139.031975382039
20
-1.91375936757186
30
0
41
1
10
139.003572143502
20
-2.03409376906333
30
0
41
1
10
138.989135319852
20
-2.15556441167624
30
0
41
1
10
138.983608714179
20
-2.24708676240894
30
0
41
1
10
138.982652101402
20
-2.27766438975903
30
0
41
1
10
138.982547184874
20
-2.33896240480996
30
0
41
1
10
138.983407193494
20
-2.36972449077879
30
0
41
1
10
138.98516570898
20
-2.40017809919843
30
0
0
SPLINE
5
11D
100
AcDbEntity
8
1
62
256
6
ByLayer
370
18
48
1
60
0
100
AcDbSpline
70
4
71
3
72
20
73
16
40
0
40
0
40
0
40
0
40
0.25000000000002
40
0.25000000000002
40
0.37500000000003
40
0.37500000000003
40
0.50000000000004
40
0.50000000000004
40
0.750000000000033
40
0.750000000000033
40
0.87500000000003
40
0.87500000000003
40
0.937500000000015
40
0.937500000000015
40
1
40
1
40
1
40
1
41
1
10
141.126491071361
20
3.74445154184718
30
0
41
1
10
140.865265161998
20
3.74742078758089
30
0
41
1
10
140.604038662324
20
3.75034276171624
30
0
41
1
10
140.212199891671
20
3.75480318325461
30
0
41
1
10
140.081589168533
20
3.7564649928332
30
0
41
1
10
139.820358859137
20
3.75908326819965
30
0
41
1
10
139.689739375969
20
3.7600479645065
30
0
41
1
10
139.297875317455
20
3.76249577925213
30
0
41
1
10
139.036624525027
20
3.76348430354287
30
0
41
1
10
138.644777480165
20
3.76728535036344
30
0
41
1
10
138.514166380088
20
3.76891680064074
30
0
41
1
10
138.318261968502
20
3.77233715551637
30
0
41
1
10
138.252962317398
20
3.77362194319812
30
0
41
1
10
138.122368789918
20
3.77665060413236
30
0
41
1
10
138.057075415544
20
3.77843438603594
30
0
41
1
10
137.991782503143
20
3.78025475319799
30
0
0
SPLINE
5
11E
100
AcDbEntity
8
1
62
256
6
ByLayer
370
18
48
1
60
0
100
AcDbSpline
70
4
71
3
72
8
73
4
40
0
40
0
40
0
40
0
40
1
40
1
40
1
40
1
41
1
10
141.126491071361
20
-6.05820964830775
30
0
41
1
10
140.081616610888
20
-6.04132523704604
30
0
41
1
10
139.036712177394
20
-6.02486490562583
30
0
41
1
10
137.991782503143
20
-6.0087616985993
30
0
0
SPLINE
5
11F
100
AcDbEntity
8
1
62
256
6
ByLayer
370
18
48
1
60
0
100
AcDbSpline
70
4
71
3
72
48
73
44
40
0
40
0
40
0
40
0
40
0.125000000000039
40
0.125000000000039
40
0.250000000000079
40
0.250000000000079
40
0.312500000000099
40
0.312500000000099
40
0.343750000000109
40
0.343750000000109
40
0.375000000000119
40
0.375000000000119
40
0.437500000000129
40
0.437500000000129
40
0.500000000000138
40
0.500000000000138
40
0.515625000000141
40
0.515625000000141
40
0.531250000000143
40
0.562500000000148
40
0.562500000000148
40
0.625000000000142
40
0.625000000000142
40
0.656250000000131
40
0.656250000000131
40
0.671875000000134
40
0.671875000000134
40
0.687500000000137
40
0.687500000000137
40
0.750000000000092
40
0.750000000000092
40
0.812500000000047
40
0.812500000000047
40
0.828125000000047
40
0.828125000000047
40
0.843750000000047
40
0.875000000000047
40
0.875000000000047
40
0.937500000000024
40
0.937500000000024
40
0.968750000000012
40
0.968750000000012
40
1
40
1
40
1
40
1
41
1
10
138.98516570898
20
-2.40017809919843
30
0
41
1
10
138.9934426057
20
-2.54351568913577
30
0
41
1
10
139.008060468204
20
-2.68405930949251
30
0
41
1
10
139.053452928674
20
-2.95915068469284
30
0
41
1
10
139.084185765504
20
-3.09370441034162
30
0
41
1
10
139.146196545336
20
-3.29054888171109
30
0
41
1
10
139.169534433326
20
-3.35533030661975
30
0
41
1
10
139.209253980361
20
-3.45115589717278
30
0
41
1
10
139.223284967752
20
-3.48286605459296
30
0
41
1
10
139.252738827837
20
-3.54516951544878
30
0
41
1
10
139.268193921501
20
-3.57584408399424
30
0
41
1
10
139.316855636583
20
-3.66640588854799
30
0
41
1
10
139.352351161826
20
-3.72483451621383
30
0
41
1
10
139.430197113772
20
-3.83757231752406
30
0
41
1
10
139.472542303562
20
-3.89188377109511
30
0
41
1
10
139.530408382167
20
-3.9569757892879
30
0
41
1
10
139.542231023382
20
-3.96985395032826
30
0
41
1
10
139.566233526005
20
-3.99516129458155
30
0
41
1
10
139.602827755536
20
-4.0325112166388
30
0
41
1
10
139.641218097856
20
-4.06802308057138
30
0
41
1
10
139.720479081815
20
-4.13656455307941
30
0
41
1
10
139.776615753948
20
-4.17895927185074
30
0
41
1
10
139.866269999853
20
-4.23732439257611
30
0
41
1
10
139.897065407938
20
-4.25590601760493
30
0
41
1
10
139.944717043021
20
-4.28240707314504
30
0
41
1
10
139.960836273068
20
-4.29100541892666
30
0
41
1
10
139.993276442809
20
-4.30758597789043
30
0
41
1
10
140.009632777566
20
-4.31558830499532
30
0
41
1
10
140.092095681854
20
-4.35417120350638
30
0
41
1
10
140.160237237577
20
-4.38048585586523
30
0
41
1
10
140.300995700051
20
-4.42397916609505
30
0
41
1
10
140.373609356506
20
-4.44116421147081
30
0
41
1
10
140.467420903009
20
-4.45654256616328
30
0
41
1
10
140.486341402541
20
-4.45930967064731
30
0
41
1
10
140.524088525343
20
-4.46416832899507
30
0
41
1
10
140.580718567759
20
-4.47046880449639
30
0
41
1
10
140.637376345383
20
-4.47385455903483
30
0
41
1
10
140.750728466036
20
-4.4767991382283
30
0
41
1
10
140.826345130597
20
-4.47368313586901
30
0
41
1
10
140.939844407985
20
-4.4612032044466
30
0
41
1
10
140.97777463838
20
-4.45571361454242
30
0
41
1
10
141.052683795286
20
-4.44222096925952
30
0
41
1
10
141.089769718439
20
-4.434212047465
30
0
41
1
10
141.126491071361
20
-4.42494454816796
30
0
0
SPLINE
5
120
100
AcDbEntity
8
1
62
256
6
ByLayer
370
18
48
1
60
0
100
AcDbSpline
70
4
71
3
72
14
73
10
40
0
40
0
40
0
40
0
40
0.499999999999717
40
0.499999999999717
40
0.624999999999718
40
0.624999999999718
40
0.749999999999719
40
0.749999999999719
40
1
40
1
40
1
40
1
41
1
10
137.991782503143
20
-6.0087616985993
30
0
41
1
10
137.945145912404
20
-6.00804299121239
30
0
41
1
10
137.899742791896
20
-6.01046049138108
30
0
41
1
10
137.844356796642
20
-6.01696038744601
30
0
41
1
10
137.833348577493
20
-6.01843575418337
30
0
41
1
10
137.81146787969
20
-6.02173161991612
30
0
41
1
10
137.800623426009
20
-6.02354938945001
30
0
41
1
10
137.76877350133
20
-6.02941127311823
30
0
41
1
10
137.748284165302
20
-6.03388626074809
30
0
41
1
10
137.728441795215
20
-6.03885439078726
30
0
0
SPLINE
5
121
100
AcDbEntity
8
1
62
256
6
ByLayer
370
18
48
1
60
0
100
AcDbSpline
70
4
71
3
72
10
73
6
40
0
40
0
40
0
40
0
40
0.5
40
0.5
40
1
40
1
40
1
40
1
41
1
10
137.991782503143
20
3.78025475319799
30
0
41
1
10
137.929832859558
20
3.78198190998637
30
0
41
1
10
137.868159305706
20
3.78271331835279
30
0
41
1
10
137.745336136935
20
3.78178337111831
30
0
41
1
10
137.684188556053
20
3.7801636164524
30
0
41
1
10
137.62331524765
20
3.77752534444508
30
0
0
SPLINE
5
122
100
AcDbEntity
8
1
62
256
6
ByLayer
370
18
48
1
60
0
100
AcDbSpline
70
4
71
3
72
8
73
4
40
0
40
0
40
0
40
0
40
1
40
1
40
1
40
1
41
1
10
137.62331524765
20
-5.9895340993059
30
0
41
1
10
137.659289332321
20
-6.00605271377918
30
0
41
1
10
137.69434174736
20
-6.02245053816713
30
0
41
1
10
137.728441795215
20
-6.03885439078726
30
0
0
SPLINE
5
123
100
AcDbEntity
8
1
62
256
6
ByLayer
370
18
48
1
60
0
100
AcDbSpline
70
4
71
3
72
34
73
30
40
0
40
0
40
0
40
0
40
0.12500000000004
40
0.12500000000004
40
0.18750000000006
40
0.18750000000006
40
0.21875000000007
40
0.21875000000007
40
0.25000000000008
40
0.25000000000008
40
0.37500000000012
40
0.37500000000012
40
0.40625000000013
40
0.40625000000013
40
0.437500000000139
40
0.437500000000139
40
0.500000000000139
40
0.500000000000139
40
0.62500000000012
40
0.62500000000012
40
0.656250000000106
40
0.656250000000106
40
0.687500000000092
40
0.750000000000073
40
0.812500000000054
40
0.812500000000054
40
0.875000000000035
40
0.875000000000035
40
1
40
1
40
1
40
1
41
1
10
141.128240519802
20
-0.513695105037755
30
0
41
1
10
141.234819486753
20
-0.534133402752161
30
0
41
1
10
141.33762032169
20
-0.564668396000599
30
0
41
1
10
141.486274365309
20
-0.625244471063809
30
0
41
1
10
141.534894787954
20
-0.647915529181944
30
0
41
1
10
141.606385835577
20
-0.685746424125938
30
0
41
1
10
141.630040189536
20
-0.69903447657012
30
0
41
1
10
141.67651272504
20
-0.726710723829541
30
0
41
1
10
141.699302886039
20
-0.741076855133429
30
0
41
1
10
141.811065857503
20
-0.81549117537287
30
0
41
1
10
141.893527692962
20
-0.883229126396486
30
0
41
1
10
141.988044553095
20
-0.977910698791845
30
0
41
1
10
142.006516690629
20
-0.99735120532344
30
0
41
1
10
142.042588906647
20
-1.03724910525869
30
0
41
1
10
142.060218912248
20
-1.05774789037642
30
0
41
1
10
142.111245217313
20
-1.12011025302112
30
0
41
1
10
142.142955199892
20
-1.1630150524978
30
0
41
1
10
142.231492369176
20
-1.29548562823641
30
0
41
1
10
142.281765803723
20
-1.38878477991153
30
0
41
1
10
142.334064254457
20
-1.51128044562213
30
0
41
1
10
142.343959786036
20
-1.53600175373609
30
0
41
1
10
142.362542654039
20
-1.58557879163507
30
0
41
1
10
142.388660845268
20
-1.66027965845532
30
0
41
1
10
142.423731447041
20
-1.78636606958142
30
0
41
1
10
142.443257685744
20
-1.88877761990815
30
0
41
1
10
142.458682048988
20
-1.9919065585446
30
0
41
1
10
142.464346879372
20
-2.04398119197617
30
0
41
1
10
142.475249644115
20
-2.19953838687431
30
0
41
1
10
142.474531107324
20
-2.30266201016846
30
0
41
1
10
142.466635535043
20
-2.4051936737967
30
0
0
SPLINE
5
124
100
AcDbEntity
8
1
62
256
6
ByLayer
370
18
48
1
60
0
100
AcDbSpline
70
4
71
3
72
8
73
4
40
0
40
0
40
0
40
0
40
1
40
1
40
1
40
1
41
1
10
141.126491071364
20
-0.513361072251598
30
0
41
1
10
141.127074267574
20
-0.513471941166472
30
0
41
1
10
141.127657417067
20
-0.513583285345476
30
0
41
1
10
141.128240519802
20
-0.513695105037755
30
0
0
SPLINE
5
125
100
AcDbEntity
8
1
62
256
6
ByLayer
370
18
48
1
60
0
100
AcDbSpline
70
4
71
3
72
34
73
30
40
0
40
0
40
0
40
0
40
0.124999999999989
40
0.124999999999989
40
0.249999999999977
40
0.249999999999977
40
0.374999999999966
40
0.374999999999966
40
0.406249999999963
40
0.406249999999963
40
0.43749999999996
40
0.43749999999996
40
0.499999999999928
40
0.499999999999928
40
0.624999999999891
40
0.624999999999891
40
0.65624999999989
40
0.65624999999989
40
0.687499999999889
40
0.687499999999889
40
0.749999999999917
40
0.749999999999917
40
0.874999999999942
40
0.874999999999942
40
0.906249999999965
40
0.906249999999965
40
0.937499999999987
40
0.937499999999987
40
1
40
1
40
1
40
1
41
1
10
139.11337004903
20
-1.67704790262707
30
0
41
1
10
139.153427712372
20
-1.58264684927485
30
0
41
1
10
139.200302927237
20
-1.49044633039571
30
0
41
1
10
139.309252776295
20
-1.31118537947458
30
0
41
1
10
139.369868316247
20
-1.22655331125961
30
0
41
1
10
139.503399701711
20
-1.06769226040262
30
0
41
1
10
139.576323892933
20
-0.993431330241208
30
0
41
1
10
139.675773945317
20
-0.90767529385684
30
0
41
1
10
139.696081137174
20
-0.890879701404856
30
0
41
1
10
139.73755564684
20
-0.858024355282936
30
0
41
1
10
139.758704902247
20
-0.841983549703627
30
0
41
1
10
139.822782192882
20
-0.795487060031661
30
0
41
1
10
139.86655275854
20
-0.766481642858167
30
0
41
1
10
140.000993155066
20
-0.685405468695222
30
0
41
1
10
140.094768433111
20
-0.639230985133736
30
0
41
1
10
140.217402997067
20
-0.5918450122428
30
0
41
1
10
140.242202529674
20
-0.582887901571354
30
0
41
1
10
140.292360622558
20
-0.566041182311807
30
0
41
1
10
140.317790414062
20
-0.558132503118145
30
0
41
1
10
140.394270098332
20
-0.536244962434523
30
0
41
1
10
140.44554545551
20
-0.524071638033121
30
0
41
1
10
140.600222486679
20
-0.494678633898502
30
0
41
1
10
140.704467821077
20
-0.48452523462123
30
0
41
1
10
140.836237143138
20
-0.48408936814559
30
0
41
1
10
140.862664722939
20
-0.484619833299121
30
0
41
1
10
140.915671157062
20
-0.486948216844155
30
0
41
1
10
140.942257485733
20
-0.488749909808433
30
0
41
1
10
141.02162397797
20
-0.496043116465842
30
0
41
1
10
141.074218365416
20
-0.503423733685906
30
0
41
1
10
141.126491071364
20
-0.51336107225157
30
0
0
SPLINE
5
126
100
AcDbEntity
8
1
62
256
6
ByLayer
370
18
48
1
60
0
100
AcDbSpline
70
4
71
3
72
38
73
34
40
0
40
0
40
0
40
0
40
0.0624999999999936
40
0.0624999999999936
40
0.0937499999999898
40
0.0937499999999898
40
0.124999999999986
40
0.124999999999986
40
0.187499999999979
40
0.187499999999979
40
0.249999999999971
40
0.249999999999971
40
0.312499999999964
40
0.312499999999964
40
0.374999999999956
40
0.374999999999956
40
0.437499999999949
40
0.437499999999949
40
0.499999999999942
40
0.499999999999942
40
0.624999999999927
40
0.624999999999927
40
0.749999999999912
40
0.749999999999912
40
0.812499999999941
40
0.812499999999941
40
0.874999999999971
40
0.874999999999971
40
0.906249999999984
40
0.906249999999984
40
0.937499999999997
40
0.937499999999997
40
1
40
1
40
1
40
1
41
1
10
139.054084186902
20
5.33964652118306
30
0
41
1
10
139.065608903825
20
5.33247108190003
30
0
41
1
10
139.077981786864
20
5.32735555900305
30
0
41
1
10
139.097403367678
20
5.32173848499176
30
0
41
1
10
139.104026212909
20
5.3202235070635
30
0
41
1
10
139.117338142601
20
5.3178435517716
30
0
41
1
10
139.124053469121
20
5.31697082035041
30
0
41
1
10
139.144358898132
20
5.31517966218613
30
0
41
1
10
139.157962232639
20
5.31509135732841
30
0
41
1
10
139.185220874489
20
5.31665908313337
30
0
41
1
10
139.19883445522
20
5.31832091716763
30
0
41
1
10
139.225833038745
20
5.32310127811593
30
0
41
1
10
139.239290054972
20
5.32623676012022
30
0
41
1
10
139.265826299301
20
5.33377283013169
30
0
41
1
10
139.27892007273
20
5.33817307413798
30
0
41
1
10
139.304788440301
20
5.34815497983701
30
0
41
1
10
139.317551639792
20
5.35373693970897
30
0
41
1
10
139.342517739744
20
5.36593135661468
30
0
41
1
10
139.354753710592
20
5.37255617872304
30
0
41
1
10
139.390723069058
20
5.3940082631199
30
0
41
1
10
139.413406228514
20
5.41020077536612
30
0
41
1
10
139.455797653478
20
5.4463830901112
30
0
41
1
10
139.475374326792
20
5.46626692062998
30
0
41
1
10
139.501212796121
20
5.49867406493618
30
0
41
1
10
139.509257706208
20
5.50994652509354
30
0
41
1
10
139.523774530799
20
5.53326597388528
30
0
41
1
10
139.530297749158
20
5.54538574928392
30
0
41
1
10
139.538541432113
20
5.56418011018809
30
0
41
1
10
139.541026520062
20
5.57053520971144
30
0
41
1
10
139.545389603962
20
5.58345717898735
30
0
41
1
10
139.547271836385
20
5.59004812986379
30
0
41
1
10
139.551757290462
20
5.60989743206108
30
0
41
1
10
139.553279474974
20
5.62328845872384
30
0
41
1
10
139.552586662391
20
5.63693101346547
30
0
0
SPLINE
5
127
100
AcDbEntity
8
1
62
256
6
ByLayer
370
18
48
1
60
0
100
AcDbSpline
70
4
71
3
72
8
73
4
40
0
40
0
40
0
40
0
40
1
40
1
40
1
40
1
41
1
10
139.552586662391
20
5.63693101346547
30
0
41
1
10
139.552210477439
20
5.64433867886308
30
0
41
1
10
139.551834013608
20
5.65174580348372
30
0
41
1
10
139.551457284924
20
5.6591524124868
30
0
0
SPLINE
5
128
100
AcDbEntity
8
1
62
256
6
ByLayer
370
18
48
1
60
0
100
AcDbSpline
70
4
71
3
72
30
73
26
40
0
40
0
40
0
40
0
40
0.249999999999742
40
0.249999999999742
40
0.374999999999712
40
0.374999999999712
40
0.499999999999683
40
0.499999999999683
40
0.624999999999654
40
0.624999999999654
40
0.687499999999639
40
0.687499999999639
40
0.749999999999624
40
0.749999999999624
40
0.781249999999681
40
0.781249999999681
40
0.812499999999738
40
0.812499999999738
40
0.874999999999846
40
0.874999999999846
40
0.906249999999884
40
0.906249999999884
40
0.937499999999923
40
0.937499999999923
40
1
40
1
40
1
40
1
41
1
10
139.837471285305
20
5.85435153845418
30
0
41
1
10
139.804330905176
20
5.85318843843478
30
0
41
1
10
139.77131769377
20
5.84927607196528
30
0
41
1
10
139.722724463045
20
5.83877042897578
30
0
41
1
10
139.706713554622
20
5.8344915087236
30
0
41
1
10
139.675275996629
20
5.82411281157766
30
0
41
1
10
139.659851652041
20
5.81801781487866
30
0
41
1
10
139.63009376764
20
5.80357140496608
30
0
41
1
10
139.615826669663
20
5.79526144675646
30
0
41
1
10
139.596091419199
20
5.78067638616309
30
0
41
1
10
139.589779749277
20
5.77545076138233
30
0
41
1
10
139.577854190883
20
5.76405575827999
30
0
41
1
10
139.572300236429
20
5.75793230287667
30
0
41
1
10
139.564918975646
20
5.74814086984952
30
0
41
1
10
139.562609424924
20
5.74476778454422
30
0
41
1
10
139.558335752837
20
5.73777251413713
30
0
41
1
10
139.556364037012
20
5.73413045245979
30
0
41
1
10
139.551160611616
20
5.72301553260561
30
0
41
1
10
139.548597541034
20
5.71531177564324
30
0
41
1
10
139.546350345487
20
5.70324417025088
30
0
41
1
10
139.545877999458
20
5.69915581953717
30
0
41
1
10
139.545509895104
20
5.69105921644947
30
0
41
1
10
139.545607837963
20
5.68702121982528
30
0
41
1
10
139.546729957124
20
5.67493824774911
30
0
41
1
10
139.54861548642
20
5.66687315215296
30
0
41
1
10
139.551457284924
20
5.6591524124868
30
0
0
SPLINE
5
129
100
AcDbEntity
8
1
62
256
6
ByLayer
370
18
48
1
60
0
100
AcDbSpline
70
4
71
3
72
8
73
4
40
0
40
0
40
0
40
0
40
1
40
1
40
1
40
1
41
1
10
139.035303141348
20
5.35134125796395
30
0
41
1
10
139.041562812133
20
5.34744297147009
30
0
41
1
10
139.047823149518
20
5.34354472483557
30
0
41
1
10
139.054084186902
20
5.33964652118306
30
0
0
SPLINE
5
12A
100
AcDbEntity
8
1
62
256
6
ByLayer
370
18
48
1
60
0
100
AcDbSpline
70
4
71
3
72
28
73
24
40
0
40
0
40
0
40
0
40
0.250000000000385
40
0.250000000000385
40
0.375000000000513
40
0.375000000000513
40
0.500000000000642
40
0.500000000000642
40
0.62500000000077
40
0.62500000000077
40
0.687500000000742
40
0.687500000000742
40
0.750000000000714
40
0.750000000000714
40
0.812500000000685
40
0.812500000000685
40
0.843750000000571
40
0.843750000000571
40
0.875000000000457
40
0.875000000000457
40
0.937500000000228
40
0.937500000000228
40
1
40
1
40
1
40
1
41
1
10
138.730671767962
20
5.19430600457946
30
0
41
1
10
138.747249830495
20
5.22280158825905
30
0
41
1
10
138.766201386705
20
5.24989424756888
30
0
41
1
10
138.798222575618
20
5.28745546972297
30
0
41
1
10
138.809513148011
20
5.29946525355385
30
0
41
1
10
138.833368574218
20
5.32205267361837
30
0
41
1
10
138.845978402164
20
5.33267571877283
30
0
41
1
10
138.872556976497
20
5.35181067365264
30
0
41
1
10
138.886658054337
20
5.36041497375552
30
0
41
1
10
138.908730726427
20
5.37072740499164
30
0
41
1
10
138.916252438013
20
5.37373933854346
30
0
41
1
10
138.931705687318
20
5.37868295013965
30
0
41
1
10
138.939712542971
20
5.38062410884996
30
0
41
1
10
138.955760323712
20
5.3829709692661
30
0
41
1
10
138.963816306302
20
5.38339715179805
30
0
41
1
10
138.975954312411
20
5.38261142025627
30
0
41
1
10
138.980025550843
20
5.38210381838391
30
0
41
1
10
138.987967943783
20
5.38058567139902
30
0
41
1
10
138.99186340737
20
5.37957558381004
30
0
41
1
10
139.003310344544
20
5.37575691146102
30
0
41
1
10
139.010709991074
20
5.37207687872962
30
0
41
1
10
139.023976530309
20
5.36297701358242
30
0
41
1
10
139.029943978303
20
5.35755640556644
30
0
41
1
10
139.035303141348
20
5.35134125796395
30
0
0
SPLINE
5
12B
100
AcDbEntity
8
1
62
256
6
ByLayer
370
18
48
1
60
0
100
AcDbSpline
70
4
71
3
72
38
73
34
40
0
40
0
40
0
40
0
40
0.0625000000000245
40
0.0625000000000245
40
0.0937500000000574
40
0.0937500000000574
40
0.12500000000009
40
0.12500000000009
40
0.187500000000091
40
0.187500000000091
40
0.250000000000093
40
0.250000000000093
40
0.312500000000094
40
0.312500000000094
40
0.375000000000095
40
0.375000000000095
40
0.437500000000096
40
0.437500000000096
40
0.500000000000097
40
0.500000000000097
40
0.624999999999991
40
0.624999999999991
40
0.749999999999885
40
0.749999999999885
40
0.812499999999888
40
0.812499999999888
40
0.874999999999892
40
0.874999999999892
40
0.906249999999893
40
0.906249999999893
40
0.937499999999895
40
0.937499999999895
40
1
40
1
40
1
40
1
41
1
10
140.145109152265
20
5.65772627642818
30
0
41
1
10
140.146193804688
20
5.64410472163655
30
0
41
1
10
140.149374572996
20
5.63086874407807
30
0
41
1
10
140.156230057565
20
5.61138719409595
30
0
41
1
10
140.158877021717
20
5.60495881595915
30
0
41
1
10
140.164707277099
20
5.59239489761015
30
0
41
1
10
140.167899713461
20
5.58623294568312
30
0
41
1
10
140.178196904726
20
5.56805621718087
30
0
41
1
10
140.185939674207
20
5.55647619739324
30
0
41
1
10
140.202752126491
20
5.53421047872851
30
0
41
1
10
140.21180232912
20
5.52356326936325
30
0
41
1
10
140.230830374184
20
5.50324738096569
30
0
41
1
10
140.240862123207
20
5.49352677387563
30
0
41
1
10
140.261607893665
20
5.47508830455902
30
0
41
1
10
140.272330146804
20
5.46635791987688
30
0
41
1
10
140.294416283377
20
5.44980573549694
30
0
41
1
10
140.305773753155
20
5.4419937605729
30
0
41
1
10
140.328874676924
20
5.42740184902226
30
0
41
1
10
140.34064611812
20
5.4206005368263
30
0
41
1
10
140.376616565086
20
5.40167564968417
30
0
41
1
10
140.401138398285
20
5.39118094686026
30
0
41
1
10
140.451102840251
20
5.37476523521616
30
0
41
1
10
140.476393772454
20
5.36889865696679
30
0
41
1
10
140.514200630758
20
5.36447830422918
30
0
41
1
10
140.526821887824
20
5.36373940564766
30
0
41
1
10
140.551766703228
20
5.36401048293817
30
0
41
1
10
140.564171273795
20
5.36501623761137
30
0
41
1
10
140.582407374358
20
5.3681595087364
30
0
41
1
10
140.588412241805
20
5.36947820154518
30
0
41
1
10
140.600258120146
20
5.372742952019
30
0
41
1
10
140.606119157365
20
5.37469838698166
30
0
41
1
10
140.62315266448
20
5.38158755467123
30
0
41
1
10
140.633858836277
20
5.38750660747053
30
0
41
1
10
140.643611627754
20
5.39543282749855
30
0
0
SPLINE
5
12C
100
AcDbEntity
8
1
62
256
6
ByLayer
370
18
48
1
60
0
100
AcDbSpline
70
4
71
3
72
8
73
4
40
0
40
0
40
0
40
0
40
1
40
1
40
1
40
1
41
1
10
140.643611627754
20
5.39543282749855
30
0
41
1
10
140.648907220649
20
5.39973662447409
30
0
41
1
10
140.654201591229
20
5.40404039696577
30
0
41
1
10
140.659494799229
20
5.40834414511957
30
0
0
SPLINE
5
12D
100
AcDbEntity
8
1
62
256
6
ByLayer
370
18
48
1
60
0
100
AcDbSpline
70
4
71
3
72
28
73
24
40
0
40
0
40
0
40
0
40
0.250000000000047
40
0.250000000000047
40
0.37500000000007
40
0.37500000000007
40
0.500000000000093
40
0.500000000000093
40
0.625000000000116
40
0.625000000000116
40
0.68750000000013
40
0.68750000000013
40
0.750000000000143
40
0.750000000000143
40
0.812500000000157
40
0.812500000000157
40
0.84375000000011
40
0.84375000000011
40
0.875000000000064
40
0.875000000000064
40
0.937500000000032
40
0.937500000000032
40
1
40
1
40
1
40
1
41
1
10
139.837471285305
20
5.85435153845418
30
0
41
1
10
139.870627410371
20
5.85551519106039
30
0
41
1
10
139.903882002564
20
5.8539219813095
30
0
41
1
10
139.953152674446
20
5.84684721023223
30
0
41
1
10
139.969486972036
20
5.84369420954945
30
0
41
1
10
140.001676040947
20
5.83554411000537
30
0
41
1
10
140.017593476705
20
5.83053317138632
30
0
41
1
10
140.048466171689
20
5.81823137249617
30
0
41
1
10
140.063572135581
20
5.81087775296461
30
0
41
1
10
140.084664590353
20
5.79767856099673
30
0
41
1
10
140.091446187263
20
5.79291196793568
30
0
41
1
10
140.104381690935
20
5.78245292124353
30
0
41
1
10
140.110586916592
20
5.77670166836072
30
0
41
1
10
140.121797359714
20
5.76434780253825
30
0
41
1
10
140.126827640926
20
5.75774338799289
30
0
41
1
10
140.133281308883
20
5.74702723417721
30
0
41
1
10
140.135253602782
20
5.74330210348464
30
0
41
1
10
140.138686559717
20
5.73575194054126
30
0
41
1
10
140.140161748113
20
5.73190653535701
30
0
41
1
10
140.143830290341
20
5.72015070366615
30
0
41
1
10
140.145252755943
20
5.71190181233121
30
0
41
1
10
140.145849415674
20
5.69577091027031
30
0
41
1
10
140.145081437804
20
5.68780320328023
30
0
41
1
10
140.143340655652
20
5.67992524482293
30
0
0
SPLINE
5
12E
100
AcDbEntity
8
1
62
256
6
ByLayer
370
18
48
1
60
0
100
AcDbSpline
70
4
71
3
72
8
73
4
40
0
40
0
40
0
40
0
40
1
40
1
40
1
40
1
41
1
10
140.143340655652
20
5.67992524482293
30
0
41
1
10
140.143930389754
20
5.67252611149166
30
0
41
1
10
140.144519892728
20
5.66512646372644
30
0
41
1
10
140.145109152265
20
5.65772627642818
30
0
0
SPLINE
5
12F
100
AcDbEntity
8
1
62
256
6
ByLayer
370
18
48
1
60
0
100
AcDbSpline
70
4
71
3
72
30
73
26
40
0
40
0
40
0
40
0
40
0.250000000000312
40
0.250000000000312
40
0.37500000000047
40
0.37500000000047
40
0.500000000000628
40
0.500000000000628
40
0.625000000000786
40
0.625000000000786
40
0.687500000000865
40
0.687500000000865
40
0.750000000000945
40
0.750000000000945
40
0.781250000000893
40
0.781250000000893
40
0.81250000000084
40
0.81250000000084
40
0.875000000000557
40
0.875000000000557
40
0.906250000000417
40
0.906250000000417
40
0.937500000000277
40
0.937500000000277
40
1
40
1
40
1
40
1
41
1
10
140.944270802648
20
5.27199482619716
30
0
41
1
10
140.927700612583
20
5.29931377808396
30
0
41
1
10
140.908975988099
20
5.32505424848523
30
0
41
1
10
140.877638951882
20
5.36040002787914
30
0
41
1
10
140.866664361584
20
5.37160819777841
30
0
41
1
10
140.843567187693
20
5.39255555384963
30
0
41
1
10
140.831449035833
20
5.40229537774542
30
0
41
1
10
140.80600032237
20
5.41964371587534
30
0
41
1
10
140.792733014953
20
5.42721846330309
30
0
41
1
10
140.772042626284
20
5.43603584480317
30
0
41
1
10
140.765001123153
20
5.43855428415352
30
0
41
1
10
140.750554886247
20
5.44249472058735
30
0
41
1
10
140.743214248196
20
5.4438908145228
30
0
41
1
10
140.732225767891
20
5.44485697939399
30
0
41
1
10
140.728556871108
20
5.44499286522174
30
0
41
1
10
140.721207361782
20
5.44483891197956
30
0
41
1
10
140.717508157009
20
5.44454479360542
30
0
41
1
10
140.706629841162
20
5.44295975187885
30
0
41
1
10
140.699616996968
20
5.44097984530728
30
0
41
1
10
140.689532280243
20
5.43638494991077
30
0
41
1
10
140.686262936087
20
5.43458412073366
30
0
41
1
10
140.680078291619
20
5.43053839602999
30
0
41
1
10
140.677137745996
20
5.4282828170731
30
0
41
1
10
140.668763433175
20
5.42083289242683
30
0
41
1
10
140.663756226815
20
5.41489989743496
30
0
41
1
10
140.659494799229
20
5.40834414511957
30
0
0
SPLINE
5
130
100
AcDbEntity
8
1
62
256
6
ByLayer
370
18
48
1
60
0
100
AcDbSpline
70
4
71
3
72
38
73
34
40
0
40
0
40
0
40
0
40
0.0625000000000145
40
0.0625000000000145
40
0.0937500000000208
40
0.0937500000000208
40
0.125000000000027
40
0.125000000000027
40
0.187500000000039
40
0.187500000000039
40
0.250000000000051
40
0.250000000000051
40
0.312500000000064
40
0.312500000000064
40
0.375000000000076
40
0.375000000000076
40
0.437500000000088
40
0.437500000000088
40
0.5000000000001
40
0.5000000000001
40
0.625000000000128
40
0.625000000000128
40
0.750000000000157
40
0.750000000000157
40
0.812500000000151
40
0.812500000000151
40
0.875000000000145
40
0.875000000000145
40
0.90625000000011
40
0.90625000000011
40
0.937500000000074
40
0.937500000000074
40
1
40
1
40
1
40
1
41
1
10
138.757822941965
20
4.27083313226703
30
0
41
1
10
138.76915155526
20
4.2754800344679
30
0
41
1
10
138.779173749516
20
4.28191966964602
30
0
41
1
10
138.792920035047
20
4.29339439248335
30
0
41
1
10
138.79727800476
20
4.29753410535017
30
0
41
1
10
138.805492262018
20
4.30623466873735
30
0
41
1
10
138.809367253374
20
4.31081092315253
30
0
41
1
10
138.820392556925
20
4.32513704741203
30
0
41
1
10
138.826871962935
20
4.33537567760482
30
0
41
1
10
138.838448176547
20
4.35692094801698
30
0
41
1
10
138.843520557365
20
4.36819931705907
30
0
41
1
10
138.852396509174
20
4.3914622042366
30
0
41
1
10
138.856220348286
20
4.40351122917752
30
0
41
1
10
138.862693339147
20
4.42810374687934
30
0
41
1
10
138.865349541202
20
4.44065792639236
30
0
41
1
10
138.869589266763
20
4.46626564044155
30
0
41
1
10
138.871167236194
20
4.47931080880338
30
0
41
1
10
138.873261521253
20
4.50563321705738
30
0
41
1
10
138.873783549784
20
4.5189429224728
30
0
41
1
10
138.873782326895
20
4.55932016613585
30
0
41
1
10
138.871714239122
20
4.58647191931263
30
0
41
1
10
138.863225197259
20
4.64092479501247
30
0
41
1
10
138.856826216426
20
4.6680616901935
30
0
41
1
10
138.843498354727
20
4.70764196956205
30
0
41
1
10
138.838411637364
20
4.72068677203811
30
0
41
1
10
138.826855686154
20
4.74601913893329
30
0
41
1
10
138.820353370244
20
4.75839054266604
30
0
41
1
10
138.809345583474
20
4.77609764300868
30
0
41
1
10
138.805474028651
20
4.78184635595738
30
0
41
1
10
138.797258585581
20
4.79298710742626
30
0
41
1
10
138.792897446232
20
4.79839680863836
30
0
41
1
10
138.779170958842
20
4.81374314273307
30
0
41
1
10
138.76915756629
20
4.8228945707844
30
0
41
1
10
138.757822941965
20
4.83041107347907
30
0
0
SPLINE
5
131
100
AcDbEntity
8
1
62
256
6
ByLayer
370
18
48
1
60
0
100
AcDbSpline
70
4
71
3
72
8
73
4
40
0
40
0
40
0
40
0
40
1
40
1
40
1
40
1
41
1
10
138.757822941965
20
4.83041107347907
30
0
41
1
10
138.751668441873
20
4.83449240120521
30
0
41
1
10
138.74551462406
20
4.83857374145273
30
0
41
1
10
138.739361455984
20
4.84265509257474
30
0
0
SPLINE
5
132
100
AcDbEntity
8
1
62
256
6
ByLayer
370
18
48
1
60
0
100
AcDbSpline
70
4
71
3
72
30
73
26
40
0
40
0
40
0
40
0
40
0.250000000000064
40
0.250000000000064
40
0.375000000000099
40
0.375000000000099
40
0.500000000000134
40
0.500000000000134
40
0.62500000000017
40
0.62500000000017
40
0.687500000000187
40
0.687500000000187
40
0.750000000000205
40
0.750000000000205
40
0.781250000000217
40
0.781250000000217
40
0.812500000000229
40
0.812500000000229
40
0.875000000000148
40
0.875000000000148
40
0.90625000000011
40
0.90625000000011
40
0.937500000000073
40
0.937500000000073
40
1
40
1
40
1
40
1
41
1
10
138.730671767962
20
5.19430600457946
30
0
41
1
10
138.714101577897
20
5.16582395267326
30
0
41
1
10
138.699913692691
20
5.13596720593665
30
0
41
1
10
138.682999781743
20
5.08942269709758
30
0
41
1
10
138.678109993441
20
5.07363890021395
30
0
41
1
10
138.670148429149
20
5.04154577866393
30
0
41
1
10
138.667074137931
20
5.02524138308897
30
0
41
1
10
138.66335143083
20
4.99225911046065
30
0
41
1
10
138.662704138589
20
4.9756606346071
30
0
41
1
10
138.66432448886
20
4.95091121144949
30
0
41
1
10
138.665299387857
20
4.94267091612542
30
0
41
1
10
138.66837462307
20
4.92621256043466
30
0
41
1
10
138.670468695765
20
4.91807058207772
30
0
41
1
10
138.674587280013
20
4.90627752701053
30
0
41
1
10
138.676125885449
20
4.90240557541648
30
0
41
1
10
138.679580917328
20
4.89479643092633
30
0
41
1
10
138.681509486948
20
4.89104132144143
30
0
41
1
10
138.687810669382
20
4.8802432711247
30
0
41
1
10
138.692710727653
20
4.87360764396433
30
0
41
1
10
138.701284433878
20
4.86464424044613
30
0
41
1
10
138.704335885289
20
4.86184147907429
30
0
41
1
10
138.710666651281
20
4.85674935000239
30
0
41
1
10
138.713966713082
20
4.85443727521434
30
0
41
1
10
138.724261330291
20
4.84818799073756
30
0
41
1
10
138.731708123925
20
4.84493398383535
30
0
41
1
10
138.739361455984
20
4.84265509257474
30
0
0
SPLINE
5
133
100
AcDbEntity
8
1
62
256
6
ByLayer
370
18
48
1
60
0
100
AcDbSpline
70
4
71
3
72
8
73
4
40
0
40
0
40
0
40
0
40
1
40
1
40
1
40
1
41
1
10
138.739361455984
20
4.26326283834854
30
0
41
1
10
138.74551462406
20
4.26578519491321
30
0
41
1
10
138.751668441873
20
4.26830860792532
30
0
41
1
10
138.757822941965
20
4.27083313226703
30
0
0
SPLINE
5
134
100
AcDbEntity
8
1
62
256
6
ByLayer
370
18
48
1
60
0
100
AcDbSpline
70
4
71
3
72
28
73
24
40
0
40
0
40
0
40
0
40
0.249999999999951
40
0.249999999999951
40
0.374999999999961
40
0.374999999999961
40
0.499999999999972
40
0.499999999999972
40
0.624999999999982
40
0.624999999999982
40
0.687499999999987
40
0.687499999999987
40
0.749999999999993
40
0.749999999999993
40
0.812499999999998
40
0.812499999999998
40
0.843749999999998
40
0.843749999999998
40
0.874999999999998
40
0.874999999999998
40
0.937499999999999
40
0.937499999999999
40
1
40
1
40
1
40
1
41
1
10
138.730671767962
20
3.95190375844774
30
0
41
1
10
138.714093705429
20
3.97923568952112
30
0
41
1
10
138.699891618218
20
4.00771714845143
30
0
41
1
10
138.682984579459
20
4.05165972992833
30
0
41
1
10
138.678087760906
20
4.06652504469298
30
0
41
1
10
138.670133154864
20
4.09649505686613
30
0
41
1
10
138.667058161312
20
4.11165802241817
30
0
41
1
10
138.663349846537
20
4.14190858390194
30
0
41
1
10
138.662700879971
20
4.1571458058321
30
0
41
1
10
138.664348874603
20
4.17930525362891
30
0
41
1
10
138.665334248911
20
4.18658715653734
30
0
41
1
10
138.668403563749
20
4.2008729480221
30
0
41
1
10
138.670514744608
20
4.2079385532592
30
0
41
1
10
138.676036229494
20
4.22125395673976
30
0
41
1
10
138.679436424646
20
4.22752624523028
30
0
41
1
10
138.685747763432
20
4.2361870603755
30
0
41
1
10
138.68806774909
20
4.23895700529755
30
0
41
1
10
138.6930322021
20
4.24406766200445
30
0
41
1
10
138.695687619382
20
4.24642684280164
30
0
41
1
10
138.704196096573
20
4.25288566612286
30
0
41
1
10
138.710701025692
20
4.25638589284725
30
0
41
1
10
138.72443500542
20
4.26126224417169
30
0
41
1
10
138.731711658908
20
4.26271341690475
30
0
41
1
10
138.739361455984
20
4.26326283834854
30
0
0
SPLINE
5
135
100
AcDbEntity
8
1
62
256
6
ByLayer
370
18
48
1
60
0
100
AcDbSpline
70
4
71
3
72
38
73
34
40
0
40
0
40
0
40
0
40
0.0625000000000071
40
0.0625000000000071
40
0.0937500000000107
40
0.0937500000000107
40
0.125000000000014
40
0.125000000000014
40
0.187500000000018
40
0.187500000000018
40
0.250000000000021
40
0.250000000000021
40
0.312500000000025
40
0.312500000000025
40
0.375000000000029
40
0.375000000000029
40
0.437500000000032
40
0.437500000000032
40
0.500000000000036
40
0.500000000000036
40
0.625000000000044
40
0.625000000000044
40
0.750000000000051
40
0.750000000000051
40
0.812500000000055
40
0.812500000000055
40
0.875000000000059
40
0.875000000000059
40
0.90625000000006
40
0.90625000000006
40
0.937500000000062
40
0.937500000000062
40
1
40
1
40
1
40
1
41
1
10
140.939872872691
20
4.90699264275727
30
0
41
1
10
140.930321356986
20
4.89874731394093
30
0
41
1
10
140.92195932178
20
4.88894603979602
30
0
41
1
10
140.91057341482
20
4.87269181069178
30
0
41
1
10
140.906979622375
20
4.86700472314143
30
0
41
1
10
140.900230531014
20
4.85533736041447
30
0
41
1
10
140.897059742053
20
4.84933517381796
30
0
41
1
10
140.888068570113
20
4.83089015740148
30
0
41
1
10
140.882826846071
20
4.81814535773447
30
0
41
1
10
140.873510680551
20
4.79202373920728
30
0
41
1
10
140.869456305163
20
4.77868402145032
30
0
41
1
10
140.862391180052
20
4.7517544099361
30
0
41
1
10
140.859364484756
20
4.73809125668831
30
0
41
1
10
140.854256527875
20
4.710734695734
30
0
41
1
10
140.852169689351
20
4.69702761787011
30
0
41
1
10
140.848844952914
20
4.66956715176136
30
0
41
1
10
140.847611462922
20
4.65582445053124
30
0
41
1
10
140.845975395613
20
4.62857420187254
30
0
41
1
10
140.845568364841
20
4.61503163867934
30
0
41
1
10
140.845569318951
20
4.57465493926441
30
0
41
1
10
140.847178578664
20
4.54843226230085
30
0
41
1
10
140.853835570805
20
4.49768908522239
30
0
41
1
10
140.858865107752
20
4.47332516286713
30
0
41
1
10
140.869474024001
20
4.43925044814807
30
0
41
1
10
140.873540000596
20
4.42827253314638
30
0
41
1
10
140.882840031013
20
4.40750815703905
30
0
41
1
10
140.888100419519
20
4.39765151932093
30
0
41
1
10
140.897077467964
20
4.3840564401053
30
0
41
1
10
140.900245472137
20
4.37973233962487
30
0
41
1
10
140.906995617948
20
4.37155865348956
30
0
41
1
10
140.910592088193
20
4.36769732287414
30
0
41
1
10
140.921961706879
20
4.35712338795335
30
0
41
1
10
140.930316288895
20
4.35133086827776
30
0
41
1
10
140.939872872691
20
4.34741470154523
30
0
0
SPLINE
5
136
100
AcDbEntity
8
1
62
256
6
ByLayer
370
18
48
1
60
0
100
AcDbSpline
70
4
71
3
72
8
73
4
40
0
40
0
40
0
40
0
40
1
40
1
40
1
40
1
41
1
10
140.939872872691
20
4.34741470154523
30
0
41
1
10
140.945061928293
20
4.3452882924272
30
0
41
1
10
140.950249779302
20
4.3431629284168
30
0
41
1
10
140.955436484592
20
4.34103855784028
30
0
0
SPLINE
5
137
100
AcDbEntity
8
1
62
256
6
ByLayer
370
18
48
1
60
0
100
AcDbSpline
70
4
71
3
72
28
73
24
40
0
40
0
40
0
40
0
40
0.250000000000007
40
0.250000000000007
40
0.37500000000001
40
0.37500000000001
40
0.500000000000014
40
0.500000000000014
40
0.625000000000017
40
0.625000000000017
40
0.687500000000019
40
0.687500000000019
40
0.75000000000002
40
0.75000000000002
40
0.812500000000022
40
0.812500000000022
40
0.84375000000002
40
0.84375000000002
40
0.875000000000018
40
0.875000000000018
40
0.937500000000009
40
0.937500000000009
40
1
40
1
40
1
40
1
41
1
10
140.944270802648
20
5.27199482619716
30
0
41
1
10
140.960848865181
20
5.24466289512378
30
0
41
1
10
140.975252849937
20
5.21577261593271
30
0
41
1
10
140.992844777115
20
5.17044321094684
30
0
41
1
10
140.998035408955
20
5.15498295668422
30
0
41
1
10
141.006748088321
20
5.1234779296401
30
0
41
1
10
141.010288310394
20
5.10737292764517
30
0
41
1
10
141.01516823692
20
5.07474998158901
30
0
41
1
10
141.016529042459
20
5.05807136425022
30
0
41
1
10
141.016216602455
20
5.03320756563909
30
0
41
1
10
141.015721747411
20
5.02493241532179
30
0
41
1
10
141.013755570982
20
5.00841289022983
30
0
41
1
10
141.012263491849
20
5.00009367228066
30
0
41
1
10
141.008110301498
20
4.98400762328401
30
0
41
1
10
141.005459093894
20
4.97621871761993
30
0
41
1
10
141.000401756375
20
4.96501868821736
30
0
41
1
10
140.998523852967
20
4.96135357549909
30
0
41
1
10
140.994469433969
20
4.95440020028894
30
0
41
1
10
140.992284300868
20
4.95108874589565
30
0
41
1
10
140.985235988167
20
4.94167325053314
30
0
41
1
10
140.97978655543
20
4.93603576005049
30
0
41
1
10
140.968180776151
20
4.9268500375475
30
0
41
1
10
140.961986577909
20
4.92320701233228
30
0
41
1
10
140.955436484592
20
4.92043081206648
30
0
0
SPLINE
5
138
100
AcDbEntity
8
1
62
256
6
ByLayer
370
18
48
1
60
0
100
AcDbSpline
70
4
71
3
72
8
73
4
40
0
40
0
40
0
40
0
40
1
40
1
40
1
40
1
41
1
10
140.955436484592
20
4.92043081206648
30
0
41
1
10
140.950249779302
20
4.91595147495633
30
0
41
1
10
140.945061928293
20
4.91147208570706
30
0
41
1
10
140.939872872691
20
4.90699264275727
30
0
0
SPLINE
5
139
100
AcDbEntity
8
1
62
256
6
ByLayer
370
18
48
1
60
0
100
AcDbSpline
70
4
71
3
72
30
73
26
40
0
40
0
40
0
40
0
40
0.250000000000079
40
0.250000000000079
40
0.375000000000119
40
0.375000000000119
40
0.500000000000158
40
0.500000000000158
40
0.625000000000198
40
0.625000000000198
40
0.687500000000218
40
0.687500000000218
40
0.750000000000238
40
0.750000000000238
40
0.781250000000219
40
0.781250000000219
40
0.812500000000201
40
0.812500000000201
40
0.875000000000085
40
0.875000000000085
40
0.906250000000027
40
0.906250000000027
40
0.937499999999969
40
0.937499999999969
40
1
40
1
40
1
40
1
41
1
10
140.944270802648
20
4.02959258006538
30
0
41
1
10
140.960840992713
20
4.05807463197158
30
0
41
1
10
140.975230281349
20
4.08752355897656
30
0
41
1
10
140.992828759416
20
4.13268189490429
30
0
41
1
10
140.998011607366
20
4.14787227832358
30
0
41
1
10
141.006730811277
20
4.17843126320787
30
0
41
1
10
141.010268905515
20
4.19379650882249
30
0
41
1
10
141.01516454029
20
4.22440373227917
30
0
41
1
10
141.016516829169
20
4.23957466770034
30
0
41
1
10
141.016226903029
20
4.26163012872965
30
0
41
1
10
141.01574213561
20
4.26887796166781
30
0
41
1
10
141.013776013799
20
4.28309048504934
30
0
41
1
10
141.012296719299
20
4.28998760536999
30
0
41
1
10
141.009200864503
20
4.29970974609947
30
0
41
1
10
141.008020777815
20
4.30285573677151
30
0
41
1
10
141.005324135218
20
4.30892922661121
30
0
41
1
10
141.003797726942
20
4.31187000373265
30
0
41
1
10
140.998749128474
20
4.32013170967113
30
0
41
1
10
140.99474963952
20
4.32494378329241
30
0
41
1
10
140.987648303389
20
4.33092579976588
30
0
41
1
10
140.985105758546
20
4.33269808146727
30
0
41
1
10
140.979803444312
20
4.33570770916344
30
0
41
1
10
140.977026529149
20
4.33696046970994
30
0
41
1
10
140.968328282392
20
4.33997728009297
30
0
41
1
10
140.961989604716
20
4.34098747439938
30
0
41
1
10
140.955436484592
20
4.34103855784028
30
0
0
SPLINE
5
13A
100
AcDbEntity
8
1
62
256
6
ByLayer
370
18
48
1
60
0
100
AcDbSpline
70
4
71
3
72
8
73
4
40
0
40
0
40
0
40
0
40
1
40
1
40
1
40
1
41
1
10
139.054084186902
20
3.78239294752572
30
0
41
1
10
139.047823149518
20
3.78004406915832
30
0
41
1
10
139.041562812133
20
3.77769627290374
30
0
41
1
10
139.035303141347
20
3.77534950529545
30
0
0
SPLINE
5
13B
100
AcDbEntity
8
1
62
256
6
ByLayer
370
18
48
1
60
0
100
AcDbSpline
70
4
71
3
72
18
73
14
40
0
40
0
40
0
40
0
40
0.361443594807148
40
0.361443594807148
40
0.542165392210723
40
0.542165392210723
40
0.722887189614298
40
0.722887189614298
40
0.903608987017874
40
0.903608987017874
40
0.993969885719795
40
0.993969885719795
40
1
40
1
40
1
40
1
41
1
10
138.730671767962
20
3.95190375844774
30
0
41
1
10
138.747241958026
20
3.92458480656094
30
0
41
1
10
138.76616798594
20
3.89843651642801
30
0
41
1
10
138.798189589277
20
3.86170456412279
30
0
41
1
10
138.809457239222
20
3.84990298075911
30
0
41
1
10
138.833312052733
20
3.8274214880222
30
0
41
1
10
138.845894007614
20
3.81674251416607
30
0
41
1
10
138.87251564875
20
3.79701912686454
30
0
41
1
10
138.886487952805
20
3.78801683900434
30
0
41
1
10
138.908508765606
20
3.776505495376
30
0
41
1
10
138.916040400314
20
3.77299459363974
30
0
41
1
10
138.924337108265
20
3.76969504306371
30
0
41
1
10
138.924856932612
20
3.76949064060042
30
0
41
1
10
138.925377511155
20
3.7692883006325
30
0
0
SPLINE
5
13C
100
AcDbEntity
8
1
62
256
6
ByLayer
370
18
48
1
60
0
100
AcDbSpline
70
4
71
3
72
22
73
18
40
0
40
0
40
0
40
0
40
0.0998751076528314
40
0.0998751076528314
40
0.199750215305662
40
0.199750215305662
40
0.399500430611325
40
0.399500430611325
40
0.499375538263964
40
0.499375538263964
40
0.599250645916602
40
0.599250645916602
40
0.799000861221491
40
0.799000861221491
40
0.99875107652638
40
0.99875107652638
40
1
40
1
40
1
40
1
41
1
10
139.054084186902
20
3.78239294752575
30
0
41
1
10
139.059871976126
20
3.78456428305162
30
0
41
1
10
139.065908703057
20
3.78629250374075
30
0
41
1
10
139.078389444633
20
3.78903334308779
30
0
41
1
10
139.084834174275
20
3.79004037861211
30
0
41
1
10
139.104308426992
20
3.79212550542786
30
0
41
1
10
139.117611437507
20
3.79231709674528
30
0
41
1
10
139.13793612339
20
3.79132062039585
30
0
41
1
10
139.144780332086
20
3.79076743513485
30
0
41
1
10
139.158389655784
20
3.78929653750251
30
0
41
1
10
139.165180648942
20
3.78837791900713
30
0
41
1
10
139.185520777303
20
3.78514417253388
30
0
41
1
10
139.199037458939
20
3.7823554450454
30
0
41
1
10
139.226012634943
20
3.77573551944636
30
0
41
1
10
139.239527076609
20
3.77188058899333
30
0
41
1
10
139.252844790364
20
3.76761720619939
30
0
41
1
10
139.252927532182
20
3.76759070001089
30
0
41
1
10
139.253010265194
20
3.76756417849936
30
0
0
SPLINE
5
13D
100
AcDbEntity
8
1
62
256
6
ByLayer
370
18
48
1
60
0
100
AcDbSpline
70
4
71
3
72
26
73
22
40
0
40
0
40
0
40
0
40
0.0063950961876841
40
0.0063950961876841
40
0.130595709164084
40
0.130595709164084
40
0.254796322140484
40
0.254796322140484
40
0.503197548093508
40
0.503197548093508
40
0.565297854581708
40
0.565297854581708
40
0.627398161069908
40
0.627398161069908
40
0.751598774046528
40
0.751598774046528
40
0.813699080534946
40
0.813699080534946
40
0.875799387023365
40
0.875799387023365
40
1
40
1
40
1
40
1
41
1
10
140.351098597084
20
3.75336553682888
30
0
41
1
10
140.351715618971
20
3.75373512163799
30
0
41
1
10
140.352333214921
20
3.75410406218711
30
0
41
1
10
140.364956986179
20
3.76162512595746
30
0
41
1
10
140.377094366977
20
3.76848473548094
30
0
41
1
10
140.401637150241
20
3.78160985624851
30
0
41
1
10
140.414089516853
20
3.78789703039484
30
0
41
1
10
140.451474591715
20
3.80560091902726
30
0
41
1
10
140.476412090178
20
3.81590492893062
30
0
41
1
10
140.507736909412
20
3.82641525418546
30
0
41
1
10
140.514010011276
20
3.82839568344795
30
0
41
1
10
140.526578442651
20
3.8320843329785
30
0
41
1
10
140.532892704927
20
3.8337967555926
30
0
41
1
10
140.55165488496
20
3.83841263972613
30
0
41
1
10
140.563968144289
20
3.84082033101385
30
0
41
1
10
140.582116215726
20
3.84314742575535
30
0
41
1
10
140.588111559919
20
3.84370722767272
30
0
41
1
10
140.599981652563
20
3.84431033799672
30
0
41
1
10
140.605884674288
20
3.84435103223237
30
0
41
1
10
140.623028754299
20
3.84352939408592
30
0
41
1
10
140.633802279034
20
3.84177891889135
30
0
41
1
10
140.643611627754
20
3.83817925384122
30
0
0
SPLINE
5
13E
100
AcDbEntity
8
1
62
256
6
ByLayer
370
18
48
1
60
0
100
AcDbSpline
70
4
71
3
72
28
73
24
40
0
40
0
40
0
40
0
40
0.249999999999823
40
0.249999999999823
40
0.374999999999734
40
0.374999999999734
40
0.499999999999643
40
0.499999999999643
40
0.624999999999551
40
0.624999999999551
40
0.687499999999592
40
0.687499999999592
40
0.749999999999633
40
0.749999999999633
40
0.812499999999673
40
0.812499999999673
40
0.843749999999783
40
0.843749999999783
40
0.874999999999893
40
0.874999999999893
40
0.937499999999947
40
0.937499999999947
40
1
40
1
40
1
40
1
41
1
10
140.944270802648
20
4.02959258006538
30
0
41
1
10
140.927692740115
20
4.0010969963858
30
0
41
1
10
140.90894308145
20
3.97359551681524
30
0
41
1
10
140.877606780956
20
3.9346474711522
30
0
41
1
10
140.866610021849
20
3.92204274782336
30
0
41
1
10
140.843512668967
20
3.89792031288783
30
0
41
1
10
140.831368069542
20
3.88635523129051
30
0
41
1
10
140.80596110696
20
3.86484789183831
30
0
41
1
10
140.792571868093
20
3.85480219632677
30
0
41
1
10
140.77183475063
20
3.84178541427633
30
0
41
1
10
140.764803558309
20
3.83778023331564
30
0
41
1
10
140.750453447412
20
3.83060288811228
30
0
41
1
10
140.743065693486
20
3.82740811668989
30
0
41
1
10
140.728386207279
20
3.82229061075768
30
0
41
1
10
140.721079212237
20
3.82034781105213
30
0
41
1
10
140.710195207396
20
3.81859432833659
30
0
41
1
10
140.706566051214
20
3.81820676241276
30
0
41
1
10
140.699533692287
20
3.81788219089441
30
0
41
1
10
140.69610851288
20
3.81794000488725
30
0
41
1
10
140.686121740195
20
3.81880200519501
30
0
41
1
10
140.679777590048
20
3.82034477416815
30
0
41
1
10
140.668639251262
20
3.82513526813682
30
0
41
1
10
140.663754258513
20
3.82836402367059
30
0
41
1
10
140.659494799229
20
3.83235239245107
30
0
0
SPLINE
5
13F
100
AcDbEntity
8
1
62
256
6
ByLayer
370
18
48
1
60
0
100
AcDbSpline
70
4
71
3
72
8
73
4
40
0
40
0
40
0
40
0
40
1
40
1
40
1
40
1
41
1
10
140.659494799229
20
3.83235239245107
30
0
41
1
10
140.654201591229
20
3.83429369839942
30
0
41
1
10
140.648907220649
20
3.83623596879681
30
0
41
1
10
140.643611627754
20
3.83817925384125
30
0
0
SPLINE
5
140
100
AcDbEntity
8
1
62
256
6
ByLayer
370
18
48
1
60
0
100
AcDbSpline
70
4
71
3
72
12
73
8
40
0
40
0
40
0
40
0
40
0.504351814563372
40
0.684024883136098
40
0.863697951708824
40
0.953534485995187
40
1
40
1
40
1
40
1
41
1
10
144.109640163246
20
-1.77969851764016
30
0
41
1
10
144.131259596637
20
-1.80607589110588
30
0
41
1
10
144.157557768416
20
-1.84419507860471
30
0
41
1
10
144.18457994957
20
-1.89481549109345
30
0
41
1
10
144.197062346472
20
-1.92209854205282
30
0
41
1
10
144.20507668974
20
-1.9419416913602
30
0
41
1
10
144.208049240645
20
-1.94984169927801
30
0
41
1
10
144.209027030162
20
-1.95247271975464
30
0
0
SPLINE
5
141
100
AcDbEntity
8
1
62
256
6
ByLayer
370
18
48
1
60
0
100
AcDbSpline
70
4
71
3
72
13
73
9
40
0
40
0
40
0
40
0
40
0.0057614727139887
40
0.0296295181346366
40
0.22057388149982
40
0.602462608230188
40
0.984351334960555
40
1
40
1
40
1
40
1
41
1
10
144.209027030162
20
-1.95247271975461
30
0
41
1
10
144.209939701201
20
-1.95492852046826
30
0
41
1
10
144.214473982628
20
-1.96727971998453
30
0
41
1
10
144.245453754098
20
-2.05090707827765
30
0
41
1
10
144.332085984143
20
-2.28560828858934
30
0
41
1
10
144.468798200808
20
-2.65542243143403
30
0
41
1
10
144.580016757795
20
-2.95624852538467
30
0
41
1
10
144.637739297385
20
-3.11259105071591
30
0
41
1
10
144.640008363088
20
-3.11875293946258
30
0
0
SPLINE
5
142
100
AcDbEntity
8
1
62
256
6
ByLayer
370
13
48
1
60
0
100
AcDbSpline
70
4
71
3
72
9
73
5
40
0
40
0
40
0
40
0
40
0.463200002179827
40
1
40
1
40
1
40
1
41
1
10
144.209019968192
20
-1.95247400246115
30
0
41
1
10
144.19341342912
20
-1.94737968135974
30
0
41
1
10
144.159683204149
20
-1.93640756838866
30
0
41
1
10
144.125875443662
20
-1.92549240108025
30
0
41
1
10
144.107706650585
20
-1.91964996538783
30
0
0
SPLINE
5
143
100
AcDbEntity
8
1
62
256
6
ByLayer
370
18
48
1
60
0
100
AcDbSpline
70
4
71
3
72
17
73
13
40
0
40
0
40
0
40
0
40
0.0295634678907746
40
0.0735446958500567
40
0.161507151768621
40
0.33743206360575
40
0.513356975442878
40
0.689281887280007
40
0.865206799117135
40
0.953169255035699
40
0.997150482994981
40
1
40
1
40
1
40
1
41
1
10
144.640008363088
20
-3.11875293946258
30
0
41
1
10
144.64466105884
20
-3.1313878286023
30
0
41
1
10
144.656202832151
20
-3.16289920062343
30
0
41
1
10
144.680823389811
20
-3.2328994954847
30
0
41
1
10
144.725134270425
20
-3.36706866671463
30
0
41
1
10
144.780657445392
20
-3.56074009317629
30
0
41
1
10
144.83473162481
20
-3.79560547638099
30
0
41
1
10
144.876180991675
20
-4.03282549773115
30
0
41
1
10
144.899945442219
20
-4.2311873436592
30
0
41
1
10
144.911106781478
20
-4.37069906740044
30
0
41
1
10
144.914580409742
20
-4.43151736151015
30
0
41
1
10
144.915708581516
20
-4.45254265610484
30
0
41
1
10
144.915776957563
20
-4.45382159919228
30
0
0
SPLINE
5
144
100
AcDbEntity
8
1
62
256
6
ByLayer
370
13
48
1
60
0
100
AcDbSpline
70
4
71
3
72
11
73
7
40
0
40
0
40
0
40
0
40
0.249255887038228
40
0.499007732287033
40
0.749255712187896
40
1
40
1
40
1
40
1
41
1
10
144.469789631694
20
-3.0075674532095
30
0
41
1
10
144.484030866749
20
-3.0167751892636
30
0
41
1
10
144.51254167343
20
-3.03520898251293
30
0
41
1
10
144.555129922965
20
-3.06295460605236
30
0
41
1
10
144.597656433616
20
-3.09079999638155
30
0
41
1
10
144.625889972212
20
-3.10942629817859
30
0
41
1
10
144.640020726286
20
-3.11874867514859
30
0
0
SPLINE
5
145
100
AcDbEntity
8
1
62
256
6
ByLayer
370
18
48
1
60
0
100
AcDbSpline
70
4
71
3
72
8
73
4
40
0
40
0
40
0
40
0
40
1
40
1
40
1
40
1
41
1
10
144.469789631695
20
-3.00756745321189
30
0
41
1
10
144.350580595497
20
-2.70611068371423
30
0
41
1
10
144.230546365915
20
-2.40493383421747
30
0
41
1
10
144.108663823457
20
-2.10441056638294
30
0
0
SPLINE
5
146
100
AcDbEntity
8
1
62
256
6
ByLayer
370
18
48
1
60
0
100
AcDbSpline
70
4
71
3
72
18
73
14
40
0
40
0
40
0
40
0
40
0.125
40
0.25
40
0.3125
40
0.34375
40
0.359375
40
0.375
40
0.4375
40
0.5
40
0.625
40
0.75
40
1
40
1
40
1
40
1
41
1
10
144.230227935504
20
-3.13013854954878
30
0
41
1
10
144.233321429381
20
-3.12697602433818
30
0
41
1
10
144.243503447292
20
-3.11948014758301
30
0
41
1
10
144.265885541973
20
-3.10738011770948
30
0
41
1
10
144.286478287569
20
-3.09757198776103
30
0
41
1
10
144.297925208069
20
-3.09236196278766
30
0
41
1
10
144.304853708666
20
-3.08928320643329
30
0
41
1
10
144.31553135561
20
-3.08459065514833
30
0
41
1
10
144.331235536697
20
-3.07763312492773
30
0
41
1
10
144.357683568632
20
-3.06565014266258
30
0
41
1
10
144.388037026154
20
-3.05138887584405
30
0
41
1
10
144.430728522653
20
-3.03015597136943
30
0
41
1
10
144.456026362824
20
-3.01607591206107
30
0
41
1
10
144.469789631695
20
-3.00756745321189
30
0
0
SPLINE
5
147
100
AcDbEntity
8
1
62
256
6
ByLayer
370
18
48
1
60
0
100
AcDbSpline
70
4
71
3
72
28
73
24
40
0
40
0
40
0
40
0
40
0.03125
40
0.0625
40
0.09375
40
0.125
40
0.15625
40
0.1875
40
0.21875
40
0.25
40
0.3125
40
0.375
40
0.4375
40
0.5
40
0.5625
40
0.625
40
0.6875
40
0.75
40
0.8125
40
0.875
40
0.9375
40
0.96875
40
1
40
1
40
1
40
1
41
1
10
144.469789631695
20
-3.00756745321075
30
0
41
1
10
144.475154947602
20
-3.02113530722963
30
0
41
1
10
144.485868623028
20
-3.04827689774652
30
0
41
1
10
144.501866425081
20
-3.08901413119162
30
0
41
1
10
144.517769674128
20
-3.12978341253864
30
0
41
1
10
144.533556528253
20
-3.17059194201983
30
0
41
1
10
144.549205145536
20
-3.21144691986737
30
0
41
1
10
144.564693047081
20
-3.25235478972695
30
0
41
1
10
144.579997753991
20
-3.29332199524419
30
0
41
1
10
144.600129798496
20
-3.34803264167161
30
0
41
1
10
144.624724473057
20
-3.4166015070783
30
0
41
1
10
144.653136215594
20
-3.49921461184346
30
0
41
1
10
144.68025683397
20
-3.58219975736699
30
0
41
1
10
144.705885060839
20
-3.66558244453139
30
0
41
1
10
144.729819628853
20
-3.74938817421903
30
0
41
1
10
144.75184970135
20
-3.83362494414749
30
0
41
1
10
144.771761284924
20
-3.91829017007285
30
0
41
1
10
144.789337276145
20
-4.0033660983265
30
0
41
1
10
144.804360191697
20
-4.08881826679652
30
0
41
1
10
144.816615515078
20
-4.17459386926268
30
0
41
1
10
144.82434925226
20
-4.24628282484278
30
0
41
1
10
144.828951344787
20
-4.30371342056043
30
0
41
1
10
144.830709354389
20
-4.33244588523402
30
0
41
1
10
144.831448915627
20
-4.34681408170709
30
0
0
SPLINE
5
148
100
AcDbEntity
8
1
62
256
6
ByLayer
370
18
48
1
60
0
100
AcDbSpline
70
4
71
3
72
32
73
28
40
0
40
0
40
0
40
0
40
0.0201722500279436
40
0.030957120221128
40
0.106451211573418
40
0.192730173118893
40
0.365288096209843
40
0.451567057755318
40
0.494706538528055
40
0.537846019300793
40
0.543238454397385
40
0.548630889493977
40
0.554023324590569
40
0.556719542138865
40
0.559415759687161
40
0.564808194783754
40
0.570200629880346
40
0.58098550007353
40
0.624124980846268
40
0.710403942391742
40
0.796682903937217
40
0.882961865482692
40
0.969240827028167
40
0.980025697221351
40
0.990810567414536
40
0.996203002511128
40
1
40
1
40
1
40
1
41
1
10
144.915776957563
20
-4.45382159919228
30
0
41
1
10
144.916763940199
20
-4.47228266375382
30
0
41
1
10
144.91819227427
20
-4.50049030492858
30
0
41
1
10
144.923165713115
20
-4.59686632132917
30
0
41
1
10
144.931250178917
20
-4.75310790068005
30
0
41
1
10
144.946980500919
20
-5.05585582969866
30
0
41
1
10
144.963299937843
20
-5.36836858973876
30
0
41
1
10
144.977593158383
20
-5.64181583703259
30
0
41
1
10
144.985714415928
20
-5.7980699065798
30
0
41
1
10
144.990119216593
20
-5.88108176085242
30
0
41
1
10
144.992658694835
20
-5.92991060112831
30
0
41
1
10
144.993401534027
20
-5.94455926929595
30
0
41
1
10
144.994061516264
20
-5.95676845186642
30
0
41
1
10
144.994564359328
20
-5.96653281593996
30
0
41
1
10
144.994867925622
20
-5.97630043538453
30
0
41
1
10
144.995020122303
20
-5.98851513045312
30
0
41
1
10
144.995275815099
20
-6.00805825177108
30
0
41
1
10
144.996140663043
20
-6.06179587794466
30
0
41
1
10
144.998046868211
20
-6.18879931985046
30
0
41
1
10
144.999732895747
20
-6.38415735171927
30
0
41
1
10
145.000219638444
20
-6.61852893770023
30
0
41
1
10
144.999118153886
20
-6.85284264530642
30
0
41
1
10
144.997176294373
20
-7.01877398084844
30
0
41
1
10
144.995651973341
20
-7.11636708784519
30
0
41
1
10
144.99522845329
20
-7.14082807063426
30
0
41
1
10
144.994977494901
20
-7.15872569126611
30
0
41
1
10
144.99482728497
20
-7.1672388411103
30
0
41
1
10
144.9947462273
20
-7.17086531911255
30
0
0
SPLINE
5
149
100
AcDbEntity
8
1
62
256
6
ByLayer
370
13
48
1
60
0
100
AcDbSpline
70
4
71
3
72
9
73
5
40
0
40
0
40
0
40
0
40
0.253089698189953
40
1
40
1
40
1
40
1
41
1
10
144.91579377282
20
-4.4538213387668
30
0
41
1
10
144.908672323202
20
-4.4447864454103
30
0
41
1
10
144.880542570677
20
-4.40909858298892
30
0
41
1
10
144.852439491423
20
-4.37344456060944
30
0
41
1
10
144.831448915627
20
-4.34681408170709
30
0
0
SPLINE
5
14A
100
AcDbEntity
8
1
62
256
6
ByLayer
370
18
48
1
60
0
100
AcDbSpline
70
4
71
3
72
21
73
17
40
0
40
0
40
0
40
0
40
0.0039822658528455
40
0.0174419649629421
40
0.0309016640730388
40
0.0847404605134256
40
0.138579256953812
40
0.246256849834586
40
0.353934442715359
40
0.461612035596133
40
0.569289628476906
40
0.67696722135768
40
0.784644814238453
40
0.892322407119227
40
0.946161203559613
40
1
40
1
40
1
40
1
41
1
10
144.9947462273
20
-7.17086531911255
30
0
41
1
10
144.994712168164
20
-7.1723891071596
30
0
41
1
10
144.994548305706
20
-7.17914738444202
30
0
41
1
10
144.99411110234
20
-7.19192894015586
30
0
41
1
10
144.992282702337
20
-7.22579830871288
30
0
41
1
10
144.986842399533
20
-7.27521989879403
30
0
41
1
10
144.969805507277
20
-7.3622542560087
30
0
41
1
10
144.935460329578
20
-7.46608133345782
30
0
41
1
10
144.873788288119
20
-7.58321584737249
30
0
41
1
10
144.793854063874
20
-7.6880853118526
30
0
41
1
10
144.697039397802
20
-7.77910449010383
30
0
41
1
10
144.586068972119
20
-7.85326933726353
30
0
41
1
10
144.463575205654
20
-7.90861975226323
30
0
41
1
10
144.354393452701
20
-7.93749913206639
30
0
41
1
10
144.264995946176
20
-7.94969969547259
30
0
41
1
10
144.219523507252
20
-7.95206857458567
30
0
41
1
10
144.19754711071
20
-7.95228629383854
30
0
0
SPLINE
5
14B
100
AcDbEntity
8
1
62
256
6
ByLayer
370
18
48
1
60
0
100
AcDbSpline
70
4
71
3
72
8
73
4
40
0
40
0
40
0
40
0
40
1
40
1
40
1
40
1
41
1
10
144.19754711071
20
-7.95228629383854
30
0
41
1
10
144.197221041667
20
-7.95228952419109
30
0
41
1
10
144.196895831568
20
-7.95229274534873
30
0
41
1
10
144.196571454922
20
-7.95229595756504
30
0
0
SPLINE
5
14C
100
AcDbEntity
8
1
62
256
6
ByLayer
370
13
48
1
60
0
100
AcDbSpline
70
4
71
3
72
8
73
4
40
0
40
0
40
0
40
0
40
1
40
1
40
1
40
1
41
1
10
144.994728590509
20
-7.17086434793669
30
0
41
1
10
144.966614436099
20
-7.13362631480223
30
0
41
1
10
144.938500245764
20
-7.09638833567942
30
0
41
1
10
144.910386025491
20
-7.05915041849983
30
0
0
SPLINE
5
14D
100
AcDbEntity
8
1
62
256
6
ByLayer
370
18
48
1
60
0
100
AcDbSpline
70
4
71
3
72
19
73
15
40
0
40
0
40
0
40
0
40
0.125
40
0.25
40
0.3125
40
0.34375
40
0.359375
40
0.375
40
0.4375
40
0.46875
40
0.5
40
0.625
40
0.75
40
1
40
1
40
1
40
1
41
1
10
144.543671082139
20
-4.25980189044108
30
0
41
1
10
144.549153214888
20
-4.26400886027261
30
0
41
1
10
144.563886451076
20
-4.27217922050912
30
0
41
1
10
144.591348408168
20
-4.281622916804
30
0
41
1
10
144.615120001382
20
-4.28774529526836
30
0
41
1
10
144.628099393156
20
-4.29067591168729
30
0
41
1
10
144.635822435554
20
-4.2923120258975
30
0
41
1
10
144.647710141918
20
-4.29472706485663
30
0
41
1
10
144.662454244778
20
-4.29742869914983
30
0
41
1
10
144.680489666883
20
-4.30034234808568
30
0
41
1
10
144.706337382843
20
-4.304889620837
30
0
41
1
10
144.741640512611
20
-4.31219640036622
30
0
41
1
10
144.793693239023
20
-4.32645996945183
30
0
41
1
10
144.819961063966
20
-4.33843430695777
30
0
41
1
10
144.831448915627
20
-4.34681408170709
30
0
0
SPLINE
5
14E
100
AcDbEntity
8
1
62
256
6
ByLayer
370
18
48
1
60
0
100
AcDbSpline
70
4
71
3
72
32
73
28
40
0
40
0
40
0
40
0
40
0.249999999999944
40
0.374999999999916
40
0.499999999999888
40
0.531249999999881
40
0.546874999999878
40
0.546874999999878
40
0.554687499999876
40
0.554687499999876
40
0.555664062499878
40
0.555664062499878
40
0.55664062499988
40
0.55664062499988
40
0.55859374999988
40
0.55859374999988
40
0.560546874999881
40
0.562499999999882
40
0.562499999999882
40
0.566406249999883
40
0.566406249999883
40
0.570312499999884
40
0.578124999999885
40
0.59374999999989
40
0.624999999999898
40
0.749999999999933
40
1
40
1
40
1
40
1
41
1
10
144.831448915627
20
-4.34681408170709
30
0
41
1
10
144.843107415745
20
-4.57331053554498
30
0
41
1
10
144.860704542164
20
-4.91305200560547
30
0
41
1
10
144.884339733035
20
-5.36603265416554
30
0
41
1
10
144.89770368918
20
-5.62011921257164
30
0
41
1
10
144.905857361035
20
-5.77707354152275
30
0
41
1
10
144.908110145076
20
-5.81839453390748
30
0
41
1
10
144.909209099864
20
-5.84054474901842
30
0
41
1
10
144.909562812425
20
-5.84818163814785
30
0
41
1
10
144.910002431096
20
-5.85486776491533
30
0
41
1
10
144.910051194443
20
-5.85555870619726
30
0
41
1
10
144.910141064272
20
-5.8571382638782
30
0
41
1
10
144.910183369881
20
-5.8580188046441
30
0
41
1
10
144.910292264534
20
-5.86020237301346
30
0
41
1
10
144.910338110765
20
-5.86119336752034
30
0
41
1
10
144.910415108106
20
-5.86387481545492
30
0
41
1
10
144.910479560514
20
-5.8672316213837
30
0
41
1
10
144.91053535068
20
-5.8710927280774
30
0
41
1
10
144.910619408369
20
-5.87697955475002
30
0
41
1
10
144.910676019545
20
-5.88088419972428
30
0
41
1
10
144.910790023596
20
-5.88845747064713
30
0
41
1
10
144.910962145126
20
-5.89957344474001
30
0
41
1
10
144.911366452048
20
-5.92424771039308
30
0
41
1
10
144.91214488078
20
-5.97210036295445
30
0
41
1
10
144.914249458895
20
-6.12747775810678
30
0
41
1
10
144.916954059991
20
-6.49465314879967
30
0
41
1
10
144.914384466278
20
-6.83340083241163
30
0
41
1
10
144.910386025491
20
-7.05915041849983
30
0
0
SPLINE
5
14F
100
AcDbEntity
8
1
62
256
6
ByLayer
370
18
48
1
60
0
100
AcDbSpline
70
4
71
3
72
17
73
13
40
0
40
0
40
0
40
0
40
0.125
40
0.25
40
0.3125
40
0.375
40
0.4375
40
0.46875
40
0.5
40
0.625
40
0.75
40
1
40
1
40
1
40
1
41
1
10
144.684303700812
20
-6.87337788837397
30
0
41
1
10
144.689739609048
20
-6.88171688214268
30
0
41
1
10
144.703555076968
20
-6.89804699853295
30
0
41
1
10
144.72791080705
20
-6.91737441855477
30
0
41
1
10
144.751419415991
20
-6.9320727134947
30
0
41
1
10
144.771351213265
20
-6.94260615546492
30
0
41
1
10
144.786982472325
20
-6.95159513428803
30
0
41
1
10
144.798951921825
20
-6.95889675144167
30
0
41
1
10
144.816379378977
20
-6.96995498646521
30
0
41
1
10
144.840578528033
20
-6.98692178084144
30
0
41
1
10
144.877829466825
20
-7.01809901237758
30
0
41
1
10
144.899181833697
20
-7.04251190875422
30
0
41
1
10
144.910386025491
20
-7.05915041849983
30
0
0
SPLINE
5
150
100
AcDbEntity
8
1
62
256
6
ByLayer
370
13
48
1
60
0
100
AcDbSpline
70
4
71
3
72
26
73
22
40
0
40
0
40
0
40
0
40
0.00390625
40
0.0078125
40
0.015625
40
0.03125
40
0.0625
40
0.125
40
0.1875
40
0.25
40
0.3125
40
0.375
40
0.4375
40
0.5
40
0.625
40
0.6875
40
0.75
40
0.8125
40
0.875
40
0.9375
40
1
40
1
40
1
40
1
41
1
10
144.910386025491
20
-7.05915041849983
30
0
41
1
10
144.910357957582
20
-7.0607348932383
30
0
41
1
10
144.910292910545
20
-7.06390338778729
30
0
41
1
10
144.910127171292
20
-7.07023836373861
30
0
41
1
10
144.909743558211
20
-7.08131877937745
30
0
41
1
10
144.908602048129
20
-7.10345237942187
30
0
41
1
10
144.904821841362
20
-7.1475781575441
30
0
41
1
10
144.895143579008
20
-7.21002522333691
30
0
41
1
10
144.876683985917
20
-7.28342385466433
30
0
41
1
10
144.851513758128
20
-7.35469312648488
30
0
41
1
10
144.819767939205
20
-7.42324152691572
30
0
41
1
10
144.781681784994
20
-7.48849376092548
30
0
41
1
10
144.737490551337
20
-7.54987453348275
30
0
41
1
10
144.670862446479
20
-7.62579987190696
30
0
41
1
10
144.593325120564
20
-7.6917210582798
30
0
41
1
10
144.506631833572
20
-7.7454438341924
30
0
41
1
10
144.43762182864
20
-7.77916623345567
30
0
41
1
10
144.36522334341
20
-7.80586084156403
30
0
41
1
10
144.290156806725
20
-7.82520138872815
30
0
41
1
10
144.213188606678
20
-7.83697710537436
30
0
41
1
10
144.161141180575
20
-7.83974766417916
30
0
41
1
10
144.135064981349
20
-7.83988122960514
30
0
0
SPLINE
5
151
100
AcDbEntity
8
1
62
256
6
ByLayer
370
18
48
1
60
0
100
AcDbSpline
70
4
71
3
72
11
73
7
40
0
40
0
40
0
40
0
40
0.0122953696637075
40
0.0632220467973465
40
0.470635463866459
40
1
40
1
40
1
40
1
41
1
10
135.380803238257
20
-7.44376888095368
30
0
41
1
10
135.379890406286
20
-7.44131265062123
30
0
41
1
10
135.37535601068
20
-7.42896126794193
30
0
41
1
10
135.344374671302
20
-7.34533529513055
30
0
41
1
10
135.277165609247
20
-7.16326061137897
30
0
41
1
10
135.214091674136
20
-6.99258411390727
30
0
41
1
10
135.178550603253
20
-6.89643403752578
30
0
0
SPLINE
5
152
100
AcDbEntity
8
1
62
256
6
ByLayer
370
18
48
1
60
0
100
AcDbSpline
70
4
71
3
72
17
73
13
40
0
40
0
40
0
40
0
40
0.0600950229142395
40
0.184038916465188
40
0.431926703567085
40
0.679814490668981
40
0.927702277770878
40
0.989674224546352
40
0.993547471219819
40
0.997420717893286
40
0.99935734123002
40
1
40
1
40
1
40
1
41
1
10
143.70134623842
20
-7.95655827014934
30
0
41
1
10
143.545964303788
20
-7.95767983850246
30
0
41
1
10
143.070096906148
20
-7.96045549529615
30
0
41
1
10
141.953077320149
20
-7.96248206562777
30
0
41
1
10
140.349957856285
20
-7.95234037441301
30
0
41
1
10
138.425703736371
20
-7.91958387678076
30
0
41
1
10
136.979532477271
20
-7.879684784961
30
0
41
1
10
136.171842486528
20
-7.85212714035509
30
0
41
1
10
135.989592629906
20
-7.84566939771562
30
0
41
1
10
135.964690563957
20
-7.84478100940535
30
0
41
1
10
135.948529395081
20
-7.84420025764388
30
0
41
1
10
135.941207855119
20
-7.84393475763807
30
0
41
1
10
135.939344565004
20
-7.84386354909844
30
0
0
SPLINE
5
153
100
AcDbEntity
8
1
62
256
6
ByLayer
370
18
48
1
60
0
100
AcDbSpline
70
4
71
3
72
11
73
7
40
0
40
0
40
0
40
0
40
0.0589687449403636
40
0.484373627158107
40
0.970550635406957
40
1
40
1
40
1
40
1
41
1
10
144.196571454922
20
-7.95229595756504
30
0
41
1
10
144.185964665365
20
-7.95240099380212
30
0
41
1
10
144.106159666148
20
-7.95318524010841
30
0
41
1
10
143.946239906425
20
-7.95466253494951
30
0
41
1
10
143.79116957341
20
-7.95590623635874
30
0
41
1
10
143.706199220357
20
-7.95652324065267
30
0
41
1
10
143.70134623842
20
-7.95655827014934
30
0
0
SPLINE
5
154
100
AcDbEntity
8
1
62
256
6
ByLayer
370
13
48
1
60
0
100
AcDbSpline
70
4
71
3
72
8
73
4
40
0
40
0
40
0
40
0
40
1
40
1
40
1
40
1
41
1
10
144.135064981349
20
-7.83988122960514
30
0
41
1
10
144.155566981247
20
-7.87752559359899
30
0
41
1
10
144.176069162948
20
-7.91499728793755
30
0
41
1
10
144.196571461483
20
-7.9522959054828
30
0
0
SPLINE
5
155
100
AcDbEntity
8
1
62
256
6
ByLayer
370
18
48
1
60
0
100
AcDbSpline
70
4
71
3
72
20
73
16
40
0
40
0
40
0
40
0
40
0.0166268555035517
40
0.0415115835803558
40
0.0663963116571599
40
0.165935223964376
40
0.265474136271593
40
0.315243592425201
40
0.464551960886025
40
0.663629785500458
40
0.86270761011489
40
0.912477066268498
40
0.962246522422107
40
0.987131250498911
40
1
40
1
40
1
40
1
41
1
10
135.939344565004
20
-7.84386354909842
30
0
41
1
10
135.935592914053
20
-7.84372017390237
30
0
41
1
10
135.925831165365
20
-7.84331104027308
30
0
41
1
10
135.909814403104
20
-7.84220934189455
30
0
41
1
10
135.873408165005
20
-7.83861185032455
30
0
41
1
10
135.819960499553
20
-7.82933759997121
30
0
41
1
10
135.762031674095
20
-7.81209251604429
30
0
41
1
10
135.693944121407
20
-7.78524598210586
30
0
41
1
10
135.608029873386
20
-7.7391899352867
30
0
41
1
10
135.504774443361
20
-7.65326420415681
30
0
41
1
10
135.438976790636
20
-7.5646092875505
30
0
41
1
10
135.405249199274
20
-7.50142597292651
30
0
41
1
10
135.392767103648
20
-7.47414231521824
30
0
41
1
10
135.384753183947
20
-7.45429894666884
30
0
41
1
10
135.381780853679
20
-7.44639942932443
30
0
41
1
10
135.380803238257
20
-7.44376888095368
30
0
0
SPLINE
5
156
100
AcDbEntity
8
1
62
256
6
ByLayer
370
13
48
1
60
0
100
AcDbSpline
70
4
71
3
72
9
73
5
40
0
40
0
40
0
40
0
40
0.5012197180312
40
1
40
1
40
1
40
1
41
1
10
136.151782898967
20
-7.70311983243227
30
0
41
1
10
136.11628654134
20
-7.72656519898277
30
0
41
1
10
136.045466586837
20
-7.77334182349907
30
0
41
1
10
135.974661206733
20
-7.8204010681151
30
0
41
1
10
135.93934487928
20
-7.84387329141396
30
0
0
SPLINE
5
157
100
AcDbEntity
8
1
62
256
6
ByLayer
370
13
48
1
60
0
100
AcDbSpline
70
4
71
3
72
9
73
5
40
0
40
0
40
0
40
0
40
0.25178666102102
40
1
40
1
40
1
40
1
41
1
10
135.380807440188
20
-7.44376802855749
30
0
41
1
10
135.405182844054
20
-7.43110815315592
30
0
41
1
10
135.502059320937
20
-7.38078420798908
30
0
41
1
10
135.599184752068
20
-7.33029480999119
30
0
41
1
10
135.671954600869
20
-7.29244635137832
30
0
0
SPLINE
5
158
100
AcDbEntity
8
1
62
256
6
ByLayer
370
18
48
1
60
0
100
AcDbSpline
70
4
71
3
72
8
73
4
40
0
40
0
40
0
40
0
40
1
40
1
40
1
40
1
41
1
10
135.532196830127
20
-6.94842634527109
30
0
41
1
10
135.578516368999
20
-7.06319384384221
30
0
41
1
10
135.625083332802
20
-7.17787410366304
30
0
41
1
10
135.671954600868
20
-7.29244635137795
30
0
0
SPLINE
5
159
100
AcDbEntity
8
1
62
256
6
ByLayer
370
18
48
1
60
0
100
AcDbSpline
70
4
71
3
72
16
73
12
40
0
40
0
40
0
40
0
40
0.25
40
0.5
40
0.625
40
0.6875
40
0.75
40
0.78125
40
0.8125
40
0.875
40
1
40
1
40
1
40
1
41
1
10
144.135064981339
20
-7.83988122960565
30
0
41
1
10
144.12703318371
20
-7.82554870730232
30
0
41
1
10
144.110899573207
20
-7.79250034897413
30
0
41
1
10
144.090707144306
20
-7.74056821483009
30
0
41
1
10
144.076636413939
20
-7.69886412217693
30
0
41
1
10
144.068625984828
20
-7.67352014571225
30
0
41
1
10
144.063634317397
20
-7.65705718805413
30
0
41
1
10
144.059652840047
20
-7.64345363125994
30
0
41
1
10
144.055668137485
20
-7.62997589667023
30
0
41
1
10
144.048651055054
20
-7.60806529609235
30
0
41
1
10
144.042595626345
20
-7.59185484527853
30
0
41
1
10
144.038559258117
20
-7.58228052290048
30
0
0
SPLINE
5
15A
100
AcDbEntity
8
1
62
256
6
ByLayer
370
18
48
1
60
0
100
AcDbSpline
70
4
71
3
72
47
73
43
40
0
40
0
40
0
40
0
40
0.0248207090807126
40
0.0496506043499482
40
0.0744896876533834
40
0.0993379606766084
40
0.124195424944889
40
0.149062081822945
40
0.17393793251478
40
0.198822978063442
40
0.223717219350839
40
0.248620657097559
40
0.273533291862645
40
0.298455124043428
40
0.323386153875331
40
0.348326381431693
40
0.373275806623573
40
0.398234429199586
40
0.423202248745731
40
0.448179264685189
40
0.473165476278222
40
0.498160882621928
40
0.523165482804103
40
0.548179276888431
40
0.573202265356145
40
0.598234448633274
40
0.623275827088505
40
0.648326401033146
40
0.673386170721076
40
0.698455136348687
40
0.723533298054844
40
0.748620655920817
40
0.773717209970273
40
0.798822960169181
40
0.823937906425848
40
0.849062048590787
40
0.874195386456773
40
0.899337919758726
40
0.924489648173768
40
0.949650571321106
40
0.97482068876206
40
1
40
1
40
1
40
1
41
1
10
144.13506498134
20
-7.83988122960596
30
0
41
1
10
144.069053355231
20
-7.84019786791578
30
0
41
1
10
143.937005671995
20
-7.84083126172376
30
0
41
1
10
143.738885735334
20
-7.84149874551321
30
0
41
1
10
143.540684225717
20
-7.8419597410084
30
0
41
1
10
143.342400533789
20
-7.84219401847963
30
0
41
1
10
143.144035147364
20
-7.84220713285268
30
0
41
1
10
142.945588260916
20
-7.84199772721811
30
0
41
1
10
142.747060148372
20
-7.84156629869028
30
0
41
1
10
142.548451063171
20
-7.84091284829694
30
0
41
1
10
142.349761265053
20
-7.8400375110368
30
0
41
1
10
142.150991012879
20
-7.83894038696059
30
0
41
1
10
141.952140566556
20
-7.83762158645567
30
0
41
1
10
141.753210186523
20
-7.83608121810326
30
0
41
1
10
141.554200133886
20
-7.83431939193244
30
0
41
1
10
141.355110670383
20
-7.83233621854299
30
0
41
1
10
141.155942058396
20
-7.83013180934921
30
0
41
1
10
140.956694560944
20
-7.82770627647199
30
0
41
1
10
140.757368441689
20
-7.82505973291694
30
0
41
1
10
140.557963964923
20
-7.82219229195954
30
0
41
1
10
140.358481395619
20
-7.81910406941802
30
0
41
1
10
140.158920998829
20
-7.8157951751551
30
0
41
1
10
139.959283037367
20
-7.81226574472129
30
0
41
1
10
139.759567764609
20
-7.80851569736834
30
0
41
1
10
139.559775429456
20
-7.80454490656911
30
0
41
1
10
139.359906280415
20
-7.8003532578756
30
0
41
1
10
139.159960566517
20
-7.79594063387805
30
0
41
1
10
138.959938537416
20
-7.79130691824034
30
0
41
1
10
138.759840443363
20
-7.78645199461991
30
0
41
1
10
138.559666535218
20
-7.78137574694014
30
0
41
1
10
138.359417064441
20
-7.77607805937163
30
0
41
1
10
138.159092283099
20
-7.7705588161237
30
0
41
1
10
137.958692443863
20
-7.76481790228758
30
0
41
1
10
137.758217800018
20
-7.75885520066021
30
0
41
1
10
137.557668605419
20
-7.75267060360093
30
0
41
1
10
137.357045114669
20
-7.74626396874856
30
0
41
1
10
137.156347582442
20
-7.73963528437002
30
0
41
1
10
136.955576266037
20
-7.73278405192326
30
0
41
1
10
136.754731415815
20
-7.72571159162069
30
0
41
1
10
136.553813310924
20
-7.71841243322018
30
0
41
1
10
136.352822125913
20
-7.71090646364152
30
0
41
1
10
136.218804131837
20
-7.70571569211333
30
0
41
1
10
136.151782898967
20
-7.70311983243227
30
0
0
SPLINE
5
15B
100
AcDbEntity
8
1
62
256
6
ByLayer
370
18
48
1
60
0
100
AcDbSpline
70
4
71
3
72
16
73
12
40
0
40
0
40
0
40
0
40
0.25
40
0.375
40
0.5
40
0.5625
40
0.625
40
0.75
40
0.8125
40
0.875
40
1
40
1
40
1
40
1
41
1
10
136.151782898967
20
-7.70311983243235
30
0
41
1
10
136.18153892189
20
-7.68549213465249
30
0
41
1
10
136.226155899545
20
-7.65735858445149
30
0
41
1
10
136.285526051473
20
-7.61650009494818
30
0
41
1
10
136.322564702468
20
-7.58957446692537
30
0
41
1
10
136.352144178416
20
-7.56720385031608
30
0
41
1
10
136.381686574823
20
-7.54429119958499
30
0
41
1
10
136.411169177453
20
-7.5205825606796
30
0
41
1
10
136.440584318047
20
-7.49612021863234
30
0
41
1
10
136.469926097295
20
-7.47083518070554
30
0
41
1
10
136.492200076067
20
-7.45499362206419
30
0
41
1
10
136.507071695002
20
-7.44575285498297
30
0
0
SPLINE
5
15C
100
AcDbEntity
8
1
62
256
6
ByLayer
370
18
48
1
60
0
100
AcDbSpline
70
4
71
3
72
18
73
14
40
0
40
0
40
0
40
0
40
0.25
40
0.375
40
0.5
40
0.5625
40
0.625
40
0.640625
40
0.65625
40
0.6875
40
0.75
40
0.875
40
1
40
1
40
1
40
1
41
1
10
135.671954600868
20
-7.29244635137795
30
0
41
1
10
135.706382735135
20
-7.26313949897326
30
0
41
1
10
135.758751502893
20
-7.21914908606925
30
0
41
1
10
135.829917739276
20
-7.16045692148114
30
0
41
1
10
135.875018470304
20
-7.12376262728586
30
0
41
1
10
135.911442859242
20
-7.09439951640633
30
0
41
1
10
135.930904101446
20
-7.07790695045037
30
0
41
1
10
135.943503337334
20
-7.06693136198078
30
0
41
1
10
135.951801758786
20
-7.05962012409731
30
0
41
1
10
135.96605583125
20
-7.04684239970572
30
0
41
1
10
135.993468447193
20
-7.02136801075599
30
0
41
1
10
136.029368566129
20
-6.98528358158171
30
0
41
1
10
136.054480507051
20
-6.95690240561507
30
0
41
1
10
136.066096882906
20
-6.9428728751553
30
0
0
SPLINE
5
15D
100
AcDbEntity
8
1
62
256
6
ByLayer
370
18
48
1
60
0
100
AcDbSpline
70
4
71
3
72
18
73
14
40
0
40
0
40
0
40
0
40
0.125
40
0.25
40
0.375
40
0.5
40
0.625
40
0.6875
40
0.75
40
0.8125
40
0.875
40
0.9375
40
1
40
1
40
1
40
1
41
1
10
135.671954600868
20
-7.29244635137795
30
0
41
1
10
135.682343975407
20
-7.31784216511073
30
0
41
1
10
135.705333630907
20
-7.36786709171241
30
0
41
1
10
135.74673948111
20
-7.43967189396031
30
0
41
1
10
135.795387959328
20
-7.50726514894694
30
0
41
1
10
135.851801315467
20
-7.56905301650539
30
0
41
1
10
135.905620069244
20
-7.61387873867889
30
0
41
1
10
135.952713541583
20
-7.64426230955959
30
0
41
1
10
135.989892449838
20
-7.66389247728918
30
0
41
1
10
136.028769731437
20
-7.67994612758585
30
0
41
1
10
136.068974788113
20
-7.69211219615099
30
0
41
1
10
136.110137021599
20
-7.70007961868586
30
0
41
1
10
136.137900097265
20
-7.70257774214573
30
0
41
1
10
136.151782898967
20
-7.70311983243235
30
0
0
SPLINE
5
15E
100
AcDbEntity
8
1
62
256
6
ByLayer
370
13
48
1
60
0
100
AcDbSpline
70
4
71
3
72
8
73
4
40
0
40
0
40
0
40
0
40
1
40
1
40
1
40
1
41
1
10
144.107536103615
20
-2.79813462037211
30
0
41
1
10
144.148433380911
20
-2.9088025967643
30
0
41
1
10
144.189330658208
20
-3.01947057315653
30
0
41
1
10
144.230227935504
20
-3.13013854954878
30
0
0
SPLINE
5
15F
100
AcDbEntity
8
1
62
256
6
ByLayer
370
18
48
1
60
0
100
AcDbSpline
70
4
71
3
72
11
73
7
40
0
40
0
40
0
40
0
40
0.25
40
0.5
40
0.75
40
1
40
1
40
1
40
1
41
1
10
144.230227935504
20
-3.13013854954849
30
0
41
1
10
144.264359418507
20
-3.22249829584493
30
0
41
1
10
144.334622854233
20
-3.4065648970822
30
0
41
1
10
144.433099614903
20
-3.68493999991176
30
0
41
1
10
144.510887243982
20
-3.96907194378781
30
0
41
1
10
144.538448279226
20
-4.16273911464882
30
0
41
1
10
144.543671082139
20
-4.25980189044108
30
0
0
SPLINE
5
160
100
AcDbEntity
8
1
62
256
6
ByLayer
370
13
48
1
60
0
100
AcDbSpline
70
4
71
3
72
8
73
4
40
0
40
0
40
0
40
0
40
1
40
1
40
1
40
1
41
1
10
144.230227935504
20
-3.13013854954849
30
0
41
1
10
144.189332312917
20
-3.17194675819368
30
0
41
1
10
144.148436690323
20
-3.21375496681745
30
0
41
1
10
144.107541067729
20
-3.25556317543814
30
0
0
SPLINE
5
161
100
AcDbEntity
8
1
62
256
6
ByLayer
370
18
48
1
60
0
100
AcDbSpline
70
4
71
3
72
23
73
19
40
0
40
0
40
0
40
0
40
0.25
40
0.375
40
0.4375
40
0.5
40
0.515625
40
0.53125
40
0.546875
40
0.5546875
40
0.5625
40
0.5703125
40
0.578125
40
0.59375
40
0.625
40
0.75
40
0.875
40
1
40
1
40
1
40
1
41
1
10
144.543671082139
20
-4.25980189044108
30
0
41
1
10
144.555390467029
20
-4.47759989026883
30
0
41
1
10
144.572969544363
20
-4.80429689001045
30
0
41
1
10
144.593478467919
20
-5.18544338970898
30
0
41
1
10
144.605197852808
20
-5.40324138953673
30
0
41
1
10
144.611790006808
20
-5.52575276443983
30
0
41
1
10
144.616184776142
20
-5.60742701437522
30
0
41
1
10
144.618382160809
20
-5.64826413934293
30
0
41
1
10
144.620213314698
20
-5.68229507681602
30
0
41
1
10
144.621678237809
20
-5.70951982679449
30
0
41
1
10
144.622776930142
20
-5.72993838927832
30
0
41
1
10
144.623875622476
20
-5.75035695176217
30
0
41
1
10
144.625340545587
20
-5.77758170174064
30
0
41
1
10
144.627904161031
20
-5.82522501420297
30
0
41
1
10
144.635961238143
20
-5.97496113908454
30
0
41
1
10
144.649145546143
20
-6.21998388889074
30
0
41
1
10
144.666724623477
20
-6.54668088863235
30
0
41
1
10
144.678444008367
20
-6.7644788884601
30
0
41
1
10
144.684303700812
20
-6.87337788837397
30
0
0
SPLINE
5
162
100
AcDbEntity
8
1
62
256
6
ByLayer
370
13
48
1
60
0
100
AcDbSpline
70
4
71
3
72
8
73
4
40
0
40
0
40
0
40
0
40
1
40
1
40
1
40
1
41
1
10
144.107543705395
20
-3.92511924033869
30
0
41
1
10
144.252919497643
20
-4.03668012370613
30
0
41
1
10
144.398295289891
20
-4.14824100707364
30
0
41
1
10
144.543671082139
20
-4.25980189044108
30
0
0
SPLINE
5
163
100
AcDbEntity
8
1
62
256
6
ByLayer
370
13
48
1
60
0
100
AcDbSpline
70
4
71
3
72
15
73
11
40
0
40
0
40
0
40
0
40
0.125
40
0.25
40
0.375
40
0.5
40
0.625
40
0.75
40
0.875
40
1
40
1
40
1
40
1
41
1
10
144.038559258126
20
-7.58228052289175
30
0
41
1
10
144.084673090309
20
-7.58311645522511
30
0
41
1
10
144.176755827568
20
-7.57500613750943
30
0
41
1
10
144.307451939411
20
-7.53287705862317
30
0
41
1
10
144.424282357816
20
-7.46344791656026
30
0
41
1
10
144.522670209803
20
-7.37133237403768
30
0
41
1
10
144.599742007822
20
-7.26157657364081
30
0
41
1
10
144.653699134476
20
-7.13898341506345
30
0
41
1
10
144.683411014697
20
-7.00808978578846
30
0
41
1
10
144.686717479945
20
-6.91823657953034
30
0
41
1
10
144.684303700812
20
-6.87337788837394
30
0
0
SPLINE
5
164
100
AcDbEntity
8
1
62
256
6
ByLayer
370
13
48
1
60
0
100
AcDbSpline
70
4
71
3
72
8
73
4
40
0
40
0
40
0
40
0
40
1
40
1
40
1
40
1
41
1
10
144.684303700812
20
-6.87337788837394
30
0
41
1
10
144.512244090538
20
-6.60942861704751
30
0
41
1
10
144.340184480265
20
-6.34547934572112
30
0
41
1
10
144.168124869992
20
-6.08153007439472
30
0
0
SPLINE
5
165
100
AcDbEntity
8
1
62
256
6
ByLayer
370
13
48
1
60
0
100
AcDbSpline
70
4
71
3
72
8
73
4
40
0
40
0
40
0
40
0
40
1
40
1
40
1
40
1
41
1
10
144.168124869992
20
-6.08153007439461
30
0
41
1
10
144.163713085113
20
-6.07476214436062
30
0
41
1
10
144.159301300234
20
-6.0679942143266
30
0
41
1
10
144.154889515356
20
-6.06122628429259
30
0
0
SPLINE
5
166
100
AcDbEntity
8
1
62
256
6
ByLayer
370
13
48
1
60
0
100
AcDbSpline
70
4
71
3
72
8
73
4
40
0
40
0
40
0
40
0
40
1
40
1
40
1
40
1
41
1
10
143.622697668161
20
-6.59585096489212
30
0
41
1
10
143.626163181411
20
-6.60407121120889
30
0
41
1
10
143.629628694661
20
-6.61229145752563
30
0
41
1
10
143.63309420791
20
-6.62051170384237
30
0
0
SPLINE
5
167
100
AcDbEntity
8
1
62
256
6
ByLayer
370
18
48
1
60
0
100
AcDbSpline
70
4
71
3
72
8
73
4
40
0
40
0
40
0
40
0
40
1
40
1
40
1
40
1
41
1
10
144.038559258126
20
-7.58228052290815
30
0
41
1
10
141.528063403754
20
-7.53677130026514
30
0
41
1
10
139.017567549346
20
-7.49126207759329
30
0
41
1
10
136.507071695002
20
-7.44575285497197
30
0
0
SPLINE
5
168
100
AcDbEntity
8
1
62
256
6
ByLayer
370
13
48
1
60
0
100
AcDbSpline
70
4
71
3
72
8
73
4
40
0
40
0
40
0
40
0
40
1
40
1
40
1
40
1
41
1
10
143.63309420791
20
-6.62051170384177
30
0
41
1
10
143.768249224649
20
-6.94110131018971
30
0
41
1
10
143.903404241388
20
-7.26169091653438
30
0
41
1
10
144.038559258126
20
-7.58228052289175
30
0
0
SPLINE
5
169
100
AcDbEntity
8
1
62
256
6
ByLayer
370
13
48
1
60
0
100
AcDbSpline
70
4
71
3
72
12
73
8
40
0
40
0
40
0
40
0
40
0.130933762590391
40
0.130933762590391
40
0.846851358087277
40
0.846851358087277
40
1
40
1
40
1
40
1
41
1
10
141.224323825719
20
-6.55237424334678
30
0
41
1
10
141.037986141338
20
-6.57922082123267
30
0
41
1
10
140.851648456957
20
-6.60606739911873
30
0
41
1
10
139.646456473172
20
-6.77970527901476
30
0
41
1
10
138.627602173773
20
-6.92649658103323
30
0
41
1
10
137.39079520324
20
-7.10468938610924
30
0
41
1
10
137.172842532095
20
-7.13609088915001
30
0
41
1
10
136.954889860951
20
-7.16749239219152
30
0
0
SPLINE
5
16A
100
AcDbEntity
8
1
62
256
6
ByLayer
370
13
48
1
60
0
100
AcDbSpline
70
4
71
3
72
8
73
4
40
0
40
0
40
0
40
0
40
1
40
1
40
1
40
1
41
1
10
136.066096882906
20
-6.9428728751553
30
0
41
1
10
136.05808818085
20
-6.92120133835286
30
0
41
1
10
136.050079478794
20
-6.89952980155044
30
0
41
1
10
136.042070776738
20
-6.877858264748
30
0
0
SPLINE
5
16B
100
AcDbEntity
8
1
62
256
6
ByLayer
370
13
48
1
60
0
100
AcDbSpline
70
4
71
3
72
10
73
6
40
0
40
0
40
0
40
0
40
0.525210305152619
40
0.525210305152619
40
1
40
1
40
1
40
1
41
1
10
140.915282367876
20
-6.53643214351621
30
0
41
1
10
140.240453476952
20
-6.63365802909138
30
0
41
1
10
139.565624586029
20
-6.73088391466913
30
0
41
1
10
138.280750918664
20
-6.91600192288476
30
0
41
1
10
137.670706142222
20
-7.00389404552141
30
0
41
1
10
137.060661365783
20
-7.09178616816379
30
0
0
SPLINE
5
16C
100
AcDbEntity
8
1
62
256
6
ByLayer
370
18
48
1
60
0
100
AcDbSpline
70
4
71
3
72
8
73
4
40
0
40
0
40
0
40
0
40
1
40
1
40
1
40
1
41
1
10
138.048854821327
20
-6.28979531529561
30
0
41
1
10
138.035961761766
20
-6.30025896981968
30
0
41
1
10
138.023068702205
20
-6.31072262434378
30
0
41
1
10
138.010175642644
20
-6.32118627886786
30
0
0
SPLINE
5
16D
100
AcDbEntity
8
1
62
256
6
ByLayer
370
18
48
1
60
0
100
AcDbSpline
70
4
71
3
72
8
73
4
40
0
40
0
40
0
40
0
40
1
40
1
40
1
40
1
41
1
10
136.066096800929
20
-6.9428726887619
30
0
41
1
10
136.380551641835
20
-6.56309393122351
30
0
41
1
10
136.69500648274
20
-6.18331517368631
30
0
41
1
10
137.009461323645
20
-5.80353641614997
30
0
0
SPLINE
5
16E
100
AcDbEntity
8
1
62
256
6
ByLayer
370
18
48
1
60
0
100
AcDbSpline
70
4
71
3
72
18
73
14
40
0
40
0
40
0
40
0
40
0.125
40
0.25
40
0.375
40
0.5
40
0.625
40
0.6875
40
0.75
40
0.8125
40
0.875
40
0.9375
40
1
40
1
40
1
40
1
41
1
10
136.066093242012
20
-6.94287349682483
30
0
41
1
10
136.076260457904
20
-6.9703855327032
30
0
41
1
10
136.097140390455
20
-7.0252536791248
30
0
41
1
10
136.131481902853
20
-7.10647242490572
30
0
41
1
10
136.170271451966
20
-7.18595161450259
30
0
41
1
10
136.215528707018
20
-7.26236258497531
30
0
41
1
10
136.260837167864
20
-7.32146679070044
30
0
41
1
10
136.303294990637
20
-7.36359897363363
30
0
41
1
10
136.338449792297
20
-7.39157323506603
30
0
41
1
10
136.377069519355
20
-7.4148414348999
30
0
41
1
10
136.41870327135
20
-7.43220752478859
30
0
41
1
10
136.462441467698
20
-7.44288148240781
30
0
41
1
10
136.492210629391
20
-7.44548347411572
30
0
41
1
10
136.507071695002
20
-7.44575285499397
30
0
0
SPLINE
5
16F
100
AcDbEntity
8
1
62
256
6
ByLayer
370
18
48
1
60
0
100
AcDbSpline
70
4
71
3
72
15
73
11
40
0
40
0
40
0
40
0
40
0.105547317957899
40
0.211094635915798
40
0.422189271831596
40
0.633283907747394
40
0.844378543663192
40
0.897152202642142
40
0.949925861621091
40
1
40
1
40
1
40
1
41
1
10
136.507071695002
20
-7.44575285499397
30
0
41
1
10
136.522827002195
20
-7.43596299118221
30
0
41
1
10
136.554337630079
20
-7.41638394676028
30
0
41
1
10
136.61735891954
20
-7.37722756349856
30
0
41
1
10
136.696135556486
20
-7.32828335634258
30
0
41
1
10
136.790667439231
20
-7.26954617948408
30
0
41
1
10
136.861566789507
20
-7.2255004487719
30
0
41
1
10
136.908831346092
20
-7.19609183107068
30
0
41
1
10
136.932061395103
20
-7.18166008261073
30
0
41
1
10
136.947416212806
20
-7.1721887950589
30
0
41
1
10
136.954890039466
20
-7.16749929248749
30
0
0
SPLINE
5
170
100
AcDbEntity
8
1
62
256
6
ByLayer
370
18
48
1
60
0
100
AcDbSpline
70
4
71
3
72
13
73
9
40
0
40
0
40
0
40
0
40
0.0113848368122168
40
0.233982789263915
40
0.456580741715614
40
0.679178694167313
40
0.901776646619012
40
1
40
1
40
1
40
1
41
1
10
136.954889454598
20
-7.16749909717149
30
0
41
1
10
136.955292312853
20
-7.16724632086317
30
0
41
1
10
136.963571789686
20
-7.16204655893426
30
0
41
1
10
136.97972259783
20
-7.1517007417919
30
0
41
1
10
137.003311229698
20
-7.13549254934406
30
0
41
1
10
137.026853413773
20
-7.11834248464714
30
0
41
1
10
137.045962753459
20
-7.10361751542359
30
0
41
1
10
137.057216616794
20
-7.09457324420561
30
0
41
1
10
137.060660935269
20
-7.09178951163329
30
0
0
SPLINE
5
171
100
AcDbEntity
8
1
62
256
6
ByLayer
370
18
48
1
60
0
100
AcDbSpline
70
4
71
3
72
8
73
4
40
0
40
0
40
0
40
0
40
1
40
1
40
1
40
1
41
1
10
138.010175642644
20
-6.32118627886788
30
0
41
1
10
137.693670848387
20
-6.57805291371952
30
0
41
1
10
137.37716605413
20
-6.83491954857115
30
0
41
1
10
137.060661259873
20
-7.09178618342278
30
0
0
SPLINE
5
172
100
AcDbEntity
8
1
62
256
6
ByLayer
370
18
48
1
60
0
100
AcDbSpline
70
4
71
3
72
24
73
20
40
0
40
0
40
0
40
0
40
0.169033038993883
40
0.169033038993883
40
0.338066077987766
40
0.338066077987766
40
0.38032433773628
40
0.38032433773628
40
0.422582597484795
40
0.422582597484795
40
0.507099116981824
40
0.507099116981824
40
0.676132155975796
40
0.676132155975796
40
0.76064867547282
40
0.76064867547282
40
0.845165194969845
40
0.845165194969845
40
1
40
1
40
1
40
1
41
1
10
138.048854821326
20
-6.28979531529643
30
0
41
1
10
137.999755574398
20
-6.28562527508569
30
0
41
1
10
137.951442869973
20
-6.27805230684788
30
0
41
1
10
137.856304082172
20
-6.25647459532684
30
0
41
1
10
137.80947827841
20
-6.24246864231569
30
0
41
1
10
137.751911412407
20
-6.22078450588981
30
0
41
1
10
137.740446661955
20
-6.21623731525779
30
0
41
1
10
137.717615634116
20
-6.2067168962987
30
0
41
1
10
137.706244524919
20
-6.20174028866191
30
0
41
1
10
137.672560124066
20
-6.18629454551046
30
0
41
1
10
137.650580376248
20
-6.1752725950827
30
0
41
1
10
137.586038955348
20
-6.14008064896228
30
0
41
1
10
137.544865168354
20
-6.11379967184905
30
0
41
1
10
137.485932340555
20
-6.07007702862273
30
0
41
1
10
137.466762056109
20
-6.05478187087931
30
0
41
1
10
137.429386528405
20
-6.02272372310122
30
0
41
1
10
137.411168988301
20
-6.00593647206708
30
0
41
1
10
137.361811224989
20
-5.95710498651286
30
0
41
1
10
137.332245830659
20
-5.92377750869917
30
0
41
1
10
137.305027046668
20
-5.8887239797524
30
0
0
SPLINE
5
173
100
AcDbEntity
8
1
62
256
6
ByLayer
370
18
48
1
60
0
100
AcDbSpline
70
4
71
3
72
8
73
4
40
0
40
0
40
0
40
0
40
1
40
1
40
1
40
1
41
1
10
141.224323825723
20
-6.55237424334615
30
0
41
1
10
141.121266639912
20
-6.55050606562861
30
0
41
1
10
141.018215928504
20
-6.54528888470037
30
0
41
1
10
140.915282367866
20
-6.53643214351214
30
0
0
SPLINE
5
174
100
AcDbEntity
8
1
62
256
6
ByLayer
370
18
48
1
60
0
100
AcDbSpline
70
4
71
3
72
8
73
4
40
0
40
0
40
0
40
0
40
1
40
1
40
1
40
1
41
1
10
143.622697668158
20
-6.59585096488669
30
0
41
1
10
142.823239720681
20
-6.58135872437404
30
0
41
1
10
142.0237817732
20
-6.56686648385804
30
0
41
1
10
141.22432382572
20
-6.55237424334268
30
0
0
SPLINE
5
175
100
AcDbEntity
8
1
62
256
6
ByLayer
370
18
48
1
60
0
100
AcDbSpline
70
4
71
3
72
15
73
11
40
0
40
0
40
0
40
0
40
0.125
40
0.25
40
0.375
40
0.5
40
0.625
40
0.75
40
0.875
40
1
40
1
40
1
40
1
41
1
10
143.622697666425
20
-6.59585096077416
30
0
41
1
10
143.658927483674
20
-6.59650772199154
30
0
41
1
10
143.731258537679
20
-6.59074297565337
30
0
41
1
10
143.835053069398
20
-6.56123711586332
30
0
41
1
10
143.930008079667
20
-6.51203175282819
30
0
41
1
10
144.01230847224
20
-6.44505623286798
30
0
41
1
10
144.078621780964
20
-6.36296459115127
30
0
41
1
10
144.12625280005
20
-6.2690431249238
30
0
41
1
10
144.153261994228
20
-6.16707241338284
30
0
41
1
10
144.156785923787
20
-6.09646997742399
30
0
41
1
10
144.154889513145
20
-6.06122628090196
30
0
0
SPLINE
5
176
100
AcDbEntity
8
1
62
256
6
ByLayer
370
18
48
1
60
0
100
AcDbSpline
70
4
71
3
72
8
73
4
40
0
40
0
40
0
40
0
40
1
40
1
40
1
40
1
41
1
10
144.107540611428
20
-5.18127425041681
30
0
41
1
10
144.123323579403
20
-5.47459159503993
30
0
41
1
10
144.139106547378
20
-5.76790893966498
30
0
41
1
10
144.154889515353
20
-6.06122628429262
30
0
0
SPLINE
5
177
100
AcDbEntity
8
1
62
256
6
ByLayer
370
18
48
1
60
0
100
AcDbSpline
70
4
71
3
72
14
73
10
40
0
40
0
40
0
40
0
40
0.148996630451112
40
0.31919730436089
40
0.489397978270667
40
0.659598652180445
40
0.829799326090222
40
0.914899663045111
40
1
40
1
40
1
40
1
41
1
10
135.955232923837
20
3.74531743015322
30
0
41
1
10
135.95773497075
20
3.7994756905909
30
0
41
1
10
135.963076271637
20
3.91543759397518
30
0
41
1
10
135.971223926712
20
4.09314242681725
30
0
41
1
10
135.979703938187
20
4.27859177081129
30
0
41
1
10
135.988164066046
20
4.46406963262541
30
0
41
1
10
135.99519824602
20
4.6186444378645
30
0
41
1
10
136.000816419917
20
4.74230192761851
30
0
41
1
10
136.003622514482
20
4.80412850323748
30
0
41
1
10
136.00479244991
20
4.82992171629201
30
0
0
SPLINE
5
178
100
AcDbEntity
8
1
62
256
6
ByLayer
370
18
48
1
60
0
100
AcDbSpline
70
4
71
3
72
8
73
4
40
0
40
0
40
0
40
0
40
1
40
1
40
1
40
1
41
1
10
136.00479244991
20
4.82992171629201
30
0
41
1
10
136.004870101396
20
4.8316336751702
30
0
41
1
10
136.004948171642
20
4.83334000351829
30
0
41
1
10
136.005026673609
20
4.83504088677967
30
0
0
SPLINE
5
179
100
AcDbEntity
8
1
62
256
6
ByLayer
370
18
48
1
60
0
100
AcDbSpline
70
4
71
3
72
18
73
14
40
0
40
0
40
0
40
0
40
0.121162915242482
40
0.246484790770075
40
0.497128541825259
40
0.622450417352852
40
0.747772292880444
40
0.873094168408036
40
0.935755106171833
40
0.967085575053731
40
0.98275080949468
40
0.998416043935629
40
1
40
1
40
1
40
1
41
1
10
136.005026673609
20
4.83504088677969
30
0
41
1
10
136.007313669994
20
4.88459268826591
30
0
41
1
10
136.012711572262
20
4.97599571898942
30
0
41
1
10
136.029332123243
20
5.16004246387044
30
0
41
1
10
136.05637795276
20
5.34462106150966
30
0
41
1
10
136.096960813137
20
5.52772069197252
30
0
41
1
10
136.134988316816
20
5.66331461892287
30
0
41
1
10
136.173393228498
20
5.7734652729884
30
0
41
1
10
136.205186524543
20
5.85100793011546
30
0
41
1
10
136.220915086211
20
5.88683123247691
30
0
41
1
10
136.232249276012
20
5.91145952043993
30
0
41
1
10
136.236997679521
20
5.92157675220213
30
0
41
1
10
136.238759017097
20
5.92531196405622
30
0
41
1
10
136.238915197025
20
5.92564298205306
30
0
0
SPLINE
5
17A
100
AcDbEntity
8
1
62
256
6
ByLayer
370
18
48
1
60
0
100
AcDbSpline
70
4
71
3
72
18
73
14
40
0
40
0
40
0
40
0
40
0.0140665360123347
40
0.0610130372842227
40
0.123608372313407
40
0.186203707342591
40
0.248799042371775
40
0.499180382488511
40
0.749561722605247
40
0.874752392663616
40
0.9373477276928
40
0.999943062721984
40
1
40
1
40
1
40
1
41
1
10
136.238915197025
20
5.92564298205306
30
0
41
1
10
136.240303627612
20
5.92858571302011
30
0
41
1
10
136.244419984166
20
5.93724354018636
30
0
41
1
10
136.251313269903
20
5.95173828524707
30
0
41
1
10
136.258813635247
20
5.96742814825853
30
0
41
1
10
136.26880800423
20
5.98832673641218
30
0
41
1
10
136.290307402024
20
6.03320639390168
30
0
41
1
10
136.320295305587
20
6.09527668430741
30
0
41
1
10
136.355110841505
20
6.16654943087616
30
0
41
1
10
136.379300598694
20
6.21560273894252
30
0
41
1
10
136.393519320422
20
6.24430471238585
30
0
41
1
10
136.400479519724
20
6.25833182872816
30
0
41
1
10
136.403870544086
20
6.26511607452468
30
0
41
1
10
136.40387461025
20
6.26512420943635
30
0
0
SPLINE
5
17B
100
AcDbEntity
8
1
62
256
6
ByLayer
370
18
48
1
60
0
100
AcDbSpline
70
4
71
3
72
24
73
20
40
0
40
0
40
0
40
0
40
0.0624500259146301
40
0.124960610188416
40
0.249981778735989
40
0.265609424804435
40
0.281237070872882
40
0.30077162845844
40
0.312492363009775
40
0.343747655146668
40
0.375002947283561
40
0.500024115831134
40
0.750066452926278
40
0.875087621473851
40
0.937598205747637
40
0.96885349788453
40
0.984481143952977
40
0.9922949669872
40
1
40
1
40
1
40
1
41
1
10
136.403874821986
20
6.26512463304371
30
0
41
1
10
136.407259983497
20
6.27189709688523
30
0
41
1
10
136.41385422376
20
6.28498773006507
30
0
41
1
10
136.427038634161
20
6.3103633493314
30
0
41
1
10
136.438424536862
20
6.33135219252912
30
0
41
1
10
136.447410716689
20
6.34731088442805
30
0
41
1
10
136.450348018481
20
6.35248414084737
30
0
41
1
10
136.453077167986
20
6.35724578598092
30
0
41
1
10
136.456737648757
20
6.36357868678743
30
0
41
1
10
136.461120277422
20
6.37107318326591
30
0
41
1
10
136.472328807535
20
6.38991406396212
30
0
41
1
10
136.497381343926
20
6.43024697127584
30
0
41
1
10
136.530804891214
20
6.47859068787142
30
0
41
1
10
136.56314983195
20
6.51882477870672
30
0
41
1
10
136.58111892878
20
6.53739607962956
30
0
41
1
10
136.590629891167
20
6.54615350119289
30
0
41
1
10
136.595684903664
20
6.55021108297768
30
0
41
1
10
136.598726821124
20
6.55237386103227
30
0
41
1
10
136.600241949291
20
6.55340728647533
30
0
41
1
10
136.601104766324
20
6.55388133866299
30
0
0
SPLINE
5
17C
100
AcDbEntity
8
1
62
256
6
ByLayer
370
18
48
1
60
0
100
AcDbSpline
70
4
71
3
72
30
73
26
40
0
40
0
40
0
40
0
40
0.0001094202678666
40
0.0079685106254029
40
0.0158276009829393
40
0.0315457816980119
40
0.0629821431281573
40
0.125854865988448
40
0.251600311709029
40
0.377345757429611
40
0.408782118859756
40
0.416641209217292
40
0.424500299574829
40
0.432359389932365
40
0.440218480289901
40
0.471654841720047
40
0.503091203150192
40
0.518809383865265
40
0.628836648870773
40
0.754582094591355
40
0.817454817451645
40
0.880327540311936
40
0.943200263172227
40
0.974636624602372
40
1
40
1
40
1
40
1
41
1
10
136.601104766323
20
6.55388133866296
30
0
41
1
10
136.601116948735
20
6.55388803196948
30
0
41
1
10
136.602005735759
20
6.55437490401013
30
0
41
1
10
136.604006574545
20
6.5552591463819
30
0
41
1
10
136.607855735571
20
6.5570458800303
30
0
41
1
10
136.614667167398
20
6.56011347622538
30
0
41
1
10
136.628315422582
20
6.56610478410562
30
0
41
1
10
136.655880246183
20
6.57746096715667
30
0
41
1
10
136.695878997133
20
6.59197057057023
30
0
41
1
10
136.732490277848
20
6.60307569030178
30
0
41
1
10
136.754016696004
20
6.6088900311706
30
0
41
1
10
136.760178278264
20
6.61050473559465
30
0
41
1
10
136.763261257099
20
6.61130282401362
30
0
41
1
10
136.766346375929
20
6.61209169201135
30
0
41
1
10
136.77252079816
20
6.6136510739079
30
0
41
1
10
136.781797765826
20
6.61592164417027
30
0
41
1
10
136.792130224169
20
6.61832503081092
30
0
41
1
10
136.812828398819
20
6.62295607002616
30
0
41
1
10
136.84607079724
20
6.62962238061837
30
0
41
1
10
136.885566735171
20
6.63598397962929
30
0
41
1
10
136.919980205332
20
6.64040618686451
30
0
41
1
10
136.945236435093
20
6.64319525136301
30
0
41
1
10
136.963620749524
20
6.64494974730542
30
0
41
1
10
136.981188509145
20
6.64628951269978
30
0
41
1
10
136.978964890576
20
6.64619395218492
30
0
41
1
10
136.995326006905
20
6.64723993671657
30
0
0
SPLINE
5
17D
100
AcDbEntity
8
1
62
256
6
ByLayer
370
18
48
1
60
0
100
AcDbSpline
70
4
71
3
72
25
73
21
40
0
40
0
40
0
40
0
40
0.0059772068261407
40
0.0214474905650137
40
0.0369177743038866
40
0.0678583417816326
40
0.129739476737124
40
0.253501746648108
40
0.485556002731202
40
0.501026286470075
40
0.531966853947821
40
0.562907421425567
40
0.624788556381059
40
0.748550826292043
40
0.872313096203027
40
0.934194231158518
40
0.965134798636264
40
0.980605082375137
40
0.99607536611401
40
1
40
1
40
1
40
1
41
1
10
136.995326006905
20
6.64723993671657
30
0
41
1
10
136.999243499328
20
6.64749038640443
30
0
41
1
10
137.01687030714
20
6.64861300749968
30
0
41
1
10
137.07518172839
20
6.6523041961332
30
0
41
1
10
137.228615484298
20
6.66192886704778
30
0
41
1
10
137.435157256428
20
6.67453156243042
30
0
41
1
10
137.891813300071
20
6.70139426831082
30
0
41
1
10
138.745614355934
20
6.74720780279716
30
0
41
1
10
139.512067265143
20
6.7813708390172
30
0
41
1
10
140.087059965453
20
6.80348232850969
30
0
41
1
10
140.246775040286
20
6.80944124941385
30
0
41
1
10
140.502261864188
20
6.81858643912608
30
0
41
1
10
140.949091673207
20
6.83357352477483
30
0
41
1
10
141.58594684234
20
6.85210279159611
30
0
41
1
10
142.218982886444
20
6.86685717988189
30
0
41
1
10
142.674623238531
20
6.87544075648492
30
0
41
1
10
142.882918256764
20
6.878968478161
30
0
41
1
10
143.033686527749
20
6.88131340482695
30
0
41
1
10
143.091372452963
20
6.88218479936992
30
0
41
1
10
143.111535605916
20
6.88247541868989
30
0
41
1
10
143.115192547708
20
6.88252722253694
30
0
0
SPLINE
5
17E
100
AcDbEntity
8
1
62
256
6
ByLayer
370
18
48
1
60
0
100
AcDbSpline
70
4
71
3
72
33
73
29
40
0
40
0
40
0
40
0
40
0.0273823410709184
40
0.0587425444385316
40
0.0901027478061449
40
0.121462951173758
40
0.184183357908984
40
0.246903764644211
40
0.309624171379437
40
0.372344578114664
40
0.403704781482277
40
0.43506498484989
40
0.497785391585116
40
0.52914559495273
40
0.560505798320343
40
0.591866001687956
40
0.623226205055569
40
0.685946611790796
40
0.717306815158409
40
0.748667018526022
40
0.764347120209829
40
0.811387425261249
40
0.874107831996475
40
0.936828238731702
40
0.968188442099315
40
0.983868543783121
40
0.999548645466928
40
1
40
1
40
1
40
1
41
1
10
143.115192547708
20
6.88252722253694
30
0
41
1
10
143.140365773917
20
6.88288382377223
30
0
41
1
10
143.151354607339
20
6.88293684084096
30
0
41
1
10
143.176817240803
20
6.88285054044229
30
0
41
1
10
143.207984455134
20
6.88248331972721
30
0
41
1
10
143.250650017418
20
6.8815277954063
30
0
41
1
10
143.302060038567
20
6.87935719173677
30
0
41
1
10
143.363975523037
20
6.87509492512936
30
0
41
1
10
143.425608635018
20
6.86903636924882
30
0
41
1
10
143.476615294307
20
6.86193395982056
30
0
41
1
10
143.517392058545
20
6.85449893657076
30
0
41
1
10
143.557523731753
20
6.84434214589103
30
0
41
1
10
143.595381916856
20
6.82809485200156
30
0
41
1
10
143.627929843338
20
6.80349014806231
30
0
41
1
10
143.648953349027
20
6.78182883722999
30
0
41
1
10
143.667395985423
20
6.7577703321686
30
0
41
1
10
143.688907299676
20
6.72374650633876
30
0
41
1
10
143.706401566627
20
6.68727003427381
30
0
41
1
10
143.719109974556
20
6.64926089950711
30
0
41
1
10
143.725625046009
20
6.6251080887682
30
0
41
1
10
143.732578270566
20
6.59594177408107
30
0
41
1
10
143.740343281062
20
6.55671298753791
30
0
41
1
10
143.747624399944
20
6.50184512715347
30
0
41
1
10
143.751209311602
20
6.45093457166948
30
0
41
1
10
143.752258059281
20
6.41693697262832
30
0
41
1
10
143.752411758338
20
6.39468044634205
30
0
41
1
10
143.752368123192
20
6.38505317141451
30
0
41
1
10
143.752335967115
20
6.3808725691068
30
0
41
1
10
143.752335059905
20
6.38075613101455
30
0
0
SPLINE
5
17F
100
AcDbEntity
8
1
62
256
6
ByLayer
370
18
48
1
60
0
100
AcDbSpline
70
4
71
3
72
22
73
18
40
0
40
0
40
0
40
0
40
0.0112892879508321
40
0.0621620442639553
40
0.124774667418569
40
0.249999913727795
40
0.500450406346248
40
0.750900898964701
40
0.813513522119314
40
0.829166677907968
40
0.844819833696621
40
0.860472989485274
40
0.876126145273927
40
0.938738768428541
40
0.970045080005847
40
0.985698235794501
40
1
40
1
40
1
40
1
41
1
10
143.752335059905
20
6.38075613101455
30
0
41
1
10
143.752312329689
20
6.37783876586732
30
0
41
1
10
143.752161279766
20
6.36362152407182
30
0
41
1
10
143.75191756551
20
6.34130133887155
30
0
41
1
10
143.751505119462
20
6.30829486286612
30
0
41
1
10
143.750504243666
20
6.22677056002266
30
0
41
1
10
143.748922159405
20
6.12112198840876
30
0
41
1
10
143.747327049087
20
6.02277235914036
30
0
41
1
10
143.746203252089
20
5.96581538849685
30
0
41
1
10
143.745875135426
20
5.94953444799293
30
0
41
1
10
143.745710009558
20
5.94139062035228
30
0
41
1
10
143.745544154975
20
5.93324158199826
30
0
41
1
10
143.745211666032
20
5.91692937721413
30
0
41
1
10
143.744823464381
20
5.89784645368337
30
0
41
1
10
143.744506028261
20
5.87913930902397
30
0
41
1
10
143.744260381681
20
5.86802730631163
30
0
41
1
10
143.744294140801
20
5.86432069517628
30
0
41
1
10
143.744129442612
20
5.85998225456945
30
0
0
SPLINE
5
180
100
AcDbEntity
8
1
62
256
6
ByLayer
370
18
48
1
60
0
100
AcDbSpline
70
4
71
3
72
21
73
17
40
0
40
0
40
0
40
0
40
0.0013467736322191
40
0.0169464397395153
40
0.0325461058468116
40
0.0637454380614041
40
0.126144102490589
40
0.250941431348959
40
0.375738760207329
40
0.5005360890657
40
0.62533341792407
40
0.75013074678244
40
0.87492807564081
40
0.937326740069995
40
0.99972540449918
40
1
40
1
40
1
40
1
41
1
10
143.744129442612
20
5.85998225456945
30
0
41
1
10
143.744113880075
20
5.85957230989158
30
0
41
1
10
143.743897742387
20
5.8541253853827
30
0
41
1
10
143.742936340108
20
5.83593026341364
30
0
41
1
10
143.741706616121
20
5.80632007357832
30
0
41
1
10
143.739052522151
20
5.75150081118042
30
0
41
1
10
143.734203782497
20
5.64378972052936
30
0
41
1
10
143.727021100472
20
5.48899921895563
30
0
41
1
10
143.718485373414
20
5.30374873518215
30
0
41
1
10
143.709980690115
20
5.11825355222913
30
0
41
1
10
143.701454602961
20
4.93177085280186
30
0
41
1
10
143.693011436777
20
4.74667961979287
30
0
41
1
10
143.686131503121
20
4.59557896671106
30
0
41
1
10
143.680176111048
20
4.46431485617211
30
0
41
1
10
143.677411284304
20
4.40278698511091
30
0
41
1
10
143.67617488448
20
4.3763085211138
30
0
41
1
10
143.676169470167
20
4.37619259215248
30
0
0
SPLINE
5
181
100
AcDbEntity
8
1
62
256
6
ByLayer
370
18
48
1
60
0
100
AcDbSpline
70
4
71
3
72
14
73
10
40
0
40
0
40
0
40
0
40
0.0251646095500592
40
0.0507801200283941
40
0.102011140985064
40
0.204473182898403
40
0.409397266725082
40
0.819245434378441
40
1
40
1
40
1
40
1
41
1
10
143.676169470167
20
4.37619259215248
30
0
41
1
10
143.675867299454
20
4.36972264085182
30
0
41
1
10
143.675275317011
20
4.35719041696359
30
0
41
1
10
143.674110609567
20
4.33377449052557
30
0
41
1
10
143.671999861273
20
4.29631430855002
30
0
41
1
10
143.666486987271
20
4.21268994131626
30
0
41
1
10
143.651880029564
20
4.05175708506292
30
0
41
1
10
143.62565225899
20
3.87210520531309
30
0
41
1
10
143.59673330255
20
3.73997555589634
30
0
41
1
10
143.586924042812
20
3.6997873551978
30
0
0
SPLINE
5
182
100
AcDbEntity
8
1
62
256
6
ByLayer
370
18
48
1
60
0
100
AcDbSpline
70
4
71
3
72
21
73
17
40
0
40
0
40
0
40
0
40
0.0039822658528455
40
0.0174419649629421
40
0.0309016640730388
40
0.0847404605134256
40
0.138579256953812
40
0.246256849834586
40
0.353934442715359
40
0.461612035596133
40
0.569289628476906
40
0.67696722135768
40
0.784644814238453
40
0.892322407119227
40
0.946161203559613
40
1
40
1
40
1
40
1
41
1
10
144.9947462273
20
7.17086531911144
30
0
41
1
10
144.994712168164
20
7.17238910715852
30
0
41
1
10
144.994548305706
20
7.17914738444094
30
0
41
1
10
144.99411110234
20
7.19192894015478
30
0
41
1
10
144.992282702337
20
7.2257983087118
30
0
41
1
10
144.986842399533
20
7.27521989879293
30
0
41
1
10
144.969805507277
20
7.36225425600762
30
0
41
1
10
144.935460329578
20
7.46608133345674
30
0
41
1
10
144.873788288119
20
7.58321584737141
30
0
41
1
10
144.793854063874
20
7.68808531185152
30
0
41
1
10
144.697039397802
20
7.77910449010272
30
0
41
1
10
144.58606897212
20
7.85326933726245
30
0
41
1
10
144.463575205654
20
7.90861975226215
30
0
41
1
10
144.354393452701
20
7.93749913206531
30
0
41
1
10
144.264995946176
20
7.94969969547151
30
0
41
1
10
144.219523507252
20
7.95206857458459
30
0
41
1
10
144.19754711071
20
7.95228629383746
30
0
0
SPLINE
5
183
100
AcDbEntity
8
1
62
256
6
ByLayer
370
18
48
1
60
0
100
AcDbSpline
70
4
71
3
72
8
73
4
40
0
40
0
40
0
40
0
40
1
40
1
40
1
40
1
41
1
10
144.19754711071
20
7.95228629383746
30
0
41
1
10
144.197221041667
20
7.95228952419001
30
0
41
1
10
144.196895831568
20
7.95229274534765
30
0
41
1
10
144.196571454922
20
7.95229595756396
30
0
0
SPLINE
5
184
100
AcDbEntity
8
1
62
256
6
ByLayer
370
18
48
1
60
0
100
AcDbSpline
70
4
71
3
72
11
73
7
40
0
40
0
40
0
40
0
40
0.0589687449403649
40
0.484373627158125
40
0.970550635406995
40
1
40
1
40
1
40
1
41
1
10
144.196571454922
20
7.95229595756396
30
0
41
1
10
144.185964665365
20
7.95240099380104
30
0
41
1
10
144.106159666148
20
7.95318524010733
30
0
41
1
10
143.946239906425
20
7.95466253494843
30
0
41
1
10
143.79116957341
20
7.95590623635766
30
0
41
1
10
143.706199220357
20
7.95652324065159
30
0
41
1
10
143.70134623842
20
7.95655827014826
30
0
0
SPLINE
5
185
100
AcDbEntity
8
1
62
256
6
ByLayer
370
18
48
1
60
0
100
AcDbSpline
70
4
71
3
72
17
73
13
40
0
40
0
40
0
40
0
40
0.06009502291424
40
0.184038916465188
40
0.431926703567085
40
0.679814490668981
40
0.927702277770878
40
0.989674224546352
40
0.993547471219819
40
0.997420717893286
40
0.99935734123002
40
1
40
1
40
1
40
1
41
1
10
143.70134623842
20
7.95655827014826
30
0
41
1
10
143.545964303788
20
7.95767983850138
30
0
41
1
10
143.070096906148
20
7.96045549529507
30
0
41
1
10
141.953077320149
20
7.96248206562672
30
0
41
1
10
140.349957856285
20
7.95234037441196
30
0
41
1
10
138.425703736371
20
7.91958387677974
30
0
41
1
10
136.979532477271
20
7.87968478495998
30
0
41
1
10
136.171842486528
20
7.85212714035407
30
0
41
1
10
135.989592629906
20
7.8456693977146
30
0
41
1
10
135.964690563957
20
7.84478100940433
30
0
41
1
10
135.948529395081
20
7.84420025764285
30
0
41
1
10
135.941207855119
20
7.84393475763704
30
0
41
1
10
135.939344565004
20
7.84386354909742
30
0
0
SPLINE
5
186
100
AcDbEntity
8
1
62
256
6
ByLayer
370
18
48
1
60
0
100
AcDbSpline
70
4
71
3
72
20
73
16
40
0
40
0
40
0
40
0
40
0.0166268555035517
40
0.0415115835803557
40
0.0663963116571597
40
0.165935223964376
40
0.265474136271592
40
0.3152435924252
40
0.464551960886024
40
0.663629785500456
40
0.862707610114888
40
0.912477066268496
40
0.962246522422104
40
0.987131250498908
40
1
40
1
40
1
40
1
41
1
10
135.939344565004
20
7.84386354909742
30
0
41
1
10
135.935592914053
20
7.84372017390137
30
0
41
1
10
135.925831165365
20
7.84331104027206
30
0
41
1
10
135.909814403104
20
7.84220934189355
30
0
41
1
10
135.873408165005
20
7.83861185032353
30
0
41
1
10
135.819960499553
20
7.82933759997019
30
0
41
1
10
135.762031674095
20
7.81209251604326
30
0
41
1
10
135.693944121407
20
7.78524598210484
30
0
41
1
10
135.608029873386
20
7.73918993528568
30
0
41
1
10
135.504774443361
20
7.65326420415582
30
0
41
1
10
135.438976790636
20
7.56460928754947
30
0
41
1
10
135.405249199274
20
7.50142597292549
30
0
41
1
10
135.392767103648
20
7.47414231521722
30
0
41
1
10
135.384753183947
20
7.45429894666785
30
0
41
1
10
135.381780853679
20
7.44639942932341
30
0
41
1
10
135.380803238257
20
7.44376888095266
30
0
0
SPLINE
5
187
100
AcDbEntity
8
1
62
256
6
ByLayer
370
18
48
1
60
0
100
AcDbSpline
70
4
71
3
72
13
73
9
40
0
40
0
40
0
40
0
40
0.0057624935460928
40
0.0296303931158667
40
0.220573589674058
40
0.60245998279044
40
0.984346375906822
40
1
40
1
40
1
40
1
41
1
10
135.380803238257
20
7.44376888095266
30
0
41
1
10
135.379890406286
20
7.4413126506202
30
0
41
1
10
135.375356010681
20
7.42896126794091
30
0
41
1
10
135.344374671302
20
7.34533529512953
30
0
41
1
10
135.257741124728
20
7.1106381410201
30
0
41
1
10
135.121027758492
20
6.74082630007115
30
0
41
1
10
135.009809927573
20
6.43999613933781
30
0
41
1
10
134.952088156405
20
6.28365123430262
30
0
41
1
10
134.949818419018
20
6.27748733764389
30
0
0
SPLINE
5
188
100
AcDbEntity
8
1
62
256
6
ByLayer
370
18
48
1
60
0
100
AcDbSpline
70
4
71
3
72
17
73
13
40
0
40
0
40
0
40
0
40
0.0295588681041378
40
0.0735401813589713
40
0.161502807868638
40
0.337428060887972
40
0.513353313907306
40
0.68927856692664
40
0.865203819945974
40
0.953166446455641
40
0.997147759710475
40
1
40
1
40
1
40
1
41
1
10
134.949818419018
20
6.27748733764392
30
0
41
1
10
134.945166581738
20
6.26485440290651
30
0
41
1
10
134.933625857806
20
6.23334495296319
30
0
41
1
10
134.909006448766
20
6.16334666959003
30
0
41
1
10
134.864696027258
20
6.0291779282484
30
0
41
1
10
134.809172547605
20
5.83550760623305
30
0
41
1
10
134.755097941826
20
5.60064270300529
30
0
41
1
10
134.71364849987
20
5.36342247818519
30
0
41
1
10
134.689883891109
20
5.16506060153912
30
0
41
1
10
134.678722426619
20
5.02554894110131
30
0
41
1
10
134.675248692214
20
4.96472934960121
30
0
41
1
10
134.674120446738
20
4.9437028297402
30
0
41
1
10
134.674052005211
20
4.94242266695991
30
0
0
SPLINE
5
189
100
AcDbEntity
8
1
62
256
6
ByLayer
370
18
48
1
60
0
100
AcDbSpline
70
4
71
3
72
13
73
9
40
0
40
0
40
0
40
0
40
0.0490235895154862
40
0.0752352409326677
40
0.258716800852938
40
0.468410012190391
40
0.887796434865295
40
1
40
1
40
1
40
1
41
1
10
134.674052005211
20
4.94242266695991
30
0
41
1
10
134.673065083957
20
4.92396282380042
30
0
41
1
10
134.67163679269
20
4.8957564081972
30
0
41
1
10
134.666663325861
20
4.79938178613088
30
0
41
1
10
134.658578532952
20
4.64314087596955
30
0
41
1
10
134.64284725626
20
4.34039488881052
30
0
41
1
10
134.62842383049
20
4.06420672109425
30
0
41
1
10
134.618072824504
20
3.86614566301319
30
0
41
1
10
134.615890333592
20
3.82434044235328
30
0
0
SPLINE
5
18A
100
AcDbEntity
8
1
62
256
6
ByLayer
370
18
48
1
60
0
100
AcDbSpline
70
4
71
3
72
12
73
8
40
0
40
0
40
0
40
0
40
0.504351814568978
40
0.684024883139679
40
0.863697951710381
40
0.953534485995731
40
1
40
1
40
1
40
1
41
1
10
144.109640163245
20
1.77969851763731
30
0
41
1
10
144.131259596636
20
1.80607589110352
30
0
41
1
10
144.157557768416
20
1.84419507860295
30
0
41
1
10
144.18457994957
20
1.8948154910924
30
0
41
1
10
144.197062346472
20
1.92209854205174
30
0
41
1
10
144.20507668974
20
1.94194169135915
30
0
41
1
10
144.208049240645
20
1.94984169927693
30
0
41
1
10
144.209027030162
20
1.95247271975356
30
0
0
SPLINE
5
18B
100
AcDbEntity
8
1
62
256
6
ByLayer
370
18
48
1
60
0
100
AcDbSpline
70
4
71
3
72
13
73
9
40
0
40
0
40
0
40
0
40
0.0057614727139887
40
0.0296295181346366
40
0.22057388149982
40
0.602462608230188
40
0.984351334960555
40
1
40
1
40
1
40
1
41
1
10
144.209027030162
20
1.95247271975356
30
0
41
1
10
144.209939701201
20
1.95492852046718
30
0
41
1
10
144.214473982628
20
1.96727971998345
30
0
41
1
10
144.245453754098
20
2.05090707827657
30
0
41
1
10
144.332085984143
20
2.28560828858826
30
0
41
1
10
144.468798200808
20
2.65542243143295
30
0
41
1
10
144.580016757795
20
2.95624852538359
30
0
41
1
10
144.637739297385
20
3.11259105071483
30
0
41
1
10
144.640008363088
20
3.1187529394615
30
0
0
SPLINE
5
18C
100
AcDbEntity
8
1
62
256
6
ByLayer
370
18
48
1
60
0
100
AcDbSpline
70
4
71
3
72
17
73
13
40
0
40
0
40
0
40
0
40
0.0295634678907745
40
0.0735446958500565
40
0.16150715176862
40
0.337432063605749
40
0.513356975442877
40
0.689281887280005
40
0.865206799117133
40
0.953169255035697
40
0.997150482994979
40
1
40
1
40
1
40
1
41
1
10
144.640008363088
20
3.1187529394615
30
0
41
1
10
144.64466105884
20
3.13138782860122
30
0
41
1
10
144.656202832151
20
3.16289920062235
30
0
41
1
10
144.680823389811
20
3.23289949548362
30
0
41
1
10
144.725134270425
20
3.36706866671355
30
0
41
1
10
144.780657445392
20
3.56074009317521
30
0
41
1
10
144.83473162481
20
3.79560547637991
30
0
41
1
10
144.876180991675
20
4.0328254977301
30
0
41
1
10
144.899945442219
20
4.23118734365812
30
0
41
1
10
144.911106781478
20
4.37069906739936
30
0
41
1
10
144.914580409742
20
4.43151736150907
30
0
41
1
10
144.915708581516
20
4.45254265610376
30
0
41
1
10
144.915776957563
20
4.4538215991912
30
0
0
SPLINE
5
18D
100
AcDbEntity
8
1
62
256
6
ByLayer
370
18
48
1
60
0
100
AcDbSpline
70
4
71
3
72
32
73
28
40
0
40
0
40
0
40
0
40
0.0201722500279424
40
0.0309571202211268
40
0.106451211573417
40
0.192730173118892
40
0.365288096209842
40
0.451567057755317
40
0.494706538528055
40
0.537846019300792
40
0.543238454397384
40
0.548630889493977
40
0.554023324590569
40
0.556719542138865
40
0.559415759687161
40
0.564808194783753
40
0.570200629880345
40
0.58098550007353
40
0.624124980846267
40
0.710403942391742
40
0.796682903937217
40
0.882961865482692
40
0.969240827028167
40
0.980025697221351
40
0.990810567414536
40
0.996203002511128
40
1
40
1
40
1
40
1
41
1
10
144.915776957563
20
4.4538215991912
30
0
41
1
10
144.916763940199
20
4.47228266375274
30
0
41
1
10
144.91819227427
20
4.5004903049275
30
0
41
1
10
144.923165713115
20
4.59686632132809
30
0
41
1
10
144.931250178917
20
4.75310790067897
30
0
41
1
10
144.946980500919
20
5.05585582969758
30
0
41
1
10
144.963299937843
20
5.36836858973768
30
0
41
1
10
144.977593158383
20
5.64181583703151
30
0
41
1
10
144.985714415928
20
5.79806990657872
30
0
41
1
10
144.990119216593
20
5.88108176085134
30
0
41
1
10
144.992658694835
20
5.92991060112723
30
0
41
1
10
144.993401534027
20
5.94455926929487
30
0
41
1
10
144.994061516264
20
5.95676845186534
30
0
41
1
10
144.994564359328
20
5.96653281593888
30
0
41
1
10
144.994867925622
20
5.97630043538345
30
0
41
1
10
144.995020122303
20
5.98851513045204
30
0
41
1
10
144.995275815099
20
6.00805825177
30
0
41
1
10
144.996140663043
20
6.06179587794358
30
0
41
1
10
144.998046868211
20
6.18879931984938
30
0
41
1
10
144.999732895747
20
6.38415735171819
30
0
41
1
10
145.000219638445
20
6.61852893769915
30
0
41
1
10
144.999118153886
20
6.85284264530534
30
0
41
1
10
144.997176294373
20
7.01877398084736
30
0
41
1
10
144.995651973342
20
7.11636708784408
30
0
41
1
10
144.995228453291
20
7.14082807063318
30
0
41
1
10
144.994977494901
20
7.15872569126503
30
0
41
1
10
144.99482728497
20
7.16723884110922
30
0
41
1
10
144.9947462273
20
7.17086531911144
30
0
0
SPLINE
5
18E
100
AcDbEntity
8
1
62
256
6
ByLayer
370
18
48
1
60
0
100
AcDbSpline
70
4
71
3
72
57
73
53
40
0
40
0
40
0
40
0
40
0.0095682792739831
40
0.0191365585479662
40
0.0382731170959325
40
0.0574096756438987
40
0.0765462341918649
40
0.0956827927398312
40
0.114819351287797
40
0.133955909835764
40
0.15309246838373
40
0.162660747657713
40
0.172229026931696
40
0.174621096750192
40
0.177013166568688
40
0.179405236387184
40
0.181797306205679
40
0.186581445842671
40
0.191365585479662
40
0.229638702575595
40
0.267911819671527
40
0.30618493676746
40
0.344458053863392
40
0.363594612411358
40
0.36837875204835
40
0.370770821866846
40
0.373162891685342
40
0.37435892659459
40
0.375554961503837
40
0.377947031322333
40
0.380339101140829
40
0.382731170959325
40
0.401867729507291
40
0.421004288055257
40
0.45927740515119
40
0.535823639343055
40
0.574096756438987
40
0.607585733897928
40
0.61236987353492
40
0.621938152808903
40
0.631506432082886
40
0.650642990630852
40
0.688916107726784
40
0.727189224822717
40
0.765462341918649
40
0.803735459014582
40
0.822872017562548
40
0.832440296836531
40
0.842008576110514
40
0.918554810302379
40
0.995101044494244
40
1
40
1
40
1
40
1
41
1
10
144.186507721975
20
7.75942672796486
30
0
41
1
10
144.204766916218
20
7.75924582381478
30
0
41
1
10
144.239467015805
20
7.75741101497019
30
0
41
1
10
144.308086154001
20
7.74794812789588
30
0
41
1
10
144.391504343064
20
7.72557263014687
30
0
41
1
10
144.48498501414
20
7.68285658240984
30
0
41
1
10
144.569657498897
20
7.62582210074174
30
0
41
1
10
144.643334766816
20
7.55601620164978
30
0
41
1
10
144.704415513036
20
7.47540972387003
30
0
41
1
10
144.751298432695
20
7.3859735061385
30
0
41
1
10
144.777608785459
20
7.30618015414888
30
0
41
1
10
144.790519921456
20
7.23947413455295
30
0
41
1
10
144.794625087796
20
7.20177500375488
30
0
41
1
10
144.795976118507
20
7.17728304196996
30
0
41
1
10
144.796427089145
20
7.16444286448896
30
0
41
1
10
144.796706119717
20
7.15028613541477
30
0
41
1
10
144.796983004658
20
7.13060766822858
30
0
41
1
10
144.797402126666
20
7.1062903566513
30
0
41
1
10
144.79924588171
20
7.00968657580924
30
0
41
1
10
144.801960404676
20
6.8441862558785
30
0
41
1
10
144.803935051092
20
6.6110920237594
30
0
41
1
10
144.802953332214
20
6.37781116821571
30
0
41
1
10
144.79938804681
20
6.18340983442991
30
0
41
1
10
144.795881820092
20
6.05705034931785
30
0
41
1
10
144.794202115816
20
6.00359095922414
30
0
41
1
10
144.793570261331
20
5.98415122782873
30
0
41
1
10
144.793166655575
20
5.9720014160587
30
0
41
1
10
144.79283859816
20
5.96228157936014
30
0
41
1
10
144.792507107274
20
5.95256175130856
30
0
41
1
10
144.792086334168
20
5.94041198277361
30
0
41
1
10
144.791571241663
20
5.9258322879912
30
0
41
1
10
144.789820685463
20
5.8772334002893
30
0
41
1
10
144.786590149623
20
5.79461604304231
30
0
41
1
10
144.779791774727
20
5.63909999550515
30
0
41
1
10
144.766364846897
20
5.36693494167383
30
0
41
1
10
144.749138318046
20
5.05581934704119
30
0
41
1
10
144.733148589346
20
4.75438396170341
30
0
41
1
10
144.725036594726
20
4.5986382096051
30
0
41
1
10
144.720081408675
20
4.50170228934775
30
0
41
1
10
144.717627161056
20
4.45332263630544
30
0
41
1
10
144.713255309486
20
4.37673237302869
30
0
41
1
10
144.702587303044
20
4.24349346117231
30
0
41
1
10
144.679795236163
20
4.05319821866735
30
0
41
1
10
144.640130784235
20
3.82623038220569
30
0
41
1
10
144.588315633004
20
3.60120618853625
30
0
41
1
10
144.535146817865
20
3.41577005301181
30
0
41
1
10
144.4927308988
20
3.28735470835451
30
0
41
1
10
144.467067691978
20
3.21439507476387
30
0
41
1
10
144.399474280549
20
3.03130145052015
30
0
41
1
10
144.282313356652
20
2.7144699506222
30
0
41
1
10
144.168620738755
20
2.40667039586131
30
0
41
1
10
144.110921856199
20
2.25062131529268
30
0
41
1
10
144.107451549083
20
2.24123585993814
30
0
0
SPLINE
5
18F
100
AcDbEntity
8
1
62
256
6
ByLayer
370
18
48
1
60
0
100
AcDbSpline
70
4
71
3
72
51
73
47
40
0
40
0
40
0
40
0
40
0.0136196425123788
40
0.051557348569595
40
0.0705262015982031
40
0.0871239479982352
40
0.0894950546268112
40
0.0942372678839632
40
0.0989794811411153
40
0.108463907655419
40
0.127432760684027
40
0.146401613712635
40
0.165370466741244
40
0.184339319769852
40
0.193823746284156
40
0.198565959541308
40
0.20330817279846
40
0.241245878855676
40
0.279183584912892
40
0.2981524379415
40
0.300523544570076
40
0.301709097884364
40
0.302894651198652
40
0.305265757827228
40
0.307636864455804
40
0.317121290970108
40
0.326605717484413
40
0.333719037370141
40
0.336090143998717
40
0.340832357255869
40
0.34557457051302
40
0.346760123827309
40
0.347945677141597
40
0.349131230455885
40
0.350316783770173
40
0.352687890398749
40
0.355058997027325
40
0.392996703084541
40
0.544747527313406
40
0.69649835154227
40
0.848249175771135
40
0.924124587885568
40
0.962062293942784
40
0.981031146971392
40
0.997628893371424
40
1
40
1
40
1
40
1
41
1
10
134.811474585041
20
3.78405724935456
30
0
41
1
10
134.81413003755
20
3.83988966115655
30
0
41
1
10
134.824676949194
20
4.05125025811859
30
0
41
1
10
134.840689355119
20
4.34043153409979
30
0
41
1
10
134.85668005061
20
4.64186494410637
30
0
41
1
10
134.864792423314
20
4.79760992720671
30
0
41
1
10
134.869747719576
20
4.89454561725535
30
0
41
1
10
134.87220199636
20
4.94292520661682
30
0
41
1
10
134.876573884775
20
5.0195154206742
30
0
41
1
10
134.887242010732
20
5.15275437735787
30
0
41
1
10
134.910034160103
20
5.34304972466731
30
0
41
1
10
134.949698827199
20
5.57001745669047
30
0
41
1
10
135.001514221959
20
5.79504112590985
30
0
41
1
10
135.054683190494
20
5.98047631620983
30
0
41
1
10
135.097098771634
20
6.10889129082389
30
0
41
1
10
135.122761543322
20
6.18185083586957
30
0
41
1
10
135.190353279538
20
6.36494534633579
30
0
41
1
10
135.307512376562
20
6.68177830659977
30
0
41
1
10
135.445222680071
20
7.05459496982422
30
0
41
1
10
135.529408598635
20
7.2821740368345
30
0
41
1
10
135.563037418064
20
7.3733195261868
30
0
41
1
10
135.569107952392
20
7.38963324341765
30
0
41
1
10
135.575043257333
20
7.40451929744654
30
0
41
1
10
135.583338970814
20
7.42259450316368
30
0
41
1
10
135.605870127785
20
7.46492078115591
30
0
41
1
10
135.649296516826
20
7.52343270029991
30
0
41
1
10
135.718091100183
20
7.58101927443818
30
0
41
1
10
135.775532592887
20
7.61186964893619
30
0
41
1
10
135.82082029155
20
7.6297878365624
30
0
41
1
10
135.859737332415
20
7.64135488875286
30
0
41
1
10
135.895905637633
20
7.64761511784434
30
0
41
1
10
135.919485157343
20
7.64998013833596
30
0
41
1
10
135.931549904076
20
7.65081755495521
30
0
41
1
10
135.945160173371
20
7.6513594418129
30
0
41
1
10
135.964867334412
20
7.65200382687473
30
0
41
1
10
135.990004584779
20
7.6529199774387
30
0
41
1
10
136.170229908923
20
7.65931462984003
30
0
41
1
10
136.981244134889
20
7.68697114969561
30
0
41
1
10
138.423025683257
20
7.72674109332795
30
0
41
1
10
140.345124431794
20
7.75946177031108
30
0
41
1
10
141.946449888533
20
7.76959241603569
30
0
41
1
10
143.067050906182
20
7.76755942043471
30
0
41
1
10
143.627251666551
20
7.76426890138595
30
0
41
1
10
143.937339591371
20
7.76178191886706
30
0
41
1
10
144.097369329741
20
7.76030360484719
30
0
41
1
10
144.177378124853
20
7.75951718003992
30
0
41
1
10
144.186507721975
20
7.75942672796486
30
0
0
LINE
5
7A
100
AcDbEntity
8
80
62
256
6
ByLayer
370
18
48
1
60
0
100
AcDbLine
10
0
20
0
30
0
11
-5
21
0
31
0
39
0
210
0
220
0
230
1
0
LINE
5
7B
100
AcDbEntity
8
4
62
256
6
ByLayer
370
18
48
0.05
60
0
100
AcDbLine
10
49
20
0
30
0
11
150
21
0
31
0
39
0
210
0
220
0
230
1
0
LINE
5
7D
100
AcDbEntity
8
SK4
62
256
6
ByLayer
370
18
48
0.05
60
0
100
AcDbLine
10
-5
20
0
30
0
11
150
21
0
31
0
39
0
210
0
220
0
230
1
0
LINE
5
7F
100
AcDbEntity
8
81
62
256
6
ByLayer
370
18
48
1
60
0
100
AcDbLine
10
145
20
8
30
0
11
150
21
8
31
0
39
0
210
0
220
0
230
1
0
LINE
5
80
100
AcDbEntity
8
1
62
256
6
ByLayer
370
18
48
1
60
0
100
AcDbLine
10
49
20
-7.99725
30
0
11
49
21
7.99725
31
0
39
0
210
0
220
0
230
1
0
LINE
5
81
100
AcDbEntity
8
1
62
256
6
ByLayer
370
13
48
1
60
0
100
AcDbLine
10
143.563673
20
-6.542985
30
0
11
143.653727
21
-6.253678
31
0
39
0
210
0
220
0
230
1
0
LINE
5
82
100
AcDbEntity
8
1
62
256
6
ByLayer
370
13
48
1
60
0
100
AcDbLine
10
134.818096
20
-6.820701
30
0
11
134.818096
21
3.783329
31
0
39
0
210
0
220
0
230
1
0
LINE
5
83
100
AcDbEntity
8
1
62
256
6
ByLayer
370
13
48
1
60
0
100
AcDbLine
10
142.461705
20
-2.415177
30
0
11
142.461705
21
-2.468708
31
0
39
0
210
0
220
0
230
1
0
LINE
5
84
100
AcDbEntity
8
1
62
256
6
ByLayer
370
13
48
1
60
0
100
AcDbLine
10
135.178919
20
3.755481
30
0
11
135.178919
21
-6.880972
31
0
39
0
210
0
220
0
230
1
0
LINE
5
85
100
AcDbEntity
8
1
62
256
6
ByLayer
370
13
48
1
60
0
100
AcDbLine
10
141.128241
20
-4.4245
30
0
11
141.128241
21
-6.058241
31
0
39
0
210
0
220
0
230
1
0
LINE
5
86
100
AcDbEntity
8
1
62
256
6
ByLayer
370
13
48
1
60
0
100
AcDbLine
10
143.36172
20
-6.103384
30
0
11
143.36172
21
3.717595
31
0
39
0
210
0
220
0
230
1
0
LINE
5
87
100
AcDbEntity
8
1
62
256
6
ByLayer
370
13
48
1
60
0
100
AcDbLine
10
141.128241
20
3.744431
30
0
11
141.128241
21
-0.513695
31
0
39
0
210
0
220
0
230
1
0
LINE
5
88
100
AcDbEntity
8
1
62
256
6
ByLayer
370
13
48
1
60
0
100
AcDbLine
10
141.126491
20
-0.513361
30
0
11
141.126491
21
3.744452
31
0
39
0
210
0
220
0
230
1
0
LINE
5
89
100
AcDbEntity
8
1
62
256
6
ByLayer
370
13
48
1
60
0
100
AcDbLine
10
141.126491
20
-6.05821
30
0
11
141.126491
21
-4.424945
31
0
39
0
210
0
220
0
230
1
0
LINE
5
8A
100
AcDbEntity
8
1
62
256
6
ByLayer
370
13
48
1
60
0
100
AcDbLine
10
137.991783
20
3.780255
30
0
11
137.991783
21
-6.008762
31
0
39
0
210
0
220
0
230
1
0
LINE
5
8B
100
AcDbEntity
8
1
62
256
6
ByLayer
370
13
48
1
60
0
100
AcDbLine
10
137.623315
20
-5.989534
30
0
11
137.623315
21
3.777525
31
0
39
0
210
0
220
0
230
1
0
LINE
5
8C
100
AcDbEntity
8
1
62
256
6
ByLayer
370
13
48
1
60
0
100
AcDbLine
10
119.553863
20
-7.165
30
0
11
119.553863
21
7.165
31
0
39
0
210
0
220
0
230
1
0
LINE
5
8D
100
AcDbEntity
8
1
62
256
6
ByLayer
370
13
48
1
60
0
100
AcDbLine
10
142.461705
20
-2.415177
30
0
11
142.466636
21
-2.405194
31
0
39
0
210
0
220
0
230
1
0
LINE
5
8E
100
AcDbEntity
8
1
62
256
6
ByLayer
370
18
48
1
60
0
100
AcDbLine
10
118.8
20
7.69725
30
0
11
118.8
21
-7.69725
31
0
39
0
210
0
220
0
230
1
0
LINE
5
8F
100
AcDbEntity
8
1
62
256
6
ByLayer
370
18
48
1
60
0
100
AcDbLine
10
118.5
20
7.99725
30
0
11
118.5
21
-7.99725
31
0
39
0
210
0
220
0
230
1
0
LINE
5
90
100
AcDbEntity
8
1
62
256
6
ByLayer
370
18
48
1
60
0
100
AcDbLine
10
139.730793
20
5.296018
30
0
11
139.730473
21
5.276731
31
0
39
0
210
0
220
0
230
1
0
LINE
5
91
100
AcDbEntity
8
1
62
256
6
ByLayer
370
18
48
1
60
0
100
AcDbLine
10
139.231971
20
4.979446
30
0
11
139.214638
21
4.988207
31
0
39
0
210
0
220
0
230
1
0
LINE
5
92
100
AcDbEntity
8
1
62
256
6
ByLayer
370
13
48
1
60
0
100
AcDbLine
10
139.054084
20
5.339647
30
0
11
139.231971
21
4.979446
31
0
39
0
210
0
220
0
230
1
0
LINE
5
93
100
AcDbEntity
8
1
62
256
6
ByLayer
370
13
48
1
60
0
100
AcDbLine
10
139.552587
20
5.636931
30
0
11
139.730473
21
5.276731
31
0
39
0
210
0
220
0
230
1
0
LINE
5
94
100
AcDbEntity
8
1
62
256
6
ByLayer
370
18
48
1
60
0
100
AcDbLine
10
139.551457
20
5.659152
30
0
11
139.730793
21
5.296018
31
0
39
0
210
0
220
0
230
1
0
LINE
5
95
100
AcDbEntity
8
1
62
256
6
ByLayer
370
18
48
1
60
0
100
AcDbLine
10
139.035303
20
5.351341
30
0
11
139.214638
21
4.988207
31
0
39
0
210
0
220
0
230
1
0
LINE
5
96
100
AcDbEntity
8
1
62
256
6
ByLayer
370
13
48
1
60
0
100
AcDbLine
10
140.643612
20
5.395433
30
0
11
140.821498
21
5.035233
31
0
39
0
210
0
220
0
230
1
0
LINE
5
97
100
AcDbEntity
8
1
62
256
6
ByLayer
370
18
48
1
60
0
100
AcDbLine
10
140.83883
20
5.04521
30
0
11
140.821498
21
5.035233
31
0
39
0
210
0
220
0
230
1
0
LINE
5
98
100
AcDbEntity
8
1
62
256
6
ByLayer
370
18
48
1
60
0
100
AcDbLine
10
138.935709
20
3.910633
30
0
11
138.918697
21
3.900129
31
0
39
0
210
0
220
0
230
1
0
LINE
5
99
100
AcDbEntity
8
1
62
256
6
ByLayer
370
13
48
1
60
0
100
AcDbLine
10
138.757823
20
4.270833
30
0
11
138.935709
21
3.910633
31
0
39
0
210
0
220
0
230
1
0
LINE
5
9A
100
AcDbEntity
8
1
62
256
6
ByLayer
370
18
48
1
60
0
100
AcDbLine
10
140.659495
20
5.408344
30
0
11
140.83883
21
5.04521
31
0
39
0
210
0
220
0
230
1
0
LINE
5
9B
100
AcDbEntity
8
1
62
256
6
ByLayer
370
18
48
1
60
0
100
AcDbLine
10
138.739361
20
4.263263
30
0
11
138.918697
21
3.900129
31
0
39
0
210
0
220
0
230
1
0
LINE
5
9C
100
AcDbEntity
8
1
62
256
6
ByLayer
370
13
48
1
60
0
100
AcDbLine
10
140.939873
20
4.347415
30
0
11
141.011158
21
4.20307
31
0
39
0
210
0
220
0
230
1
0
LINE
5
9D
100
AcDbEntity
8
1
62
256
6
ByLayer
370
18
48
1
60
0
100
AcDbLine
10
140.955436
20
4.341039
30
0
11
141.013788
21
4.222884
31
0
39
0
210
0
220
0
230
1
0
LINE
5
9E
100
AcDbEntity
8
1
62
256
6
ByLayer
370
18
48
1
60
0
100
AcDbLine
10
138.048855
20
-6.289795
30
0
11
140.915282
21
-6.536432
31
0
39
0
210
0
220
0
230
1
0
LINE
5
9F
100
AcDbEntity
8
SK1
62
256
6
ByLayer
370
18
48
1
60
0
100
AcDbLine
10
0
20
6.99725
30
0
11
0
21
-6.99725
31
0
39
0
210
0
220
0
230
1
0
LINE
5
A1
100
AcDbEntity
8
SK1
62
256
6
ByLayer
370
18
48
1
60
0
100
AcDbLine
10
49
20
-7.99725
30
0
11
49
21
7.99725
31
0
39
0
210
0
220
0
230
1
0
LINE
5
A2
100
AcDbEntity
8
SK1
62
256
6
ByLayer
370
18
48
1
60
0
100
AcDbLine
10
1
20
7.99725
30
0
11
1
21
-7.99725
31
0
39
0
210
0
220
0
230
1
0
LINE
5
A3
100
AcDbEntity
8
1
62
256
6
ByLayer
370
18
48
1
60
0
100
AcDbLine
10
49
20
-7.99725
30
0
11
118.5
21
-7.99725
31
0
39
0
210
0
220
0
230
1
0
LINE
5
A4
100
AcDbEntity
8
1
62
256
6
ByLayer
370
18
48
1
60
0
100
AcDbLine
10
118.5
20
7.99725
30
0
11
49
21
7.99725
31
0
39
0
210
0
220
0
230
1
0
LINE
5
A5
100
AcDbEntity
8
1
62
256
6
ByLayer
370
18
48
1
60
0
100
AcDbLine
10
119.553863
20
-7.165
30
0
11
125.925143
21
-7.165
31
0
39
0
210
0
220
0
230
1
0
LINE
5
A6
100
AcDbEntity
8
1
62
256
6
ByLayer
370
18
48
1
60
0
100
AcDbLine
10
125.925143
20
7.165
30
0
11
119.553863
21
7.165
31
0
39
0
210
0
220
0
230
1
0
LINE
5
A7
100
AcDbEntity
8
1
62
256
6
ByLayer
370
18
48
1
60
0
100
AcDbLine
10
144.107542
20
-6.016995
30
0
11
144.107542
21
3.447973
31
0
39
0
210
0
220
0
230
1
0
LINE
5
A8
100
AcDbEntity
8
1
62
256
6
ByLayer
370
18
48
1
60
0
100
AcDbLine
10
118.8
20
7.69725
30
0
11
118.5
21
7.99725
31
0
39
0
210
0
220
0
230
1
0
LINE
5
A9
100
AcDbEntity
8
1
62
256
6
ByLayer
370
18
48
1
60
0
100
AcDbLine
10
118.5
20
-7.99725
30
0
11
118.8
21
-7.69725
31
0
39
0
210
0
220
0
230
1
0
LINE
5
AA
100
AcDbEntity
8
1
62
256
6
ByLayer
370
18
48
1
60
0
100
AcDbLine
10
140.164297
20
5.593445
30
0
11
140.338266
21
5.241177
31
0
39
0
210
0
220
0
230
1
0
LINE
5
AB
100
AcDbEntity
8
1
62
256
6
ByLayer
370
18
48
1
60
0
100
AcDbLine
10
138.99969
20
4.395468
30
0
11
138.827833
21
4.74346
31
0
39
0
210
0
220
0
230
1
0
LINE
5
AC
100
AcDbEntity
8
1
62
256
6
ByLayer
370
18
48
1
60
0
100
AcDbLine
10
140.881921
20
4.409949
30
0
11
141.002619
21
4.16555
31
0
39
0
210
0
220
0
230
1
0
LINE
5
AD
100
AcDbEntity
8
1
62
256
6
ByLayer
370
18
48
1
60
0
100
AcDbLine
10
141.86802
20
4.693888
30
0
11
141.784151
21
5.069279
31
0
39
0
210
0
220
0
230
1
0
LINE
5
AE
100
AcDbEntity
8
SK1
62
256
6
ByLayer
370
18
48
1
60
0
100
AcDbLine
10
0
20
-6.99725
30
0
11
1
21
-7.99725
31
0
39
0
210
0
220
0
230
1
0
LINE
5
AF
100
AcDbEntity
8
SK1
62
256
6
ByLayer
370
18
48
1
60
0
100
AcDbLine
10
1
20
7.99725
30
0
11
0
21
6.99725
31
0
39
0
210
0
220
0
230
1
0
LINE
5
B0
100
AcDbEntity
8
SK1
62
256
6
ByLayer
370
18
48
1
60
0
100
AcDbLine
10
1
20
-7.99725
30
0
11
49
21
-7.99725
31
0
39
0
210
0
220
0
230
1
0
LINE
5
B1
100
AcDbEntity
8
SK1
62
256
6
ByLayer
370
18
48
1
60
0
100
AcDbLine
10
49
20
7.99725
30
0
11
1
21
7.99725
31
0
39
0
210
0
220
0
230
1
0
LINE
5
B2
100
AcDbEntity
8
SK2
62
256
6
ByLayer
370
18
48
1
60
0
100
AcDbLine
10
145
20
40.25
30
0
11
0
21
40.25
31
0
39
0
210
0
220
0
230
1
0
LINE
5
B4
100
AcDbEntity
8
SK2
62
256
6
ByLayer
370
18
48
1
60
0
100
AcDbLine
10
0
20
8.58475
30
0
11
0
21
42.25
31
0
39
0
210
0
220
0
230
1
0
LINE
5
B5
100
AcDbEntity
8
SK2
62
256
6
ByLayer
370
18
48
1
60
0
100
AcDbLine
10
145
20
9.5875
30
0
11
145
21
42.25
31
0
39
0
210
0
220
0
230
1
0
LINE
5
B6
100
AcDbEntity
8
1
62
256
6
ByLayer
370
18
48
1
60
1
100
AcDbLine
10
0
20
40.25
30
0
11
3.499998
21
40.710784
31
0
39
0
210
0
220
0
230
1
0
LINE
5
B7
100
AcDbEntity
8
1
62
256
6
ByLayer
370
18
48
1
60
1
100
AcDbLine
10
3.499998
20
40.710784
30
0
11
3.500002
21
39.789216
31
0
39
0
210
0
220
0
230
1
0
LINE
5
B8
100
AcDbEntity
8
1
62
256
6
ByLayer
370
18
48
1
60
1
100
AcDbLine
10
3.500002
20
39.789216
30
0
11
0
21
40.25
31
0
39
0
210
0
220
0
230
1
0
LINE
5
B9
100
AcDbEntity
8
1
62
256
6
ByLayer
370
18
48
1
60
1
100
AcDbLine
10
145
20
40.25
30
0
11
141.500002
21
39.789216
31
0
39
0
210
0
220
0
230
1
0
LINE
5
BA
100
AcDbEntity
8
1
62
256
6
ByLayer
370
18
48
1
60
1
100
AcDbLine
10
141.500002
20
39.789216
30
0
11
141.499998
21
40.710784
31
0
39
0
210
0
220
0
230
1
0
LINE
5
BB
100
AcDbEntity
8
1
62
256
6
ByLayer
370
18
48
1
60
1
100
AcDbLine
10
141.499998
20
40.710784
30
0
11
145
21
40.25
31
0
39
0
210
0
220
0
230
1
0
LINE
5
BC
100
AcDbEntity
8
2
62
256
6
ByLayer
370
13
48
1
60
0
100
AcDbLine
10
154.102095
20
8
30
0
11
154.102095
21
-8
31
0
39
0
210
0
220
0
230
1
0
LINE
5
BE
100
AcDbEntity
8
2
62
256
6
ByLayer
370
13
48
1
60
0
100
AcDbLine
10
146.5875
20
-8
30
0
11
156.102095
21
-8
31
0
39
0
210
0
220
0
230
1
0
LINE
5
BF
100
AcDbEntity
8
2
62
256
6
ByLayer
370
13
48
1
60
0
100
AcDbLine
10
146.5875
20
8
30
0
11
156.102095
21
8
31
0
39
0
210
0
220
0
230
1
0
LINE
5
C0
100
AcDbEntity
8
1
62
256
6
ByLayer
370
18
48
1
60
1
100
AcDbLine
10
154.102095
20
-8
30
0
11
153.641311
21
-4.500002
31
0
39
0
210
0
220
0
230
1
0
LINE
5
C1
100
AcDbEntity
8
1
62
256
6
ByLayer
370
18
48
1
60
1
100
AcDbLine
10
153.641311
20
-4.500002
30
0
11
154.562878
21
-4.499998
31
0
39
0
210
0
220
0
230
1
0
LINE
5
C2
100
AcDbEntity
8
1
62
256
6
ByLayer
370
18
48
1
60
1
100
AcDbLine
10
154.562878
20
-4.499998
30
0
11
154.102095
21
-8
31
0
39
0
210
0
220
0
230
1
0
LINE
5
C3
100
AcDbEntity
8
1
62
256
6
ByLayer
370
18
48
1
60
1
100
AcDbLine
10
154.102095
20
8
30
0
11
154.562878
21
4.500002
31
0
39
0
210
0
220
0
230
1
0
LINE
5
C4
100
AcDbEntity
8
1
62
256
6
ByLayer
370
18
48
1
60
1
100
AcDbLine
10
154.562878
20
4.500002
30
0
11
153.641311
21
4.499998
31
0
39
0
210
0
220
0
230
1
0
LINE
5
C5
100
AcDbEntity
8
1
62
256
6
ByLayer
370
18
48
1
60
1
100
AcDbLine
10
153.641311
20
4.499998
30
0
11
154.102095
21
8
31
0
39
0
210
0
220
0
230
1
0
LINE
5
C6
100
AcDbEntity
8
SK2
62
256
6
ByLayer
370
18
48
1
60
0
100
AcDbLine
10
-16.6
20
7.99725
30
0
11
-16.6
21
-7.99725
31
0
39
0
210
0
220
0
230
1
0
LINE
5
C7
100
AcDbEntity
8
SK2
62
256
6
ByLayer
370
18
48
1
60
0
100
AcDbLine
10
-0.5875
20
-7.99725
30
0
11
-18.6
21
-7.99725
31
0
39
0
210
0
220
0
230
1
0
LINE
5
C8
100
AcDbEntity
8
SK2
62
256
6
ByLayer
370
18
48
1
60
0
100
AcDbLine
10
-0.5875
20
7.99725
30
0
11
-18.6
21
7.99725
31
0
39
0
210
0
220
0
230
1
0
LINE
5
C9
100
AcDbEntity
8
1
62
256
6
ByLayer
370
18
48
1
60
1
100
AcDbLine
10
-16.6
20
-7.99725
30
0
11
-17.060784
21
-4.497252
31
0
39
0
210
0
220
0
230
1
0
LINE
5
CA
100
AcDbEntity
8
1
62
256
6
ByLayer
370
18
48
1
60
1
100
AcDbLine
10
-17.060784
20
-4.497252
30
0
11
-16.139216
21
-4.497248
31
0
39
0
210
0
220
0
230
1
0
LINE
5
CB
100
AcDbEntity
8
1
62
256
6
ByLayer
370
18
48
1
60
1
100
AcDbLine
10
-16.139216
20
-4.497248
30
0
11
-16.6
21
-7.99725
31
0
39
0
210
0
220
0
230
1
0
LINE
5
CC
100
AcDbEntity
8
1
62
256
6
ByLayer
370
18
48
1
60
1
100
AcDbLine
10
-16.6
20
7.99725
30
0
11
-16.139216
21
4.497252
31
0
39
0
210
0
220
0
230
1
0
LINE
5
CD
100
AcDbEntity
8
1
62
256
6
ByLayer
370
18
48
1
60
1
100
AcDbLine
10
-16.139216
20
4.497252
30
0
11
-17.060784
21
4.497248
31
0
39
0
210
0
220
0
230
1
0
LINE
5
CE
100
AcDbEntity
8
1
62
256
6
ByLayer
370
18
48
1
60
1
100
AcDbLine
10
-17.060784
20
4.497248
30
0
11
-16.6
21
7.99725
31
0
39
0
210
0
220
0
230
1
0
LINE
5
193
100
AcDbEntity
8
1
62
256
6
ByLayer
370
18
48
1
60
1
100
AcDbLine
10
0
20
40.25
30
0
11
3.499998
21
40.710784
31
0
39
0
210
0
220
0
230
1
0
LINE
5
194
100
AcDbEntity
8
1
62
256
6
ByLayer
370
18
48
1
60
1
100
AcDbLine
10
3.499998
20
40.710784
30
0
11
3.500002
21
39.789216
31
0
39
0
210
0
220
0
230
1
0
LINE
5
195
100
AcDbEntity
8
1
62
256
6
ByLayer
370
18
48
1
60
1
100
AcDbLine
10
3.500002
20
39.789216
30
0
11
0
21
40.25
31
0
39
0
210
0
220
0
230
1
0
LINE
5
197
100
AcDbEntity
8
1
62
256
6
ByLayer
370
18
48
1
60
1
100
AcDbLine
10
145
20
40.25
30
0
11
141.500002
21
39.789216
31
0
39
0
210
0
220
0
230
1
0
LINE
5
198
100
AcDbEntity
8
1
62
256
6
ByLayer
370
18
48
1
60
1
100
AcDbLine
10
141.500002
20
39.789216
30
0
11
141.499998
21
40.710784
31
0
39
0
210
0
220
0
230
1
0
LINE
5
199
100
AcDbEntity
8
1
62
256
6
ByLayer
370
18
48
1
60
1
100
AcDbLine
10
141.499998
20
40.710784
30
0
11
145
21
40.25
31
0
39
0
210
0
220
0
230
1
0
LINE
5
19D
100
AcDbEntity
8
1
62
256
6
ByLayer
370
18
48
1
60
1
100
AcDbLine
10
154.102095
20
-8
30
0
11
153.641311
21
-4.500002
31
0
39
0
210
0
220
0
230
1
0
LINE
5
19E
100
AcDbEntity
8
1
62
256
6
ByLayer
370
18
48
1
60
1
100
AcDbLine
10
153.641311
20
-4.500002
30
0
11
154.562878
21
-4.499998
31
0
39
0
210
0
220
0
230
1
0
LINE
5
19F
100
AcDbEntity
8
1
62
256
6
ByLayer
370
18
48
1
60
1
100
AcDbLine
10
154.562878
20
-4.499998
30
0
11
154.102095
21
-8
31
0
39
0
210
0
220
0
230
1
0
LINE
5
1A1
100
AcDbEntity
8
1
62
256
6
ByLayer
370
18
48
1
60
1
100
AcDbLine
10
154.102095
20
8
30
0
11
154.562878
21
4.500002
31
0
39
0
210
0
220
0
230
1
0
LINE
5
1A2
100
AcDbEntity
8
1
62
256
6
ByLayer
370
18
48
1
60
1
100
AcDbLine
10
154.562878
20
4.500002
30
0
11
153.641311
21
4.499998
31
0
39
0
210
0
220
0
230
1
0
LINE
5
1A3
100
AcDbEntity
8
1
62
256
6
ByLayer
370
18
48
1
60
1
100
AcDbLine
10
153.641311
20
4.499998
30
0
11
154.102095
21
8
31
0
39
0
210
0
220
0
230
1
0
LINE
5
1A7
100
AcDbEntity
8
1
62
256
6
ByLayer
370
18
48
1
60
1
100
AcDbLine
10
-16.6
20
-7.99725
30
0
11
-17.060784
21
-4.497252
31
0
39
0
210
0
220
0
230
1
0
LINE
5
1A8
100
AcDbEntity
8
1
62
256
6
ByLayer
370
18
48
1
60
1
100
AcDbLine
10
-17.060784
20
-4.497252
30
0
11
-16.139216
21
-4.497248
31
0
39
0
210
0
220
0
230
1
0
LINE
5
1A9
100
AcDbEntity
8
1
62
256
6
ByLayer
370
18
48
1
60
1
100
AcDbLine
10
-16.139216
20
-4.497248
30
0
11
-16.6
21
-7.99725
31
0
39
0
210
0
220
0
230
1
0
LINE
5
1AB
100
AcDbEntity
8
1
62
256
6
ByLayer
370
18
48
1
60
1
100
AcDbLine
10
-16.6
20
7.99725
30
0
11
-16.139216
21
4.497252
31
0
39
0
210
0
220
0
230
1
0
LINE
5
1AC
100
AcDbEntity
8
1
62
256
6
ByLayer
370
18
48
1
60
1
100
AcDbLine
10
-16.139216
20
4.497252
30
0
11
-17.060784
21
4.497248
31
0
39
0
210
0
220
0
230
1
0
LINE
5
1AD
100
AcDbEntity
8
1
62
256
6
ByLayer
370
18
48
1
60
1
100
AcDbLine
10
-17.060784
20
4.497248
30
0
11
-16.6
21
7.99725
31
0
39
0
210
0
220
0
230
1
0
MTEXT
5
190
100
AcDbEntity
8
SK2
62
256
6
ByLayer
370
18
48
1
60
0
100
AcDbMText
10
69.540467
20
41.282634
30
0
210
0
220
0
230
1
1
\W0.6620;145
40
3.5
41
0
44
1.084337
50
0
71
7
72
5
7
iso_b_vert
0
MTEXT
5
19B
100
AcDbEntity
8
2
62
256
6
ByLayer
370
18
48
1
60
0
100
AcDbMText
10
152.537461
20
-4.093189
30
0
210
0
220
0
230
1
1
%%c
40
3.5
41
0
44
1.084337
50
90
71
7
72
5
7
iso_b_vert
0
MTEXT
5
19C
100
AcDbEntity
8
2
62
256
6
ByLayer
370
18
48
1
60
0
100
AcDbMText
10
152.537461
20
2.879467
30
0
210
0
220
0
230
1
1
\W0.5321;16
40
3.5
41
0
44
1.084337
50
90
71
7
72
5
7
iso_b_vert
0
MTEXT
5
1A5
100
AcDbEntity
8
SK2
62
256
6
ByLayer
370
18
48
1
60
0
100
AcDbMText
10
-18.164634
20
-4.093189
30
0
210
0
220
0
230
1
1
%%c
40
3.5
41
0
44
1.084337
50
90
71
7
72
5
7
iso_b_vert
0
MTEXT
5
1A6
100
AcDbEntity
8
SK2
62
256
6
ByLayer
370
18
48
1
60
0
100
AcDbMText
10
-18.164634
20
2.879467
30
0
210
0
220
0
230
1
1
\W0.5321;16
40
3.5
41
0
44
1.084337
50
90
71
7
72
5
7
iso_b_vert
0
MTEXT
5
1AF
100
AcDbEntity
8
SK6
62
256
6
ByLayer
370
18
48
1
60
0
100
AcDbMText
10
51.140851
20
-34.217366
30
0
210
0
220
0
230
1
1
\W0.7421;MS20-R016A16L-10L
40
3.5
41
0
44
1.084337
50
0
71
7
72
5
7
iso_b_vert
0
HATCH
5
196
100
AcDbEntity
8
SK2
62
256
6
ByLayer
370
13
48
1
60
0
100
AcDbHatch
10
0
20
0
30
0
210
0
220
0
230
1
2
ANSI31
70
0
71
0
91
1
92
5
93
3
72
1
10
-2.84E-14
20
40.2499999999995
11
3.49999830744679
21
40.7107837415522
72
1
10
3.49999830744679
20
40.7107837415522
11
3.50000169255316
21
39.7892162584467
72
1
10
3.50000169255316
20
39.7892162584467
11
-2.84E-14
21
40.2499999999995
97
0
75
0
76
1
52
0
41
0.0062
77
0
78
1
53
45
43
0
44
0
45
-0.0139193969876572
46
0.0139193969876572
79
0
47
0
98
1
10
0
20
0
0
HATCH
5
19A
100
AcDbEntity
8
SK2
62
256
6
ByLayer
370
13
48
1
60
0
100
AcDbHatch
10
0
20
0
30
0
210
0
220
0
230
1
2
ANSI31
70
0
71
0
91
1
92
5
93
3
72
1
10
145
20
40.2499999999995
11
141.500001692553
21
39.7892162584467
72
1
10
141.500001692553
20
39.7892162584467
11
141.499998307447
21
40.7107837415522
72
1
10
141.499998307447
20
40.7107837415522
11
145
21
40.2499999999995
97
0
75
0
76
1
52
0
41
0.0062
77
0
78
1
53
45
43
0
44
0
45
-0.0139193969876572
46
0.0139193969876572
79
0
47
0
98
1
10
0
20
0
0
HATCH
5
1A0
100
AcDbEntity
8
2
62
256
6
ByLayer
370
13
48
1
60
0
100
AcDbHatch
10
0
20
0
30
0
210
0
220
0
230
1
2
ANSI31
70
0
71
0
91
1
92
5
93
3
72
1
10
154.102094638445
20
-8.00000000000054
11
153.641310896892
21
-4.50000169255372
72
1
10
153.641310896892
20
-4.50000169255372
11
154.562878379997
21
-4.49999830744736
72
1
10
154.562878379997
20
-4.49999830744736
11
154.102094638445
21
-8.00000000000054
97
0
75
0
76
1
52
0
41
0.0062
77
0
78
1
53
45
43
0
44
0
45
-0.0139193969876572
46
0.0139193969876572
79
0
47
0
98
1
10
0
20
0
0
HATCH
5
1A4
100
AcDbEntity
8
2
62
256
6
ByLayer
370
13
48
1
60
0
100
AcDbHatch
10
0
20
0
30
0
210
0
220
0
230
1
2
ANSI31
70
0
71
0
91
1
92
5
93
3
72
1
10
154.102094638445
20
7.99999999999946
11
154.562878379997
21
4.50000169255264
72
1
10
154.562878379997
20
4.50000169255264
11
153.641310896892
21
4.49999830744628
72
1
10
153.641310896892
20
4.49999830744628
11
154.102094638445
21
7.99999999999946
97
0
75
0
76
1
52
0
41
0.0062
77
0
78
1
53
45
43
0
44
0
45
-0.0139193969876572
46
0.0139193969876572
79
0
47
0
98
1
10
0
20
0
0
HATCH
5
1AA
100
AcDbEntity
8
SK2
62
256
6
ByLayer
370
13
48
1
60
0
100
AcDbHatch
10
0
20
0
30
0
210
0
220
0
230
1
2
ANSI31
70
0
71
0
91
1
92
5
93
3
72
1
10
-16.6000000000001
20
-7.99725000000044
11
-17.0607837415528
21
-4.49725169255362
72
1
10
-17.0607837415528
20
-4.49725169255362
11
-16.1392162584473
21
-4.49724830744725
72
1
10
-16.1392162584473
20
-4.49724830744725
11
-16.6000000000001
21
-7.99725000000044
97
0
75
0
76
1
52
0
41
0.0062
77
0
78
1
53
45
43
0
44
0
45
-0.0139193969876572
46
0.0139193969876572
79
0
47
0
98
1
10
0
20
0
0
HATCH
5
1AE
100
AcDbEntity
8
SK2
62
256
6
ByLayer
370
13
48
1
60
0
100
AcDbHatch
10
0
20
0
30
0
210
0
220
0
230
1
2
ANSI31
70
0
71
0
91
1
92
5
93
3
72
1
10
-16.6000000000001
20
7.99724999999955
11
-16.1392162584473
21
4.49725169255274
72
1
10
-16.1392162584473
20
4.49725169255274
11
-17.0607837415528
21
4.49724830744637
72
1
10
-17.0607837415528
20
4.49724830744637
11
-16.6000000000001
21
7.99724999999955
97
0
75
0
76
1
52
0
41
0.0062
77
0
78
1
53
45
43
0
44
0
45
-0.0139193969876572
46
0.0139193969876572
79
0
47
0
98
1
10
0
20
0
0
DIMENSION
5
1B2
100
AcDbEntity
8
2
62
256
6
ByLayer
370
18
48
1
60
0
100
AcDbDimension
2
_U0
10
136
20
20.25
30
0
11
140.5
21
20.25
31
0
70
32
71
1
72
1
41
1
210
0
220
0
230
1
3
Standard
100
AcDbAlignedDimension
13
145
23
8
33
0
14
136
24
8
34
0
50
0
100
AcDbRotatedDimension
1001
ACAD
1000
DSTYLE
1002
{
1070
   371
1070
    13
1070
   372
1070
    13
1070
   170
1070
     0
1070
   144
1040
1.0
1070
   277
1070
     2
1070
   284
1070
     8
1070
   278
1070
    46
1070
   146
1040
1.0
1070
   345
1005
16
1070
   347
1005
16
1070
   346
1005
16
1070
   344
1005
0
1070
   343
1005
0
1070
   172
1070
     1
1070
    76
1070
     0
1070
    75
1070
     0
1070
   282
1070
     0
1070
   281
1070
     0
1070
    71
1070
     0
1070
    74
1070
     0
1070
   279
1070
     0
1070
   173
1070
     1
1070
   340
1005
191
1070
   271
1070
     2
1070
   272
1070
     2
1070
    77
1070
     1
1070
    73
1070
     1
1070
   171
1070
     3
1070
   274
1070
     4
1070
   177
1070
     2
1070
   176
1070
     2
1070
   178
1070
     2
1070
    78
1070
     8
1070
    48
1040
-0.1
1070
    41
1040
3.5
1070
   147
1040
1.75
1070
    42
1040
1.5875
1070
    44
1040
2.0
1070
   140
1040
3.5
1002
}
1001
ACAD_DSTYLE_DIM_LINETYPE
1070
   380
1005
16
1001
ACAD_DSTYLE_DIM_EXT1_LINETYPE
1070
   381
1005
16
1001
ACAD_DSTYLE_DIM_EXT2_LINETYPE
1070
   382
1005
16
0
DIMENSION
5
1CC
100
AcDbEntity
8
2
62
256
6
ByLayer
370
18
48
1
60
0
100
AcDbDimension
2
_U1
10
120
20
30.25
30
0
11
132.5
21
30.25
31
0
70
32
71
1
72
1
41
1
210
0
220
0
230
1
3
Standard
100
AcDbAlignedDimension
13
145
23
8
33
0
14
120
24
8
34
0
50
0
100
AcDbRotatedDimension
1001
ACAD
1000
DSTYLE
1002
{
1070
   371
1070
    13
1070
   372
1070
    13
1070
   170
1070
     0
1070
   144
1040
1.0
1070
   277
1070
     2
1070
   284
1070
     8
1070
   278
1070
    46
1070
   146
1040
1.0
1070
   345
1005
16
1070
   347
1005
16
1070
   346
1005
16
1070
   344
1005
0
1070
   343
1005
0
1070
   172
1070
     1
1070
    76
1070
     0
1070
    75
1070
     0
1070
   282
1070
     0
1070
   281
1070
     0
1070
    71
1070
     0
1070
    74
1070
     0
1070
   279
1070
     0
1070
   173
1070
     1
1070
   340
1005
191
1070
   271
1070
     2
1070
   272
1070
     2
1070
    77
1070
     1
1070
    73
1070
     1
1070
   171
1070
     3
1070
   274
1070
     4
1070
   177
1070
     2
1070
   176
1070
     2
1070
   178
1070
     2
1070
    78
1070
     8
1070
    48
1040
-0.1
1070
    41
1040
3.5
1070
   147
1040
1.75
1070
    42
1040
1.5875
1070
    44
1040
2.0
1070
   140
1040
3.5
1002
}
1001
ACAD_DSTYLE_DIM_LINETYPE
1070
   380
1005
16
1001
ACAD_DSTYLE_DIM_EXT1_LINETYPE
1070
   381
1005
16
1001
ACAD_DSTYLE_DIM_EXT2_LINETYPE
1070
   382
1005
16
0
DIMENSION
5
1E4
100
AcDbEntity
8
SK2
62
256
6
ByLayer
370
18
48
1
60
0
100
AcDbDimension
2
_U2
10
49
20
-23.75
30
0
11
97
21
-23.75
31
0
70
32
71
1
72
1
41
1
210
0
220
0
230
1
3
Standard
100
AcDbAlignedDimension
13
145
23
-8
33
0
14
49
24
-7.99725
34
0
50
0
100
AcDbRotatedDimension
1001
ACAD
1000
DSTYLE
1002
{
1070
   371
1070
    13
1070
   372
1070
    13
1070
   170
1070
     0
1070
   144
1040
1.0
1070
   277
1070
     2
1070
   284
1070
     8
1070
   278
1070
    46
1070
   146
1040
1.0
1070
   345
1005
16
1070
   347
1005
16
1070
   346
1005
16
1070
   344
1005
0
1070
   343
1005
0
1070
   172
1070
     1
1070
    76
1070
     0
1070
    75
1070
     0
1070
   282
1070
     0
1070
   281
1070
     0
1070
    71
1070
     0
1070
    74
1070
     0
1070
   279
1070
     0
1070
   173
1070
     1
1070
   340
1005
191
1070
   271
1070
     2
1070
   272
1070
     2
1070
    77
1070
     1
1070
    73
1070
     1
1070
   171
1070
     3
1070
   274
1070
     4
1070
   177
1070
     2
1070
   176
1070
     2
1070
   178
1070
     2
1070
    78
1070
     8
1070
    48
1040
-0.1
1070
    41
1040
3.5
1070
   147
1040
1.75
1070
    42
1040
1.5875
1070
    44
1040
2.0
1070
   140
1040
3.5
1002
}
1001
ACAD_DSTYLE_DIM_LINETYPE
1070
   380
1005
16
1001
ACAD_DSTYLE_DIM_EXT1_LINETYPE
1070
   381
1005
16
1001
ACAD_DSTYLE_DIM_EXT2_LINETYPE
1070
   382
1005
16
0
ENDSEC
0
SECTION
2
OBJECTS
0
DICTIONARY
5
26d
330
0
100
AcDbDictionary
280
0
281
1
3
ACAD_GROUP
350
26e
3
ACAD_MLINESTYLE
350
26f
0
DICTIONARY
5
26e
330
0
100
AcDbDictionary
280
0
281
1
0
DICTIONARY
5
26f
330
0
100
AcDbDictionary
280
0
281
1
3
Standard
350
18
0
MLINESTYLE
5
18
330
26f
100
AcDbMlineStyle
2
Standard
70
0
3

62
256
51
90
52
90
71
2
49
-0.5
62
256
6
ByLayer
49
0.5
62
256
6
ByLayer
0
RASTERVARIABLES
5
25b
330

100
AcDbRasterVariables
90
0
70
1
71
1
72
1
0
ENDSEC
0
EOF
