0
SECTION
2
HEADER
9
$ACADVER
1
AC1015
9
$DWGCODEPAGE
3
ANSI_1252
9
$HANDSEED
5
24c
9
$ANGBASE
50
0
9
$ANGDIR
70
0
9
$ATTMODE
70
1
9
$AUNITS
70
0
9
$AUPREC
70
0
9
$CECOLOR
62
256
9
$CELTSCALE
40
1
9
$CELTYPE
6
ByLayer
9
$CELWEIGHT
370
18
9
$CLAYER
8
0
9
$CMLJUST
70
0
9
$CMLSCALE
40
1
9
$CMLSTYLE
2
Standard
9
$DIMSTYLE
2
Standard
9
$TEXTSIZE
40
0.2
9
$TEXTSTYLE
7
Standard
9
$LUNITS
70
2
9
$LUPREC
70
4
9
$EXTNAMES
290
1
9
$INSUNITS
70
4
9
$LTSCALE
40
1
9
$LWDISPLAY
290
1
9
$PDMODE
70
0
9
$PDSIZE
40
0
9
$PLINEGEN
70
0
0
ENDSEC
0
SECTION
2
CLASSES
0
CLASS
1
RASTERVARIABLES
2
AcDbRasterVariables
3
ISM
90
0
280
0
281
0
0
ENDSEC
0
SECTION
2
TABLES
0
TABLE
2
VPORT
5
242
100
AcDbSymbolTable
0
VPORT
5
1
100
AcDbSymbolTableRecord
100
AcDbViewportTableRecord
2
*Active
70
0
10
0
20
0
11
1
21
1
12
-1
22
1
13
0
23
0
14
0.5
24
0.5
15
10
25
10
16
0
26
0
36
1
17
0
27
0
37
0
0
ENDTAB
0
TABLE
2
LTYPE
5
243
100
AcDbSymbolTable
0
LTYPE
5
14
100
AcDbSymbolTableRecord
100
AcDbLinetypeTableRecord
70
0
2
ByBlock
3

72
65
73
0
40
0
0
LTYPE
5
15
100
AcDbSymbolTableRecord
100
AcDbLinetypeTableRecord
70
0
2
ByLayer
3

72
65
73
0
40
0
0
LTYPE
5
16
100
AcDbSymbolTableRecord
100
AcDbLinetypeTableRecord
70
0
2
Continuous
3
Solid line
72
65
73
0
40
0
0
LTYPE
5
6E
100
AcDbSymbolTableRecord
100
AcDbLinetypeTableRecord
70
0
2
CENTER
3
____ _ ____ _ ____ _ ____
72
65
73
4
40
47.5
49
22
74
0
49
-8.5
74
0
49
8.5
74
0
49
-8.5
74
0
0
LTYPE
5
6F
100
AcDbSymbolTableRecord
100
AcDbLinetypeTableRecord
70
0
2
DASHED
3
__ __ __ __ __ __ __ __ __
72
65
73
2
40
25.72
49
12.86
74
0
49
-12.86
74
0
0
ENDTAB
0
TABLE
2
LAYER
5
244
100
AcDbSymbolTable
0
LAYER
5
10
100
AcDbSymbolTableRecord
100
AcDbLayerTableRecord
2
0
70
0
62
7
6
Continuous
290
1
370
-3
390
0
0
LAYER
5
71
100
AcDbSymbolTableRecord
100
AcDbLayerTableRecord
2
2
70
0
62
7
6
Continuous
290
1
370
-3
390
0
0
LAYER
5
92
100
AcDbSymbolTableRecord
100
AcDbLayerTableRecord
2
81
70
0
62
-3
6
Continuous
290
1
370
-3
390
0
0
LAYER
5
96
100
AcDbSymbolTableRecord
100
AcDbLayerTableRecord
2
80
70
0
62
-6
6
Continuous
290
1
370
-3
390
0
0
LAYER
5
A3
100
AcDbSymbolTableRecord
100
AcDbLayerTableRecord
2
1
70
0
62
4
6
Continuous
290
1
370
-3
390
0
0
LAYER
5
BD
100
AcDbSymbolTableRecord
100
AcDbLayerTableRecord
2
4
70
0
62
-2
6
CENTER
290
1
370
-3
390
0
0
LAYER
5
187
100
AcDbSymbolTableRecord
100
AcDbLayerTableRecord
2
Defpoints
70
0
62
7
6
Continuous
290
0
370
-3
390
0
0
LAYER
5
22e
100
AcDbSymbolTableRecord
100
AcDbLayerTableRecord
2
SK1
70
0
62
4
6
Continuous
290
1
370
-3
390
0
0
LAYER
5
22f
100
AcDbSymbolTableRecord
100
AcDbLayerTableRecord
2
SK4
70
0
62
2
6
CENTER
290
1
370
-3
390
0
0
LAYER
5
230
100
AcDbSymbolTableRecord
100
AcDbLayerTableRecord
2
SK2
70
0
62
7
6
Continuous
290
1
370
-3
390
0
0
LAYER
5
231
100
AcDbSymbolTableRecord
100
AcDbLayerTableRecord
2
SK6
70
0
62
5
6
Continuous
290
1
370
-3
390
0
0
ENDTAB
0
TABLE
2
STYLE
5
245
100
AcDbSymbolTable
0
STYLE
5
11
100
AcDbSymbolTableRecord
100
AcDbTextStyleTableRecord
2
Standard
3
txt
70
0
71
0
40
0
41
1
42
0
50
0
0
STYLE
5
16C
100
AcDbSymbolTableRecord
100
AcDbTextStyleTableRecord
2
iso_b_vert
3
simplex.shx
70
0
71
0
40
0
41
1
42
0
50
0
0
STYLE
5
16D
100
AcDbSymbolTableRecord
100
AcDbTextStyleTableRecord
2
DWGDirectTextStyle
3
simplex
70
0
71
0
40
0
41
1
42
0
50
0
0
ENDTAB
0
TABLE
2
DIMSTYLE
5
246
100
AcDbSymbolTable
100
AcDbDimStyleTable
0
DIMSTYLE
105
27
100
AcDbSymbolTableRecord
100
AcDbDimStyleTableRecord
2
Standard
70
0
3
<>
41
0.18
42
0.0625
44
0.18
140
0.18
147
0.09
73
0
74
0
77
1
271
2
275
0
278
52
280
0
340
11
0
ENDTAB
0
TABLE
2
VIEW
5
247
100
AcDbSymbolTable
0
ENDTAB
0
TABLE
2
UCS
5
248
100
AcDbSymbolTable
0
ENDTAB
0
TABLE
2
APPID
5
249
100
AcDbSymbolTable
0
APPID
5
12
100
AcDbSymbolTableRecord
100
AcDbRegAppTableRecord
2
ACAD
70
0
0
APPID
5
183
100
AcDbSymbolTableRecord
100
AcDbRegAppTableRecord
2
ACAD_DSTYLE_DIMBREAK
70
0
0
APPID
5
1ED
100
AcDbSymbolTableRecord
100
AcDbRegAppTableRecord
2
ACAD_DSTYLE_DIM_LINETYPE
70
0
0
APPID
5
1EE
100
AcDbSymbolTableRecord
100
AcDbRegAppTableRecord
2
ACAD_DSTYLE_DIM_EXT1_LINETYPE
70
0
0
APPID
5
1EF
100
AcDbSymbolTableRecord
100
AcDbRegAppTableRecord
2
ACAD_DSTYLE_DIM_EXT2_LINETYPE
70
0
0
APPID
5
22A
100
AcDbSymbolTableRecord
100
AcDbRegAppTableRecord
2
ACAD_MLEADERVER
70
0
0
ENDTAB
0
TABLE
2
BLOCK_RECORD
5
24a
100
AcDbSymbolTable
0
BLOCK_RECORD
5
1F
100
AcDbSymbolTableRecord
100
AcDbBlockTableRecord
2
*Model_Space
340
0
70
0
0
BLOCK_RECORD
5
1B
100
AcDbSymbolTableRecord
100
AcDbBlockTableRecord
2
*Paper_Space
340
0
70
0
0
BLOCK_RECORD
5
23
100
AcDbSymbolTableRecord
100
AcDbBlockTableRecord
2
*Paper_Space0
340
0
70
0
0
BLOCK_RECORD
5
188
100
AcDbSymbolTableRecord
100
AcDbBlockTableRecord
2
*D1
340
0
70
0
0
BLOCK_RECORD
5
194
100
AcDbSymbolTableRecord
100
AcDbBlockTableRecord
2
_U0
340
0
70
0
0
BLOCK_RECORD
5
1A1
100
AcDbSymbolTableRecord
100
AcDbBlockTableRecord
2
*D3
340
0
70
0
0
BLOCK_RECORD
5
1AD
100
AcDbSymbolTableRecord
100
AcDbBlockTableRecord
2
_U1
340
0
70
0
0
BLOCK_RECORD
5
1BA
100
AcDbSymbolTableRecord
100
AcDbBlockTableRecord
2
*D5
340
0
70
0
0
BLOCK_RECORD
5
1C6
100
AcDbSymbolTableRecord
100
AcDbBlockTableRecord
2
_U2
340
0
70
0
0
ENDTAB
0
ENDSEC
0
SECTION
2
BLOCKS
0
BLOCK
5
20
100
AcDbEntity
8
0
100
AcDbBlockBegin
2
*Model_Space
70
0
10
0
20
0
30
0
3
*Model_Space
0
ENDBLK
5
21
100
AcDbEntity
8
0
100
AcDbBlockEnd
0
BLOCK
5
1C
100
AcDbEntity
8
0
100
AcDbBlockBegin
2
*Paper_Space
70
0
10
0
20
0
30
0
3
*Paper_Space
0
ENDBLK
5
1D
100
AcDbEntity
8
0
100
AcDbBlockEnd
0
BLOCK
5
24
100
AcDbEntity
8
0
100
AcDbBlockBegin
2
*Paper_Space0
70
0
10
0
20
0
30
0
3
*Paper_Space0
0
ENDBLK
5
25
100
AcDbEntity
8
0
100
AcDbBlockEnd
0
BLOCK
5
189
100
AcDbEntity
8
0
100
AcDbBlockBegin
2
*D1
70
1
10
0
20
0
30
0
3
*D1
0
LINE
5
18B
100
AcDbEntity
8
0
62
256
6
ByLayer
370
-2
48
1
60
0
100
AcDbLine
10
140
20
6.4125
30
0
11
140
21
-23.85
31
0
39
0
210
0
220
0
230
1
0
LINE
5
18C
100
AcDbEntity
8
0
62
256
6
ByLayer
370
-2
48
1
60
0
100
AcDbLine
10
48
20
-9.5875
30
0
11
48
21
-23.85
31
0
39
0
210
0
220
0
230
1
0
LINE
5
18D
100
AcDbEntity
8
0
62
256
6
ByLayer
370
-2
48
1
60
0
100
AcDbLine
10
136.5
20
-21.85
30
0
11
51.5
21
-21.85
31
0
39
0
210
0
220
0
230
1
0
SOLID
5
18E
100
AcDbEntity
8
0
62
256
6
ByLayer
370
-1
48
1
60
0
100
AcDbTrace
10
136.5
20
-22.433333
30
0
11
136.5
21
-21.266667
31
0
12
140
22
-21.85
32
0
13
140
23
-21.85
33
0
39
0
210
0
220
0
230
1
0
SOLID
5
18F
100
AcDbEntity
8
0
62
256
6
ByLayer
370
-1
48
1
60
0
100
AcDbTrace
10
51.5
20
-21.266667
30
0
11
51.5
21
-22.433333
31
0
12
48
22
-21.85
32
0
13
48
23
-21.85
33
0
39
0
210
0
220
0
230
1
0
MTEXT
5
190
100
AcDbEntity
8
0
62
256
6
ByLayer
370
18
48
1
60
0
100
AcDbMText
10
94
20
-14.85
30
0
210
0
220
0
230
1
1
\A1;92
40
3.5
41
0
44
1
50
0
71
5
72
5
7
iso_b_vert
0
POINT
5
191
100
AcDbEntity
8
Defpoints
62
0
6
ByLayer
370
-1
48
1
60
0
100
AcDbPoint
10
140
20
8
30
0
39
0
210
0
220
0
230
1
50
360
0
POINT
5
192
100
AcDbEntity
8
Defpoints
62
0
6
ByLayer
370
-1
48
1
60
0
100
AcDbPoint
10
48
20
-8
30
0
39
0
210
0
220
0
230
1
50
360
0
POINT
5
193
100
AcDbEntity
8
Defpoints
62
0
6
ByLayer
370
-1
48
1
60
0
100
AcDbPoint
10
48
20
-21.85
30
0
39
0
210
0
220
0
230
1
50
360
0
ENDBLK
5
18A
100
AcDbEntity
8
0
100
AcDbBlockEnd
0
BLOCK
5
19C
100
AcDbEntity
8
0
100
AcDbBlockBegin
2
_U0
70
0
10
0
20
0
30
0
3
_U0
0
MTEXT
5
195
100
AcDbEntity
8
SK2
62
256
6
ByLayer
370
18
48
1
60
0
100
AcDbMText
10
86.394034
20
-20.817366
30
0
210
0
220
0
230
1
1
\W0.7621;OHN
40
3.5
41
0
44
1.084337
50
0
71
7
72
5
7
iso_b_vert
0
MTEXT
5
196
100
AcDbEntity
8
SK2
62
256
6
ByLayer
370
18
48
1
60
0
100
AcDbMText
10
97.796033
20
-20.817366
30
0
210
0
220
0
230
1
1
\W0.6740;92
40
3.5
41
0
44
1.084337
50
0
71
7
72
5
7
iso_b_vert
0
LINE
5
197
100
AcDbEntity
8
SK2
62
256
6
ByLayer
370
13
48
1
60
0
100
AcDbLine
10
140
20
6.4125
30
0
11
140
21
-23.85
31
0
39
0
210
0
220
0
230
1
0
LINE
5
198
100
AcDbEntity
8
SK2
62
256
6
ByLayer
370
13
48
1
60
0
100
AcDbLine
10
48
20
-9.5875
30
0
11
48
21
-23.85
31
0
39
0
210
0
220
0
230
1
0
LINE
5
199
100
AcDbEntity
8
SK2
62
256
6
ByLayer
370
13
48
1
60
0
100
AcDbLine
10
140
20
-21.85
30
0
11
48
21
-21.85
31
0
39
0
210
0
220
0
230
1
0
SOLID
5
19A
100
AcDbEntity
8
SK2
62
256
6
ByLayer
370
18
48
1
60
0
100
AcDbTrace
10
140
20
-21.85
30
0
11
136.500002
21
-22.310784
31
0
12
136.499998
22
-21.389216
32
0
13
136.499998
23
-21.389216
33
0
39
0
210
0
220
0
230
1
0
SOLID
5
19B
100
AcDbEntity
8
SK2
62
256
6
ByLayer
370
18
48
1
60
0
100
AcDbTrace
10
48
20
-21.85
30
0
11
51.499998
21
-21.389216
31
0
12
51.500002
22
-22.310784
32
0
13
51.500002
23
-22.310784
33
0
39
0
210
0
220
0
230
1
0
ENDBLK
5
19D
100
AcDbEntity
8
0
100
AcDbBlockEnd
0
BLOCK
5
1A2
100
AcDbEntity
8
0
100
AcDbBlockBegin
2
*D3
70
1
10
0
20
0
30
0
3
*D3
0
LINE
5
1A4
100
AcDbEntity
8
0
62
256
6
ByLayer
370
-2
48
1
60
0
100
AcDbLine
10
140
20
6.4125
30
0
11
140
21
-33.85
31
0
39
0
210
0
220
0
230
1
0
LINE
5
1A5
100
AcDbEntity
8
0
62
256
6
ByLayer
370
-2
48
1
60
0
100
AcDbLine
10
0
20
-9.5875
30
0
11
0
21
-33.85
31
0
39
0
210
0
220
0
230
1
0
LINE
5
1A6
100
AcDbEntity
8
0
62
256
6
ByLayer
370
-2
48
1
60
0
100
AcDbLine
10
136.5
20
-31.85
30
0
11
3.5
21
-31.85
31
0
39
0
210
0
220
0
230
1
0
SOLID
5
1A7
100
AcDbEntity
8
0
62
256
6
ByLayer
370
-1
48
1
60
0
100
AcDbTrace
10
136.5
20
-32.433333
30
0
11
136.5
21
-31.266667
31
0
12
140
22
-31.85
32
0
13
140
23
-31.85
33
0
39
0
210
0
220
0
230
1
0
SOLID
5
1A8
100
AcDbEntity
8
0
62
256
6
ByLayer
370
-1
48
1
60
0
100
AcDbTrace
10
3.5
20
-31.266667
30
0
11
3.5
21
-32.433333
31
0
12
0
22
-31.85
32
0
13
0
23
-31.85
33
0
39
0
210
0
220
0
230
1
0
MTEXT
5
1A9
100
AcDbEntity
8
0
62
256
6
ByLayer
370
18
48
1
60
0
100
AcDbMText
10
70
20
-24.85
30
0
210
0
220
0
230
1
1
\A1;140
40
3.5
41
0
44
1
50
0
71
5
72
5
7
iso_b_vert
0
POINT
5
1AA
100
AcDbEntity
8
Defpoints
62
0
6
ByLayer
370
-1
48
1
60
0
100
AcDbPoint
10
140
20
8
30
0
39
0
210
0
220
0
230
1
50
360
0
POINT
5
1AB
100
AcDbEntity
8
Defpoints
62
0
6
ByLayer
370
-1
48
1
60
0
100
AcDbPoint
10
0
20
-8
30
0
39
0
210
0
220
0
230
1
50
360
0
POINT
5
1AC
100
AcDbEntity
8
Defpoints
62
0
6
ByLayer
370
-1
48
1
60
0
100
AcDbPoint
10
0
20
-31.85
30
0
39
0
210
0
220
0
230
1
50
360
0
ENDBLK
5
1A3
100
AcDbEntity
8
0
100
AcDbBlockEnd
0
BLOCK
5
1B5
100
AcDbEntity
8
0
100
AcDbBlockBegin
2
_U1
70
0
10
0
20
0
30
0
3
_U1
0
MTEXT
5
1AE
100
AcDbEntity
8
SK2
62
256
6
ByLayer
370
18
48
1
60
0
100
AcDbMText
10
61.132234
20
-30.817366
30
0
210
0
220
0
230
1
1
\W0.8176;OHX
40
3.5
41
0
44
1.084337
50
0
71
7
72
5
7
iso_b_vert
0
MTEXT
5
1AF
100
AcDbEntity
8
SK2
62
256
6
ByLayer
370
18
48
1
60
0
100
AcDbMText
10
72.9487
20
-30.817366
30
0
210
0
220
0
230
1
1
\W0.6620;140
40
3.5
41
0
44
1.084337
50
0
71
7
72
5
7
iso_b_vert
0
LINE
5
1B0
100
AcDbEntity
8
SK2
62
256
6
ByLayer
370
13
48
1
60
0
100
AcDbLine
10
140
20
6.4125
30
0
11
140
21
-33.85
31
0
39
0
210
0
220
0
230
1
0
LINE
5
1B1
100
AcDbEntity
8
SK2
62
256
6
ByLayer
370
13
48
1
60
0
100
AcDbLine
10
0
20
-9.5875
30
0
11
0
21
-33.85
31
0
39
0
210
0
220
0
230
1
0
LINE
5
1B2
100
AcDbEntity
8
SK2
62
256
6
ByLayer
370
13
48
1
60
0
100
AcDbLine
10
140
20
-31.85
30
0
11
0
21
-31.85
31
0
39
0
210
0
220
0
230
1
0
SOLID
5
1B3
100
AcDbEntity
8
SK2
62
256
6
ByLayer
370
18
48
1
60
0
100
AcDbTrace
10
140
20
-31.85
30
0
11
136.500002
21
-32.310784
31
0
12
136.499998
22
-31.389216
32
0
13
136.499998
23
-31.389216
33
0
39
0
210
0
220
0
230
1
0
SOLID
5
1B4
100
AcDbEntity
8
SK2
62
256
6
ByLayer
370
18
48
1
60
0
100
AcDbTrace
10
0
20
-31.85
30
0
11
3.499998
21
-31.389216
31
0
12
3.500002
22
-32.310784
32
0
13
3.500002
23
-32.310784
33
0
39
0
210
0
220
0
230
1
0
ENDBLK
5
1B6
100
AcDbEntity
8
0
100
AcDbBlockEnd
0
BLOCK
5
1BB
100
AcDbEntity
8
0
100
AcDbBlockBegin
2
*D5
70
1
10
0
20
0
30
0
3
*D5
0
LINE
5
1BD
100
AcDbEntity
8
0
62
256
6
ByLayer
370
-2
48
1
60
0
100
AcDbLine
10
-64
20
1.5875
30
0
11
-64
21
20.35
31
0
39
0
210
0
220
0
230
1
0
LINE
5
1BE
100
AcDbEntity
8
0
62
256
6
ByLayer
370
-2
48
1
60
0
100
AcDbLine
10
140
20
1.5875
30
0
11
140
21
20.35
31
0
39
0
210
0
220
0
230
1
0
LINE
5
1BF
100
AcDbEntity
8
0
62
256
6
ByLayer
370
-2
48
1
60
0
100
AcDbLine
10
-60.5
20
18.35
30
0
11
136.5
21
18.35
31
0
39
0
210
0
220
0
230
1
0
SOLID
5
1C0
100
AcDbEntity
8
0
62
256
6
ByLayer
370
-1
48
1
60
0
100
AcDbTrace
10
-60.5
20
18.933333
30
0
11
-60.5
21
17.766667
31
0
12
-64
22
18.35
32
0
13
-64
23
18.35
33
0
39
0
210
0
220
0
230
1
0
SOLID
5
1C1
100
AcDbEntity
8
0
62
256
6
ByLayer
370
-1
48
1
60
0
100
AcDbTrace
10
136.5
20
17.766667
30
0
11
136.5
21
18.933333
31
0
12
140
22
18.35
32
0
13
140
23
18.35
33
0
39
0
210
0
220
0
230
1
0
MTEXT
5
1C2
100
AcDbEntity
8
0
62
256
6
ByLayer
370
18
48
1
60
0
100
AcDbMText
10
38
20
25.35
30
0
210
0
220
0
230
1
1
\A1;204
40
3.5
41
0
44
1
50
0
71
5
72
5
7
iso_b_vert
0
POINT
5
1C3
100
AcDbEntity
8
Defpoints
62
0
6
ByLayer
370
-1
48
1
60
0
100
AcDbPoint
10
-64
20
0
30
0
39
0
210
0
220
0
230
1
50
360
0
POINT
5
1C4
100
AcDbEntity
8
Defpoints
62
0
6
ByLayer
370
-1
48
1
60
0
100
AcDbPoint
10
140
20
0
30
0
39
0
210
0
220
0
230
1
50
360
0
POINT
5
1C5
100
AcDbEntity
8
Defpoints
62
0
6
ByLayer
370
-1
48
1
60
0
100
AcDbPoint
10
140
20
18.35
30
0
39
0
210
0
220
0
230
1
50
360
0
ENDBLK
5
1BC
100
AcDbEntity
8
0
100
AcDbBlockEnd
0
BLOCK
5
1CD
100
AcDbEntity
8
0
100
AcDbBlockBegin
2
_U2
70
0
10
0
20
0
30
0
3
_U2
0
MTEXT
5
1C7
100
AcDbEntity
8
SK2
62
256
6
ByLayer
370
18
48
1
60
0
100
AcDbMText
10
34.603034
20
19.382634
30
0
210
0
220
0
230
1
1
\W0.7411;204
40
3.5
41
0
44
1.084337
50
0
71
7
72
5
7
iso_b_vert
0
LINE
5
1C8
100
AcDbEntity
8
SK2
62
256
6
ByLayer
370
13
48
1
60
0
100
AcDbLine
10
-64
20
1.5875
30
0
11
-64
21
20.35
31
0
39
0
210
0
220
0
230
1
0
LINE
5
1C9
100
AcDbEntity
8
SK2
62
256
6
ByLayer
370
13
48
1
60
0
100
AcDbLine
10
140
20
1.5875
30
0
11
140
21
20.35
31
0
39
0
210
0
220
0
230
1
0
LINE
5
1CA
100
AcDbEntity
8
SK2
62
256
6
ByLayer
370
13
48
1
60
0
100
AcDbLine
10
-64
20
18.35
30
0
11
140
21
18.35
31
0
39
0
210
0
220
0
230
1
0
SOLID
5
1CB
100
AcDbEntity
8
SK2
62
256
6
ByLayer
370
18
48
1
60
0
100
AcDbTrace
10
-64
20
18.35
30
0
11
-60.500002
21
18.810784
31
0
12
-60.499998
22
17.889216
32
0
13
-60.499998
23
17.889216
33
0
39
0
210
0
220
0
230
1
0
SOLID
5
1CC
100
AcDbEntity
8
SK2
62
256
6
ByLayer
370
18
48
1
60
0
100
AcDbTrace
10
140
20
18.35
30
0
11
136.500002
21
17.889216
31
0
12
136.499998
22
18.810784
32
0
13
136.499998
23
18.810784
33
0
39
0
210
0
220
0
230
1
0
ENDBLK
5
1CE
100
AcDbEntity
8
0
100
AcDbBlockEnd
0
ENDSEC
0
SECTION
2
ENTITIES
0
ARC
5
133
100
AcDbEntity
8
1
62
256
6
ByLayer
370
18
48
1
60
0
100
AcDbCircle
39
0
10
143.8
20
1.658757
30
0
40
0.2
210
0
220
0
230
1
100
AcDbArc
50
0
51
90
0
ARC
5
134
100
AcDbEntity
8
1
62
256
6
ByLayer
370
18
48
1
60
0
100
AcDbCircle
39
0
10
143.8
20
5.058757
30
0
40
0.2
210
0
220
0
230
1
100
AcDbArc
50
270
51
0
0
ARC
5
135
100
AcDbEntity
8
1
62
256
6
ByLayer
370
18
48
1
60
0
100
AcDbCircle
39
0
10
146.7
20
1.058757
30
0
40
0.3
210
0
220
0
230
1
100
AcDbArc
50
270
51
0
0
ARC
5
136
100
AcDbEntity
8
1
62
256
6
ByLayer
370
18
48
1
60
0
100
AcDbCircle
39
0
10
146.7
20
5.658757
30
0
40
0.3
210
0
220
0
230
1
100
AcDbArc
50
0
51
90
0
ARC
5
137
100
AcDbEntity
8
1
62
256
6
ByLayer
370
18
48
1
60
0
100
AcDbCircle
39
0
10
138.2
20
-7.8
30
0
40
0.2
210
0
220
0
230
1
100
AcDbArc
50
180
51
270
0
ARC
5
138
100
AcDbEntity
8
1
62
256
6
ByLayer
370
18
48
1
60
0
100
AcDbCircle
39
0
10
138.2
20
7.8
30
0
40
0.2
210
0
220
0
230
1
100
AcDbArc
50
90
51
180
0
ARC
5
139
100
AcDbEntity
8
1
62
256
6
ByLayer
370
18
48
1
60
0
100
AcDbCircle
39
0
10
143.8
20
-5.058757
30
0
40
0.2
210
0
220
0
230
1
100
AcDbArc
50
0
51
90
0
ARC
5
13A
100
AcDbEntity
8
1
62
256
6
ByLayer
370
18
48
1
60
0
100
AcDbCircle
39
0
10
143.8
20
-1.658757
30
0
40
0.2
210
0
220
0
230
1
100
AcDbArc
50
270
51
0
0
ARC
5
13B
100
AcDbEntity
8
1
62
256
6
ByLayer
370
18
48
1
60
0
100
AcDbCircle
39
0
10
146.7
20
-5.658757
30
0
40
0.3
210
0
220
0
230
1
100
AcDbArc
50
270
51
0
0
ARC
5
13C
100
AcDbEntity
8
1
62
256
6
ByLayer
370
18
48
1
60
0
100
AcDbCircle
39
0
10
146.7
20
-1.058757
30
0
40
0.3
210
0
220
0
230
1
100
AcDbArc
50
0
51
90
0
POINT
5
70
100
AcDbEntity
8
2
62
256
6
ByLayer
370
18
48
1
60
0
100
AcDbPoint
10
122.9
20
4.25
30
0
39
0
210
0
220
0
230
1
50
360
0
POINT
5
72
100
AcDbEntity
8
2
62
256
6
ByLayer
370
18
48
1
60
0
100
AcDbPoint
10
140
20
3.358757
30
0
39
0
210
0
220
0
230
1
50
360
0
POINT
5
73
100
AcDbEntity
8
2
62
256
6
ByLayer
370
18
48
1
60
0
100
AcDbPoint
10
90.425
20
0
30
0
39
0
210
0
220
0
230
1
50
360
0
POINT
5
74
100
AcDbEntity
8
2
62
256
6
ByLayer
370
18
48
1
60
0
100
AcDbPoint
10
140
20
-3.358757
30
0
39
0
210
0
220
0
230
1
50
360
0
POINT
5
75
100
AcDbEntity
8
2
62
256
6
ByLayer
370
18
48
1
60
0
100
AcDbPoint
10
138.870633
20
0
30
0
39
0
210
0
220
0
230
1
50
360
0
POINT
5
76
100
AcDbEntity
8
2
62
256
6
ByLayer
370
18
48
1
60
0
100
AcDbPoint
10
140
20
-3.358757
30
0
39
0
210
0
220
0
230
1
50
360
0
POINT
5
77
100
AcDbEntity
8
2
62
256
6
ByLayer
370
18
48
1
60
0
100
AcDbPoint
10
133.4
20
0
30
0
39
0
210
0
220
0
230
1
50
360
0
POINT
5
78
100
AcDbEntity
8
2
62
256
6
ByLayer
370
18
48
1
60
0
100
AcDbPoint
10
129.25
20
0
30
0
39
0
210
0
220
0
230
1
50
360
0
POINT
5
79
100
AcDbEntity
8
2
62
256
6
ByLayer
370
18
48
1
60
0
100
AcDbPoint
10
144
20
3.358757
30
0
39
0
210
0
220
0
230
1
50
360
0
POINT
5
7A
100
AcDbEntity
8
2
62
256
6
ByLayer
370
18
48
1
60
0
100
AcDbPoint
10
83.8
20
0
30
0
39
0
210
0
220
0
230
1
50
360
0
POINT
5
7B
100
AcDbEntity
8
2
62
256
6
ByLayer
370
18
48
1
60
0
100
AcDbPoint
10
86.65
20
0
30
0
39
0
210
0
220
0
230
1
50
360
0
POINT
5
7C
100
AcDbEntity
8
2
62
256
6
ByLayer
370
18
48
1
60
0
100
AcDbPoint
10
83.8
20
0
30
0
39
0
210
0
220
0
230
1
50
360
0
POINT
5
7D
100
AcDbEntity
8
2
62
256
6
ByLayer
370
18
48
1
60
0
100
AcDbPoint
10
86.4
20
0
30
0
39
0
210
0
220
0
230
1
50
360
0
POINT
5
7E
100
AcDbEntity
8
2
62
256
6
ByLayer
370
18
48
1
60
0
100
AcDbPoint
10
89
20
0
30
0
39
0
210
0
220
0
230
1
50
360
0
POINT
5
7F
100
AcDbEntity
8
2
62
256
6
ByLayer
370
18
48
1
60
0
100
AcDbPoint
10
89.25
20
0
30
0
39
0
210
0
220
0
230
1
50
360
0
POINT
5
80
100
AcDbEntity
8
2
62
256
6
ByLayer
370
18
48
1
60
0
100
AcDbPoint
10
95.6
20
4.25
30
0
39
0
210
0
220
0
230
1
50
360
0
POINT
5
81
100
AcDbEntity
8
2
62
256
6
ByLayer
370
18
48
1
60
0
100
AcDbPoint
10
144
20
3.358757
30
0
39
0
210
0
220
0
230
1
50
360
0
POINT
5
82
100
AcDbEntity
8
2
62
256
6
ByLayer
370
18
48
1
60
0
100
AcDbPoint
10
128.075
20
0
30
0
39
0
210
0
220
0
230
1
50
360
0
POINT
5
83
100
AcDbEntity
8
2
62
256
6
ByLayer
370
18
48
1
60
0
100
AcDbPoint
10
90.425
20
0
30
0
39
0
210
0
220
0
230
1
50
360
0
POINT
5
84
100
AcDbEntity
8
2
62
256
6
ByLayer
370
18
48
1
60
0
100
AcDbPoint
10
109.25
20
0
30
0
39
0
210
0
220
0
230
1
50
360
0
POINT
5
85
100
AcDbEntity
8
2
62
256
6
ByLayer
370
18
48
1
60
0
100
AcDbPoint
10
129.25
20
0
30
0
39
0
210
0
220
0
230
1
50
360
0
POINT
5
86
100
AcDbEntity
8
2
62
256
6
ByLayer
370
18
48
1
60
0
100
AcDbPoint
10
129.25
20
0
30
0
39
0
210
0
220
0
230
1
50
360
0
POINT
5
87
100
AcDbEntity
8
2
62
256
6
ByLayer
370
18
48
1
60
0
100
AcDbPoint
10
89.25
20
0
30
0
39
0
210
0
220
0
230
1
50
360
0
POINT
5
88
100
AcDbEntity
8
2
62
256
6
ByLayer
370
18
48
1
60
0
100
AcDbPoint
10
122.9
20
4.25
30
0
39
0
210
0
220
0
230
1
50
360
0
POINT
5
89
100
AcDbEntity
8
2
62
256
6
ByLayer
370
18
48
1
60
0
100
AcDbPoint
10
128.075
20
0
30
0
39
0
210
0
220
0
230
1
50
360
0
POINT
5
8A
100
AcDbEntity
8
2
62
256
6
ByLayer
370
18
48
1
60
0
100
AcDbPoint
10
89.25
20
0
30
0
39
0
210
0
220
0
230
1
50
360
0
POINT
5
8B
100
AcDbEntity
8
2
62
256
6
ByLayer
370
18
48
1
60
0
100
AcDbPoint
10
95.6
20
4.25
30
0
39
0
210
0
220
0
230
1
50
360
0
POINT
5
8C
100
AcDbEntity
8
2
62
256
6
ByLayer
370
18
48
1
60
0
100
AcDbPoint
10
138
20
0
30
0
39
0
210
0
220
0
230
1
50
360
0
POINT
5
8D
100
AcDbEntity
8
2
62
256
6
ByLayer
370
18
48
1
60
0
100
AcDbPoint
10
0
20
0
30
0
39
0
210
0
220
0
230
1
50
360
0
POINT
5
8E
100
AcDbEntity
8
SK1
62
256
6
ByLayer
370
18
48
1
60
0
100
AcDbPoint
10
-18
20
0
30
0
39
0
210
0
220
0
230
1
50
360
0
POINT
5
90
100
AcDbEntity
8
SK1
62
256
6
ByLayer
370
18
48
1
60
0
100
AcDbPoint
10
83.5
20
0
30
0
39
0
210
0
220
0
230
1
50
360
0
POINT
5
91
100
AcDbEntity
8
81
62
256
6
ByLayer
370
18
48
1
60
0
100
AcDbPoint
10
140
20
0
30
0
39
0
210
0
220
0
230
1
50
360
0
POINT
5
93
100
AcDbEntity
8
SK1
62
256
6
ByLayer
370
18
48
1
60
0
100
AcDbPoint
10
62
20
0
30
0
39
0
210
0
220
0
230
1
50
360
0
POINT
5
94
100
AcDbEntity
8
SK1
62
256
6
ByLayer
370
18
48
1
60
0
100
AcDbPoint
10
-64
20
0
30
0
39
0
210
0
220
0
230
1
50
360
0
POINT
5
95
100
AcDbEntity
8
80
62
256
6
ByLayer
370
18
48
1
60
0
100
AcDbPoint
10
0
20
0
30
0
39
0
210
0
220
0
230
1
50
360
0
POINT
5
97
100
AcDbEntity
8
2
62
256
6
ByLayer
370
18
48
1
60
0
100
AcDbPoint
10
138
20
0
30
0
39
0
210
0
220
0
230
1
50
360
0
POINT
5
98
100
AcDbEntity
8
2
62
256
6
ByLayer
370
18
48
1
60
0
100
AcDbPoint
10
127.4
20
0
30
0
39
0
210
0
220
0
230
1
50
360
0
POINT
5
99
100
AcDbEntity
8
2
62
256
6
ByLayer
370
18
48
1
60
0
100
AcDbPoint
10
133.4
20
0
30
0
39
0
210
0
220
0
230
1
50
360
0
POINT
5
9A
100
AcDbEntity
8
2
62
256
6
ByLayer
370
50
48
1
60
0
100
AcDbPoint
10
129.5
20
0
30
0
39
0
210
0
220
0
230
1
50
360
0
POINT
5
9B
100
AcDbEntity
8
2
62
256
6
ByLayer
370
18
48
1
60
0
100
AcDbPoint
10
138.870633
20
0
30
0
39
0
210
0
220
0
230
1
50
360
0
POINT
5
9C
100
AcDbEntity
8
2
62
256
6
ByLayer
370
50
48
1
60
0
100
AcDbPoint
10
147
20
0
30
0
39
0
210
0
220
0
230
1
50
360
0
POINT
5
9D
100
AcDbEntity
8
2
62
256
6
ByLayer
370
18
48
1
60
0
100
AcDbPoint
10
138
20
0
30
0
39
0
210
0
220
0
230
1
50
360
0
POINT
5
9E
100
AcDbEntity
8
2
62
256
6
ByLayer
370
18
48
1
60
0
100
AcDbPoint
10
129.25
20
0
30
0
39
0
210
0
220
0
230
1
50
360
0
POINT
5
9F
100
AcDbEntity
8
2
62
256
6
ByLayer
370
18
48
1
60
0
100
AcDbPoint
10
133.4
20
0
30
0
39
0
210
0
220
0
230
1
50
360
0
POINT
5
A0
100
AcDbEntity
8
2
62
256
6
ByLayer
370
18
48
1
60
0
100
AcDbPoint
10
83.4
20
0
30
0
39
0
210
0
220
0
230
1
50
360
0
POINT
5
A1
100
AcDbEntity
8
2
62
256
6
ByLayer
370
18
48
1
60
0
100
AcDbPoint
10
108.4
20
0
30
0
39
0
210
0
220
0
230
1
50
360
0
POINT
5
A2
100
AcDbEntity
8
1
62
256
6
ByLayer
370
18
48
1
60
0
100
AcDbPoint
10
108.4
20
0
30
0
39
0
210
0
220
0
230
1
50
360
0
POINT
5
A4
100
AcDbEntity
8
1
62
256
6
ByLayer
370
13
48
1
60
1
100
AcDbPoint
10
134.75
20
-3.358757
30
0
39
0
210
0
220
0
230
1
50
360
0
POINT
5
A5
100
AcDbEntity
8
1
62
256
6
ByLayer
370
13
48
1
60
1
100
AcDbPoint
10
148.2
20
-3.358757
30
0
39
0
210
0
220
0
230
1
50
360
0
POINT
5
A6
100
AcDbEntity
8
1
62
256
6
ByLayer
370
13
48
1
60
1
100
AcDbPoint
10
-65.5
20
0
30
0
39
0
210
0
220
0
230
1
50
360
0
POINT
5
A7
100
AcDbEntity
8
1
62
256
6
ByLayer
370
13
48
1
60
1
100
AcDbPoint
10
70
20
0
30
0
39
0
210
0
220
0
230
1
50
360
0
POINT
5
A8
100
AcDbEntity
8
1
62
256
6
ByLayer
370
13
48
1
60
1
100
AcDbPoint
10
-65.5
20
0
30
0
39
0
210
0
220
0
230
1
50
360
0
POINT
5
A9
100
AcDbEntity
8
1
62
256
6
ByLayer
370
13
48
1
60
1
100
AcDbPoint
10
70
20
0
30
0
39
0
210
0
220
0
230
1
50
360
0
POINT
5
AA
100
AcDbEntity
8
1
62
256
6
ByLayer
370
13
48
1
60
1
100
AcDbPoint
10
67.541378
20
0
30
0
39
0
210
0
220
0
230
1
50
360
0
POINT
5
AB
100
AcDbEntity
8
1
62
256
6
ByLayer
370
13
48
1
60
1
100
AcDbPoint
10
139.3
20
0
30
0
39
0
210
0
220
0
230
1
50
360
0
POINT
5
AC
100
AcDbEntity
8
1
62
256
6
ByLayer
370
13
48
1
60
1
100
AcDbPoint
10
67.541378
20
0
30
0
39
0
210
0
220
0
230
1
50
360
0
POINT
5
AD
100
AcDbEntity
8
1
62
256
6
ByLayer
370
13
48
1
60
1
100
AcDbPoint
10
139.5
20
0
30
0
39
0
210
0
220
0
230
1
50
360
0
POINT
5
AE
100
AcDbEntity
8
1
62
256
6
ByLayer
370
13
48
1
60
1
100
AcDbPoint
10
141.770633
20
0
30
0
39
0
210
0
220
0
230
1
50
360
0
POINT
5
AF
100
AcDbEntity
8
1
62
256
6
ByLayer
370
13
48
1
60
1
100
AcDbPoint
10
136.7
20
0
30
0
39
0
210
0
220
0
230
1
50
360
0
POINT
5
B0
100
AcDbEntity
8
1
62
256
6
ByLayer
370
13
48
1
60
1
100
AcDbPoint
10
134.75
20
3.358757
30
0
39
0
210
0
220
0
230
1
50
360
0
POINT
5
B1
100
AcDbEntity
8
1
62
256
6
ByLayer
370
13
48
1
60
1
100
AcDbPoint
10
148.2
20
3.358757
30
0
39
0
210
0
220
0
230
1
50
360
0
POINT
5
B2
100
AcDbEntity
8
1
62
256
6
ByLayer
370
18
48
1
60
1
100
AcDbPoint
10
140
20
8
30
0
39
0
210
0
220
0
230
1
50
360
0
POINT
5
B3
100
AcDbEntity
8
1
62
256
6
ByLayer
370
18
48
1
60
1
100
AcDbPoint
10
48
20
-8
30
0
39
0
210
0
220
0
230
1
50
360
0
POINT
5
B4
100
AcDbEntity
8
1
62
256
6
ByLayer
370
18
48
1
60
1
100
AcDbPoint
10
140
20
8
30
0
39
0
210
0
220
0
230
1
50
360
0
POINT
5
B5
100
AcDbEntity
8
1
62
256
6
ByLayer
370
18
48
1
60
1
100
AcDbPoint
10
0
20
-8
30
0
39
0
210
0
220
0
230
1
50
360
0
POINT
5
B6
100
AcDbEntity
8
1
62
256
6
ByLayer
370
18
48
1
60
1
100
AcDbPoint
10
-64
20
0
30
0
39
0
210
0
220
0
230
1
50
360
0
POINT
5
B7
100
AcDbEntity
8
1
62
256
6
ByLayer
370
18
48
1
60
1
100
AcDbPoint
10
140
20
0
30
0
39
0
210
0
220
0
230
1
50
360
0
SPLINE
5
13D
100
AcDbEntity
8
1
62
256
6
ByLayer
370
18
48
1
60
0
100
AcDbSpline
70
4
71
3
72
24
73
20
40
0
40
0
40
0
40
0
40
0.0027778632261038
40
0.0027778632261038
40
0.127430630322841
40
0.127430630322841
40
0.18975701387121
40
0.18975701387121
40
0.252083397419578
40
0.252083397419578
40
0.376736164516308
40
0.376736164516308
40
0.501388931613039
40
0.501388931613039
40
0.626041698709779
40
0.626041698709779
40
0.75069446580652
40
0.75069446580652
40
1
40
1
40
1
40
1
41
1
10
139.658734792373
20
-7.8618981291967
30
0
41
1
10
139.65873330469
20
-7.86189965476804
30
0
41
1
10
139.658734609963
20
-7.86189831632237
30
0
41
1
10
139.658754881332
20
-7.86187752926796
30
0
41
1
10
139.659502799516
20
-7.86111048927381
30
0
41
1
10
139.661713007924
20
-7.85884465316624
30
0
41
1
10
139.662633848339
20
-7.85790073269297
30
0
41
1
10
139.664782926538
20
-7.85569827470576
30
0
41
1
10
139.666015227483
20
-7.85443557182504
30
0
41
1
10
139.670154463813
20
-7.85019536911946
30
0
41
1
10
139.673514419898
20
-7.84675481281209
30
0
41
1
10
139.681259632611
20
-7.83883006148415
30
0
41
1
10
139.6855637359
20
-7.83442892422212
30
0
41
1
10
139.694897165649
20
-7.82489374440794
30
0
41
1
10
139.699927665231
20
-7.8197584945423
30
0
41
1
10
139.710641803281
20
-7.80883251952321
30
0
41
1
10
139.716250281136
20
-7.80311848867558
30
0
41
1
10
139.73357614126
20
-7.78548581899662
30
0
41
1
10
139.745851600156
20
-7.77301780230977
30
0
41
1
10
139.758734122635
20
-7.75996605859626
30
0
0
SPLINE
5
13E
100
AcDbEntity
8
1
62
256
6
ByLayer
370
18
48
1
60
0
100
AcDbSpline
70
4
71
3
72
8
73
4
40
0
40
0
40
0
40
0
40
1
40
1
40
1
40
1
41
1
10
139.758734122635
20
-7.75996605859626
30
0
41
1
10
139.930305654923
20
-7.58614081034449
30
0
41
1
10
140.100995372984
20
-7.41116944643827
30
0
41
1
10
140.270632938683
20
-7.23483057420836
30
0
0
SPLINE
5
13F
100
AcDbEntity
8
1
62
256
6
ByLayer
370
18
48
1
60
0
100
AcDbSpline
70
4
71
3
72
8
73
4
40
0
40
0
40
0
40
0
40
1
40
1
40
1
40
1
41
1
10
140.270632938683
20
-7.20778387838453
30
0
41
1
10
140.100535170239
20
-7.36823338813261
30
0
41
1
10
139.929871946909
20
-7.5278772786605
30
0
41
1
10
139.758734122635
20
-7.68684499209255
30
0
0
SPLINE
5
140
100
AcDbEntity
8
1
62
256
6
ByLayer
370
18
48
1
60
0
100
AcDbSpline
70
4
71
3
72
38
73
34
40
0
40
0
40
0
40
0
40
0.0624999999999994
40
0.0624999999999994
40
0.124999999999999
40
0.124999999999999
40
0.187499999999998
40
0.187499999999998
40
0.249999999999998
40
0.249999999999998
40
0.312499999999997
40
0.312499999999997
40
0.374999999999997
40
0.374999999999997
40
0.437499999999996
40
0.437499999999996
40
0.499999999999995
40
0.499999999999995
40
0.531249999999995
40
0.531249999999995
40
0.562499999999995
40
0.562499999999995
40
0.624999999999995
40
0.624999999999995
40
0.687499999999995
40
0.687499999999995
40
0.749999999999996
40
0.749999999999996
40
0.812499999999996
40
0.812499999999996
40
0.874999999999996
40
0.874999999999996
40
1
40
1
40
1
40
1
41
1
10
139.758734122635
20
-7.68684499209255
30
0
41
1
10
139.751965375681
20
-7.69313239366809
30
0
41
1
10
139.745324297925
20
-7.69922582217077
30
0
41
1
10
139.73232697678
20
-7.71097526772922
30
0
41
1
10
139.725934873038
20
-7.71666232141979
30
0
41
1
10
139.71371735233
20
-7.72731509283827
30
0
41
1
10
139.707882835219
20
-7.73229051297702
30
0
41
1
10
139.696835404298
20
-7.74143899926924
30
0
41
1
10
139.691591768282
20
-7.74563597485761
30
0
41
1
10
139.681992787252
20
-7.75294658983955
30
0
41
1
10
139.677700073799
20
-7.75601457992539
30
0
41
1
10
139.670242572697
20
-7.76083517827533
30
0
41
1
10
139.667078228128
20
-7.76257725844494
30
0
41
1
10
139.662267413729
20
-7.7644583225896
30
0
41
1
10
139.660573168146
20
-7.76463195673509
30
0
41
1
10
139.658672200394
20
-7.7633694574929
30
0
41
1
10
139.65849937194
20
-7.76194762619571
30
0
41
1
10
139.659298405361
20
-7.75876209702352
30
0
41
1
10
139.659741249668
20
-7.75752323588532
30
0
41
1
10
139.660969609992
20
-7.75470168490523
30
0
41
1
10
139.661757797389
20
-7.75311590743758
30
0
41
1
10
139.664558221307
20
-7.74796980300519
30
0
41
1
10
139.667013892852
20
-7.74399547712085
30
0
41
1
10
139.672932352408
20
-7.735118043559
30
0
41
1
10
139.676427173586
20
-7.73017325131693
30
0
41
1
10
139.684147251327
20
-7.71969124988712
30
0
41
1
10
139.688371104928
20
-7.71415167903044
30
0
41
1
10
139.697441327021
20
-7.70256440250404
30
0
41
1
10
139.702288479084
20
-7.69651605013632
30
0
41
1
10
139.712548113558
20
-7.6839609845301
30
0
41
1
10
139.71792691529
20
-7.67749634909651
30
0
41
1
10
139.734543206777
20
-7.65782741357944
30
0
41
1
10
139.746329788436
20
-7.64425945394038
30
0
41
1
10
139.758734122635
20
-7.6303054020579
30
0
0
SPLINE
5
141
100
AcDbEntity
8
1
62
256
6
ByLayer
370
18
48
1
60
0
100
AcDbSpline
70
4
71
3
72
8
73
4
40
0
40
0
40
0
40
0
40
1
40
1
40
1
40
1
41
1
10
139.758734122635
20
-7.6303054020579
30
0
41
1
10
139.930988807873
20
-7.43653032502723
30
0
41
1
10
140.101722788667
20
-7.24098700354415
30
0
41
1
10
140.270632938683
20
-7.04332296842193
30
0
0
SPLINE
5
142
100
AcDbEntity
8
1
62
256
6
ByLayer
370
18
48
1
60
0
100
AcDbSpline
70
4
71
3
72
8
73
4
40
0
40
0
40
0
40
0
40
1
40
1
40
1
40
1
41
1
10
140.270632938683
20
-6.95963529486281
30
0
41
1
10
140.100234906286
20
-7.10842939635936
30
0
41
1
10
139.929588432502
20
-7.25684270221112
30
0
41
1
10
139.758734122635
20
-7.40493744972571
30
0
0
SPLINE
5
143
100
AcDbEntity
8
1
62
256
6
ByLayer
370
18
48
1
60
0
100
AcDbSpline
70
4
71
3
72
30
73
26
40
0
40
0
40
0
40
0
40
0.125000000000002
40
0.125000000000002
40
0.187500000000002
40
0.187500000000002
40
0.250000000000001
40
0.250000000000001
40
0.312500000000001
40
0.312500000000001
40
0.375000000000001
40
0.375000000000001
40
0.4375
40
0.4375
40
0.5
40
0.5
40
0.562499999999999
40
0.562499999999999
40
0.624999999999999
40
0.624999999999999
40
0.749999999999999
40
0.749999999999999
40
0.875
40
0.875
40
1
40
1
40
1
40
1
41
1
10
139.758734122635
20
-7.40493744972574
30
0
41
1
10
139.744367701743
20
-7.41739011466763
30
0
41
1
10
139.730282417026
20
-7.42884421143214
30
0
41
1
10
139.710902461573
20
-7.44303440050865
30
0
41
1
10
139.704690225618
20
-7.44730012219355
30
0
41
1
10
139.692962210756
20
-7.4546251749903
30
0
41
1
10
139.68759796713
20
-7.45759024175686
30
0
41
1
10
139.677979433757
20
-7.46195908410792
30
0
41
1
10
139.673721419614
20
-7.46334398544266
30
0
41
1
10
139.666835146865
20
-7.46426962247779
30
0
41
1
10
139.664136872422
20
-7.46384607864658
30
0
41
1
10
139.660288458875
20
-7.46117796194946
30
0
41
1
10
139.659206993603
20
-7.4589882903995
30
0
41
1
10
139.658509778339
20
-7.45311350069608
30
0
41
1
10
139.658913726886
20
-7.44938065406893
30
0
41
1
10
139.66098387642
20
-7.44086121055309
30
0
41
1
10
139.662636705142
20
-7.43606333849993
30
0
41
1
10
139.666982710004
20
-7.42555937293423
30
0
41
1
10
139.669697886561
20
-7.41981737769285
30
0
41
1
10
139.678991060757
20
-7.40183746335342
30
0
41
1
10
139.686724899491
20
-7.38875775887209
30
0
41
1
10
139.704554798818
20
-7.36092958385424
30
0
41
1
10
139.714398268057
20
-7.34658193541739
30
0
41
1
10
139.735506814675
20
-7.3172763677066
30
0
41
1
10
139.746785427428
20
-7.30230459589782
30
0
41
1
10
139.758734122635
20
-7.28704657778317
30
0
0
SPLINE
5
144
100
AcDbEntity
8
1
62
256
6
ByLayer
370
18
48
1
60
0
100
AcDbSpline
70
4
71
3
72
8
73
4
40
0
40
0
40
0
40
0
40
1
40
1
40
1
40
1
41
1
10
139.758734122635
20
-7.28704657778317
30
0
41
1
10
139.932140671881
20
-7.06561317239596
30
0
41
1
10
140.102954771283
20
-6.84154959522232
30
0
41
1
10
140.270632938683
20
-6.61430445606339
30
0
0
SPLINE
5
145
100
AcDbEntity
8
1
62
256
6
ByLayer
370
18
48
1
60
0
100
AcDbSpline
70
4
71
3
72
8
73
4
40
0
40
0
40
0
40
0
40
1
40
1
40
1
40
1
41
1
10
140.270632938683
20
-6.46497474376352
30
0
41
1
10
140.100050876679
20
-6.60628451103247
30
0
41
1
10
139.929414836465
20
-6.74750732224103
30
0
41
1
10
139.758734122635
20
-6.88865816659839
30
0
0
SPLINE
5
146
100
AcDbEntity
8
1
62
256
6
ByLayer
370
18
48
1
60
0
100
AcDbSpline
70
4
71
3
72
39
73
35
40
0
40
0
40
0
40
0
40
0.0625000000000037
40
0.0625000000000037
40
0.125000000000007
40
0.125000000000007
40
0.156250000000009
40
0.156250000000009
40
0.187500000000011
40
0.218750000000012
40
0.218750000000012
40
0.250000000000014
40
0.250000000000014
40
0.312500000000015
40
0.312500000000015
40
0.343750000000015
40
0.343750000000015
40
0.375000000000014
40
0.375000000000014
40
0.437500000000014
40
0.437500000000014
40
0.500000000000014
40
0.500000000000014
40
0.562500000000013
40
0.562500000000013
40
0.625000000000013
40
0.625000000000013
40
0.687500000000012
40
0.687500000000012
40
0.750000000000012
40
0.750000000000012
40
0.875000000000006
40
0.875000000000006
40
1
40
1
40
1
40
1
41
1
10
139.758734122635
20
-6.88865816659839
30
0
41
1
10
139.750986037505
20
-6.89506573739945
30
0
41
1
10
139.743247617511
20
-6.9011026259175
30
0
41
1
10
139.728218991288
20
-6.91194589970445
30
0
41
1
10
139.720930076912
20
-6.91675934291712
30
0
41
1
10
139.710406234744
20
-6.92286377186483
30
0
41
1
10
139.706946953823
20
-6.9247206756373
30
0
41
1
10
139.700291569123
20
-6.92795384965621
30
0
41
1
10
139.693918059201
20
-6.93070165770862
30
0
41
1
10
139.688134728716
20
-6.93242883190899
30
0
41
1
10
139.682667305371
20
-6.93360709418931
30
0
41
1
10
139.680097174585
20
-6.93391538506049
30
0
41
1
10
139.673110486764
20
-6.9339703697832
30
0
41
1
10
139.669321760145
20
-6.93287712907431
30
0
41
1
10
139.664891230429
20
-6.92959509523791
30
0
41
1
10
139.663632270771
20
-6.92822476590089
30
0
41
1
10
139.661578563685
20
-6.92504422322247
30
0
41
1
10
139.660772224861
20
-6.9232265681315
30
0
41
1
10
139.658953260582
20
-6.91715248924129
30
0
41
1
10
139.658545959621
20
-6.91222023344142
30
0
41
1
10
139.659081800919
20
-6.90129621127568
30
0
41
1
10
139.660005563404
20
-6.89529775665562
30
0
41
1
10
139.662905627224
20
-6.88243460626666
30
0
41
1
10
139.664900268614
20
-6.87552493044211
30
0
41
1
10
139.669709826093
20
-6.86121299797824
30
0
41
1
10
139.672520087319
20
-6.85380891997539
30
0
41
1
10
139.678816827338
20
-6.83858577970062
30
0
41
1
10
139.682304333498
20
-6.83076610950985
30
0
41
1
10
139.689878402885
20
-6.81475905926118
30
0
41
1
10
139.693951137518
20
-6.80660460104244
30
0
41
1
10
139.706769804791
20
-6.78204061719313
30
0
41
1
10
139.716166060485
20
-6.76540922010287
30
0
41
1
10
139.736386108497
20
-6.73172718217884
30
0
41
1
10
139.747213509741
20
-6.71467542914948
30
0
41
1
10
139.758734122635
20
-6.69742750053254
30
0
0
SPLINE
5
147
100
AcDbEntity
8
1
62
256
6
ByLayer
370
18
48
1
60
0
100
AcDbSpline
70
4
71
3
72
8
73
4
40
0
40
0
40
0
40
0
40
1
40
1
40
1
40
1
41
1
10
139.758734122635
20
-6.69742750053251
30
0
41
1
10
139.934318188209
20
-6.43455420920733
30
0
41
1
10
140.105295763355
20
-6.16775707141292
30
0
41
1
10
140.270632938683
20
-5.89615539461946
30
0
0
SPLINE
5
148
100
AcDbEntity
8
1
62
256
6
ByLayer
370
18
48
1
60
0
100
AcDbSpline
70
4
71
3
72
8
73
4
40
0
40
0
40
0
40
0
40
1
40
1
40
1
40
1
41
1
10
140.270632938683
20
-5.65952943604856
30
0
41
1
10
140.100010938227
20
-5.79923047588971
30
0
41
1
10
139.929377245483
20
-5.93891247668259
30
0
41
1
10
139.758734122635
20
-6.07857911342239
30
0
0
SPLINE
5
149
100
AcDbEntity
8
1
62
256
6
ByLayer
370
18
48
1
60
0
100
AcDbSpline
70
4
71
3
72
36
73
32
40
0
40
0
40
0
40
0
40
0.0624999999999992
40
0.0624999999999992
40
0.124999999999998
40
0.124999999999998
40
0.187499999999998
40
0.187499999999998
40
0.218749999999999
40
0.218749999999999
40
0.250000000000001
40
0.250000000000001
40
0.281250000000002
40
0.281250000000002
40
0.312500000000004
40
0.312500000000004
40
0.375000000000004
40
0.375000000000004
40
0.437500000000005
40
0.437500000000005
40
0.500000000000006
40
0.500000000000006
40
0.562500000000007
40
0.562500000000007
40
0.625000000000007
40
0.625000000000007
40
0.750000000000005
40
0.750000000000005
40
0.875000000000002
40
0.875000000000002
40
1
40
1
40
1
40
1
41
1
10
139.758734122635
20
-6.07857911342279
30
0
41
1
10
139.750124756033
20
-6.08562563986752
30
0
41
1
10
139.741488959539
20
-6.09202180545469
30
0
41
1
10
139.724399279905
20
-6.10286429429797
30
0
41
1
10
139.716111011189
20
-6.10720464422641
30
0
41
1
10
139.700393695023
20
-6.11299632701619
30
0
41
1
10
139.693287069885
20
-6.11432981643958
30
0
41
1
10
139.68385323506
20
-6.11375605431235
30
0
41
1
10
139.680978859928
20
-6.11313156461654
30
0
41
1
10
139.675825580764
20
-6.11110593006754
30
0
41
1
10
139.673528327618
20
-6.10970362445374
30
0
41
1
10
139.669450268118
20
-6.10617512962173
30
0
41
1
10
139.667659921981
20
-6.10402824318024
30
0
41
1
10
139.664638653465
20
-6.09917571646568
30
0
41
1
10
139.663397708842
20
-6.09647137378454
30
0
41
1
10
139.660365884373
20
-6.08764178426344
30
0
41
1
10
139.659265727602
20
-6.08073240997305
30
0
41
1
10
139.658512236341
20
-6.0659782931892
30
0
41
1
10
139.658833915611
20
-6.05809255692208
30
0
41
1
10
139.660518709044
20
-6.04155354585669
30
0
41
1
10
139.661886009954
20
-6.03289733380041
30
0
41
1
10
139.665476799225
20
-6.01494775185495
30
0
41
1
10
139.667702358568
20
-6.00566607404818
30
0
41
1
10
139.672794461884
20
-5.9868731100367
30
0
41
1
10
139.675669790061
20
-5.97731980442344
30
0
41
1
10
139.685138493955
20
-5.9482554178565
30
0
41
1
10
139.692602374988
20
-5.92826752225974
30
0
41
1
10
139.709021919696
20
-5.88821557059262
30
0
41
1
10
139.718008490763
20
-5.86805644544438
30
0
41
1
10
139.737346415014
20
-5.82750933224776
30
0
41
1
10
139.747699624019
20
-5.80712101330138
30
0
41
1
10
139.758734122635
20
-5.78662444115713
30
0
0
SPLINE
5
14A
100
AcDbEntity
8
1
62
256
6
ByLayer
370
18
48
1
60
0
100
AcDbSpline
70
4
71
3
72
8
73
4
40
0
40
0
40
0
40
0
40
1
40
1
40
1
40
1
41
1
10
139.758734122635
20
-5.78662444115713
30
0
41
1
10
139.9394136044
20
-5.45101245169826
30
0
41
1
10
140.110804449685
20
-5.10922659701967
30
0
41
1
10
140.270632938683
20
-4.75975560690884
30
0
0
SPLINE
5
14B
100
AcDbEntity
8
1
62
256
6
ByLayer
370
18
48
1
60
0
100
AcDbSpline
70
4
71
3
72
8
73
4
40
0
40
0
40
0
40
0
40
1
40
1
40
1
40
1
41
1
10
140.270632938683
20
-4.37488839143353
30
0
41
1
10
140.100501585209
20
-4.52702640256621
30
0
41
1
10
139.929824034648
20
-4.67834355136907
30
0
41
1
10
139.758734122635
20
-4.82904097518616
30
0
0
SPLINE
5
14C
100
AcDbEntity
8
1
62
256
6
ByLayer
370
18
48
1
60
0
100
AcDbSpline
70
4
71
3
72
37
73
33
40
0
40
0
40
0
40
0
40
0.0312499999999953
40
0.0312499999999953
40
0.0624999999999908
40
0.0624999999999908
40
0.0937499999999862
40
0.0937499999999862
40
0.109374999999985
40
0.109374999999985
40
0.124999999999983
40
0.124999999999983
40
0.156249999999983
40
0.156249999999983
40
0.187499999999983
40
0.187499999999983
40
0.249999999999983
40
0.249999999999983
40
0.312499999999984
40
0.312499999999984
40
0.343749999999986
40
0.343749999999986
40
0.374999999999987
40
0.374999999999987
40
0.49999999999999
40
0.49999999999999
40
0.624999999999992
40
0.624999999999992
40
0.749999999999995
40
0.749999999999995
40
0.874999999999997
40
1
40
1
40
1
40
1
41
1
10
139.758734122635
20
-4.82904097518642
30
0
41
1
10
139.753554825863
20
-4.83360294305211
30
0
41
1
10
139.748264299781
20
-4.83786989184108
30
0
41
1
10
139.737685074553
20
-4.84542437540833
30
0
41
1
10
139.732403572735
20
-4.84871432641765
30
0
41
1
10
139.721860932824
20
-4.85406803522824
30
0
41
1
10
139.716571714374
20
-4.85612022378555
30
0
41
1
10
139.709079236411
20
-4.85791823105637
30
0
41
1
10
139.706639051522
20
-4.85831397410709
30
0
41
1
10
139.701878821353
20
-4.85867718306201
30
0
41
1
10
139.699540452459
20
-4.85864114944647
30
0
41
1
10
139.692888912718
20
-4.85787764905834
30
0
41
1
10
139.688920845346
20
-4.85651797112141
30
0
41
1
10
139.681791235232
20
-4.85231737299077
30
0
41
1
10
139.678613474833
20
-4.84943505289331
30
0
41
1
10
139.670487257174
20
-4.83926258393601
30
0
41
1
10
139.666729069274
20
-4.83031467425684
30
0
41
1
10
139.661549983122
20
-4.81067142690716
30
0
41
1
10
139.660076937265
20
-4.79990860090896
30
0
41
1
10
139.658954069262
20
-4.78282916438221
30
0
41
1
10
139.658767924055
20
-4.77697855460113
30
0
41
1
10
139.658708784746
20
-4.76516956458252
30
0
41
1
10
139.658834337935
20
-4.75918896356922
30
0
41
1
10
139.660107389975
20
-4.72896528527218
30
0
41
1
10
139.663117696004
20
-4.70379368875822
30
0
41
1
10
139.671536051858
20
-4.65219521096753
30
0
41
1
10
139.67701226797
20
-4.62565680552407
30
0
41
1
10
139.689566196451
20
-4.57261174900725
30
0
41
1
10
139.696669360775
20
-4.54597356232205
30
0
41
1
10
139.712211436138
20
-4.49250063469253
30
0
41
1
10
139.729096818256
20
-4.43883040580403
30
0
41
1
10
139.748437227111
20
-4.38479897666031
30
0
41
1
10
139.758734122635
20
-4.35769545988529
30
0
0
SPLINE
5
14D
100
AcDbEntity
8
1
62
256
6
ByLayer
370
18
48
1
60
0
100
AcDbSpline
70
4
71
3
72
9
73
5
40
0
40
0
40
0
40
0
40
0.5
40
1
40
1
40
1
40
1
41
1
10
139.758734122635
20
-4.35769545988535
30
0
41
1
10
139.859686715319
20
-4.09196776721652
30
0
41
1
10
140.047205359583
20
-3.55450167471582
30
0
41
1
10
140.202257516881
20
-3.00347106073895
30
0
41
1
10
140.270632938683
20
-2.72413260277497
30
0
0
SPLINE
5
14E
100
AcDbEntity
8
1
62
256
6
ByLayer
370
18
48
1
60
0
100
AcDbSpline
70
4
71
3
72
10
73
6
40
0
40
0
40
0
40
0
40
0.5
40
0.5
40
1
40
1
40
1
40
1
41
1
10
140.270632938683
20
-1.76749071779758
30
0
41
1
10
140.193404126048
20
-1.90689681561079
30
0
41
1
10
140.111298645171
20
-2.04211498451929
30
0
41
1
10
139.939950567724
20
-2.30642219244046
30
0
41
1
10
139.850693763253
20
-2.43549903015634
30
0
41
1
10
139.758734122635
20
-2.56225475741959
30
0
0
SPLINE
5
14F
100
AcDbEntity
8
1
62
256
6
ByLayer
370
18
48
1
60
0
100
AcDbSpline
70
4
71
3
72
48
73
44
40
0
40
0
40
0
40
0
40
0.0156249999999997
40
0.0156249999999997
40
0.0234374999999998
40
0.0234374999999998
40
0.0312499999999998
40
0.0312499999999998
40
0.0390624999999998
40
0.0390624999999998
40
0.0468749999999998
40
0.0468749999999998
40
0.0546874999999998
40
0.0546874999999998
40
0.0624999999999999
40
0.0624999999999999
40
0.0781249999999993
40
0.0781249999999993
40
0.0937499999999988
40
0.0937499999999988
40
0.109374999999998
40
0.109374999999998
40
0.124999999999998
40
0.124999999999998
40
0.156249999999998
40
0.156249999999998
40
0.187499999999998
40
0.187499999999998
40
0.218749999999999
40
0.218749999999999
40
0.249999999999999
40
0.249999999999999
40
0.312499999999999
40
0.312499999999999
40
0.374999999999999
40
0.374999999999999
40
0.499999999999998
40
0.499999999999998
40
0.624999999999999
40
0.624999999999999
40
0.749999999999999
40
0.749999999999999
40
1
40
1
40
1
40
1
41
1
10
139.758734122664
20
-2.56225475746049
30
0
41
1
10
139.754147423375
20
-2.56857699187336
30
0
41
1
10
139.74927032767
20
-2.5746074287693
30
0
41
1
10
139.741484293608
20
-2.5825862216436
30
0
41
1
10
139.738823203486
20
-2.58505311712401
30
0
41
1
10
139.733328295278
20
-2.58947867736859
30
0
41
1
10
139.730463900404
20
-2.59145446038173
30
0
41
1
10
139.724664249174
20
-2.5946041516836
30
0
41
1
10
139.72174121726
20
-2.59577925942159
30
0
41
1
10
139.715837498868
20
-2.59713442419573
30
0
41
1
10
139.712989070222
20
-2.59728105808116
30
0
41
1
10
139.707494110378
20
-2.59653272288563
30
0
41
1
10
139.704826506501
20
-2.5956130996741
30
0
41
1
10
139.699951430324
20
-2.59293182000991
30
0
41
1
10
139.697700063383
20
-2.59116984336191
30
0
41
1
10
139.691434167236
20
-2.58491588519695
30
0
41
1
10
139.68806008485
20
-2.57968431558592
30
0
41
1
10
139.68219081837
20
-2.5680463524061
30
0
41
1
10
139.679758252707
20
-2.56171527461916
30
0
41
1
10
139.675534666584
20
-2.54853452253153
30
0
41
1
10
139.673735842349
20
-2.54162977326556
30
0
41
1
10
139.67060969111
20
-2.52759617105463
30
0
41
1
10
139.66927938134
20
-2.52045773422199
30
0
41
1
10
139.665781650023
20
-2.49877996003386
30
0
41
1
10
139.664098289613
20
-2.48398272446022
30
0
41
1
10
139.661503501468
20
-2.45395943778561
30
0
41
1
10
139.660601675216
20
-2.43872858625832
30
0
41
1
10
139.65933928919
20
-2.40795293317328
30
0
41
1
10
139.658982298757
20
-2.39240427748706
30
0
41
1
10
139.65867132957
20
-2.36124010921205
30
0
41
1
10
139.658717285519
20
-2.34559818193472
30
0
41
1
10
139.659314561784
20
-2.29852655325547
30
0
41
1
10
139.660318159776
20
-2.26695266766927
30
0
41
1
10
139.663094187564
20
-2.20352191847888
30
0
41
1
10
139.664872253429
20
-2.17166374419389
30
0
41
1
10
139.671007417784
20
-2.07574623847467
30
0
41
1
10
139.67613709967
20
-2.0115224117888
30
0
41
1
10
139.687387077377
20
-1.88290702650397
30
0
41
1
10
139.693527454392
20
-1.81846235465403
30
0
41
1
10
139.706264580645
20
-1.689328425008
30
0
41
1
10
139.712866610745
20
-1.62463887982602
30
0
41
1
10
139.732800714368
20
-1.43022989823388
30
0
41
1
10
139.746241337621
20
-1.30021834971615
30
0
41
1
10
139.758734122633
20
-1.1700414604673
30
0
0
SPLINE
5
150
100
AcDbEntity
8
1
62
256
6
ByLayer
370
18
48
1
60
0
100
AcDbSpline
70
4
71
3
72
9
73
5
40
0
40
0
40
0
40
0
40
0.5
40
1
40
1
40
1
40
1
41
1
10
139.758734122635
20
-1.17004146046736
30
0
41
1
10
139.796162876963
20
-0.780027640311573
30
0
41
1
10
139.833764518343
20
0
30
0
41
1
10
139.796162876963
20
0.780027640311573
30
0
41
1
10
139.758734122635
20
1.17004146046736
30
0
0
SPLINE
5
151
100
AcDbEntity
8
1
62
256
6
ByLayer
370
18
48
1
60
0
100
AcDbSpline
70
4
71
3
72
46
73
42
40
0
40
0
40
0
40
0
40
0.25
40
0.25
40
0.375
40
0.375
40
0.5
40
0.5
40
0.625000000000001
40
0.625000000000001
40
0.687500000000001
40
0.687500000000001
40
0.750000000000001
40
0.750000000000001
40
0.812500000000001
40
0.812500000000001
40
0.843750000000002
40
0.843750000000002
40
0.875000000000002
40
0.875000000000002
40
0.906250000000002
40
0.906250000000002
40
0.921875000000003
40
0.921875000000003
40
0.929687500000003
40
0.929687500000003
40
0.937500000000002
40
0.937500000000002
40
0.945312500000002
40
0.945312500000002
40
0.953125000000002
40
0.953125000000002
40
0.960937500000002
40
0.960937500000002
40
0.968750000000001
40
0.968750000000001
40
0.976562500000001
40
0.976562500000001
40
0.984375000000001
40
0.984375000000001
40
1
40
1
40
1
40
1
41
1
10
139.758734122635
20
1.17004146046736
30
0
41
1
10
139.746252638637
20
1.3001005912769
30
0
41
1
10
139.732841398893
20
1.42983731479009
30
0
41
1
10
139.712936608444
20
1.62395413793672
30
0
41
1
10
139.706340395922
20
1.68857827783302
30
0
41
1
10
139.693604704947
20
1.81766088217131
30
0
41
1
10
139.687459857327
20
1.88211940773439
30
0
41
1
10
139.676190721603
20
2.01086543691946
30
0
41
1
10
139.671054175258
20
2.07514899411493
30
0
41
1
10
139.664923267918
20
2.17080051039784
30
0
41
1
10
139.663144113537
20
2.2025748961905
30
0
41
1
10
139.660358175538
20
2.26585074836493
30
0
41
1
10
139.659345857209
20
2.29735344850343
30
0
41
1
10
139.658518881927
20
2.35999124395551
30
0
41
1
10
139.65868322649
20
2.39113101453793
30
0
41
1
10
139.660531633574
20
2.43740814563267
30
0
41
1
10
139.661423668908
20
2.45281063877448
30
0
41
1
10
139.664006412637
20
2.48313033076243
30
0
41
1
10
139.665685339053
20
2.49803616780389
30
0
41
1
10
139.670319565866
20
2.5270444872811
30
0
41
1
10
139.673229647557
20
2.54117371119648
30
0
41
1
10
139.679558768283
20
2.56117072065001
30
0
41
1
10
139.681985745301
20
2.56755366556254
30
0
41
1
10
139.686340985508
20
2.57631356599128
30
0
41
1
10
139.687915137464
20
2.57910159214401
30
0
41
1
10
139.691396570673
20
2.58432047158973
30
0
41
1
10
139.693303364141
20
2.58674224239695
30
0
41
1
10
139.697438986925
20
2.59094423585131
30
0
41
1
10
139.699678192047
20
2.59274492613753
30
0
41
1
10
139.704622114223
20
2.59553392771355
30
0
41
1
10
139.707242150966
20
2.59646738145469
30
0
41
1
10
139.71278747445
20
2.59728219591142
30
0
41
1
10
139.715736418651
20
2.59714216555443
30
0
41
1
10
139.721576210122
20
2.59583190841897
30
0
41
1
10
139.724525793699
20
2.59466927328327
30
0
41
1
10
139.730397955167
20
2.59150000084179
30
0
41
1
10
139.733246229859
20
2.58954098065152
30
0
41
1
10
139.738811763587
20
2.58506605916301
30
0
41
1
10
139.741536790394
20
2.58253639096489
30
0
41
1
10
139.749342899142
20
2.5745249922129
30
0
41
1
10
139.754153549043
20
2.56856854826336
30
0
41
1
10
139.758734122635
20
2.56225475741957
30
0
0
SPLINE
5
152
100
AcDbEntity
8
1
62
256
6
ByLayer
370
18
48
1
60
0
100
AcDbSpline
70
4
71
3
72
10
73
6
40
0
40
0
40
0
40
0
40
0.5
40
0.5
40
1
40
1
40
1
40
1
41
1
10
139.758734122635
20
2.56225475741959
30
0
41
1
10
139.850693763253
20
2.43549903015639
30
0
41
1
10
139.939950567724
20
2.30642219244058
30
0
41
1
10
140.111298645171
20
2.04211498451952
30
0
41
1
10
140.193404126047
20
1.90689681561108
30
0
41
1
10
140.270632938683
20
1.76749071779793
30
0
0
SPLINE
5
153
100
AcDbEntity
8
1
62
256
6
ByLayer
370
18
48
1
60
0
100
AcDbSpline
70
4
71
3
72
9
73
5
40
0
40
0
40
0
40
0
40
0.5
40
1
40
1
40
1
40
1
41
1
10
140.270632938683
20
2.72413260277497
30
0
41
1
10
140.202257516881
20
3.00347106073895
30
0
41
1
10
140.047205104458
20
3.55450156812429
30
0
41
1
10
139.859686715319
20
4.09196776721652
30
0
41
1
10
139.758734122635
20
4.35769545988535
30
0
0
SPLINE
5
154
100
AcDbEntity
8
1
62
256
6
ByLayer
370
18
48
1
60
0
100
AcDbSpline
70
4
71
3
72
41
73
37
40
0
40
0
40
0
40
0
40
0.124999999999999
40
0.249999999999999
40
0.249999999999999
40
0.374999999999998
40
0.374999999999998
40
0.437499999999999
40
0.437499999999999
40
0.499999999999999
40
0.499999999999999
40
0.624999999999997
40
0.624999999999997
40
0.687499999999997
40
0.687499999999997
40
0.749999999999997
40
0.749999999999997
40
0.781249999999998
40
0.781249999999998
40
0.8125
40
0.8125
40
0.843750000000001
40
0.843750000000001
40
0.859375000000002
40
0.859375000000002
40
0.875000000000002
40
0.875000000000002
40
0.90625
40
0.90625
40
0.921875
40
0.921875
40
0.937500000000001
40
0.937500000000001
40
0.96875
40
0.96875
40
1
40
1
40
1
40
1
41
1
10
139.758734122635
20
4.35769545988529
30
0
41
1
10
139.748434121236
20
4.38480715195212
30
0
41
1
10
139.729089845512
20
4.43884930892534
30
0
41
1
10
139.712205858176
20
4.49251898238003
30
0
41
1
10
139.69666613583
20
4.54598550175211
30
0
41
1
10
139.68956490927
20
4.57261752498164
30
0
41
1
10
139.680152784132
20
4.61238677826955
30
0
41
1
10
139.677223773903
20
4.62561323269969
30
0
41
1
10
139.671856326545
20
4.65199841617263
30
0
41
1
10
139.669428250123
20
4.66511075823826
30
0
41
1
10
139.663103992376
20
4.70388522848006
30
0
41
1
10
139.660089079906
20
4.72911461078749
30
0
41
1
10
139.65857541205
20
4.76548074239525
30
0
41
1
10
139.658588299845
20
4.77742879097988
30
0
41
1
10
139.660099476889
20
4.80008485094697
30
0
41
1
10
139.661574791363
20
4.81082279611911
30
0
41
1
10
139.66548506049
20
4.82556705644873
30
0
41
1
10
139.667090826111
20
4.83027546157209
30
0
41
1
10
139.6709720237
20
4.8388455516945
30
0
41
1
10
139.673247992566
20
4.84273179867228
30
0
41
1
10
139.678664259144
20
4.84948506760381
30
0
41
1
10
139.681840359909
20
4.85235888203744
30
0
41
1
10
139.687216914804
20
4.85550758999398
30
0
41
1
10
139.689116225778
20
4.85637249886756
30
0
41
1
10
139.693147928025
20
4.85770192820948
30
0
41
1
10
139.695296015824
20
4.85816649877901
30
0
41
1
10
139.701954770976
20
4.85889147294583
30
0
41
1
10
139.706699560136
20
4.85850593581912
30
0
41
1
10
139.714263564233
20
4.85666538431988
30
0
41
1
10
139.716848955393
20
4.85584063958541
30
0
41
1
10
139.7220153779
20
4.85384664030551
30
0
41
1
10
139.724614249736
20
4.85267344319305
30
0
41
1
10
139.732453005482
20
4.84868185862939
30
0
41
1
10
139.737756136536
20
4.84537882893346
30
0
41
1
10
139.748363753936
20
4.83779359076877
30
0
41
1
10
139.753581931311
20
4.83357906834803
30
0
41
1
10
139.758734122635
20
4.82904097518761
30
0
0
SPLINE
5
155
100
AcDbEntity
8
1
62
256
6
ByLayer
370
18
48
1
60
0
100
AcDbSpline
70
4
71
3
72
8
73
4
40
0
40
0
40
0
40
0
40
1
40
1
40
1
40
1
41
1
10
139.758734122635
20
4.82904097518616
30
0
41
1
10
139.929824034648
20
4.67834355136907
30
0
41
1
10
140.100501585209
20
4.52702640256621
30
0
41
1
10
140.270632938683
20
4.37488839143353
30
0
0
SPLINE
5
156
100
AcDbEntity
8
1
62
256
6
ByLayer
370
18
48
1
60
0
100
AcDbSpline
70
4
71
3
72
8
73
4
40
0
40
0
40
0
40
0
40
1
40
1
40
1
40
1
41
1
10
140.270632938683
20
4.75975560690884
30
0
41
1
10
140.110804449685
20
5.10922659701967
30
0
41
1
10
139.9394136044
20
5.45101245169823
30
0
41
1
10
139.758734122635
20
5.78662444115713
30
0
0
SPLINE
5
157
100
AcDbEntity
8
1
62
256
6
ByLayer
370
18
48
1
60
0
100
AcDbSpline
70
4
71
3
72
41
73
37
40
0
40
0
40
0
40
0
40
0.124999999999998
40
0.124999999999998
40
0.187499999999996
40
0.187499999999996
40
0.249999999999995
40
0.249999999999995
40
0.374999999999999
40
0.374999999999999
40
0.437500000000002
40
0.437500000000002
40
0.500000000000005
40
0.500000000000005
40
0.562500000000007
40
0.562500000000007
40
0.59375000000001
40
0.59375000000001
40
0.625000000000014
40
0.625000000000014
40
0.687500000000013
40
0.687500000000013
40
0.718750000000012
40
0.718750000000012
40
0.750000000000012
40
0.750000000000012
40
0.781250000000011
40
0.781250000000011
40
0.81250000000001
40
0.843750000000009
40
0.843750000000009
40
0.875000000000008
40
0.875000000000008
40
0.937500000000004
40
0.937500000000004
40
1
40
1
40
1
40
1
41
1
10
139.758734122635
20
5.78662444115713
30
0
41
1
10
139.747674850629
20
5.80716702985382
30
0
41
1
10
139.737262807527
20
5.82766959659781
30
0
41
1
10
139.722639671294
20
5.85835365201632
30
0
41
1
10
139.717925206631
20
5.86858701174256
30
0
41
1
10
139.70891575491
20
5.88887763502464
30
0
41
1
10
139.704613762978
20
5.89894832519846
30
0
41
1
10
139.692351012423
20
5.92892283162863
30
0
41
1
10
139.685020440138
20
5.94859344391622
30
0
41
1
10
139.675609649488
20
5.97751681093854
30
0
41
1
10
139.67273940916
20
5.98706000373247
30
0
41
1
10
139.667639896327
20
6.00591326134995
30
0
41
1
10
139.665424710704
20
6.01518026457447
30
0
41
1
10
139.661855563595
20
6.0330780456764
30
0
41
1
10
139.660489937163
20
6.04174478660332
30
0
41
1
10
139.659233534882
20
6.05421721302014
30
0
41
1
10
139.658947584807
20
6.05828620450094
30
0
41
1
10
139.658684408378
20
6.06621980475737
30
0
41
1
10
139.658708639781
20
6.07009892090835
30
0
41
1
10
139.659320416425
20
6.08120105984577
30
0
41
1
10
139.660430267676
20
6.08793551869664
30
0
41
1
10
139.66350134398
20
6.09671644942316
30
0
41
1
10
139.664772664716
20
6.09943668797308
30
0
41
1
10
139.667832049229
20
6.10425412471332
30
0
41
1
10
139.669612635557
20
6.10634929374615
30
0
41
1
10
139.673733371331
20
6.10984420438029
30
0
41
1
10
139.676097083509
20
6.11125179182133
30
0
41
1
10
139.681346549744
20
6.11323185899192
30
0
41
1
10
139.68707545719
20
6.1143795527114
30
0
41
1
10
139.693764484497
20
6.11386955538904
30
0
41
1
10
139.700946141243
20
6.11251311805989
30
0
41
1
10
139.704735780106
20
6.11141447751441
30
0
41
1
10
139.716343821743
20
6.10707991244584
30
0
41
1
10
139.724520430703
20
6.10279563581665
30
0
41
1
10
139.741596647471
20
6.09194516725285
30
0
41
1
10
139.750158552797
20
6.08559797815863
30
0
41
1
10
139.758734122635
20
6.07857911342288
30
0
0
SPLINE
5
158
100
AcDbEntity
8
1
62
256
6
ByLayer
370
18
48
1
60
0
100
AcDbSpline
70
4
71
3
72
8
73
4
40
0
40
0
40
0
40
0
40
1
40
1
40
1
40
1
41
1
10
139.758734122635
20
6.07857911342239
30
0
41
1
10
139.929377245483
20
5.93891247668259
30
0
41
1
10
140.100010938227
20
5.79923047588971
30
0
41
1
10
140.270632938683
20
5.65952943604856
30
0
0
SPLINE
5
159
100
AcDbEntity
8
1
62
256
6
ByLayer
370
18
48
1
60
0
100
AcDbSpline
70
4
71
3
72
8
73
4
40
0
40
0
40
0
40
0
40
1
40
1
40
1
40
1
41
1
10
140.270632938683
20
5.89615539461946
30
0
41
1
10
140.105295763355
20
6.16775707141292
30
0
41
1
10
139.934318188209
20
6.43455420920733
30
0
41
1
10
139.758734122635
20
6.69742750053251
30
0
0
SPLINE
5
15A
100
AcDbEntity
8
1
62
256
6
ByLayer
370
18
48
1
60
0
100
AcDbSpline
70
4
71
3
72
32
73
28
40
0
40
0
40
0
40
0
40
0.124999999999998
40
0.124999999999998
40
0.249999999999996
40
0.249999999999996
40
0.374999999999994
40
0.374999999999994
40
0.499999999999992
40
0.499999999999992
40
0.562499999999991
40
0.562499999999991
40
0.62499999999999
40
0.62499999999999
40
0.65624999999999
40
0.65624999999999
40
0.68749999999999
40
0.68749999999999
40
0.749999999999992
40
0.749999999999992
40
0.812499999999994
40
0.812499999999994
40
0.874999999999996
40
0.874999999999996
40
0.937499999999998
40
0.937499999999998
40
1
40
1
40
1
40
1
41
1
10
139.758734122635
20
6.69742750053251
30
0
41
1
10
139.747179614964
20
6.71472617425428
30
0
41
1
10
139.736256791054
20
6.7319251502247
30
0
41
1
10
139.715765074148
20
6.76609507554545
30
0
41
1
10
139.706346153853
20
6.78281415040328
30
0
41
1
10
139.68938236145
20
6.81539954499775
30
0
41
1
10
139.681824384489
20
6.83127334651451
30
0
41
1
10
139.669194557276
20
6.86189114209733
30
0
41
1
10
139.664297255865
20
6.87619323217234
30
0
41
1
10
139.659976223628
20
6.89546301659115
30
0
41
1
10
139.659050620737
20
6.90156019000739
30
0
41
1
10
139.658554459393
20
6.91243533934508
30
0
41
1
10
139.658965585278
20
6.9172535291074
30
0
41
1
10
139.660813251802
20
6.92333245940316
30
0
41
1
10
139.661642980644
20
6.92517151261737
30
0
41
1
10
139.663722626632
20
6.92833503191889
30
0
41
1
10
139.664973480141
20
6.92967097130486
30
0
41
1
10
139.669396263148
20
6.93290117588055
30
0
41
1
10
139.673316817953
20
6.93400190553194
30
0
41
1
10
139.682641956288
20
6.93386065795238
30
0
41
1
10
139.688052960028
20
6.93267108006492
30
0
41
1
10
139.700335368642
20
6.92812707961943
30
0
41
1
10
139.706992304719
20
6.92484812778116
30
0
41
1
10
139.720982507807
20
6.91672480533887
30
0
41
1
10
139.728413815604
20
6.91181250246851
30
0
41
1
10
139.743416827047
20
6.90097319363244
30
0
41
1
10
139.751029577206
20
6.89502973060371
30
0
41
1
10
139.758734122635
20
6.88865816659859
30
0
0
SPLINE
5
15B
100
AcDbEntity
8
1
62
256
6
ByLayer
370
18
48
1
60
0
100
AcDbSpline
70
4
71
3
72
8
73
4
40
0
40
0
40
0
40
0
40
1
40
1
40
1
40
1
41
1
10
139.758734122635
20
6.88865816659839
30
0
41
1
10
139.929414836465
20
6.74750732224103
30
0
41
1
10
140.100050876679
20
6.60628451103247
30
0
41
1
10
140.270632938683
20
6.46497474376352
30
0
0
SPLINE
5
15C
100
AcDbEntity
8
1
62
256
6
ByLayer
370
18
48
1
60
0
100
AcDbSpline
70
4
71
3
72
8
73
4
40
0
40
0
40
0
40
0
40
1
40
1
40
1
40
1
41
1
10
140.270632938683
20
6.61430445606339
30
0
41
1
10
140.102954771283
20
6.84154959522232
30
0
41
1
10
139.932140671881
20
7.06561317239596
30
0
41
1
10
139.758734122635
20
7.28704657778317
30
0
0
SPLINE
5
15D
100
AcDbEntity
8
1
62
256
6
ByLayer
370
18
48
1
60
0
100
AcDbSpline
70
4
71
3
72
40
73
36
40
0
40
0
40
0
40
0
40
0.125000000000004
40
0.125000000000004
40
0.187500000000004
40
0.187500000000004
40
0.250000000000004
40
0.312500000000003
40
0.312500000000003
40
0.375000000000003
40
0.375000000000003
40
0.437500000000003
40
0.437500000000003
40
0.500000000000003
40
0.500000000000003
40
0.562500000000002
40
0.562500000000002
40
0.593750000000002
40
0.593750000000002
40
0.625000000000002
40
0.656250000000002
40
0.656250000000002
40
0.687500000000002
40
0.687500000000002
40
0.750000000000004
40
0.750000000000004
40
0.781250000000004
40
0.781250000000004
40
0.812500000000003
40
0.812500000000003
40
0.875000000000002
40
0.875000000000002
40
0.937500000000001
40
0.937500000000001
40
1
40
1
40
1
40
1
41
1
10
139.758734122635
20
7.28704657778317
30
0
41
1
10
139.74675312243
20
7.30234584812175
30
0
41
1
10
139.735392467171
20
7.31742495737703
30
0
41
1
10
139.719386192413
20
7.33966231242741
30
0
41
1
10
139.714222238474
20
7.34701603443517
30
0
41
1
10
139.704422173383
20
7.36136826868221
30
0
41
1
10
139.695111253978
20
7.37541764290603
30
0
41
1
10
139.686872141235
20
7.38879901882575
30
0
41
1
10
139.679249036641
20
7.40179473835312
30
0
41
1
10
139.675725359946
20
7.40813997332282
30
0
41
1
10
139.669555062972
20
7.42011030376986
30
0
41
1
10
139.666900973687
20
7.42574165292436
30
0
41
1
10
139.662593642478
20
7.43618313600388
30
0
41
1
10
139.660932798556
20
7.44101806617124
30
0
41
1
10
139.658882525499
20
7.4495645741348
30
0
41
1
10
139.658504187584
20
7.45321254122382
30
0
41
1
10
139.659052476026
20
7.4576097124021
30
0
41
1
10
139.659426076957
20
7.45890109711502
30
0
41
1
10
139.660565796606
20
7.46105387976306
30
0
41
1
10
139.662090915918
20
7.4627789624204
30
0
41
1
10
139.664398277083
20
7.46363819880986
30
0
41
1
10
139.667109687034
20
7.46405147495122
30
0
41
1
10
139.668679833132
20
7.46403272093454
30
0
41
1
10
139.673926393054
20
7.46329282407567
30
0
41
1
10
139.678109711624
20
7.46190978715163
30
0
41
1
10
139.685332363736
20
7.45861415241427
30
0
41
1
10
139.687914590186
20
7.45730186467952
30
0
41
1
10
139.693304675835
20
7.45432478809835
30
0
41
1
10
139.696106777317
20
7.45266494345574
30
0
41
1
10
139.704804951427
20
7.44722051496214
30
0
41
1
10
139.71099106345
20
7.44297404878745
30
0
41
1
10
139.724042594496
20
7.43340843749937
30
0
41
1
10
139.730812990199
20
7.42815665805171
30
0
41
1
10
139.744570389388
20
7.41702976319968
30
0
41
1
10
139.751590455079
20
7.41112950682847
30
0
41
1
10
139.758734122635
20
7.40493744972579
30
0
0
SPLINE
5
15E
100
AcDbEntity
8
1
62
256
6
ByLayer
370
18
48
1
60
0
100
AcDbSpline
70
4
71
3
72
8
73
4
40
0
40
0
40
0
40
0
40
1
40
1
40
1
40
1
41
1
10
139.758734122635
20
7.40493744972571
30
0
41
1
10
139.929588432502
20
7.25684270221115
30
0
41
1
10
140.100234906286
20
7.10842939635936
30
0
41
1
10
140.270632938683
20
6.95963529486281
30
0
0
SPLINE
5
15F
100
AcDbEntity
8
1
62
256
6
ByLayer
370
18
48
1
60
0
100
AcDbSpline
70
4
71
3
72
8
73
4
40
0
40
0
40
0
40
0
40
1
40
1
40
1
40
1
41
1
10
140.270632938683
20
7.04332296842193
30
0
41
1
10
140.101722788667
20
7.24098700354415
30
0
41
1
10
139.930988807873
20
7.43653032502723
30
0
41
1
10
139.758734122635
20
7.6303054020579
30
0
0
SPLINE
5
160
100
AcDbEntity
8
1
62
256
6
ByLayer
370
18
48
1
60
0
100
AcDbSpline
70
4
71
3
72
39
73
35
40
0
40
0
40
0
40
0
40
0.0625
40
0.0625
40
0.125
40
0.125
40
0.249999999999997
40
0.249999999999997
40
0.312499999999995
40
0.312499999999995
40
0.374999999999994
40
0.406249999999993
40
0.406249999999993
40
0.437499999999993
40
0.437499999999993
40
0.499999999999993
40
0.499999999999993
40
0.531249999999993
40
0.531249999999993
40
0.562499999999993
40
0.562499999999993
40
0.624999999999993
40
0.624999999999993
40
0.687499999999992
40
0.687499999999992
40
0.718749999999992
40
0.718749999999992
40
0.749999999999992
40
0.749999999999992
40
0.812499999999994
40
0.812499999999994
40
0.874999999999996
40
0.874999999999996
40
1
40
1
40
1
40
1
41
1
10
139.758734122635
20
7.6303054020579
30
0
41
1
10
139.752513357637
20
7.63730334939882
30
0
41
1
10
139.746436300719
20
7.64421815785903
30
0
41
1
10
139.734587927629
20
7.65786810846134
30
0
41
1
10
139.728797225213
20
7.66462646476549
30
0
41
1
10
139.712140516817
20
7.68435103869504
30
0
41
1
10
139.70193690199
20
7.69681905990856
30
0
41
1
10
139.688312812808
20
7.71422726316223
30
0
41
1
10
139.684028506674
20
7.71984872835316
30
0
41
1
10
139.676322563679
20
7.73031914451047
30
0
41
1
10
139.671174567012
20
7.73760819420923
30
0
41
1
10
139.667109117509
20
7.74392787694347
30
0
41
1
10
139.664664509458
20
7.74790289791559
30
0
41
1
10
139.663570906388
20
7.74977920904803
30
0
41
1
10
139.66077711816
20
7.75492823692869
30
0
41
1
10
139.659546879653
20
7.75774244189245
30
0
41
1
10
139.658758219649
20
7.76093065299369
30
0
41
1
10
139.658673430828
20
7.76182401136705
30
0
41
1
10
139.658882362043
20
7.76321482529787
30
0
41
1
10
139.659173249875
20
7.7637137877397
30
0
41
1
10
139.660601085523
20
7.76462636462671
30
0
41
1
10
139.662289952201
20
7.76445900967923
30
0
41
1
10
139.667195615219
20
7.76252158372907
30
0
41
1
10
139.6703271219
20
7.76078459291259
30
0
41
1
10
139.675910920092
20
7.75716900660788
30
0
41
1
10
139.677921799364
20
7.75579404641209
30
0
41
1
10
139.682232943247
20
7.7527167055818
30
0
41
1
10
139.68453608518
20
7.75101148531979
30
0
41
1
10
139.691719274072
20
7.74553493947514
30
0
41
1
10
139.696913731029
20
7.74137581723659
30
0
41
1
10
139.707998233035
20
7.7321932401494
30
0
41
1
10
139.713935181231
20
7.72712790221817
30
0
41
1
10
139.732289748037
20
7.71111570628921
30
0
41
1
10
139.745235348161
20
7.69938382926236
30
0
41
1
10
139.758734122635
20
7.68684499209257
30
0
0
SPLINE
5
161
100
AcDbEntity
8
1
62
256
6
ByLayer
370
18
48
1
60
0
100
AcDbSpline
70
4
71
3
72
8
73
4
40
0
40
0
40
0
40
0
40
1
40
1
40
1
40
1
41
1
10
139.758734122635
20
7.68684499209255
30
0
41
1
10
139.929871946909
20
7.5278772786605
30
0
41
1
10
140.100535170239
20
7.36823338813261
30
0
41
1
10
140.270632938683
20
7.20778387838453
30
0
0
SPLINE
5
162
100
AcDbEntity
8
1
62
256
6
ByLayer
370
18
48
1
60
0
100
AcDbSpline
70
4
71
3
72
8
73
4
40
0
40
0
40
0
40
0
40
1
40
1
40
1
40
1
41
1
10
140.270632938683
20
7.23483057420836
30
0
41
1
10
140.100995372984
20
7.41116944643827
30
0
41
1
10
139.930305654923
20
7.58614081034449
30
0
41
1
10
139.758734122635
20
7.75996605859626
30
0
0
SPLINE
5
163
100
AcDbEntity
8
1
62
256
6
ByLayer
370
18
48
1
60
0
100
AcDbSpline
70
4
71
3
72
32
73
28
40
0
40
0
40
0
40
0
40
0.0962744770190314
40
0.0962744770190314
40
0.192548954038063
40
0.192548954038063
40
0.385097908076132
40
0.385097908076132
40
0.481372385095167
40
0.481372385095167
40
0.529509623604688
40
0.529509623604688
40
0.577646862114209
40
0.577646862114209
40
0.67392133913325
40
0.67392133913325
40
0.722058577642772
40
0.722058577642772
40
0.770195816152293
40
0.770195816152293
40
0.866470293171337
40
0.866470293171337
40
0.914607531680859
40
0.914607531680859
40
0.962744770190382
40
0.962744770190382
40
1
40
1
40
1
40
1
41
1
10
139.758734122635
20
7.75996605859626
30
0
41
1
10
139.752256777277
20
7.76652848856241
30
0
41
1
10
139.745913007874
20
7.77296348837126
30
0
41
1
10
139.7335168741
20
7.78555192312805
30
0
41
1
10
139.727454712699
20
7.79171539176036
30
0
41
1
10
139.710064293588
20
7.80941455430008
30
0
41
1
10
139.699408550945
20
7.82028457953049
30
0
41
1
10
139.685294988297
20
7.83470361698474
30
0
41
1
10
139.680980945375
20
7.83911510478998
30
0
41
1
10
139.675243769038
20
7.84498543322621
30
0
41
1
10
139.673450198024
20
7.84682129655565
30
0
41
1
10
139.670120465981
20
7.85023047799177
30
0
41
1
10
139.668579457136
20
7.85180876431809
30
0
41
1
10
139.664448392903
20
7.85604069186675
30
0
41
1
10
139.662324334386
20
7.85821792522259
30
0
41
1
10
139.660165907204
20
7.86043070053407
30
0
41
1
10
139.659616735913
20
7.86099378901878
30
0
41
1
10
139.658896834793
20
7.8617319584115
30
0
41
1
10
139.658724379061
20
7.86190880748921
30
0
41
1
10
139.658754881332
20
7.86187752926796
30
0
41
1
10
139.659502799516
20
7.86111048927381
30
0
41
1
10
139.661713007924
20
7.85884465316624
30
0
41
1
10
139.662633848339
20
7.85790073269297
30
0
41
1
10
139.664782926538
20
7.85569827470576
30
0
41
1
10
139.666015227483
20
7.85443557182504
30
0
41
1
10
139.668462810117
20
7.85192828649934
30
0
41
1
10
139.669620563934
20
7.85074249544397
30
0
41
1
10
139.670863145797
20
7.84947012508965
30
0
0
LINE
5
B8
100
AcDbEntity
8
SK4
62
256
6
ByLayer
370
18
48
0.05
60
0
100
AcDbLine
10
-69
20
0
30
0
11
145
21
0
31
0
39
0
210
0
220
0
230
1
0
LINE
5
BA
100
AcDbEntity
8
81
62
256
6
ByLayer
370
18
48
1
60
0
100
AcDbLine
10
140
20
0
30
0
11
145
21
0
31
0
39
0
210
0
220
0
230
1
0
LINE
5
BB
100
AcDbEntity
8
80
62
256
6
ByLayer
370
18
48
1
60
0
100
AcDbLine
10
0
20
0
30
0
11
-5
21
0
31
0
39
0
210
0
220
0
230
1
0
LINE
5
BC
100
AcDbEntity
8
4
62
256
6
ByLayer
370
18
48
0.05
60
0
100
AcDbLine
10
0
20
0
30
0
11
140
21
0
31
0
39
0
210
0
220
0
230
1
0
LINE
5
BE
100
AcDbEntity
8
1
62
256
6
ByLayer
370
18
48
1
60
0
100
AcDbLine
10
143.8
20
4.858757
30
0
11
143.8
21
1.858757
31
0
39
0
210
0
220
0
230
1
0
LINE
5
BF
100
AcDbEntity
8
1
62
256
6
ByLayer
370
13
48
1
60
0
100
AcDbLine
10
140.270534
20
2.139257
30
0
11
143.8
21
2.139257
31
0
39
0
210
0
220
0
230
1
0
LINE
5
C0
100
AcDbEntity
8
1
62
256
6
ByLayer
370
13
48
1
60
0
100
AcDbLine
10
140.270534
20
4.578257
30
0
11
143.8
21
4.578257
31
0
39
0
210
0
220
0
230
1
0
LINE
5
C1
100
AcDbEntity
8
1
62
256
6
ByLayer
370
18
48
1
60
0
100
AcDbLine
10
143.8
20
-1.858757
30
0
11
143.8
21
-4.858757
31
0
39
0
210
0
220
0
230
1
0
LINE
5
C2
100
AcDbEntity
8
1
62
256
6
ByLayer
370
13
48
1
60
0
100
AcDbLine
10
140.270534
20
-4.578257
30
0
11
143.8
21
-4.578257
31
0
39
0
210
0
220
0
230
1
0
LINE
5
C3
100
AcDbEntity
8
1
62
256
6
ByLayer
370
13
48
1
60
0
100
AcDbLine
10
140.270534
20
-2.139257
30
0
11
143.8
21
-2.139257
31
0
39
0
210
0
220
0
230
1
0
LINE
5
C4
100
AcDbEntity
8
1
62
256
6
ByLayer
370
18
48
1
60
0
100
AcDbLine
10
68.479209
20
-8.002185
30
0
11
68.479209
21
8.002185
31
0
39
0
210
0
220
0
230
1
0
LINE
5
C5
100
AcDbEntity
8
1
62
256
6
ByLayer
370
18
48
1
60
0
100
AcDbLine
10
68.520791
20
-8.197815
30
0
11
68.520791
21
8.197815
31
0
39
0
210
0
220
0
230
1
0
LINE
5
C6
100
AcDbEntity
8
1
62
256
6
ByLayer
370
18
48
1
60
0
100
AcDbLine
10
138
20
8.1
30
0
11
138
21
-8.1
31
0
39
0
210
0
220
0
230
1
0
LINE
5
C7
100
AcDbEntity
8
1
62
256
6
ByLayer
370
18
48
1
60
0
100
AcDbLine
10
69.041378
20
8.1
30
0
11
69.041378
21
-8.1
31
0
39
0
210
0
220
0
230
1
0
LINE
5
C8
100
AcDbEntity
8
1
62
256
6
ByLayer
370
13
48
1
60
0
100
AcDbLine
10
143.8
20
4.858757
30
0
11
143.8
21
1.858757
31
0
39
0
210
0
220
0
230
1
0
LINE
5
C9
100
AcDbEntity
8
1
62
256
6
ByLayer
370
18
48
1
60
0
100
AcDbLine
10
144
20
5.958757
30
0
11
144
21
0.758757
31
0
39
0
210
0
220
0
230
1
0
LINE
5
CA
100
AcDbEntity
8
1
62
256
6
ByLayer
370
13
48
1
60
0
100
AcDbLine
10
146.7
20
5.958757
30
0
11
146.7
21
0.758757
31
0
39
0
210
0
220
0
230
1
0
LINE
5
CB
100
AcDbEntity
8
1
62
256
6
ByLayer
370
18
48
1
60
0
100
AcDbLine
10
147
20
5.658757
30
0
11
147
21
1.058757
31
0
39
0
210
0
220
0
230
1
0
LINE
5
CC
100
AcDbEntity
8
1
62
256
6
ByLayer
370
18
48
1
60
0
100
AcDbLine
10
140.270633
20
7.043253
30
0
11
140.270633
21
7.207784
31
0
39
0
210
0
220
0
230
1
0
LINE
5
CD
100
AcDbEntity
8
1
62
256
6
ByLayer
370
18
48
1
60
0
100
AcDbLine
10
140.270633
20
-7.207784
30
0
11
140.270633
21
-7.043253
31
0
39
0
210
0
220
0
230
1
0
LINE
5
CE
100
AcDbEntity
8
1
62
256
6
ByLayer
370
13
48
1
60
0
100
AcDbLine
10
139.758734
20
-7.686845
30
0
11
139.758734
21
-7.630216
31
0
39
0
210
0
220
0
230
1
0
LINE
5
CF
100
AcDbEntity
8
1
62
256
6
ByLayer
370
13
48
1
60
0
100
AcDbLine
10
139.758734
20
7.630216
30
0
11
139.758734
21
7.686845
31
0
39
0
210
0
220
0
230
1
0
LINE
5
D0
100
AcDbEntity
8
1
62
256
6
ByLayer
370
18
48
1
60
0
100
AcDbLine
10
140.270633
20
-6.959635
30
0
11
140.270633
21
-6.614295
31
0
39
0
210
0
220
0
230
1
0
LINE
5
D1
100
AcDbEntity
8
1
62
256
6
ByLayer
370
18
48
1
60
0
100
AcDbLine
10
140.270633
20
6.614295
30
0
11
140.270633
21
6.959635
31
0
39
0
210
0
220
0
230
1
0
LINE
5
D2
100
AcDbEntity
8
1
62
256
6
ByLayer
370
13
48
1
60
0
100
AcDbLine
10
139.758734
20
-7.404937
30
0
11
139.758734
21
-7.287039
31
0
39
0
210
0
220
0
230
1
0
LINE
5
D3
100
AcDbEntity
8
1
62
256
6
ByLayer
370
13
48
1
60
0
100
AcDbLine
10
139.758734
20
7.287039
30
0
11
139.758734
21
7.404937
31
0
39
0
210
0
220
0
230
1
0
LINE
5
D4
100
AcDbEntity
8
1
62
256
6
ByLayer
370
18
48
1
60
0
100
AcDbLine
10
140.270633
20
5.896142
30
0
11
140.270633
21
6.464975
31
0
39
0
210
0
220
0
230
1
0
LINE
5
D5
100
AcDbEntity
8
1
62
256
6
ByLayer
370
18
48
1
60
0
100
AcDbLine
10
140.270633
20
-6.464975
30
0
11
140.270633
21
-5.896142
31
0
39
0
210
0
220
0
230
1
0
LINE
5
D6
100
AcDbEntity
8
1
62
256
6
ByLayer
370
13
48
1
60
0
100
AcDbLine
10
139.758734
20
-6.888658
30
0
11
139.758734
21
-6.697399
31
0
39
0
210
0
220
0
230
1
0
LINE
5
D7
100
AcDbEntity
8
1
62
256
6
ByLayer
370
13
48
1
60
0
100
AcDbLine
10
139.758734
20
6.697399
30
0
11
139.758734
21
6.888658
31
0
39
0
210
0
220
0
230
1
0
LINE
5
D8
100
AcDbEntity
8
1
62
256
6
ByLayer
370
18
48
1
60
0
100
AcDbLine
10
140.270633
20
-5.659529
30
0
11
140.270633
21
-4.759766
31
0
39
0
210
0
220
0
230
1
0
LINE
5
D9
100
AcDbEntity
8
1
62
256
6
ByLayer
370
18
48
1
60
0
100
AcDbLine
10
140.270633
20
4.759766
30
0
11
140.270633
21
5.659529
31
0
39
0
210
0
220
0
230
1
0
LINE
5
DA
100
AcDbEntity
8
1
62
256
6
ByLayer
370
13
48
1
60
0
100
AcDbLine
10
139.758734
20
5.786599
30
0
11
139.758734
21
6.078579
31
0
39
0
210
0
220
0
230
1
0
LINE
5
DB
100
AcDbEntity
8
1
62
256
6
ByLayer
370
13
48
1
60
0
100
AcDbLine
10
139.758734
20
-6.078579
30
0
11
139.758734
21
-5.786599
31
0
39
0
210
0
220
0
230
1
0
LINE
5
DC
100
AcDbEntity
8
1
62
256
6
ByLayer
370
18
48
1
60
0
100
AcDbLine
10
140.270633
20
-4.374888
30
0
11
140.270633
21
-2.724052
31
0
39
0
210
0
220
0
230
1
0
LINE
5
DD
100
AcDbEntity
8
1
62
256
6
ByLayer
370
18
48
1
60
0
100
AcDbLine
10
140.270633
20
2.724052
30
0
11
140.270633
21
4.374888
31
0
39
0
210
0
220
0
230
1
0
LINE
5
DE
100
AcDbEntity
8
1
62
256
6
ByLayer
370
13
48
1
60
0
100
AcDbLine
10
139.758734
20
-4.829041
30
0
11
139.758734
21
-4.357606
31
0
39
0
210
0
220
0
230
1
0
LINE
5
DF
100
AcDbEntity
8
1
62
256
6
ByLayer
370
13
48
1
60
0
100
AcDbLine
10
139.758734
20
4.357606
30
0
11
139.758734
21
4.829041
31
0
39
0
210
0
220
0
230
1
0
LINE
5
E0
100
AcDbEntity
8
1
62
256
6
ByLayer
370
18
48
1
60
0
100
AcDbLine
10
140.270633
20
-1.767491
30
0
11
140.270633
21
1.767491
31
0
39
0
210
0
220
0
230
1
0
LINE
5
E1
100
AcDbEntity
8
1
62
256
6
ByLayer
370
13
48
1
60
0
100
AcDbLine
10
139.758734
20
-2.562255
30
0
11
139.758734
21
-1.16999
31
0
39
0
210
0
220
0
230
1
0
LINE
5
E2
100
AcDbEntity
8
1
62
256
6
ByLayer
370
13
48
1
60
0
100
AcDbLine
10
139.758734
20
1.16999
30
0
11
139.758734
21
2.562255
31
0
39
0
210
0
220
0
230
1
0
LINE
5
E3
100
AcDbEntity
8
1
62
256
6
ByLayer
370
18
48
1
60
0
100
AcDbLine
10
140.270633
20
-7.207784
30
0
11
140.270633
21
-7.234831
31
0
39
0
210
0
220
0
230
1
0
LINE
5
E4
100
AcDbEntity
8
1
62
256
6
ByLayer
370
18
48
1
60
0
100
AcDbLine
10
140.270633
20
-6.959635
30
0
11
140.270633
21
-7.043323
31
0
39
0
210
0
220
0
230
1
0
LINE
5
E5
100
AcDbEntity
8
1
62
256
6
ByLayer
370
18
48
1
60
0
100
AcDbLine
10
140.270633
20
-6.464975
30
0
11
140.270633
21
-6.614304
31
0
39
0
210
0
220
0
230
1
0
LINE
5
E6
100
AcDbEntity
8
1
62
256
6
ByLayer
370
18
48
1
60
0
100
AcDbLine
10
140.270633
20
-5.659529
30
0
11
140.270633
21
-5.896155
31
0
39
0
210
0
220
0
230
1
0
LINE
5
E7
100
AcDbEntity
8
1
62
256
6
ByLayer
370
18
48
1
60
0
100
AcDbLine
10
140.270633
20
-4.374888
30
0
11
140.270633
21
-4.759756
31
0
39
0
210
0
220
0
230
1
0
LINE
5
E8
100
AcDbEntity
8
1
62
256
6
ByLayer
370
18
48
1
60
0
100
AcDbLine
10
140.270633
20
-1.767491
30
0
11
140.270633
21
-2.724133
31
0
39
0
210
0
220
0
230
1
0
LINE
5
E9
100
AcDbEntity
8
1
62
256
6
ByLayer
370
18
48
1
60
0
100
AcDbLine
10
140.270633
20
2.724133
30
0
11
140.270633
21
1.767491
31
0
39
0
210
0
220
0
230
1
0
LINE
5
EA
100
AcDbEntity
8
1
62
256
6
ByLayer
370
18
48
1
60
0
100
AcDbLine
10
140.270633
20
4.759756
30
0
11
140.270633
21
4.374888
31
0
39
0
210
0
220
0
230
1
0
LINE
5
EB
100
AcDbEntity
8
1
62
256
6
ByLayer
370
18
48
1
60
0
100
AcDbLine
10
140.270633
20
5.896155
30
0
11
140.270633
21
5.659529
31
0
39
0
210
0
220
0
230
1
0
LINE
5
EC
100
AcDbEntity
8
1
62
256
6
ByLayer
370
18
48
1
60
0
100
AcDbLine
10
140.270633
20
6.614304
30
0
11
140.270633
21
6.464975
31
0
39
0
210
0
220
0
230
1
0
LINE
5
ED
100
AcDbEntity
8
1
62
256
6
ByLayer
370
18
48
1
60
0
100
AcDbLine
10
140.270633
20
7.043323
30
0
11
140.270633
21
6.959635
31
0
39
0
210
0
220
0
230
1
0
LINE
5
EE
100
AcDbEntity
8
1
62
256
6
ByLayer
370
18
48
1
60
0
100
AcDbLine
10
140.270633
20
7.234831
30
0
11
140.270633
21
7.207784
31
0
39
0
210
0
220
0
230
1
0
LINE
5
EF
100
AcDbEntity
8
1
62
256
6
ByLayer
370
18
48
1
60
0
100
AcDbLine
10
139.520633
20
-8
30
0
11
139.520633
21
8
31
0
39
0
210
0
220
0
230
1
0
LINE
5
F0
100
AcDbEntity
8
1
62
256
6
ByLayer
370
13
48
1
60
0
100
AcDbLine
10
138.2
20
8
30
0
11
138.2
21
-8
31
0
39
0
210
0
220
0
230
1
0
LINE
5
F1
100
AcDbEntity
8
1
62
256
6
ByLayer
370
13
48
1
60
0
100
AcDbLine
10
137.8
20
8.1
30
0
11
137.8
21
0
31
0
39
0
210
0
220
0
230
1
0
LINE
5
F2
100
AcDbEntity
8
1
62
256
6
ByLayer
370
13
48
1
60
0
100
AcDbLine
10
137.8
20
0
30
0
11
137.8
21
-8.1
31
0
39
0
210
0
220
0
230
1
0
LINE
5
F3
100
AcDbEntity
8
1
62
256
6
ByLayer
370
18
48
1
60
0
100
AcDbLine
10
69.041378
20
8.1
30
0
11
69.041378
21
-8.1
31
0
39
0
210
0
220
0
230
1
0
LINE
5
F4
100
AcDbEntity
8
1
62
256
6
ByLayer
370
18
48
1
60
0
100
AcDbLine
10
-64
20
7.5
30
0
11
-64
21
-7.5
31
0
39
0
210
0
220
0
230
1
0
LINE
5
F5
100
AcDbEntity
8
1
62
256
6
ByLayer
370
18
48
1
60
0
100
AcDbLine
10
-63.5
20
8
30
0
11
-63.5
21
-8
31
0
39
0
210
0
220
0
230
1
0
LINE
5
F6
100
AcDbEntity
8
1
62
256
6
ByLayer
370
18
48
1
60
0
100
AcDbLine
10
62
20
-0.208224
30
0
11
62
21
0.208224
31
0
39
0
210
0
220
0
230
1
0
LINE
5
F7
100
AcDbEntity
8
1
62
256
6
ByLayer
370
18
48
1
60
0
100
AcDbLine
10
-18
20
-0.208224
30
0
11
62
21
-0.208224
31
0
39
0
210
0
220
0
230
1
0
LINE
5
F8
100
AcDbEntity
8
1
62
256
6
ByLayer
370
18
48
1
60
0
100
AcDbLine
10
-18
20
0.208224
30
0
11
-18
21
-0.208224
31
0
39
0
210
0
220
0
230
1
0
LINE
5
F9
100
AcDbEntity
8
1
62
256
6
ByLayer
370
18
48
1
60
0
100
AcDbLine
10
62
20
0.208224
30
0
11
-18
21
0.208224
31
0
39
0
210
0
220
0
230
1
0
LINE
5
FA
100
AcDbEntity
8
1
62
256
6
ByLayer
370
18
48
1
60
0
100
AcDbLine
10
-64
20
7.5
30
0
11
-64
21
-7.5
31
0
39
0
210
0
220
0
230
1
0
LINE
5
FB
100
AcDbEntity
8
1
62
256
6
ByLayer
370
18
48
1
60
0
100
AcDbLine
10
-63.5
20
8
30
0
11
-63.5
21
-8
31
0
39
0
210
0
220
0
230
1
0
LINE
5
FC
100
AcDbEntity
8
1
62
256
6
ByLayer
370
13
48
1
60
0
100
AcDbLine
10
143.8
20
-1.858757
30
0
11
143.8
21
-3.358757
31
0
39
0
210
0
220
0
230
1
0
LINE
5
FD
100
AcDbEntity
8
1
62
256
6
ByLayer
370
13
48
1
60
0
100
AcDbLine
10
143.8
20
-3.358757
30
0
11
143.8
21
-4.858757
31
0
39
0
210
0
220
0
230
1
0
LINE
5
FE
100
AcDbEntity
8
1
62
256
6
ByLayer
370
18
48
1
60
0
100
AcDbLine
10
144
20
-5.958757
30
0
11
144
21
-3.358757
31
0
39
0
210
0
220
0
230
1
0
LINE
5
FF
100
AcDbEntity
8
1
62
256
6
ByLayer
370
18
48
1
60
0
100
AcDbLine
10
144
20
-3.358757
30
0
11
144
21
-0.758757
31
0
39
0
210
0
220
0
230
1
0
LINE
5
100
100
AcDbEntity
8
1
62
256
6
ByLayer
370
13
48
1
60
0
100
AcDbLine
10
146.7
20
-0.758757
30
0
11
146.7
21
-3.358757
31
0
39
0
210
0
220
0
230
1
0
LINE
5
101
100
AcDbEntity
8
1
62
256
6
ByLayer
370
13
48
1
60
0
100
AcDbLine
10
146.7
20
-3.358757
30
0
11
146.7
21
-5.958757
31
0
39
0
210
0
220
0
230
1
0
LINE
5
102
100
AcDbEntity
8
1
62
256
6
ByLayer
370
18
48
1
60
0
100
AcDbLine
10
147
20
-5.658757
30
0
11
147
21
-3.358757
31
0
39
0
210
0
220
0
230
1
0
LINE
5
103
100
AcDbEntity
8
1
62
256
6
ByLayer
370
18
48
1
60
0
100
AcDbLine
10
147
20
-3.358757
30
0
11
147
21
-1.058757
31
0
39
0
210
0
220
0
230
1
0
LINE
5
104
100
AcDbEntity
8
1
62
256
6
ByLayer
370
18
48
1
60
0
100
AcDbLine
10
68.479209
20
-8.002185
30
0
11
68.520791
21
-8.197815
31
0
39
0
210
0
220
0
230
1
0
LINE
5
105
100
AcDbEntity
8
1
62
256
6
ByLayer
370
18
48
1
60
0
100
AcDbLine
10
68.520791
20
8.197815
30
0
11
68.479209
21
8.002185
31
0
39
0
210
0
220
0
230
1
0
LINE
5
106
100
AcDbEntity
8
1
62
256
6
ByLayer
370
18
48
1
60
0
100
AcDbLine
10
69.04138
20
8.08716
30
0
11
68.520791
21
8.197815
31
0
39
0
210
0
220
0
230
1
0
LINE
5
107
100
AcDbEntity
8
1
62
256
6
ByLayer
370
18
48
1
60
0
100
AcDbLine
10
68.520791
20
-8.197815
30
0
11
69.04138
21
-8.08716
31
0
39
0
210
0
220
0
230
1
0
LINE
5
108
100
AcDbEntity
8
1
62
256
6
ByLayer
370
18
48
1
60
0
100
AcDbLine
10
69.041378
20
-8.1
30
0
11
138
21
-8.1
31
0
39
0
210
0
220
0
230
1
0
LINE
5
109
100
AcDbEntity
8
1
62
256
6
ByLayer
370
18
48
1
60
0
100
AcDbLine
10
138
20
8.1
30
0
11
69.041378
21
8.1
31
0
39
0
210
0
220
0
230
1
0
LINE
5
10A
100
AcDbEntity
8
1
62
256
6
ByLayer
370
18
48
1
60
0
100
AcDbLine
10
140.270611
20
1.858757
30
0
11
143.8
21
1.858757
31
0
39
0
210
0
220
0
230
1
0
LINE
5
10B
100
AcDbEntity
8
1
62
256
6
ByLayer
370
18
48
1
60
0
100
AcDbLine
10
143.8
20
4.858757
30
0
11
140.270611
21
4.858757
31
0
39
0
210
0
220
0
230
1
0
LINE
5
10C
100
AcDbEntity
8
1
62
256
6
ByLayer
370
18
48
1
60
0
100
AcDbLine
10
144
20
0.758757
30
0
11
146.7
21
0.758757
31
0
39
0
210
0
220
0
230
1
0
LINE
5
10D
100
AcDbEntity
8
1
62
256
6
ByLayer
370
18
48
1
60
0
100
AcDbLine
10
146.7
20
5.958757
30
0
11
144
21
5.958757
31
0
39
0
210
0
220
0
230
1
0
LINE
5
10E
100
AcDbEntity
8
1
62
256
6
ByLayer
370
18
48
1
60
0
100
AcDbLine
10
139.660353
20
7.86028
30
0
11
139.520633
21
8
31
0
39
0
210
0
220
0
230
1
0
LINE
5
10F
100
AcDbEntity
8
1
62
256
6
ByLayer
370
18
48
1
60
0
100
AcDbLine
10
139.520633
20
-8
30
0
11
139.660353
21
-7.86028
31
0
39
0
210
0
220
0
230
1
0
LINE
5
110
100
AcDbEntity
8
1
62
256
6
ByLayer
370
18
48
1
60
0
100
AcDbLine
10
139.520633
20
8
30
0
11
138.2
21
8
31
0
39
0
210
0
220
0
230
1
0
LINE
5
111
100
AcDbEntity
8
1
62
256
6
ByLayer
370
18
48
1
60
0
100
AcDbLine
10
138.2
20
-8
30
0
11
139.520633
21
-8
31
0
39
0
210
0
220
0
230
1
0
LINE
5
112
100
AcDbEntity
8
1
62
256
6
ByLayer
370
18
48
1
60
0
100
AcDbLine
10
69.041378
20
-8.1
30
0
11
137.8
21
-8.1
31
0
39
0
210
0
220
0
230
1
0
LINE
5
113
100
AcDbEntity
8
1
62
256
6
ByLayer
370
18
48
1
60
0
100
AcDbLine
10
137.8
20
8.1
30
0
11
69.041378
21
8.1
31
0
39
0
210
0
220
0
230
1
0
LINE
5
114
100
AcDbEntity
8
1
62
256
6
ByLayer
370
18
48
1
60
0
100
AcDbLine
10
-64
20
-7.5
30
0
11
-63.5
21
-8
31
0
39
0
210
0
220
0
230
1
0
LINE
5
115
100
AcDbEntity
8
1
62
256
6
ByLayer
370
18
48
1
60
0
100
AcDbLine
10
-63.5
20
8
30
0
11
-64
21
7.5
31
0
39
0
210
0
220
0
230
1
0
LINE
5
116
100
AcDbEntity
8
1
62
256
6
ByLayer
370
18
48
1
60
0
100
AcDbLine
10
-63.5
20
-8
30
0
11
68.477312
21
-8
31
0
39
0
210
0
220
0
230
1
0
LINE
5
117
100
AcDbEntity
8
1
62
256
6
ByLayer
370
18
48
1
60
0
100
AcDbLine
10
68.477313
20
8
30
0
11
-63.5
21
8
31
0
39
0
210
0
220
0
230
1
0
LINE
5
118
100
AcDbEntity
8
1
62
256
6
ByLayer
370
18
48
1
60
0
100
AcDbLine
10
-64
20
-7.5
30
0
11
-63.5
21
-8
31
0
39
0
210
0
220
0
230
1
0
LINE
5
119
100
AcDbEntity
8
1
62
256
6
ByLayer
370
18
48
1
60
0
100
AcDbLine
10
-63.5
20
8
30
0
11
-64
21
7.5
31
0
39
0
210
0
220
0
230
1
0
LINE
5
11A
100
AcDbEntity
8
1
62
256
6
ByLayer
370
18
48
1
60
0
100
AcDbLine
10
-63.5
20
-8
30
0
11
68.477312
21
-8
31
0
39
0
210
0
220
0
230
1
0
LINE
5
11B
100
AcDbEntity
8
1
62
256
6
ByLayer
370
18
48
1
60
0
100
AcDbLine
10
68.477312
20
8
30
0
11
-63.5
21
8
31
0
39
0
210
0
220
0
230
1
0
LINE
5
11C
100
AcDbEntity
8
1
62
256
6
ByLayer
370
18
48
1
60
0
100
AcDbLine
10
140.270611
20
-4.858757
30
0
11
143.8
21
-4.858757
31
0
39
0
210
0
220
0
230
1
0
LINE
5
11D
100
AcDbEntity
8
1
62
256
6
ByLayer
370
18
48
1
60
0
100
AcDbLine
10
143.8
20
-1.858757
30
0
11
140.270611
21
-1.858757
31
0
39
0
210
0
220
0
230
1
0
LINE
5
11E
100
AcDbEntity
8
1
62
256
6
ByLayer
370
18
48
1
60
0
100
AcDbLine
10
144
20
-5.958757
30
0
11
146.7
21
-5.958757
31
0
39
0
210
0
220
0
230
1
0
LINE
5
11F
100
AcDbEntity
8
1
62
256
6
ByLayer
370
18
48
1
60
0
100
AcDbLine
10
146.7
20
-0.758757
30
0
11
144
21
-0.758757
31
0
39
0
210
0
220
0
230
1
0
LINE
5
120
100
AcDbEntity
8
SK2
62
256
6
ByLayer
370
13
48
1
60
0
100
AcDbLine
10
-74.25
20
8
30
0
11
-74.25
21
-8
31
0
39
0
210
0
220
0
230
1
0
LINE
5
122
100
AcDbEntity
8
SK2
62
256
6
ByLayer
370
13
48
1
60
0
100
AcDbLine
10
-65.0875
20
-8
30
0
11
-76.25
21
-8
31
0
39
0
210
0
220
0
230
1
0
LINE
5
123
100
AcDbEntity
8
SK2
62
256
6
ByLayer
370
13
48
1
60
0
100
AcDbLine
10
-65.0875
20
8
30
0
11
-76.25
21
8
31
0
39
0
210
0
220
0
230
1
0
LINE
5
124
100
AcDbEntity
8
1
62
256
6
ByLayer
370
18
48
1
60
1
100
AcDbLine
10
-74.25
20
-8
30
0
11
-74.710784
21
-4.500002
31
0
39
0
210
0
220
0
230
1
0
LINE
5
125
100
AcDbEntity
8
1
62
256
6
ByLayer
370
18
48
1
60
1
100
AcDbLine
10
-74.710784
20
-4.500002
30
0
11
-73.789216
21
-4.499998
31
0
39
0
210
0
220
0
230
1
0
LINE
5
126
100
AcDbEntity
8
1
62
256
6
ByLayer
370
18
48
1
60
1
100
AcDbLine
10
-73.789216
20
-4.499998
30
0
11
-74.25
21
-8
31
0
39
0
210
0
220
0
230
1
0
LINE
5
127
100
AcDbEntity
8
1
62
256
6
ByLayer
370
18
48
1
60
1
100
AcDbLine
10
-74.25
20
8
30
0
11
-73.789216
21
4.500002
31
0
39
0
210
0
220
0
230
1
0
LINE
5
128
100
AcDbEntity
8
1
62
256
6
ByLayer
370
18
48
1
60
1
100
AcDbLine
10
-73.789216
20
4.500002
30
0
11
-74.710784
21
4.499998
31
0
39
0
210
0
220
0
230
1
0
LINE
5
129
100
AcDbEntity
8
1
62
256
6
ByLayer
370
18
48
1
60
1
100
AcDbLine
10
-74.710784
20
4.499998
30
0
11
-74.25
21
8
31
0
39
0
210
0
220
0
230
1
0
LINE
5
12A
100
AcDbEntity
8
SK2
62
256
6
ByLayer
370
13
48
1
60
0
100
AcDbLine
10
160.110906
20
-8
30
0
11
160.110906
21
8
31
0
39
0
210
0
220
0
230
1
0
LINE
5
12B
100
AcDbEntity
8
SK2
62
256
6
ByLayer
370
13
48
1
60
0
100
AcDbLine
10
141.108133
20
8
30
0
11
162.110906
21
8
31
0
39
0
210
0
220
0
230
1
0
LINE
5
12C
100
AcDbEntity
8
SK2
62
256
6
ByLayer
370
13
48
1
60
0
100
AcDbLine
10
141.108133
20
-8
30
0
11
162.110906
21
-8
31
0
39
0
210
0
220
0
230
1
0
LINE
5
12D
100
AcDbEntity
8
1
62
256
6
ByLayer
370
18
48
1
60
1
100
AcDbLine
10
160.110906
20
8
30
0
11
160.57169
21
4.500002
31
0
39
0
210
0
220
0
230
1
0
LINE
5
12E
100
AcDbEntity
8
1
62
256
6
ByLayer
370
18
48
1
60
1
100
AcDbLine
10
160.57169
20
4.500002
30
0
11
159.650122
21
4.499998
31
0
39
0
210
0
220
0
230
1
0
LINE
5
12F
100
AcDbEntity
8
1
62
256
6
ByLayer
370
18
48
1
60
1
100
AcDbLine
10
159.650122
20
4.499998
30
0
11
160.110906
21
8
31
0
39
0
210
0
220
0
230
1
0
LINE
5
130
100
AcDbEntity
8
1
62
256
6
ByLayer
370
18
48
1
60
1
100
AcDbLine
10
160.110906
20
-8
30
0
11
159.650122
21
-4.500002
31
0
39
0
210
0
220
0
230
1
0
LINE
5
131
100
AcDbEntity
8
1
62
256
6
ByLayer
370
18
48
1
60
1
100
AcDbLine
10
159.650122
20
-4.500002
30
0
11
160.57169
21
-4.499998
31
0
39
0
210
0
220
0
230
1
0
LINE
5
132
100
AcDbEntity
8
1
62
256
6
ByLayer
370
18
48
1
60
1
100
AcDbLine
10
160.57169
20
-4.499998
30
0
11
160.110906
21
-8
31
0
39
0
210
0
220
0
230
1
0
LINE
5
164
100
AcDbEntity
8
1
62
256
6
ByLayer
370
13
48
0.05
60
0
100
AcDbLine
10
129.75
20
-3.358757
30
0
11
153.2
21
-3.358757
31
0
39
0
210
0
220
0
230
1
0
LINE
5
165
100
AcDbEntity
8
1
62
256
6
ByLayer
370
13
48
0.05
60
0
100
AcDbLine
10
-70.5
20
0
30
0
11
75
21
0
31
0
39
0
210
0
220
0
230
1
0
LINE
5
166
100
AcDbEntity
8
1
62
256
6
ByLayer
370
13
48
0.05
60
0
100
AcDbLine
10
-70.5
20
0
30
0
11
75
21
0
31
0
39
0
210
0
220
0
230
1
0
LINE
5
167
100
AcDbEntity
8
1
62
256
6
ByLayer
370
13
48
0.05
60
0
100
AcDbLine
10
62.541378
20
0
30
0
11
144.3
21
0
31
0
39
0
210
0
220
0
230
1
0
LINE
5
168
100
AcDbEntity
8
1
62
256
6
ByLayer
370
13
48
0.05
60
0
100
AcDbLine
10
62.541378
20
0
30
0
11
144.5
21
0
31
0
39
0
210
0
220
0
230
1
0
LINE
5
169
100
AcDbEntity
8
1
62
256
6
ByLayer
370
13
48
0.05
60
0
100
AcDbLine
10
146.770633
20
0
30
0
11
131.7
21
0
31
0
39
0
210
0
220
0
230
1
0
LINE
5
16A
100
AcDbEntity
8
1
62
256
6
ByLayer
370
13
48
0.05
60
0
100
AcDbLine
10
129.75
20
3.358757
30
0
11
153.2
21
3.358757
31
0
39
0
210
0
220
0
230
1
0
LINE
5
16F
100
AcDbEntity
8
1
62
256
6
ByLayer
370
18
48
1
60
1
100
AcDbLine
10
-74.25
20
-8
30
0
11
-74.710784
21
-4.500002
31
0
39
0
210
0
220
0
230
1
0
LINE
5
170
100
AcDbEntity
8
1
62
256
6
ByLayer
370
18
48
1
60
1
100
AcDbLine
10
-74.710784
20
-4.500002
30
0
11
-73.789216
21
-4.499998
31
0
39
0
210
0
220
0
230
1
0
LINE
5
171
100
AcDbEntity
8
1
62
256
6
ByLayer
370
18
48
1
60
1
100
AcDbLine
10
-73.789216
20
-4.499998
30
0
11
-74.25
21
-8
31
0
39
0
210
0
220
0
230
1
0
LINE
5
173
100
AcDbEntity
8
1
62
256
6
ByLayer
370
18
48
1
60
1
100
AcDbLine
10
-74.25
20
8
30
0
11
-73.789216
21
4.500002
31
0
39
0
210
0
220
0
230
1
0
LINE
5
174
100
AcDbEntity
8
1
62
256
6
ByLayer
370
18
48
1
60
1
100
AcDbLine
10
-73.789216
20
4.500002
30
0
11
-74.710784
21
4.499998
31
0
39
0
210
0
220
0
230
1
0
LINE
5
175
100
AcDbEntity
8
1
62
256
6
ByLayer
370
18
48
1
60
1
100
AcDbLine
10
-74.710784
20
4.499998
30
0
11
-74.25
21
8
31
0
39
0
210
0
220
0
230
1
0
LINE
5
179
100
AcDbEntity
8
1
62
256
6
ByLayer
370
18
48
1
60
1
100
AcDbLine
10
160.110906
20
8
30
0
11
160.57169
21
4.500002
31
0
39
0
210
0
220
0
230
1
0
LINE
5
17A
100
AcDbEntity
8
1
62
256
6
ByLayer
370
18
48
1
60
1
100
AcDbLine
10
160.57169
20
4.500002
30
0
11
159.650122
21
4.499998
31
0
39
0
210
0
220
0
230
1
0
LINE
5
17B
100
AcDbEntity
8
1
62
256
6
ByLayer
370
18
48
1
60
1
100
AcDbLine
10
159.650122
20
4.499998
30
0
11
160.110906
21
8
31
0
39
0
210
0
220
0
230
1
0
LINE
5
17D
100
AcDbEntity
8
1
62
256
6
ByLayer
370
18
48
1
60
1
100
AcDbLine
10
160.110906
20
-8
30
0
11
159.650122
21
-4.500002
31
0
39
0
210
0
220
0
230
1
0
LINE
5
17E
100
AcDbEntity
8
1
62
256
6
ByLayer
370
18
48
1
60
1
100
AcDbLine
10
159.650122
20
-4.500002
30
0
11
160.57169
21
-4.499998
31
0
39
0
210
0
220
0
230
1
0
LINE
5
17F
100
AcDbEntity
8
1
62
256
6
ByLayer
370
18
48
1
60
1
100
AcDbLine
10
160.57169
20
-4.499998
30
0
11
160.110906
21
-8
31
0
39
0
210
0
220
0
230
1
0
MTEXT
5
16B
100
AcDbEntity
8
SK2
62
256
6
ByLayer
370
18
48
1
60
0
100
AcDbMText
10
-75.814634
20
-4.093189
30
0
210
0
220
0
230
1
1
%%c
40
3.5
41
0
44
1.084337
50
90
71
7
72
5
7
iso_b_vert
0
MTEXT
5
16E
100
AcDbEntity
8
SK2
62
256
6
ByLayer
370
18
48
1
60
0
100
AcDbMText
10
-75.814634
20
2.879467
30
0
210
0
220
0
230
1
1
\W0.5321;16
40
3.5
41
0
44
1.084337
50
90
71
7
72
5
7
iso_b_vert
0
MTEXT
5
177
100
AcDbEntity
8
SK2
62
256
6
ByLayer
370
18
48
1
60
0
100
AcDbMText
10
158.546273
20
-4.093189
30
0
210
0
220
0
230
1
1
%%c
40
3.5
41
0
44
1.084337
50
90
71
7
72
5
7
iso_b_vert
0
MTEXT
5
178
100
AcDbEntity
8
SK2
62
256
6
ByLayer
370
18
48
1
60
0
100
AcDbMText
10
158.546273
20
2.879467
30
0
210
0
220
0
230
1
1
\W0.5321;16
40
3.5
41
0
44
1.084337
50
90
71
7
72
5
7
iso_b_vert
0
MTEXT
5
181
100
AcDbEntity
8
SK6
62
256
6
ByLayer
370
18
48
1
60
0
100
AcDbMText
10
20.421389
20
-44.317366
30
0
210
0
220
0
230
1
1
\W0.7326;HT31D-CY16 204-16
40
3.5
41
0
44
1.084337
50
0
71
7
72
5
7
iso_b_vert
0
HATCH
5
172
100
AcDbEntity
8
SK2
62
256
6
ByLayer
370
13
48
1
60
0
100
AcDbHatch
10
0
20
0
30
0
210
0
220
0
230
1
2
ANSI31
70
0
71
0
91
1
92
5
93
3
72
1
10
-74.25
20
-8
11
-74.7107837415527
21
-4.50000169255318
72
1
10
-74.7107837415527
20
-4.50000169255318
11
-73.7892162584472
21
-4.49999830744682
72
1
10
-73.7892162584472
20
-4.49999830744682
11
-74.25
21
-8
97
0
75
0
76
1
52
0
41
0.0062
77
0
78
1
53
45
43
0
44
0
45
-0.0139193969876572
46
0.0139193969876572
79
0
47
0
98
1
10
0
20
0
0
HATCH
5
176
100
AcDbEntity
8
SK2
62
256
6
ByLayer
370
13
48
1
60
0
100
AcDbHatch
10
0
20
0
30
0
210
0
220
0
230
1
2
ANSI31
70
0
71
0
91
1
92
5
93
3
72
1
10
-74.25
20
8
11
-73.7892162584472
21
4.50000169255318
72
1
10
-73.7892162584472
20
4.50000169255318
11
-74.7107837415527
21
4.49999830744682
72
1
10
-74.7107837415527
20
4.49999830744682
11
-74.25
21
8
97
0
75
0
76
1
52
0
41
0.0062
77
0
78
1
53
45
43
0
44
0
45
-0.0139193969876572
46
0.0139193969876572
79
0
47
0
98
1
10
0
20
0
0
HATCH
5
17C
100
AcDbEntity
8
SK2
62
256
6
ByLayer
370
13
48
1
60
0
100
AcDbHatch
10
0
20
0
30
0
210
0
220
0
230
1
2
ANSI31
70
0
71
0
91
1
92
5
93
3
72
1
10
160.110906092694
20
8
11
160.571689834247
21
4.50000169255318
72
1
10
160.571689834247
20
4.50000169255318
11
159.650122351141
21
4.49999830744682
72
1
10
159.650122351141
20
4.49999830744682
11
160.110906092694
21
8
97
0
75
0
76
1
52
0
41
0.0062
77
0
78
1
53
45
43
0
44
0
45
-0.0139193969876572
46
0.0139193969876572
79
0
47
0
98
1
10
0
20
0
0
HATCH
5
180
100
AcDbEntity
8
SK2
62
256
6
ByLayer
370
13
48
1
60
0
100
AcDbHatch
10
0
20
0
30
0
210
0
220
0
230
1
2
ANSI31
70
0
71
0
91
1
92
5
93
3
72
1
10
160.110906092694
20
-8
11
159.650122351141
21
-4.50000169255318
72
1
10
159.650122351141
20
-4.50000169255318
11
160.571689834247
21
-4.49999830744682
72
1
10
160.571689834247
20
-4.49999830744682
11
160.110906092694
21
-8
97
0
75
0
76
1
52
0
41
0.0062
77
0
78
1
53
45
43
0
44
0
45
-0.0139193969876572
46
0.0139193969876572
79
0
47
0
98
1
10
0
20
0
0
DIMENSION
5
184
100
AcDbEntity
8
SK2
62
256
6
ByLayer
370
18
48
1
60
0
100
AcDbDimension
2
_U0
10
48
20
-21.85
30
0
11
94
21
-21.85
31
0
70
32
71
1
72
1
41
1
210
0
220
0
230
1
3
Standard
100
AcDbAlignedDimension
13
140
23
8
33
0
14
48
24
-8
34
0
50
0
100
AcDbRotatedDimension
1001
ACAD
1000
DSTYLE
1002
{
1070
   371
1070
    13
1070
   372
1070
    13
1070
   170
1070
     0
1070
   144
1040
1.0
1070
   277
1070
     2
1070
   284
1070
     8
1070
   278
1070
    46
1070
   146
1040
1.0
1070
   345
1005
16
1070
   347
1005
16
1070
   346
1005
16
1070
   344
1005
0
1070
   343
1005
0
1070
   172
1070
     1
1070
    76
1070
     0
1070
    75
1070
     0
1070
   282
1070
     0
1070
   281
1070
     0
1070
    71
1070
     0
1070
    74
1070
     0
1070
   279
1070
     0
1070
   173
1070
     1
1070
   340
1005
16C
1070
   271
1070
     0
1070
   272
1070
     2
1070
    77
1070
     1
1070
    73
1070
     1
1070
   171
1070
     3
1070
   274
1070
     4
1070
   177
1070
     2
1070
   176
1070
     2
1070
   178
1070
     2
1070
    78
1070
     8
1070
    48
1040
-0.1
1070
    41
1040
3.5
1070
   147
1040
1.75
1070
    42
1040
1.5875
1070
    44
1040
2.0
1070
   140
1040
3.5
1002
}
1001
ACAD_DSTYLE_DIM_LINETYPE
1070
   380
1005
16
1001
ACAD_DSTYLE_DIM_EXT1_LINETYPE
1070
   381
1005
16
1001
ACAD_DSTYLE_DIM_EXT2_LINETYPE
1070
   382
1005
16
0
DIMENSION
5
19E
100
AcDbEntity
8
SK2
62
256
6
ByLayer
370
18
48
1
60
0
100
AcDbDimension
2
_U1
10
0
20
-31.85
30
0
11
70
21
-31.85
31
0
70
32
71
1
72
1
41
1
210
0
220
0
230
1
3
Standard
100
AcDbAlignedDimension
13
140
23
8
33
0
14
0
24
-8
34
0
50
0
100
AcDbRotatedDimension
1001
ACAD
1000
DSTYLE
1002
{
1070
   371
1070
    13
1070
   372
1070
    13
1070
   170
1070
     0
1070
   144
1040
1.0
1070
   277
1070
     2
1070
   284
1070
     8
1070
   278
1070
    46
1070
   146
1040
1.0
1070
   345
1005
16
1070
   347
1005
16
1070
   346
1005
16
1070
   344
1005
0
1070
   343
1005
0
1070
   172
1070
     1
1070
    76
1070
     0
1070
    75
1070
     0
1070
   282
1070
     0
1070
   281
1070
     0
1070
    71
1070
     0
1070
    74
1070
     0
1070
   279
1070
     0
1070
   173
1070
     1
1070
   340
1005
16C
1070
   271
1070
     2
1070
   272
1070
     2
1070
    77
1070
     1
1070
    73
1070
     1
1070
   171
1070
     3
1070
   274
1070
     4
1070
   177
1070
     2
1070
   176
1070
     2
1070
   178
1070
     2
1070
    78
1070
     8
1070
    48
1040
-0.1
1070
    41
1040
3.5
1070
   147
1040
1.75
1070
    42
1040
1.5875
1070
    44
1040
2.0
1070
   140
1040
3.5
1002
}
1001
ACAD_DSTYLE_DIM_LINETYPE
1070
   380
1005
16
1001
ACAD_DSTYLE_DIM_EXT1_LINETYPE
1070
   381
1005
16
1001
ACAD_DSTYLE_DIM_EXT2_LINETYPE
1070
   382
1005
16
0
DIMENSION
5
1B7
100
AcDbEntity
8
SK2
62
256
6
ByLayer
370
18
48
1
60
0
100
AcDbDimension
2
_U2
10
140
20
18.35
30
0
11
38
21
18.35
31
0
70
32
71
1
72
1
41
1
210
0
220
0
230
1
3
Standard
100
AcDbAlignedDimension
13
-64
23
0
33
0
14
140
24
0
34
0
50
0
100
AcDbRotatedDimension
1001
ACAD
1000
DSTYLE
1002
{
1070
   371
1070
    13
1070
   372
1070
    13
1070
   170
1070
     0
1070
   144
1040
1.0
1070
   277
1070
     2
1070
   284
1070
     8
1070
   278
1070
    46
1070
   146
1040
1.0
1070
   345
1005
16
1070
   347
1005
16
1070
   346
1005
16
1070
   344
1005
0
1070
   343
1005
0
1070
   172
1070
     1
1070
    76
1070
     0
1070
    75
1070
     0
1070
   282
1070
     0
1070
   281
1070
     0
1070
    71
1070
     0
1070
    74
1070
     0
1070
   279
1070
     0
1070
   173
1070
     1
1070
   340
1005
16C
1070
   271
1070
     2
1070
   272
1070
     2
1070
    77
1070
     1
1070
    73
1070
     1
1070
   171
1070
     3
1070
   274
1070
     4
1070
   177
1070
     2
1070
   176
1070
     2
1070
   178
1070
     2
1070
    78
1070
     8
1070
    48
1040
-0.1
1070
    41
1040
3.5
1070
   147
1040
1.75
1070
    42
1040
1.5875
1070
    44
1040
2.0
1070
   140
1040
3.5
1002
}
1001
ACAD_DSTYLE_DIM_LINETYPE
1070
   380
1005
16
1001
ACAD_DSTYLE_DIM_EXT1_LINETYPE
1070
   381
1005
16
1001
ACAD_DSTYLE_DIM_EXT2_LINETYPE
1070
   382
1005
16
0
ENDSEC
0
SECTION
2
OBJECTS
0
DICTIONARY
5
23f
330
0
100
AcDbDictionary
280
0
281
1
3
ACAD_GROUP
350
240
3
ACAD_MLINESTYLE
350
241
0
DICTIONARY
5
240
330
0
100
AcDbDictionary
280
0
281
1
0
DICTIONARY
5
241
330
0
100
AcDbDictionary
280
0
281
1
3
Standard
350
18
0
MLINESTYLE
5
18
330
241
100
AcDbMlineStyle
2
Standard
70
0
3

62
256
51
90
52
90
71
2
49
-0.5
62
256
6
ByLayer
49
0.5
62
256
6
ByLayer
0
RASTERVARIABLES
5
22d
330

100
AcDbRasterVariables
90
0
70
1
71
1
72
1
0
ENDSEC
0
EOF
