0
SECTION
2
HEADER
9
$ACADVER
1
AC1015
9
$DWGCODEPAGE
3
ANSI_1252
9
$HANDSEED
5
24e
9
$ANGBASE
50
0
9
$ANGDIR
70
0
9
$ATTMODE
70
1
9
$AUNITS
70
0
9
$AUPREC
70
0
9
$CECOLOR
62
256
9
$CELTSCALE
40
1
9
$CELTYPE
6
ByLayer
9
$CELWEIGHT
370
18
9
$CLAYER
8
0
9
$CMLJUST
70
0
9
$CMLSCALE
40
1
9
$CMLSTYLE
2
Standard
9
$DIMSTYLE
2
Standard
9
$TEXTSIZE
40
0.2
9
$TEXTSTYLE
7
Standard
9
$LUNITS
70
2
9
$LUPREC
70
4
9
$EXTNAMES
290
1
9
$INSUNITS
70
4
9
$LTSCALE
40
1
9
$LWDISPLAY
290
1
9
$PDMODE
70
0
9
$PDSIZE
40
0
9
$PLINEGEN
70
0
0
ENDSEC
0
SECTION
2
CLASSES
0
CLASS
1
RASTERVARIABLES
2
AcDbRasterVariables
3
ISM
90
0
280
0
281
0
0
ENDSEC
0
SECTION
2
TABLES
0
TABLE
2
VPORT
5
244
100
AcDbSymbolTable
0
VPORT
5
1
100
AcDbSymbolTableRecord
100
AcDbViewportTableRecord
2
*Active
70
0
10
0
20
0
11
1
21
1
12
-1
22
1
13
0
23
0
14
0.5
24
0.5
15
10
25
10
16
0
26
0
36
1
17
0
27
0
37
0
0
ENDTAB
0
TABLE
2
LTYPE
5
245
100
AcDbSymbolTable
0
LTYPE
5
14
100
AcDbSymbolTableRecord
100
AcDbLinetypeTableRecord
70
0
2
ByBlock
3

72
65
73
0
40
0
0
LTYPE
5
15
100
AcDbSymbolTableRecord
100
AcDbLinetypeTableRecord
70
0
2
ByLayer
3

72
65
73
0
40
0
0
LTYPE
5
16
100
AcDbSymbolTableRecord
100
AcDbLinetypeTableRecord
70
0
2
Continuous
3
Solid line
72
65
73
0
40
0
0
LTYPE
5
6E
100
AcDbSymbolTableRecord
100
AcDbLinetypeTableRecord
70
0
2
CENTER
3
____ _ ____ _ ____ _ ____
72
65
73
4
40
47.5
49
22
74
0
49
-8.5
74
0
49
8.5
74
0
49
-8.5
74
0
0
LTYPE
5
6F
100
AcDbSymbolTableRecord
100
AcDbLinetypeTableRecord
70
0
2
DASHED
3
__ __ __ __ __ __ __ __ __
72
65
73
2
40
25.72
49
12.86
74
0
49
-12.86
74
0
0
ENDTAB
0
TABLE
2
LAYER
5
246
100
AcDbSymbolTable
0
LAYER
5
10
100
AcDbSymbolTableRecord
100
AcDbLayerTableRecord
2
0
70
0
62
7
6
Continuous
290
1
370
-3
390
0
0
LAYER
5
71
100
AcDbSymbolTableRecord
100
AcDbLayerTableRecord
2
2
70
0
62
7
6
Continuous
290
1
370
-3
390
0
0
LAYER
5
95
100
AcDbSymbolTableRecord
100
AcDbLayerTableRecord
2
81
70
0
62
-3
6
Continuous
290
1
370
-3
390
0
0
LAYER
5
97
100
AcDbSymbolTableRecord
100
AcDbLayerTableRecord
2
80
70
0
62
-6
6
Continuous
290
1
370
-3
390
0
0
LAYER
5
99
100
AcDbSymbolTableRecord
100
AcDbLayerTableRecord
2
1
70
0
62
4
6
Continuous
290
1
370
-3
390
0
0
LAYER
5
A2
100
AcDbSymbolTableRecord
100
AcDbLayerTableRecord
2
4
70
0
62
-2
6
CENTER
290
1
370
-3
390
0
0
LAYER
5
1BB
100
AcDbSymbolTableRecord
100
AcDbLayerTableRecord
2
Defpoints
70
0
62
7
6
Continuous
290
0
370
-3
390
0
0
LAYER
5
230
100
AcDbSymbolTableRecord
100
AcDbLayerTableRecord
2
SK4
70
0
62
2
6
CENTER
290
1
370
-3
390
0
0
LAYER
5
231
100
AcDbSymbolTableRecord
100
AcDbLayerTableRecord
2
SK1
70
0
62
4
6
Continuous
290
1
370
-3
390
0
0
LAYER
5
232
100
AcDbSymbolTableRecord
100
AcDbLayerTableRecord
2
SK2
70
0
62
7
6
Continuous
290
1
370
-3
390
0
0
LAYER
5
233
100
AcDbSymbolTableRecord
100
AcDbLayerTableRecord
2
SK6
70
0
62
5
6
Continuous
290
1
370
-3
390
0
0
ENDTAB
0
TABLE
2
STYLE
5
247
100
AcDbSymbolTable
0
STYLE
5
11
100
AcDbSymbolTableRecord
100
AcDbTextStyleTableRecord
2
Standard
3
txt
70
0
71
0
40
0
41
1
42
0
50
0
0
STYLE
5
197
100
AcDbSymbolTableRecord
100
AcDbTextStyleTableRecord
2
iso_b_vert
3
simplex.shx
70
0
71
0
40
0
41
1
42
0
50
0
0
STYLE
5
198
100
AcDbSymbolTableRecord
100
AcDbTextStyleTableRecord
2
DWGDirectTextStyle
3
simplex
70
0
71
0
40
0
41
1
42
0
50
0
0
ENDTAB
0
TABLE
2
DIMSTYLE
5
248
100
AcDbSymbolTable
100
AcDbDimStyleTable
0
DIMSTYLE
105
27
100
AcDbSymbolTableRecord
100
AcDbDimStyleTableRecord
2
Standard
70
0
3
<>
41
0.18
42
0.0625
44
0.18
140
0.18
147
0.09
73
0
74
0
77
1
271
2
275
0
278
52
280
0
340
11
0
ENDTAB
0
TABLE
2
VIEW
5
249
100
AcDbSymbolTable
0
ENDTAB
0
TABLE
2
UCS
5
24a
100
AcDbSymbolTable
0
ENDTAB
0
TABLE
2
APPID
5
24b
100
AcDbSymbolTable
0
APPID
5
12
100
AcDbSymbolTableRecord
100
AcDbRegAppTableRecord
2
ACAD
70
0
0
APPID
5
1B7
100
AcDbSymbolTableRecord
100
AcDbRegAppTableRecord
2
ACAD_DSTYLE_DIMBREAK
70
0
0
APPID
5
1EF
100
AcDbSymbolTableRecord
100
AcDbRegAppTableRecord
2
ACAD_DSTYLE_DIM_LINETYPE
70
0
0
APPID
5
1F0
100
AcDbSymbolTableRecord
100
AcDbRegAppTableRecord
2
ACAD_DSTYLE_DIM_EXT1_LINETYPE
70
0
0
APPID
5
1F1
100
AcDbSymbolTableRecord
100
AcDbRegAppTableRecord
2
ACAD_DSTYLE_DIM_EXT2_LINETYPE
70
0
0
APPID
5
22C
100
AcDbSymbolTableRecord
100
AcDbRegAppTableRecord
2
ACAD_MLEADERVER
70
0
0
ENDTAB
0
TABLE
2
BLOCK_RECORD
5
24c
100
AcDbSymbolTable
0
BLOCK_RECORD
5
1F
100
AcDbSymbolTableRecord
100
AcDbBlockTableRecord
2
*Model_Space
340
0
70
0
0
BLOCK_RECORD
5
1B
100
AcDbSymbolTableRecord
100
AcDbBlockTableRecord
2
*Paper_Space
340
0
70
0
0
BLOCK_RECORD
5
23
100
AcDbSymbolTableRecord
100
AcDbBlockTableRecord
2
*Paper_Space0
340
0
70
0
0
BLOCK_RECORD
5
1BC
100
AcDbSymbolTableRecord
100
AcDbBlockTableRecord
2
*D1
340
0
70
0
0
BLOCK_RECORD
5
1C8
100
AcDbSymbolTableRecord
100
AcDbBlockTableRecord
2
_U0
340
0
70
0
0
ENDTAB
0
ENDSEC
0
SECTION
2
BLOCKS
0
BLOCK
5
20
100
AcDbEntity
8
0
100
AcDbBlockBegin
2
*Model_Space
70
0
10
0
20
0
30
0
3
*Model_Space
0
ENDBLK
5
21
100
AcDbEntity
8
0
100
AcDbBlockEnd
0
BLOCK
5
1C
100
AcDbEntity
8
0
100
AcDbBlockBegin
2
*Paper_Space
70
0
10
0
20
0
30
0
3
*Paper_Space
0
ENDBLK
5
1D
100
AcDbEntity
8
0
100
AcDbBlockEnd
0
BLOCK
5
24
100
AcDbEntity
8
0
100
AcDbBlockBegin
2
*Paper_Space0
70
0
10
0
20
0
30
0
3
*Paper_Space0
0
ENDBLK
5
25
100
AcDbEntity
8
0
100
AcDbBlockEnd
0
BLOCK
5
1BD
100
AcDbEntity
8
0
100
AcDbBlockBegin
2
*D1
70
1
10
0
20
0
30
0
3
*D1
0
LINE
5
1BF
100
AcDbEntity
8
0
62
256
6
ByLayer
370
-2
48
1
60
0
100
AcDbLine
10
25
20
-14.0875
30
0
11
25
21
-46.6
31
0
39
0
210
0
220
0
230
1
0
LINE
5
1C0
100
AcDbEntity
8
0
62
256
6
ByLayer
370
-2
48
1
60
0
100
AcDbLine
10
130
20
10.9125
30
0
11
130
21
-46.6
31
0
39
0
210
0
220
0
230
1
0
LINE
5
1C1
100
AcDbEntity
8
0
62
256
6
ByLayer
370
-2
48
1
60
0
100
AcDbLine
10
28.5
20
-44.6
30
0
11
126.5
21
-44.6
31
0
39
0
210
0
220
0
230
1
0
SOLID
5
1C2
100
AcDbEntity
8
0
62
256
6
ByLayer
370
-1
48
1
60
0
100
AcDbTrace
10
28.5
20
-44.016667
30
0
11
28.5
21
-45.183333
31
0
12
25
22
-44.6
32
0
13
25
23
-44.6
33
0
39
0
210
0
220
0
230
1
0
SOLID
5
1C3
100
AcDbEntity
8
0
62
256
6
ByLayer
370
-1
48
1
60
0
100
AcDbTrace
10
126.5
20
-45.183333
30
0
11
126.5
21
-44.016667
31
0
12
130
22
-44.6
32
0
13
130
23
-44.6
33
0
39
0
210
0
220
0
230
1
0
MTEXT
5
1C4
100
AcDbEntity
8
0
62
256
6
ByLayer
370
18
48
1
60
0
100
AcDbMText
10
77.5
20
-37.6
30
0
210
0
220
0
230
1
1
\A1;105
40
3.5
41
0
44
1
50
0
71
5
72
5
7
iso_b_vert
0
POINT
5
1C5
100
AcDbEntity
8
Defpoints
62
0
6
ByLayer
370
-1
48
1
60
0
100
AcDbPoint
10
25
20
-12.5
30
0
39
0
210
0
220
0
230
1
50
360
0
POINT
5
1C6
100
AcDbEntity
8
Defpoints
62
0
6
ByLayer
370
-1
48
1
60
0
100
AcDbPoint
10
130
20
12.5
30
0
39
0
210
0
220
0
230
1
50
360
0
POINT
5
1C7
100
AcDbEntity
8
Defpoints
62
0
6
ByLayer
370
-1
48
1
60
0
100
AcDbPoint
10
130
20
-44.6
30
0
39
0
210
0
220
0
230
1
50
360
0
ENDBLK
5
1BE
100
AcDbEntity
8
0
100
AcDbBlockEnd
0
BLOCK
5
1CF
100
AcDbEntity
8
0
100
AcDbBlockBegin
2
_U0
70
0
10
0
20
0
30
0
3
_U0
0
MTEXT
5
1C9
100
AcDbEntity
8
SK2
62
256
6
ByLayer
370
18
48
1
60
0
100
AcDbMText
10
74.724734
20
-43.567366
30
0
210
0
220
0
230
1
1
\W0.6217;105
40
3.5
41
0
44
1.084337
50
0
71
7
72
5
7
iso_b_vert
0
LINE
5
1CA
100
AcDbEntity
8
SK2
62
256
6
ByLayer
370
13
48
1
60
0
100
AcDbLine
10
25
20
-14.0875
30
0
11
25
21
-46.6
31
0
39
0
210
0
220
0
230
1
0
LINE
5
1CB
100
AcDbEntity
8
SK2
62
256
6
ByLayer
370
13
48
1
60
0
100
AcDbLine
10
130
20
10.9125
30
0
11
130
21
-46.6
31
0
39
0
210
0
220
0
230
1
0
LINE
5
1CC
100
AcDbEntity
8
SK2
62
256
6
ByLayer
370
13
48
1
60
0
100
AcDbLine
10
25
20
-44.6
30
0
11
130
21
-44.6
31
0
39
0
210
0
220
0
230
1
0
SOLID
5
1CD
100
AcDbEntity
8
SK2
62
256
6
ByLayer
370
18
48
1
60
0
100
AcDbTrace
10
25
20
-44.6
30
0
11
28.499998
21
-44.139216
31
0
12
28.500002
22
-45.060784
32
0
13
28.500002
23
-45.060784
33
0
39
0
210
0
220
0
230
1
0
SOLID
5
1CE
100
AcDbEntity
8
SK2
62
256
6
ByLayer
370
18
48
1
60
0
100
AcDbTrace
10
130
20
-44.6
30
0
11
126.500002
21
-45.060784
31
0
12
126.499998
22
-44.139216
32
0
13
126.499998
23
-44.139216
33
0
39
0
210
0
220
0
230
1
0
ENDBLK
5
1D0
100
AcDbEntity
8
0
100
AcDbBlockEnd
0
ENDSEC
0
SECTION
2
ENTITIES
0
ARC
5
12F
100
AcDbEntity
8
1
62
256
6
ByLayer
370
18
48
1
60
0
100
AcDbCircle
39
0
10
25
20
15.5
30
0
40
3
210
0
220
0
230
1
100
AcDbArc
50
180
51
270
0
ARC
5
130
100
AcDbEntity
8
1
62
256
6
ByLayer
370
18
48
1
60
0
100
AcDbCircle
39
0
10
25
20
-15.5
30
0
40
3
210
0
220
0
230
1
100
AcDbArc
50
90
51
180
0
ARC
5
131
100
AcDbEntity
8
1
62
256
6
ByLayer
370
18
48
1
60
0
100
AcDbCircle
39
0
10
21.5
20
-31
30
0
40
0.5
210
0
220
0
230
1
100
AcDbArc
50
270
51
360
0
ARC
5
132
100
AcDbEntity
8
1
62
256
6
ByLayer
370
18
48
1
60
0
100
AcDbCircle
39
0
10
21.5
20
31
30
0
40
0.5
210
0
220
0
230
1
100
AcDbArc
50
360
51
90
0
ARC
5
133
100
AcDbEntity
8
SK1
62
256
6
ByLayer
370
18
48
1
60
0
100
AcDbCircle
39
0
10
-0.6
20
23.45
30
0
40
0.999999999999994
210
0
220
0
230
1
100
AcDbArc
50
293.578178
51
306.869898
0
ARC
5
134
100
AcDbEntity
8
SK1
62
256
6
ByLayer
370
18
48
1
60
0
100
AcDbCircle
39
0
10
-0.6
20
-23.45
30
0
40
0.999999999999994
210
0
220
0
230
1
100
AcDbArc
50
53.130102
51
66.421822
0
ARC
5
135
100
AcDbEntity
8
1
62
256
6
ByLayer
370
18
48
1
60
0
100
AcDbCircle
39
0
10
128.2
20
-12.3
30
0
40
0.2
210
0
220
0
230
1
100
AcDbArc
50
180
51
270
0
ARC
5
136
100
AcDbEntity
8
1
62
256
6
ByLayer
370
18
48
1
60
0
100
AcDbCircle
39
0
10
128.2
20
12.3
30
0
40
0.2
210
0
220
0
230
1
100
AcDbArc
50
90
51
180
0
ELLIPSE
5
137
100
AcDbEntity
8
1
62
256
6
ByLayer
370
18
48
1
60
0
100
AcDbEllipse
10
-2.347154
20
0
30
0
11
14.7536831606571
21
31.0932549155823
31
0
210
0
220
0
230
1
40
0.341999
41
-1.09123958575279
42
-0.157806186645435
0
ELLIPSE
5
138
100
AcDbEntity
8
1
62
256
6
ByLayer
370
18
48
1
60
0
100
AcDbEllipse
10
26.347154
20
0
30
0
11
14.7536831606573
21
-31.0932549155821
31
0
210
0
220
0
230
1
40
0.341999
41
-2.98378646694437
42
-2.050353067837
0
ELLIPSE
5
139
100
AcDbEntity
8
1
62
256
6
ByLayer
370
18
48
1
60
0
100
AcDbEllipse
10
26.347154
20
0
30
0
11
14.7536831606574
21
31.0932549155822
31
0
210
0
220
0
230
1
40
0.341999
41
2.050353067837
42
2.98378646694437
0
ELLIPSE
5
13A
100
AcDbEntity
8
1
62
256
6
ByLayer
370
18
48
1
60
0
100
AcDbEllipse
10
-2.347154
20
0
30
0
11
14.7536831606563
21
-31.0932549155813
31
0
210
0
220
0
230
1
40
0.341999
41
0.157806186645435
42
1.09123958575282
0
POINT
5
70
100
AcDbEntity
8
2
62
256
6
ByLayer
370
18
48
1
60
0
100
AcDbPoint
10
80.05
20
6
30
0
39
0
210
0
220
0
230
1
50
360
0
POINT
5
72
100
AcDbEntity
8
2
62
256
6
ByLayer
370
18
48
1
60
0
100
AcDbPoint
10
134
20
5.656854
30
0
39
0
210
0
220
0
230
1
50
360
0
POINT
5
73
100
AcDbEntity
8
2
62
256
6
ByLayer
370
18
48
1
60
0
100
AcDbPoint
10
104.45
20
6
30
0
39
0
210
0
220
0
230
1
50
360
0
POINT
5
74
100
AcDbEntity
8
2
62
256
6
ByLayer
370
18
48
1
60
0
100
AcDbPoint
10
111.6
20
0
30
0
39
0
210
0
220
0
230
1
50
360
0
POINT
5
75
100
AcDbEntity
8
2
62
256
6
ByLayer
370
18
48
1
60
0
100
AcDbPoint
10
127.320633
20
0
30
0
39
0
210
0
220
0
230
1
50
360
0
POINT
5
76
100
AcDbEntity
8
2
62
256
6
ByLayer
370
18
48
1
60
0
100
AcDbPoint
10
72.9
20
0
30
0
39
0
210
0
220
0
230
1
50
360
0
POINT
5
77
100
AcDbEntity
8
2
62
256
6
ByLayer
370
18
48
1
60
0
100
AcDbPoint
10
69.5
20
0
30
0
39
0
210
0
220
0
230
1
50
360
0
POINT
5
78
100
AcDbEntity
8
2
62
256
6
ByLayer
370
18
48
1
60
0
100
AcDbPoint
10
66.9
20
0
30
0
39
0
210
0
220
0
230
1
50
360
0
POINT
5
79
100
AcDbEntity
8
2
62
256
6
ByLayer
370
18
48
1
60
0
100
AcDbPoint
10
69.75
20
0
30
0
39
0
210
0
220
0
230
1
50
360
0
POINT
5
7A
100
AcDbEntity
8
2
62
256
6
ByLayer
370
18
48
1
60
0
100
AcDbPoint
10
64.3
20
0
30
0
39
0
210
0
220
0
230
1
50
360
0
POINT
5
7B
100
AcDbEntity
8
2
62
256
6
ByLayer
370
18
48
1
60
0
100
AcDbPoint
10
67.15
20
0
30
0
39
0
210
0
220
0
230
1
50
360
0
POINT
5
7C
100
AcDbEntity
8
2
62
256
6
ByLayer
370
18
48
1
60
0
100
AcDbPoint
10
64.3
20
0
30
0
39
0
210
0
220
0
230
1
50
360
0
POINT
5
7D
100
AcDbEntity
8
2
62
256
6
ByLayer
370
18
48
1
60
0
100
AcDbPoint
10
114.75
20
0
30
0
39
0
210
0
220
0
230
1
50
360
0
POINT
5
7E
100
AcDbEntity
8
2
62
256
6
ByLayer
370
18
48
1
60
0
100
AcDbPoint
10
134
20
5.656854
30
0
39
0
210
0
220
0
230
1
50
360
0
POINT
5
7F
100
AcDbEntity
8
2
62
256
6
ByLayer
370
18
48
1
60
0
100
AcDbPoint
10
118.05
20
0
30
0
39
0
210
0
220
0
230
1
50
360
0
POINT
5
80
100
AcDbEntity
8
2
62
256
6
ByLayer
370
18
48
1
60
0
100
AcDbPoint
10
69.75
20
0
30
0
39
0
210
0
220
0
230
1
50
360
0
POINT
5
81
100
AcDbEntity
8
2
62
256
6
ByLayer
370
18
48
1
60
0
100
AcDbPoint
10
114.75
20
0
30
0
39
0
210
0
220
0
230
1
50
360
0
POINT
5
82
100
AcDbEntity
8
2
62
256
6
ByLayer
370
18
48
1
60
0
100
AcDbPoint
10
69.75
20
0
30
0
39
0
210
0
220
0
230
1
50
360
0
POINT
5
83
100
AcDbEntity
8
2
62
256
6
ByLayer
370
18
48
1
60
0
100
AcDbPoint
10
114.75
20
0
30
0
39
0
210
0
220
0
230
1
50
360
0
POINT
5
84
100
AcDbEntity
8
2
62
256
6
ByLayer
370
18
48
1
60
0
100
AcDbPoint
10
80.05
20
6
30
0
39
0
210
0
220
0
230
1
50
360
0
POINT
5
85
100
AcDbEntity
8
2
62
256
6
ByLayer
370
18
48
1
60
0
100
AcDbPoint
10
111.6
20
0
30
0
39
0
210
0
220
0
230
1
50
360
0
POINT
5
86
100
AcDbEntity
8
2
62
256
6
ByLayer
370
18
48
1
60
0
100
AcDbPoint
10
92.25
20
0
30
0
39
0
210
0
220
0
230
1
50
360
0
POINT
5
87
100
AcDbEntity
8
2
62
256
6
ByLayer
370
18
48
1
60
0
100
AcDbPoint
10
72.9
20
0
30
0
39
0
210
0
220
0
230
1
50
360
0
POINT
5
88
100
AcDbEntity
8
2
62
256
6
ByLayer
370
18
48
1
60
0
100
AcDbPoint
10
104.45
20
6
30
0
39
0
210
0
220
0
230
1
50
360
0
POINT
5
89
100
AcDbEntity
8
2
62
256
6
ByLayer
370
18
48
1
60
0
100
AcDbPoint
10
118.05
20
0
30
0
39
0
210
0
220
0
230
1
50
360
0
POINT
5
8A
100
AcDbEntity
8
2
62
256
6
ByLayer
370
50
48
1
60
0
100
AcDbPoint
10
115
20
0
30
0
39
0
210
0
220
0
230
1
50
360
0
POINT
5
8B
100
AcDbEntity
8
2
62
256
6
ByLayer
370
18
48
1
60
0
100
AcDbPoint
10
127.320633
20
0
30
0
39
0
210
0
220
0
230
1
50
360
0
POINT
5
8C
100
AcDbEntity
8
2
62
256
6
ByLayer
370
50
48
1
60
0
100
AcDbPoint
10
137
20
0
30
0
39
0
210
0
220
0
230
1
50
360
0
POINT
5
8D
100
AcDbEntity
8
2
62
256
6
ByLayer
370
18
48
1
60
0
100
AcDbPoint
10
109.05
20
0
30
0
39
0
210
0
220
0
230
1
50
360
0
POINT
5
8E
100
AcDbEntity
8
2
62
256
6
ByLayer
370
18
48
1
60
0
100
AcDbPoint
10
114.75
20
0
30
0
39
0
210
0
220
0
230
1
50
360
0
POINT
5
8F
100
AcDbEntity
8
2
62
256
6
ByLayer
370
18
48
1
60
0
100
AcDbPoint
10
128
20
0
30
0
39
0
210
0
220
0
230
1
50
360
0
POINT
5
90
100
AcDbEntity
8
2
62
256
6
ByLayer
370
18
48
1
60
0
100
AcDbPoint
10
128
20
0
30
0
39
0
210
0
220
0
230
1
50
360
0
POINT
5
91
100
AcDbEntity
8
2
62
256
6
ByLayer
370
18
48
1
60
0
100
AcDbPoint
10
118.05
20
0
30
0
39
0
210
0
220
0
230
1
50
360
0
POINT
5
92
100
AcDbEntity
8
2
62
256
6
ByLayer
370
18
48
1
60
0
100
AcDbPoint
10
64.05
20
0
30
0
39
0
210
0
220
0
230
1
50
360
0
POINT
5
93
100
AcDbEntity
8
2
62
256
6
ByLayer
370
18
48
1
60
0
100
AcDbPoint
10
91.05
20
0
30
0
39
0
210
0
220
0
230
1
50
360
0
POINT
5
94
100
AcDbEntity
8
81
62
256
6
ByLayer
370
18
48
1
60
0
100
AcDbPoint
10
130
20
0
30
0
39
0
210
0
220
0
230
1
50
360
0
POINT
5
96
100
AcDbEntity
8
80
62
256
6
ByLayer
370
18
48
1
60
0
100
AcDbPoint
10
0
20
0
30
0
39
0
210
0
220
0
230
1
50
360
0
POINT
5
98
100
AcDbEntity
8
1
62
256
6
ByLayer
370
13
48
1
60
1
100
AcDbPoint
10
139.5
20
-5.656854
30
0
39
0
210
0
220
0
230
1
50
360
0
POINT
5
9A
100
AcDbEntity
8
1
62
256
6
ByLayer
370
13
48
1
60
1
100
AcDbPoint
10
123
20
-5.656854
30
0
39
0
210
0
220
0
230
1
50
360
0
POINT
5
9B
100
AcDbEntity
8
1
62
256
6
ByLayer
370
13
48
1
60
1
100
AcDbPoint
10
132.16886
20
0
30
0
39
0
210
0
220
0
230
1
50
360
0
POINT
5
9C
100
AcDbEntity
8
1
62
256
6
ByLayer
370
13
48
1
60
1
100
AcDbPoint
10
126.7
20
0
30
0
39
0
210
0
220
0
230
1
50
360
0
POINT
5
9D
100
AcDbEntity
8
1
62
256
6
ByLayer
370
13
48
1
60
1
100
AcDbPoint
10
139.5
20
5.656854
30
0
39
0
210
0
220
0
230
1
50
360
0
POINT
5
9E
100
AcDbEntity
8
1
62
256
6
ByLayer
370
13
48
1
60
1
100
AcDbPoint
10
123
20
5.656854
30
0
39
0
210
0
220
0
230
1
50
360
0
POINT
5
9F
100
AcDbEntity
8
1
62
256
6
ByLayer
370
18
48
1
60
1
100
AcDbPoint
10
25
20
-12.5
30
0
39
0
210
0
220
0
230
1
50
360
0
POINT
5
A0
100
AcDbEntity
8
1
62
256
6
ByLayer
370
18
48
1
60
1
100
AcDbPoint
10
130
20
12.5
30
0
39
0
210
0
220
0
230
1
50
360
0
SPLINE
5
13B
100
AcDbEntity
8
1
62
256
6
ByLayer
370
18
48
1
60
0
100
AcDbSpline
70
4
71
3
72
30
73
26
40
0
40
0
40
0
40
0
40
0.0624999999999964
40
0.0624999999999964
40
0.0937499999999974
40
0.0937499999999974
40
0.124999999999998
40
0.124999999999998
40
0.249999999999997
40
0.249999999999997
40
0.312499999999998
40
0.312499999999998
40
0.374999999999998
40
0.374999999999998
40
0.437499999999998
40
0.437499999999998
40
0.499999999999999
40
0.499999999999999
40
0.624999999999999
40
0.624999999999999
40
0.749999999999999
40
0.749999999999999
40
0.875
40
0.875
40
1
40
1
40
1
40
1
41
1
10
13.4613248654053
20
30.0805927603168
30
0
41
1
10
13.4770644463613
20
30.0805927603168
30
0
41
1
10
13.4925182901837
20
30.0801205034907
30
0
41
1
10
13.5153082123103
20
30.0787652114225
30
0
41
1
10
13.5228395300833
20
30.0782053093476
30
0
41
1
10
13.5377759237481
20
30.076876147822
30
0
41
1
10
13.5452163817753
20
30.0761022248718
30
0
41
1
10
13.5815263070003
20
30.07179594856
30
0
41
1
10
13.6079581046677
20
30.066987279366
30
0
41
1
10
13.6448606867709
20
30.0583172600354
30
0
41
1
10
13.6565013495869
20
30.05522440868
30
0
41
1
10
13.6786197964873
20
30.0487371057377
30
0
41
1
10
13.6891167538209
20
30.045337228074
30
0
41
1
10
13.7091749421595
20
30.0382729348064
30
0
41
1
10
13.7187352282343
20
30.0346082702023
30
0
41
1
10
13.7370497658742
20
30.0270468182505
30
0
41
1
10
13.7458258793004
20
30.0231382884601
30
0
41
1
10
13.7708221243601
20
30.0112312950128
30
0
41
1
10
13.7858017072528
20
30.0030284643031
30
0
41
1
10
13.8132376332898
20
29.986201042407
30
0
41
1
10
13.8256849705002
20
29.9775752500985
30
0
41
1
10
13.8485243776494
20
29.9599596837524
30
0
41
1
10
13.8589127955725
20
29.9509694256367
30
0
41
1
10
13.8779317869832
20
29.932660186932
30
0
41
1
10
13.8865409364125
20
29.9233580917138
30
0
41
1
10
13.8943375672975
20
29.913954846469
30
0
0
SPLINE
5
13C
100
AcDbEntity
8
1
62
256
6
ByLayer
370
18
48
1
60
0
100
AcDbSpline
70
4
71
3
72
32
73
28
40
0
40
0
40
0
40
0
40
0.249999999999994
40
0.249999999999994
40
0.374999999999988
40
0.374999999999988
40
0.437499999999985
40
0.437499999999985
40
0.499999999999982
40
0.499999999999982
40
0.624999999999989
40
0.624999999999989
40
0.687499999999994
40
0.687499999999994
40
0.749999999999998
40
0.749999999999998
40
0.812500000000002
40
0.812500000000002
40
0.84375
40
0.84375
40
0.874999999999997
40
0.874999999999997
40
0.937500000000002
40
0.937500000000002
40
0.968750000000001
40
0.968750000000001
40
1
40
1
40
1
40
1
41
1
10
13.8943375672974
20
9.86941261896632
30
0
41
1
10
13.8787501654512
20
9.81243201498819
30
0
41
1
10
13.8600981524864
20
9.75655023082984
30
0
41
1
10
13.8259097308549
20
9.67499387250803
30
0
41
1
10
13.8134681559942
20
9.64819007031213
30
0
41
1
10
13.792841581707
20
9.60870778228687
30
0
41
1
10
13.785636838674
20
9.59566828989819
30
0
41
1
10
13.7704696456803
20
9.5698696056034
30
0
41
1
10
13.7624961131814
20
9.55709686534382
30
0
41
1
10
13.7374904471463
20
9.51963294536139
30
0
41
1
10
13.7193382950672
20
9.49566900868402
30
0
41
1
10
13.689039794361
20
9.46183015552282
30
0
41
1
10
13.6784124135706
20
9.45090526429343
30
0
41
1
10
13.6562779758131
20
9.43026612350775
30
0
41
1
10
13.6447350068564
20
9.4205071911085
30
0
41
1
10
13.6205171073694
20
9.40232505361266
30
0
41
1
10
13.607843974168
20
9.39389972204393
30
0
41
1
10
13.5877822000581
20
9.38250456041447
30
0
41
1
10
13.5808872163668
20
9.37890069603404
30
0
41
1
10
13.5669060817703
20
9.37226208194031
30
0
41
1
10
13.559813636811
20
9.36922064667928
30
0
41
1
10
13.5382117701416
20
9.36098178019495
30
0
41
1
10
13.5233796774592
20
9.35666472180216
30
0
41
1
10
13.5003821923576
20
9.35223451981233
30
0
41
1
10
13.4925919071141
20
9.35110433740238
30
0
41
1
10
13.4770081601072
20
9.34960123302494
30
0
41
1
10
13.4691833484067
20
9.34922131452524
30
0
41
1
10
13.4613248654052
20
9.34922131452521
30
0
0
SPLINE
5
13D
100
AcDbEntity
8
1
62
256
6
ByLayer
370
18
48
1
60
0
100
AcDbSpline
70
4
71
3
72
30
73
26
40
0
40
0
40
0
40
0
40
0.0624999999999971
40
0.0624999999999971
40
0.0937499999999963
40
0.0937499999999963
40
0.124999999999996
40
0.124999999999996
40
0.249999999999999
40
0.249999999999999
40
0.312499999999997
40
0.312499999999997
40
0.374999999999994
40
0.374999999999994
40
0.437499999999992
40
0.437499999999992
40
0.49999999999999
40
0.49999999999999
40
0.624999999999992
40
0.624999999999992
40
0.749999999999995
40
0.749999999999995
40
0.874999999999997
40
0.874999999999997
40
1
40
1
40
1
40
1
41
1
10
10.5386751345949
20
9.34922131452518
30
0
41
1
10
10.5229355536389
20
9.34922131452518
30
0
41
1
10
10.5074817098166
20
9.35074113394296
30
0
41
1
10
10.4846917876899
20
9.35509944740036
30
0
41
1
10
10.4771604699169
20
9.35689961322674
30
0
41
1
10
10.4622240762521
20
9.3611711976572
30
0
41
1
10
10.4547836182249
20
9.36365758390281
30
0
41
1
10
10.4184736929999
20
9.37748487924972
30
0
41
1
10
10.3920418953325
20
9.39290424748316
30
0
41
1
10
10.3551393132293
20
9.42059748954586
30
0
41
1
10
10.3434986504133
20
9.43046143490429
30
0
41
1
10
10.3213802035129
20
9.45111186483337
30
0
41
1
10
10.3108832461793
20
9.46191570446791
30
0
41
1
10
10.2908250578407
20
9.48431848058817
30
0
41
1
10
10.2812647717658
20
9.49591822570969
30
0
41
1
10
10.262950234126
20
9.51980127252986
30
0
41
1
10
10.2541741206997
20
9.53212142663477
30
0
41
1
10
10.2291778756401
20
9.56957065273534
30
0
41
1
10
10.2141982927474
20
9.59526142127675
30
0
41
1
10
10.1867623667104
20
9.64772023935052
30
0
41
1
10
10.1743150294999
20
9.67449223197175
30
0
41
1
10
10.1514756223508
20
9.72890711075647
30
0
41
1
10
10.1410872044277
20
9.75655159685462
30
0
41
1
10
10.122068213017
20
9.81257982037172
30
0
41
1
10
10.1134590635877
20
9.84091160634031
30
0
41
1
10
10.1056624327026
20
9.86941261896627
30
0
0
SPLINE
5
13E
100
AcDbEntity
8
1
62
256
6
ByLayer
370
18
48
1
60
0
100
AcDbSpline
70
4
71
3
72
32
73
28
40
0
40
0
40
0
40
0
40
0.249999999999991
40
0.249999999999991
40
0.374999999999992
40
0.374999999999992
40
0.437499999999992
40
0.437499999999992
40
0.499999999999992
40
0.499999999999992
40
0.624999999999985
40
0.624999999999985
40
0.687499999999985
40
0.687499999999985
40
0.749999999999985
40
0.749999999999985
40
0.812499999999986
40
0.812499999999986
40
0.843749999999987
40
0.843749999999987
40
0.874999999999989
40
0.874999999999989
40
0.937499999999995
40
0.937499999999995
40
0.968749999999998
40
0.968749999999998
40
1
40
1
40
1
40
1
41
1
10
10.1056624327028
20
29.913954846469
30
0
41
1
10
10.1212498345489
20
29.9327542695083
30
0
41
1
10
10.1399018475137
20
29.9510098933135
30
0
41
1
10
10.1740902691453
20
29.9774133319729
30
0
41
1
10
10.1865318440059
20
29.9860499646858
30
0
41
1
10
10.2071584182931
20
29.99871540223
30
0
41
1
10
10.2143631613261
20
30.0028887514665
30
0
41
1
10
10.2295303543199
20
30.0111275878529
30
0
41
1
10
10.2375038868187
20
30.0151973377027
30
0
41
1
10
10.2625095528538
20
30.027109009107
30
0
41
1
10
10.2806617049329
20
30.0346937657147
30
0
41
1
10
10.3109602056392
20
30.0453642012994
30
0
41
1
10
10.3215875864296
20
30.0488020840795
30
0
41
1
10
10.3437220241871
20
30.0552856889209
30
0
41
1
10
10.3552649931438
20
30.0583455135274
30
0
41
1
10
10.3794828926308
20
30.0640378913833
30
0
41
1
10
10.3921560258322
20
30.0666711051738
30
0
41
1
10
10.4122177999421
20
30.0702282001223
30
0
41
1
10
10.4191127836334
20
30.0713523776808
30
0
41
1
10
10.4330939182298
20
30.0734220792403
30
0
41
1
10
10.4401863631892
20
30.0743696982574
30
0
41
1
10
10.4617882298586
20
30.076935568727
30
0
41
1
10
10.476620322541
20
30.0782784555613
30
0
41
1
10
10.4996178076426
20
30.0796561130286
30
0
41
1
10
10.5074080928861
20
30.0800074516351
30
0
41
1
10
10.522991839893
20
30.080474687126
30
0
41
1
10
10.5308166515935
20
30.0805927603169
30
0
41
1
10
10.538675134595
20
30.0805927603169
30
0
0
SPLINE
5
13F
100
AcDbEntity
8
1
62
256
6
ByLayer
370
18
48
1
60
0
100
AcDbSpline
70
4
71
3
72
30
73
26
40
0
40
0
40
0
40
0
40
0.0624999999999948
40
0.0624999999999948
40
0.0937499999999956
40
0.0937499999999956
40
0.124999999999996
40
0.124999999999996
40
0.250000000000006
40
0.250000000000006
40
0.312500000000005
40
0.312500000000005
40
0.375000000000004
40
0.375000000000004
40
0.437500000000002
40
0.437500000000002
40
0.500000000000001
40
0.500000000000001
40
0.625000000000001
40
0.625000000000001
40
0.750000000000001
40
0.750000000000001
40
0.875
40
0.875
40
1
40
1
40
1
40
1
41
1
10
10.5386751345948
20
-30.0805927603169
30
0
41
1
10
10.5229355536387
20
-30.0805927603169
30
0
41
1
10
10.5074817098164
20
-30.0801205034908
30
0
41
1
10
10.4846917876897
20
-30.0787652114226
30
0
41
1
10
10.4771604699168
20
-30.0782053093477
30
0
41
1
10
10.4622240762519
20
-30.0768761478221
30
0
41
1
10
10.4547836182247
20
-30.0761022248719
30
0
41
1
10
10.4184736929997
20
-30.0717959485601
30
0
41
1
10
10.3920418953324
20
-30.0669872793661
30
0
41
1
10
10.3551393132291
20
-30.0583172600356
30
0
41
1
10
10.3434986504131
20
-30.0552244086802
30
0
41
1
10
10.3213802035127
20
-30.0487371057379
30
0
41
1
10
10.3108832461792
20
-30.0453372280742
30
0
41
1
10
10.2908250578406
20
-30.0382729348065
30
0
41
1
10
10.2812647717657
20
-30.0346082702024
30
0
41
1
10
10.2629502341259
20
-30.0270468182507
30
0
41
1
10
10.2541741206996
20
-30.0231382884602
30
0
41
1
10
10.2291778756399
20
-30.011231295013
30
0
41
1
10
10.2141982927472
20
-30.0030284643032
30
0
41
1
10
10.1867623667102
20
-29.9862010424071
30
0
41
1
10
10.1743150294998
20
-29.9775752500986
30
0
41
1
10
10.1514756223506
20
-29.9599596837525
30
0
41
1
10
10.1410872044275
20
-29.9509694256368
30
0
41
1
10
10.1220682130168
20
-29.9326601869321
30
0
41
1
10
10.1134590635875
20
-29.9233580917139
30
0
41
1
10
10.1056624327025
20
-29.9139548464691
30
0
0
SPLINE
5
140
100
AcDbEntity
8
1
62
256
6
ByLayer
370
18
48
1
60
0
100
AcDbSpline
70
4
71
3
72
32
73
28
40
0
40
0
40
0
40
0
40
0.249999999999994
40
0.249999999999994
40
0.37499999999999
40
0.37499999999999
40
0.437499999999993
40
0.437499999999993
40
0.499999999999996
40
0.499999999999996
40
0.624999999999995
40
0.624999999999995
40
0.687499999999993
40
0.687499999999993
40
0.749999999999991
40
0.749999999999991
40
0.812499999999989
40
0.812499999999989
40
0.843749999999989
40
0.843749999999989
40
0.87499999999999
40
0.87499999999999
40
0.937499999999995
40
0.937499999999995
40
0.968749999999997
40
0.968749999999997
40
1
40
1
40
1
40
1
41
1
10
10.1056624327026
20
-9.86941261896635
30
0
41
1
10
10.1212498345488
20
-9.81243201498822
30
0
41
1
10
10.1399018475136
20
-9.75655023082984
30
0
41
1
10
10.1740902691451
20
-9.67499387250803
30
0
41
1
10
10.1865318440058
20
-9.64819007031213
30
0
41
1
10
10.207158418293
20
-9.60870778228687
30
0
41
1
10
10.214363161326
20
-9.59566828989819
30
0
41
1
10
10.2295303543197
20
-9.5698696056034
30
0
41
1
10
10.2375038868186
20
-9.55709686534382
30
0
41
1
10
10.2625095528536
20
-9.51963294536139
30
0
41
1
10
10.2806617049328
20
-9.49566900868399
30
0
41
1
10
10.310960205639
20
-9.46183015552279
30
0
41
1
10
10.3215875864294
20
-9.4509052642934
30
0
41
1
10
10.3437220241869
20
-9.43026612350772
30
0
41
1
10
10.3552649931436
20
-9.42050719110847
30
0
41
1
10
10.3794828926306
20
-9.40232505361263
30
0
41
1
10
10.392156025832
20
-9.3938997220439
30
0
41
1
10
10.4122177999419
20
-9.38250456041445
30
0
41
1
10
10.4191127836333
20
-9.37890069603401
30
0
41
1
10
10.4330939182297
20
-9.37226208194028
30
0
41
1
10
10.440186363189
20
-9.36922064667925
30
0
41
1
10
10.4617882298584
20
-9.36098178019489
30
0
41
1
10
10.4766203225409
20
-9.3566647218021
30
0
41
1
10
10.4996178076424
20
-9.35223451981227
30
0
41
1
10
10.5074080928859
20
-9.35110433740235
30
0
41
1
10
10.5229918398929
20
-9.34960123302488
30
0
41
1
10
10.5308166515934
20
-9.34922131452518
30
0
41
1
10
10.5386751345948
20
-9.34922131452518
30
0
0
SPLINE
5
141
100
AcDbEntity
8
1
62
256
6
ByLayer
370
18
48
1
60
0
100
AcDbSpline
70
4
71
3
72
30
73
26
40
0
40
0
40
0
40
0
40
0.0624999999999918
40
0.0624999999999918
40
0.093749999999987
40
0.093749999999987
40
0.124999999999982
40
0.124999999999982
40
0.249999999999984
40
0.249999999999984
40
0.312499999999983
40
0.312499999999983
40
0.374999999999983
40
0.374999999999983
40
0.437499999999982
40
0.437499999999982
40
0.499999999999982
40
0.499999999999982
40
0.624999999999986
40
0.624999999999986
40
0.749999999999991
40
0.749999999999991
40
0.874999999999995
40
0.874999999999995
40
1
40
1
40
1
40
1
41
1
10
13.4613248654051
20
-9.34922131452535
30
0
41
1
10
13.4770644463612
20
-9.34922131452535
30
0
41
1
10
13.4925182901835
20
-9.3507411339431
30
0
41
1
10
13.5153082123101
20
-9.35509944740053
30
0
41
1
10
13.5228395300831
20
-9.35689961322691
30
0
41
1
10
13.5377759237479
20
-9.36117119765737
30
0
41
1
10
13.5452163817752
20
-9.36365758390298
30
0
41
1
10
13.5815263070002
20
-9.37748487924989
30
0
41
1
10
13.6079581046675
20
-9.3929042474833
30
0
41
1
10
13.6448606867708
20
-9.42059748954603
30
0
41
1
10
13.6565013495867
20
-9.43046143490446
30
0
41
1
10
13.6786197964871
20
-9.45111186483351
30
0
41
1
10
13.6891167538207
20
-9.46191570446808
30
0
41
1
10
13.7091749421593
20
-9.48431848058831
30
0
41
1
10
13.7187352282342
20
-9.49591822570983
30
0
41
1
10
13.737049765874
20
-9.51980127253
30
0
41
1
10
13.7458258793003
20
-9.53212142663492
30
0
41
1
10
13.7708221243599
20
-9.56957065273548
30
0
41
1
10
13.7858017072526
20
-9.59526142127689
30
0
41
1
10
13.8132376332896
20
-9.64772023935063
30
0
41
1
10
13.8256849705001
20
-9.67449223197187
30
0
41
1
10
13.8485243776492
20
-9.72890711075655
30
0
41
1
10
13.8589127955723
20
-9.75655159685471
30
0
41
1
10
13.877931786983
20
-9.81257982037178
30
0
41
1
10
13.8865409364123
20
-9.84091160634043
30
0
41
1
10
13.8943375672974
20
-9.86941261896638
30
0
0
SPLINE
5
142
100
AcDbEntity
8
1
62
256
6
ByLayer
370
18
48
1
60
0
100
AcDbSpline
70
4
71
3
72
32
73
28
40
0
40
0
40
0
40
0
40
0.249999999999985
40
0.249999999999985
40
0.374999999999977
40
0.374999999999977
40
0.437499999999977
40
0.437499999999977
40
0.499999999999976
40
0.499999999999976
40
0.624999999999985
40
0.624999999999985
40
0.687499999999992
40
0.687499999999992
40
0.749999999999999
40
0.749999999999999
40
0.812500000000005
40
0.812500000000005
40
0.843750000000006
40
0.843750000000006
40
0.875000000000006
40
0.875000000000006
40
0.937500000000007
40
0.937500000000007
40
0.968750000000004
40
0.968750000000004
40
1
40
1
40
1
40
1
41
1
10
13.8943375672972
20
-29.9139548464691
30
0
41
1
10
13.8787501654511
20
-29.9327542695084
30
0
41
1
10
13.8600981524862
20
-29.9510098933136
30
0
41
1
10
13.8259097308547
20
-29.977413331973
30
0
41
1
10
13.813468155994
20
-29.9860499646858
30
0
41
1
10
13.7928415817069
20
-29.9987154022301
30
0
41
1
10
13.7856368386739
20
-30.0028887514666
30
0
41
1
10
13.7704696456801
20
-30.0111275878529
30
0
41
1
10
13.7624961131813
20
-30.0151973377028
30
0
41
1
10
13.7374904471462
20
-30.0271090091071
30
0
41
1
10
13.7193382950671
20
-30.0346937657148
30
0
41
1
10
13.6890397943608
20
-30.0453642012995
30
0
41
1
10
13.6784124135704
20
-30.0488020840796
30
0
41
1
10
13.6562779758129
20
-30.055285688921
30
0
41
1
10
13.6447350068562
20
-30.0583455135275
30
0
41
1
10
13.6205171073692
20
-30.0640378913834
30
0
41
1
10
13.6078439741678
20
-30.0666711051738
30
0
41
1
10
13.587782200058
20
-30.0702282001224
30
0
41
1
10
13.5808872163666
20
-30.0713523776808
30
0
41
1
10
13.5669060817702
20
-30.0734220792404
30
0
41
1
10
13.5598136368108
20
-30.0743696982575
30
0
41
1
10
13.5382117701414
20
-30.076935568727
30
0
41
1
10
13.523379677459
20
-30.0782784555614
30
0
41
1
10
13.5003821923574
20
-30.0796561130286
30
0
41
1
10
13.492591907114
20
-30.0800074516351
30
0
41
1
10
13.477008160107
20
-30.080474687126
30
0
41
1
10
13.4691833484065
20
-30.0805927603169
30
0
41
1
10
13.4613248654051
20
-30.0805927603169
30
0
0
SPLINE
5
143
100
AcDbEntity
8
SK1
62
256
6
ByLayer
370
18
48
1
60
0
100
AcDbSpline
70
4
71
3
72
49
73
45
40
0
40
0
40
0
40
0
40
0.0158520739558688
40
0.04433135287191
40
0.0728106317879512
40
0.101289910703992
40
0.129769189620034
40
0.158248468536075
40
0.215207026368157
40
0.243686305284198
40
0.27216558420024
40
0.300644863116281
40
0.329124142032322
40
0.357603420948363
40
0.386082699864404
40
0.414561978780445
40
0.428801618238466
40
0.443041257696487
40
0.457280897154507
40
0.471520536612528
40
0.485760176070548
40
0.492879995799559
40
0.499999815528569
40
0.507119635257579
40
0.51423945498659
40
0.52847909444461
40
0.542718733902631
40
0.556958373360651
40
0.571198012818672
40
0.585437652276692
40
0.613916931192734
40
0.642396210108775
40
0.670875489024816
40
0.699354767940857
40
0.727834046856898
40
0.75631332577294
40
0.784792604688981
40
0.841751162521063
40
0.870230441437104
40
0.898709720353145
40
0.927188999269187
40
0.955668278185228
40
0.984147557101269
40
1
40
1
40
1
40
1
41
1
10
-38.0000000000001
20
-20.2900103516896
30
0
41
1
10
-38.0000000000001
20
-20.2838088159068
30
0
41
1
10
-38.0000000000001
20
-20.238678329131
30
0
41
1
10
-38.0000000000001
20
-20.0459066437043
30
0
41
1
10
-38.0000000000001
20
-19.657936234772
30
0
41
1
10
-38.0000000000001
20
-19.1216505379955
30
0
41
1
10
-38.0000000000001
20
-18.4471799717541
30
0
41
1
10
-38.0000000000001
20
-17.370846656705
30
0
41
1
10
-38.0000000000001
20
-16.0627718728322
30
0
41
1
10
-38.0000000000001
20
-14.5156181768616
30
0
41
1
10
-38.0000000000001
20
-13.25179074635
30
0
41
1
10
-38
20
-11.8841222937697
30
0
41
1
10
-38
20
-10.4165562193454
30
0
41
1
10
-38
20
-8.85372672313883
30
0
41
1
10
-38
20
-7.20134092284695
30
0
41
1
10
-38
20
-5.76201911469497
30
0
41
1
10
-38
20
-4.56407656073506
30
0
41
1
10
-38
20
-3.65884583736073
30
0
41
1
10
-38
20
-2.74483905839449
30
0
41
1
10
-38
20
-1.82748828650273
30
0
41
1
10
-38
20
-1.06947767603953
30
0
41
1
10
-38
20
-0.455018198724332
30
0
41
1
10
-38
20
4.514862724E-07
30
0
41
1
10
-38
20
0.455018630552217
30
0
41
1
10
-38
20
1.06947718042721
30
0
41
1
10
-38
20
1.82748862261306
30
0
41
1
10
-38
20
2.74483966025946
30
0
41
1
10
-38
20
3.65884523285232
30
0
41
1
10
-38
20
4.56407688146027
30
0
41
1
10
-38
20
5.76201962732233
30
0
41
1
10
-38
20
7.20134053529017
30
0
41
1
10
-38
20
8.85372716578053
30
0
41
1
10
-38
20
10.4165563625369
30
0
41
1
10
-38
20
11.8841219271531
30
0
41
1
10
-37.9999999999999
20
13.251791105613
30
0
41
1
10
-37.9999999999999
20
14.5156182315175
30
0
41
1
10
-37.9999999999999
20
16.0627714181565
30
0
41
1
10
-37.9999999999999
20
17.3708469037195
30
0
41
1
10
-37.9999999999999
20
18.4471796582743
30
0
41
1
10
-37.9999999999999
20
19.1216498805761
30
0
41
1
10
-37.9999999999999
20
19.6579364097436
30
0
41
1
10
-37.9999999999999
20
20.0459061788579
30
0
41
1
10
-37.9999999999999
20
20.2386786509856
30
0
41
1
10
-37.9999999999999
20
20.2838093431276
30
0
41
1
10
-37.9999999999999
20
20.2900106481744
30
0
0
SPLINE
5
144
100
AcDbEntity
8
SK1
62
256
6
ByLayer
370
18
48
1
60
0
100
AcDbSpline
70
4
71
3
72
36
73
32
40
0
40
0
40
0
40
0
40
0.249999999999995
40
0.249999999999995
40
0.374999999999995
40
0.374999999999995
40
0.499999999999994
40
0.499999999999994
40
0.624999999999994
40
0.624999999999994
40
0.687499999999995
40
0.687499999999995
40
0.749999999999996
40
0.749999999999996
40
0.812499999999997
40
0.812499999999997
40
0.843749999999998
40
0.843749999999998
40
0.874999999999998
40
0.874999999999998
40
0.906249999999999
40
0.906249999999999
40
0.921874999999999
40
0.921874999999999
40
0.937499999999999
40
0.937499999999999
40
0.953124999999999
40
0.953124999999999
40
0.968749999999999
40
0.968749999999999
40
1
40
1
40
1
40
1
41
1
10
-0.200000000000017
20
-7.03415845154797
30
0
41
1
10
-0.200331074104781
20
-6.96758473110461
30
0
41
1
10
-0.201942367211245
20
-6.90082001005126
30
0
41
1
10
-0.207091999731261
20
-6.80034067321819
30
0
41
1
10
-0.209269492367241
20
-6.76679198903059
30
0
41
1
10
-0.214824426638046
20
-6.69957126003933
30
0
41
1
10
-0.218199150202338
20
-6.66587124141833
30
0
41
1
10
-0.226629907857046
20
-6.59846295367004
30
0
41
1
10
-0.231660540619714
20
-6.56479252713515
30
0
41
1
10
-0.24121459835942
20
-6.5144059185414
30
0
41
1
10
-0.244745205143658
20
-6.49760452342764
30
0
41
1
10
-0.252727620657765
20
-6.46421416849179
30
0
41
1
10
-0.257169431390253
20
-6.44763062016602
30
0
41
1
10
-0.267439101060575
20
-6.41481626716185
30
0
41
1
10
-0.273236212730808
20
-6.39857720931977
30
0
41
1
10
-0.283833370168708
20
-6.37471397159132
30
0
41
1
10
-0.287711149711214
20
-6.3668056729274
30
0
41
1
10
-0.296343527957447
20
-6.35152953268795
30
0
41
1
10
-0.301085882076194
20
-6.34414232274304
30
0
41
1
10
-0.312078412289964
20
-6.33025774259031
30
0
41
1
10
-0.318222328461559
20
-6.32386838427445
30
0
41
1
10
-0.329057935890972
20
-6.31619338160348
30
0
41
1
10
-0.332859652575053
20
-6.31402544311607
30
0
41
1
10
-0.340958863849011
20
-6.31070772605878
30
0
41
1
10
-0.345208124413119
20
-6.30960458427649
30
0
41
1
10
-0.353689154326048
20
-6.30870360354672
30
0
41
1
10
-0.358037716131292
20
-6.30890123768719
30
0
41
1
10
-0.366345960396387
20
-6.31042877188762
30
0
41
1
10
-0.37039582601011
20
-6.31175696012832
30
0
41
1
10
-0.381850124236109
20
-6.31686284615006
30
0
41
1
10
-0.388651860853372
20
-6.32169800880934
30
0
41
1
10
-0.39491379981132
20
-6.32721828439901
30
0
0
SPLINE
5
145
100
AcDbEntity
8
SK1
62
256
6
ByLayer
370
18
48
1
60
0
100
AcDbSpline
70
4
71
3
72
40
73
36
40
0
40
0
40
0
40
0
40
0.0156250000000005
40
0.0156250000000005
40
0.0312500000000011
40
0.0312500000000011
40
0.0468750000000016
40
0.0468750000000016
40
0.0625000000000022
40
0.0625000000000022
40
0.0781250000000027
40
0.0781250000000027
40
0.0937500000000033
40
0.0937500000000033
40
0.109375000000004
40
0.109375000000004
40
0.125000000000004
40
0.125000000000004
40
0.156250000000005
40
0.156250000000005
40
0.187500000000007
40
0.187500000000007
40
0.250000000000009
40
0.250000000000009
40
0.312500000000011
40
0.312500000000011
40
0.375000000000013
40
0.375000000000013
40
0.500000000000012
40
0.500000000000012
40
0.62500000000001
40
0.62500000000001
40
0.750000000000009
40
0.750000000000009
40
1
40
1
40
1
40
1
41
1
10
-0.394913799811263
20
6.32722135061286
30
0
41
1
10
-0.39176836682077
20
6.32444846033573
30
0
41
1
10
-0.388488406577153
20
6.32186168295425
30
0
41
1
10
-0.381566403142102
20
6.31718953975286
30
0
41
1
10
-0.37788700743684
20
6.31508659472502
30
0
41
1
10
-0.370224910817342
20
6.31169706442716
30
0
41
1
10
-0.366254804145313
20
6.31040674643401
30
0
41
1
10
-0.357946478024502
20
6.30889601700255
30
0
41
1
10
-0.353563907701897
20
6.30870335232461
30
0
41
1
10
-0.344995599835329
20
6.3096474881059
30
0
41
1
10
-0.340684924848688
20
6.31079560648985
30
0
41
1
10
-0.332576144960598
20
6.31417396688744
30
0
41
1
10
-0.328692242821006
20
6.31642240799482
30
0
41
1
10
-0.321489218115886
20
6.3215939456986
30
0
41
1
10
-0.318164476683478
20
6.32450219496934
30
0
41
1
10
-0.311908022590558
20
6.33077681434855
30
0
41
1
10
-0.308967085084703
20
6.33416203110167
30
0
41
1
10
-0.300766232707389
20
6.34461234463069
30
0
41
1
10
-0.296040108964036
20
6.35202357617757
30
0
41
1
10
-0.287432431444955
20
6.36735118199186
30
0
41
1
10
-0.283553316434933
20
6.37530507146633
30
0
41
1
10
-0.272955344086171
20
6.39930333387312
30
0
41
1
10
-0.267171029982762
20
6.41559723945636
30
0
41
1
10
-0.256929970957032
20
6.44848157748783
30
0
41
1
10
-0.252505023147961
20
6.46507959466706
30
0
41
1
10
-0.244556108211668
20
6.49847112557535
30
0
41
1
10
-0.241036901726716
20
6.51528035330136
30
0
41
1
10
-0.231491141946322
20
6.56582630636572
30
0
41
1
10
-0.226489017484539
20
6.5994729106236
30
0
41
1
10
-0.218114808322724
20
6.66667162394384
30
0
41
1
10
-0.214764318431151
20
6.70022371847915
30
0
41
1
10
-0.209239354999511
20
6.76723901782026
30
0
41
1
10
-0.207070996832982
20
6.80070221210741
30
0
41
1
10
-0.201940349251288
20
6.90096555412458
30
0
41
1
10
-0.200330815103371
20
6.96763966546041
30
0
41
1
10
-0.199999999999989
20
7.03416121607441
30
0
0
SPLINE
5
146
100
AcDbEntity
8
SK1
62
256
6
ByLayer
370
13
48
1
60
0
100
AcDbSpline
70
4
71
3
72
21
73
17
40
0
40
0
40
0
40
0
40
0.0620714905404812
40
0.130360513831543
40
0.198649537122606
40
0.266938560413668
40
0.33522758370473
40
0.403516606995792
40
0.471805630286855
40
0.608383676868979
40
0.676672700160041
40
0.744961723451103
40
0.813250746742166
40
0.881539770033228
40
0.94982879332429
40
1
40
1
40
1
40
1
41
1
10
-0.39491379981132
20
-6.32721828439904
30
0
41
1
10
-0.39491379981132
20
-6.90653762641452
30
0
41
1
10
-0.39491379981132
20
-8.09321756934102
30
0
41
1
10
-0.39491379981132
20
-9.80498157314139
30
0
41
1
10
-0.394913799811349
20
-11.4638140893219
30
0
41
1
10
-0.394913799811349
20
-13.0147246633634
30
0
41
1
10
-0.394913799811349
20
-14.4558606687731
30
0
41
1
10
-0.394913799811349
20
-15.7849097442956
30
0
41
1
10
-0.394913799811349
20
-17.4047594204778
30
0
41
1
10
-0.394913799811349
20
-18.7870404111631
30
0
41
1
10
-0.394913799811377
20
-19.9145928494951
30
0
41
1
10
-0.394913799811377
20
-20.6247618481558
30
0
41
1
10
-0.394913799811377
20
-21.1908658435729
30
0
41
1
10
-0.394913799811377
20
-21.6019834098091
30
0
41
1
10
-0.394913799811377
20
-21.8217384635721
30
0
41
1
10
-0.394913799811377
20
-21.865820262853
30
0
41
1
10
-0.394913799811377
20
-21.8654706411188
30
0
0
SPLINE
5
147
100
AcDbEntity
8
SK1
62
256
6
ByLayer
370
18
48
1
60
0
100
AcDbSpline
70
4
71
3
72
51
73
47
40
0
40
0
40
0
40
0
40
0.0312500000000006
40
0.0312500000000006
40
0.0468750000000016
40
0.0468750000000016
40
0.0625000000000026
40
0.0625000000000026
40
0.0781250000000036
40
0.0781250000000036
40
0.0937500000000046
40
0.101562500000005
40
0.101562500000005
40
0.109375000000005
40
0.109375000000005
40
0.125000000000006
40
0.125000000000006
40
0.140625000000007
40
0.140625000000007
40
0.156250000000007
40
0.156250000000007
40
0.171875000000008
40
0.171875000000008
40
0.187500000000009
40
0.187500000000009
40
0.218750000000009
40
0.218750000000009
40
0.25000000000001
40
0.25000000000001
40
0.28125000000001
40
0.28125000000001
40
0.312500000000011
40
0.312500000000011
40
0.375000000000011
40
0.375000000000011
40
0.437500000000011
40
0.437500000000011
40
0.500000000000011
40
0.500000000000011
40
0.625000000000008
40
0.625000000000008
40
0.750000000000006
40
0.750000000000006
40
0.875000000000003
40
0.875000000000003
40
1
40
1
40
1
40
1
41
1
10
-0.39491379981132
20
-6.32721828439898
30
0
41
1
10
-0.411169702827039
20
-6.34154884003178
30
0
41
1
10
-0.428432689769153
20
-6.35475565889092
30
0
41
1
10
-0.456587609313459
20
-6.37205876567259
30
0
41
1
10
-0.466398416496674
20
-6.37741702774107
30
0
41
1
10
-0.486501972755661
20
-6.38684509374406
30
0
41
1
10
-0.496835484302636
20
-6.39094564046627
30
0
41
1
10
-0.51816836276933
20
-6.3976988542467
30
0
41
1
10
-0.529196261060918
20
-6.4003572033352
30
0
41
1
10
-0.551937271601986
20
-6.40390572644711
30
0
41
1
10
-0.569030850267836
20
-6.40516730683922
30
0
41
1
10
-0.586181679144261
20
-6.40431153762214
30
0
41
1
10
-0.59762836448192
20
-6.40326750190812
30
0
41
1
10
-0.603385608753456
20
-6.40250300130214
30
0
41
1
10
-0.620403474265601
20
-6.39954770653125
30
0
41
1
10
-0.631442528804911
20
-6.39670554026134
30
0
41
1
10
-0.652994271508703
20
-6.38952126343978
30
0
41
1
10
-0.6635762300306
20
-6.38514079164267
30
0
41
1
10
-0.683845621171429
20
-6.37529177227788
30
0
41
1
10
-0.693552428201031
20
-6.36983092851585
30
0
41
1
10
-0.712284737644723
20
-6.35805370019304
30
0
41
1
10
-0.72130933300474
20
-6.35173618101936
30
0
41
1
10
-0.738796592350639
20
-6.33839390811318
30
0
41
1
10
-0.747287558608122
20
-6.33134151096425
30
0
41
1
10
-0.771774774816265
20
-6.30953788138899
30
0
41
1
10
-0.786839616984651
20
-6.29414128632044
30
0
41
1
10
-0.815263156518
20
-6.26217184383674
30
0
41
1
10
-0.828611914616658
20
-6.24559230293653
30
0
41
1
10
-0.854034688294377
20
-6.21154523857419
30
0
41
1
10
-0.866130482320557
20
-6.1940351189366
30
0
41
1
10
-0.889197260559286
20
-6.15850150199267
30
0
41
1
10
-0.900140456877779
20
-6.14052530360527
30
0
41
1
10
-0.931589886782092
20
-6.08609644673811
30
0
41
1
10
-0.950735693127655
20
-6.04915001273994
30
0
41
1
10
-0.986572619190156
20
-5.97432275637721
30
0
41
1
10
-1.0032484762518
20
-5.93643689983452
30
0
41
1
10
-1.03476146769921
20
-5.85992972493543
30
0
41
1
10
-1.0495929641111
20
-5.82130654980756
30
0
41
1
10
-1.09190951976356
20
-5.70451929766091
30
0
41
1
10
-1.11725974479191
20
-5.62540226977163
30
0
41
1
10
-1.16395785542233
20
-5.46549802550047
30
0
41
1
10
-1.18522246232584
20
-5.38492681950902
30
0
41
1
10
-1.22466451933838
20
-5.22271935203614
30
0
41
1
10
-1.2428321325454
20
-5.1410815354084
30
0
41
1
10
-1.27671142477865
20
-4.97683362134603
30
0
41
1
10
-1.29241814186361
20
-4.89422245258598
30
0
41
1
10
-1.30710678118658
20
-4.81115156937963
30
0
0
SPLINE
5
148
100
AcDbEntity
8
SK1
62
256
6
ByLayer
370
18
48
1
60
0
100
AcDbSpline
70
4
71
3
72
40
73
36
40
0
40
0
40
0
40
0
40
0.125000000000001
40
0.125000000000001
40
0.187500000000001
40
0.187500000000001
40
0.250000000000001
40
0.250000000000001
40
0.312500000000001
40
0.312500000000001
40
0.328125000000001
40
0.328125000000001
40
0.343750000000001
40
0.375
40
0.375
40
0.4375
40
0.4375
40
0.5
40
0.5625
40
0.5625
40
0.625
40
0.625
40
0.640625
40
0.640625
40
0.65625
40
0.65625
40
0.6875
40
0.6875
40
0.75
40
0.75
40
0.8125
40
0.8125
40
0.875
40
0.875
40
1
40
1
40
1
40
1
41
1
10
-1.30710678118655
20
-4.8111515693796
30
0
41
1
10
-1.3746419177011
20
-4.42920989906065
30
0
41
1
10
-1.43848245106358
20
-4.04286538655003
30
0
41
1
10
-1.52581080346147
20
-3.4555709451387
30
0
41
1
10
-1.55350142719047
20
-3.25850341404765
30
0
41
1
10
-1.60546482604909
20
-2.86151288497595
30
0
41
1
10
-1.62973519898722
20
-2.66158901568747
30
0
41
1
10
-1.67414509281366
20
-2.25856982386534
30
0
41
1
10
-1.69427910225545
20
-2.05547235697082
30
0
41
1
10
-1.71638790779508
20
-1.79939862844844
30
0
41
1
10
-1.7206596967475
20
-1.74803956652656
30
0
41
1
10
-1.72887208385961
20
-1.64527687502962
30
0
41
1
10
-1.74069036277351
20
-1.49111947898436
30
0
41
1
10
-1.75097190728465
20
-1.33692150334681
30
0
41
1
10
-1.76938952483024
20
-1.02847005779319
30
0
41
1
10
-1.77881369580271
20
-0.822761881301403
30
0
41
1
10
-1.79137807494828
20
-0.411189125581416
30
0
41
1
10
-1.79754609551321
20
0.0005418097730967
30
0
41
1
10
-1.79135312802683
20
0.412582134739552
30
0
41
1
10
-1.77873477820947
20
0.824781359776068
30
0
41
1
10
-1.76926982289669
20
1.03095952328059
30
0
41
1
10
-1.75383938151629
20
1.2887753971963
30
0
41
1
10
-1.75057294247844
20
1.340343237501
30
0
41
1
10
-1.74368713518695
20
1.44348814091276
30
0
41
1
10
-1.7400650339118
20
1.4951017046248
30
0
41
1
10
-1.72870229322061
20
1.64966999837918
30
0
41
1
10
-1.72047269473447
20
1.75227000555529
30
0
41
1
10
-1.69395938565037
20
2.05879746438532
30
0
41
1
10
-1.67384597566203
20
2.26145078101038
30
0
41
1
10
-1.629485287899
20
2.66369063393998
30
0
41
1
10
-1.60524340635004
20
2.86327920729124
30
0
41
1
10
-1.5533368167803
20
3.25969288493101
30
0
41
1
10
-1.52567448156807
20
3.45651882726707
30
0
41
1
10
-1.43842306954178
20
4.04321174825222
30
0
41
1
10
-1.374622793295
20
4.42931851789501
30
0
41
1
10
-1.30710678118658
20
4.81115177825131
30
0
0
SPLINE
5
149
100
AcDbEntity
8
SK1
62
256
6
ByLayer
370
18
48
1
60
0
100
AcDbSpline
70
4
71
3
72
51
73
47
40
0
40
0
40
0
40
0
40
0.125000000000003
40
0.125000000000003
40
0.250000000000005
40
0.250000000000005
40
0.375000000000008
40
0.375000000000008
40
0.50000000000001
40
0.50000000000001
40
0.562500000000011
40
0.562500000000011
40
0.625000000000011
40
0.625000000000011
40
0.687500000000011
40
0.687500000000011
40
0.718750000000011
40
0.718750000000011
40
0.75000000000001
40
0.75000000000001
40
0.781250000000009
40
0.781250000000009
40
0.812500000000009
40
0.812500000000009
40
0.828125000000008
40
0.828125000000008
40
0.843750000000008
40
0.843750000000008
40
0.859375000000007
40
0.859375000000007
40
0.875000000000007
40
0.875000000000007
40
0.906250000000005
40
0.906250000000005
40
0.914062500000005
40
0.914062500000005
40
0.921875000000005
40
0.937500000000004
40
0.937500000000004
40
0.953125000000003
40
0.953125000000003
40
0.968750000000002
40
0.968750000000002
40
0.984375000000001
40
0.984375000000001
40
1
40
1
40
1
40
1
41
1
10
-1.30710678118652
20
4.8111517782514
30
0
41
1
10
-1.29243386166999
20
4.89413370391597
30
0
41
1
10
-1.27674450029031
20
4.97666000857456
30
0
41
1
10
-1.24290388240135
20
5.14074733501747
30
0
41
1
10
-1.22475757478611
20
5.22230941297437
30
0
41
1
10
-1.18536324259085
20
5.38437609466149
30
0
41
1
10
-1.16411410166907
20
5.46491938757291
30
0
41
1
10
-1.11750013847291
20
5.62462479791716
30
0
41
1
10
-1.09222933922729
20
5.70354894528973
30
0
41
1
10
-1.05003902511504
20
5.82012130347704
30
0
41
1
10
-1.03525413522215
20
5.85867400558868
30
0
41
1
10
-1.00384791181236
20
5.93504366748638
30
0
41
1
10
-0.987232093239811
20
5.97286244830227
30
0
41
1
10
-0.951537336733765
20
6.0475612269523
30
0
41
1
10
-0.932473247849714
20
6.08444613540038
30
0
41
1
10
-0.901177592378588
20
6.13879101734139
30
0
41
1
10
-0.890290953598964
20
6.15674063815601
30
0
41
1
10
-0.867353405011499
20
6.19222552349751
30
0
41
1
10
-0.85525358147396
20
6.20982755187163
30
0
41
1
10
-0.829832017046698
20
6.24404146668815
30
0
41
1
10
-0.81650875632846
20
6.26067183093176
30
0
41
1
10
-0.788229178374252
20
6.29267436431064
30
0
41
1
10
-0.77328079392683
20
6.30805251056449
30
0
41
1
10
-0.749110346030363
20
6.32978409383841
30
0
41
1
10
-0.740759389627385
20
6.33680322085289
30
0
41
1
10
-0.723321143410573
20
6.35028083368093
30
0
41
1
10
-0.714177802118172
20
6.35677477801673
30
0
41
1
10
-0.695263535743436
20
6.36883407140752
30
0
41
1
10
-0.685506727928413
20
6.37439841042163
30
0
41
1
10
-0.665265234159818
20
6.38439885825292
30
0
41
1
10
-0.654728144683759
20
6.38885411254182
30
0
41
1
10
-0.62210246866519
20
6.39998734213981
30
0
41
1
10
-0.599687731218552
20
6.40423336369165
30
0
41
1
10
-0.570661631865988
20
6.40472651279043
30
0
41
1
10
-0.564821683089747
20
6.40457927715815
30
0
41
1
10
-0.553312890967447
20
6.40381092862671
30
0
41
1
10
-0.536205505855349
20
6.40195065166941
30
0
41
1
10
-0.519541799584118
20
6.39807453657346
30
0
41
1
10
-0.49768267563141
20
6.39127312214092
30
0
41
1
10
-0.487153207843107
20
6.38712350886505
30
0
41
1
10
-0.466917648563907
20
6.37769203793539
30
0
41
1
10
-0.457177342303595
20
6.37239779961379
30
0
41
1
10
-0.438316294923311
20
6.3608578974891
30
0
41
1
10
-0.429170091135461
20
6.35459039773457
30
0
41
1
10
-0.41156851659008
20
6.34138290087219
30
0
41
1
10
-0.403103547019413
20
6.33444111034481
30
0
41
1
10
-0.394913799811263
20
6.32722135062525
30
0
0
SPLINE
5
14A
100
AcDbEntity
8
SK1
62
256
6
ByLayer
370
13
48
1
60
0
100
AcDbSpline
70
4
71
3
72
21
73
17
40
0
40
0
40
0
40
0
40
0.0501775036761425
40
0.118466081475749
40
0.186754659275356
40
0.255043237074963
40
0.32333181487457
40
0.391620392674177
40
0.52819754827339
40
0.596486126072997
40
0.664774703872604
40
0.733063281672211
40
0.801351859471818
40
0.869640437271425
40
0.937929015071031
40
1
40
1
40
1
40
1
41
1
10
-0.394913799811206
20
21.8654704309457
30
0
41
1
10
-0.394913799811206
20
21.8658250791286
30
0
41
1
10
-0.394913799811206
20
21.8217455509566
30
0
41
1
10
-0.394913799811206
20
21.6019829919256
30
0
41
1
10
-0.394913799811206
20
21.1908660117695
30
0
41
1
10
-0.394913799811206
20
20.6247611340725
30
0
41
1
10
-0.394913799811206
20
19.9145926563567
30
0
41
1
10
-0.394913799811235
20
18.7870406318774
30
0
41
1
10
-0.394913799811235
20
17.4047589502432
30
0
41
1
10
-0.394913799811235
20
15.7849099352292
30
0
41
1
10
-0.394913799811235
20
14.4558608746283
30
0
41
1
10
-0.394913799811235
20
13.014724351229
30
0
41
1
10
-0.394913799811235
20
11.4638144327396
30
0
41
1
10
-0.394913799811263
20
9.80498177095927
30
0
41
1
10
-0.394913799811263
20
8.09321828866487
30
0
41
1
10
-0.394913799811263
20
6.90653972901185
30
0
41
1
10
-0.394913799811263
20
6.32722135061286
30
0
0
SPLINE
5
14B
100
AcDbEntity
8
SK1
62
256
6
ByLayer
370
13
48
1
60
0
100
AcDbSpline
70
4
71
3
72
49
73
45
40
0
40
0
40
0
40
0
40
0.020580634516206
40
0.0487849337325321
40
0.0769892329488581
40
0.105193532165184
40
0.13339783138151
40
0.161602130597836
40
0.218010729030488
40
0.246215028246814
40
0.27441932746314
40
0.302623626679466
40
0.330827925895792
40
0.359032225112118
40
0.387236524328444
40
0.41544082354477
40
0.429542973152933
40
0.443645122761097
40
0.457747272369259
40
0.471849421977423
40
0.485951571585586
40
0.493002646389667
40
0.500053721193749
40
0.50710479599783
40
0.514155870801912
40
0.528258020410075
40
0.542360170018237
40
0.556462319626401
40
0.570564469234564
40
0.584666618842727
40
0.612870918059053
40
0.641075217275379
40
0.669279516491705
40
0.697483815708031
40
0.725688114924357
40
0.753892414140683
40
0.782096713357009
40
0.838505311789661
40
0.866709611005987
40
0.894913910222313
40
0.923118209438639
40
0.951322508654965
40
0.979526807871291
40
1
40
1
40
1
40
1
41
1
10
-1.99503997793923
20
21.8252862013517
30
0
41
1
10
-1.99503997793923
20
21.8253760557642
30
0
41
1
10
-1.99503997793923
20
21.7812238640933
30
0
41
1
10
-1.99503997793923
20
21.5622159608078
30
0
41
1
10
-1.99503997793923
20
21.1516905297669
30
0
41
1
10
-1.99503997793923
20
20.5863476884834
30
0
41
1
10
-1.99503997793923
20
19.8770915138249
30
0
41
1
10
-1.99503997793923
20
18.7508484467722
30
0
41
1
10
-1.99503997793923
20
17.370463175446
30
0
41
1
10
-1.99503997793923
20
15.752471971849
30
0
41
1
10
-1.99503997793926
20
14.4250897201646
30
0
41
1
10
-1.99503997793926
20
12.985830725026
30
0
41
1
10
-1.99503997793926
20
11.4370507512064
30
0
41
1
10
-1.99503997793926
20
9.78067154978808
30
0
41
1
10
-1.99503997793926
20
8.01821733349291
30
0
41
1
10
-1.99503997793928
20
6.46319635117561
30
0
41
1
10
-1.99503997793928
20
5.16749918372619
30
0
41
1
10
-1.99503997793928
20
4.17226659327741
30
0
41
1
10
-1.99503997793928
20
3.15436880408234
30
0
41
1
10
-1.99503997793928
20
2.11640247274798
30
0
41
1
10
-1.99503997793928
20
1.23881045451827
30
0
41
1
10
-1.99503997793928
20
0.531269482892839
30
0
41
1
10
-1.99503997793928
20
7.4362589E-08
30
0
41
1
10
-1.99503997793931
20
-0.53126937109505
30
0
41
1
10
-1.99503997793931
20
-1.23881043770959
30
0
41
1
10
-1.99503997793931
20
-2.11640245296422
30
0
41
1
10
-1.99503997793931
20
-3.15436853749512
30
0
41
1
10
-1.99503997793931
20
-4.17226658860133
30
0
41
1
10
-1.99503997793931
20
-5.16749921349111
30
0
41
1
10
-1.99503997793931
20
-6.46319592062625
30
0
41
1
10
-1.99503997793934
20
-8.01821749841287
30
0
41
1
10
-1.99503997793934
20
-9.7806713457135
30
0
41
1
10
-1.99503997793934
20
-11.4370504129058
30
0
41
1
10
-1.99503997793934
20
-12.9858310385527
30
0
41
1
10
-1.99503997793934
20
-14.4250895103889
30
0
41
1
10
-1.99503997793937
20
-15.7524717843982
30
0
41
1
10
-1.99503997793937
20
-17.370463645283
30
0
41
1
10
-1.99503997793937
20
-18.7508482253859
30
0
41
1
10
-1.99503997793937
20
-19.8770917100388
30
0
41
1
10
-1.99503997793937
20
-20.5863484011186
30
0
41
1
10
-1.99503997793937
20
-21.1516903613971
30
0
41
1
10
-1.99503997793937
20
-21.5622163798915
30
0
41
1
10
-1.99503997793937
20
-21.7809189332209
30
0
41
1
10
-1.99503997793937
20
-21.8251812377776
30
0
41
1
10
-1.99503997793937
20
-21.8252861511229
30
0
0
SPLINE
5
14C
100
AcDbEntity
8
SK1
62
256
6
ByLayer
370
18
48
1
60
0
100
AcDbSpline
70
4
71
3
72
49
73
45
40
0
40
0
40
0
40
0
40
0.0137023119814352
40
0.0423080721852311
40
0.0709138323890271
40
0.099519592592823
40
0.128125352796619
40
0.156731113000415
40
0.213942633408007
40
0.242548393611802
40
0.271154153815598
40
0.299759914019394
40
0.32836567422319
40
0.356971434426986
40
0.385577194630782
40
0.414182954834578
40
0.428485834936476
40
0.442788715038374
40
0.457091595140272
40
0.47139447524217
40
0.485697355344068
40
0.492848795395017
40
0.500000235445966
40
0.507151675496915
40
0.514303115547864
40
0.528605995649762
40
0.542908875751659
40
0.557211755853558
40
0.571514635955455
40
0.585817516057353
40
0.614423276261149
40
0.643029036464945
40
0.671634796668741
40
0.700240556872537
40
0.728846317076333
40
0.757452077280129
40
0.786057837483925
40
0.843269357891516
40
0.871875118095312
40
0.900480878299108
40
0.929086638502904
40
0.9576923987067
40
0.986298158910496
40
1
40
1
40
1
40
1
41
1
10
-2.19999999999993
20
22.0136323397659
30
0
41
1
10
-2.19999999999993
20
22.0053276326162
30
0
41
1
10
-2.19999999999993
20
21.9554440419975
30
0
41
1
10
-2.19999999999993
20
21.7550269215783
30
0
41
1
10
-2.19999999999993
20
21.3416333570605
30
0
41
1
10
-2.19999999999993
20
20.7725957724454
30
0
41
1
10
-2.19999999999993
20
20.0589162847047
30
0
41
1
10
-2.19999999999993
20
18.9263267207688
30
0
41
1
10
-2.19999999999993
20
17.5367466797247
30
0
41
1
10
-2.19999999999993
20
15.9097478536278
30
0
41
1
10
-2.19999999999993
20
14.5742840575192
30
0
41
1
10
-2.19999999999996
20
13.1259218425112
30
0
41
1
10
-2.19999999999996
20
11.5668148046225
30
0
41
1
10
-2.19999999999996
20
9.89853996914991
30
0
41
1
10
-2.19999999999996
20
8.12208977576529
30
0
41
1
10
-2.19999999999999
20
6.55235660022589
30
0
41
1
10
-2.19999999999999
20
5.24422917335971
30
0
41
1
10
-2.19999999999999
20
4.2375522406841
30
0
41
1
10
-2.19999999999999
20
3.20644372216569
30
0
41
1
10
-2.19999999999999
20
2.15314018801405
30
0
41
1
10
-2.19999999999999
20
1.26034253962158
30
0
41
1
10
-2.19999999999999
20
0.540965390862567
30
0
41
1
10
-2.19999999999999
20
2.64082871E-08
30
0
41
1
10
-2.19999999999999
20
-0.540965319759124
30
0
41
1
10
-2.20000000000002
20
-1.26034245765442
30
0
41
1
10
-2.20000000000002
20
-2.15314020845372
30
0
41
1
10
-2.20000000000002
20
-3.20644349821166
30
0
41
1
10
-2.20000000000002
20
-4.23755215854527
30
0
41
1
10
-2.20000000000002
20
-5.24422924769223
30
0
41
1
10
-2.20000000000002
20
-6.55235618011341
30
0
41
1
10
-2.20000000000002
20
-8.12208991237512
30
0
41
1
10
-2.20000000000005
20
-9.89853979541101
30
0
41
1
10
-2.20000000000005
20
-11.5668144415121
30
0
41
1
10
-2.20000000000005
20
-13.1259221492871
30
0
41
1
10
-2.20000000000005
20
-14.574283866752
30
0
41
1
10
-2.20000000000005
20
-15.9097476492909
30
0
41
1
10
-2.20000000000007
20
-17.5367471514895
30
0
41
1
10
-2.20000000000007
20
-18.9263265026412
30
0
41
1
10
-2.20000000000007
20
-20.0589164660072
30
0
41
1
10
-2.20000000000007
20
-20.7725964921017
30
0
41
1
10
-2.20000000000007
20
-21.3416331895302
30
0
41
1
10
-2.20000000000007
20
-21.7550273348429
30
0
41
1
10
-2.20000000000007
20
-21.9554433948752
30
0
41
1
10
-2.20000000000007
20
-22.0053267946831
30
0
41
1
10
-2.20000000000007
20
-22.0136316602318
30
0
0
SPLINE
5
14D
100
AcDbEntity
8
SK1
62
256
6
ByLayer
370
18
48
1
60
0
100
AcDbSpline
70
4
71
3
72
49
73
45
40
0
40
0
40
0
40
0
40
0.0270948195072575
40
0.0549127530770388
40
0.0827306866468203
40
0.110548620216602
40
0.138366553786383
40
0.166184487356164
40
0.221820354495727
40
0.249638288065509
40
0.27745622163529
40
0.305274155205071
40
0.333092088774853
40
0.360910022344634
40
0.388727955914416
40
0.416545889484197
40
0.430454856269088
40
0.444363823053978
40
0.458272789838869
40
0.47218175662376
40
0.48609072340865
40
0.493045206801096
40
0.499999690193541
40
0.506954173585986
40
0.513908656978432
40
0.527817623763323
40
0.541726590548213
40
0.555635557333104
40
0.569544524117994
40
0.583453490902885
40
0.611271424472667
40
0.639089358042448
40
0.666907291612229
40
0.694725225182011
40
0.722543158751792
40
0.750361092321573
40
0.778179025891355
40
0.833814893030917
40
0.861632826600699
40
0.88945076017048
40
0.917268693740262
40
0.945086627310043
40
0.972904560879825
40
1
40
1
40
1
40
1
41
1
10
-36.4999999999999
20
21.152410363845
30
0
41
1
10
-36.4999999999999
20
21.1690101680986
30
0
41
1
10
-36.4999999999999
20
21.1349478831778
30
0
41
1
10
-36.4999999999999
20
20.9025884164265
30
0
41
1
10
-36.4999999999999
20
20.5018751860754
30
0
41
1
10
-36.4999999999999
20
19.9491724688866
30
0
41
1
10
-36.4999999999999
20
19.2550489357273
30
0
41
1
10
-36.4999999999999
20
18.15051793389
30
0
41
1
10
-36.4999999999999
20
16.8015889830238
30
0
41
1
10
-36.4999999999999
20
15.2144138486305
30
0
41
1
10
-36.4999999999999
20
13.9146794509995
30
0
41
1
10
-36.4999999999999
20
12.5065635742003
30
0
41
1
10
-36.5
20
10.9931136245941
30
0
41
1
10
-36.5
20
9.37743069816298
30
0
41
1
10
-36.5
20
7.66285826183432
30
0
41
1
10
-36.5
20
6.15816931379945
30
0
41
1
10
-36.5
20
4.90499743361764
30
0
41
1
10
-36.5
20
3.94891719908267
30
0
41
1
10
-36.5
20
2.97621477071257
30
0
41
1
10
-36.5
20
1.99071870036138
30
0
41
1
10
-36.5
20
1.16514681856452
30
0
41
1
10
-36.5
20
0.498098713248623
30
0
41
1
10
-36.5
20
2.384196023E-07
30
0
41
1
10
-36.5
20
-0.498098462230672
30
0
41
1
10
-36.5
20
-1.16514702466992
30
0
41
1
10
-36.5
20
-1.99071854296855
30
0
41
1
10
-36.5
20
-2.97621435827213
30
0
41
1
10
-36.5
20
-3.94891745941487
30
0
41
1
10
-36.5
20
-4.90499731091163
30
0
41
1
10
-36.5
20
-6.15816884754426
30
0
41
1
10
-36.5
20
-7.66285852360596
30
0
41
1
10
-36.5
20
-9.37743039030639
30
0
41
1
10
-36.5
20
-10.9931133711699
30
0
41
1
10
-36.5000000000001
20
-12.5065639108221
30
0
41
1
10
-36.5000000000001
20
-13.9146791761935
30
0
41
1
10
-36.5000000000001
20
-15.2144137189482
30
0
41
1
10
-36.5000000000001
20
-16.8015894462652
30
0
41
1
10
-36.5000000000001
20
-18.1505177013546
30
0
41
1
10
-36.5000000000001
20
-19.2550491829543
30
0
41
1
10
-36.5000000000001
20
-19.9491731575016
30
0
41
1
10
-36.5000000000001
20
-20.5018750148335
30
0
41
1
10
-36.5000000000001
20
-20.9025888554178
30
0
41
1
10
-36.5000000000001
20
-21.1349503353566
30
0
41
1
10
-36.5000000000001
20
-21.1690108800365
30
0
41
1
10
-36.5000000000001
20
-21.1524093333492
30
0
0
SPLINE
5
14E
100
AcDbEntity
8
1
62
256
6
ByLayer
370
18
48
1
60
0
100
AcDbSpline
70
4
71
3
72
36
73
32
40
0
40
0
40
0
40
0
40
0.12171659775782
40
0.12171659775782
40
0.194906881278005
40
0.194906881278005
40
0.231502023038097
40
0.231502023038097
40
0.268097164798189
40
0.268097164798189
40
0.341287448318371
40
0.341287448318371
40
0.377882590078462
40
0.377882590078462
40
0.414477731838553
40
0.414477731838553
40
0.487668015358735
40
0.487668015358735
40
0.524263157118826
40
0.524263157118826
40
0.560858298878917
40
0.560858298878917
40
0.634048582399099
40
0.634048582399099
40
0.707238865919281
40
0.707238865919281
40
0.780429149439463
40
0.780429149439463
40
0.853619432959645
40
0.853619432959645
40
1
40
1
40
1
40
1
41
1
10
129.715849394034
20
-12.3039877396811
30
0
41
1
10
129.706475582835
20
-12.3134710320098
30
0
41
1
10
129.697784097866
20
-12.3222745004295
30
0
41
1
10
129.685247268043
20
-12.3349834123028
30
0
41
1
10
129.680943199025
20
-12.3393491852117
30
0
41
1
10
129.67521121599
20
-12.3451656378591
30
0
41
1
10
129.673419297602
20
-12.3469843930016
30
0
41
1
10
129.670092827331
20
-12.3503612861548
30
0
41
1
10
129.66855454856
20
-12.351923210503
30
0
41
1
10
129.664433515529
20
-12.3561081898297
30
0
41
1
10
129.662314304181
20
-12.3582611326536
30
0
41
1
10
129.660161078508
20
-12.3604488333361
30
0
41
1
10
129.659613385326
20
-12.361005353211
30
0
41
1
10
129.658896238948
20
-12.3617340728934
30
0
41
1
10
129.658724360509
20
-12.3619087361129
30
0
41
1
10
129.65875492779
20
-12.3618776742924
30
0
41
1
10
129.659500676197
20
-12.3611197989332
30
0
41
1
10
129.661706774546
20
-12.3588783950311
30
0
41
1
10
129.662625210362
20
-12.357945322987
30
0
41
1
10
129.664769375903
20
-12.3557673008289
30
0
41
1
10
129.665999155653
20
-12.3545182359478
30
0
41
1
10
129.670131316504
20
-12.3503220195363
30
0
41
1
10
129.673488502885
20
-12.3469136683361
30
0
41
1
10
129.681226361768
20
-12.3390619234543
30
0
41
1
10
129.685528316795
20
-12.3346984199036
30
0
41
1
10
129.694861092633
20
-12.3252377176549
30
0
41
1
10
129.699893070067
20
-12.3201393409252
30
0
41
1
10
129.710613915469
20
-12.3092842983412
30
0
41
1
10
129.716224363468
20
-12.3036070636352
30
0
41
1
10
129.733560206562
20
-12.2860772531296
30
0
41
1
10
129.74584400865
20
-12.2736719874093
30
0
41
1
10
129.758734122635
20
-12.2606754534572
30
0
0
SPLINE
5
14F
100
AcDbEntity
8
1
62
256
6
ByLayer
370
18
48
1
60
0
100
AcDbSpline
70
4
71
3
72
8
73
4
40
0
40
0
40
0
40
0
40
1
40
1
40
1
40
1
41
1
10
129.758734122635
20
-12.2606754534572
30
0
41
1
10
129.929927833258
20
-12.0880683783653
30
0
41
1
10
130.100581702137
20
-11.9147527679542
30
0
41
1
10
130.270632938683
20
-11.7406462103886
30
0
0
SPLINE
5
150
100
AcDbEntity
8
1
62
256
6
ByLayer
370
18
48
1
60
0
100
AcDbSpline
70
4
71
3
72
8
73
4
40
0
40
0
40
0
40
0
40
1
40
1
40
1
40
1
41
1
10
130.270632938683
20
-11.723998824527
30
0
41
1
10
130.100397922331
20
-11.8880619682561
30
0
41
1
10
129.929750756967
20
-12.0515516390434
30
0
41
1
10
129.758734122635
20
-12.2145272228155
30
0
0
SPLINE
5
151
100
AcDbEntity
8
1
62
256
6
ByLayer
370
18
48
1
60
0
100
AcDbSpline
70
4
71
3
72
40
73
36
40
0
40
0
40
0
40
0
40
0.0625000000000027
40
0.0625000000000027
40
0.125000000000005
40
0.125000000000005
40
0.187500000000008
40
0.187500000000008
40
0.250000000000011
40
0.250000000000011
40
0.312500000000014
40
0.312500000000014
40
0.343750000000014
40
0.343750000000014
40
0.375000000000015
40
0.375000000000015
40
0.437500000000017
40
0.437500000000017
40
0.500000000000019
40
0.500000000000019
40
0.531250000000019
40
0.531250000000019
40
0.562500000000018
40
0.562500000000018
40
0.625000000000016
40
0.625000000000016
40
0.687500000000013
40
0.687500000000013
40
0.750000000000011
40
0.750000000000011
40
0.812500000000008
40
0.812500000000008
40
0.875000000000006
40
0.875000000000006
40
1
40
1
40
1
40
1
41
1
10
129.758734122635
20
-12.2145272228155
30
0
41
1
10
129.752068312574
20
-12.220879612396
30
0
41
1
10
129.745525821594
20
-12.2270682160851
30
0
41
1
10
129.732715964242
20
-12.2390772773522
30
0
41
1
10
129.726477294773
20
-12.2448703350552
30
0
41
1
10
129.714536437615
20
-12.2558292795757
30
0
41
1
10
129.708809502506
20
-12.2610185740492
30
0
41
1
10
129.697914061047
20
-12.2707277923045
30
0
41
1
10
129.692706053137
20
-12.275281172696
30
0
41
1
10
129.683202996758
20
-12.2833704788095
30
0
41
1
10
129.678904676591
20
-12.2869114923298
30
0
41
1
10
129.673232158386
20
-12.2913584033688
30
0
41
1
10
129.671463716635
20
-12.292701036286
30
0
41
1
10
129.668264130399
20
-12.2950306175274
30
0
41
1
10
129.666828505259
20
-12.2960215769558
30
0
41
1
10
129.663023993189
20
-12.2984618186028
30
0
41
1
10
129.661148395147
20
-12.2993826601752
30
0
41
1
10
129.658880569968
20
-12.2996713044004
30
0
41
1
10
129.658514302024
20
-12.2990427387254
30
0
41
1
10
129.659028646992
20
-12.2970278099285
30
0
41
1
10
129.659378279229
20
-12.2961766011249
30
0
41
1
10
129.660428840328
20
-12.2941201201624
30
0
41
1
10
129.661135525575
20
-12.2929061164075
30
0
41
1
10
129.663735405735
20
-12.2888058568247
30
0
41
1
10
129.666091473073
20
-12.2854793743069
30
0
41
1
10
129.671871362133
20
-12.2778109505522
30
0
41
1
10
129.67532757786
20
-12.2734300885837
30
0
41
1
10
129.683059671613
20
-12.2639339151792
30
0
41
1
10
129.687313970593
20
-12.2588424042699
30
0
41
1
10
129.696483233627
20
-12.248077147799
30
0
41
1
10
129.70139909759
20
-12.2424026019262
30
0
41
1
10
129.711829120665
20
-12.2305285568446
30
0
41
1
10
129.717293059317
20
-12.2243867064535
30
0
41
1
10
129.734175492401
20
-12.205608880706
30
0
41
1
10
129.746147747327
20
-12.1925461885413
30
0
41
1
10
129.758734122635
20
-12.179024996818
30
0
0
SPLINE
5
152
100
AcDbEntity
8
1
62
256
6
ByLayer
370
18
48
1
60
0
100
AcDbSpline
70
4
71
3
72
8
73
4
40
0
40
0
40
0
40
0
40
1
40
1
40
1
40
1
41
1
10
129.758734122635
20
-12.179024996818
30
0
41
1
10
129.930161995843
20
-11.9948648169703
30
0
41
1
10
130.100825047854
20
-11.8097647664694
30
0
41
1
10
130.270632938683
20
-11.6236138286469
30
0
0
SPLINE
5
153
100
AcDbEntity
8
1
62
256
6
ByLayer
370
18
48
1
60
0
100
AcDbSpline
70
4
71
3
72
8
73
4
40
0
40
0
40
0
40
0
40
1
40
1
40
1
40
1
41
1
10
130.270632938683
20
-11.5730948081104
30
0
41
1
10
130.100257182423
20
-11.7288101319437
30
0
41
1
10
129.929615021591
20
-11.8841352769283
30
0
41
1
10
129.758734122635
20
-12.0391107636234
30
0
0
SPLINE
5
154
100
AcDbEntity
8
1
62
256
6
ByLayer
370
18
48
1
60
0
100
AcDbSpline
70
4
71
3
72
40
73
36
40
0
40
0
40
0
40
0
40
0.0624999999999992
40
0.0624999999999992
40
0.124999999999998
40
0.124999999999998
40
0.187499999999998
40
0.218749999999998
40
0.218749999999998
40
0.249999999999998
40
0.249999999999998
40
0.312499999999998
40
0.312499999999998
40
0.343749999999999
40
0.343749999999999
40
0.374999999999999
40
0.406249999999999
40
0.406249999999999
40
0.437499999999999
40
0.437499999999999
40
0.5
40
0.5
40
0.5625
40
0.5625
40
0.625
40
0.625
40
0.6875
40
0.6875
40
0.75
40
0.75
40
0.812500000000001
40
0.812500000000001
40
0.875000000000001
40
0.875000000000001
40
1
40
1
40
1
40
1
41
1
10
129.758734122635
20
-12.0391107636234
30
0
41
1
10
129.751871582055
20
-12.0453345462276
30
0
41
1
10
129.745131330747
20
-12.0513420835398
30
0
41
1
10
129.731926989761
20
-12.0628655809507
30
0
41
1
10
129.725429080804
20
-12.0684088617452
30
0
41
1
10
129.71303877261
20
-12.0786788951755
30
0
41
1
10
129.704163911744
20
-12.0858032473954
30
0
41
1
10
129.696008262959
20
-12.0919269242545
30
0
41
1
10
129.69074823999
20
-12.0957622617376
30
0
41
1
10
129.688203780696
20
-12.0975578550291
30
0
41
1
10
129.681004240297
20
-12.1024401425424
30
0
41
1
10
129.676729441675
20
-12.1050639112781
30
0
41
1
10
129.671199558773
20
-12.1079342642754
30
0
41
1
10
129.669499485614
20
-12.1087130725832
30
0
41
1
10
129.666485448318
20
-12.1098618075524
30
0
41
1
10
129.663836691699
20
-12.1106141391868
30
0
41
1
10
129.661915151215
20
-12.110576085069
30
0
41
1
10
129.660361740225
20
-12.110137385386
30
0
41
1
10
129.659767145521
20
-12.1097137699794
30
0
41
1
10
129.658567285371
20
-12.1078523796514
30
0
41
1
10
129.658539075281
20
-12.1058510736389
30
0
41
1
10
129.65985840931
20
-12.1004907684089
30
0
41
1
10
129.661231618594
20
-12.0970904602372
30
0
41
1
10
129.665116780629
20
-12.0893096870529
30
0
41
1
10
129.667624183947
20
-12.0849182252557
30
0
41
1
10
129.673609406254
20
-12.0752749101143
30
0
41
1
10
129.677114917507
20
-12.0699860651903
30
0
41
1
10
129.684806985051
20
-12.0589128341613
30
0
41
1
10
129.689003880142
20
-12.0531083994443
30
0
41
1
10
129.698001936881
20
-12.0410398355017
30
0
41
1
10
129.702803792239
20
-12.0347751755435
30
0
41
1
10
129.712958181961
20
-12.0218287375531
30
0
41
1
10
129.718284781503
20
-12.0151811359386
30
0
41
1
10
129.734744589504
20
-11.9950076514262
30
0
41
1
10
129.746427822955
20
-11.9811569728776
30
0
41
1
10
129.758734122635
20
-11.9669602310371
30
0
0
SPLINE
5
155
100
AcDbEntity
8
1
62
256
6
ByLayer
370
18
48
1
60
0
100
AcDbSpline
70
4
71
3
72
8
73
4
40
0
40
0
40
0
40
0
40
1
40
1
40
1
40
1
41
1
10
129.758734122635
20
-11.9669602310371
30
0
41
1
10
129.930478591913
20
-11.7688330964448
30
0
41
1
10
130.101154577605
20
-11.5694868200362
30
0
41
1
10
130.270632938683
20
-11.3687740516518
30
0
0
SPLINE
5
156
100
AcDbEntity
8
1
62
256
6
ByLayer
370
18
48
1
60
0
100
AcDbSpline
70
4
71
3
72
8
73
4
40
0
40
0
40
0
40
0
40
1
40
1
40
1
40
1
41
1
10
130.270632938683
20
-11.2825484017358
30
0
41
1
10
130.100149299926
20
-11.4314698402694
30
0
41
1
10
129.929510929843
20
-11.5801545291675
30
0
41
1
10
129.758734122635
20
-11.7286273996868
30
0
0
SPLINE
5
157
100
AcDbEntity
8
1
62
256
6
ByLayer
370
18
48
1
60
0
100
AcDbSpline
70
4
71
3
72
32
73
28
40
0
40
0
40
0
40
0
40
0.124999999999998
40
0.124999999999998
40
0.187499999999998
40
0.187499999999998
40
0.249999999999998
40
0.249999999999998
40
0.312499999999998
40
0.312499999999998
40
0.374999999999998
40
0.374999999999998
40
0.437499999999998
40
0.437499999999998
40
0.499999999999998
40
0.499999999999998
40
0.562499999999998
40
0.562499999999998
40
0.624999999999999
40
0.624999999999999
40
0.749999999999991
40
0.749999999999991
40
0.812499999999991
40
0.812499999999991
40
0.874999999999991
40
0.874999999999991
40
1
40
1
40
1
40
1
41
1
10
129.758734122635
20
-11.7286273996869
30
0
41
1
10
129.74446441864
20
-11.7410334397588
30
0
41
1
10
129.730479678691
20
-11.7524692127763
30
0
41
1
10
129.711227833104
20
-11.7667283106317
30
0
41
1
10
129.705067209315
20
-11.7710251990774
30
0
41
1
10
129.693383608438
20
-11.7784901734046
30
0
41
1
10
129.688033643242
20
-11.7815466566224
30
0
41
1
10
129.678422984521
20
-11.7861550047446
30
0
41
1
10
129.674144950941
20
-11.7876960799475
30
0
41
1
10
129.667187885682
20
-11.7889790861879
30
0
41
1
10
129.664447257508
20
-11.7887589448223
30
0
41
1
10
129.66048152667
20
-11.7865422144432
30
0
41
1
10
129.659325246021
20
-11.7845765423597
30
0
41
1
10
129.658495317192
20
-11.7791718604669
30
0
41
1
10
129.658831556779
20
-11.7756799641918
30
0
41
1
10
129.660791795344
20
-11.767597156103
30
0
41
1
10
129.662398539752
20
-11.7630124945069
30
0
41
1
10
129.666666414827
20
-11.7529279532766
30
0
41
1
10
129.669352575908
20
-11.7473859152591
30
0
41
1
10
129.67860358159
20
-11.7299445184078
30
0
41
1
10
129.686338224197
20
-11.7172018795166
30
0
41
1
10
129.699736308824
20
-11.6968153641486
30
0
41
1
10
129.704469014386
20
-11.6898639614584
30
0
41
1
10
129.714312641624
20
-11.6758178833869
30
0
41
1
10
129.719437918233
20
-11.6687017068382
30
0
41
1
10
129.735365781399
20
-11.6471025027868
30
0
41
1
10
129.746714600559
20
-11.6323714115
30
0
41
1
10
129.758734122635
20
-11.6173415405303
30
0
0
SPLINE
5
158
100
AcDbEntity
8
1
62
256
6
ByLayer
370
18
48
1
60
0
100
AcDbSpline
70
4
71
3
72
8
73
4
40
0
40
0
40
0
40
0
40
1
40
1
40
1
40
1
41
1
10
129.758734122635
20
-11.6173415405303
30
0
41
1
10
129.930919950783
20
-11.402030918064
30
0
41
1
10
130.101614783347
20
-11.1851566447036
30
0
41
1
10
130.270632938683
20
-10.9665239906504
30
0
0
SPLINE
5
159
100
AcDbEntity
8
1
62
256
6
ByLayer
370
18
48
1
60
0
100
AcDbSpline
70
4
71
3
72
8
73
4
40
0
40
0
40
0
40
0
40
1
40
1
40
1
40
1
41
1
10
130.270632938683
20
-10.8411380139499
30
0
41
1
10
130.10006892534
20
-10.9848417007633
30
0
41
1
10
129.929433405084
20
-11.128432092281
30
0
41
1
10
129.758734122635
20
-11.271921459209
30
0
0
SPLINE
5
15A
100
AcDbEntity
8
1
62
256
6
ByLayer
370
18
48
1
60
0
100
AcDbSpline
70
4
71
3
72
32
73
28
40
0
40
0
40
0
40
0
40
0.0625000000000001
40
0.0625000000000001
40
0.125
40
0.125
40
0.1875
40
0.1875
40
0.250000000000001
40
0.250000000000001
40
0.312500000000001
40
0.312500000000001
40
0.375000000000001
40
0.375000000000001
40
0.437500000000001
40
0.437500000000001
40
0.500000000000001
40
0.500000000000001
40
0.625000000000011
40
0.625000000000011
40
0.687500000000013
40
0.687500000000013
40
0.750000000000014
40
0.750000000000014
40
0.875000000000007
40
0.875000000000007
40
1
40
1
40
1
40
1
41
1
10
129.758734122635
20
-11.271921459209
30
0
41
1
10
129.751281689171
20
-11.278185955137
30
0
41
1
10
129.743865704184
20
-11.2841436112044
30
0
41
1
10
129.729435608886
20
-11.295075598109
30
0
41
1
10
129.722444623357
20
-11.300036879822
30
0
41
1
10
129.708989914951
20
-11.3087649439691
30
0
41
1
10
129.702459114651
20
-11.3125616402521
30
0
41
1
10
129.690528649925
20
-11.3184135628498
30
0
41
1
10
129.685091946828
20
-11.3205024857451
30
0
41
1
10
129.675467132438
20
-11.3227447154287
30
0
41
1
10
129.67147275145
20
-11.32285310327
30
0
41
1
10
129.665056311889
20
-11.3211139854986
30
0
41
1
10
129.662632030521
20
-11.3192168792059
30
0
41
1
10
129.659513218392
20
-11.3137457298633
30
0
41
1
10
129.658767865344
20
-11.3101823866695
30
0
41
1
10
129.658702604348
20
-11.3016007674551
30
0
41
1
10
129.659385088281
20
-11.2966887653457
30
0
41
1
10
129.663129597114
20
-11.2805778941347
30
0
41
1
10
129.667949509216
20
-11.2678203204265
30
0
41
1
10
129.677299729069
20
-11.2474629358465
30
0
41
1
10
129.680780456835
20
-11.2404431807752
30
0
41
1
10
129.688376148638
20
-11.2259962648152
30
0
41
1
10
129.692513087287
20
-11.218532851062
30
0
41
1
10
129.705602404418
20
-11.1959125865329
30
0
41
1
10
129.715218803313
20
-11.1805190321593
30
0
41
1
10
129.735901541203
20
-11.1492291630574
30
0
41
1
10
129.746972776673
20
-11.1333310969663
30
0
41
1
10
129.758734122635
20
-11.117198917328
30
0
0
SPLINE
5
15B
100
AcDbEntity
8
1
62
256
6
ByLayer
370
18
48
1
60
0
100
AcDbSpline
70
4
71
3
72
8
73
4
40
0
40
0
40
0
40
0
40
1
40
1
40
1
40
1
41
1
10
129.758734122635
20
-11.117198917328
30
0
41
1
10
129.93156135044
20
-10.8801444259157
30
0
41
1
10
130.102284869253
20
-10.6410885475337
30
0
41
1
10
130.270632938683
20
-10.3997727589361
30
0
0
SPLINE
5
15C
100
AcDbEntity
8
1
62
256
6
ByLayer
370
18
48
1
60
0
100
AcDbSpline
70
4
71
3
72
8
73
4
40
0
40
0
40
0
40
0
40
1
40
1
40
1
40
1
41
1
10
130.270632938683
20
-10.2293522980446
30
0
41
1
10
130.100016119041
20
-10.3696604723141
30
0
41
1
10
129.929382543448
20
-10.5099414823677
30
0
41
1
10
129.758734122635
20
-10.6501984058734
30
0
0
SPLINE
5
15D
100
AcDbEntity
8
1
62
256
6
ByLayer
370
18
48
1
60
0
100
AcDbSpline
70
4
71
3
72
34
73
30
40
0
40
0
40
0
40
0
40
0.0624999999999971
40
0.0624999999999971
40
0.124999999999994
40
0.124999999999994
40
0.156249999999994
40
0.156249999999994
40
0.187499999999994
40
0.187499999999994
40
0.249999999999994
40
0.249999999999994
40
0.312499999999993
40
0.312499999999993
40
0.374999999999993
40
0.374999999999993
40
0.437499999999993
40
0.437499999999993
40
0.499999999999993
40
0.499999999999993
40
0.562499999999992
40
0.562499999999992
40
0.624999999999992
40
0.624999999999992
40
0.749999999999995
40
0.749999999999995
40
0.874999999999997
40
0.874999999999997
40
1
40
1
40
1
40
1
41
1
10
129.758734122635
20
-10.6501984058734
30
0
41
1
10
129.75087699505
20
-10.656656224454
30
0
41
1
10
129.743014224848
20
-10.6627084460548
30
0
41
1
10
129.72775351557
20
-10.6734538348401
30
0
41
1
10
129.720342801106
20
-10.6781662187091
30
0
41
1
10
129.709633531392
20
-10.6840039707031
30
0
41
1
10
129.706114908781
20
-10.6857488799327
30
0
41
1
10
129.699401757781
20
-10.6886927892075
30
0
41
1
10
129.696189940154
20
-10.6899030321507
30
0
41
1
10
129.687011738455
20
-10.6927046961142
30
0
41
1
10
129.681451414186
20
-10.6934413356442
30
0
41
1
10
129.672284301433
20
-10.6924693173187
30
0
41
1
10
129.668580588318
20
-10.6908086792421
30
0
41
1
10
129.662889338162
20
-10.6852448409625
30
0
41
1
10
129.661014080889
20
-10.6814678902952
30
0
41
1
10
129.658822214477
20
-10.6723071679281
30
0
41
1
10
129.658524290402
20
-10.666881403986
30
0
41
1
10
129.659225270789
20
-10.6551038707846
30
0
41
1
10
129.660209095274
20
-10.6487083910857
30
0
41
1
10
129.663202171912
20
-10.6350935518382
30
0
41
1
10
129.66522734819
20
-10.6278385236555
30
0
41
1
10
129.67005909089
20
-10.6129265059847
30
0
41
1
10
129.672870057249
20
-10.6052395032213
30
0
41
1
10
129.682300945025
20
-10.5815938067947
30
0
41
1
10
129.689975000929
20
-10.5649371436643
30
0
41
1
10
129.706959526989
20
-10.5313573517678
30
0
41
1
10
129.716303949617
20
-10.5143385735792
30
0
41
1
10
129.736439359866
20
-10.4799184008543
30
0
41
1
10
129.747233572516
20
-10.4625161228639
30
0
41
1
10
129.758734122635
20
-10.4449317405882
30
0
0
SPLINE
5
15E
100
AcDbEntity
8
1
62
256
6
ByLayer
370
18
48
1
60
0
100
AcDbSpline
70
4
71
3
72
8
73
4
40
0
40
0
40
0
40
0
40
1
40
1
40
1
40
1
41
1
10
129.758734122635
20
-10.4449317405882
30
0
41
1
10
129.932549372786
20
-10.1791676012759
30
0
41
1
10
130.103319214195
20
-9.91082259539181
30
0
41
1
10
130.270632938683
20
-9.63954866357909
30
0
0
SPLINE
5
15F
100
AcDbEntity
8
1
62
256
6
ByLayer
370
18
48
1
60
0
100
AcDbSpline
70
4
71
3
72
8
73
4
40
0
40
0
40
0
40
0
40
1
40
1
40
1
40
1
41
1
10
130.270632938683
20
-9.41403332464407
30
0
41
1
10
130.100001252434
20
-9.55342564969109
30
0
41
1
10
129.929368260485
20
-9.69281584365925
30
0
41
1
10
129.758734122635
20
-9.83220416724348
30
0
0
SPLINE
5
160
100
AcDbEntity
8
1
62
256
6
ByLayer
370
18
48
1
60
0
100
AcDbSpline
70
4
71
3
72
38
73
34
40
0
40
0
40
0
40
0
40
0.0624999999999973
40
0.0624999999999973
40
0.0937499999999964
40
0.0937499999999964
40
0.124999999999996
40
0.124999999999996
40
0.187499999999994
40
0.187499999999994
40
0.249999999999992
40
0.249999999999992
40
0.28124999999999
40
0.28124999999999
40
0.312499999999988
40
0.312499999999988
40
0.374999999999989
40
0.374999999999989
40
0.43749999999999
40
0.43749999999999
40
0.49999999999999
40
0.49999999999999
40
0.562499999999991
40
0.562499999999991
40
0.624999999999992
40
0.624999999999992
40
0.687499999999992
40
0.687499999999992
40
0.749999999999993
40
0.749999999999993
40
0.874999999999996
40
0.874999999999996
40
1
40
1
40
1
40
1
41
1
10
129.758734122635
20
-9.8322041672435
30
0
41
1
10
129.75032267352
20
-9.8390753467497
30
0
41
1
10
129.741852137659
20
-9.8453802006081
30
0
41
1
10
129.729523734984
20
-9.85338911341202
30
0
41
1
10
129.725466072246
20
-9.85582694244408
30
0
41
1
10
129.71746839015
20
-9.86017442490137
30
0
41
1
10
129.713501167371
20
-9.86209510210725
30
0
41
1
10
129.702010250787
20
-9.86684326913607
30
0
41
1
10
129.694982683872
20
-9.86864568138634
30
0
41
1
10
129.682365844774
20
-9.8691377262933
30
0
41
1
10
129.677145667282
20
-9.86781217695332
30
0
41
1
10
129.670763200968
20
-9.86371964103617
30
0
41
1
10
129.668870760379
20
-9.86198518138369
30
0
41
1
10
129.665644891169
20
-9.85795590110382
30
0
41
1
10
129.664295965434
20
-9.85565771705797
30
0
41
1
10
129.660940358235
20
-9.84801835716186
30
0
41
1
10
129.659626490056
20
-9.84186738644783
30
0
41
1
10
129.658508485577
20
-9.82854779188906
30
0
41
1
10
129.658672621054
20
-9.82133490558087
30
0
41
1
10
129.660093818034
20
-9.80606756516059
30
0
41
1
10
129.661354981789
20
-9.79801004181766
30
0
41
1
10
129.664786683609
20
-9.78119097823569
30
0
41
1
10
129.666950448799
20
-9.77247993318727
30
0
41
1
10
129.671958360551
20
-9.75477637145207
30
0
41
1
10
129.674810778294
20
-9.74574776017499
30
0
41
1
10
129.68111268452
20
-9.72738640202041
30
0
41
1
10
129.684573582782
20
-9.71802639667982
30
0
41
1
10
129.691980687483
20
-9.69916411571651
30
0
41
1
10
129.695914755346
20
-9.68968912467327
30
0
41
1
10
129.708329148498
20
-9.66114781229567
30
0
41
1
10
129.717415400756
20
-9.64196622293892
30
0
41
1
10
129.737008427211
20
-9.60333717270657
30
0
41
1
10
129.747517248257
20
-9.58388930981661
30
0
41
1
10
129.758734122635
20
-9.56431316737658
30
0
0
SPLINE
5
161
100
AcDbEntity
8
1
62
256
6
ByLayer
370
18
48
1
60
0
100
AcDbSpline
70
4
71
3
72
8
73
4
40
0
40
0
40
0
40
0
40
1
40
1
40
1
40
1
41
1
10
129.758734122635
20
-9.56431316737658
30
0
41
1
10
129.934209921236
20
-9.25806571265528
30
0
41
1
10
130.105061355953
20
-8.94842227091718
30
0
41
1
10
130.270632938683
20
-8.63490147236831
30
0
0
SPLINE
5
162
100
AcDbEntity
8
1
62
256
6
ByLayer
370
18
48
1
60
0
100
AcDbSpline
70
4
71
3
72
8
73
4
40
0
40
0
40
0
40
0
40
1
40
1
40
1
40
1
41
1
10
130.270632938683
20
-8.33567024524771
30
0
41
1
10
130.100066106842
20
-8.47826816325136
30
0
41
1
10
129.929429990958
20
-8.62075545881831
30
0
41
1
10
129.758734122635
20
-8.76314735059563
30
0
0
SPLINE
5
163
100
AcDbEntity
8
1
62
256
6
ByLayer
370
18
48
1
60
0
100
AcDbSpline
70
4
71
3
72
40
73
36
40
0
40
0
40
0
40
0
40
0.0624999999999908
40
0.0624999999999908
40
0.0937499999999887
40
0.0937499999999887
40
0.124999999999987
40
0.124999999999987
40
0.156249999999985
40
0.156249999999985
40
0.187499999999982
40
0.187499999999982
40
0.21874999999998
40
0.21874999999998
40
0.249999999999978
40
0.249999999999978
40
0.281249999999976
40
0.281249999999976
40
0.312499999999974
40
0.312499999999974
40
0.374999999999976
40
0.374999999999976
40
0.437499999999979
40
0.437499999999979
40
0.499999999999981
40
0.499999999999981
40
0.562499999999983
40
0.562499999999983
40
0.624999999999985
40
0.624999999999985
40
0.74999999999999
40
0.74999999999999
40
0.874999999999995
40
0.874999999999995
40
1
40
1
40
1
40
1
41
1
10
129.758734122635
20
-8.7631473505958
30
0
41
1
10
129.74955102567
20
-8.77080775012436
30
0
41
1
10
129.740179816925
20
-8.77766188502036
30
0
41
1
10
129.726509642126
20
-8.78569476005225
30
0
41
1
10
129.722003555039
20
-8.7880106023384
30
0
41
1
10
129.713111768041
20
-8.79177825405262
30
0
41
1
10
129.708759986451
20
-8.79320553550014
30
0
41
1
10
129.700545019522
20
-8.79497731209258
30
0
41
1
10
129.696641114324
20
-8.79534061071161
30
0
41
1
10
129.689268709617
20
-8.7949450693886
30
0
41
1
10
129.685910144372
20
-8.79418990947741
30
0
41
1
10
129.679831111733
20
-8.79167179830114
30
0
41
1
10
129.677084841815
20
-8.7898902865937
30
0
41
1
10
129.672256610965
20
-8.78546396803955
30
0
41
1
10
129.670198238007
20
-8.78285647665521
30
0
41
1
10
129.666658517287
20
-8.77699926397258
30
0
41
1
10
129.665178054229
20
-8.77374857413992
30
0
41
1
10
129.662708126146
20
-8.76669839673195
30
0
41
1
10
129.661716041743
20
-8.76287754365623
30
0
41
1
10
129.659418010843
20
-8.75087868546169
30
0
41
1
10
129.658763035458
20
-8.74217475604323
30
0
41
1
10
129.658707047617
20
-8.72374966075847
30
0
41
1
10
129.659317178648
20
-8.7140723095383
30
0
41
1
10
129.661461675093
20
-8.69432656003085
30
0
41
1
10
129.662999365772
20
-8.68420493787735
30
0
41
1
10
129.666812858727
20
-8.66356345023289
30
0
41
1
10
129.669090367019
20
-8.65304271077486
30
0
41
1
10
129.674273101125
20
-8.63166003145375
30
0
41
1
10
129.677188877988
20
-8.62076797813464
30
0
41
1
10
129.686642993062
20
-8.58806553362339
30
0
41
1
10
129.69390186322
20
-8.56610973020469
30
0
41
1
10
129.709937164695
20
-8.52195058083538
30
0
41
1
10
129.718719231559
20
-8.49974642113418
30
0
41
1
10
129.73767456398
20
-8.45511415821028
30
0
41
1
10
129.747848746855
20
-8.43268588851524
30
0
41
1
10
129.758734122635
20
-8.41014706540616
30
0
0
SPLINE
5
164
100
AcDbEntity
8
1
62
256
6
ByLayer
370
18
48
1
60
0
100
AcDbSpline
70
4
71
3
72
8
73
4
40
0
40
0
40
0
40
0
40
1
40
1
40
1
40
1
41
1
10
129.758734122635
20
-8.41014706540616
30
0
41
1
10
129.937437517405
20
-8.04013097360189
30
0
41
1
10
130.108454874903
20
-7.66545074270198
30
0
41
1
10
130.270632938683
20
-7.2854065389316
30
0
0
SPLINE
5
165
100
AcDbEntity
8
1
62
256
6
ByLayer
370
18
48
1
60
0
100
AcDbSpline
70
4
71
3
72
8
73
4
40
0
40
0
40
0
40
0
40
1
40
1
40
1
40
1
41
1
10
130.270632938683
20
-6.87151900510409
30
0
41
1
10
130.100399091883
20
-7.02628435066748
30
0
41
1
10
129.929742685744
20
-7.18042614624622
30
0
41
1
10
129.758734122635
20
-7.33404828114337
30
0
0
SPLINE
5
166
100
AcDbEntity
8
1
62
256
6
ByLayer
370
18
48
1
60
0
100
AcDbSpline
70
4
71
3
72
41
73
37
40
0
40
0
40
0
40
0
40
0.0312500000000122
40
0.0312500000000122
40
0.0625000000000243
40
0.0625000000000243
40
0.0781250000000325
40
0.0781250000000325
40
0.0937500000000407
40
0.0937500000000407
40
0.125000000000052
40
0.125000000000052
40
0.140625000000054
40
0.140625000000054
40
0.156250000000057
40
0.156250000000057
40
0.187500000000055
40
0.187500000000055
40
0.218750000000053
40
0.218750000000053
40
0.250000000000052
40
0.250000000000052
40
0.312500000000048
40
0.312500000000048
40
0.375000000000045
40
0.375000000000045
40
0.437500000000042
40
0.437500000000042
40
0.500000000000039
40
0.500000000000039
40
0.625000000000029
40
0.625000000000029
40
0.750000000000019
40
0.750000000000019
40
0.87500000000001
40
1
40
1
40
1
40
1
41
1
10
129.758734122636
20
-7.33404828115073
30
0
41
1
10
129.75354573312
20
-7.33870916748083
30
0
41
1
10
129.748291834334
20
-7.3430169665267
30
0
41
1
10
129.737613720618
20
-7.35071102164946
30
0
41
1
10
129.732128650566
20
-7.35412413884765
30
0
41
1
10
129.724060605961
20
-7.35811886137611
30
0
41
1
10
129.721392141705
20
-7.35926923389033
30
0
41
1
10
129.716101429697
20
-7.36116811974679
30
0
41
1
10
129.713459799592
20
-7.36191946654719
30
0
41
1
10
129.705793317309
20
-7.36346422601835
30
0
41
1
10
129.701016526156
20
-7.3635692221377
30
0
41
1
10
129.694352910233
20
-7.36233296978466
30
0
41
1
10
129.692203733453
20
-7.36168001306055
30
0
41
1
10
129.688189667725
20
-7.35996080255717
30
0
41
1
10
129.686310532342
20
-7.35889511179408
30
0
41
1
10
129.681016460889
20
-7.35514355576603
30
0
41
1
10
129.67791987478
20
-7.35186654476482
30
0
41
1
10
129.672629520675
20
-7.34430183297562
30
0
41
1
10
129.670422832536
20
-7.34002866736739
30
0
41
1
10
129.666674605041
20
-7.33073356362093
30
0
41
1
10
129.665135493697
20
-7.32569550191965
30
0
41
1
10
129.661390100064
20
-7.31001631337153
30
0
41
1
10
129.659986795302
20
-7.29871671656102
30
0
41
1
10
129.658575655378
20
-7.27502141760093
30
0
41
1
10
129.658588469357
20
-7.26261993010448
30
0
41
1
10
129.659626987903
20
-7.23741829777268
30
0
41
1
10
129.660653530178
20
-7.22455414745068
30
0
41
1
10
129.663482107338
20
-7.19841680054782
30
0
41
1
10
129.665293749499
20
-7.18510377686616
30
0
41
1
10
129.671610372725
20
-7.1451155946919
30
0
41
1
10
129.676985707142
20
-7.11828088181275
30
0
41
1
10
129.689390465432
20
-7.0643480710107
30
0
41
1
10
129.696431681371
20
-7.03724848120694
30
0
41
1
10
129.711910634694
20
-6.98282201251007
30
0
41
1
10
129.728792466828
20
-6.92816742290464
30
0
41
1
10
129.748298460166
20
-6.87308774615511
30
0
41
1
10
129.758734122635
20
-6.84544088864013
30
0
0
SPLINE
5
167
100
AcDbEntity
8
1
62
256
6
ByLayer
370
18
48
1
60
0
100
AcDbSpline
70
4
71
3
72
8
73
4
40
0
40
0
40
0
40
0
40
1
40
1
40
1
40
1
41
1
10
129.758734122635
20
-6.84544088864013
30
0
41
1
10
129.945893950891
20
-6.34960450836789
30
0
41
1
10
130.117364270591
20
-5.84667605651342
30
0
41
1
10
130.270632938683
20
-5.33551997817506
30
0
0
SPLINE
5
168
100
AcDbEntity
8
1
62
256
6
ByLayer
370
18
48
1
60
0
100
AcDbSpline
70
4
71
3
72
8
73
4
40
0
40
0
40
0
40
0
40
1
40
1
40
1
40
1
41
1
10
130.270632938683
20
-4.6719533856305
30
0
41
1
10
130.102587965027
20
-4.87069741144475
30
0
41
1
10
129.931733854565
20
-5.06617628594717
30
0
41
1
10
129.758734122635
20
-5.25916123464876
30
0
0
SPLINE
5
169
100
AcDbEntity
8
1
62
256
6
ByLayer
370
18
48
1
60
0
100
AcDbSpline
70
4
71
3
72
42
73
38
40
0
40
0
40
0
40
0
40
0.0312499999999954
40
0.0312499999999954
40
0.0468749999999946
40
0.0468749999999946
40
0.0624999999999937
40
0.0624999999999937
40
0.0781249999999928
40
0.0781249999999928
40
0.093749999999992
40
0.093749999999992
40
0.109374999999991
40
0.109374999999991
40
0.12499999999999
40
0.12499999999999
40
0.140624999999989
40
0.140624999999989
40
0.156249999999989
40
0.156249999999989
40
0.18749999999999
40
0.18749999999999
40
0.218749999999991
40
0.218749999999991
40
0.249999999999993
40
0.249999999999993
40
0.312499999999994
40
0.312499999999994
40
0.374999999999994
40
0.374999999999994
40
0.499999999999996
40
0.499999999999996
40
0.624999999999998
40
0.624999999999998
40
0.75
40
0.75
40
1
40
1
40
1
40
1
41
1
10
129.758734122635
20
-5.25916123464879
30
0
41
1
10
129.752069075474
20
-5.26659623914284
30
0
41
1
10
129.745101906879
20
-5.27332129728811
30
0
41
1
10
129.734100079711
20
-5.28136503525616
30
0
41
1
10
129.730307612617
20
-5.28370954578787
30
0
41
1
10
129.722769824383
20
-5.28729910224143
30
0
41
1
10
129.718939761969
20
-5.28857725926295
30
0
41
1
10
129.711557701439
20
-5.28978184963157
30
0
41
1
10
129.708022602105
20
-5.28972460263861
30
0
41
1
10
129.701264621051
20
-5.28828561222287
30
0
41
1
10
129.698102011422
20
-5.28690114980088
30
0
41
1
10
129.692373996126
20
-5.28313081288351
30
0
41
1
10
129.689744975681
20
-5.2807083987413
30
0
41
1
10
129.685031143469
20
-5.27518656367204
30
0
41
1
10
129.682935276291
20
-5.27209278626324
30
0
41
1
10
129.679133135453
20
-5.26540645253189
30
0
41
1
10
129.677419794604
20
-5.26178976792613
30
0
41
1
10
129.674356963746
20
-5.25430156163284
30
0
41
1
10
129.673001935853
20
-5.25042640391612
30
0
41
1
10
129.669336327497
20
-5.23850259152496
30
0
41
1
10
129.667418851826
20
-5.2301602577929
30
0
41
1
10
129.664268453776
20
-5.21295818750784
30
0
41
1
10
129.663041067329
20
-5.20409439929813
30
0
41
1
10
129.661092540228
20
-5.18597951452887
30
0
41
1
10
129.660372617231
20
-5.17669872800056
30
0
41
1
10
129.658823107824
20
-5.14875112760041
30
0
41
1
10
129.658575310853
20
-5.12988842211882
30
0
41
1
10
129.65906213499
20
-5.09186155254622
30
0
41
1
10
129.659807130066
20
-5.07269456262796
30
0
41
1
10
129.663122980734
20
-5.01484876537737
30
0
41
1
10
129.666756176362
20
-4.9758301964161
30
0
41
1
10
129.67583732857
20
-4.89716571869891
30
0
41
1
10
129.68130551931
20
-4.8575142880733
30
0
41
1
10
129.693647905041
20
-4.77769626248826
30
0
41
1
10
129.700510812078
20
-4.7376427748743
30
0
41
1
10
129.722744005403
20
-4.61752521258924
30
0
41
1
10
129.739744466764
20
-4.5373100687589
30
0
41
1
10
129.758734122635
20
-4.45696626170442
30
0
0
SPLINE
5
16A
100
AcDbEntity
8
1
62
256
6
ByLayer
370
18
48
1
60
0
100
AcDbSpline
70
4
71
3
72
10
73
6
40
0
40
0
40
0
40
0
40
0.5
40
0.5
40
1
40
1
40
1
40
1
41
1
10
129.758734122635
20
-4.45696626170442
30
0
41
1
10
129.898147744266
20
-3.8671177045112
30
0
41
1
10
130.012047331745
20
-3.27243584092787
30
0
41
1
10
130.184167288569
20
-2.07252440032542
30
0
41
1
10
130.242377543246
20
-1.46729290721265
30
0
41
1
10
130.270632938683
20
-0.856386850378243
30
0
0
SPLINE
5
16B
100
AcDbEntity
8
1
62
256
6
ByLayer
370
18
48
1
60
0
100
AcDbSpline
70
4
71
3
72
10
73
6
40
0
40
0
40
0
40
0
40
0.5
40
0.5
40
1
40
1
40
1
40
1
41
1
10
130.270632938683
20
0.856386850377277
30
0
41
1
10
130.242377543246
20
1.46729290721169
30
0
41
1
10
130.184167288569
20
2.07252440032445
30
0
41
1
10
130.012047331745
20
3.2724358409269
30
0
41
1
10
129.898147744266
20
3.86711770451024
30
0
41
1
10
129.758734122635
20
4.45696626170346
30
0
0
SPLINE
5
16C
100
AcDbEntity
8
1
62
256
6
ByLayer
370
18
48
1
60
0
100
AcDbSpline
70
4
71
3
72
40
73
36
40
0
40
0
40
0
40
0
40
0.250000000000004
40
0.250000000000004
40
0.375000000000006
40
0.375000000000006
40
0.500000000000008
40
0.500000000000008
40
0.625000000000009
40
0.625000000000009
40
0.687500000000011
40
0.687500000000011
40
0.750000000000012
40
0.750000000000012
40
0.812500000000014
40
0.812500000000014
40
0.843750000000014
40
0.843750000000014
40
0.859375000000013
40
0.859375000000013
40
0.875000000000012
40
0.875000000000012
40
0.890625000000011
40
0.890625000000011
40
0.90625000000001
40
0.90625000000001
40
0.921875000000009
40
0.921875000000009
40
0.937500000000008
40
0.937500000000008
40
0.953125000000007
40
0.953125000000007
40
0.968750000000006
40
0.968750000000006
40
1
40
1
40
1
40
1
41
1
10
129.758734122635
20
4.45696626170346
30
0
41
1
10
129.739724979356
20
4.53739251851388
30
0
41
1
10
129.722756786905
20
4.61749203050499
30
0
41
1
10
129.700604178894
20
4.7371205343064
30
0
41
1
10
129.693781046613
20
4.77690905139332
30
0
41
1
10
129.681483599868
20
4.8562906773054
30
0
41
1
10
129.676002998912
20
4.89588430455683
30
0
41
1
10
129.666853633279
20
4.97483666794699
30
0
41
1
10
129.663160102544
20
5.01420874189859
30
0
41
1
10
129.659790043443
20
5.07298885764865
30
0
41
1
10
129.659044022409
20
5.09238487408567
30
0
41
1
10
129.658577265751
20
5.13065781453693
30
0
41
1
10
129.658847865357
20
5.14953872858672
30
0
41
1
10
129.660937876721
20
5.18654060972918
30
0
41
1
10
129.662723545518
20
5.20471541808232
30
0
41
1
10
129.667560205474
20
5.23083087934737
30
0
41
1
10
129.669520550861
20
5.23922628915324
30
0
41
1
10
129.67324105594
20
5.25113328144784
30
0
41
1
10
129.674612681161
20
5.25498666896641
30
0
41
1
10
129.677696630913
20
5.26239531194668
30
0
41
1
10
129.679421060064
20
5.26597176437707
30
0
41
1
10
129.683256931107
20
5.27258924597103
30
0
41
1
10
129.685365491033
20
5.27563482658681
30
0
41
1
10
129.690082580423
20
5.28103856098429
30
0
41
1
10
129.692724613442
20
5.28341731087949
30
0
41
1
10
129.698501283449
20
5.28710049608844
30
0
41
1
10
129.701636987294
20
5.28841660106102
30
0
41
1
10
129.708447696891
20
5.28975697578264
30
0
41
1
10
129.711989241671
20
5.28975575703922
30
0
41
1
10
129.719334892004
20
5.28846316307315
30
0
41
1
10
129.723159610302
20
5.28714587722536
30
0
41
1
10
129.730652037781
20
5.28350979173266
30
0
41
1
10
129.734399775157
20
5.28116735081068
30
0
41
1
10
129.745382961749
20
5.2730702615867
30
0
41
1
10
129.752198654715
20
5.26645169069204
30
0
41
1
10
129.758734122635
20
5.25916123464779
30
0
0
SPLINE
5
16D
100
AcDbEntity
8
1
62
256
6
ByLayer
370
18
48
1
60
0
100
AcDbSpline
70
4
71
3
72
8
73
4
40
0
40
0
40
0
40
0
40
1
40
1
40
1
40
1
41
1
10
129.758734122635
20
5.25916123464779
30
0
41
1
10
129.931733854562
20
5.06617628594975
30
0
41
1
10
130.10258796502
20
4.870697411451
30
0
41
1
10
130.270632938673
20
4.67195338564053
30
0
0
SPLINE
5
16E
100
AcDbEntity
8
1
62
256
6
ByLayer
370
18
48
1
60
0
100
AcDbSpline
70
4
71
3
72
8
73
4
40
0
40
0
40
0
40
0
40
1
40
1
40
1
40
1
41
1
10
130.270632938683
20
5.33551997817409
30
0
41
1
10
130.117364270591
20
5.84667605651242
30
0
41
1
10
129.945893950891
20
6.34960450836689
30
0
41
1
10
129.758734122635
20
6.84544088863916
30
0
0
SPLINE
5
16F
100
AcDbEntity
8
1
62
256
6
ByLayer
370
18
48
1
60
0
100
AcDbSpline
70
4
71
3
72
39
73
35
40
0
40
0
40
0
40
0
40
0.124999999999997
40
0.249999999999994
40
0.249999999999994
40
0.37499999999999
40
0.37499999999999
40
0.43749999999999
40
0.43749999999999
40
0.49999999999999
40
0.49999999999999
40
0.624999999999989
40
0.624999999999989
40
0.687499999999989
40
0.687499999999989
40
0.749999999999988
40
0.749999999999988
40
0.812499999999987
40
0.812499999999987
40
0.828124999999985
40
0.828124999999985
40
0.843749999999982
40
0.843749999999982
40
0.874999999999982
40
0.874999999999982
40
0.906249999999982
40
0.906249999999982
40
0.921874999999985
40
0.921874999999985
40
0.937499999999989
40
0.937499999999989
40
0.968749999999994
40
0.968749999999994
40
1
40
1
40
1
40
1
41
1
10
129.758734122635
20
6.84544088863916
30
0
41
1
10
129.748302044971
20
6.87307824904696
30
0
41
1
10
129.728787975596
20
6.92817671674706
30
0
41
1
10
129.711879577882
20
6.98292169685791
30
0
41
1
10
129.696369651229
20
7.03747616270667
30
0
41
1
10
129.689310699334
20
7.06465846573508
30
0
41
1
10
129.679983748048
20
7.10526476975537
30
0
41
1
10
129.677086686431
20
7.11877217876358
30
0
41
1
10
129.671784825216
20
7.14572358240429
30
0
41
1
10
129.669373866855
20
7.15920729345038
30
0
41
1
10
129.663098166382
20
7.19914252302422
30
0
41
1
10
129.660124351109
20
7.22514511408352
30
0
41
1
10
129.658589614249
20
7.26269498051337
30
0
41
1
10
129.658574062642
20
7.27500087138591
30
0
41
1
10
129.659989417829
20
7.2987545499127
30
0
41
1
10
129.661398577938
20
7.31004777792762
30
0
41
1
10
129.666370064304
20
7.33086775586804
30
0
41
1
10
129.669989029982
20
7.34050562766464
30
0
41
1
10
129.676550936477
20
7.34991414051999
30
0
41
1
10
129.677968258135
20
7.35166805105146
30
0
41
1
10
129.681046497729
20
7.35487999152508
30
0
41
1
10
129.682718055906
20
7.35634392090068
30
0
41
1
10
129.688042836662
20
7.36013332509242
30
0
41
1
10
129.692018305535
20
7.36188855139807
30
0
41
1
10
129.700981309374
20
7.3635737990443
30
0
41
1
10
129.705799920485
20
7.36346226918957
30
0
41
1
10
129.713448112511
20
7.36192213408219
30
0
41
1
10
129.71609120594
20
7.36117136745531
30
0
41
1
10
129.721385071832
20
7.35927219164995
30
0
41
1
10
129.72404294144
20
7.35812593184787
30
0
41
1
10
129.732045511751
20
7.35416861784259
30
0
41
1
10
129.737421083121
20
7.35084110273667
30
0
41
1
10
129.748226351009
20
7.34307266705738
30
0
41
1
10
129.753520843735
20
7.33873152635661
30
0
41
1
10
129.758734122635
20
7.33404828114388
30
0
0
SPLINE
5
170
100
AcDbEntity
8
1
62
256
6
ByLayer
370
18
48
1
60
0
100
AcDbSpline
70
4
71
3
72
8
73
4
40
0
40
0
40
0
40
0
40
1
40
1
40
1
40
1
41
1
10
129.758734122635
20
7.3340482811424
30
0
41
1
10
129.929742685744
20
7.18042614624525
30
0
41
1
10
130.100399091883
20
7.02628435066651
30
0
41
1
10
130.270632938683
20
6.87151900510312
30
0
0
SPLINE
5
171
100
AcDbEntity
8
1
62
256
6
ByLayer
370
18
48
1
60
0
100
AcDbSpline
70
4
71
3
72
8
73
4
40
0
40
0
40
0
40
0
40
1
40
1
40
1
40
1
41
1
10
130.270632938683
20
7.28540653893063
30
0
41
1
10
130.108454874903
20
7.66545074270101
30
0
41
1
10
129.937437517405
20
8.04013097360092
30
0
41
1
10
129.758734122635
20
8.4101470654052
30
0
0
SPLINE
5
172
100
AcDbEntity
8
1
62
256
6
ByLayer
370
18
48
1
60
0
100
AcDbSpline
70
4
71
3
72
36
73
32
40
0
40
0
40
0
40
0
40
0.125000000000009
40
0.125000000000009
40
0.250000000000018
40
0.250000000000018
40
0.375000000000028
40
0.375000000000028
40
0.500000000000037
40
0.500000000000037
40
0.562500000000041
40
0.562500000000041
40
0.625000000000045
40
0.625000000000045
40
0.656250000000044
40
0.656250000000044
40
0.687500000000043
40
0.687500000000043
40
0.750000000000035
40
0.750000000000035
40
0.781250000000032
40
0.781250000000032
40
0.812500000000028
40
0.812500000000028
40
0.875000000000019
40
0.875000000000019
40
0.937500000000009
40
0.937500000000009
40
0.968750000000005
40
0.968750000000005
40
1
40
1
40
1
40
1
41
1
10
129.758734122635
20
8.4101470654052
30
0
41
1
10
129.747834257419
20
8.43271588976066
30
0
41
1
10
129.737613753096
20
8.45524365753252
30
0
41
1
10
129.718528113819
20
8.50021029523643
30
0
41
1
10
129.70964408615
20
8.52269795699942
30
0
41
1
10
129.693471258251
20
8.56735801343876
30
0
41
1
10
129.686236893093
20
8.58936391191023
30
0
41
1
10
129.673798374839
20
8.63260795823146
30
0
41
1
10
129.668577720178
20
8.65385190046663
30
0
41
1
10
129.662881987845
20
8.6849236557039
30
0
41
1
10
129.661348265644
20
8.69515539543514
30
0
41
1
10
129.659256189097
20
8.71486775051736
30
0
41
1
10
129.658684812272
20
8.72439738542829
30
0
41
1
10
129.658763722127
20
8.73805402138743
30
0
41
1
10
129.658947235658
20
8.74249912861828
30
0
41
1
10
129.65969055669
20
8.75113425992672
30
0
41
1
10
129.660254110059
20
8.7553343874481
30
0
41
1
10
129.662588411509
20
8.76723704139911
30
0
41
1
10
129.664984012305
20
8.77433475387937
30
0
41
1
10
129.67041750448
20
8.78316210956876
30
0
41
1
10
129.672534567252
20
8.78577179903544
30
0
41
1
10
129.677374673006
20
8.7900963430701
30
0
41
1
10
129.680115913173
20
8.79183464093322
30
0
41
1
10
129.689394147334
20
8.79553553658454
30
0
41
1
10
129.696632077063
20
8.79586676577446
30
0
41
1
10
129.713262869564
20
8.79218719903858
30
0
41
1
10
129.722078680689
20
8.78831043086984
30
0
41
1
10
129.735744904882
20
8.78026183480867
30
0
41
1
10
129.740396771326
20
8.77718384899421
30
0
41
1
10
129.749593831767
20
8.77053825409442
30
0
41
1
10
129.754172365918
20
8.76695269852243
30
0
41
1
10
129.758734122635
20
8.76314735059538
30
0
0
SPLINE
5
173
100
AcDbEntity
8
1
62
256
6
ByLayer
370
18
48
1
60
0
100
AcDbSpline
70
4
71
3
72
8
73
4
40
0
40
0
40
0
40
0
40
1
40
1
40
1
40
1
41
1
10
129.758734122635
20
8.76314735059466
30
0
41
1
10
129.929429990958
20
8.62075545881731
30
0
41
1
10
130.100066106842
20
8.47826816325036
30
0
41
1
10
130.270632938683
20
8.33567024524675
30
0
0
SPLINE
5
174
100
AcDbEntity
8
1
62
256
6
ByLayer
370
18
48
1
60
0
100
AcDbSpline
70
4
71
3
72
8
73
4
40
0
40
0
40
0
40
0
40
1
40
1
40
1
40
1
41
1
10
130.270632938683
20
8.63490147236735
30
0
41
1
10
130.105061355953
20
8.94842227091621
30
0
41
1
10
129.934209921236
20
9.25806571265431
30
0
41
1
10
129.758734122635
20
9.56431316737562
30
0
0
SPLINE
5
175
100
AcDbEntity
8
1
62
256
6
ByLayer
370
18
48
1
60
0
100
AcDbSpline
70
4
71
3
72
39
73
35
40
0
40
0
40
0
40
0
40
0.124999999999985
40
0.124999999999985
40
0.249999999999971
40
0.249999999999971
40
0.374999999999956
40
0.374999999999956
40
0.437499999999954
40
0.437499999999954
40
0.499999999999951
40
0.499999999999951
40
0.562499999999949
40
0.562499999999949
40
0.59374999999995
40
0.59374999999995
40
0.624999999999952
40
0.624999999999952
40
0.687499999999965
40
0.687499999999965
40
0.718749999999969
40
0.718749999999969
40
0.749999999999973
40
0.749999999999973
40
0.781249999999977
40
0.781249999999977
40
0.812499999999981
40
0.843749999999986
40
0.843749999999986
40
0.87499999999999
40
0.87499999999999
40
0.937499999999995
40
0.937499999999995
40
1
40
1
40
1
40
1
41
1
10
129.758734122635
20
9.56431316737562
30
0
41
1
10
129.747499553703
20
9.58392019106668
30
0
41
1
10
129.7369395577
20
9.60346065871738
30
0
41
1
10
129.717203197683
20
9.64239706787762
30
0
41
1
10
129.70798905873
20
9.66188360989082
30
0
41
1
10
129.691444912578
20
9.70001350982471
30
0
41
1
10
129.684080271399
20
9.71870271251629
30
0
41
1
10
129.674716884952
20
9.74604052329514
30
0
41
1
10
129.671878992953
20
9.75503609108523
30
0
41
1
10
129.66688052574
20
9.77274860493006
30
0
41
1
10
129.66472153999
20
9.78147448985212
30
0
41
1
10
129.661321432364
20
9.79821128353726
30
0
41
1
10
129.660064736939
20
9.80626736482219
30
0
41
1
10
129.659009942476
20
9.81777012391154
30
0
41
1
10
129.658797582934
20
9.82150689473002
30
0
41
1
10
129.658694910556
20
9.82875573657148
30
0
41
1
10
129.658806595479
20
9.83228186837613
30
0
41
1
10
129.659696266931
20
9.84229776122024
30
0
41
1
10
129.661012844052
20
9.84826970483795
30
0
41
1
10
129.664403527635
20
9.85585660867994
30
0
41
1
10
129.665784751951
20
9.85816797821411
30
0
41
1
10
129.669040618297
20
9.86215620815
30
0
41
1
10
129.670911694134
20
9.86383893883405
30
0
41
1
10
129.67518363703
20
9.86652816878134
30
0
41
1
10
129.677605049544
20
9.86753898908
30
0
41
1
10
129.682942251029
20
9.86878592336802
30
0
41
1
10
129.688711883578
20
9.86925748225246
30
0
41
1
10
129.695323777225
20
9.86822399075575
30
0
41
1
10
129.702355577916
20
9.86644241836055
30
0
41
1
10
129.706086858223
20
9.86516875873855
30
0
41
1
10
129.717482581822
20
9.86042909546174
30
0
41
1
10
129.725513317422
20
9.85600444379565
30
0
41
1
10
129.742065255839
20
9.84523152248283
30
0
41
1
10
129.750383609991
20
9.83902556871104
30
0
41
1
10
129.758734122635
20
9.83220416724288
30
0
0
SPLINE
5
176
100
AcDbEntity
8
1
62
256
6
ByLayer
370
18
48
1
60
0
100
AcDbSpline
70
4
71
3
72
8
73
4
40
0
40
0
40
0
40
0
40
1
40
1
40
1
40
1
41
1
10
129.758734122635
20
9.83220416724251
30
0
41
1
10
129.929368260485
20
9.69281584365828
30
0
41
1
10
130.100001252434
20
9.55342564969013
30
0
41
1
10
130.270632938683
20
9.4140333246431
30
0
0
SPLINE
5
177
100
AcDbEntity
8
1
62
256
6
ByLayer
370
18
48
1
60
0
100
AcDbSpline
70
4
71
3
72
8
73
4
40
0
40
0
40
0
40
0
40
1
40
1
40
1
40
1
41
1
10
130.270632938683
20
9.63954866357813
30
0
41
1
10
130.103319214195
20
9.91082259539084
30
0
41
1
10
129.932549372786
20
10.179167601275
30
0
41
1
10
129.758734122635
20
10.4449317405872
30
0
0
SPLINE
5
178
100
AcDbEntity
8
1
62
256
6
ByLayer
370
18
48
1
60
0
100
AcDbSpline
70
4
71
3
72
37
73
33
40
0
40
0
40
0
40
0
40
0.124999999999993
40
0.124999999999993
40
0.249999999999986
40
0.249999999999986
40
0.374999999999978
40
0.374999999999978
40
0.437499999999969
40
0.437499999999969
40
0.49999999999996
40
0.531249999999961
40
0.531249999999961
40
0.562499999999962
40
0.562499999999962
40
0.624999999999963
40
0.624999999999963
40
0.687499999999964
40
0.687499999999964
40
0.718749999999967
40
0.718749999999967
40
0.74999999999997
40
0.74999999999997
40
0.812499999999976
40
0.812499999999976
40
0.843749999999979
40
0.843749999999979
40
0.874999999999982
40
0.874999999999982
40
0.937499999999991
40
0.937499999999991
40
1
40
1
40
1
40
1
41
1
10
129.758734122635
20
10.4449317405872
30
0
41
1
10
129.747204542067
20
10.4625605105226
30
0
41
1
10
129.736323609345
20
10.4800993961941
30
0
41
1
10
129.715940561046
20
10.5149770363769
30
0
41
1
10
129.706534936453
20
10.532154882825
30
0
41
1
10
129.689660399989
20
10.56560292779
30
0
41
1
10
129.682153872258
20
10.5819239757704
30
0
41
1
10
129.672730481016
20
10.6056094082226
30
0
41
1
10
129.669909919798
20
10.6133536261999
30
0
41
1
10
129.665127991849
20
10.6281801923827
30
0
41
1
10
129.662159347096
20
10.6388644973885
30
0
41
1
10
129.660310443954
20
10.6487618441437
30
0
41
1
10
129.659361767618
20
10.6551609922417
30
0
41
1
10
129.65902884456
20
10.6582733065495
30
0
41
1
10
129.658525984658
20
10.6671306864174
30
0
41
1
10
129.658837250189
20
10.6724297935738
30
0
41
1
10
129.661047690877
20
10.6815472381314
30
0
41
1
10
129.662987827902
20
10.6853775669683
30
0
41
1
10
129.66723061921
20
10.6894699114966
30
0
41
1
10
129.668867345992
20
10.6905719899886
30
0
41
1
10
129.672620338758
20
10.6922128440037
30
0
41
1
10
129.674751889224
20
10.6927485516785
30
0
41
1
10
129.68169429036
20
10.6934295456913
30
0
41
1
10
129.687093253593
20
10.6926904870264
30
0
41
1
10
129.69630976834
20
10.6898609767722
30
0
41
1
10
129.699579691798
20
10.688621330379
30
0
41
1
10
129.706280322461
20
10.6856694251162
30
0
41
1
10
129.70973426487
20
10.6839515201792
30
0
41
1
10
129.720377824009
20
10.6781421233292
30
0
41
1
10
129.727924118606
20
10.6733413696872
30
0
41
1
10
129.743190224085
20
10.6625766852128
30
0
41
1
10
129.750922124614
20
10.6566191322031
30
0
41
1
10
129.758734122635
20
10.6501984058726
30
0
0
SPLINE
5
179
100
AcDbEntity
8
1
62
256
6
ByLayer
370
18
48
1
60
0
100
AcDbSpline
70
4
71
3
72
8
73
4
40
0
40
0
40
0
40
0
40
1
40
1
40
1
40
1
41
1
10
129.758734122635
20
10.6501984058724
30
0
41
1
10
129.929382543448
20
10.5099414823667
30
0
41
1
10
130.100016119041
20
10.3696604723131
30
0
41
1
10
130.270632938683
20
10.2293522980436
30
0
0
SPLINE
5
17A
100
AcDbEntity
8
1
62
256
6
ByLayer
370
18
48
1
60
0
100
AcDbSpline
70
4
71
3
72
8
73
4
40
0
40
0
40
0
40
0
40
1
40
1
40
1
40
1
41
1
10
130.270632938683
20
10.3997727589352
30
0
41
1
10
130.102284869253
20
10.6410885475327
30
0
41
1
10
129.93156135044
20
10.8801444259147
30
0
41
1
10
129.758734122635
20
11.117198917327
30
0
0
SPLINE
5
17B
100
AcDbEntity
8
1
62
256
6
ByLayer
370
18
48
1
60
0
100
AcDbSpline
70
4
71
3
72
41
73
37
40
0
40
0
40
0
40
0
40
0.0624999999999988
40
0.0624999999999988
40
0.124999999999998
40
0.124999999999998
40
0.250000000000003
40
0.250000000000003
40
0.312500000000003
40
0.312500000000003
40
0.375000000000004
40
0.375000000000004
40
0.437500000000004
40
0.437500000000004
40
0.500000000000004
40
0.500000000000004
40
0.562500000000004
40
0.562500000000004
40
0.593750000000005
40
0.593750000000005
40
0.625000000000005
40
0.625000000000005
40
0.687500000000004
40
0.687500000000004
40
0.718750000000003
40
0.718750000000003
40
0.750000000000002
40
0.781250000000001
40
0.781250000000001
40
0.8125
40
0.8125
40
0.875
40
0.875
40
0.9375
40
0.9375
40
1
40
1
40
1
40
1
41
1
10
129.758734122635
20
11.117198917327
30
0
41
1
10
129.752830746876
20
11.1252961468885
30
0
41
1
10
129.747083006416
20
11.1333609251267
30
0
41
1
10
129.735908766561
20
11.1494222073559
30
0
41
1
10
129.730471201581
20
11.1574361269071
30
0
41
1
10
129.714821766785
20
11.1811370861592
30
0
41
1
10
129.705222106523
20
11.1965432553108
30
0
41
1
10
129.692275650242
20
11.2189571154946
30
0
41
1
10
129.688204456969
20
11.2263115125374
30
0
41
1
10
129.680625334168
20
11.2407500276417
30
0
41
1
10
129.677113802715
20
11.2478474218529
30
0
41
1
10
129.670905880848
20
11.2614051579821
30
0
41
1
10
129.668187467022
20
11.2679042249177
30
0
41
1
10
129.663653435995
20
11.2802477310751
30
0
41
1
10
129.661831279087
20
11.2861127402726
30
0
41
1
10
129.659338603372
20
11.2969419888905
30
0
41
1
10
129.658688747692
20
11.3018073999541
30
0
41
1
10
129.658760475307
20
11.3081448057309
30
0
41
1
10
129.658959698262
20
11.3100963490133
30
0
41
1
10
129.659749476313
20
11.3136408847309
30
0
41
1
10
129.660344437117
20
11.3152341477481
30
0
41
1
10
129.662724462981
20
11.3193145938579
30
0
41
1
10
129.665104482458
20
11.3211531842116
30
0
41
1
10
129.670003034479
20
11.3224410320303
30
0
41
1
10
129.671848301491
20
11.3226168767812
30
0
41
1
10
129.675877349773
20
11.3224681956066
30
0
41
1
10
129.680264782878
20
11.3218252585012
30
0
41
1
10
129.68534713588
20
11.3202263789211
30
0
41
1
10
129.690772732254
20
11.3181565072861
30
0
41
1
10
129.693672796102
20
11.3168766912906
30
0
41
1
10
129.702643719581
20
11.3124599441961
30
0
41
1
10
129.709041052334
20
11.3087349124171
30
0
41
1
10
129.722541344339
20
11.2999709611031
30
0
41
1
10
129.729658407413
20
11.294912528945
30
0
41
1
10
129.744016257533
20
11.2840236847975
30
0
41
1
10
129.751321619363
20
11.2781523899216
30
0
41
1
10
129.758734122635
20
11.2719214592082
30
0
0
SPLINE
5
17C
100
AcDbEntity
8
1
62
256
6
ByLayer
370
18
48
1
60
0
100
AcDbSpline
70
4
71
3
72
8
73
4
40
0
40
0
40
0
40
0
40
1
40
1
40
1
40
1
41
1
10
129.758734122635
20
11.271921459208
30
0
41
1
10
129.929433405084
20
11.12843209228
30
0
41
1
10
130.10006892534
20
10.9848417007624
30
0
41
1
10
130.270632938683
20
10.841138013949
30
0
0
SPLINE
5
17D
100
AcDbEntity
8
1
62
256
6
ByLayer
370
18
48
1
60
0
100
AcDbSpline
70
4
71
3
72
8
73
4
40
0
40
0
40
0
40
0
40
1
40
1
40
1
40
1
41
1
10
130.270632938683
20
10.9665239906494
30
0
41
1
10
130.101614783347
20
11.1851566447026
30
0
41
1
10
129.930919950783
20
11.402030918063
30
0
41
1
10
129.758734122635
20
11.6173415405294
30
0
0
SPLINE
5
17E
100
AcDbEntity
8
1
62
256
6
ByLayer
370
18
48
1
60
0
100
AcDbSpline
70
4
71
3
72
38
73
34
40
0
40
0
40
0
40
0
40
0.0625000000000031
40
0.0625000000000031
40
0.125000000000006
40
0.125000000000006
40
0.250000000000012
40
0.250000000000012
40
0.312500000000012
40
0.312500000000012
40
0.375000000000012
40
0.375000000000012
40
0.437500000000012
40
0.437500000000012
40
0.500000000000012
40
0.500000000000012
40
0.562500000000012
40
0.562500000000012
40
0.625000000000012
40
0.625000000000012
40
0.687500000000011
40
0.687500000000011
40
0.750000000000011
40
0.750000000000011
40
0.78125000000001
40
0.78125000000001
40
0.812500000000009
40
0.812500000000009
40
0.875000000000006
40
0.875000000000006
40
0.937500000000003
40
0.937500000000003
40
1
40
1
40
1
40
1
41
1
10
129.758734122635
20
11.6173415405294
30
0
41
1
10
129.752698146757
20
11.6248892564901
30
0
41
1
10
129.746813603625
20
11.6323850346634
30
0
41
1
10
129.735361096968
20
11.6472665361488
30
0
41
1
10
129.729777024875
20
11.6546744554647
30
0
41
1
10
129.713700378198
20
11.6764963400639
30
0
41
1
10
129.703849307175
20
11.6905395956511
30
0
41
1
10
129.690622248392
20
11.7106923869584
30
0
41
1
10
129.686473926523
20
11.7172565475531
30
0
41
1
10
129.678790881754
20
11.7300225035073
30
0
41
1
10
129.675305170274
20
11.7361452617338
30
0
41
1
10
129.669204354865
20
11.747684380456
30
0
41
1
10
129.666576971382
20
11.7531198913428
30
0
41
1
10
129.662329655559
20
11.7631954026907
30
0
41
1
10
129.660711103697
20
11.7678528425457
30
0
41
1
10
129.658800519121
20
11.7758895573585
30
0
41
1
10
129.658486501519
20
11.7793172173555
30
0
41
1
10
129.659381640515
20
11.7847295973582
30
0
41
1
10
129.660577252218
20
11.7866383479899
30
0
41
1
10
129.664552149833
20
11.7887727289788
30
0
41
1
10
129.667385823317
20
11.7889719728181
30
0
41
1
10
129.674384001115
20
11.7876207020468
30
0
41
1
10
129.678557175631
20
11.7861000725503
30
0
41
1
10
129.68577327843
20
11.7826255956752
30
0
41
1
10
129.688355730236
20
11.7812572244586
30
0
41
1
10
129.693722267436
20
11.7781924333598
30
0
41
1
10
129.696510907408
20
11.776495437483
30
0
41
1
10
129.705164936606
20
11.7709556867858
30
0
41
1
10
129.711316680714
20
11.7666669588989
30
0
41
1
10
129.724293384835
20
11.7570465960291
30
0
41
1
10
129.731006623841
20
11.7517963836854
30
0
41
1
10
129.744666681808
20
11.740680957704
30
0
41
1
10
129.751638388639
20
11.734796410642
30
0
41
1
10
129.758734122635
20
11.7286273996859
30
0
0
SPLINE
5
17F
100
AcDbEntity
8
1
62
256
6
ByLayer
370
18
48
1
60
0
100
AcDbSpline
70
4
71
3
72
8
73
4
40
0
40
0
40
0
40
0
40
1
40
1
40
1
40
1
41
1
10
129.758734122635
20
11.7286273996859
30
0
41
1
10
129.929510929843
20
11.5801545291665
30
0
41
1
10
130.100149299926
20
11.4314698402685
30
0
41
1
10
130.270632938683
20
11.2825484017348
30
0
0
SPLINE
5
180
100
AcDbEntity
8
1
62
256
6
ByLayer
370
18
48
1
60
0
100
AcDbSpline
70
4
71
3
72
8
73
4
40
0
40
0
40
0
40
0
40
1
40
1
40
1
40
1
41
1
10
130.270632938683
20
11.3687740516508
30
0
41
1
10
130.101154577605
20
11.5694868200352
30
0
41
1
10
129.930478591913
20
11.7688330964438
30
0
41
1
10
129.758734122635
20
11.9669602310362
30
0
0
SPLINE
5
181
100
AcDbEntity
8
1
62
256
6
ByLayer
370
18
48
1
60
0
100
AcDbSpline
70
4
71
3
72
36
73
32
40
0
40
0
40
0
40
0
40
0.0625000000000022
40
0.0625000000000022
40
0.125000000000005
40
0.125000000000005
40
0.250000000000001
40
0.250000000000001
40
0.3125
40
0.3125
40
0.375
40
0.375
40
0.437499999999999
40
0.437499999999999
40
0.499999999999998
40
0.499999999999998
40
0.562499999999997
40
0.562499999999997
40
0.624999999999996
40
0.624999999999996
40
0.656249999999996
40
0.656249999999996
40
0.687499999999997
40
0.687499999999997
40
0.749999999999996
40
0.749999999999996
40
0.812499999999995
40
0.812499999999995
40
0.874999999999995
40
0.874999999999995
40
1
40
1
40
1
40
1
41
1
10
129.758734122635
20
11.9669602310362
30
0
41
1
10
129.752566612581
20
11.9740751681268
30
0
41
1
10
129.746546638005
20
11.9811145385919
30
0
41
1
10
129.73481888672
20
11.9950316845754
30
0
41
1
10
129.729092432714
20
12.0019323990672
30
0
41
1
10
129.712571378607
20
12.0221890461045
30
0
41
1
10
129.702467452592
20
12.0350489068978
30
0
41
1
10
129.68897485918
20
12.0531481252084
30
0
41
1
10
129.684740572727
20
12.0590051008226
30
0
41
1
10
129.677019424022
20
12.0701269431386
30
0
41
1
10
129.673572772677
20
12.0753320468335
30
0
41
1
10
129.667612693989
20
12.0849386398585
30
0
41
1
10
129.665097542914
20
12.0893416043637
30
0
41
1
10
129.661190371451
20
12.0971797782618
30
0
41
1
10
129.659844251038
20
12.1005292951486
30
0
41
1
10
129.658535587832
20
12.1058844961113
30
0
41
1
10
129.658581814014
20
12.107911976963
30
0
41
1
10
129.660199086489
20
12.1103457072494
30
0
41
1
10
129.66174893452
20
12.1107799781239
30
0
41
1
10
129.665219778863
20
12.1102243030403
30
0
41
1
10
129.666577336241
20
12.1098323540959
30
0
41
1
10
129.669610204737
20
12.1086649209022
30
0
41
1
10
129.671289899338
20
12.1078902765432
30
0
41
1
10
129.676792641617
20
12.1050250995488
30
0
41
1
10
129.6811097763
20
12.1023735476496
30
0
41
1
10
129.690759514513
20
12.0958196029266
30
0
41
1
10
129.696006289212
20
12.0919803673575
30
0
41
1
10
129.707212804791
20
12.0833567443942
30
0
41
1
10
129.713214330129
20
12.0785368003119
30
0
41
1
10
129.731894054434
20
12.0630431832052
30
0
41
1
10
129.745048122628
20
12.0515228853105
30
0
41
1
10
129.758734122635
20
12.0391107636225
30
0
0
SPLINE
5
182
100
AcDbEntity
8
1
62
256
6
ByLayer
370
18
48
1
60
0
100
AcDbSpline
70
4
71
3
72
8
73
4
40
0
40
0
40
0
40
0
40
1
40
1
40
1
40
1
41
1
10
129.758734122635
20
12.0391107636225
30
0
41
1
10
129.929615021592
20
11.8841352769273
30
0
41
1
10
130.100257182423
20
11.7288101319427
30
0
41
1
10
130.270632938683
20
11.5730948081094
30
0
0
SPLINE
5
183
100
AcDbEntity
8
1
62
256
6
ByLayer
370
18
48
1
60
0
100
AcDbSpline
70
4
71
3
72
8
73
4
40
0
40
0
40
0
40
0
40
1
40
1
40
1
40
1
41
1
10
130.270632938683
20
11.6236138286459
30
0
41
1
10
130.100825047854
20
11.8097647664684
30
0
41
1
10
129.930161995843
20
11.9948648169693
30
0
41
1
10
129.758734122635
20
12.179024996817
30
0
0
SPLINE
5
184
100
AcDbEntity
8
1
62
256
6
ByLayer
370
18
48
1
60
0
100
AcDbSpline
70
4
71
3
72
37
73
33
40
0
40
0
40
0
40
0
40
0.0624999999999991
40
0.0624999999999991
40
0.124999999999998
40
0.187499999999997
40
0.187499999999997
40
0.249999999999997
40
0.249999999999997
40
0.312499999999996
40
0.312499999999996
40
0.374999999999995
40
0.374999999999995
40
0.437499999999994
40
0.437499999999994
40
0.499999999999993
40
0.499999999999993
40
0.562499999999992
40
0.562499999999992
40
0.593749999999992
40
0.593749999999992
40
0.624999999999993
40
0.624999999999993
40
0.687499999999995
40
0.687499999999995
40
0.749999999999998
40
0.749999999999998
40
0.8125
40
0.8125
40
0.875000000000002
40
0.875000000000002
40
1
40
1
40
1
40
1
41
1
10
129.758734122635
20
12.179024996817
30
0
41
1
10
129.752394140896
20
12.1858358622583
30
0
41
1
10
129.746186680113
20
12.1925563654678
30
0
41
1
10
129.734176984188
20
12.2056685685526
30
0
41
1
10
129.722538594505
20
12.218488191609
30
0
41
1
10
129.711703967413
20
12.2306700510903
30
0
41
1
10
129.701325041863
20
12.2424879159651
30
0
41
1
10
129.696337577221
20
12.2482458398904
30
0
41
1
10
129.687129213503
20
12.2590617217076
30
0
41
1
10
129.68288546388
20
12.264144635407
30
0
41
1
10
129.675216621693
20
12.2735697147817
30
0
41
1
10
129.6717737385
20
12.2779350294766
30
0
41
1
10
129.665954652497
20
12.2856665655915
30
0
41
1
10
129.663613960367
20
12.2889836113709
30
0
41
1
10
129.660203691621
20
12.2943902535629
30
0
41
1
10
129.659144111917
20
12.2964773839328
30
0
41
1
10
129.658522825255
20
12.2991148041969
30
0
41
1
10
129.658935187939
20
12.2997003026566
30
0
41
1
10
129.660697592148
20
12.2994197317521
30
0
41
1
10
129.661478040902
20
12.299129320009
30
0
41
1
10
129.663373462804
20
12.2981831816865
30
0
41
1
10
129.6644919093
20
12.2975273697722
30
0
41
1
10
129.668333314805
20
12.2950402806985
30
0
41
1
10
129.67153981722
20
12.2926920268584
30
0
41
1
10
129.679176422124
20
12.2866910879747
30
0
41
1
10
129.683535939159
20
12.2830922530836
30
0
41
1
10
129.693023792405
20
12.2750051480839
30
0
41
1
10
129.698177104669
20
12.2704968536312
30
0
41
1
10
129.709216703825
20
12.2606520221589
30
0
41
1
10
129.714995851034
20
12.2554107979583
30
0
41
1
10
129.73284839779
20
12.2390164654741
30
0
41
1
10
129.745490703862
20
12.227147947775
30
0
41
1
10
129.758734122635
20
12.2145272228146
30
0
0
SPLINE
5
185
100
AcDbEntity
8
1
62
256
6
ByLayer
370
18
48
1
60
0
100
AcDbSpline
70
4
71
3
72
8
73
4
40
0
40
0
40
0
40
0
40
1
40
1
40
1
40
1
41
1
10
129.758734122635
20
12.2145272228145
30
0
41
1
10
129.929750756967
20
12.0515516390424
30
0
41
1
10
130.100397922331
20
11.8880619682551
30
0
41
1
10
130.270632938683
20
11.7239988245261
30
0
0
SPLINE
5
186
100
AcDbEntity
8
1
62
256
6
ByLayer
370
18
48
1
60
0
100
AcDbSpline
70
4
71
3
72
8
73
4
40
0
40
0
40
0
40
0
40
1
40
1
40
1
40
1
41
1
10
130.270632938683
20
11.7406462103876
30
0
41
1
10
130.100581702137
20
11.9147527679532
30
0
41
1
10
129.929927833258
20
12.0880683783643
30
0
41
1
10
129.758734122635
20
12.2606754534563
30
0
0
SPLINE
5
187
100
AcDbEntity
8
1
62
256
6
ByLayer
370
18
48
1
60
0
100
AcDbSpline
70
4
71
3
72
36
73
32
40
0
40
0
40
0
40
0
40
0.0832918475976087
40
0.0832918475976087
40
0.166583695195217
40
0.166583695195217
40
0.333167390390435
40
0.333167390390435
40
0.416459237988044
40
0.416459237988044
40
0.458105161786848
40
0.458105161786848
40
0.499751085585653
40
0.499751085585653
40
0.583042933183258
40
0.583042933183258
40
0.624688856982061
40
0.624688856982061
40
0.666334780780864
40
0.666334780780864
40
0.749626628378469
40
0.749626628378469
40
0.791272552177272
40
0.791272552177272
40
0.832918475976075
40
0.832918475976075
40
0.91621032357368
40
0.91621032357368
40
0.999502171171286
40
0.999502171171286
40
1
40
1
40
1
40
1
41
1
10
129.758734122635
20
12.2606754534563
30
0
41
1
10
129.752251840465
20
12.2672112529388
30
0
41
1
10
129.745902085774
20
12.2736184899809
30
0
41
1
10
129.733492581469
20
12.2861493503539
30
0
41
1
10
129.7274287828
20
12.2922771139795
30
0
41
1
10
129.710033381674
20
12.3098676641517
30
0
41
1
10
129.699370537419
20
12.3206662852131
30
0
41
1
10
129.685247268043
20
12.3349834123018
30
0
41
1
10
129.680943199025
20
12.3393491852108
30
0
41
1
10
129.67521121599
20
12.3451656378581
30
0
41
1
10
129.673419297602
20
12.3469843930006
30
0
41
1
10
129.670092827332
20
12.3503612861538
30
0
41
1
10
129.66855454856
20
12.351923210502
30
0
41
1
10
129.664433515529
20
12.3561081898287
30
0
41
1
10
129.662314304181
20
12.3582611326527
30
0
41
1
10
129.660161078508
20
12.3604488333352
30
0
41
1
10
129.659613385326
20
12.36100535321
30
0
41
1
10
129.658896238949
20
12.3617340728924
30
0
41
1
10
129.658724360509
20
12.3619087361119
30
0
41
1
10
129.65875492779
20
12.3618776742915
30
0
41
1
10
129.659500676197
20
12.3611197989322
30
0
41
1
10
129.661706774546
20
12.3588783950301
30
0
41
1
10
129.662625210362
20
12.357945322986
30
0
41
1
10
129.664769375903
20
12.3557673008279
30
0
41
1
10
129.665999155653
20
12.3545182359468
30
0
41
1
10
129.670131316504
20
12.3503220195353
30
0
41
1
10
129.673488502885
20
12.3469136683351
30
0
41
1
10
129.681226361768
20
12.3390619234533
30
0
41
1
10
129.685528316795
20
12.3346984199026
30
0
41
1
10
129.690222595348
20
12.3299397958413
30
0
41
1
10
129.690250499042
20
12.3299115097571
30
0
41
1
10
129.690278415789
20
12.329883210534
30
0
0
SPLINE
5
188
100
AcDbEntity
8
1
62
256
6
ByLayer
370
18
48
1
60
0
100
AcDbSpline
70
4
71
3
72
10
73
6
40
0
40
0
40
0
40
0
40
0.145484916263772
40
0.145484916263772
40
1
40
1
40
1
40
1
41
1
10
129.716161698781
20
12.3036717895051
30
0
41
1
10
129.718087138986
20
12.3017239111123
30
0
41
1
10
129.720035309285
20
12.2997534778782
30
0
41
1
10
129.733560206562
20
12.2860772531286
30
0
41
1
10
129.74584400865
20
12.2736719874083
30
0
41
1
10
129.758734122635
20
12.2606754534563
30
0
0
SPLINE
5
189
100
AcDbEntity
8
SK1
62
256
6
ByLayer
370
18
48
1
60
0
100
AcDbSpline
70
4
71
3
72
11
73
7
40
0
40
0
40
0
40
0
40
0.24260137289863
40
0.502561214665899
40
0.761098879312195
40
1
40
1
40
1
40
1
41
1
10
-0.199999999999932
20
22.0603316233164
30
0
41
1
10
-0.200957649232663
20
22.03467763457
30
0
41
1
10
-0.211248088565498
20
21.9856476021506
30
0
41
1
10
-0.255178473897303
20
21.9196695750854
30
0
41
1
10
-0.321112940270126
20
21.8764518787731
30
0
41
1
10
-0.369683556830267
20
21.8664032520323
30
0
41
1
10
-0.394913799811206
20
21.8654753908017
30
0
0
SPLINE
5
18A
100
AcDbEntity
8
SK1
62
256
6
ByLayer
370
18
48
1
60
0
100
AcDbSpline
70
4
71
3
72
11
73
7
40
0
40
0
40
0
40
0
40
0.238901121200236
40
0.497438786084572
40
0.757398627621475
40
1
40
1
40
1
40
1
41
1
10
-0.394913799811377
20
-21.8654754627471
30
0
41
1
10
-0.369683556841181
20
-21.8664033239634
30
0
41
1
10
-0.321112940313242
20
-21.8764519506625
30
0
41
1
10
-0.255178473954544
20
-21.9196696467454
30
0
41
1
10
-0.211248088576042
20
-21.9856476735436
30
0
41
1
10
-0.200957649243804
20
-22.0346777057893
30
0
41
1
10
-0.200000000000074
20
-22.0603316944385
30
0
0
SPLINE
5
18B
100
AcDbEntity
8
SK1
62
256
6
ByLayer
370
18
48
1
60
0
100
AcDbSpline
70
4
71
2
72
6
73
3
40
0
40
0
40
0
40
1
40
1
40
1
41
1
10
-36.4999999999999
20
21.1556411500793
30
0
41
1
10
-37.2500000202692
20
20.7228363924585
30
0
41
1
10
-37.9999999999999
20
20.2900294978114
30
0
0
SPLINE
5
18C
100
AcDbEntity
8
SK1
62
256
6
ByLayer
370
18
48
1
60
0
100
AcDbSpline
70
4
71
2
72
6
73
3
40
0
40
0
40
0
40
1
40
1
40
1
41
1
10
-38.0000000000001
20
-20.2900295032222
30
0
41
1
10
-37.2500000202655
20
-20.7228363958852
30
0
41
1
10
-36.5000000000001
20
-21.155641151646
30
0
0
SPLINE
5
18D
100
AcDbEntity
8
SK1
62
256
6
ByLayer
370
18
48
1
60
0
100
AcDbSpline
70
4
71
2
72
6
73
3
40
0
40
0
40
0
40
1
40
1
40
1
41
1
10
-0.394913799811206
20
21.8654705382346
30
0
41
1
10
-1.19497688887506
20
21.8453761190377
30
0
41
1
10
-1.99503997793923
20
21.8252816998361
30
0
0
SPLINE
5
18E
100
AcDbEntity
8
SK1
62
256
6
ByLayer
370
18
48
1
60
0
100
AcDbSpline
70
4
71
2
72
6
73
3
40
0
40
0
40
0
40
1
40
1
40
1
41
1
10
-1.99503997793937
20
-21.8252817664983
30
0
41
1
10
-1.19497688887523
20
-21.845376185605
30
0
41
1
10
-0.394913799811377
20
-21.8654706047072
30
0
0
SPLINE
5
18F
100
AcDbEntity
8
SK1
62
256
6
ByLayer
370
18
48
1
60
0
100
AcDbSpline
70
4
71
3
72
13
73
9
40
0
40
0
40
0
40
0
40
0.239488446613139
40
0.368403116187249
40
0.500046645745247
40
0.631682415479622
40
0.760575689762793
40
1
40
1
40
1
40
1
41
1
10
-1.99503997793923
20
21.825286524797
30
0
41
1
10
-2.02110964951214
20
21.8248845959364
30
0
41
1
10
-2.05883938576707
20
21.8310551084546
30
0
41
1
10
-2.10627619976845
20
21.8540920367489
30
0
41
1
10
-2.13886292183531
20
21.8792518859041
30
0
41
1
10
-2.16563526915761
20
21.9105242864783
30
0
41
1
10
-2.19103234710843
20
21.9567296167895
30
0
41
1
10
-2.19909149085333
20
21.9940920912339
30
0
41
1
10
-2.19999999999993
20
22.0201427571469
30
0
0
SPLINE
5
190
100
AcDbEntity
8
SK1
62
256
6
ByLayer
370
18
48
1
60
0
100
AcDbSpline
70
4
71
3
72
13
73
9
40
0
40
0
40
0
40
0
40
0.239424309709105
40
0.36831758382101
40
0.499953353497804
40
0.631596883124593
40
0.760511552875627
40
1
40
1
40
1
40
1
41
1
10
-2.20000000000007
20
-22.0201428284389
30
0
41
1
10
-2.19909149084529
20
-21.994092162624
30
0
41
1
10
-2.19103234710042
20
-21.956729688326
30
0
41
1
10
-2.16563526914689
20
-21.9105243582179
30
0
41
1
10
-2.13886292182107
20
-21.8792519577777
30
0
41
1
10
-2.10627619975318
20
-21.8540921087329
30
0
41
1
10
-2.05883938574678
20
-21.8310551805396
30
0
41
1
10
-2.02110964950154
20
-21.8248846680467
30
0
41
1
10
-1.99503997793937
20
-21.8252865969123
30
0
0
SPLINE
5
191
100
AcDbEntity
8
SK1
62
256
6
ByLayer
370
18
48
1
60
0
100
AcDbSpline
70
4
71
2
72
6
73
3
40
0
40
0
40
0
40
1
40
1
40
1
41
1
10
-2.19999999999993
20
22.0136642719968
30
0
41
1
10
-19.3500000008245
20
21.5830599810352
30
0
41
1
10
-36.4999999999999
20
21.1524539804129
30
0
0
SPLINE
5
192
100
AcDbEntity
8
SK1
62
256
6
ByLayer
370
18
48
1
60
0
100
AcDbSpline
70
4
71
2
72
6
73
3
40
0
40
0
40
0
40
1
40
1
40
1
41
1
10
-36.5000000000001
20
-21.1524542549769
30
0
41
1
10
-19.3500000008245
20
-21.5830602558514
30
0
41
1
10
-2.20000000000007
20
-22.0136645469338
30
0
0
LINE
5
A1
100
AcDbEntity
8
4
62
256
6
ByLayer
370
18
48
0.05
60
0
100
AcDbLine
10
0
20
0
30
0
11
130
21
0
31
0
39
0
210
0
220
0
230
1
0
LINE
5
A3
100
AcDbEntity
8
80
62
256
6
ByLayer
370
18
48
1
60
0
100
AcDbLine
10
0
20
0
30
0
11
-5
21
0
31
0
39
0
210
0
220
0
230
1
0
LINE
5
A4
100
AcDbEntity
8
SK4
62
256
6
ByLayer
370
18
48
0.05
60
0
100
AcDbLine
10
4
20
0
30
0
11
144
21
0
31
0
39
0
210
0
220
0
230
1
0
LINE
5
A6
100
AcDbEntity
8
81
62
256
6
ByLayer
370
18
48
1
60
0
100
AcDbLine
10
130
20
0
30
0
11
135
21
0
31
0
39
0
210
0
220
0
230
1
0
LINE
5
A7
100
AcDbEntity
8
1
62
256
6
ByLayer
370
18
48
1
60
0
100
AcDbLine
10
128
20
-12.5
30
0
11
128
21
12.5
31
0
39
0
210
0
220
0
230
1
0
LINE
5
A8
100
AcDbEntity
8
1
62
256
6
ByLayer
370
13
48
1
60
0
100
AcDbLine
10
25
20
-12.5
30
0
11
25
21
12.5
31
0
39
0
210
0
220
0
230
1
0
LINE
5
A9
100
AcDbEntity
8
1
62
256
6
ByLayer
370
13
48
1
60
0
100
AcDbLine
10
13.461325
20
-9.349221
30
0
11
13.461325
21
-30.080593
31
0
39
0
210
0
220
0
230
1
0
LINE
5
AA
100
AcDbEntity
8
1
62
256
6
ByLayer
370
13
48
1
60
0
100
AcDbLine
10
13.894338
20
-9.869413
30
0
11
13.894338
21
-29.913955
31
0
39
0
210
0
220
0
230
1
0
LINE
5
AB
100
AcDbEntity
8
1
62
256
6
ByLayer
370
13
48
1
60
0
100
AcDbLine
10
10.105662
20
29.913955
30
0
11
10.105662
21
9.869413
31
0
39
0
210
0
220
0
230
1
0
LINE
5
AC
100
AcDbEntity
8
1
62
256
6
ByLayer
370
13
48
1
60
0
100
AcDbLine
10
10.538675
20
30.080593
30
0
11
10.538675
21
9.349221
31
0
39
0
210
0
220
0
230
1
0
LINE
5
AD
100
AcDbEntity
8
1
62
256
6
ByLayer
370
13
48
1
60
0
100
AcDbLine
10
10.105662
20
-9.869413
30
0
11
10.105662
21
-29.913955
31
0
39
0
210
0
220
0
230
1
0
LINE
5
AE
100
AcDbEntity
8
1
62
256
6
ByLayer
370
13
48
1
60
0
100
AcDbLine
10
10.538675
20
-9.349221
30
0
11
10.538675
21
-30.080593
31
0
39
0
210
0
220
0
230
1
0
LINE
5
AF
100
AcDbEntity
8
1
62
256
6
ByLayer
370
13
48
1
60
0
100
AcDbLine
10
13.461325
20
30.080593
30
0
11
13.461325
21
9.349221
31
0
39
0
210
0
220
0
230
1
0
LINE
5
B0
100
AcDbEntity
8
1
62
256
6
ByLayer
370
13
48
1
60
0
100
AcDbLine
10
13.894338
20
29.913955
30
0
11
13.894338
21
9.869413
31
0
39
0
210
0
220
0
230
1
0
LINE
5
B1
100
AcDbEntity
8
1
62
256
6
ByLayer
370
18
48
1
60
0
100
AcDbLine
10
13.461325
20
9.349221
30
0
11
10.538675
21
9.349221
31
0
39
0
210
0
220
0
230
1
0
LINE
5
B2
100
AcDbEntity
8
1
62
256
6
ByLayer
370
18
48
1
60
0
100
AcDbLine
10
10.538675
20
30.080593
30
0
11
13.461325
21
30.080593
31
0
39
0
210
0
220
0
230
1
0
LINE
5
B3
100
AcDbEntity
8
1
62
256
6
ByLayer
370
18
48
1
60
0
100
AcDbLine
10
10.538675
20
-9.349221
30
0
11
13.461325
21
-9.349221
31
0
39
0
210
0
220
0
230
1
0
LINE
5
B4
100
AcDbEntity
8
1
62
256
6
ByLayer
370
18
48
1
60
0
100
AcDbLine
10
13.461325
20
-30.080593
30
0
11
10.538675
21
-30.080593
31
0
39
0
210
0
220
0
230
1
0
LINE
5
B5
100
AcDbEntity
8
1
62
256
6
ByLayer
370
18
48
1
60
0
100
AcDbLine
10
22
20
31
30
0
11
22
21
-31
31
0
39
0
210
0
220
0
230
1
0
LINE
5
B6
100
AcDbEntity
8
1
62
256
6
ByLayer
370
13
48
1
60
0
100
AcDbLine
10
21.5
20
31.5
30
0
11
21.5
21
-31.5
31
0
39
0
210
0
220
0
230
1
0
LINE
5
B7
100
AcDbEntity
8
1
62
256
6
ByLayer
370
18
48
1
60
0
100
AcDbLine
10
0.3
20
-31.5
30
0
11
0.3
21
31.5
31
0
39
0
210
0
220
0
230
1
0
LINE
5
B8
100
AcDbEntity
8
1
62
256
6
ByLayer
370
18
48
1
60
0
100
AcDbLine
10
0
20
-31.2
30
0
11
0
21
31.2
31
0
39
0
210
0
220
0
230
1
0
LINE
5
B9
100
AcDbEntity
8
SK1
62
256
6
ByLayer
370
18
48
1
60
0
100
AcDbLine
10
-0.2
20
-7.034158
30
0
11
-0.2
21
-22.533485
31
0
39
0
210
0
220
0
230
1
0
LINE
5
BB
100
AcDbEntity
8
SK1
62
256
6
ByLayer
370
18
48
1
60
0
100
AcDbLine
10
-0.2
20
22.533485
30
0
11
-0.2
21
7.034161
31
0
39
0
210
0
220
0
230
1
0
LINE
5
BC
100
AcDbEntity
8
SK1
62
256
6
ByLayer
370
13
48
1
60
0
100
AcDbLine
10
-1.307107
20
4.811152
30
0
11
-1.307107
21
-4.811152
31
0
39
0
210
0
220
0
230
1
0
LINE
5
BD
100
AcDbEntity
8
1
62
256
6
ByLayer
370
18
48
1
60
0
100
AcDbLine
10
130.270633
20
11.623586
30
0
11
130.270633
21
11.723999
31
0
39
0
210
0
220
0
230
1
0
LINE
5
BE
100
AcDbEntity
8
1
62
256
6
ByLayer
370
18
48
1
60
0
100
AcDbLine
10
130.270633
20
-11.723999
30
0
11
130.270633
21
-11.623586
31
0
39
0
210
0
220
0
230
1
0
LINE
5
BF
100
AcDbEntity
8
1
62
256
6
ByLayer
370
13
48
1
60
0
100
AcDbLine
10
129.758734
20
12.178972
30
0
11
129.758734
21
12.214527
31
0
39
0
210
0
220
0
230
1
0
LINE
5
C0
100
AcDbEntity
8
1
62
256
6
ByLayer
370
13
48
1
60
0
100
AcDbLine
10
129.758734
20
-12.214527
30
0
11
129.758734
21
-12.178972
31
0
39
0
210
0
220
0
230
1
0
LINE
5
C1
100
AcDbEntity
8
1
62
256
6
ByLayer
370
18
48
1
60
0
100
AcDbLine
10
130.270633
20
-11.573095
30
0
11
130.270633
21
-11.368674
31
0
39
0
210
0
220
0
230
1
0
LINE
5
C2
100
AcDbEntity
8
1
62
256
6
ByLayer
370
18
48
1
60
0
100
AcDbLine
10
130.270633
20
11.368674
30
0
11
130.270633
21
11.573095
31
0
39
0
210
0
220
0
230
1
0
LINE
5
C3
100
AcDbEntity
8
1
62
256
6
ByLayer
370
13
48
1
60
0
100
AcDbLine
10
129.758734
20
-12.039111
30
0
11
129.758734
21
-11.966935
31
0
39
0
210
0
220
0
230
1
0
LINE
5
C4
100
AcDbEntity
8
1
62
256
6
ByLayer
370
13
48
1
60
0
100
AcDbLine
10
129.758734
20
11.966935
30
0
11
129.758734
21
12.039111
31
0
39
0
210
0
220
0
230
1
0
LINE
5
C5
100
AcDbEntity
8
1
62
256
6
ByLayer
370
18
48
1
60
0
100
AcDbLine
10
130.270633
20
-11.282548
30
0
11
130.270633
21
-10.966473
31
0
39
0
210
0
220
0
230
1
0
LINE
5
C6
100
AcDbEntity
8
1
62
256
6
ByLayer
370
18
48
1
60
0
100
AcDbLine
10
130.270633
20
10.966473
30
0
11
130.270633
21
11.282548
31
0
39
0
210
0
220
0
230
1
0
LINE
5
C7
100
AcDbEntity
8
1
62
256
6
ByLayer
370
13
48
1
60
0
100
AcDbLine
10
129.758734
20
-11.728627
30
0
11
129.758734
21
-11.617205
31
0
39
0
210
0
220
0
230
1
0
LINE
5
C8
100
AcDbEntity
8
1
62
256
6
ByLayer
370
13
48
1
60
0
100
AcDbLine
10
129.758734
20
11.617205
30
0
11
129.758734
21
11.728627
31
0
39
0
210
0
220
0
230
1
0
LINE
5
C9
100
AcDbEntity
8
1
62
256
6
ByLayer
370
18
48
1
60
0
100
AcDbLine
10
130.270633
20
-10.841138
30
0
11
130.270633
21
-10.399738
31
0
39
0
210
0
220
0
230
1
0
LINE
5
CA
100
AcDbEntity
8
1
62
256
6
ByLayer
370
18
48
1
60
0
100
AcDbLine
10
130.270633
20
10.399738
30
0
11
130.270633
21
10.841138
31
0
39
0
210
0
220
0
230
1
0
LINE
5
CB
100
AcDbEntity
8
1
62
256
6
ByLayer
370
13
48
1
60
0
100
AcDbLine
10
129.758734
20
-11.271921
30
0
11
129.758734
21
-11.117171
31
0
39
0
210
0
220
0
230
1
0
LINE
5
CC
100
AcDbEntity
8
1
62
256
6
ByLayer
370
13
48
1
60
0
100
AcDbLine
10
129.758734
20
11.117171
30
0
11
129.758734
21
11.271921
31
0
39
0
210
0
220
0
230
1
0
LINE
5
CD
100
AcDbEntity
8
1
62
256
6
ByLayer
370
18
48
1
60
0
100
AcDbLine
10
130.270633
20
9.639546
30
0
11
130.270633
21
10.229352
31
0
39
0
210
0
220
0
230
1
0
LINE
5
CE
100
AcDbEntity
8
1
62
256
6
ByLayer
370
18
48
1
60
0
100
AcDbLine
10
130.270633
20
-10.229352
30
0
11
130.270633
21
-9.639546
31
0
39
0
210
0
220
0
230
1
0
LINE
5
CF
100
AcDbEntity
8
1
62
256
6
ByLayer
370
13
48
1
60
0
100
AcDbLine
10
129.758734
20
-10.650198
30
0
11
129.758734
21
-10.444909
31
0
39
0
210
0
220
0
230
1
0
LINE
5
D0
100
AcDbEntity
8
1
62
256
6
ByLayer
370
13
48
1
60
0
100
AcDbLine
10
129.758734
20
10.444909
30
0
11
129.758734
21
10.650198
31
0
39
0
210
0
220
0
230
1
0
LINE
5
D1
100
AcDbEntity
8
1
62
256
6
ByLayer
370
18
48
1
60
0
100
AcDbLine
10
130.270633
20
8.634895
30
0
11
130.270633
21
9.414033
31
0
39
0
210
0
220
0
230
1
0
LINE
5
D2
100
AcDbEntity
8
1
62
256
6
ByLayer
370
18
48
1
60
0
100
AcDbLine
10
130.270633
20
-9.414033
30
0
11
130.270633
21
-8.634895
31
0
39
0
210
0
220
0
230
1
0
LINE
5
D3
100
AcDbEntity
8
1
62
256
6
ByLayer
370
13
48
1
60
0
100
AcDbLine
10
129.758734
20
-9.832204
30
0
11
129.758734
21
-9.5643
31
0
39
0
210
0
220
0
230
1
0
LINE
5
D4
100
AcDbEntity
8
1
62
256
6
ByLayer
370
13
48
1
60
0
100
AcDbLine
10
129.758734
20
9.5643
30
0
11
129.758734
21
9.832204
31
0
39
0
210
0
220
0
230
1
0
LINE
5
D5
100
AcDbEntity
8
1
62
256
6
ByLayer
370
18
48
1
60
0
100
AcDbLine
10
130.270633
20
-8.33567
30
0
11
130.270633
21
-7.285376
31
0
39
0
210
0
220
0
230
1
0
LINE
5
D6
100
AcDbEntity
8
1
62
256
6
ByLayer
370
18
48
1
60
0
100
AcDbLine
10
130.270633
20
7.285376
30
0
11
130.270633
21
8.33567
31
0
39
0
210
0
220
0
230
1
0
LINE
5
D7
100
AcDbEntity
8
1
62
256
6
ByLayer
370
13
48
1
60
0
100
AcDbLine
10
129.758734
20
-8.763147
30
0
11
129.758734
21
-8.409883
31
0
39
0
210
0
220
0
230
1
0
LINE
5
D8
100
AcDbEntity
8
1
62
256
6
ByLayer
370
13
48
1
60
0
100
AcDbLine
10
129.758734
20
8.409883
30
0
11
129.758734
21
8.763147
31
0
39
0
210
0
220
0
230
1
0
LINE
5
D9
100
AcDbEntity
8
1
62
256
6
ByLayer
370
18
48
1
60
0
100
AcDbLine
10
130.270633
20
-6.871519
30
0
11
130.270633
21
-5.33552
31
0
39
0
210
0
220
0
230
1
0
LINE
5
DA
100
AcDbEntity
8
1
62
256
6
ByLayer
370
18
48
1
60
0
100
AcDbLine
10
130.270633
20
5.33552
30
0
11
130.270633
21
6.871519
31
0
39
0
210
0
220
0
230
1
0
LINE
5
DB
100
AcDbEntity
8
1
62
256
6
ByLayer
370
13
48
1
60
0
100
AcDbLine
10
129.758734
20
-7.334048
30
0
11
129.758734
21
-6.845417
31
0
39
0
210
0
220
0
230
1
0
LINE
5
DC
100
AcDbEntity
8
1
62
256
6
ByLayer
370
13
48
1
60
0
100
AcDbLine
10
129.758734
20
6.845417
30
0
11
129.758734
21
7.334048
31
0
39
0
210
0
220
0
230
1
0
LINE
5
DD
100
AcDbEntity
8
1
62
256
6
ByLayer
370
18
48
1
60
0
100
AcDbLine
10
130.270633
20
-4.671953
30
0
11
130.270633
21
-0.856281
31
0
39
0
210
0
220
0
230
1
0
LINE
5
DE
100
AcDbEntity
8
1
62
256
6
ByLayer
370
18
48
1
60
0
100
AcDbLine
10
130.270633
20
0.856281
30
0
11
130.270633
21
4.671953
31
0
39
0
210
0
220
0
230
1
0
LINE
5
DF
100
AcDbEntity
8
1
62
256
6
ByLayer
370
13
48
1
60
0
100
AcDbLine
10
129.758734
20
-5.259161
30
0
11
129.758734
21
-4.45681
31
0
39
0
210
0
220
0
230
1
0
LINE
5
E0
100
AcDbEntity
8
1
62
256
6
ByLayer
370
13
48
1
60
0
100
AcDbLine
10
129.758734
20
4.45681
30
0
11
129.758734
21
5.259161
31
0
39
0
210
0
220
0
230
1
0
LINE
5
E1
100
AcDbEntity
8
1
62
256
6
ByLayer
370
18
48
1
60
0
100
AcDbLine
10
130.270633
20
-11.723999
30
0
11
130.270633
21
-11.740646
31
0
39
0
210
0
220
0
230
1
0
LINE
5
E2
100
AcDbEntity
8
1
62
256
6
ByLayer
370
18
48
1
60
0
100
AcDbLine
10
130.270633
20
-11.573095
30
0
11
130.270633
21
-11.623614
31
0
39
0
210
0
220
0
230
1
0
LINE
5
E3
100
AcDbEntity
8
1
62
256
6
ByLayer
370
18
48
1
60
0
100
AcDbLine
10
130.270633
20
-11.282548
30
0
11
130.270633
21
-11.368774
31
0
39
0
210
0
220
0
230
1
0
LINE
5
E4
100
AcDbEntity
8
1
62
256
6
ByLayer
370
18
48
1
60
0
100
AcDbLine
10
130.270633
20
-10.841138
30
0
11
130.270633
21
-10.966524
31
0
39
0
210
0
220
0
230
1
0
LINE
5
E5
100
AcDbEntity
8
1
62
256
6
ByLayer
370
18
48
1
60
0
100
AcDbLine
10
130.270633
20
-10.229352
30
0
11
130.270633
21
-10.399773
31
0
39
0
210
0
220
0
230
1
0
LINE
5
E6
100
AcDbEntity
8
1
62
256
6
ByLayer
370
18
48
1
60
0
100
AcDbLine
10
130.270633
20
-9.414033
30
0
11
130.270633
21
-9.639549
31
0
39
0
210
0
220
0
230
1
0
LINE
5
E7
100
AcDbEntity
8
1
62
256
6
ByLayer
370
18
48
1
60
0
100
AcDbLine
10
130.270633
20
-8.33567
30
0
11
130.270633
21
-8.634901
31
0
39
0
210
0
220
0
230
1
0
LINE
5
E8
100
AcDbEntity
8
1
62
256
6
ByLayer
370
18
48
1
60
0
100
AcDbLine
10
130.270633
20
-6.871519
30
0
11
130.270633
21
-7.285407
31
0
39
0
210
0
220
0
230
1
0
LINE
5
E9
100
AcDbEntity
8
1
62
256
6
ByLayer
370
18
48
1
60
0
100
AcDbLine
10
130.270633
20
-4.671953
30
0
11
130.270633
21
-5.33552
31
0
39
0
210
0
220
0
230
1
0
LINE
5
EA
100
AcDbEntity
8
1
62
256
6
ByLayer
370
18
48
1
60
0
100
AcDbLine
10
130.270633
20
0.856387
30
0
11
130.270633
21
-0.856387
31
0
39
0
210
0
220
0
230
1
0
LINE
5
EB
100
AcDbEntity
8
1
62
256
6
ByLayer
370
18
48
1
60
0
100
AcDbLine
10
130.270633
20
5.33552
30
0
11
130.270633
21
4.671953
31
0
39
0
210
0
220
0
230
1
0
LINE
5
EC
100
AcDbEntity
8
1
62
256
6
ByLayer
370
18
48
1
60
0
100
AcDbLine
10
130.270633
20
7.285407
30
0
11
130.270633
21
6.871519
31
0
39
0
210
0
220
0
230
1
0
LINE
5
ED
100
AcDbEntity
8
1
62
256
6
ByLayer
370
18
48
1
60
0
100
AcDbLine
10
130.270633
20
8.634901
30
0
11
130.270633
21
8.33567
31
0
39
0
210
0
220
0
230
1
0
LINE
5
EE
100
AcDbEntity
8
1
62
256
6
ByLayer
370
18
48
1
60
0
100
AcDbLine
10
130.270633
20
9.639549
30
0
11
130.270633
21
9.414033
31
0
39
0
210
0
220
0
230
1
0
LINE
5
EF
100
AcDbEntity
8
1
62
256
6
ByLayer
370
18
48
1
60
0
100
AcDbLine
10
130.270633
20
10.399773
30
0
11
130.270633
21
10.229352
31
0
39
0
210
0
220
0
230
1
0
LINE
5
F0
100
AcDbEntity
8
1
62
256
6
ByLayer
370
18
48
1
60
0
100
AcDbLine
10
130.270633
20
10.966524
30
0
11
130.270633
21
10.841138
31
0
39
0
210
0
220
0
230
1
0
LINE
5
F1
100
AcDbEntity
8
1
62
256
6
ByLayer
370
18
48
1
60
0
100
AcDbLine
10
130.270633
20
11.368774
30
0
11
130.270633
21
11.282548
31
0
39
0
210
0
220
0
230
1
0
LINE
5
F2
100
AcDbEntity
8
1
62
256
6
ByLayer
370
18
48
1
60
0
100
AcDbLine
10
130.270633
20
11.623614
30
0
11
130.270633
21
11.573095
31
0
39
0
210
0
220
0
230
1
0
LINE
5
F3
100
AcDbEntity
8
1
62
256
6
ByLayer
370
18
48
1
60
0
100
AcDbLine
10
130.270633
20
11.740646
30
0
11
130.270633
21
11.723999
31
0
39
0
210
0
220
0
230
1
0
LINE
5
F4
100
AcDbEntity
8
1
62
256
6
ByLayer
370
18
48
1
60
0
100
AcDbLine
10
129.520633
20
-12.5
30
0
11
129.520633
21
12.5
31
0
39
0
210
0
220
0
230
1
0
LINE
5
F5
100
AcDbEntity
8
1
62
256
6
ByLayer
370
13
48
1
60
0
100
AcDbLine
10
128.2
20
12.5
30
0
11
128.2
21
-12.5
31
0
39
0
210
0
220
0
230
1
0
LINE
5
F6
100
AcDbEntity
8
1
62
256
6
ByLayer
370
18
48
1
60
0
100
AcDbLine
10
134
20
-9.156854
30
0
11
134
21
-2.156854
31
0
39
0
210
0
220
0
230
1
0
LINE
5
F7
100
AcDbEntity
8
1
62
256
6
ByLayer
370
18
48
1
60
0
100
AcDbLine
10
137.5
20
-9.156854
30
0
11
137.5
21
-2.156854
31
0
39
0
210
0
220
0
230
1
0
LINE
5
F8
100
AcDbEntity
8
1
62
256
6
ByLayer
370
18
48
1
60
0
100
AcDbLine
10
138
20
-8.656854
30
0
11
138
21
-2.656854
31
0
39
0
210
0
220
0
230
1
0
LINE
5
F9
100
AcDbEntity
8
1
62
256
6
ByLayer
370
18
48
1
60
0
100
AcDbLine
10
134
20
2.156854
30
0
11
134
21
9.156854
31
0
39
0
210
0
220
0
230
1
0
LINE
5
FA
100
AcDbEntity
8
1
62
256
6
ByLayer
370
18
48
1
60
0
100
AcDbLine
10
137.5
20
2.156854
30
0
11
137.5
21
9.156854
31
0
39
0
210
0
220
0
230
1
0
LINE
5
FB
100
AcDbEntity
8
1
62
256
6
ByLayer
370
18
48
1
60
0
100
AcDbLine
10
138
20
2.656854
30
0
11
138
21
8.656854
31
0
39
0
210
0
220
0
230
1
0
LINE
5
FC
100
AcDbEntity
8
1
62
256
6
ByLayer
370
18
48
1
60
0
100
AcDbLine
10
128
20
12.5
30
0
11
25
21
12.5
31
0
39
0
210
0
220
0
230
1
0
LINE
5
FD
100
AcDbEntity
8
1
62
256
6
ByLayer
370
18
48
1
60
0
100
AcDbLine
10
25
20
-12.5
30
0
11
128
21
-12.5
31
0
39
0
210
0
220
0
230
1
0
LINE
5
FE
100
AcDbEntity
8
1
62
256
6
ByLayer
370
18
48
1
60
0
100
AcDbLine
10
21.5
20
31.5
30
0
11
0.3
21
31.5
31
0
39
0
210
0
220
0
230
1
0
LINE
5
FF
100
AcDbEntity
8
1
62
256
6
ByLayer
370
18
48
1
60
0
100
AcDbLine
10
0.3
20
-31.5
30
0
11
21.5
21
-31.5
31
0
39
0
210
0
220
0
230
1
0
LINE
5
100
100
AcDbEntity
8
1
62
256
6
ByLayer
370
18
48
1
60
0
100
AcDbLine
10
0
20
-31.2
30
0
11
0.3
21
-31.5
31
0
39
0
210
0
220
0
230
1
0
LINE
5
101
100
AcDbEntity
8
1
62
256
6
ByLayer
370
18
48
1
60
0
100
AcDbLine
10
0.3
20
31.5
30
0
11
0
21
31.2
31
0
39
0
210
0
220
0
230
1
0
LINE
5
102
100
AcDbEntity
8
1
62
256
6
ByLayer
370
18
48
1
60
0
100
AcDbLine
10
129.660367
20
12.360266
30
0
11
129.520633
21
12.5
31
0
39
0
210
0
220
0
230
1
0
LINE
5
103
100
AcDbEntity
8
1
62
256
6
ByLayer
370
18
48
1
60
0
100
AcDbLine
10
129.520633
20
-12.5
30
0
11
129.660367
21
-12.360266
31
0
39
0
210
0
220
0
230
1
0
LINE
5
104
100
AcDbEntity
8
1
62
256
6
ByLayer
370
18
48
1
60
0
100
AcDbLine
10
129.520633
20
12.5
30
0
11
128.2
21
12.5
31
0
39
0
210
0
220
0
230
1
0
LINE
5
105
100
AcDbEntity
8
1
62
256
6
ByLayer
370
18
48
1
60
0
100
AcDbLine
10
128.2
20
-12.5
30
0
11
129.520633
21
-12.5
31
0
39
0
210
0
220
0
230
1
0
LINE
5
106
100
AcDbEntity
8
1
62
256
6
ByLayer
370
18
48
1
60
0
100
AcDbLine
10
134
20
-3.656854
30
0
11
130.270508
21
-3.656854
31
0
39
0
210
0
220
0
230
1
0
LINE
5
107
100
AcDbEntity
8
1
62
256
6
ByLayer
370
18
48
1
60
0
100
AcDbLine
10
130.270508
20
-7.656854
30
0
11
134
21
-7.656854
31
0
39
0
210
0
220
0
230
1
0
LINE
5
108
100
AcDbEntity
8
1
62
256
6
ByLayer
370
18
48
1
60
0
100
AcDbLine
10
137.5
20
-2.156854
30
0
11
134
21
-2.156854
31
0
39
0
210
0
220
0
230
1
0
LINE
5
109
100
AcDbEntity
8
1
62
256
6
ByLayer
370
18
48
1
60
0
100
AcDbLine
10
134
20
-9.156854
30
0
11
137.5
21
-9.156854
31
0
39
0
210
0
220
0
230
1
0
LINE
5
10A
100
AcDbEntity
8
1
62
256
6
ByLayer
370
18
48
1
60
0
100
AcDbLine
10
138
20
-2.656854
30
0
11
137.5
21
-2.156854
31
0
39
0
210
0
220
0
230
1
0
LINE
5
10B
100
AcDbEntity
8
1
62
256
6
ByLayer
370
18
48
1
60
0
100
AcDbLine
10
137.5
20
-9.156854
30
0
11
138
21
-8.656854
31
0
39
0
210
0
220
0
230
1
0
LINE
5
10C
100
AcDbEntity
8
1
62
256
6
ByLayer
370
18
48
1
60
0
100
AcDbLine
10
134
20
7.656854
30
0
11
130.270508
21
7.656854
31
0
39
0
210
0
220
0
230
1
0
LINE
5
10D
100
AcDbEntity
8
1
62
256
6
ByLayer
370
18
48
1
60
0
100
AcDbLine
10
130.270508
20
3.656854
30
0
11
134
21
3.656854
31
0
39
0
210
0
220
0
230
1
0
LINE
5
10E
100
AcDbEntity
8
1
62
256
6
ByLayer
370
18
48
1
60
0
100
AcDbLine
10
137.5
20
9.156854
30
0
11
134
21
9.156854
31
0
39
0
210
0
220
0
230
1
0
LINE
5
10F
100
AcDbEntity
8
1
62
256
6
ByLayer
370
18
48
1
60
0
100
AcDbLine
10
134
20
2.156854
30
0
11
137.5
21
2.156854
31
0
39
0
210
0
220
0
230
1
0
LINE
5
110
100
AcDbEntity
8
1
62
256
6
ByLayer
370
18
48
1
60
0
100
AcDbLine
10
138
20
8.656854
30
0
11
137.5
21
9.156854
31
0
39
0
210
0
220
0
230
1
0
LINE
5
111
100
AcDbEntity
8
1
62
256
6
ByLayer
370
18
48
1
60
0
100
AcDbLine
10
137.5
20
2.156854
30
0
11
138
21
2.656854
31
0
39
0
210
0
220
0
230
1
0
LINE
5
112
100
AcDbEntity
8
1
62
256
6
ByLayer
370
13
48
0.05
60
0
100
AcDbLine
10
134.5
20
0
30
0
11
-6.5
21
0
31
0
39
0
210
0
220
0
230
1
0
LINE
5
113
100
AcDbEntity
8
SK2
62
256
6
ByLayer
370
18
48
1
60
0
100
AcDbLine
10
-44.6
20
-31.5
30
0
11
-44.6
21
31.5
31
0
39
0
210
0
220
0
230
1
0
LINE
5
115
100
AcDbEntity
8
SK2
62
256
6
ByLayer
370
18
48
1
60
0
100
AcDbLine
10
-1.2875
20
31.5
30
0
11
-46.6
21
31.5
31
0
39
0
210
0
220
0
230
1
0
LINE
5
116
100
AcDbEntity
8
SK2
62
256
6
ByLayer
370
18
48
1
60
0
100
AcDbLine
10
-1.2875
20
-31.5
30
0
11
-46.6
21
-31.5
31
0
39
0
210
0
220
0
230
1
0
LINE
5
117
100
AcDbEntity
8
1
62
256
6
ByLayer
370
18
48
1
60
1
100
AcDbLine
10
-44.6
20
31.5
30
0
11
-44.139216
21
28.000002
31
0
39
0
210
0
220
0
230
1
0
LINE
5
118
100
AcDbEntity
8
1
62
256
6
ByLayer
370
18
48
1
60
1
100
AcDbLine
10
-44.139216
20
28.000002
30
0
11
-45.060784
21
27.999998
31
0
39
0
210
0
220
0
230
1
0
LINE
5
119
100
AcDbEntity
8
1
62
256
6
ByLayer
370
18
48
1
60
1
100
AcDbLine
10
-45.060784
20
27.999998
30
0
11
-44.6
21
31.5
31
0
39
0
210
0
220
0
230
1
0
LINE
5
11A
100
AcDbEntity
8
1
62
256
6
ByLayer
370
18
48
1
60
1
100
AcDbLine
10
-44.6
20
-31.5
30
0
11
-45.060784
21
-28.000002
31
0
39
0
210
0
220
0
230
1
0
LINE
5
11B
100
AcDbEntity
8
1
62
256
6
ByLayer
370
18
48
1
60
1
100
AcDbLine
10
-45.060784
20
-28.000002
30
0
11
-44.139216
21
-27.999998
31
0
39
0
210
0
220
0
230
1
0
LINE
5
11C
100
AcDbEntity
8
1
62
256
6
ByLayer
370
18
48
1
60
1
100
AcDbLine
10
-44.139216
20
-27.999998
30
0
11
-44.6
21
-31.5
31
0
39
0
210
0
220
0
230
1
0
LINE
5
11D
100
AcDbEntity
8
SK2
62
256
6
ByLayer
370
18
48
1
60
0
100
AcDbLine
10
147.1
20
12.5
30
0
11
147.1
21
-21.396399
31
0
39
0
210
0
220
0
230
1
0
LINE
5
11E
100
AcDbEntity
8
SK2
62
256
6
ByLayer
370
18
48
1
60
0
100
AcDbLine
10
129.5875
20
12.5
30
0
11
149.1
21
12.5
31
0
39
0
210
0
220
0
230
1
0
LINE
5
11F
100
AcDbEntity
8
SK2
62
256
6
ByLayer
370
18
48
1
60
0
100
AcDbLine
10
129.5875
20
-12.5
30
0
11
149.1
21
-12.5
31
0
39
0
210
0
220
0
230
1
0
LINE
5
120
100
AcDbEntity
8
1
62
256
6
ByLayer
370
18
48
1
60
1
100
AcDbLine
10
147.1
20
12.5
30
0
11
147.560784
21
9.000002
31
0
39
0
210
0
220
0
230
1
0
LINE
5
121
100
AcDbEntity
8
1
62
256
6
ByLayer
370
18
48
1
60
1
100
AcDbLine
10
147.560784
20
9.000002
30
0
11
146.639216
21
8.999998
31
0
39
0
210
0
220
0
230
1
0
LINE
5
122
100
AcDbEntity
8
1
62
256
6
ByLayer
370
18
48
1
60
1
100
AcDbLine
10
146.639216
20
8.999998
30
0
11
147.1
21
12.5
31
0
39
0
210
0
220
0
230
1
0
LINE
5
123
100
AcDbEntity
8
1
62
256
6
ByLayer
370
18
48
1
60
1
100
AcDbLine
10
147.1
20
-12.5
30
0
11
146.639216
21
-9.000002
31
0
39
0
210
0
220
0
230
1
0
LINE
5
124
100
AcDbEntity
8
1
62
256
6
ByLayer
370
18
48
1
60
1
100
AcDbLine
10
146.639216
20
-9.000002
30
0
11
147.560784
21
-8.999998
31
0
39
0
210
0
220
0
230
1
0
LINE
5
125
100
AcDbEntity
8
1
62
256
6
ByLayer
370
18
48
1
60
1
100
AcDbLine
10
147.560784
20
-8.999998
30
0
11
147.1
21
-12.5
31
0
39
0
210
0
220
0
230
1
0
LINE
5
126
100
AcDbEntity
8
SK2
62
256
6
ByLayer
370
18
48
1
60
0
100
AcDbLine
10
0
20
37.1
30
0
11
130
21
37.1
31
0
39
0
210
0
220
0
230
1
0
LINE
5
127
100
AcDbEntity
8
SK2
62
256
6
ByLayer
370
18
48
1
60
0
100
AcDbLine
10
130
20
14.0875
30
0
11
130
21
39.1
31
0
39
0
210
0
220
0
230
1
0
LINE
5
128
100
AcDbEntity
8
SK2
62
256
6
ByLayer
370
18
48
1
60
0
100
AcDbLine
10
0
20
32.7875
30
0
11
0
21
39.1
31
0
39
0
210
0
220
0
230
1
0
LINE
5
129
100
AcDbEntity
8
1
62
256
6
ByLayer
370
18
48
1
60
1
100
AcDbLine
10
130
20
37.1
30
0
11
126.500002
21
36.639216
31
0
39
0
210
0
220
0
230
1
0
LINE
5
12A
100
AcDbEntity
8
1
62
256
6
ByLayer
370
18
48
1
60
1
100
AcDbLine
10
126.500002
20
36.639216
30
0
11
126.499998
21
37.560784
31
0
39
0
210
0
220
0
230
1
0
LINE
5
12B
100
AcDbEntity
8
1
62
256
6
ByLayer
370
18
48
1
60
1
100
AcDbLine
10
126.499998
20
37.560784
30
0
11
130
21
37.1
31
0
39
0
210
0
220
0
230
1
0
LINE
5
12C
100
AcDbEntity
8
1
62
256
6
ByLayer
370
18
48
1
60
1
100
AcDbLine
10
0
20
37.1
30
0
11
3.499998
21
37.560784
31
0
39
0
210
0
220
0
230
1
0
LINE
5
12D
100
AcDbEntity
8
1
62
256
6
ByLayer
370
18
48
1
60
1
100
AcDbLine
10
3.499998
20
37.560784
30
0
11
3.500002
21
36.639216
31
0
39
0
210
0
220
0
230
1
0
LINE
5
12E
100
AcDbEntity
8
1
62
256
6
ByLayer
370
18
48
1
60
1
100
AcDbLine
10
3.500002
20
36.639216
30
0
11
0
21
37.1
31
0
39
0
210
0
220
0
230
1
0
LINE
5
193
100
AcDbEntity
8
1
62
256
6
ByLayer
370
13
48
0.05
60
0
100
AcDbLine
10
144.5
20
-5.656854
30
0
11
118
21
-5.656854
31
0
39
0
210
0
220
0
230
1
0
LINE
5
194
100
AcDbEntity
8
1
62
256
6
ByLayer
370
13
48
0.05
60
0
100
AcDbLine
10
137.16886
20
0
30
0
11
121.7
21
0
31
0
39
0
210
0
220
0
230
1
0
LINE
5
195
100
AcDbEntity
8
1
62
256
6
ByLayer
370
13
48
0.05
60
0
100
AcDbLine
10
144.5
20
5.656854
30
0
11
118
21
5.656854
31
0
39
0
210
0
220
0
230
1
0
LINE
5
19A
100
AcDbEntity
8
1
62
256
6
ByLayer
370
18
48
1
60
1
100
AcDbLine
10
-44.6
20
31.5
30
0
11
-44.139216
21
28.000002
31
0
39
0
210
0
220
0
230
1
0
LINE
5
19B
100
AcDbEntity
8
1
62
256
6
ByLayer
370
18
48
1
60
1
100
AcDbLine
10
-44.139216
20
28.000002
30
0
11
-45.060784
21
27.999998
31
0
39
0
210
0
220
0
230
1
0
LINE
5
19C
100
AcDbEntity
8
1
62
256
6
ByLayer
370
18
48
1
60
1
100
AcDbLine
10
-45.060784
20
27.999998
30
0
11
-44.6
21
31.5
31
0
39
0
210
0
220
0
230
1
0
LINE
5
19E
100
AcDbEntity
8
1
62
256
6
ByLayer
370
18
48
1
60
1
100
AcDbLine
10
-44.6
20
-31.5
30
0
11
-45.060784
21
-28.000002
31
0
39
0
210
0
220
0
230
1
0
LINE
5
19F
100
AcDbEntity
8
1
62
256
6
ByLayer
370
18
48
1
60
1
100
AcDbLine
10
-45.060784
20
-28.000002
30
0
11
-44.139216
21
-27.999998
31
0
39
0
210
0
220
0
230
1
0
LINE
5
1A0
100
AcDbEntity
8
1
62
256
6
ByLayer
370
18
48
1
60
1
100
AcDbLine
10
-44.139216
20
-27.999998
30
0
11
-44.6
21
-31.5
31
0
39
0
210
0
220
0
230
1
0
LINE
5
1A4
100
AcDbEntity
8
1
62
256
6
ByLayer
370
18
48
1
60
1
100
AcDbLine
10
147.1
20
12.5
30
0
11
147.560784
21
9.000002
31
0
39
0
210
0
220
0
230
1
0
LINE
5
1A5
100
AcDbEntity
8
1
62
256
6
ByLayer
370
18
48
1
60
1
100
AcDbLine
10
147.560784
20
9.000002
30
0
11
146.639216
21
8.999998
31
0
39
0
210
0
220
0
230
1
0
LINE
5
1A6
100
AcDbEntity
8
1
62
256
6
ByLayer
370
18
48
1
60
1
100
AcDbLine
10
146.639216
20
8.999998
30
0
11
147.1
21
12.5
31
0
39
0
210
0
220
0
230
1
0
LINE
5
1A8
100
AcDbEntity
8
1
62
256
6
ByLayer
370
18
48
1
60
1
100
AcDbLine
10
147.1
20
-12.5
30
0
11
146.639216
21
-9.000002
31
0
39
0
210
0
220
0
230
1
0
LINE
5
1A9
100
AcDbEntity
8
1
62
256
6
ByLayer
370
18
48
1
60
1
100
AcDbLine
10
146.639216
20
-9.000002
30
0
11
147.560784
21
-8.999998
31
0
39
0
210
0
220
0
230
1
0
LINE
5
1AA
100
AcDbEntity
8
1
62
256
6
ByLayer
370
18
48
1
60
1
100
AcDbLine
10
147.560784
20
-8.999998
30
0
11
147.1
21
-12.5
31
0
39
0
210
0
220
0
230
1
0
LINE
5
1AD
100
AcDbEntity
8
1
62
256
6
ByLayer
370
18
48
1
60
1
100
AcDbLine
10
130
20
37.1
30
0
11
126.500002
21
36.639216
31
0
39
0
210
0
220
0
230
1
0
LINE
5
1AE
100
AcDbEntity
8
1
62
256
6
ByLayer
370
18
48
1
60
1
100
AcDbLine
10
126.500002
20
36.639216
30
0
11
126.499998
21
37.560784
31
0
39
0
210
0
220
0
230
1
0
LINE
5
1AF
100
AcDbEntity
8
1
62
256
6
ByLayer
370
18
48
1
60
1
100
AcDbLine
10
126.499998
20
37.560784
30
0
11
130
21
37.1
31
0
39
0
210
0
220
0
230
1
0
LINE
5
1B1
100
AcDbEntity
8
1
62
256
6
ByLayer
370
18
48
1
60
1
100
AcDbLine
10
0
20
37.1
30
0
11
3.499998
21
37.560784
31
0
39
0
210
0
220
0
230
1
0
LINE
5
1B2
100
AcDbEntity
8
1
62
256
6
ByLayer
370
18
48
1
60
1
100
AcDbLine
10
3.499998
20
37.560784
30
0
11
3.500002
21
36.639216
31
0
39
0
210
0
220
0
230
1
0
LINE
5
1B3
100
AcDbEntity
8
1
62
256
6
ByLayer
370
18
48
1
60
1
100
AcDbLine
10
3.500002
20
36.639216
30
0
11
0
21
37.1
31
0
39
0
210
0
220
0
230
1
0
MTEXT
5
196
100
AcDbEntity
8
SK2
62
256
6
ByLayer
370
18
48
1
60
0
100
AcDbMText
10
-46.164634
20
-4.530622
30
0
210
0
220
0
230
1
1
%%c
40
3.5
41
0
44
1.084337
50
90
71
7
72
5
7
iso_b_vert
0
MTEXT
5
199
100
AcDbEntity
8
SK2
62
256
6
ByLayer
370
18
48
1
60
0
100
AcDbMText
10
-46.164634
20
2.442034
30
0
210
0
220
0
230
1
1
\W0.6740;63
40
3.5
41
0
44
1.084337
50
90
71
7
72
5
7
iso_b_vert
0
MTEXT
5
1A2
100
AcDbEntity
8
SK2
62
256
6
ByLayer
370
18
48
1
60
0
100
AcDbMText
10
145.535366
20
-19.461555
30
0
210
0
220
0
230
1
1
%%c
40
3.5
41
0
44
1.084337
50
90
71
7
72
5
7
iso_b_vert
0
MTEXT
5
1A3
100
AcDbEntity
8
SK2
62
256
6
ByLayer
370
18
48
1
60
0
100
AcDbMText
10
145.535366
20
-12.488899
30
0
210
0
220
0
230
1
1
\W0.6740;25
40
3.5
41
0
44
1.084337
50
90
71
7
72
5
7
iso_b_vert
0
MTEXT
5
1AC
100
AcDbEntity
8
SK2
62
256
6
ByLayer
370
18
48
1
60
0
100
AcDbMText
10
62.224734
20
38.132634
30
0
210
0
220
0
230
1
1
\W0.6217;130
40
3.5
41
0
44
1.084337
50
0
71
7
72
5
7
iso_b_vert
0
MTEXT
5
1B5
100
AcDbEntity
8
SK6
62
256
6
ByLayer
370
18
48
1
60
0
100
AcDbMText
10
27.56227
20
-57.067366
30
0
210
0
220
0
230
1
1
\W0.7314;HT30D-C6 25 130-25
40
3.5
41
0
44
1.084337
50
0
71
7
72
5
7
iso_b_vert
0
HATCH
5
19D
100
AcDbEntity
8
SK2
62
256
6
ByLayer
370
13
48
1
60
0
100
AcDbHatch
10
0
20
0
30
0
210
0
220
0
230
1
2
ANSI31
70
0
71
0
91
1
92
5
93
3
72
1
10
-44.6000000000001
20
31.4999999999999
11
-44.1392162584473
21
28.0000016925531
72
1
10
-44.1392162584473
20
28.0000016925531
11
-45.0607837415529
21
27.9999983074467
72
1
10
-45.0607837415529
20
27.9999983074467
11
-44.6000000000001
21
31.4999999999999
97
0
75
0
76
1
52
0
41
0.0062
77
0
78
1
53
45
43
0
44
0
45
-0.0139193969876572
46
0.0139193969876572
79
0
47
0
98
1
10
0
20
0
0
HATCH
5
1A1
100
AcDbEntity
8
SK2
62
256
6
ByLayer
370
13
48
1
60
0
100
AcDbHatch
10
0
20
0
30
0
210
0
220
0
230
1
2
ANSI31
70
0
71
0
91
1
92
5
93
3
72
1
10
-44.6000000000001
20
-31.5000000000001
11
-45.0607837415529
21
-28.0000016925533
72
1
10
-45.0607837415529
20
-28.0000016925533
11
-44.1392162584473
21
-27.9999983074469
72
1
10
-44.1392162584473
20
-27.9999983074469
11
-44.6000000000001
21
-31.5000000000001
97
0
75
0
76
1
52
0
41
0.0062
77
0
78
1
53
45
43
0
44
0
45
-0.0139193969876572
46
0.0139193969876572
79
0
47
0
98
1
10
0
20
0
0
HATCH
5
1A7
100
AcDbEntity
8
SK2
62
256
6
ByLayer
370
13
48
1
60
0
100
AcDbHatch
10
0
20
0
30
0
210
0
220
0
230
1
2
ANSI31
70
0
71
0
91
1
92
5
93
3
72
1
10
147.1
20
12.4999999999995
11
147.560783741553
21
9.0000016925527
72
1
10
147.560783741553
20
9.0000016925527
11
146.639216258447
21
8.99999830744633
72
1
10
146.639216258447
20
8.99999830744633
11
147.1
21
12.4999999999995
97
0
75
0
76
1
52
0
41
0.0062
77
0
78
1
53
45
43
0
44
0
45
-0.0139193969876572
46
0.0139193969876572
79
0
47
0
98
1
10
0
20
0
0
HATCH
5
1AB
100
AcDbEntity
8
SK2
62
256
6
ByLayer
370
13
48
1
60
0
100
AcDbHatch
10
0
20
0
30
0
210
0
220
0
230
1
2
ANSI31
70
0
71
0
91
1
92
5
93
3
72
1
10
147.1
20
-12.5000000000005
11
146.639216258447
21
-9.00000169255367
72
1
10
146.639216258447
20
-9.00000169255367
11
147.560783741553
21
-8.9999983074473
72
1
10
147.560783741553
20
-8.9999983074473
11
147.1
21
-12.5000000000005
97
0
75
0
76
1
52
0
41
0.0062
77
0
78
1
53
45
43
0
44
0
45
-0.0139193969876572
46
0.0139193969876572
79
0
47
0
98
1
10
0
20
0
0
HATCH
5
1B0
100
AcDbEntity
8
SK2
62
256
6
ByLayer
370
13
48
1
60
0
100
AcDbHatch
10
0
20
0
30
0
210
0
220
0
230
1
2
ANSI31
70
0
71
0
91
1
92
5
93
3
72
1
10
130
20
37.1000000000001
11
126.500001692553
21
36.6392162584473
72
1
10
126.500001692553
20
36.6392162584473
11
126.499998307447
21
37.5607837415529
72
1
10
126.499998307447
20
37.5607837415529
11
130
21
37.1000000000001
97
0
75
0
76
1
52
0
41
0.0062
77
0
78
1
53
45
43
0
44
0
45
-0.0139193969876572
46
0.0139193969876572
79
0
47
0
98
1
10
0
20
0
0
HATCH
5
1B4
100
AcDbEntity
8
SK2
62
256
6
ByLayer
370
13
48
1
60
0
100
AcDbHatch
10
0
20
0
30
0
210
0
220
0
230
1
2
ANSI31
70
0
71
0
91
1
92
5
93
3
72
1
10
0
20
37.1000000000001
11
3.49999830744682
21
37.5607837415529
72
1
10
3.49999830744682
20
37.5607837415529
11
3.50000169255318
21
36.6392162584473
72
1
10
3.50000169255318
20
36.6392162584473
11
0
21
37.1000000000001
97
0
75
0
76
1
52
0
41
0.0062
77
0
78
1
53
45
43
0
44
0
45
-0.0139193969876572
46
0.0139193969876572
79
0
47
0
98
1
10
0
20
0
0
DIMENSION
5
1B8
100
AcDbEntity
8
SK2
62
256
6
ByLayer
370
18
48
1
60
0
100
AcDbDimension
2
_U0
10
130
20
-44.6
30
0
11
77.5
21
-44.6
31
0
70
32
71
1
72
1
41
1
210
0
220
0
230
1
3
Standard
100
AcDbAlignedDimension
13
25
23
-12.5
33
0
14
130
24
12.5
34
0
50
0
100
AcDbRotatedDimension
1001
ACAD
1000
DSTYLE
1002
{
1070
   371
1070
    13
1070
   372
1070
    13
1070
   170
1070
     0
1070
   144
1040
1.0
1070
   277
1070
     2
1070
   284
1070
     8
1070
   278
1070
    46
1070
   146
1040
1.0
1070
   345
1005
16
1070
   347
1005
16
1070
   346
1005
16
1070
   344
1005
0
1070
   343
1005
0
1070
   172
1070
     1
1070
    76
1070
     0
1070
    75
1070
     0
1070
   282
1070
     0
1070
   281
1070
     0
1070
    71
1070
     0
1070
    74
1070
     0
1070
   279
1070
     0
1070
   173
1070
     1
1070
   340
1005
197
1070
   271
1070
     2
1070
   272
1070
     2
1070
    77
1070
     1
1070
    73
1070
     1
1070
   171
1070
     3
1070
   274
1070
     4
1070
   177
1070
     2
1070
   176
1070
     2
1070
   178
1070
     2
1070
    78
1070
     8
1070
    48
1040
-0.1
1070
    41
1040
3.5
1070
   147
1040
1.75
1070
    42
1040
1.5875
1070
    44
1040
2.0
1070
   140
1040
3.5
1002
}
1001
ACAD_DSTYLE_DIM_LINETYPE
1070
   380
1005
16
1001
ACAD_DSTYLE_DIM_EXT1_LINETYPE
1070
   381
1005
16
1001
ACAD_DSTYLE_DIM_EXT2_LINETYPE
1070
   382
1005
16
0
ENDSEC
0
SECTION
2
OBJECTS
0
DICTIONARY
5
241
330
0
100
AcDbDictionary
280
0
281
1
3
ACAD_GROUP
350
242
3
ACAD_MLINESTYLE
350
243
0
DICTIONARY
5
242
330
0
100
AcDbDictionary
280
0
281
1
0
DICTIONARY
5
243
330
0
100
AcDbDictionary
280
0
281
1
3
Standard
350
18
0
MLINESTYLE
5
18
330
243
100
AcDbMlineStyle
2
Standard
70
0
3

62
256
51
90
52
90
71
2
49
-0.5
62
256
6
ByLayer
49
0.5
62
256
6
ByLayer
0
RASTERVARIABLES
5
22f
330

100
AcDbRasterVariables
90
0
70
1
71
1
72
1
0
ENDSEC
0
EOF
