0
SECTION
2
HEADER
9
$ACADVER
1
AC1015
9
$DWGCODEPAGE
3
ANSI_1252
9
$HANDSEED
5
1db
9
$ANGBASE
50
0
9
$ANGDIR
70
0
9
$ATTMODE
70
1
9
$AUNITS
70
0
9
$AUPREC
70
0
9
$CECOLOR
62
256
9
$CELTSCALE
40
1
9
$CELTYPE
6
ByLayer
9
$CELWEIGHT
370
18
9
$CLAYER
8
0
9
$CMLJUST
70
0
9
$CMLSCALE
40
1
9
$CMLSTYLE
2
Standard
9
$DIMSTYLE
2
Standard
9
$TEXTSIZE
40
0.2
9
$TEXTSTYLE
7
Standard
9
$LUNITS
70
2
9
$LUPREC
70
4
9
$EXTNAMES
290
1
9
$INSUNITS
70
4
9
$LTSCALE
40
1
9
$LWDISPLAY
290
1
9
$PDMODE
70
0
9
$PDSIZE
40
0
9
$PLINEGEN
70
0
0
ENDSEC
0
SECTION
2
CLASSES
0
CLASS
1
RASTERVARIABLES
2
AcDbRasterVariables
3
ISM
90
0
280
0
281
0
0
ENDSEC
0
SECTION
2
TABLES
0
TABLE
2
VPORT
5
1d1
100
AcDbSymbolTable
0
VPORT
5
1
100
AcDbSymbolTableRecord
100
AcDbViewportTableRecord
2
*Active
70
0
10
0
20
0
11
1
21
1
12
-1
22
1
13
0
23
0
14
0.5
24
0.5
15
10
25
10
16
0
26
0
36
1
17
0
27
0
37
0
0
ENDTAB
0
TABLE
2
LTYPE
5
1d2
100
AcDbSymbolTable
0
LTYPE
5
14
100
AcDbSymbolTableRecord
100
AcDbLinetypeTableRecord
70
0
2
ByBlock
3

72
65
73
0
40
0
0
LTYPE
5
15
100
AcDbSymbolTableRecord
100
AcDbLinetypeTableRecord
70
0
2
ByLayer
3

72
65
73
0
40
0
0
LTYPE
5
16
100
AcDbSymbolTableRecord
100
AcDbLinetypeTableRecord
70
0
2
Continuous
3
Solid line
72
65
73
0
40
0
0
LTYPE
5
6E
100
AcDbSymbolTableRecord
100
AcDbLinetypeTableRecord
70
0
2
CENTER
3
____ _ ____ _ ____ _ ____
72
65
73
4
40
47.5
49
22
74
0
49
-8.5
74
0
49
8.5
74
0
49
-8.5
74
0
0
LTYPE
5
6F
100
AcDbSymbolTableRecord
100
AcDbLinetypeTableRecord
70
0
2
DASHED
3
__ __ __ __ __ __ __ __ __
72
65
73
2
40
25.72
49
12.86
74
0
49
-12.86
74
0
0
ENDTAB
0
TABLE
2
LAYER
5
1d3
100
AcDbSymbolTable
0
LAYER
5
10
100
AcDbSymbolTableRecord
100
AcDbLayerTableRecord
2
0
70
0
62
7
6
Continuous
290
1
370
-3
390
0
0
LAYER
5
71
100
AcDbSymbolTableRecord
100
AcDbLayerTableRecord
2
81
70
0
62
-3
6
Continuous
290
1
370
-3
390
0
0
LAYER
5
73
100
AcDbSymbolTableRecord
100
AcDbLayerTableRecord
2
80
70
0
62
-6
6
Continuous
290
1
370
-3
390
0
0
LAYER
5
77
100
AcDbSymbolTableRecord
100
AcDbLayerTableRecord
2
4
70
0
62
-2
6
CENTER
290
1
370
-3
390
0
0
LAYER
5
7B
100
AcDbSymbolTableRecord
100
AcDbLayerTableRecord
2
1
70
0
62
4
6
Continuous
290
1
370
-3
390
0
0
LAYER
5
FD
100
AcDbSymbolTableRecord
100
AcDbLayerTableRecord
2
Defpoints
70
0
62
7
6
Continuous
290
0
370
-3
390
0
0
LAYER
5
10A
100
AcDbSymbolTableRecord
100
AcDbLayerTableRecord
2
2
70
0
62
7
6
Continuous
290
1
370
-3
390
0
0
LAYER
5
1bd
100
AcDbSymbolTableRecord
100
AcDbLayerTableRecord
2
SK4
70
0
62
2
6
CENTER
290
1
370
-3
390
0
0
LAYER
5
1be
100
AcDbSymbolTableRecord
100
AcDbLayerTableRecord
2
SK1
70
0
62
4
6
Continuous
290
1
370
-3
390
0
0
LAYER
5
1bf
100
AcDbSymbolTableRecord
100
AcDbLayerTableRecord
2
SK6
70
0
62
5
6
Continuous
290
1
370
-3
390
0
0
LAYER
5
1c0
100
AcDbSymbolTableRecord
100
AcDbLayerTableRecord
2
SK2
70
0
62
7
6
Continuous
290
1
370
-3
390
0
0
ENDTAB
0
TABLE
2
STYLE
5
1d4
100
AcDbSymbolTable
0
STYLE
5
11
100
AcDbSymbolTableRecord
100
AcDbTextStyleTableRecord
2
Standard
3
txt
70
0
71
0
40
0
41
1
42
0
50
0
0
STYLE
5
F6
100
AcDbSymbolTableRecord
100
AcDbTextStyleTableRecord
2
iso_b_vert
3
simplex.shx
70
0
71
0
40
0
41
1
42
0
50
0
0
STYLE
5
F7
100
AcDbSymbolTableRecord
100
AcDbTextStyleTableRecord
2
DWGDirectTextStyle
3
simplex
70
0
71
0
40
0
41
1
42
0
50
0
0
ENDTAB
0
TABLE
2
DIMSTYLE
5
1d5
100
AcDbSymbolTable
100
AcDbDimStyleTable
0
DIMSTYLE
105
27
100
AcDbSymbolTableRecord
100
AcDbDimStyleTableRecord
2
Standard
70
0
3
<>
41
0.18
42
0.0625
44
0.18
140
0.18
147
0.09
73
0
74
0
77
1
271
2
275
0
278
52
280
0
340
11
0
ENDTAB
0
TABLE
2
VIEW
5
1d6
100
AcDbSymbolTable
0
ENDTAB
0
TABLE
2
UCS
5
1d7
100
AcDbSymbolTable
0
ENDTAB
0
TABLE
2
APPID
5
1d8
100
AcDbSymbolTable
0
APPID
5
12
100
AcDbSymbolTableRecord
100
AcDbRegAppTableRecord
2
ACAD
70
0
0
APPID
5
F9
100
AcDbSymbolTableRecord
100
AcDbRegAppTableRecord
2
ACAD_DSTYLE_DIMBREAK
70
0
0
APPID
5
17C
100
AcDbSymbolTableRecord
100
AcDbRegAppTableRecord
2
ACAD_DSTYLE_DIM_LINETYPE
70
0
0
APPID
5
17D
100
AcDbSymbolTableRecord
100
AcDbRegAppTableRecord
2
ACAD_DSTYLE_DIM_EXT1_LINETYPE
70
0
0
APPID
5
17E
100
AcDbSymbolTableRecord
100
AcDbRegAppTableRecord
2
ACAD_DSTYLE_DIM_EXT2_LINETYPE
70
0
0
APPID
5
1B9
100
AcDbSymbolTableRecord
100
AcDbRegAppTableRecord
2
ACAD_MLEADERVER
70
0
0
ENDTAB
0
TABLE
2
BLOCK_RECORD
5
1d9
100
AcDbSymbolTable
0
BLOCK_RECORD
5
1F
100
AcDbSymbolTableRecord
100
AcDbBlockTableRecord
2
*Model_Space
340
0
70
0
0
BLOCK_RECORD
5
1B
100
AcDbSymbolTableRecord
100
AcDbBlockTableRecord
2
*Paper_Space
340
0
70
0
0
BLOCK_RECORD
5
23
100
AcDbSymbolTableRecord
100
AcDbBlockTableRecord
2
*Paper_Space0
340
0
70
0
0
BLOCK_RECORD
5
FE
100
AcDbSymbolTableRecord
100
AcDbBlockTableRecord
2
*D1
340
0
70
0
0
BLOCK_RECORD
5
10B
100
AcDbSymbolTableRecord
100
AcDbBlockTableRecord
2
_U0
340
0
70
0
0
BLOCK_RECORD
5
117
100
AcDbSymbolTableRecord
100
AcDbBlockTableRecord
2
*D3
340
0
70
0
0
BLOCK_RECORD
5
124
100
AcDbSymbolTableRecord
100
AcDbBlockTableRecord
2
_U1
340
0
70
0
0
BLOCK_RECORD
5
130
100
AcDbSymbolTableRecord
100
AcDbBlockTableRecord
2
*D5
340
0
70
0
0
BLOCK_RECORD
5
13D
100
AcDbSymbolTableRecord
100
AcDbBlockTableRecord
2
_U2
340
0
70
0
0
BLOCK_RECORD
5
149
100
AcDbSymbolTableRecord
100
AcDbBlockTableRecord
2
*D7
340
0
70
0
0
BLOCK_RECORD
5
155
100
AcDbSymbolTableRecord
100
AcDbBlockTableRecord
2
_U3
340
0
70
0
0
ENDTAB
0
ENDSEC
0
SECTION
2
BLOCKS
0
BLOCK
5
20
100
AcDbEntity
8
0
100
AcDbBlockBegin
2
*Model_Space
70
0
10
0
20
0
30
0
3
*Model_Space
0
ENDBLK
5
21
100
AcDbEntity
8
0
100
AcDbBlockEnd
0
BLOCK
5
1C
100
AcDbEntity
8
0
100
AcDbBlockBegin
2
*Paper_Space
70
0
10
0
20
0
30
0
3
*Paper_Space
0
ENDBLK
5
1D
100
AcDbEntity
8
0
100
AcDbBlockEnd
0
BLOCK
5
24
100
AcDbEntity
8
0
100
AcDbBlockBegin
2
*Paper_Space0
70
0
10
0
20
0
30
0
3
*Paper_Space0
0
ENDBLK
5
25
100
AcDbEntity
8
0
100
AcDbBlockEnd
0
BLOCK
5
FF
100
AcDbEntity
8
0
100
AcDbBlockBegin
2
*D1
70
1
10
0
20
0
30
0
3
*D1
0
LINE
5
101
100
AcDbEntity
8
0
62
256
6
ByLayer
370
-2
48
1
60
0
100
AcDbLine
10
0
20
-11.5875
30
0
11
0
21
-17.537984
31
0
39
0
210
0
220
0
230
1
0
LINE
5
102
100
AcDbEntity
8
0
62
256
6
ByLayer
370
-2
48
1
60
0
100
AcDbLine
10
28
20
6.4125
30
0
11
28
21
-17.537984
31
0
39
0
210
0
220
0
230
1
0
LINE
5
103
100
AcDbEntity
8
0
62
256
6
ByLayer
370
-2
48
1
60
0
100
AcDbLine
10
3.175
20
-15.537984
30
0
11
24.825
21
-15.537984
31
0
39
0
210
0
220
0
230
1
0
SOLID
5
104
100
AcDbEntity
8
0
62
256
6
ByLayer
370
-1
48
1
60
0
100
AcDbTrace
10
3.175
20
-15.008817
30
0
11
3.175
21
-16.067151
31
0
12
0
22
-15.537984
32
0
13
0
23
-15.537984
33
0
39
0
210
0
220
0
230
1
0
SOLID
5
105
100
AcDbEntity
8
0
62
256
6
ByLayer
370
-1
48
1
60
0
100
AcDbTrace
10
24.825
20
-16.067151
30
0
11
24.825
21
-15.008817
31
0
12
28
22
-15.537984
32
0
13
28
23
-15.537984
33
0
39
0
210
0
220
0
230
1
0
MTEXT
5
106
100
AcDbEntity
8
0
62
256
6
ByLayer
370
18
48
1
60
0
100
AcDbMText
10
14
20
-9.537984
30
0
210
0
220
0
230
1
1
\A1;28
40
3
41
0
44
1
50
0
71
5
72
5
7
iso_b_vert
0
POINT
5
107
100
AcDbEntity
8
Defpoints
62
0
6
ByLayer
370
-1
48
1
60
0
100
AcDbPoint
10
0
20
-10
30
0
39
0
210
0
220
0
230
1
50
360
0
POINT
5
108
100
AcDbEntity
8
Defpoints
62
0
6
ByLayer
370
-1
48
1
60
0
100
AcDbPoint
10
28
20
8
30
0
39
0
210
0
220
0
230
1
50
360
0
POINT
5
109
100
AcDbEntity
8
Defpoints
62
0
6
ByLayer
370
-1
48
1
60
0
100
AcDbPoint
10
28
20
-15.537984
30
0
39
0
210
0
220
0
230
1
50
360
0
ENDBLK
5
100
100
AcDbEntity
8
0
100
AcDbBlockEnd
0
BLOCK
5
112
100
AcDbEntity
8
0
100
AcDbBlockBegin
2
_U0
70
0
10
0
20
0
30
0
3
_U0
0
MTEXT
5
10C
100
AcDbEntity
8
2
62
256
6
ByLayer
370
18
48
1
60
0
100
AcDbMText
10
12.367172
20
-14.65287
30
0
210
0
220
0
230
1
1
\W0.6740;28
40
3
41
0
44
1.084337
50
0
71
7
72
5
7
iso_b_vert
0
LINE
5
10D
100
AcDbEntity
8
2
62
256
6
ByLayer
370
13
48
1
60
0
100
AcDbLine
10
0
20
-11.5875
30
0
11
0
21
-17.537984
31
0
39
0
210
0
220
0
230
1
0
LINE
5
10E
100
AcDbEntity
8
2
62
256
6
ByLayer
370
13
48
1
60
0
100
AcDbLine
10
28
20
6.4125
30
0
11
28
21
-17.537984
31
0
39
0
210
0
220
0
230
1
0
LINE
5
10F
100
AcDbEntity
8
2
62
256
6
ByLayer
370
13
48
1
60
0
100
AcDbLine
10
0
20
-15.537984
30
0
11
28
21
-15.537984
31
0
39
0
210
0
220
0
230
1
0
SOLID
5
110
100
AcDbEntity
8
2
62
256
6
ByLayer
370
18
48
1
60
0
100
AcDbTrace
10
0
20
-15.537984
30
0
11
3.174998
21
-15.119987
31
0
12
3.175002
22
-15.955981
32
0
13
3.175002
23
-15.955981
33
0
39
0
210
0
220
0
230
1
0
SOLID
5
111
100
AcDbEntity
8
2
62
256
6
ByLayer
370
18
48
1
60
0
100
AcDbTrace
10
28
20
-15.537984
30
0
11
24.825002
21
-15.955981
31
0
12
24.824998
22
-15.119987
32
0
13
24.824998
23
-15.119987
33
0
39
0
210
0
220
0
230
1
0
ENDBLK
5
113
100
AcDbEntity
8
0
100
AcDbBlockEnd
0
BLOCK
5
118
100
AcDbEntity
8
0
100
AcDbBlockBegin
2
*D3
70
1
10
0
20
0
30
0
3
*D3
0
LINE
5
11A
100
AcDbEntity
8
0
62
256
6
ByLayer
370
-2
48
1
60
0
100
AcDbLine
10
31.5875
20
0
30
0
11
39.317753
21
0
31
0
39
0
210
0
220
0
230
1
0
LINE
5
11B
100
AcDbEntity
8
0
62
256
6
ByLayer
370
-2
48
1
60
0
100
AcDbLine
10
29.5875
20
8
30
0
11
39.317753
21
8
31
0
39
0
210
0
220
0
230
1
0
LINE
5
11C
100
AcDbEntity
8
0
62
256
6
ByLayer
370
-2
48
1
60
0
100
AcDbLine
10
37.317753
20
-3.175
30
0
11
37.317753
21
-6.35
31
0
39
0
210
0
220
0
230
1
0
LINE
5
11D
100
AcDbEntity
8
0
62
256
6
ByLayer
370
-2
48
1
60
0
100
AcDbLine
10
37.317753
20
11.175
30
0
11
37.317753
21
14.35
31
0
39
0
210
0
220
0
230
1
0
SOLID
5
11E
100
AcDbEntity
8
0
62
256
6
ByLayer
370
-1
48
1
60
0
100
AcDbTrace
10
37.84692
20
-3.175
30
0
11
36.788587
21
-3.175
31
0
12
37.317753
22
0
32
0
13
37.317753
23
0
33
0
39
0
210
0
220
0
230
1
0
SOLID
5
11F
100
AcDbEntity
8
0
62
256
6
ByLayer
370
-1
48
1
60
0
100
AcDbTrace
10
36.788587
20
11.175
30
0
11
37.84692
21
11.175
31
0
12
37.317753
22
8
32
0
13
37.317753
23
8
33
0
39
0
210
0
220
0
230
1
0
MTEXT
5
120
100
AcDbEntity
8
0
62
256
6
ByLayer
370
18
48
1
60
0
100
AcDbMText
10
31.317753
20
4
30
0
210
0
220
0
230
1
1
\A1;8
40
3
41
0
44
1
50
90
71
5
72
5
7
iso_b_vert
0
POINT
5
121
100
AcDbEntity
8
Defpoints
62
0
6
ByLayer
370
-1
48
1
60
0
100
AcDbPoint
10
30
20
0
30
0
39
0
210
0
220
0
230
1
50
360
0
POINT
5
122
100
AcDbEntity
8
Defpoints
62
0
6
ByLayer
370
-1
48
1
60
0
100
AcDbPoint
10
28
20
8
30
0
39
0
210
0
220
0
230
1
50
360
0
POINT
5
123
100
AcDbEntity
8
Defpoints
62
0
6
ByLayer
370
-1
48
1
60
0
100
AcDbPoint
10
37.317753
20
8
30
0
39
0
210
0
220
0
230
1
50
360
0
ENDBLK
5
119
100
AcDbEntity
8
0
100
AcDbBlockEnd
0
BLOCK
5
12B
100
AcDbEntity
8
0
100
AcDbBlockBegin
2
_U1
70
0
10
0
20
0
30
0
3
_U1
0
MTEXT
5
125
100
AcDbEntity
8
2
62
256
6
ByLayer
370
18
48
1
60
0
100
AcDbMText
10
36.726639
20
3.464086
30
0
210
0
220
0
230
1
1
\W0.5404;8
40
3
41
0
44
1.084337
50
90
71
7
72
5
7
iso_b_vert
0
LINE
5
126
100
AcDbEntity
8
2
62
256
6
ByLayer
370
13
48
1
60
0
100
AcDbLine
10
31.5875
20
0
30
0
11
39.317753
21
0
31
0
39
0
210
0
220
0
230
1
0
LINE
5
127
100
AcDbEntity
8
2
62
256
6
ByLayer
370
13
48
1
60
0
100
AcDbLine
10
31.5875
20
8
30
0
11
39.317753
21
8
31
0
39
0
210
0
220
0
230
1
0
LINE
5
128
100
AcDbEntity
8
2
62
256
6
ByLayer
370
13
48
1
60
0
100
AcDbLine
10
37.317753
20
0
30
0
11
37.317753
21
8
31
0
39
0
210
0
220
0
230
1
0
SOLID
5
129
100
AcDbEntity
8
2
62
256
6
ByLayer
370
18
48
1
60
0
100
AcDbTrace
10
37.317753
20
0
30
0
11
36.899757
21
3.174998
31
0
12
37.73575
22
3.175002
32
0
13
37.73575
23
3.175002
33
0
39
0
210
0
220
0
230
1
0
SOLID
5
12A
100
AcDbEntity
8
2
62
256
6
ByLayer
370
18
48
1
60
0
100
AcDbTrace
10
37.317753
20
8
30
0
11
37.73575
21
4.825002
31
0
12
36.899757
22
4.824998
32
0
13
36.899757
23
4.824998
33
0
39
0
210
0
220
0
230
1
0
ENDBLK
5
12C
100
AcDbEntity
8
0
100
AcDbBlockEnd
0
BLOCK
5
131
100
AcDbEntity
8
0
100
AcDbBlockBegin
2
*D5
70
1
10
0
20
0
30
0
3
*D5
0
LINE
5
133
100
AcDbEntity
8
0
62
256
6
ByLayer
370
-2
48
1
60
0
100
AcDbLine
10
-1.5875
20
8
30
0
11
-23.422546
21
8
31
0
39
0
210
0
220
0
230
1
0
LINE
5
134
100
AcDbEntity
8
0
62
256
6
ByLayer
370
-2
48
1
60
0
100
AcDbLine
10
-1.5875
20
-10
30
0
11
-23.422546
21
-10
31
0
39
0
210
0
220
0
230
1
0
LINE
5
135
100
AcDbEntity
8
0
62
256
6
ByLayer
370
-2
48
1
60
0
100
AcDbLine
10
-21.422546
20
4.825
30
0
11
-21.422546
21
-6.825
31
0
39
0
210
0
220
0
230
1
0
SOLID
5
136
100
AcDbEntity
8
0
62
256
6
ByLayer
370
-1
48
1
60
0
100
AcDbTrace
10
-20.89338
20
4.825
30
0
11
-21.951713
21
4.825
31
0
12
-21.422546
22
8
32
0
13
-21.422546
23
8
33
0
39
0
210
0
220
0
230
1
0
SOLID
5
137
100
AcDbEntity
8
0
62
256
6
ByLayer
370
-1
48
1
60
0
100
AcDbTrace
10
-21.951713
20
-6.825
30
0
11
-20.89338
21
-6.825
31
0
12
-21.422546
22
-10
32
0
13
-21.422546
23
-10
33
0
39
0
210
0
220
0
230
1
0
MTEXT
5
138
100
AcDbEntity
8
0
62
256
6
ByLayer
370
18
48
1
60
0
100
AcDbMText
10
-27.422546
20
-1
30
0
210
0
220
0
230
1
1
\A1;18
40
3
41
0
44
1
50
90
71
5
72
5
7
iso_b_vert
0
POINT
5
139
100
AcDbEntity
8
Defpoints
62
0
6
ByLayer
370
-1
48
1
60
0
100
AcDbPoint
10
0
20
8
30
0
39
0
210
0
220
0
230
1
50
360
0
POINT
5
13A
100
AcDbEntity
8
Defpoints
62
0
6
ByLayer
370
-1
48
1
60
0
100
AcDbPoint
10
0
20
-10
30
0
39
0
210
0
220
0
230
1
50
360
0
POINT
5
13B
100
AcDbEntity
8
Defpoints
62
0
6
ByLayer
370
-1
48
1
60
0
100
AcDbPoint
10
-21.422546
20
-10
30
0
39
0
210
0
220
0
230
1
50
360
0
ENDBLK
5
132
100
AcDbEntity
8
0
100
AcDbBlockEnd
0
BLOCK
5
144
100
AcDbEntity
8
0
100
AcDbBlockBegin
2
_U2
70
0
10
0
20
0
30
0
3
_U2
0
MTEXT
5
13E
100
AcDbEntity
8
SK2
62
256
6
ByLayer
370
18
48
1
60
0
100
AcDbMText
10
-22.013661
20
-2.281885
30
0
210
0
220
0
230
1
1
\W0.5321;18
40
3
41
0
44
1.084337
50
90
71
7
72
5
7
iso_b_vert
0
LINE
5
13F
100
AcDbEntity
8
SK2
62
256
6
ByLayer
370
13
48
1
60
0
100
AcDbLine
10
-1.5875
20
8
30
0
11
-23.422546
21
8
31
0
39
0
210
0
220
0
230
1
0
LINE
5
140
100
AcDbEntity
8
SK2
62
256
6
ByLayer
370
13
48
1
60
0
100
AcDbLine
10
-1.5875
20
-10
30
0
11
-23.422546
21
-10
31
0
39
0
210
0
220
0
230
1
0
LINE
5
141
100
AcDbEntity
8
SK2
62
256
6
ByLayer
370
13
48
1
60
0
100
AcDbLine
10
-21.422546
20
8
30
0
11
-21.422546
21
-10
31
0
39
0
210
0
220
0
230
1
0
SOLID
5
142
100
AcDbEntity
8
SK2
62
256
6
ByLayer
370
18
48
1
60
0
100
AcDbTrace
10
-21.422546
20
8
30
0
11
-21.00455
21
4.825002
31
0
12
-21.840543
22
4.824998
32
0
13
-21.840543
23
4.824998
33
0
39
0
210
0
220
0
230
1
0
SOLID
5
143
100
AcDbEntity
8
SK2
62
256
6
ByLayer
370
18
48
1
60
0
100
AcDbTrace
10
-21.422546
20
-10
30
0
11
-21.840543
21
-6.825002
31
0
12
-21.00455
22
-6.824998
32
0
13
-21.00455
23
-6.824998
33
0
39
0
210
0
220
0
230
1
0
ENDBLK
5
145
100
AcDbEntity
8
0
100
AcDbBlockEnd
0
BLOCK
5
14A
100
AcDbEntity
8
0
100
AcDbBlockBegin
2
*D7
70
1
10
0
20
0
30
0
3
*D7
0
LINE
5
14C
100
AcDbEntity
8
0
62
256
6
ByLayer
370
-2
48
1
60
0
100
AcDbLine
10
-16.5
20
-4.497524
30
0
11
-16.5
21
-26.205988
31
0
39
0
210
0
220
0
230
1
0
LINE
5
14D
100
AcDbEntity
8
0
62
256
6
ByLayer
370
-2
48
1
60
0
100
AcDbLine
10
28
20
6.4125
30
0
11
28
21
-26.205988
31
0
39
0
210
0
220
0
230
1
0
LINE
5
14E
100
AcDbEntity
8
0
62
256
6
ByLayer
370
-2
48
1
60
0
100
AcDbLine
10
-13.325
20
-24.205988
30
0
11
24.825
21
-24.205988
31
0
39
0
210
0
220
0
230
1
0
SOLID
5
14F
100
AcDbEntity
8
0
62
256
6
ByLayer
370
-1
48
1
60
0
100
AcDbTrace
10
-13.325
20
-23.676822
30
0
11
-13.325
21
-24.735155
31
0
12
-16.5
22
-24.205988
32
0
13
-16.5
23
-24.205988
33
0
39
0
210
0
220
0
230
1
0
SOLID
5
150
100
AcDbEntity
8
0
62
256
6
ByLayer
370
-1
48
1
60
0
100
AcDbTrace
10
24.825
20
-24.735155
30
0
11
24.825
21
-23.676822
31
0
12
28
22
-24.205988
32
0
13
28
23
-24.205988
33
0
39
0
210
0
220
0
230
1
0
MTEXT
5
151
100
AcDbEntity
8
0
62
256
6
ByLayer
370
18
48
1
60
0
100
AcDbMText
10
5.75
20
-18.205988
30
0
210
0
220
0
230
1
1
\A1;44.5
40
3
41
0
44
1
50
0
71
5
72
5
7
iso_b_vert
0
POINT
5
152
100
AcDbEntity
8
Defpoints
62
0
6
ByLayer
370
-1
48
1
60
0
100
AcDbPoint
10
-16.5
20
-2.910024
30
0
39
0
210
0
220
0
230
1
50
360
0
POINT
5
153
100
AcDbEntity
8
Defpoints
62
0
6
ByLayer
370
-1
48
1
60
0
100
AcDbPoint
10
28
20
8
30
0
39
0
210
0
220
0
230
1
50
360
0
POINT
5
154
100
AcDbEntity
8
Defpoints
62
0
6
ByLayer
370
-1
48
1
60
0
100
AcDbPoint
10
28
20
-24.205988
30
0
39
0
210
0
220
0
230
1
50
360
0
ENDBLK
5
14B
100
AcDbEntity
8
0
100
AcDbBlockEnd
0
BLOCK
5
15C
100
AcDbEntity
8
0
100
AcDbBlockBegin
2
_U3
70
0
10
0
20
0
30
0
3
_U3
0
MTEXT
5
156
100
AcDbEntity
8
SK2
62
256
6
ByLayer
370
18
48
1
60
0
100
AcDbMText
10
2.072658
20
-23.320874
30
0
210
0
220
0
230
1
1
\W0.7983;44.5
40
3
41
0
44
1.084337
50
0
71
7
72
5
7
iso_b_vert
0
LINE
5
157
100
AcDbEntity
8
SK2
62
256
6
ByLayer
370
13
48
1
60
0
100
AcDbLine
10
-16.5
20
-4.497524
30
0
11
-16.5
21
-26.205988
31
0
39
0
210
0
220
0
230
1
0
LINE
5
158
100
AcDbEntity
8
SK2
62
256
6
ByLayer
370
13
48
1
60
0
100
AcDbLine
10
28
20
6.4125
30
0
11
28
21
-26.205988
31
0
39
0
210
0
220
0
230
1
0
LINE
5
159
100
AcDbEntity
8
SK2
62
256
6
ByLayer
370
13
48
1
60
0
100
AcDbLine
10
-16.5
20
-24.205988
30
0
11
28
21
-24.205988
31
0
39
0
210
0
220
0
230
1
0
SOLID
5
15A
100
AcDbEntity
8
SK2
62
256
6
ByLayer
370
18
48
1
60
0
100
AcDbTrace
10
-16.5
20
-24.205988
30
0
11
-13.325002
21
-23.787991
31
0
12
-13.324998
22
-24.623985
32
0
13
-13.324998
23
-24.623985
33
0
39
0
210
0
220
0
230
1
0
SOLID
5
15B
100
AcDbEntity
8
SK2
62
256
6
ByLayer
370
18
48
1
60
0
100
AcDbTrace
10
28
20
-24.205988
30
0
11
24.825002
21
-24.623985
31
0
12
24.824998
22
-23.787991
32
0
13
24.824998
23
-23.787991
33
0
39
0
210
0
220
0
230
1
0
ENDBLK
5
15D
100
AcDbEntity
8
0
100
AcDbBlockEnd
0
ENDSEC
0
SECTION
2
ENTITIES
0
ARC
5
CD
100
AcDbEntity
8
SK1
62
256
6
ByLayer
370
13
48
1
60
0
100
AcDbCircle
39
0
10
-15.942871
20
-2.875
30
0
40
0.5
210
0
220
0
230
1
100
AcDbArc
50
210
51
299.061062
0
ARC
5
CE
100
AcDbEntity
8
SK1
62
256
6
ByLayer
370
13
48
1
60
0
100
AcDbCircle
39
0
10
-15.942871
20
2.875
30
0
40
0.5
210
0
220
0
230
1
100
AcDbArc
50
60.938938
51
150
0
ARC
5
CF
100
AcDbEntity
8
SK1
62
256
6
ByLayer
370
13
48
1
60
0
100
AcDbCircle
39
0
10
-0.999897
20
4.99
30
0
40
0.3
210
0
220
0
230
1
100
AcDbArc
50
213.521749
51
270
0
ARC
5
D0
100
AcDbEntity
8
SK1
62
256
6
ByLayer
370
13
48
1
60
0
100
AcDbCircle
39
0
10
-0.999897
20
-4.99
30
0
40
0.3
210
0
220
0
230
1
100
AcDbArc
50
90
51
146.478251
0
ARC
5
D1
100
AcDbEntity
8
SK1
62
256
6
ByLayer
370
13
48
1
60
0
100
AcDbCircle
39
0
10
-0.1
20
-4.99
30
0
40
0.3
210
0
220
0
230
1
100
AcDbArc
50
70.527647
51
90
0
ARC
5
D2
100
AcDbEntity
8
SK1
62
256
6
ByLayer
370
13
48
1
60
0
100
AcDbCircle
39
0
10
-0.1
20
4.99
30
0
40
0.3
210
0
220
0
230
1
100
AcDbArc
50
270
51
289.472353
0
ELLIPSE
5
D3
100
AcDbEntity
8
1
62
256
6
ByLayer
370
18
48
1
60
0
100
AcDbEllipse
10
15.686727
20
-2.806663
30
0
11
-1.19616779010035
21
-0.0208791864412443
31
0
210
0
220
0
230
1
40
0.034899
41
-2.61799387799153
42
-2.07597079963953
0
ELLIPSE
5
D4
100
AcDbEntity
8
1
62
256
6
ByLayer
370
18
48
1
60
0
100
AcDbEllipse
10
15.686727
20
-2.806663
30
0
11
-1.19616779010035
21
-0.0208791864412443
31
0
210
0
220
0
230
1
40
0.034899
41
2.6179938779915
42
-2.61799387799153
0
ELLIPSE
5
D5
100
AcDbEntity
8
1
62
256
6
ByLayer
370
18
48
1
60
0
100
AcDbEllipse
10
15.686727
20
-2.806663
30
0
11
-1.19616779010035
21
-0.0208791864412443
31
0
210
0
220
0
230
1
40
0.034899
41
2.00371467304895
42
2.6179938779915
0
ELLIPSE
5
D6
100
AcDbEntity
8
1
62
256
6
ByLayer
370
18
48
1
60
0
100
AcDbEllipse
10
15.676262
20
-2.20712
30
0
11
-1.99969539031278
21
-0.0349048128745672
31
0
210
0
220
0
230
1
40
0.034899
41
3.10674220960661
42
-2.22650522327328
0
ELLIPSE
5
D7
100
AcDbEntity
8
1
62
256
6
ByLayer
370
18
48
1
60
0
100
AcDbEllipse
10
15.686727
20
-2.806663
30
0
11
1.39978677321895
21
0.0244333690121969
31
0
210
0
220
0
230
1
40
0.034899
41
-1.21029844032024
42
-9.08927414723429E-15
0
ELLIPSE
5
D8
100
AcDbEntity
8
1
62
256
6
ByLayer
370
18
48
1
60
0
100
AcDbEllipse
10
15.686727
20
-2.806663
30
0
11
1.39978677321895
21
0.0244333690121969
31
0
210
0
220
0
230
1
40
0.034899
41
0
42
1.13804176729242
0
ELLIPSE
5
D9
100
AcDbEntity
8
1
62
256
6
ByLayer
370
13
48
1
60
0
100
AcDbEllipse
10
9.3
20
7.700658
30
0
11
0.799999851064807
21
0.0139810987292027
31
0
210
0
220
0
230
1
40
0.034915
41
3.14098245832131
42
-1.57140652206355
0
ELLIPSE
5
DA
100
AcDbEntity
8
1
62
256
6
ByLayer
370
13
48
1
60
0
100
AcDbEllipse
10
1.787765
20
8.47231
30
0
11
0.799878156124843
21
0.0139619251463707
31
0
210
0
220
0
230
1
40
0.965689
41
-2.50189039475772
42
-1.5707963267949
0
POINT
5
70
100
AcDbEntity
8
81
62
256
6
ByLayer
370
18
48
1
60
0
100
AcDbPoint
10
28
20
8
30
0
39
0
210
0
220
0
230
1
50
360
0
POINT
5
72
100
AcDbEntity
8
80
62
256
6
ByLayer
370
18
48
1
60
0
100
AcDbPoint
10
0
20
0
30
0
39
0
210
0
220
0
230
1
50
360
0
SPLINE
5
DB
100
AcDbEntity
8
1
62
256
6
ByLayer
370
18
48
1
60
0
100
AcDbSpline
70
4
71
3
72
24
73
20
40
0
40
0
40
0
40
0
40
0.271752902289242
40
0.271752902289242
40
0.407629353433863
40
0.407629353433863
40
0.543505804578484
40
0.543505804578484
40
0.679382255723105
40
0.679382255723105
40
0.747320481295416
40
0.747320481295416
40
0.815258706867726
40
0.815258706867726
40
0.883196932440037
40
0.883196932440037
40
0.951135158012348
40
0.951135158012348
40
1
40
1
40
1
40
1
41
1
10
16.723002929635
20
-2.80945368596201
30
0
41
1
10
16.7073556427464
20
-2.81067394041008
30
0
41
1
10
16.6894719799683
20
-2.81111565775063
30
0
41
1
10
16.6592866358069
20
-2.81028206957274
30
0
41
1
10
16.64865621055
20
-2.80974854890121
30
0
41
1
10
16.6262193474521
20
-2.80800946616773
30
0
41
1
10
16.6143825883265
20
-2.80680331177632
30
0
41
1
10
16.589495012042
20
-2.80343654900844
30
0
41
1
10
16.5763338365616
20
-2.8012614739979
30
0
41
1
10
16.5558639677081
20
-2.79694120700049
30
0
41
1
10
16.5489021863823
20
-2.79532128636083
30
0
41
1
10
16.5346361631011
20
-2.79159904781136
30
0
41
1
10
16.5272856434401
20
-2.78947934505015
30
0
41
1
10
16.512686265468
20
-2.78474321061572
30
0
41
1
10
16.505387313102
20
-2.78211733704563
30
0
41
1
10
16.4908037648821
20
-2.77618063459806
30
0
41
1
10
16.4836899289757
20
-2.77293121474747
30
0
41
1
10
16.4721130922603
20
-2.76692889028936
30
0
41
1
10
16.4674110196916
20
-2.76425613247147
30
0
41
1
10
16.4630155137347
20
-2.76151853006013
30
0
0
SPLINE
5
DC
100
AcDbEntity
8
1
62
256
6
ByLayer
370
18
48
1
60
0
100
AcDbSpline
70
4
71
3
72
16
73
12
40
0
40
0
40
0
40
0
40
0.34945103674015
40
0.34945103674015
40
0.524176555110225
40
0.524176555110225
40
0.698902073480301
40
0.698902073480301
40
0.873627591850376
40
0.873627591850376
40
1
40
1
40
1
40
1
41
1
10
16.723002929635
20
-2.80945368596201
30
0
41
1
10
16.7386478148509
20
-2.80823361880857
30
0
41
1
10
16.7520351127846
20
-2.80623796503846
30
0
41
1
10
16.7679753334235
20
-2.80180706018586
30
0
41
1
10
16.7725797332982
20
-2.80008736578964
30
0
41
1
10
16.7800673980088
20
-2.79601438037434
30
0
41
1
10
16.7829531860608
20
-2.79366396412479
30
0
41
1
10
16.7864390034531
20
-2.78807264710702
30
0
41
1
10
16.7870444551088
20
-2.78483221694683
30
0
41
1
10
16.7852567720167
20
-2.77812162119756
30
0
41
1
10
16.7836296746954
20
-2.77494624303927
30
0
41
1
10
16.7808814774091
20
-2.77134803402271
30
0
0
SPLINE
5
DD
100
AcDbEntity
8
SK1
62
256
6
ByLayer
370
13
48
1
60
0
100
AcDbSpline
70
4
71
3
72
8
73
4
40
0
40
0
40
0
40
0
40
1
40
1
40
1
40
1
41
1
10
-16.4999999999998
20
1.38867513459479
30
0
41
1
10
-16.459430940198
20
1.36525257699748
30
0
41
1
10
-16.4180043020194
20
1.34133489629346
30
0
41
1
10
-16.3758834272548
20
1.3170163979097
30
0
0
SPLINE
5
DE
100
AcDbEntity
8
SK1
62
256
6
ByLayer
370
13
48
1
60
0
100
AcDbSpline
70
4
71
3
72
8
73
4
40
0
40
0
40
0
40
0
40
1
40
1
40
1
40
1
41
1
10
-16.3758834272548
20
-1.3170163979097
30
0
41
1
10
-16.4180043020194
20
-1.34133489629346
30
0
41
1
10
-16.459430940198
20
-1.36525257699748
30
0
41
1
10
-16.4999999999998
20
-1.38867513459479
30
0
0
SPLINE
5
DF
100
AcDbEntity
8
SK1
62
256
6
ByLayer
370
13
48
1
60
0
100
AcDbSpline
70
4
71
3
72
31
73
27
40
0
40
0
40
0
40
0
40
0.125000000000004
40
0.125000000000004
40
0.187500000000007
40
0.187500000000007
40
0.250000000000009
40
0.250000000000009
40
0.375000000000015
40
0.375000000000015
40
0.406250000000015
40
0.406250000000015
40
0.437500000000015
40
0.437500000000015
40
0.500000000000016
40
0.500000000000016
40
0.625000000000012
40
0.625000000000012
40
0.68750000000001
40
0.68750000000001
40
0.750000000000008
40
0.812500000000006
40
0.812500000000006
40
0.875000000000004
40
0.875000000000004
40
1
40
1
40
1
40
1
41
1
10
-11.0599999999998
20
-1.137E-13
30
0
41
1
10
-11.0599999999998
20
-0.0333398988911995
30
0
41
1
10
-11.0633011851797
20
-0.0661075309260468
30
0
41
1
10
-11.0729949748862
20
-0.114438127765084
30
0
41
1
10
-11.077022579144
20
-0.130410500718313
30
0
41
1
10
-11.0867070812833
20
-0.16207375125839
30
0
41
1
10
-11.092383813895
20
-0.177784536635272
30
0
41
1
10
-11.1114909599713
20
-0.223447078539948
30
0
41
1
10
-11.127071509858
20
-0.252302025114318
30
0
41
1
10
-11.1500781883133
20
-0.286411976258933
30
0
41
1
10
-11.1548577187656
20
-0.29313512729675
30
0
41
1
10
-11.1647793629136
20
-0.306380676479762
30
0
41
1
10
-11.1699340830307
20
-0.312917029792288
30
0
41
1
10
-11.1857879477033
20
-0.332023023864053
30
0
41
1
10
-11.1969110907915
20
-0.344144228780237
30
0
41
1
10
-11.2318987857882
20
-0.378714692088806
30
0
41
1
10
-11.2573653917785
20
-0.39938867440469
30
0
41
1
10
-11.2988993665689
20
-0.426733188369553
30
0
41
1
10
-11.3132107173302
20
-0.435161735266433
30
0
41
1
10
-11.342351637454
20
-0.450444087719916
30
0
41
1
10
-11.3721282467881
20
-0.464230397569395
30
0
41
1
10
-11.4031675518656
20
-0.475053941039164
30
0
41
1
10
-11.4348524666437
20
-0.484366347488617
30
0
41
1
10
-11.4510964183506
20
-0.48827794223655
30
0
41
1
10
-11.5000153408609
20
-0.497496931197702
30
0
41
1
10
-11.5329872831217
20
-0.500381684465992
30
0
41
1
10
-11.5663240377403
20
-0.49996000494707
30
0
0
SPLINE
5
E0
100
AcDbEntity
8
SK1
62
256
6
ByLayer
370
13
48
1
60
0
100
AcDbSpline
70
4
71
3
72
31
73
27
40
0
40
0
40
0
40
0
40
0.125000000000008
40
0.125000000000008
40
0.187500000000012
40
0.187500000000012
40
0.250000000000016
40
0.250000000000016
40
0.375000000000024
40
0.375000000000024
40
0.406250000000024
40
0.406250000000024
40
0.437500000000025
40
0.437500000000025
40
0.500000000000021
40
0.500000000000021
40
0.625000000000019
40
0.625000000000019
40
0.687500000000015
40
0.687500000000015
40
0.750000000000012
40
0.812500000000009
40
0.812500000000009
40
0.875000000000005
40
0.875000000000005
40
1
40
1
40
1
40
1
41
1
10
-11.5663240377403
20
0.49996000494707
30
0
41
1
10
-11.5329868618973
20
0.50038168979404
30
0
41
1
10
-11.5001792241884
20
0.497495227264267
30
0
41
1
10
-11.4517275055559
20
0.488412810580598
30
0
41
1
10
-11.4357044948275
20
0.484587201785416
30
0
41
1
10
-11.403919013103
20
0.47530290791201
30
0
41
1
10
-11.3881371089906
20
0.469824866654335
30
0
41
1
10
-11.3422351924065
20
0.451295383429624
30
0
41
1
10
-11.3131844319768
20
0.436079802215886
30
0
41
1
10
-11.2787847435684
20
0.413504171028308
30
0
41
1
10
-11.2720013760734
20
0.408809579973422
30
0
41
1
10
-11.2586307804126
20
0.399055226186761
30
0
41
1
10
-11.2520297638552
20
0.393983269381238
30
0
41
1
10
-11.2327258312732
20
0.378372237482722
30
0
41
1
10
-11.2204654560571
20
0.367403177195115
30
0
41
1
10
-11.1854565104796
20
0.332854891854822
30
0
41
1
10
-11.1644624466513
20
0.307650993415677
30
0
41
1
10
-11.1365951282993
20
0.266464044638269
30
0
41
1
10
-11.1279881954017
20
0.252262648293026
30
0
41
1
10
-11.1123403777283
20
0.223319290755626
30
0
41
1
10
-11.0981799369557
20
0.193720978127772
30
0
41
1
10
-11.086965376797
20
0.162821695526873
30
0
41
1
10
-11.0772534807381
20
0.131257218558176
30
0
41
1
10
-11.0731370875446
20
0.115064293799833
30
0
41
1
10
-11.063301513584
20
0.0662703743778366
30
0
41
1
10
-11.0599999999998
20
0.033339247828394
30
0
41
1
10
-11.0599999999998
20
-1.137E-13
30
0
0
SPLINE
5
E1
100
AcDbEntity
8
SK1
62
256
6
ByLayer
370
13
48
1
60
0
100
AcDbSpline
70
4
71
3
72
8
73
4
40
0
40
0
40
0
40
0
40
1
40
1
40
1
40
1
41
1
10
-15.3429999999998
20
-1.10000000000002
30
0
41
1
10
-15.4620044825369
20
-1.10000000000002
30
0
41
1
10
-15.5810046315166
20
-1.10000000000002
30
0
41
1
10
-15.6999999999998
20
-1.10000000000002
30
0
0
SPLINE
5
E2
100
AcDbEntity
8
SK1
62
256
6
ByLayer
370
13
48
1
60
0
100
AcDbSpline
70
4
71
3
72
8
73
4
40
0
40
0
40
0
40
0
40
1
40
1
40
1
40
1
41
1
10
-15.6999999999998
20
1.10000000000002
30
0
41
1
10
-15.5810046005047
20
1.10000000000002
30
0
41
1
10
-15.4620044795724
20
1.10000000000002
30
0
41
1
10
-15.3429999999998
20
1.10000000000002
30
0
0
SPLINE
5
E3
100
AcDbEntity
8
SK1
62
256
6
ByLayer
370
13
48
1
60
0
100
AcDbSpline
70
4
71
3
72
15
73
11
40
0
40
0
40
0
40
0
40
0.250000000000008
40
0.500000000000017
40
0.500000000000017
40
0.625000000000021
40
0.625000000000021
40
0.750000000000025
40
0.750000000000025
40
1
40
1
40
1
40
1
41
1
10
-15.6999999999998
20
-1.10000000000002
30
0
41
1
10
-15.7226072955968
20
-1.10000000000002
30
0
41
1
10
-15.7693398815922
20
-1.10000000000002
30
0
41
1
10
-15.8190375823015
20
-1.10000000000002
30
0
41
1
10
-15.8574791628476
20
-1.10000000000002
30
0
41
1
10
-15.8704021086048
20
-1.10000000000002
30
0
41
1
10
-15.8962113548657
20
-1.10000000000002
30
0
41
1
10
-15.9091364816044
20
-1.10000000000002
30
0
41
1
10
-15.9479727787757
20
-1.10000000000002
30
0
41
1
10
-15.973944474201
20
-1.10000000000002
30
0
41
1
10
-15.9999999999998
20
-1.10000000000002
30
0
0
SPLINE
5
E4
100
AcDbEntity
8
SK1
62
256
6
ByLayer
370
13
48
1
60
0
100
AcDbSpline
70
4
71
3
72
18
73
14
40
0
40
0
40
0
40
0
40
0.250000000000004
40
0.250000000000004
40
0.374999999999999
40
0.374999999999999
40
0.499999999999994
40
0.499999999999994
40
0.749999999999997
40
0.749999999999997
40
0.874999999999998
40
0.874999999999998
40
1
40
1
40
1
40
1
41
1
10
-15.9999999999998
20
-1.10000000000002
30
0
41
1
10
-16.040377775734
20
-1.12331211968944
30
0
41
1
10
-16.0786752928952
20
-1.1454232015318
30
0
41
1
10
-16.1333550441698
20
-1.17699257064942
30
0
41
1
10
-16.1511148810686
20
-1.18724621726369
30
0
41
1
10
-16.1857014248697
20
-1.20721476763754
30
0
41
1
10
-16.2026103497855
20
-1.21697713998947
30
0
41
1
10
-16.2509213249911
20
-1.24486949452921
30
0
41
1
10
-16.2801672758637
20
-1.26175465213817
30
0
41
1
10
-16.3196717126779
20
-1.28456254936702
30
0
41
1
10
-16.3321417747404
20
-1.29176214305562
30
0
41
1
10
-16.3553634764802
20
-1.30516919880608
30
0
41
1
10
-16.3660810187172
20
-1.31135697470177
30
0
41
1
10
-16.3758834272551
20
-1.3170163979097
30
0
0
SPLINE
5
E5
100
AcDbEntity
8
SK1
62
256
6
ByLayer
370
13
48
1
60
0
100
AcDbSpline
70
4
71
3
72
18
73
14
40
0
40
0
40
0
40
0
40
0.249999999999981
40
0.249999999999981
40
0.374999999999977
40
0.374999999999977
40
0.499999999999974
40
0.499999999999974
40
0.749999999999979
40
0.749999999999979
40
0.87499999999999
40
0.87499999999999
40
1
40
1
40
1
40
1
41
1
10
-16.3758834272548
20
1.3170163979097
30
0
41
1
10
-16.3562687756117
20
1.30569187350341
30
0
41
1
10
-16.333262980277
20
1.29240947137396
30
0
41
1
10
-16.2940479940685
20
1.26976868853035
30
0
41
1
10
-16.2801833470931
20
1.26176393086678
30
0
41
1
10
-16.2508360593352
20
1.24482026637975
30
0
41
1
10
-16.2352643803383
20
1.23582995331924
30
0
41
1
10
-16.1870128949531
20
1.20797194524323
30
0
41
1
10
-16.1526573378334
20
1.18813675509205
30
0
41
1
10
-16.0977668271981
20
1.15644570400082
30
0
41
1
10
-16.078886862431
20
1.14554535126024
30
0
41
1
10
-16.0399930401353
20
1.12308999248796
30
0
41
1
10
-16.0201844306102
20
1.11165348644636
30
0
41
1
10
-15.9999999999998
20
1.10000000000002
30
0
0
SPLINE
5
E6
100
AcDbEntity
8
SK1
62
256
6
ByLayer
370
13
48
1
60
0
100
AcDbSpline
70
4
71
3
72
15
73
11
40
0
40
0
40
0
40
0
40
0.249999999999992
40
0.499999999999983
40
0.499999999999983
40
0.624999999999995
40
0.624999999999995
40
0.750000000000007
40
0.750000000000007
40
1
40
1
40
1
40
1
41
1
10
-15.9999999999998
20
1.10000000000002
30
0
41
1
10
-15.9739443427537
20
1.10000000000002
30
0
41
1
10
-15.9220466033724
20
1.10000000000002
30
0
41
1
10
-15.8705586574109
20
1.10000000000002
30
0
41
1
10
-15.8321015017758
20
1.10000000000002
30
0
41
1
10
-15.8194102104203
20
1.10000000000002
30
0
41
1
10
-15.7944859149745
20
1.10000000000002
30
0
41
1
10
-15.7822190960172
20
1.10000000000002
30
0
41
1
10
-15.7459941541437
20
1.10000000000002
30
0
41
1
10
-15.7226081173982
20
1.10000000000002
30
0
41
1
10
-15.6999999999998
20
1.10000000000002
30
0
0
SPLINE
5
E7
100
AcDbEntity
8
SK1
62
256
6
ByLayer
370
13
48
1
60
0
100
AcDbSpline
70
4
71
3
72
36
73
32
40
0
40
0
40
0
40
0
40
0.125000000000002
40
0.125000000000002
40
0.187500000000003
40
0.187500000000003
40
0.218750000000005
40
0.218750000000005
40
0.250000000000006
40
0.250000000000006
40
0.375000000000011
40
0.375000000000011
40
0.437500000000015
40
0.437500000000015
40
0.468750000000016
40
0.468750000000016
40
0.500000000000016
40
0.500000000000016
40
0.625000000000014
40
0.625000000000014
40
0.656250000000012
40
0.656250000000012
40
0.687500000000011
40
0.687500000000011
40
0.750000000000008
40
0.750000000000008
40
0.875000000000006
40
0.875000000000006
40
0.937500000000003
40
0.937500000000003
40
1
40
1
40
1
40
1
41
1
10
-12.5050125628932
20
-0.100000000000023
30
0
41
1
10
-12.5112320686646
20
-0.161883301075591
30
0
41
1
10
-12.5230642869972
20
-0.222109798170777
30
0
41
1
10
-12.5488074503284
20
-0.310107676292205
30
0
41
1
10
-12.5587301679189
20
-0.339047439651608
30
0
41
1
10
-12.575653926444
20
-0.381863656403766
30
0
41
1
10
-12.58163567368
20
-0.396036674660877
30
0
41
1
10
-12.5942916120554
20
-0.42418203585305
30
0
41
1
10
-12.6009515192721
20
-0.438118216967723
30
0
41
1
10
-12.6356372147013
20
-0.506605230126979
30
0
41
1
10
-12.6680046553575
20
-0.558105483734266
30
0
41
1
10
-12.7233236208753
20
-0.630633251763811
30
0
41
1
10
-12.7428988987121
20
-0.654016806187087
30
0
41
1
10
-12.7740158567939
20
-0.687882285642104
30
0
41
1
10
-12.7846909301844
20
-0.698975801181405
30
0
41
1
10
-12.8064162719103
20
-0.720538581983533
30
0
41
1
10
-12.8174915955237
20
-0.731036298482422
30
0
41
1
10
-12.873918604123
20
-0.782132185635078
30
0
41
1
10
-12.9223933271758
20
-0.818589689078635
30
0
41
1
10
-12.9872339279642
20
-0.85866370867268
30
0
41
1
10
-13.000416175262
20
-0.866401281136632
30
0
41
1
10
-13.0272182667338
20
-0.881313003753348
30
0
41
1
10
-13.0408716753641
20
-0.888503533087373
30
0
41
1
10
-13.0822537968155
20
-0.909086077822735
30
0
41
1
10
-13.1102907414735
20
-0.921444178626643
30
0
41
1
10
-13.1957236960605
20
-0.954540021625462
30
0
41
1
10
-13.254431050471
20
-0.971333729446997
30
0
41
1
10
-13.3452205455802
20
-0.988428880204879
30
0
41
1
10
-13.3760629728489
20
-0.99277550570207
30
0
41
1
10
-13.4378772742125
20
-0.998551129568114
30
0
41
1
10
-13.4688869542481
20
-1
30
0
41
1
10
-13.4999999999998
20
-1
30
0
0
SPLINE
5
E8
100
AcDbEntity
8
SK1
62
256
6
ByLayer
370
13
48
1
60
0
100
AcDbSpline
70
4
71
3
72
25
73
21
40
0
40
0
40
0
40
0
40
0.125
40
0.125
40
0.25
40
0.25
40
0.375
40
0.375
40
0.437500000000003
40
0.437500000000003
40
0.500000000000006
40
0.500000000000006
40
0.625000000000006
40
0.625000000000006
40
0.687500000000006
40
0.687500000000006
40
0.750000000000007
40
0.750000000000007
40
0.875000000000003
40
1
40
1
40
1
40
1
41
1
10
-11.5663240377403
20
-0.49996000494707
30
0
41
1
10
-11.5949121412511
20
-0.499598391530526
30
0
41
1
10
-11.623047945397
20
-0.496808402512556
30
0
41
1
10
-11.6784550686338
20
-0.486581985836665
30
0
41
1
10
-11.7057652223328
20
-0.479131170255414
30
0
41
1
10
-11.7593271079322
20
-0.459437571815215
30
0
41
1
10
-11.7848821348274
20
-0.447458695729324
30
0
41
1
10
-11.8214588619557
20
-0.426423590156333
30
0
41
1
10
-11.833356795615
20
-0.418897816090634
30
0
41
1
10
-11.8565584221171
20
-0.402805685543058
30
0
41
1
10
-11.8678900767775
20
-0.394216057608219
30
0
41
1
10
-11.9007819024881
20
-0.366985139690769
30
0
41
1
10
-11.9208701454648
20
-0.347221635758387
30
0
41
1
10
-11.9483528390514
20
-0.315245307589521
30
0
41
1
10
-11.9570695976609
20
-0.304195814835566
30
0
41
1
10
-11.9736034598317
20
-0.28130328324653
30
0
41
1
10
-11.9814432382181
20
-0.269422059608019
30
0
41
1
10
-12.0034127020597
20
-0.232799855294957
30
0
41
1
10
-12.0281648795545
20
-0.18215426495442
30
0
41
1
10
-12.0441823656437
20
-0.128000523437208
30
0
41
1
10
-12.0498979485563
20
-0.100000000000023
30
0
0
SPLINE
5
E9
100
AcDbEntity
8
SK1
62
256
6
ByLayer
370
13
48
1
60
0
100
AcDbSpline
70
4
71
3
72
8
73
4
40
0
40
0
40
0
40
0
40
1
40
1
40
1
40
1
41
1
10
-14.5767949192428
20
-1
30
0
41
0.999918993434324
10
-14.634822295013
20
-1.03350212102118
30
0
41
0.999918993434324
10
-14.692561999227
20
-1.0668381547922
30
0
41
1
10
-14.7499999999998
20
-1.10000000000002
30
0
0
SPLINE
5
EA
100
AcDbEntity
8
SK1
62
256
6
ByLayer
370
13
48
1
60
0
100
AcDbSpline
70
4
71
3
72
21
73
17
40
0
40
0
40
0
40
0
40
0.125
40
0.125
40
0.25
40
0.25
40
0.375
40
0.375
40
0.5
40
0.5
40
0.625
40
0.625
40
0.75
40
0.75
40
0.875
40
1
40
1
40
1
40
1
41
1
10
-12.0498979485563
20
0.100000000000023
30
0
41
1
10
-12.0441824513287
20
0.128000103668455
30
0
41
1
10
-12.0361703763642
20
0.155093205269964
30
0
41
1
10
-12.0157572786004
20
0.207551036254927
30
0
41
1
10
-12.0033432309288
20
0.232937227477464
30
0
41
1
10
-11.9739886332359
20
0.281826868674443
30
0
41
1
10
-11.9574496234911
20
0.304670194508958
30
0
41
1
10
-11.9207969502697
20
0.34729769839646
30
0
41
1
10
-11.9006446513517
20
0.367113773310621
30
0
41
1
10
-11.8567496608686
20
0.403424019888803
30
0
41
1
10
-11.8335650777472
20
0.419467408587707
30
0
41
1
10
-11.784806294892
20
0.447496244014474
30
0
41
1
10
-11.759176911857
20
0.459502084981068
30
0
41
1
10
-11.7056277486782
20
0.479172377264945
30
0
41
1
10
-11.6511573528258
20
0.494018872730408
30
0
41
1
10
-11.5949121669816
20
0.499598391205041
30
0
41
1
10
-11.5663240377403
20
0.49996000494707
30
0
0
SPLINE
5
EB
100
AcDbEntity
8
SK1
62
256
6
ByLayer
370
13
48
1
60
0
100
AcDbSpline
70
4
71
3
72
34
73
30
40
0
40
0
40
0
40
0
40
0.124999999999998
40
0.124999999999998
40
0.187499999999997
40
0.187499999999997
40
0.249999999999996
40
0.249999999999996
40
0.374999999999998
40
0.374999999999998
40
0.437499999999997
40
0.437499999999997
40
0.468749999999996
40
0.468749999999996
40
0.499999999999996
40
0.499999999999996
40
0.624999999999997
40
0.624999999999997
40
0.656249999999998
40
0.656249999999998
40
0.687499999999998
40
0.687499999999998
40
0.749999999999999
40
0.749999999999999
40
0.875
40
0.875
40
0.9375
40
0.9375
40
1
40
1
40
1
40
1
41
1
10
-13.4999999999998
20
1
30
0
41
1
10
-13.4377829367157
20
1
30
0
41
1
10
-13.3766097831686
20
0.994245031444848
30
0
41
1
10
-13.2863350454877
20
0.977386499422778
30
0
41
1
10
-13.2564925070441
20
0.9703866829351
30
0
41
1
10
-13.1973100038778
20
0.953585329056068
30
0
41
1
10
-13.1678342035728
20
0.943722064425174
30
0
41
1
10
-13.081804443655
20
0.910436313779314
30
0
41
1
10
-13.0272646459367
20
0.883306566860483
30
0
41
1
10
-12.9494889782056
20
0.835383095587417
30
0
41
1
10
-12.9242405449815
20
0.818195649161225
30
0
41
1
10
-12.887400252309
20
0.790542419302483
30
0
41
1
10
-12.875315707859
20
0.781027167959223
30
0
41
1
10
-12.8517236265288
20
0.761558694741893
30
0
41
1
10
-12.8401878227493
20
0.751584593573853
30
0
41
1
10
-12.7837860813004
20
0.700529650614612
30
0
41
1
10
-12.7427175705359
20
0.655927268694768
30
0
41
1
10
-12.6964191316667
20
0.595390726150526
30
0
41
1
10
-12.6874134540642
20
0.583042242675333
30
0
41
1
10
-12.6699182365602
20
0.557852505044593
30
0
41
1
10
-12.661411151175
20
0.544981138325625
30
0
41
1
10
-12.6369094598775
20
0.505981732444184
30
0
41
1
10
-12.6218706765065
20
0.47939219346074
30
0
41
1
10
-12.5805427710968
20
0.397882319206019
30
0
41
1
10
-12.558008683434
20
0.341235506911175
30
0
41
1
10
-12.5319533150965
20
0.252651823194469
30
0
41
1
10
-12.5245572079029
20
0.222421663568298
30
0
41
1
10
-12.5126583212219
20
0.16160583660951
30
0
41
1
10
-12.5081217231879
20
0.130935754331858
30
0
41
1
10
-12.5050125628932
20
0.100000000000023
30
0
0
SPLINE
5
EC
100
AcDbEntity
8
SK1
62
256
6
ByLayer
370
13
48
1
60
0
100
AcDbSpline
70
4
71
3
72
8
73
4
40
0
40
0
40
0
40
0
40
1
40
1
40
1
40
1
41
1
10
-14.7499999999998
20
1.10000000000002
30
0
41
0.999918993434324
10
-14.692561999227
20
1.0668381547922
30
0
41
0.999918993434324
10
-14.634822295013
20
1.03350212102129
30
0
41
1
10
-14.5767949192428
20
1
30
0
0
SPLINE
5
ED
100
AcDbEntity
8
SK1
62
256
6
ByLayer
370
13
48
1
60
0
100
AcDbSpline
70
4
71
3
72
46
73
42
40
0
40
0
40
0
40
0
40
0.124840327609938
40
0.124840327609938
40
0.187260491414906
40
0.187260491414906
40
0.218470573317391
40
0.218470573317391
40
0.249680655219876
40
0.249680655219876
40
0.312100819024845
40
0.374520982829814
40
0.436941146634783
40
0.436941146634783
40
0.452546187586025
40
0.452546187586025
40
0.468151228537267
40
0.468151228537267
40
0.499361310439752
40
0.499361310439752
40
0.561781474244722
40
0.561781474244722
40
0.624201638049692
40
0.624201638049692
40
0.655411719952177
40
0.671016760903419
40
0.671016760903419
40
0.686621801854662
40
0.686621801854662
40
0.749041965659633
40
0.749041965659633
40
0.811462129464604
40
0.811462129464604
40
0.873882293269575
40
0.873882293269575
40
0.905092375172061
40
0.905092375172061
40
0.936302457074546
40
0.936302457074546
40
0.998722620879517
40
1
40
1
40
1
40
1
41
1
10
-4.84999999999974
20
3.62502605133648
30
0
41
1
10
-5.007272573102
20
3.60304572479743
30
0
41
1
10
-5.16209510770602
20
3.58996498434146
30
0
41
1
10
-5.39071230431375
20
3.58288011859725
30
0
41
1
10
-5.4663108041085
20
3.58260336185674
30
0
41
1
10
-5.57876400925824
20
3.58516810106426
30
0
41
1
10
-5.61609069631783
20
3.586519315656
30
0
41
1
10
-5.69041927701414
20
3.59018549547659
30
0
41
1
10
-5.72746841536781
20
3.59250408849221
30
0
41
1
10
-5.83780700390059
20
3.60083447157706
30
0
41
1
10
-5.98097370004689
20
3.61545617531783
30
0
41
1
10
-6.18433203901537
20
3.64605440260903
30
0
41
1
10
-6.31240132919504
20
3.67104944327082
30
0
41
1
10
-6.39005943290152
20
3.68774820783051
30
0
41
1
10
-6.40547150636104
20
3.69114182033979
30
0
41
1
10
-6.43605434734604
20
3.69802779805093
30
0
41
1
10
-6.45122921565576
20
3.7015213467173
30
0
41
1
10
-6.49616103232916
20
3.71208202115395
30
0
41
1
10
-6.52540327441227
20
3.71924619578635
30
0
41
1
10
-6.61102882285246
20
3.74098567982355
30
0
41
1
10
-6.66531665804229
20
3.75580660163303
30
0
41
1
10
-6.76835025417233
20
3.7854869933517
30
0
41
1
10
-6.81709640583659
20
3.80034766508982
30
0
41
1
10
-6.88595558576793
20
3.82222819305457
30
0
41
1
10
-6.91931792063849
20
3.83306601354991
30
0
41
1
10
-6.95103773085322
20
3.84366718378135
30
0
41
1
10
-6.97181292502654
20
3.85067264575707
30
0
41
1
10
-6.98203029398502
20
3.8541496965729
30
0
41
1
10
-7.03193731139817
20
3.87127548164551
30
0
41
1
10
-7.06811842193275
20
3.8841492253398
30
0
41
1
10
-7.13308642738758
20
3.90779236048024
30
0
41
1
10
-7.16187336490015
20
3.91856283307379
30
0
41
1
10
-7.211908477397
20
3.93757683725926
30
0
41
1
10
-7.23315800061192
20
3.9458213842546
30
0
41
1
10
-7.25907688905068
20
3.95597203246905
30
0
41
1
10
-7.26672916785861
20
3.95898899576355
30
0
41
1
10
-7.27993394806333
20
3.96421502647934
30
0
41
1
10
-7.28542955192199
20
3.96640143341642
30
0
41
1
10
-7.29866084443381
20
3.97167721113488
30
0
41
1
10
-7.30324102508564
20
3.97351966966528
30
0
41
1
10
-7.30338141857806
20
3.97357589041906
30
0
41
1
10
-7.30338244798389
20
3.97357629954149
30
0
0
SPLINE
5
EE
100
AcDbEntity
8
SK1
62
256
6
ByLayer
370
13
48
1
60
0
100
AcDbSpline
70
4
71
3
72
55
73
51
40
0
40
0
40
0
40
0
40
0.0140365339588252
40
0.0140365339588252
40
0.0296867477055107
40
0.0296867477055107
40
0.0609871751988815
40
0.0609871751988815
40
0.123588030185623
40
0.123588030185623
40
0.154888457678994
40
0.170538671425679
40
0.170538671425679
40
0.186188885172364
40
0.186188885172364
40
0.248789740159106
40
0.248789740159106
40
0.311390595145847
40
0.311390595145847
40
0.327040808892533
40
0.327040808892533
40
0.342691022639218
40
0.342691022639218
40
0.373991450132589
40
0.373991450132589
40
0.43659230511933
40
0.43659230511933
40
0.499193160106072
40
0.499193160106072
40
0.530493587599442
40
0.530493587599442
40
0.561794015092813
40
0.561794015092813
40
0.624394870079554
40
0.624394870079554
40
0.686995725066296
40
0.686995725066296
40
0.718296152559666
40
0.718296152559666
40
0.733946366306351
40
0.733946366306351
40
0.749596580053037
40
0.812197435039778
40
0.874798290026518
40
0.874798290026518
40
0.937399145013259
40
0.937399145013259
40
0.96869957250663
40
0.96869957250663
40
1
40
1
40
1
40
1
41
1
10
-2.17631932717603
20
4.69413823807508
30
0
41
1
10
-2.17632384167257
20
4.69413550536194
30
0
41
1
10
-2.17658720227564
20
4.69397621592339
30
0
41
1
10
-2.17769965379881
20
4.69330350363839
30
0
41
1
10
-2.17861548086313
20
4.69274973339941
30
0
41
1
10
-2.18232338851385
20
4.69050866143698
30
0
41
1
10
-2.18607558839688
20
4.68824159352676
30
0
41
1
10
-2.2010536235174
20
4.67920777286588
30
0
41
1
10
-2.21598936503989
20
4.67021238627535
30
0
41
1
10
-2.24557017807217
20
4.6525215651302
30
0
41
1
10
-2.26215935361427
20
4.64262512415405
30
0
41
1
10
-2.28143887429542
20
4.63118839488004
30
0
41
1
10
-2.29489148004893
20
4.62322488569441
30
0
41
1
10
-2.30192243301064
20
4.61907075945192
30
0
41
1
10
-2.33832854970592
20
4.59760950203429
30
0
41
1
10
-2.3716119592342
20
4.57813652740424
30
0
41
1
10
-2.44590033830122
20
4.53523163583395
30
0
41
1
10
-2.48690800169442
20
4.51179737965413
30
0
41
1
10
-2.54283961676225
20
4.48035259065443
30
0
41
1
10
-2.55426028797473
20
4.47395581008618
30
0
41
1
10
-2.57756931615097
20
4.46095394418353
30
0
41
1
10
-2.58946422681004
20
4.45434531026103
30
0
41
1
10
-2.62566304041621
20
4.4343209423771
30
0
41
1
10
-2.65053716723622
20
4.42067519243483
30
0
41
1
10
-2.72730927144215
20
4.37896483856184
30
0
41
1
10
-2.78134965446634
20
4.35012892272596
30
0
41
1
10
-2.89494587901197
20
4.2909494786893
30
0
41
1
10
-2.95450251738259
20
4.26060429353345
30
0
41
1
10
-3.0479939664026
20
4.21433694638847
30
0
41
1
10
-3.07989529696857
20
4.1987697193124
30
0
41
1
10
-3.14454478733779
20
4.16771691044823
30
0
41
1
10
-3.17735301812519
20
4.1522009796912
30
0
41
1
10
-3.27721941527892
20
4.10577955171993
30
0
41
1
10
-3.34571480969862
20
4.07499979919157
30
0
41
1
10
-3.48660656265679
20
4.01428476889259
30
0
41
1
10
-3.55900271756207
20
3.98434835198429
30
0
41
1
10
-3.67068150997437
20
3.94048172760392
30
0
41
1
10
-3.70842302502723
20
3.92603288194289
30
0
41
1
10
-3.7658392987251
20
3.90467485489773
30
0
41
1
10
-3.7851367470933
20
3.89759930355558
30
0
41
1
10
-3.82385289330966
20
3.88361795271078
30
0
41
1
10
-3.92095808225753
20
3.84908341575897
30
0
41
1
10
-4.09859481149988
20
3.7908430905419
30
0
41
1
10
-4.26074648314898
20
3.74557933130143
30
0
41
1
10
-4.42517802183789
20
3.7040632954463
30
0
41
1
10
-4.50853349745023
20
3.68517907040575
30
0
41
1
10
-4.63543394614084
20
3.66006346361689
30
0
41
1
10
-4.67805686987441
20
3.65222515279982
30
0
41
1
10
-4.76391323413714
20
3.63769769314251
30
0
41
1
10
-4.80691747189246
20
3.63104724128232
30
0
41
1
10
-4.84999999999974
20
3.62502605133648
30
0
0
SPLINE
5
EF
100
AcDbEntity
8
SK1
62
256
6
ByLayer
370
13
48
1
60
0
100
AcDbSpline
70
4
71
3
72
46
73
42
40
0
40
0
40
0
40
0
40
0.124841131535985
40
0.124841131535985
40
0.187261697303977
40
0.187261697303977
40
0.218471980187973
40
0.218471980187973
40
0.24968226307197
40
0.24968226307197
40
0.312102828839962
40
0.374523394607955
40
0.436943960375947
40
0.436943960375947
40
0.452549101817945
40
0.452549101817945
40
0.468154243259943
40
0.468154243259943
40
0.49936452614394
40
0.49936452614394
40
0.561785091911933
40
0.561785091911933
40
0.624205657679927
40
0.624205657679927
40
0.655415940563924
40
0.671021082005922
40
0.671021082005922
40
0.68662622344792
40
0.68662622344792
40
0.749046789215914
40
0.749046789215914
40
0.811467354983908
40
0.811467354983908
40
0.873887920751902
40
0.873887920751902
40
0.905098203635899
40
0.905098203635899
40
0.936308486519896
40
0.936308486519896
40
0.998729052287889
40
1
40
1
40
1
40
1
41
1
10
-4.84999999999974
20
-3.62502605133648
30
0
41
1
10
-5.007272573102
20
-3.60304572479743
30
0
41
1
10
-5.16209510770602
20
-3.58996498434146
30
0
41
1
10
-5.39071230431375
20
-3.58288011859725
30
0
41
1
10
-5.4663108041085
20
-3.58260336185674
30
0
41
1
10
-5.57876400925824
20
-3.58516810106426
30
0
41
1
10
-5.61609069631783
20
-3.586519315656
30
0
41
1
10
-5.69041927701414
20
-3.59018549547659
30
0
41
1
10
-5.72746841536781
20
-3.59250408849221
30
0
41
1
10
-5.83780700390059
20
-3.60083447157706
30
0
41
1
10
-5.98097388252574
20
-3.61545562349579
30
0
41
1
10
-6.18433234769043
20
-3.64605498743345
30
0
41
1
10
-6.31240132919504
20
-3.67104944327082
30
0
41
1
10
-6.39005943290152
20
-3.68774820783051
30
0
41
1
10
-6.40547150636104
20
-3.69114182033979
30
0
41
1
10
-6.43605434734604
20
-3.69802779805093
30
0
41
1
10
-6.45122921565576
20
-3.7015213467173
30
0
41
1
10
-6.49616103232916
20
-3.71208202115395
30
0
41
1
10
-6.52540327441227
20
-3.71924619578635
30
0
41
1
10
-6.61102882285246
20
-3.74098567982355
30
0
41
1
10
-6.66531665804229
20
-3.75580660163303
30
0
41
1
10
-6.76835025417233
20
-3.7854869933517
30
0
41
1
10
-6.81709640583659
20
-3.80034766508982
30
0
41
1
10
-6.88595558576793
20
-3.82222819305457
30
0
41
1
10
-6.91931792063849
20
-3.83306601354991
30
0
41
1
10
-6.95103773085322
20
-3.84366718378135
30
0
41
1
10
-6.97181292502654
20
-3.85067264575707
30
0
41
1
10
-6.98203029398502
20
-3.8541496965729
30
0
41
1
10
-7.03193731139817
20
-3.87127548164551
30
0
41
1
10
-7.06811842193275
20
-3.8841492253398
30
0
41
1
10
-7.13308642738758
20
-3.90779236048024
30
0
41
1
10
-7.16187336490015
20
-3.91856283307379
30
0
41
1
10
-7.211908477397
20
-3.93757683725926
30
0
41
1
10
-7.23315800061192
20
-3.9458213842546
30
0
41
1
10
-7.25907688905068
20
-3.95597203246905
30
0
41
1
10
-7.26672916785861
20
-3.95898899576355
30
0
41
1
10
-7.27993394806333
20
-3.96421502647934
30
0
41
1
10
-7.28542955192199
20
-3.96640143341642
30
0
41
1
10
-7.29866084443381
20
-3.97167721113488
30
0
41
1
10
-7.30324057909797
20
-3.97351948039818
30
0
41
1
10
-7.30338140685109
20
-3.97357587609338
30
0
41
1
10
-7.30338244897064
20
-3.97357629036162
30
0
0
SPLINE
5
F0
100
AcDbEntity
8
SK1
62
256
6
ByLayer
370
13
48
1
60
0
100
AcDbSpline
70
4
71
3
72
55
73
51
40
0
40
0
40
0
40
0
40
0.0140414159288985
40
0.0140414159288985
40
0.0296915521839956
40
0.0296915521839956
40
0.0609918246941897
40
0.0609918246941897
40
0.123592369714578
40
0.123592369714578
40
0.154892642224772
40
0.170542778479869
40
0.170542778479869
40
0.186192914734966
40
0.186192914734966
40
0.248793459755355
40
0.248793459755355
40
0.311394004775743
40
0.311394004775743
40
0.32704414103084
40
0.32704414103084
40
0.342694277285937
40
0.342694277285937
40
0.373994549796131
40
0.373994549796131
40
0.436595094816518
40
0.436595094816518
40
0.499195639836906
40
0.499195639836906
40
0.5304959123471
40
0.5304959123471
40
0.561796184857293
40
0.561796184857293
40
0.624396729877681
40
0.624396729877681
40
0.686997274898069
40
0.686997274898069
40
0.718297547408263
40
0.718297547408263
40
0.733947683663359
40
0.733947683663359
40
0.749597819918456
40
0.812198364938842
40
0.874798909959228
40
0.874798909959228
40
0.937399454979614
40
0.937399454979614
40
0.968699727489807
40
0.968699727489807
40
1
40
1
40
1
40
1
41
1
10
-2.17631932249515
20
-4.69413824090873
30
0
41
1
10
-2.1763236559002
20
-4.69413561772342
30
0
41
1
10
-2.17658701672826
20
-4.69397632812593
30
0
41
1
10
-2.17769965379881
20
-4.69330350363839
30
0
41
1
10
-2.17861548086313
20
-4.69274973339941
30
0
41
1
10
-2.18232338851385
20
-4.69050866143698
30
0
41
1
10
-2.18607558839688
20
-4.68824159352676
30
0
41
1
10
-2.2010536235174
20
-4.67920777286588
30
0
41
1
10
-2.21598936503989
20
-4.67021238627535
30
0
41
1
10
-2.24557017807217
20
-4.6525215651302
30
0
41
1
10
-2.26215935361427
20
-4.64262512415405
30
0
41
1
10
-2.28143887429542
20
-4.63118839488004
30
0
41
1
10
-2.29489148004893
20
-4.62322488569441
30
0
41
1
10
-2.30192243301064
20
-4.61907075945192
30
0
41
1
10
-2.33832854970592
20
-4.59760950203429
30
0
41
1
10
-2.3716119592342
20
-4.57813652740424
30
0
41
1
10
-2.44590033830122
20
-4.53523163583395
30
0
41
1
10
-2.48690800169442
20
-4.51179737965413
30
0
41
1
10
-2.54283961676225
20
-4.48035259065443
30
0
41
1
10
-2.55426028797473
20
-4.47395581008618
30
0
41
1
10
-2.57756931615097
20
-4.46095394418353
30
0
41
1
10
-2.58946422681004
20
-4.45434531026103
30
0
41
1
10
-2.62566304041621
20
-4.4343209423771
30
0
41
1
10
-2.65053716723622
20
-4.42067519243483
30
0
41
1
10
-2.72730927144215
20
-4.37896483856184
30
0
41
1
10
-2.78134965446634
20
-4.35012892272596
30
0
41
1
10
-2.89494587901197
20
-4.2909494786893
30
0
41
1
10
-2.95450251738259
20
-4.26060429353345
30
0
41
1
10
-3.0479939664026
20
-4.21433694638847
30
0
41
1
10
-3.07989529696857
20
-4.1987697193124
30
0
41
1
10
-3.14454478733779
20
-4.16771691044823
30
0
41
1
10
-3.17735301812519
20
-4.1522009796912
30
0
41
1
10
-3.27721941527892
20
-4.10577955171993
30
0
41
1
10
-3.34571480969862
20
-4.07499979919157
30
0
41
1
10
-3.48660656265673
20
-4.01428476889259
30
0
41
1
10
-3.55900271756207
20
-3.98434835198429
30
0
41
1
10
-3.67068150997437
20
-3.94048172760392
30
0
41
1
10
-3.70842302502723
20
-3.92603288194289
30
0
41
1
10
-3.7658392987251
20
-3.90467485489773
30
0
41
1
10
-3.7851367470933
20
-3.89759930355558
30
0
41
1
10
-3.82385289330966
20
-3.88361795271078
30
0
41
1
10
-3.92095808225753
20
-3.84908341575897
30
0
41
1
10
-4.09859485016648
20
-3.79084332595517
30
0
41
1
10
-4.26074648314898
20
-3.74557933130143
30
0
41
1
10
-4.42517802183789
20
-3.7040632954463
30
0
41
1
10
-4.50853349745023
20
-3.68517907040575
30
0
41
1
10
-4.63543394614084
20
-3.66006346361689
30
0
41
1
10
-4.67805686987441
20
-3.65222515279982
30
0
41
1
10
-4.76391323413714
20
-3.63769769314251
30
0
41
1
10
-4.80691747189246
20
-3.63104724128232
30
0
41
1
10
-4.84999999999974
20
-3.62502605133648
30
0
0
SPLINE
5
F1
100
AcDbEntity
8
1
62
256
6
ByLayer
370
13
48
1
60
0
100
AcDbSpline
70
4
71
3
72
8
73
4
40
0
40
0
40
0
40
0
40
1
40
1
40
1
40
1
41
1
10
2.274E-13
20
-10
30
0
41
1
10
0.0332095453795773
20
-10
30
0
41
1
10
0.0665442547010571
20
-10
30
0
41
1
10
0.10000000000025
20
-10
30
0
0
SPLINE
5
F2
100
AcDbEntity
8
1
62
256
6
ByLayer
370
13
48
1
60
0
100
AcDbSpline
70
4
71
3
72
8
73
4
40
0
40
0
40
0
40
0
40
1
40
1
40
1
40
1
41
1
10
0.10000000000025
20
-1.61554944214038
30
0
41
1
10
0.0339539755441365
20
-1.08000227917091
30
0
41
1
10
2.274E-13
20
-0.541542133899952
30
0
41
1
10
2.274E-13
20
0
30
0
0
SPLINE
5
F3
100
AcDbEntity
8
1
62
256
6
ByLayer
370
13
48
1
60
0
100
AcDbSpline
70
4
71
3
72
8
73
4
40
0
40
0
40
0
40
0
40
1
40
1
40
1
40
1
41
1
10
0.10000000000025
20
8
30
0
41
1
10
0.0666185733474549
20
8
30
0
41
1
10
0.0332847869026409
20
8
30
0
41
1
10
2.274E-13
20
8
30
0
0
SPLINE
5
F4
100
AcDbEntity
8
1
62
256
6
ByLayer
370
13
48
1
60
0
100
AcDbSpline
70
4
71
3
72
13
73
9
40
0
40
0
40
0
40
0
40
0.25
40
0.375
40
0.375
40
0.5
40
0.5
40
1
40
1
40
1
40
1
41
1
10
2.274E-13
20
0
30
0
41
1
10
2.274E-13
20
0.134567961217044
30
0
41
1
10
0.0031349057602483
20
0.33670445717064
30
0
41
1
10
0.0110052342693052
20
0.539270785532153
30
0
41
1
10
0.017306712911477
20
0.674410729417218
30
0
41
1
10
0.0209875571229077
20
0.742071432383909
30
0
41
1
10
0.0420006680243432
20
1.08010656559031
30
0
41
1
10
0.0670904886414974
20
1.34869620474979
30
0
41
1
10
0.10000000000025
20
1.61554944214038
30
0
0
LINE
5
74
100
AcDbEntity
8
81
62
256
6
ByLayer
370
18
48
1
60
0
100
AcDbLine
10
28
20
8
30
0
11
30
21
8
31
0
39
0
210
0
220
0
230
1
0
LINE
5
75
100
AcDbEntity
8
80
62
256
6
ByLayer
370
18
48
1
60
0
100
AcDbLine
10
0
20
0
30
0
11
-2
21
0
31
0
39
0
210
0
220
0
230
1
0
LINE
5
76
100
AcDbEntity
8
4
62
256
6
ByLayer
370
18
48
0.05
60
0
100
AcDbLine
10
0
20
0
30
0
11
28
21
0
31
0
39
0
210
0
220
0
230
1
0
LINE
5
78
100
AcDbEntity
8
SK4
62
256
6
ByLayer
370
18
48
0.05
60
0
100
AcDbLine
10
30
20
0
30
0
11
-18.5
21
0
31
0
39
0
210
0
220
0
230
1
0
LINE
5
7A
100
AcDbEntity
8
1
62
256
6
ByLayer
370
18
48
1
60
0
100
AcDbLine
10
17.675957
20
-2.172215
30
0
11
17.661835
21
-1.363131
31
0
39
0
210
0
220
0
230
1
0
LINE
5
7C
100
AcDbEntity
8
1
62
256
6
ByLayer
370
18
48
1
60
0
100
AcDbLine
10
17.08569
20
-2.78395
30
0
11
17.67478
21
-2.174673
31
0
39
0
210
0
220
0
230
1
0
LINE
5
7D
100
AcDbEntity
8
SK1
62
256
6
ByLayer
370
13
48
1
60
0
100
AcDbLine
10
-16.5
20
1.388675
30
0
11
-16.5
21
2.910024
31
0
39
0
210
0
220
0
230
1
0
LINE
5
7F
100
AcDbEntity
8
SK1
62
256
6
ByLayer
370
13
48
1
60
0
100
AcDbLine
10
-16.375883
20
3.125
30
0
11
-16.5
21
2.910024
31
0
39
0
210
0
220
0
230
1
0
LINE
5
80
100
AcDbEntity
8
SK1
62
256
6
ByLayer
370
13
48
1
60
0
100
AcDbLine
10
-16.5
20
-2.910024
30
0
11
-16.5
21
-1.388675
31
0
39
0
210
0
220
0
230
1
0
LINE
5
81
100
AcDbEntity
8
SK1
62
256
6
ByLayer
370
13
48
1
60
0
100
AcDbLine
10
-16.5
20
-2.910024
30
0
11
-16.375883
21
-3.125
31
0
39
0
210
0
220
0
230
1
0
LINE
5
82
100
AcDbEntity
8
SK1
62
256
6
ByLayer
370
13
48
1
60
0
100
AcDbLine
10
-11.566324
20
-3.075
30
0
11
-10.566324
21
-3.075
31
0
39
0
210
0
220
0
230
1
0
LINE
5
83
100
AcDbEntity
8
SK1
62
256
6
ByLayer
370
13
48
1
60
0
100
AcDbLine
10
-10.566324
20
3.075
30
0
11
-11.566324
21
3.075
31
0
39
0
210
0
220
0
230
1
0
LINE
5
84
100
AcDbEntity
8
SK1
62
256
6
ByLayer
370
13
48
1
60
0
100
AcDbLine
10
-15.7
20
-3.312051
30
0
11
-15.343
21
-3.375
31
0
39
0
210
0
220
0
230
1
0
LINE
5
85
100
AcDbEntity
8
SK1
62
256
6
ByLayer
370
13
48
1
60
0
100
AcDbLine
10
-15.343
20
3.375
30
0
11
-15.7
21
3.312051
31
0
39
0
210
0
220
0
230
1
0
LINE
5
86
100
AcDbEntity
8
SK1
62
256
6
ByLayer
370
13
48
1
60
0
100
AcDbLine
10
-16.375883
20
-3.125
30
0
11
-16.375883
21
-1.317016
31
0
39
0
210
0
220
0
230
1
0
LINE
5
87
100
AcDbEntity
8
SK1
62
256
6
ByLayer
370
13
48
1
60
0
100
AcDbLine
10
-15.7
20
-1.1
30
0
11
-15.7
21
-3.312051
31
0
39
0
210
0
220
0
230
1
0
LINE
5
88
100
AcDbEntity
8
SK1
62
256
6
ByLayer
370
13
48
1
60
0
100
AcDbLine
10
-16.375883
20
3.125
30
0
11
-16.375883
21
1.317016
31
0
39
0
210
0
220
0
230
1
0
LINE
5
89
100
AcDbEntity
8
SK1
62
256
6
ByLayer
370
13
48
1
60
0
100
AcDbLine
10
-15.7
20
1.1
30
0
11
-15.7
21
3.312051
31
0
39
0
210
0
220
0
230
1
0
LINE
5
8A
100
AcDbEntity
8
SK1
62
256
6
ByLayer
370
13
48
1
60
0
100
AcDbLine
10
-11.566324
20
-0.49996
30
0
11
-11.566324
21
-3.375
31
0
39
0
210
0
220
0
230
1
0
LINE
5
8B
100
AcDbEntity
8
SK1
62
256
6
ByLayer
370
13
48
1
60
0
100
AcDbLine
10
-12.049898
20
-0.1
30
0
11
-12.505013
21
-0.1
31
0
39
0
210
0
220
0
230
1
0
LINE
5
8C
100
AcDbEntity
8
SK1
62
256
6
ByLayer
370
13
48
1
60
0
100
AcDbLine
10
-13.5
20
-1
30
0
11
-14.576795
21
-1
31
0
39
0
210
0
220
0
230
1
0
LINE
5
8D
100
AcDbEntity
8
SK1
62
256
6
ByLayer
370
13
48
1
60
0
100
AcDbLine
10
-14.75
20
-1.1
30
0
11
-15.343
21
-1.1
31
0
39
0
210
0
220
0
230
1
0
LINE
5
8E
100
AcDbEntity
8
SK1
62
256
6
ByLayer
370
13
48
1
60
0
100
AcDbLine
10
-15.343
20
-1.1
30
0
11
-15.343
21
-3.375
31
0
39
0
210
0
220
0
230
1
0
LINE
5
8F
100
AcDbEntity
8
SK1
62
256
6
ByLayer
370
13
48
1
60
0
100
AcDbLine
10
-15.343
20
-3.375
30
0
11
-11.566324
21
-3.375
31
0
39
0
210
0
220
0
230
1
0
LINE
5
90
100
AcDbEntity
8
SK1
62
256
6
ByLayer
370
13
48
1
60
0
100
AcDbLine
10
-12.505013
20
0.1
30
0
11
-12.049898
21
0.1
31
0
39
0
210
0
220
0
230
1
0
LINE
5
91
100
AcDbEntity
8
SK1
62
256
6
ByLayer
370
13
48
1
60
0
100
AcDbLine
10
-11.566324
20
0.49996
30
0
11
-11.566324
21
3.375
31
0
39
0
210
0
220
0
230
1
0
LINE
5
92
100
AcDbEntity
8
SK1
62
256
6
ByLayer
370
13
48
1
60
0
100
AcDbLine
10
-15.343
20
1.1
30
0
11
-15.343
21
3.375
31
0
39
0
210
0
220
0
230
1
0
LINE
5
93
100
AcDbEntity
8
SK1
62
256
6
ByLayer
370
13
48
1
60
0
100
AcDbLine
10
-15.343
20
1.1
30
0
11
-14.75
21
1.1
31
0
39
0
210
0
220
0
230
1
0
LINE
5
94
100
AcDbEntity
8
SK1
62
256
6
ByLayer
370
13
48
1
60
0
100
AcDbLine
10
-14.576795
20
1
30
0
11
-13.5
21
1
31
0
39
0
210
0
220
0
230
1
0
LINE
5
95
100
AcDbEntity
8
SK1
62
256
6
ByLayer
370
13
48
1
60
0
100
AcDbLine
10
-11.566324
20
3.375
30
0
11
-15.343
21
3.375
31
0
39
0
210
0
220
0
230
1
0
LINE
5
96
100
AcDbEntity
8
SK1
62
256
6
ByLayer
370
13
48
1
60
0
100
AcDbLine
10
-0.1
20
4.69
30
0
11
-0.999897
21
4.69
31
0
39
0
210
0
220
0
230
1
0
LINE
5
97
100
AcDbEntity
8
SK1
62
256
6
ByLayer
370
13
48
1
60
0
100
AcDbLine
10
-0.999897
20
-4.69
30
0
11
-0.1
21
-4.69
31
0
39
0
210
0
220
0
230
1
0
LINE
5
98
100
AcDbEntity
8
SK1
62
256
6
ByLayer
370
13
48
1
60
0
100
AcDbLine
10
-10.566324
20
0
30
0
11
-10.566324
21
3.515
31
0
39
0
210
0
220
0
230
1
0
LINE
5
99
100
AcDbEntity
8
SK1
62
256
6
ByLayer
370
13
48
1
60
0
100
AcDbLine
10
-1.25
20
4.824324
30
0
11
-2.178411
21
4.693844
31
0
39
0
210
0
220
0
230
1
0
LINE
5
9A
100
AcDbEntity
8
SK1
62
256
6
ByLayer
370
13
48
1
60
0
100
AcDbLine
10
-7.303138
20
3.973611
30
0
11
-10.566324
21
3.515
31
0
39
0
210
0
220
0
230
1
0
LINE
5
9B
100
AcDbEntity
8
SK1
62
256
6
ByLayer
370
13
48
1
60
0
100
AcDbLine
10
-10.566324
20
0
30
0
11
-10.566324
21
-3.515
31
0
39
0
210
0
220
0
230
1
0
LINE
5
9C
100
AcDbEntity
8
SK1
62
256
6
ByLayer
370
13
48
1
60
0
100
AcDbLine
10
-10.566324
20
-3.515
30
0
11
-7.303138
21
-3.973611
31
0
39
0
210
0
220
0
230
1
0
LINE
5
9D
100
AcDbEntity
8
SK1
62
256
6
ByLayer
370
13
48
1
60
0
100
AcDbLine
10
-2.178411
20
-4.693844
30
0
11
-1.25
21
-4.824324
31
0
39
0
210
0
220
0
230
1
0
LINE
5
9E
100
AcDbEntity
8
SK1
62
256
6
ByLayer
370
13
48
1
60
0
100
AcDbLine
10
-0.999897
20
0
30
0
11
-0.999897
21
4.69
31
0
39
0
210
0
220
0
230
1
0
LINE
5
9F
100
AcDbEntity
8
SK1
62
256
6
ByLayer
370
13
48
1
60
0
100
AcDbLine
10
-1.25
20
0
30
0
11
-1.25
21
4.824324
31
0
39
0
210
0
220
0
230
1
0
LINE
5
A0
100
AcDbEntity
8
SK1
62
256
6
ByLayer
370
13
48
1
60
0
100
AcDbLine
10
-0.999897
20
0
30
0
11
-0.999897
21
-4.69
31
0
39
0
210
0
220
0
230
1
0
LINE
5
A1
100
AcDbEntity
8
SK1
62
256
6
ByLayer
370
13
48
1
60
0
100
AcDbLine
10
-1.25
20
0
30
0
11
-1.25
21
-4.824324
31
0
39
0
210
0
220
0
230
1
0
LINE
5
A2
100
AcDbEntity
8
SK1
62
256
6
ByLayer
370
13
48
1
60
0
100
AcDbLine
10
-0.1
20
0
30
0
11
-0.1
21
4.69
31
0
39
0
210
0
220
0
230
1
0
LINE
5
A3
100
AcDbEntity
8
SK1
62
256
6
ByLayer
370
13
48
1
60
0
100
AcDbLine
10
-0.1
20
0
30
0
11
-0.1
21
-4.69
31
0
39
0
210
0
220
0
230
1
0
LINE
5
A4
100
AcDbEntity
8
1
62
256
6
ByLayer
370
13
48
1
60
0
100
AcDbLine
10
19.352936
20
0.327936
30
0
11
20.4
21
1.375
31
0
39
0
210
0
220
0
230
1
0
LINE
5
A5
100
AcDbEntity
8
1
62
256
6
ByLayer
370
13
48
1
60
0
100
AcDbLine
10
20.4
20
4.40551
30
0
11
19.352936
21
4.647441
31
0
39
0
210
0
220
0
230
1
0
LINE
5
A6
100
AcDbEntity
8
1
62
256
6
ByLayer
370
13
48
1
60
0
100
AcDbLine
10
20.4
20
1.375
30
0
11
20.4
21
4.40551
31
0
39
0
210
0
220
0
230
1
0
LINE
5
A7
100
AcDbEntity
8
1
62
256
6
ByLayer
370
13
48
1
60
0
100
AcDbLine
10
10.3236
20
7.690584
30
0
11
9.3
21
7.672717
31
0
39
0
210
0
220
0
230
1
0
LINE
5
A8
100
AcDbEntity
8
1
62
256
6
ByLayer
370
13
48
1
60
0
100
AcDbLine
10
9.3
20
-9.725
30
0
11
15.079187
21
-3.945813
31
0
39
0
210
0
220
0
230
1
0
LINE
5
A9
100
AcDbEntity
8
1
62
256
6
ByLayer
370
13
48
1
60
0
100
AcDbLine
10
15.079187
20
4.59117
30
0
11
9.498388
21
4.493757
31
0
39
0
210
0
220
0
230
1
0
LINE
5
AA
100
AcDbEntity
8
1
62
256
6
ByLayer
370
13
48
1
60
0
100
AcDbLine
10
9.498388
20
4.493757
30
0
11
9.578866
21
4.995543
31
0
39
0
210
0
220
0
230
1
0
LINE
5
AB
100
AcDbEntity
8
1
62
256
6
ByLayer
370
13
48
1
60
0
100
AcDbLine
10
9.578866
20
4.995543
30
0
11
9.927651
21
5.221811
31
0
39
0
210
0
220
0
230
1
0
LINE
5
AC
100
AcDbEntity
8
1
62
256
6
ByLayer
370
13
48
1
60
0
100
AcDbLine
10
10.3236
20
7.690584
30
0
11
9.927651
21
5.221811
31
0
39
0
210
0
220
0
230
1
0
LINE
5
AD
100
AcDbEntity
8
1
62
256
6
ByLayer
370
13
48
1
60
0
100
AcDbLine
10
19.352936
20
0.327936
30
0
11
15.079187
21
-3.945813
31
0
39
0
210
0
220
0
230
1
0
LINE
5
AE
100
AcDbEntity
8
1
62
256
6
ByLayer
370
13
48
1
60
0
100
AcDbLine
10
19.352936
20
4.647441
30
0
11
19.352936
21
0.327936
31
0
39
0
210
0
220
0
230
1
0
LINE
5
AF
100
AcDbEntity
8
1
62
256
6
ByLayer
370
13
48
1
60
0
100
AcDbLine
10
15.079187
20
4.59117
30
0
11
19.352936
21
4.647441
31
0
39
0
210
0
220
0
230
1
0
LINE
5
B0
100
AcDbEntity
8
1
62
256
6
ByLayer
370
13
48
1
60
0
100
AcDbLine
10
15.079187
20
-3.945813
30
0
11
15.079187
21
4.59117
31
0
39
0
210
0
220
0
230
1
0
LINE
5
B1
100
AcDbEntity
8
1
62
256
6
ByLayer
370
13
48
1
60
0
100
AcDbLine
10
8.5
20
-10
30
0
11
9.025
21
-10
31
0
39
0
210
0
220
0
230
1
0
LINE
5
B2
100
AcDbEntity
8
1
62
256
6
ByLayer
370
13
48
1
60
0
100
AcDbLine
10
9.025
20
-10
30
0
11
9.3
21
-9.725
31
0
39
0
210
0
220
0
230
1
0
LINE
5
B3
100
AcDbEntity
8
1
62
256
6
ByLayer
370
13
48
1
60
0
100
AcDbLine
10
9.3
20
-9.725
30
0
11
9.3
21
7.672717
31
0
39
0
210
0
220
0
230
1
0
LINE
5
B4
100
AcDbEntity
8
1
62
256
6
ByLayer
370
13
48
1
60
0
100
AcDbLine
10
0.1
20
-1.615549
30
0
11
0.1
21
-9.5
31
0
39
0
210
0
220
0
230
1
0
LINE
5
B5
100
AcDbEntity
8
1
62
256
6
ByLayer
370
13
48
1
60
0
100
AcDbLine
10
0.1
20
7.187558
30
0
11
0.1
21
1.615549
31
0
39
0
210
0
220
0
230
1
0
LINE
5
B6
100
AcDbEntity
8
1
62
256
6
ByLayer
370
13
48
1
60
0
100
AcDbLine
10
0
20
-10
30
0
11
0
21
0
31
0
39
0
210
0
220
0
230
1
0
LINE
5
B7
100
AcDbEntity
8
1
62
256
6
ByLayer
370
13
48
1
60
0
100
AcDbLine
10
0
20
0
30
0
11
0
21
8
31
0
39
0
210
0
220
0
230
1
0
LINE
5
B8
100
AcDbEntity
8
1
62
256
6
ByLayer
370
13
48
1
60
0
100
AcDbLine
10
0.1
20
-9.5
30
0
11
8
21
-9.5
31
0
39
0
210
0
220
0
230
1
0
LINE
5
B9
100
AcDbEntity
8
1
62
256
6
ByLayer
370
13
48
1
60
0
100
AcDbLine
10
0.1
20
-10
30
0
11
0.1
21
-9.5
31
0
39
0
210
0
220
0
230
1
0
LINE
5
BA
100
AcDbEntity
8
1
62
256
6
ByLayer
370
13
48
1
60
0
100
AcDbLine
10
8.5
20
-10
30
0
11
0.1
21
-10
31
0
39
0
210
0
220
0
230
1
0
LINE
5
BB
100
AcDbEntity
8
1
62
256
6
ByLayer
370
13
48
1
60
0
100
AcDbLine
10
8
20
-9.5
30
0
11
8
21
7.325453
31
0
39
0
210
0
220
0
230
1
0
LINE
5
BC
100
AcDbEntity
8
1
62
256
6
ByLayer
370
13
48
1
60
0
100
AcDbLine
10
8.5
20
-10
30
0
11
8
21
-9.5
31
0
39
0
210
0
220
0
230
1
0
LINE
5
BD
100
AcDbEntity
8
1
62
256
6
ByLayer
370
13
48
1
60
0
100
AcDbLine
10
8.5
20
7.816794
30
0
11
8.5
21
-10
31
0
39
0
210
0
220
0
230
1
0
LINE
5
BE
100
AcDbEntity
8
1
62
256
6
ByLayer
370
13
48
1
60
0
100
AcDbLine
10
8.499695
20
7.816799
30
0
11
8.5
21
7.816794
31
0
39
0
210
0
220
0
230
1
0
LINE
5
BF
100
AcDbEntity
8
1
62
256
6
ByLayer
370
13
48
1
60
0
100
AcDbLine
10
0.1
20
7.187558
30
0
11
0.1
21
8
31
0
39
0
210
0
220
0
230
1
0
LINE
5
C0
100
AcDbEntity
8
1
62
256
6
ByLayer
370
13
48
1
60
0
100
AcDbLine
10
8
20
7.325453
30
0
11
0.1
21
7.187558
31
0
39
0
210
0
220
0
230
1
0
LINE
5
C1
100
AcDbEntity
8
1
62
256
6
ByLayer
370
13
48
1
60
0
100
AcDbLine
10
8.499695
20
7.816799
30
0
11
8
21
7.325453
31
0
39
0
210
0
220
0
230
1
0
LINE
5
C2
100
AcDbEntity
8
1
62
256
6
ByLayer
370
13
48
1
60
0
100
AcDbLine
10
1.801248
20
7.699877
30
0
11
8.499695
21
7.816799
31
0
39
0
210
0
220
0
230
1
0
LINE
5
C3
100
AcDbEntity
8
1
62
256
6
ByLayer
370
13
48
1
60
0
100
AcDbLine
10
0.1
20
8
30
0
11
1.154092
21
8
31
0
39
0
210
0
220
0
230
1
0
LINE
5
C4
100
AcDbEntity
8
1
62
256
6
ByLayer
370
18
48
1
60
0
100
AcDbLine
10
10.288466
20
7.690844
30
0
11
10.258569
21
7.689446
31
0
39
0
210
0
220
0
230
1
0
LINE
5
C5
100
AcDbEntity
8
1
62
256
6
ByLayer
370
18
48
1
60
0
100
AcDbLine
10
27.820601
20
4.739857
30
0
11
28.084532
21
4.83264
31
0
39
0
210
0
220
0
230
1
0
LINE
5
C6
100
AcDbEntity
8
1
62
256
6
ByLayer
370
18
48
1
60
0
100
AcDbLine
10
10.242516
20
4.521206
30
0
11
9.749084
21
4.498132
31
0
39
0
210
0
220
0
230
1
0
LINE
5
C7
100
AcDbEntity
8
1
62
256
6
ByLayer
370
18
48
1
60
0
100
AcDbLine
10
20.394681
20
4.406733
30
0
11
20.876973
21
4.415152
31
0
39
0
210
0
220
0
230
1
0
LINE
5
C8
100
AcDbEntity
8
1
62
256
6
ByLayer
370
18
48
1
60
0
100
AcDbLine
10
20.876973
20
4.415152
30
0
11
27.820601
21
4.739857
31
0
39
0
210
0
220
0
230
1
0
LINE
5
C9
100
AcDbEntity
8
1
62
256
6
ByLayer
370
18
48
1
60
0
100
AcDbLine
10
28
20
8
30
0
11
10.288466
21
7.690844
31
0
39
0
210
0
220
0
230
1
0
LINE
5
CA
100
AcDbEntity
8
1
62
256
6
ByLayer
370
18
48
1
60
0
100
AcDbLine
10
10.242516
20
4.521206
30
0
11
10.288466
21
7.690844
31
0
39
0
210
0
220
0
230
1
0
LINE
5
CB
100
AcDbEntity
8
1
62
256
6
ByLayer
370
18
48
1
60
0
100
AcDbLine
10
28.084532
20
4.83264
30
0
11
10.242516
21
4.521206
31
0
39
0
210
0
220
0
230
1
0
LINE
5
CC
100
AcDbEntity
8
1
62
256
6
ByLayer
370
18
48
1
60
0
100
AcDbLine
10
28.084532
20
4.83264
30
0
11
28
21
8
31
0
39
0
210
0
220
0
230
1
0
MTEXT
5
F5
100
AcDbEntity
8
SK6
62
256
6
ByLayer
370
18
48
1
60
0
100
AcDbMText
10
-13.761606
20
-31.220723
30
0
210
0
220
0
230
1
1
\W0.8064;QSM16-SMALR-3A
40
3.5
41
0
44
1.084337
50
0
71
7
72
5
7
iso_b_vert
0
DIMENSION
5
FA
100
AcDbEntity
8
2
62
256
6
ByLayer
370
18
48
1
60
0
100
AcDbDimension
2
_U0
10
28
20
-15.537984
30
0
11
14
21
-15.537984
31
0
70
32
71
1
72
1
41
1
210
0
220
0
230
1
3
Standard
100
AcDbAlignedDimension
13
0
23
-10
33
0
14
28
24
8
34
0
50
0
100
AcDbRotatedDimension
1001
ACAD
1000
DSTYLE
1002
{
1070
   371
1070
    13
1070
   372
1070
    13
1070
   170
1070
     0
1070
   144
1040
1.0
1070
   277
1070
     2
1070
   284
1070
     8
1070
   278
1070
    46
1070
   146
1040
1.166667
1070
   345
1005
16
1070
   347
1005
16
1070
   346
1005
16
1070
   344
1005
0
1070
   343
1005
0
1070
   172
1070
     1
1070
    76
1070
     0
1070
    75
1070
     0
1070
   282
1070
     0
1070
   281
1070
     0
1070
    71
1070
     0
1070
    74
1070
     0
1070
   279
1070
     0
1070
   173
1070
     1
1070
   340
1005
F6
1070
   271
1070
     2
1070
   272
1070
     2
1070
    77
1070
     1
1070
    73
1070
     1
1070
   171
1070
     3
1070
   274
1070
     4
1070
   177
1070
     7
1070
   176
1070
     7
1070
   178
1070
     7
1070
    78
1070
     8
1070
    48
1040
-0.1
1070
    41
1040
3.175
1070
   147
1040
1.5
1070
    42
1040
1.5875
1070
    44
1040
2.0
1070
   140
1040
3.0
1002
}
1001
ACAD_DSTYLE_DIM_LINETYPE
1070
   380
1005
16
1001
ACAD_DSTYLE_DIM_EXT1_LINETYPE
1070
   381
1005
16
1001
ACAD_DSTYLE_DIM_EXT2_LINETYPE
1070
   382
1005
16
0
DIMENSION
5
114
100
AcDbEntity
8
2
62
256
6
ByLayer
370
18
48
1
60
0
100
AcDbDimension
2
_U1
10
37.317753
20
8
30
0
11
37.317753
21
4
31
0
70
32
71
1
72
1
41
1
210
0
220
0
230
1
3
Standard
100
AcDbAlignedDimension
13
30
23
0
33
0
14
28
24
8
34
0
50
90
100
AcDbRotatedDimension
1001
ACAD
1000
DSTYLE
1002
{
1070
   371
1070
    13
1070
   372
1070
    13
1070
   170
1070
     0
1070
   144
1040
1.0
1070
   277
1070
     2
1070
   284
1070
     8
1070
   278
1070
    46
1070
   146
1040
1.166667
1070
   345
1005
16
1070
   347
1005
16
1070
   346
1005
16
1070
   344
1005
0
1070
   343
1005
0
1070
   172
1070
     1
1070
    76
1070
     0
1070
    75
1070
     0
1070
   282
1070
     0
1070
   281
1070
     0
1070
    71
1070
     0
1070
    74
1070
     0
1070
   279
1070
     0
1070
   173
1070
     1
1070
   340
1005
F6
1070
   271
1070
     2
1070
   272
1070
     2
1070
    77
1070
     1
1070
    73
1070
     0
1070
   171
1070
     3
1070
   274
1070
     4
1070
   177
1070
     7
1070
   176
1070
     7
1070
   178
1070
     7
1070
    78
1070
     8
1070
    48
1040
-0.1
1070
    41
1040
3.175
1070
   147
1040
1.5
1070
    42
1040
1.5875
1070
    44
1040
2.0
1070
   140
1040
3.0
1002
}
1001
ACAD_DSTYLE_DIM_LINETYPE
1070
   380
1005
16
1001
ACAD_DSTYLE_DIM_EXT1_LINETYPE
1070
   381
1005
16
1001
ACAD_DSTYLE_DIM_EXT2_LINETYPE
1070
   382
1005
16
0
DIMENSION
5
12D
100
AcDbEntity
8
SK2
62
256
6
ByLayer
370
18
48
1
60
0
100
AcDbDimension
2
_U2
10
-21.422546
20
-10
30
0
11
-21.422546
21
-1
31
0
70
32
71
1
72
1
41
1
210
0
220
0
230
1
3
Standard
100
AcDbAlignedDimension
13
0
23
8
33
0
14
0
24
-10
34
0
50
90
100
AcDbRotatedDimension
1001
ACAD
1000
DSTYLE
1002
{
1070
   371
1070
    13
1070
   372
1070
    13
1070
   170
1070
     0
1070
   144
1040
1.0
1070
   277
1070
     2
1070
   284
1070
     8
1070
   278
1070
    46
1070
   146
1040
1.166667
1070
   345
1005
16
1070
   347
1005
16
1070
   346
1005
16
1070
   344
1005
0
1070
   343
1005
0
1070
   172
1070
     1
1070
    76
1070
     0
1070
    75
1070
     0
1070
   282
1070
     0
1070
   281
1070
     0
1070
    71
1070
     0
1070
    74
1070
     0
1070
   279
1070
     0
1070
   173
1070
     1
1070
   340
1005
F6
1070
   271
1070
     0
1070
   272
1070
     2
1070
    77
1070
     1
1070
    73
1070
     0
1070
   171
1070
     3
1070
   274
1070
     4
1070
   177
1070
     7
1070
   176
1070
     7
1070
   178
1070
     7
1070
    78
1070
     8
1070
    48
1040
-0.1
1070
    41
1040
3.175
1070
   147
1040
1.5
1070
    42
1040
1.5875
1070
    44
1040
2.0
1070
   140
1040
3.0
1002
}
1001
ACAD_DSTYLE_DIM_LINETYPE
1070
   380
1005
16
1001
ACAD_DSTYLE_DIM_EXT1_LINETYPE
1070
   381
1005
16
1001
ACAD_DSTYLE_DIM_EXT2_LINETYPE
1070
   382
1005
16
0
DIMENSION
5
146
100
AcDbEntity
8
SK2
62
256
6
ByLayer
370
18
48
1
60
0
100
AcDbDimension
2
_U3
10
28
20
-24.205988
30
0
11
5.75
21
-24.205988
31
0
70
32
71
1
72
1
41
1
210
0
220
0
230
1
3
Standard
100
AcDbAlignedDimension
13
-16.5
23
-2.910024
33
0
14
28
24
8
34
0
50
0
100
AcDbRotatedDimension
1001
ACAD
1000
DSTYLE
1002
{
1070
   371
1070
    13
1070
   372
1070
    13
1070
   170
1070
     0
1070
   144
1040
1.0
1070
   277
1070
     2
1070
   284
1070
     8
1070
   278
1070
    46
1070
   146
1040
1.166667
1070
   345
1005
16
1070
   347
1005
16
1070
   346
1005
16
1070
   344
1005
0
1070
   343
1005
0
1070
   172
1070
     1
1070
    76
1070
     0
1070
    75
1070
     0
1070
   282
1070
     0
1070
   281
1070
     0
1070
    71
1070
     0
1070
    74
1070
     0
1070
   279
1070
     0
1070
   173
1070
     1
1070
   340
1005
F6
1070
   271
1070
     2
1070
   272
1070
     2
1070
    77
1070
     1
1070
    73
1070
     1
1070
   171
1070
     3
1070
   274
1070
     4
1070
   177
1070
     7
1070
   176
1070
     7
1070
   178
1070
     7
1070
    78
1070
     8
1070
    48
1040
-0.1
1070
    41
1040
3.175
1070
   147
1040
1.5
1070
    42
1040
1.5875
1070
    44
1040
2.0
1070
   140
1040
3.0
1002
}
1001
ACAD_DSTYLE_DIM_LINETYPE
1070
   380
1005
16
1001
ACAD_DSTYLE_DIM_EXT1_LINETYPE
1070
   381
1005
16
1001
ACAD_DSTYLE_DIM_EXT2_LINETYPE
1070
   382
1005
16
0
ENDSEC
0
SECTION
2
OBJECTS
0
DICTIONARY
5
1ce
330
0
100
AcDbDictionary
280
0
281
1
3
ACAD_GROUP
350
1cf
3
ACAD_MLINESTYLE
350
1d0
0
DICTIONARY
5
1cf
330
0
100
AcDbDictionary
280
0
281
1
0
DICTIONARY
5
1d0
330
0
100
AcDbDictionary
280
0
281
1
3
Standard
350
18
0
MLINESTYLE
5
18
330
1d0
100
AcDbMlineStyle
2
Standard
70
0
3

62
256
51
90
52
90
71
2
49
-0.5
62
256
6
ByLayer
49
0.5
62
256
6
ByLayer
0
RASTERVARIABLES
5
1bc
330

100
AcDbRasterVariables
90
0
70
1
71
1
72
1
0
ENDSEC
0
EOF
