0
SECTION
2
HEADER
9
$ACADVER
1
AC1015
9
$DWGCODEPAGE
3
ANSI_1252
9
$HANDSEED
5
24b
9
$ANGBASE
50
0
9
$ANGDIR
70
0
9
$ATTMODE
70
1
9
$AUNITS
70
0
9
$AUPREC
70
0
9
$CECOLOR
62
256
9
$CELTSCALE
40
1
9
$CELTYPE
6
ByLayer
9
$CELWEIGHT
370
18
9
$CLAYER
8
0
9
$CMLJUST
70
0
9
$CMLSCALE
40
1
9
$CMLSTYLE
2
Standard
9
$DIMSTYLE
2
Standard
9
$TEXTSIZE
40
0.2
9
$TEXTSTYLE
7
Standard
9
$LUNITS
70
2
9
$LUPREC
70
4
9
$EXTNAMES
290
1
9
$INSUNITS
70
4
9
$LTSCALE
40
1
9
$LWDISPLAY
290
1
9
$PDMODE
70
0
9
$PDSIZE
40
0
9
$PLINEGEN
70
0
0
ENDSEC
0
SECTION
2
CLASSES
0
CLASS
1
RASTERVARIABLES
2
AcDbRasterVariables
3
ISM
90
0
280
0
281
0
0
ENDSEC
0
SECTION
2
TABLES
0
TABLE
2
VPORT
5
241
100
AcDbSymbolTable
0
VPORT
5
1
100
AcDbSymbolTableRecord
100
AcDbViewportTableRecord
2
*Active
70
0
10
0
20
0
11
1
21
1
12
-1
22
1
13
0
23
0
14
0.5
24
0.5
15
10
25
10
16
0
26
0
36
1
17
0
27
0
37
0
0
ENDTAB
0
TABLE
2
LTYPE
5
242
100
AcDbSymbolTable
0
LTYPE
5
14
100
AcDbSymbolTableRecord
100
AcDbLinetypeTableRecord
70
0
2
ByBlock
3

72
65
73
0
40
0
0
LTYPE
5
15
100
AcDbSymbolTableRecord
100
AcDbLinetypeTableRecord
70
0
2
ByLayer
3

72
65
73
0
40
0
0
LTYPE
5
16
100
AcDbSymbolTableRecord
100
AcDbLinetypeTableRecord
70
0
2
Continuous
3
Solid line
72
65
73
0
40
0
0
LTYPE
5
6E
100
AcDbSymbolTableRecord
100
AcDbLinetypeTableRecord
70
0
2
CENTER
3
____ _ ____ _ ____ _ ____
72
65
73
4
40
47.5
49
22
74
0
49
-8.5
74
0
49
8.5
74
0
49
-8.5
74
0
0
LTYPE
5
6F
100
AcDbSymbolTableRecord
100
AcDbLinetypeTableRecord
70
0
2
DASHED
3
__ __ __ __ __ __ __ __ __
72
65
73
2
40
25.72
49
12.86
74
0
49
-12.86
74
0
0
ENDTAB
0
TABLE
2
LAYER
5
243
100
AcDbSymbolTable
0
LAYER
5
10
100
AcDbSymbolTableRecord
100
AcDbLayerTableRecord
2
0
70
0
62
7
6
Continuous
290
1
370
-3
390
0
0
LAYER
5
71
100
AcDbSymbolTableRecord
100
AcDbLayerTableRecord
2
81
70
0
62
-3
6
Continuous
290
1
370
-3
390
0
0
LAYER
5
73
100
AcDbSymbolTableRecord
100
AcDbLayerTableRecord
2
80
70
0
62
-6
6
Continuous
290
1
370
-3
390
0
0
LAYER
5
77
100
AcDbSymbolTableRecord
100
AcDbLayerTableRecord
2
4
70
0
62
-2
6
CENTER
290
1
370
-3
390
0
0
LAYER
5
7B
100
AcDbSymbolTableRecord
100
AcDbLayerTableRecord
2
1
70
0
62
4
6
Continuous
290
1
370
-3
390
0
0
LAYER
5
153
100
AcDbSymbolTableRecord
100
AcDbLayerTableRecord
2
Defpoints
70
0
62
7
6
Continuous
290
0
370
-3
390
0
0
LAYER
5
160
100
AcDbSymbolTableRecord
100
AcDbLayerTableRecord
2
2
70
0
62
7
6
Continuous
290
1
370
-3
390
0
0
LAYER
5
22d
100
AcDbSymbolTableRecord
100
AcDbLayerTableRecord
2
SK4
70
0
62
2
6
CENTER
290
1
370
-3
390
0
0
LAYER
5
22e
100
AcDbSymbolTableRecord
100
AcDbLayerTableRecord
2
SK1
70
0
62
4
6
Continuous
290
1
370
-3
390
0
0
LAYER
5
22f
100
AcDbSymbolTableRecord
100
AcDbLayerTableRecord
2
SK6
70
0
62
5
6
Continuous
290
1
370
-3
390
0
0
LAYER
5
230
100
AcDbSymbolTableRecord
100
AcDbLayerTableRecord
2
SK2
70
0
62
7
6
Continuous
290
1
370
-3
390
0
0
ENDTAB
0
TABLE
2
STYLE
5
244
100
AcDbSymbolTable
0
STYLE
5
11
100
AcDbSymbolTableRecord
100
AcDbTextStyleTableRecord
2
Standard
3
txt
70
0
71
0
40
0
41
1
42
0
50
0
0
STYLE
5
14C
100
AcDbSymbolTableRecord
100
AcDbTextStyleTableRecord
2
iso_b_vert
3
simplex.shx
70
0
71
0
40
0
41
1
42
0
50
0
0
STYLE
5
14D
100
AcDbSymbolTableRecord
100
AcDbTextStyleTableRecord
2
DWGDirectTextStyle
3
simplex
70
0
71
0
40
0
41
1
42
0
50
0
0
ENDTAB
0
TABLE
2
DIMSTYLE
5
245
100
AcDbSymbolTable
100
AcDbDimStyleTable
0
DIMSTYLE
105
27
100
AcDbSymbolTableRecord
100
AcDbDimStyleTableRecord
2
Standard
70
0
3
<>
41
0.18
42
0.0625
44
0.18
140
0.18
147
0.09
73
0
74
0
77
1
271
2
275
0
278
52
280
0
340
11
0
ENDTAB
0
TABLE
2
VIEW
5
246
100
AcDbSymbolTable
0
ENDTAB
0
TABLE
2
UCS
5
247
100
AcDbSymbolTable
0
ENDTAB
0
TABLE
2
APPID
5
248
100
AcDbSymbolTable
0
APPID
5
12
100
AcDbSymbolTableRecord
100
AcDbRegAppTableRecord
2
ACAD
70
0
0
APPID
5
14F
100
AcDbSymbolTableRecord
100
AcDbRegAppTableRecord
2
ACAD_DSTYLE_DIMBREAK
70
0
0
APPID
5
1EC
100
AcDbSymbolTableRecord
100
AcDbRegAppTableRecord
2
ACAD_DSTYLE_DIM_LINETYPE
70
0
0
APPID
5
1ED
100
AcDbSymbolTableRecord
100
AcDbRegAppTableRecord
2
ACAD_DSTYLE_DIM_EXT1_LINETYPE
70
0
0
APPID
5
1EE
100
AcDbSymbolTableRecord
100
AcDbRegAppTableRecord
2
ACAD_DSTYLE_DIM_EXT2_LINETYPE
70
0
0
APPID
5
229
100
AcDbSymbolTableRecord
100
AcDbRegAppTableRecord
2
ACAD_MLEADERVER
70
0
0
ENDTAB
0
TABLE
2
BLOCK_RECORD
5
249
100
AcDbSymbolTable
0
BLOCK_RECORD
5
1F
100
AcDbSymbolTableRecord
100
AcDbBlockTableRecord
2
*Model_Space
340
0
70
0
0
BLOCK_RECORD
5
1B
100
AcDbSymbolTableRecord
100
AcDbBlockTableRecord
2
*Paper_Space
340
0
70
0
0
BLOCK_RECORD
5
23
100
AcDbSymbolTableRecord
100
AcDbBlockTableRecord
2
*Paper_Space0
340
0
70
0
0
BLOCK_RECORD
5
154
100
AcDbSymbolTableRecord
100
AcDbBlockTableRecord
2
*D1
340
0
70
0
0
BLOCK_RECORD
5
161
100
AcDbSymbolTableRecord
100
AcDbBlockTableRecord
2
_U0
340
0
70
0
0
BLOCK_RECORD
5
16D
100
AcDbSymbolTableRecord
100
AcDbBlockTableRecord
2
*D3
340
0
70
0
0
BLOCK_RECORD
5
17A
100
AcDbSymbolTableRecord
100
AcDbBlockTableRecord
2
_U1
340
0
70
0
0
BLOCK_RECORD
5
186
100
AcDbSymbolTableRecord
100
AcDbBlockTableRecord
2
*D5
340
0
70
0
0
BLOCK_RECORD
5
193
100
AcDbSymbolTableRecord
100
AcDbBlockTableRecord
2
_U2
340
0
70
0
0
BLOCK_RECORD
5
19F
100
AcDbSymbolTableRecord
100
AcDbBlockTableRecord
2
*D7
340
0
70
0
0
BLOCK_RECORD
5
1AB
100
AcDbSymbolTableRecord
100
AcDbBlockTableRecord
2
_U3
340
0
70
0
0
BLOCK_RECORD
5
1B7
100
AcDbSymbolTableRecord
100
AcDbBlockTableRecord
2
*D9
340
0
70
0
0
BLOCK_RECORD
5
1C5
100
AcDbSymbolTableRecord
100
AcDbBlockTableRecord
2
_U4
340
0
70
0
0
ENDTAB
0
ENDSEC
0
SECTION
2
BLOCKS
0
BLOCK
5
20
100
AcDbEntity
8
0
100
AcDbBlockBegin
2
*Model_Space
70
0
10
0
20
0
30
0
3
*Model_Space
0
ENDBLK
5
21
100
AcDbEntity
8
0
100
AcDbBlockEnd
0
BLOCK
5
1C
100
AcDbEntity
8
0
100
AcDbBlockBegin
2
*Paper_Space
70
0
10
0
20
0
30
0
3
*Paper_Space
0
ENDBLK
5
1D
100
AcDbEntity
8
0
100
AcDbBlockEnd
0
BLOCK
5
24
100
AcDbEntity
8
0
100
AcDbBlockBegin
2
*Paper_Space0
70
0
10
0
20
0
30
0
3
*Paper_Space0
0
ENDBLK
5
25
100
AcDbEntity
8
0
100
AcDbBlockEnd
0
BLOCK
5
155
100
AcDbEntity
8
0
100
AcDbBlockBegin
2
*D1
70
1
10
0
20
0
30
0
3
*D1
0
LINE
5
157
100
AcDbEntity
8
0
62
256
6
ByLayer
370
-2
48
1
60
0
100
AcDbLine
10
0
20
-9.5875
30
0
11
0
21
-19.009298
31
0
39
0
210
0
220
0
230
1
0
LINE
5
158
100
AcDbEntity
8
0
62
256
6
ByLayer
370
-2
48
1
60
0
100
AcDbLine
10
32
20
-9.5875
30
0
11
32
21
-19.009298
31
0
39
0
210
0
220
0
230
1
0
LINE
5
159
100
AcDbEntity
8
0
62
256
6
ByLayer
370
-2
48
1
60
0
100
AcDbLine
10
3.175
20
-17.009298
30
0
11
28.825
21
-17.009298
31
0
39
0
210
0
220
0
230
1
0
SOLID
5
15A
100
AcDbEntity
8
0
62
256
6
ByLayer
370
-1
48
1
60
0
100
AcDbTrace
10
3.175
20
-16.480131
30
0
11
3.175
21
-17.538465
31
0
12
0
22
-17.009298
32
0
13
0
23
-17.009298
33
0
39
0
210
0
220
0
230
1
0
SOLID
5
15B
100
AcDbEntity
8
0
62
256
6
ByLayer
370
-1
48
1
60
0
100
AcDbTrace
10
28.825
20
-17.538465
30
0
11
28.825
21
-16.480131
31
0
12
32
22
-17.009298
32
0
13
32
23
-17.009298
33
0
39
0
210
0
220
0
230
1
0
MTEXT
5
15C
100
AcDbEntity
8
0
62
256
6
ByLayer
370
18
48
1
60
0
100
AcDbMText
10
16
20
-11.009298
30
0
210
0
220
0
230
1
1
\A1;32
40
3
41
0
44
1
50
0
71
5
72
5
7
iso_b_vert
0
POINT
5
15D
100
AcDbEntity
8
Defpoints
62
0
6
ByLayer
370
-1
48
1
60
0
100
AcDbPoint
10
0
20
-8
30
0
39
0
210
0
220
0
230
1
50
360
0
POINT
5
15E
100
AcDbEntity
8
Defpoints
62
0
6
ByLayer
370
-1
48
1
60
0
100
AcDbPoint
10
32
20
-8
30
0
39
0
210
0
220
0
230
1
50
360
0
POINT
5
15F
100
AcDbEntity
8
Defpoints
62
0
6
ByLayer
370
-1
48
1
60
0
100
AcDbPoint
10
32
20
-17.009298
30
0
39
0
210
0
220
0
230
1
50
360
0
ENDBLK
5
156
100
AcDbEntity
8
0
100
AcDbBlockEnd
0
BLOCK
5
168
100
AcDbEntity
8
0
100
AcDbBlockBegin
2
_U0
70
0
10
0
20
0
30
0
3
_U0
0
MTEXT
5
162
100
AcDbEntity
8
2
62
256
6
ByLayer
370
18
48
1
60
0
100
AcDbMText
10
14.367172
20
-16.124184
30
0
210
0
220
0
230
1
1
\W0.6740;32
40
3
41
0
44
1.084337
50
0
71
7
72
5
7
iso_b_vert
0
LINE
5
163
100
AcDbEntity
8
2
62
256
6
ByLayer
370
13
48
1
60
0
100
AcDbLine
10
0
20
-9.5875
30
0
11
0
21
-19.009298
31
0
39
0
210
0
220
0
230
1
0
LINE
5
164
100
AcDbEntity
8
2
62
256
6
ByLayer
370
13
48
1
60
0
100
AcDbLine
10
32
20
-9.5875
30
0
11
32
21
-19.009298
31
0
39
0
210
0
220
0
230
1
0
LINE
5
165
100
AcDbEntity
8
2
62
256
6
ByLayer
370
13
48
1
60
0
100
AcDbLine
10
0
20
-17.009298
30
0
11
32
21
-17.009298
31
0
39
0
210
0
220
0
230
1
0
SOLID
5
166
100
AcDbEntity
8
2
62
256
6
ByLayer
370
18
48
1
60
0
100
AcDbTrace
10
0
20
-17.009298
30
0
11
3.174998
21
-16.591301
31
0
12
3.175002
22
-17.427295
32
0
13
3.175002
23
-17.427295
33
0
39
0
210
0
220
0
230
1
0
SOLID
5
167
100
AcDbEntity
8
2
62
256
6
ByLayer
370
18
48
1
60
0
100
AcDbTrace
10
32
20
-17.009298
30
0
11
28.825002
21
-17.427295
31
0
12
28.824998
22
-16.591301
32
0
13
28.824998
23
-16.591301
33
0
39
0
210
0
220
0
230
1
0
ENDBLK
5
169
100
AcDbEntity
8
0
100
AcDbBlockEnd
0
BLOCK
5
16E
100
AcDbEntity
8
0
100
AcDbBlockBegin
2
*D3
70
1
10
0
20
0
30
0
3
*D3
0
LINE
5
170
100
AcDbEntity
8
0
62
256
6
ByLayer
370
-2
48
1
60
0
100
AcDbLine
10
35.5875
20
0
30
0
11
50.004126
21
0
31
0
39
0
210
0
220
0
230
1
0
LINE
5
171
100
AcDbEntity
8
0
62
256
6
ByLayer
370
-2
48
1
60
0
100
AcDbLine
10
33.5875
20
-8
30
0
11
50.004126
21
-8
31
0
39
0
210
0
220
0
230
1
0
LINE
5
172
100
AcDbEntity
8
0
62
256
6
ByLayer
370
-2
48
1
60
0
100
AcDbLine
10
48.004126
20
3.175
30
0
11
48.004126
21
6.35
31
0
39
0
210
0
220
0
230
1
0
LINE
5
173
100
AcDbEntity
8
0
62
256
6
ByLayer
370
-2
48
1
60
0
100
AcDbLine
10
48.004126
20
-11.175
30
0
11
48.004126
21
-14.35
31
0
39
0
210
0
220
0
230
1
0
SOLID
5
174
100
AcDbEntity
8
0
62
256
6
ByLayer
370
-1
48
1
60
0
100
AcDbTrace
10
47.474959
20
3.175
30
0
11
48.533292
21
3.175
31
0
12
48.004126
22
0
32
0
13
48.004126
23
0
33
0
39
0
210
0
220
0
230
1
0
SOLID
5
175
100
AcDbEntity
8
0
62
256
6
ByLayer
370
-1
48
1
60
0
100
AcDbTrace
10
48.533292
20
-11.175
30
0
11
47.474959
21
-11.175
31
0
12
48.004126
22
-8
32
0
13
48.004126
23
-8
33
0
39
0
210
0
220
0
230
1
0
MTEXT
5
176
100
AcDbEntity
8
0
62
256
6
ByLayer
370
18
48
1
60
0
100
AcDbMText
10
42.004126
20
-4
30
0
210
0
220
0
230
1
1
\A1;8
40
3
41
0
44
1
50
90
71
5
72
5
7
iso_b_vert
0
POINT
5
177
100
AcDbEntity
8
Defpoints
62
0
6
ByLayer
370
-1
48
1
60
0
100
AcDbPoint
10
34
20
0
30
0
39
0
210
0
220
0
230
1
50
360
0
POINT
5
178
100
AcDbEntity
8
Defpoints
62
0
6
ByLayer
370
-1
48
1
60
0
100
AcDbPoint
10
32
20
-8
30
0
39
0
210
0
220
0
230
1
50
360
0
POINT
5
179
100
AcDbEntity
8
Defpoints
62
0
6
ByLayer
370
-1
48
1
60
0
100
AcDbPoint
10
48.004126
20
-8
30
0
39
0
210
0
220
0
230
1
50
360
0
ENDBLK
5
16F
100
AcDbEntity
8
0
100
AcDbBlockEnd
0
BLOCK
5
181
100
AcDbEntity
8
0
100
AcDbBlockBegin
2
_U1
70
0
10
0
20
0
30
0
3
_U1
0
MTEXT
5
17B
100
AcDbEntity
8
2
62
256
6
ByLayer
370
18
48
1
60
0
100
AcDbMText
10
47.413011
20
-4.535914
30
0
210
0
220
0
230
1
1
\W0.5404;8
40
3
41
0
44
1.084337
50
90
71
7
72
5
7
iso_b_vert
0
LINE
5
17C
100
AcDbEntity
8
2
62
256
6
ByLayer
370
13
48
1
60
0
100
AcDbLine
10
35.5875
20
0
30
0
11
50.004126
21
0
31
0
39
0
210
0
220
0
230
1
0
LINE
5
17D
100
AcDbEntity
8
2
62
256
6
ByLayer
370
13
48
1
60
0
100
AcDbLine
10
35.5875
20
-8
30
0
11
50.004126
21
-8
31
0
39
0
210
0
220
0
230
1
0
LINE
5
17E
100
AcDbEntity
8
2
62
256
6
ByLayer
370
13
48
1
60
0
100
AcDbLine
10
48.004126
20
0
30
0
11
48.004126
21
-8
31
0
39
0
210
0
220
0
230
1
0
SOLID
5
17F
100
AcDbEntity
8
2
62
256
6
ByLayer
370
18
48
1
60
0
100
AcDbTrace
10
48.004126
20
0
30
0
11
48.422122
21
-3.174998
31
0
12
47.586129
22
-3.175002
32
0
13
47.586129
23
-3.175002
33
0
39
0
210
0
220
0
230
1
0
SOLID
5
180
100
AcDbEntity
8
2
62
256
6
ByLayer
370
18
48
1
60
0
100
AcDbTrace
10
48.004126
20
-8
30
0
11
47.586129
21
-4.825002
31
0
12
48.422122
22
-4.824998
32
0
13
48.422122
23
-4.824998
33
0
39
0
210
0
220
0
230
1
0
ENDBLK
5
182
100
AcDbEntity
8
0
100
AcDbBlockEnd
0
BLOCK
5
187
100
AcDbEntity
8
0
100
AcDbBlockBegin
2
*D5
70
1
10
0
20
0
30
0
3
*D5
0
LINE
5
189
100
AcDbEntity
8
0
62
256
6
ByLayer
370
-2
48
1
60
0
100
AcDbLine
10
-1.5875
20
10
30
0
11
-26.178306
21
10
31
0
39
0
210
0
220
0
230
1
0
LINE
5
18A
100
AcDbEntity
8
0
62
256
6
ByLayer
370
-2
48
1
60
0
100
AcDbLine
10
-1.5875
20
-8
30
0
11
-26.178306
21
-8
31
0
39
0
210
0
220
0
230
1
0
LINE
5
18B
100
AcDbEntity
8
0
62
256
6
ByLayer
370
-2
48
1
60
0
100
AcDbLine
10
-24.178306
20
6.825
30
0
11
-24.178306
21
-4.825
31
0
39
0
210
0
220
0
230
1
0
SOLID
5
18C
100
AcDbEntity
8
0
62
256
6
ByLayer
370
-1
48
1
60
0
100
AcDbTrace
10
-23.649139
20
6.825
30
0
11
-24.707472
21
6.825
31
0
12
-24.178306
22
10
32
0
13
-24.178306
23
10
33
0
39
0
210
0
220
0
230
1
0
SOLID
5
18D
100
AcDbEntity
8
0
62
256
6
ByLayer
370
-1
48
1
60
0
100
AcDbTrace
10
-24.707472
20
-4.825
30
0
11
-23.649139
21
-4.825
31
0
12
-24.178306
22
-8
32
0
13
-24.178306
23
-8
33
0
39
0
210
0
220
0
230
1
0
MTEXT
5
18E
100
AcDbEntity
8
0
62
256
6
ByLayer
370
18
48
1
60
0
100
AcDbMText
10
-30.178306
20
1
30
0
210
0
220
0
230
1
1
\A1;18
40
3
41
0
44
1
50
90
71
5
72
5
7
iso_b_vert
0
POINT
5
18F
100
AcDbEntity
8
Defpoints
62
0
6
ByLayer
370
-1
48
1
60
0
100
AcDbPoint
10
0
20
10
30
0
39
0
210
0
220
0
230
1
50
360
0
POINT
5
190
100
AcDbEntity
8
Defpoints
62
0
6
ByLayer
370
-1
48
1
60
0
100
AcDbPoint
10
0
20
-8
30
0
39
0
210
0
220
0
230
1
50
360
0
POINT
5
191
100
AcDbEntity
8
Defpoints
62
0
6
ByLayer
370
-1
48
1
60
0
100
AcDbPoint
10
-24.178306
20
-8
30
0
39
0
210
0
220
0
230
1
50
360
0
ENDBLK
5
188
100
AcDbEntity
8
0
100
AcDbBlockEnd
0
BLOCK
5
19A
100
AcDbEntity
8
0
100
AcDbBlockBegin
2
_U2
70
0
10
0
20
0
30
0
3
_U2
0
MTEXT
5
194
100
AcDbEntity
8
SK2
62
256
6
ByLayer
370
18
48
1
60
0
100
AcDbMText
10
-24.76942
20
-0.281885
30
0
210
0
220
0
230
1
1
\W0.5321;18
40
3
41
0
44
1.084337
50
90
71
7
72
5
7
iso_b_vert
0
LINE
5
195
100
AcDbEntity
8
SK2
62
256
6
ByLayer
370
13
48
1
60
0
100
AcDbLine
10
-1.5875
20
10
30
0
11
-26.178306
21
10
31
0
39
0
210
0
220
0
230
1
0
LINE
5
196
100
AcDbEntity
8
SK2
62
256
6
ByLayer
370
13
48
1
60
0
100
AcDbLine
10
-1.5875
20
-8
30
0
11
-26.178306
21
-8
31
0
39
0
210
0
220
0
230
1
0
LINE
5
197
100
AcDbEntity
8
SK2
62
256
6
ByLayer
370
13
48
1
60
0
100
AcDbLine
10
-24.178306
20
10
30
0
11
-24.178306
21
-8
31
0
39
0
210
0
220
0
230
1
0
SOLID
5
198
100
AcDbEntity
8
SK2
62
256
6
ByLayer
370
18
48
1
60
0
100
AcDbTrace
10
-24.178306
20
10
30
0
11
-23.760309
21
6.825002
31
0
12
-24.596302
22
6.824998
32
0
13
-24.596302
23
6.824998
33
0
39
0
210
0
220
0
230
1
0
SOLID
5
199
100
AcDbEntity
8
SK2
62
256
6
ByLayer
370
18
48
1
60
0
100
AcDbTrace
10
-24.178306
20
-8
30
0
11
-24.596302
21
-4.825002
31
0
12
-23.760309
22
-4.824998
32
0
13
-23.760309
23
-4.824998
33
0
39
0
210
0
220
0
230
1
0
ENDBLK
5
19B
100
AcDbEntity
8
0
100
AcDbBlockEnd
0
BLOCK
5
1A0
100
AcDbEntity
8
0
100
AcDbBlockBegin
2
*D7
70
1
10
0
20
0
30
0
3
*D7
0
LINE
5
1A2
100
AcDbEntity
8
0
62
256
6
ByLayer
370
-2
48
1
60
0
100
AcDbLine
10
-16.5
20
-4.497524
30
0
11
-16.5
21
-27.190065
31
0
39
0
210
0
220
0
230
1
0
LINE
5
1A3
100
AcDbEntity
8
0
62
256
6
ByLayer
370
-2
48
1
60
0
100
AcDbLine
10
32
20
-9.5875
30
0
11
32
21
-27.190065
31
0
39
0
210
0
220
0
230
1
0
LINE
5
1A4
100
AcDbEntity
8
0
62
256
6
ByLayer
370
-2
48
1
60
0
100
AcDbLine
10
-13.325
20
-25.190065
30
0
11
28.825
21
-25.190065
31
0
39
0
210
0
220
0
230
1
0
SOLID
5
1A5
100
AcDbEntity
8
0
62
256
6
ByLayer
370
-1
48
1
60
0
100
AcDbTrace
10
-13.325
20
-24.660899
30
0
11
-13.325
21
-25.719232
31
0
12
-16.5
22
-25.190065
32
0
13
-16.5
23
-25.190065
33
0
39
0
210
0
220
0
230
1
0
SOLID
5
1A6
100
AcDbEntity
8
0
62
256
6
ByLayer
370
-1
48
1
60
0
100
AcDbTrace
10
28.825
20
-25.719232
30
0
11
28.825
21
-24.660899
31
0
12
32
22
-25.190065
32
0
13
32
23
-25.190065
33
0
39
0
210
0
220
0
230
1
0
MTEXT
5
1A7
100
AcDbEntity
8
0
62
256
6
ByLayer
370
18
48
1
60
0
100
AcDbMText
10
7.75
20
-19.190065
30
0
210
0
220
0
230
1
1
\A1;48.5
40
3
41
0
44
1
50
0
71
5
72
5
7
iso_b_vert
0
POINT
5
1A8
100
AcDbEntity
8
Defpoints
62
0
6
ByLayer
370
-1
48
1
60
0
100
AcDbPoint
10
-16.5
20
-2.910024
30
0
39
0
210
0
220
0
230
1
50
360
0
POINT
5
1A9
100
AcDbEntity
8
Defpoints
62
0
6
ByLayer
370
-1
48
1
60
0
100
AcDbPoint
10
32
20
-8
30
0
39
0
210
0
220
0
230
1
50
360
0
POINT
5
1AA
100
AcDbEntity
8
Defpoints
62
0
6
ByLayer
370
-1
48
1
60
0
100
AcDbPoint
10
32
20
-25.190065
30
0
39
0
210
0
220
0
230
1
50
360
0
ENDBLK
5
1A1
100
AcDbEntity
8
0
100
AcDbBlockEnd
0
BLOCK
5
1B2
100
AcDbEntity
8
0
100
AcDbBlockBegin
2
_U3
70
0
10
0
20
0
30
0
3
_U3
0
MTEXT
5
1AC
100
AcDbEntity
8
SK2
62
256
6
ByLayer
370
18
48
1
60
0
100
AcDbMText
10
4.230601
20
-24.304951
30
0
210
0
220
0
230
1
1
\W0.7640;48.5
40
3
41
0
44
1.084337
50
0
71
7
72
5
7
iso_b_vert
0
LINE
5
1AD
100
AcDbEntity
8
SK2
62
256
6
ByLayer
370
13
48
1
60
0
100
AcDbLine
10
-16.5
20
-4.497524
30
0
11
-16.5
21
-27.190065
31
0
39
0
210
0
220
0
230
1
0
LINE
5
1AE
100
AcDbEntity
8
SK2
62
256
6
ByLayer
370
13
48
1
60
0
100
AcDbLine
10
32
20
-9.5875
30
0
11
32
21
-27.190065
31
0
39
0
210
0
220
0
230
1
0
LINE
5
1AF
100
AcDbEntity
8
SK2
62
256
6
ByLayer
370
13
48
1
60
0
100
AcDbLine
10
-16.5
20
-25.190065
30
0
11
32
21
-25.190065
31
0
39
0
210
0
220
0
230
1
0
SOLID
5
1B0
100
AcDbEntity
8
SK2
62
256
6
ByLayer
370
18
48
1
60
0
100
AcDbTrace
10
-16.5
20
-25.190065
30
0
11
-13.325002
21
-24.772069
31
0
12
-13.324998
22
-25.608062
32
0
13
-13.324998
23
-25.608062
33
0
39
0
210
0
220
0
230
1
0
SOLID
5
1B1
100
AcDbEntity
8
SK2
62
256
6
ByLayer
370
18
48
1
60
0
100
AcDbTrace
10
32
20
-25.190065
30
0
11
28.825002
21
-25.608062
31
0
12
28.824998
22
-24.772069
32
0
13
28.824998
23
-24.772069
33
0
39
0
210
0
220
0
230
1
0
ENDBLK
5
1B3
100
AcDbEntity
8
0
100
AcDbBlockEnd
0
BLOCK
5
1B8
100
AcDbEntity
8
0
100
AcDbBlockBegin
2
*D9
70
1
10
0
20
0
30
0
3
*D9
0
LINE
5
1BA
100
AcDbEntity
8
0
62
256
6
ByLayer
370
-2
48
1
60
0
100
AcDbLine
10
33.5875
20
-8
30
0
11
41.355256
21
-8
31
0
39
0
210
0
220
0
230
1
0
LINE
5
1BB
100
AcDbEntity
8
0
62
256
6
ByLayer
370
-2
48
1
60
0
100
AcDbLine
10
33.38749
20
-4.996849
30
0
11
41.355256
21
-4.996849
31
0
39
0
210
0
220
0
230
1
0
LINE
5
1BC
100
AcDbEntity
8
0
62
256
6
ByLayer
370
-2
48
1
60
0
100
AcDbLine
10
39.355256
20
-8
30
0
11
39.355256
21
-25.35
31
0
39
0
210
0
220
0
230
1
0
LINE
5
1BD
100
AcDbEntity
8
0
62
256
6
ByLayer
370
-2
48
1
60
0
100
AcDbLine
10
39.355256
20
-11.175
30
0
11
39.355256
21
-14.35
31
0
39
0
210
0
220
0
230
1
0
LINE
5
1BE
100
AcDbEntity
8
0
62
256
6
ByLayer
370
-2
48
1
60
0
100
AcDbLine
10
39.355256
20
-1.821849
30
0
11
39.355256
21
1.353151
31
0
39
0
210
0
220
0
230
1
0
SOLID
5
1BF
100
AcDbEntity
8
0
62
256
6
ByLayer
370
-1
48
1
60
0
100
AcDbTrace
10
39.884422
20
-11.175
30
0
11
38.826089
21
-11.175
31
0
12
39.355256
22
-8
32
0
13
39.355256
23
-8
33
0
39
0
210
0
220
0
230
1
0
SOLID
5
1C0
100
AcDbEntity
8
0
62
256
6
ByLayer
370
-1
48
1
60
0
100
AcDbTrace
10
38.826089
20
-1.821849
30
0
11
39.884422
21
-1.821849
31
0
12
39.355256
22
-4.996849
32
0
13
39.355256
23
-4.996849
33
0
39
0
210
0
220
0
230
1
0
MTEXT
5
1C1
100
AcDbEntity
8
0
62
256
6
ByLayer
370
18
48
1
60
0
100
AcDbMText
10
33.355256
20
-19.85
30
0
210
0
220
0
230
1
1
\A1;3
40
3
41
0
44
1
50
90
71
5
72
5
7
iso_b_vert
0
POINT
5
1C2
100
AcDbEntity
8
Defpoints
62
0
6
ByLayer
370
-1
48
1
60
0
100
AcDbPoint
10
32
20
-8
30
0
39
0
210
0
220
0
230
1
50
360
0
POINT
5
1C3
100
AcDbEntity
8
Defpoints
62
0
6
ByLayer
370
-1
48
1
60
0
100
AcDbPoint
10
31.79999
20
-4.996849
30
0
39
0
210
0
220
0
230
1
50
360
0
POINT
5
1C4
100
AcDbEntity
8
Defpoints
62
0
6
ByLayer
370
-1
48
1
60
0
100
AcDbPoint
10
39.355256
20
-4.996849
30
0
39
0
210
0
220
0
230
1
50
360
0
ENDBLK
5
1B9
100
AcDbEntity
8
0
100
AcDbBlockEnd
0
BLOCK
5
1CC
100
AcDbEntity
8
0
100
AcDbBlockBegin
2
_U4
70
0
10
0
20
0
30
0
3
_U4
0
MTEXT
5
1C6
100
AcDbEntity
8
SK2
62
256
6
ByLayer
370
18
48
1
60
0
100
AcDbMText
10
38.764141
20
-13.126016
30
0
210
0
220
0
230
1
1
\W0.5404;3
40
3
41
0
44
1.084337
50
90
71
7
72
5
7
iso_b_vert
0
LINE
5
1C7
100
AcDbEntity
8
SK2
62
256
6
ByLayer
370
13
48
1
60
0
100
AcDbLine
10
33.5875
20
-8
30
0
11
41.355256
21
-8
31
0
39
0
210
0
220
0
230
1
0
LINE
5
1C8
100
AcDbEntity
8
SK2
62
256
6
ByLayer
370
13
48
1
60
0
100
AcDbLine
10
33.38749
20
-4.996849
30
0
11
41.355256
21
-4.996849
31
0
39
0
210
0
220
0
230
1
0
LINE
5
1C9
100
AcDbEntity
8
SK2
62
256
6
ByLayer
370
13
48
1
60
0
100
AcDbLine
10
39.355256
20
2.503151
30
0
11
39.355256
21
-13.261016
31
0
39
0
210
0
220
0
230
1
0
SOLID
5
1CA
100
AcDbEntity
8
SK2
62
256
6
ByLayer
370
18
48
1
60
0
100
AcDbTrace
10
39.355256
20
-8
30
0
11
39.773252
21
-11.174998
31
0
12
38.937259
22
-11.175002
32
0
13
38.937259
23
-11.175002
33
0
39
0
210
0
220
0
230
1
0
SOLID
5
1CB
100
AcDbEntity
8
SK2
62
256
6
ByLayer
370
18
48
1
60
0
100
AcDbTrace
10
39.355256
20
-4.996849
30
0
11
38.937259
21
-1.82185
31
0
12
39.773252
22
-1.821847
32
0
13
39.773252
23
-1.821847
33
0
39
0
210
0
220
0
230
1
0
ENDBLK
5
1CD
100
AcDbEntity
8
0
100
AcDbBlockEnd
0
ENDSEC
0
SECTION
2
ENTITIES
0
ARC
5
E8
100
AcDbEntity
8
SK1
62
256
6
ByLayer
370
18
48
1
60
0
100
AcDbCircle
39
0
10
-15.942871
20
2.875
30
0
40
0.5
210
0
220
0
230
1
100
AcDbArc
50
60.938938
51
150
0
ARC
5
E9
100
AcDbEntity
8
SK1
62
256
6
ByLayer
370
18
48
1
60
0
100
AcDbCircle
39
0
10
-15.942871
20
-2.875
30
0
40
0.5
210
0
220
0
230
1
100
AcDbArc
50
210
51
299.061062
0
ARC
5
EA
100
AcDbEntity
8
SK1
62
256
6
ByLayer
370
18
48
1
60
0
100
AcDbCircle
39
0
10
-0.999897
20
-4.99
30
0
40
0.3
210
0
220
0
230
1
100
AcDbArc
50
90
51
146.478251
0
ARC
5
EB
100
AcDbEntity
8
SK1
62
256
6
ByLayer
370
18
48
1
60
0
100
AcDbCircle
39
0
10
-0.999897
20
4.99
30
0
40
0.3
210
0
220
0
230
1
100
AcDbArc
50
213.521749
51
270
0
ARC
5
EC
100
AcDbEntity
8
SK1
62
256
6
ByLayer
370
18
48
1
60
0
100
AcDbCircle
39
0
10
-0.1
20
-4.99
30
0
40
0.3
210
0
220
0
230
1
100
AcDbArc
50
70.527647
51
90
0
ARC
5
ED
100
AcDbEntity
8
SK1
62
256
6
ByLayer
370
18
48
1
60
0
100
AcDbCircle
39
0
10
-0.1
20
4.99
30
0
40
0.3
210
0
220
0
230
1
100
AcDbArc
50
270
51
289.472353
0
ARC
5
EE
100
AcDbEntity
8
1
62
256
6
ByLayer
370
18
48
1
60
0
100
AcDbCircle
39
0
10
11.6
20
-0.75
30
0
40
3.75
210
0
220
0
230
1
100
AcDbArc
50
227.166572
51
312.833428
0
ARC
5
EF
100
AcDbEntity
8
1
62
256
6
ByLayer
370
18
48
1
60
0
100
AcDbCircle
39
0
10
11.6
20
-0.75
30
0
40
3.75
210
0
220
0
230
1
100
AcDbArc
50
312.833428
51
315.015575
0
ARC
5
F0
100
AcDbEntity
8
1
62
256
6
ByLayer
370
18
48
1
60
0
100
AcDbCircle
39
0
10
11.6
20
-0.75
30
0
40
3.75000000000005
210
0
220
0
230
1
100
AcDbArc
50
315.015575
51
44.984425
0
ARC
5
F1
100
AcDbEntity
8
1
62
256
6
ByLayer
370
18
48
1
60
0
100
AcDbCircle
39
0
10
11.6
20
-0.75
30
0
40
3.75
210
0
220
0
230
1
100
AcDbArc
50
44.984425
51
227.166572
0
ARC
5
F2
100
AcDbEntity
8
1
62
256
6
ByLayer
370
18
48
1
60
0
100
AcDbCircle
39
0
10
11.6
20
-0.75
30
0
40
1.416
210
0
220
0
230
1
100
AcDbArc
50
211.160371
51
265.158644
0
ARC
5
F3
100
AcDbEntity
8
1
62
256
6
ByLayer
370
18
48
1
60
0
100
AcDbCircle
39
0
10
11.6
20
-0.75
30
0
40
1.416
210
0
220
0
230
1
100
AcDbArc
50
265.158644
51
324.777222
0
ARC
5
F4
100
AcDbEntity
8
1
62
256
6
ByLayer
370
18
48
1
60
0
100
AcDbCircle
39
0
10
11.6
20
-0.75
30
0
40
1.416
210
0
220
0
230
1
100
AcDbArc
50
324.777222
51
18.775495
0
ARC
5
F5
100
AcDbEntity
8
1
62
256
6
ByLayer
370
18
48
1
60
0
100
AcDbCircle
39
0
10
11.6
20
-0.75
30
0
40
1.416
210
0
220
0
230
1
100
AcDbArc
50
85.158644
51
144.777222
0
ARC
5
F6
100
AcDbEntity
8
1
62
256
6
ByLayer
370
18
48
1
60
0
100
AcDbCircle
39
0
10
11.6
20
-0.75
30
0
40
1.416
210
0
220
0
230
1
100
AcDbArc
50
144.777222
51
198.775495
0
ARC
5
F7
100
AcDbEntity
8
1
62
256
6
ByLayer
370
18
48
1
60
0
100
AcDbCircle
39
0
10
11.6
20
-0.75
30
0
40
1.416
210
0
220
0
230
1
100
AcDbArc
50
31.160371
51
85.158644
0
ARC
5
F8
100
AcDbEntity
8
1
62
256
6
ByLayer
370
18
48
1
60
0
100
AcDbCircle
39
0
10
11.6
20
-0.75
30
0
40
1.416
210
0
220
0
230
1
100
AcDbArc
50
18.775495
51
31.160371
0
ARC
5
F9
100
AcDbEntity
8
1
62
256
6
ByLayer
370
18
48
1
60
0
100
AcDbCircle
39
0
10
11.6
20
-0.75
30
0
40
1.416
210
0
220
0
230
1
100
AcDbArc
50
198.775495
51
211.160371
0
ARC
5
FC
100
AcDbEntity
8
1
62
256
6
ByLayer
370
18
48
1
60
0
100
AcDbCircle
39
0
10
11.6
20
-0.75
30
0
40
1.9685
210
0
220
0
230
1
100
AcDbArc
50
55.349355
51
114.967933
0
ARC
5
FD
100
AcDbEntity
8
1
62
256
6
ByLayer
370
18
48
1
60
0
100
AcDbCircle
39
0
10
11.6
20
-0.75
30
0
40
1.9685
210
0
220
0
230
1
100
AcDbArc
50
354.586511
51
55.349355
0
ARC
5
FE
100
AcDbEntity
8
1
62
256
6
ByLayer
370
18
48
1
60
0
100
AcDbCircle
39
0
10
11.6
20
-0.75
30
0
40
1.9685
210
0
220
0
230
1
100
AcDbArc
50
294.967933
51
354.586511
0
ARC
5
FF
100
AcDbEntity
8
1
62
256
6
ByLayer
370
18
48
1
60
0
100
AcDbCircle
39
0
10
11.6
20
-0.75
30
0
40
1.9685
210
0
220
0
230
1
100
AcDbArc
50
235.349355
51
294.967933
0
ARC
5
100
100
AcDbEntity
8
1
62
256
6
ByLayer
370
18
48
1
60
0
100
AcDbCircle
39
0
10
11.6
20
-0.75
30
0
40
1.9685
210
0
220
0
230
1
100
AcDbArc
50
174.586511
51
235.349355
0
ARC
5
101
100
AcDbEntity
8
1
62
256
6
ByLayer
370
18
48
1
60
0
100
AcDbCircle
39
0
10
11.6
20
-0.75
30
0
40
1.9685
210
0
220
0
230
1
100
AcDbArc
50
114.967933
51
174.586511
0
CIRCLE
5
FA
100
AcDbEntity
8
1
62
256
6
ByLayer
370
18
48
1
60
0
100
AcDbCircle
10
11.6
20
-0.75
30
0
40
3.5
39
0
210
0
220
0
230
1
0
CIRCLE
5
FB
100
AcDbEntity
8
1
62
256
6
ByLayer
370
18
48
1
60
0
100
AcDbCircle
10
11.6
20
-0.75
30
0
40
3
39
0
210
0
220
0
230
1
0
ELLIPSE
5
102
100
AcDbEntity
8
1
62
256
6
ByLayer
370
35
48
1
60
0
100
AcDbEllipse
10
28.228061
20
-4.55
30
0
11
0.897993681828593
21
1.05195951593932E-15
31
0
210
0
220
0
230
1
40
0.890875
41
-1.5707963267949
42
-1.29515256585592
0
ELLIPSE
5
103
100
AcDbEntity
8
1
62
256
6
ByLayer
370
35
48
1
60
0
100
AcDbEllipse
10
28.095006
20
-6.066064
30
0
11
1.13425636391835
21
1.32873070232402E-15
31
0
210
0
220
0
230
1
40
0.176327
41
-2.80561677258042
42
-1.98717825108475
0
ELLIPSE
5
104
100
AcDbEntity
8
1
62
256
6
ByLayer
370
35
48
1
60
0
100
AcDbEllipse
10
32.223799
20
-4.419859
30
0
11
11.3425636247237
21
1.32873070063011E-14
31
0
210
0
220
0
230
1
40
0.176327
41
-1.98717825148522
42
-1.91986217749958
0
ELLIPSE
5
105
100
AcDbEntity
8
1
62
256
6
ByLayer
370
35
48
1
60
0
100
AcDbEllipse
10
27.990371
20
-6.5
30
0
11
1.19096918211267
21
1.39516723743835E-15
31
0
210
0
220
0
230
1
40
0.176327
41
0
42
1.22173047639593
0
ELLIPSE
5
106
100
AcDbEntity
8
1
62
256
6
ByLayer
370
35
48
1
60
0
100
AcDbEllipse
10
27.990371
20
-6.5
30
0
11
1.19096918211269
21
1.39516723743837E-15
31
0
210
0
220
0
230
1
40
0.176327
41
-1.22173047639592
42
0
0
ELLIPSE
5
107
100
AcDbEntity
8
1
62
256
6
ByLayer
370
35
48
1
60
0
100
AcDbEllipse
10
32.223799
20
-8.580141
30
0
11
11.3425636696359
21
-3.39630451105542E-09
31
0
210
0
220
0
230
1
40
0.176327
41
1.91986217815929
42
1.98717825189133
0
ELLIPSE
5
108
100
AcDbEntity
8
1
62
256
6
ByLayer
370
35
48
1
60
0
100
AcDbEllipse
10
28.095006
20
-6.933936
30
0
11
1.13425636391652
21
1.32873070232187E-15
31
0
210
0
220
0
230
1
40
0.176327
41
1.98717825108404
42
2.80561677258089
0
ELLIPSE
5
109
100
AcDbEntity
8
1
62
256
6
ByLayer
370
35
48
1
60
0
100
AcDbEllipse
10
26.623179
20
-7.525438
30
0
11
0.850692272878601
21
9.96548026672537E-16
31
0
210
0
220
0
230
1
40
0.176327
41
2.80561677256907
42
3.14159265358979
0
ELLIPSE
5
10A
100
AcDbEntity
8
1
62
256
6
ByLayer
370
35
48
1
60
0
100
AcDbEllipse
10
28.228061
20
-8.45
30
0
11
0.897993681779367
21
1.05195951588165E-15
31
0
210
0
220
0
230
1
40
0.890875
41
1.29515256584073
42
1.5707963267949
0
ELLIPSE
5
10B
100
AcDbEntity
8
1
62
256
6
ByLayer
370
35
48
1
60
0
100
AcDbEllipse
10
27.571498
20
-5.75
30
0
11
-2.3287088041805E-17
21
-0.126773189709051
31
0
210
0
220
0
230
1
40
0.984808
41
0
42
6.28318530717959
0
ELLIPSE
5
10C
100
AcDbEntity
8
1
62
256
6
ByLayer
370
35
48
1
60
0
100
AcDbEllipse
10
26.623179
20
-5.474562
30
0
11
0.850692272844984
21
9.96548026633157E-16
31
0
210
0
220
0
230
1
40
0.176327
41
3.14159265358979
42
-2.80561677256234
0
ELLIPSE
5
10D
100
AcDbEntity
8
1
62
256
6
ByLayer
370
18
48
1
60
0
100
AcDbEllipse
10
24.576444
20
-6.5
30
0
11
0.9288931691814
21
1.08815688616161E-15
31
0
210
0
220
0
230
1
40
0.64593
41
0
42
6.28318530717959
0
POINT
5
70
100
AcDbEntity
8
81
62
256
6
ByLayer
370
18
48
1
60
0
100
AcDbPoint
10
32
20
-8
30
0
39
0
210
0
220
0
230
1
50
360
0
POINT
5
72
100
AcDbEntity
8
80
62
256
6
ByLayer
370
18
48
1
60
0
100
AcDbPoint
10
0
20
0
30
0
39
0
210
0
220
0
230
1
50
360
0
SPLINE
5
10E
100
AcDbEntity
8
1
62
256
6
ByLayer
370
35
48
1
60
0
100
AcDbSpline
70
4
71
2
72
6
73
3
40
0
40
0
40
0
40
1
40
1
40
1
41
1.03186391735993
10
31.7999899980508
20
-4.99684864757414
30
0
41
0.729637973226922
10
31.9999899980508
20
-4.99684864757415
30
0
41
1.03186391735993
10
31.9999899980508
20
-5.19684864757413
30
0
0
SPLINE
5
10F
100
AcDbEntity
8
1
62
256
6
ByLayer
370
35
48
1
60
0
100
AcDbSpline
70
4
71
2
72
6
73
3
40
0
40
0
40
0
40
1
40
1
40
1
41
1.03186391735993
10
31.5557958399114
20
-5.00430945388665
30
0
41
1.03138264657361
10
31.6777789448565
20
-4.99684864757412
30
0
41
1.03186391735993
10
31.7999899980508
20
-4.99684864757414
30
0
0
SPLINE
5
110
100
AcDbEntity
8
1
62
256
6
ByLayer
370
35
48
1
60
0
100
AcDbSpline
70
4
71
2
72
6
73
3
40
0
40
0
40
0
40
1
40
1
40
1
41
1.03186391735993
10
31.7999899980508
20
-8.00315135242585
30
0
41
1.03138264657361
10
31.6777789448565
20
-8.00315135242584
30
0
41
1.03186391735993
10
31.5557958399114
20
-7.99569054611335
30
0
0
SPLINE
5
111
100
AcDbEntity
8
1
62
256
6
ByLayer
370
35
48
1
60
0
100
AcDbSpline
70
4
71
2
72
6
73
3
40
0
40
0
40
0
40
1
40
1
40
1
41
1.03186391735993
10
31.9999899980508
20
-7.80315135242586
30
0
41
0.729637973226922
10
31.9999899980508
20
-8.00315135242584
30
0
41
1.03186391735993
10
31.7999899980508
20
-8.00315135242585
30
0
0
SPLINE
5
112
100
AcDbEntity
8
1
62
256
6
ByLayer
370
35
48
1
60
0
100
AcDbSpline
70
4
71
2
72
6
73
3
40
0
40
0
40
0
40
1
40
1
40
1
41
1.03186391735993
10
12.2000100019495
20
-8.00315135242585
30
0
41
1.03156797308476
10
12.2751468373355
20
-8.00315135242589
30
0
41
1.03163599444596
10
12.3502306678851
20
-8.00032957606392
30
0
0
SPLINE
5
113
100
AcDbEntity
8
1
62
256
6
ByLayer
370
35
48
1
60
0
100
AcDbSpline
70
4
71
2
72
6
73
3
40
0
40
0
40
0
40
1
40
1
40
1
41
0.978220227594428
10
12.171487580187
20
-8.00110708347909
30
0
41
1.00211351338464
10
12.1856755322902
20
-8.0031513524259
30
0
41
1.03186391735993
10
12.2000100019495
20
-8.00315135242585
30
0
0
SPLINE
5
114
100
AcDbEntity
8
1
62
256
6
ByLayer
370
35
48
1
60
0
100
AcDbSpline
70
4
71
3
72
8
73
4
40
0
40
0
40
0
40
0
40
1
40
1
40
1
40
1
41
1
10
29.4196694163913
20
-5.08112502478201
30
0
41
1
10
29.4324648695622
20
-5.07790084711076
30
0
41
1
10
29.4455611420819
20
-5.07599959761995
30
0
41
1
10
29.4587330107771
20
-5.07543853823933
30
0
0
SPLINE
5
115
100
AcDbEntity
8
1
62
256
6
ByLayer
370
35
48
1
60
0
100
AcDbSpline
70
4
71
3
72
8
73
4
40
0
40
0
40
0
40
0
40
1
40
1
40
1
40
1
41
1
10
29.458733010784
20
-7.92456146176096
30
0
41
1
10
29.445561127032
20
-7.92400040173914
30
0
41
1
10
29.4324648843564
20
-7.92209915661687
30
0
41
1
10
29.4196694163937
20
-7.91887497521856
30
0
0
SPLINE
5
116
100
AcDbEntity
8
SK1
62
256
6
ByLayer
370
18
48
1
60
0
100
AcDbSpline
70
4
71
3
72
8
73
4
40
0
40
0
40
0
40
0
40
1
40
1
40
1
40
1
41
1
10
-16.4999999999999
20
-1.38867513459485
30
0
41
1
10
-16.4594309401981
20
-1.36525257699748
30
0
41
1
10
-16.4180043020194
20
-1.34133489629346
30
0
41
1
10
-16.375883427255
20
-1.31701639790964
30
0
0
SPLINE
5
117
100
AcDbEntity
8
SK1
62
256
6
ByLayer
370
18
48
1
60
0
100
AcDbSpline
70
4
71
3
72
8
73
4
40
0
40
0
40
0
40
0
40
1
40
1
40
1
40
1
41
1
10
-16.375883427255
20
1.31701639790964
30
0
41
1
10
-16.4180043020194
20
1.34133489629346
30
0
41
1
10
-16.4594309401981
20
1.36525257699748
30
0
41
1
10
-16.4999999999999
20
1.38867513459479
30
0
0
SPLINE
5
118
100
AcDbEntity
8
SK1
62
256
6
ByLayer
370
18
48
1
60
0
100
AcDbSpline
70
4
71
3
72
31
73
27
40
0
40
0
40
0
40
0
40
0.12499999999999
40
0.12499999999999
40
0.187499999999985
40
0.187499999999985
40
0.24999999999998
40
0.24999999999998
40
0.37499999999997
40
0.37499999999997
40
0.406249999999968
40
0.406249999999968
40
0.437499999999966
40
0.437499999999966
40
0.499999999999966
40
0.499999999999966
40
0.624999999999971
40
0.624999999999971
40
0.687499999999976
40
0.687499999999976
40
0.74999999999998
40
0.812499999999985
40
0.812499999999985
40
0.874999999999989
40
0.874999999999989
40
1
40
1
40
1
40
1
41
1
10
-11.5663240377405
20
-0.49996000494707
30
0
41
1
10
-11.5329868618975
20
-0.50038168979404
30
0
41
1
10
-11.5001792241885
20
-0.497495227264324
30
0
41
1
10
-11.4517275055559
20
-0.488412810580598
30
0
41
1
10
-11.4357044948275
20
-0.484587201785473
30
0
41
1
10
-11.4039190131031
20
-0.47530290791201
30
0
41
1
10
-11.3881371089908
20
-0.469824866654335
30
0
41
1
10
-11.3422351924066
20
-0.451295383429567
30
0
41
1
10
-11.3131844319769
20
-0.436079802215886
30
0
41
1
10
-11.2787847435686
20
-0.413504171028251
30
0
41
1
10
-11.2720013760735
20
-0.408809579973422
30
0
41
1
10
-11.2586307804127
20
-0.399055226186761
30
0
41
1
10
-11.2520297638553
20
-0.393983269381295
30
0
41
1
10
-11.2327258312732
20
-0.378372237482722
30
0
41
1
10
-11.2204654560572
20
-0.367403177195172
30
0
41
1
10
-11.1854565104797
20
-0.332854891854822
30
0
41
1
10
-11.1644624466514
20
-0.307650993415734
30
0
41
1
10
-11.1365951282995
20
-0.266464044638269
30
0
41
1
10
-11.1279881954018
20
-0.252262648293083
30
0
41
1
10
-11.1123403777284
20
-0.223319290755626
30
0
41
1
10
-11.098179902075
20
-0.193720996370303
30
0
41
1
10
-11.0869653767971
20
-0.162821695526816
30
0
41
1
10
-11.0772534807382
20
-0.131257218558176
30
0
41
1
10
-11.0731370875447
20
-0.115064293799833
30
0
41
1
10
-11.0633015135842
20
-0.0662703743778366
30
0
41
1
10
-11.0599999999998
20
-0.033339247828394
30
0
41
1
10
-11.0599999999998
20
1.137E-13
30
0
0
SPLINE
5
119
100
AcDbEntity
8
SK1
62
256
6
ByLayer
370
18
48
1
60
0
100
AcDbSpline
70
4
71
3
72
31
73
27
40
0
40
0
40
0
40
0
40
0.124999999999992
40
0.124999999999992
40
0.187499999999987
40
0.187499999999987
40
0.249999999999982
40
0.249999999999982
40
0.374999999999973
40
0.374999999999973
40
0.406249999999974
40
0.406249999999974
40
0.437499999999974
40
0.437499999999974
40
0.499999999999975
40
0.499999999999975
40
0.624999999999981
40
0.624999999999981
40
0.687499999999984
40
0.687499999999984
40
0.749999999999987
40
0.81249999999999
40
0.81249999999999
40
0.874999999999994
40
0.874999999999994
40
1
40
1
40
1
40
1
41
1
10
-11.0599999999998
20
1.137E-13
30
0
41
1
10
-11.06
20
0.0333398988911995
30
0
41
1
10
-11.0633011851798
20
0.06610753092599
30
0
41
1
10
-11.0729949748863
20
0.114438127765027
30
0
41
1
10
-11.0770225791441
20
0.130410500718369
30
0
41
1
10
-11.0867070812834
20
0.16207375125839
30
0
41
1
10
-11.092383813895
20
0.177784536635272
30
0
41
1
10
-11.1114909599714
20
0.223447078539891
30
0
41
1
10
-11.1270715098582
20
0.252302025114375
30
0
41
1
10
-11.1500781883135
20
0.286411976258933
30
0
41
1
10
-11.1548577187657
20
0.29313512729675
30
0
41
1
10
-11.1647793629138
20
0.306380676479762
30
0
41
1
10
-11.1699340830308
20
0.312917029792288
30
0
41
1
10
-11.1857879477034
20
0.332023023864053
30
0
41
1
10
-11.1969110907916
20
0.344144228780294
30
0
41
1
10
-11.2318987857884
20
0.378714692088806
30
0
41
1
10
-11.2573653917787
20
0.399388674404633
30
0
41
1
10
-11.2988993665691
20
0.426733188369496
30
0
41
1
10
-11.3132107173303
20
0.435161735266377
30
0
41
1
10
-11.3423516374542
20
0.450444087719859
30
0
41
1
10
-11.3721282296078
20
0.464230431966143
30
0
41
1
10
-11.4031675518657
20
0.475053941039164
30
0
41
1
10
-11.4348524666439
20
0.484366347488674
30
0
41
1
10
-11.4510964183507
20
0.48827794223655
30
0
41
1
10
-11.5000153408609
20
0.497496931197702
30
0
41
1
10
-11.5329872831218
20
0.500381684465935
30
0
41
1
10
-11.5663240377405
20
0.49996000494707
30
0
0
SPLINE
5
11A
100
AcDbEntity
8
SK1
62
256
6
ByLayer
370
18
48
1
60
0
100
AcDbSpline
70
4
71
3
72
8
73
4
40
0
40
0
40
0
40
0
40
1
40
1
40
1
40
1
41
1
10
-15.6999999999999
20
-1.10000000000002
30
0
41
1
10
-15.5810046005049
20
-1.10000000000002
30
0
41
1
10
-15.4620044795724
20
-1.10000000000002
30
0
41
1
10
-15.3429999999999
20
-1.10000000000002
30
0
0
SPLINE
5
11B
100
AcDbEntity
8
SK1
62
256
6
ByLayer
370
18
48
1
60
0
100
AcDbSpline
70
4
71
3
72
8
73
4
40
0
40
0
40
0
40
0
40
1
40
1
40
1
40
1
41
1
10
-15.3429999999999
20
1.10000000000002
30
0
41
1
10
-15.4620044825369
20
1.10000000000002
30
0
41
1
10
-15.5810046315166
20
1.10000000000002
30
0
41
1
10
-15.6999999999999
20
1.10000000000002
30
0
0
SPLINE
5
11C
100
AcDbEntity
8
SK1
62
256
6
ByLayer
370
18
48
1
60
0
100
AcDbSpline
70
4
71
3
72
15
73
11
40
0
40
0
40
0
40
0
40
0.250000000000008
40
0.500000000000017
40
0.500000000000017
40
0.625000000000021
40
0.625000000000021
40
0.750000000000025
40
0.750000000000025
40
1
40
1
40
1
40
1
41
1
10
-15.6999999999999
20
1.10000000000002
30
0
41
1
10
-15.722607295597
20
1.10000000000002
30
0
41
1
10
-15.7693398815924
20
1.10000000000002
30
0
41
1
10
-15.8190375823016
20
1.10000000000002
30
0
41
1
10
-15.8574791628478
20
1.10000000000002
30
0
41
1
10
-15.8704021086049
20
1.10000000000002
30
0
41
1
10
-15.8962113548658
20
1.10000000000002
30
0
41
1
10
-15.9091364816045
20
1.10000000000002
30
0
41
1
10
-15.9479727787758
20
1.10000000000002
30
0
41
1
10
-15.9739444742011
20
1.10000000000002
30
0
41
1
10
-15.9999999999999
20
1.10000000000002
30
0
0
SPLINE
5
11D
100
AcDbEntity
8
SK1
62
256
6
ByLayer
370
18
48
1
60
0
100
AcDbSpline
70
4
71
3
72
18
73
14
40
0
40
0
40
0
40
0
40
0.249999999999982
40
0.249999999999982
40
0.374999999999981
40
0.374999999999981
40
0.499999999999979
40
0.499999999999979
40
0.74999999999999
40
0.74999999999999
40
0.874999999999995
40
0.874999999999995
40
1
40
1
40
1
40
1
41
1
10
-15.9999999999999
20
1.10000000000002
30
0
41
1
10
-16.0403777757341
20
1.12331211968944
30
0
41
1
10
-16.0786752928952
20
1.14542320153174
30
0
41
1
10
-16.1333550441699
20
1.17699257064936
30
0
41
1
10
-16.1511148810688
20
1.18724621726369
30
0
41
1
10
-16.1857014248699
20
1.20721476763754
30
0
41
1
10
-16.2026103497857
20
1.21697713998941
30
0
41
1
10
-16.2509213249912
20
1.24486949452915
30
0
41
1
10
-16.2801672758639
20
1.26175465213817
30
0
41
1
10
-16.3196717126781
20
1.28456254936702
30
0
41
1
10
-16.3321417747404
20
1.29176214305562
30
0
41
1
10
-16.3553634764803
20
1.30516919880614
30
0
41
1
10
-16.3660810187174
20
1.31135697470171
30
0
41
1
10
-16.3758834272552
20
1.31701639790975
30
0
0
SPLINE
5
11E
100
AcDbEntity
8
SK1
62
256
6
ByLayer
370
18
48
1
60
0
100
AcDbSpline
70
4
71
3
72
15
73
11
40
0
40
0
40
0
40
0
40
0.249999999999992
40
0.499999999999985
40
0.499999999999985
40
0.624999999999997
40
0.624999999999997
40
0.750000000000009
40
0.750000000000009
40
1
40
1
40
1
40
1
41
1
10
-15.9999999999999
20
-1.10000000000002
30
0
41
1
10
-15.9739443427537
20
-1.10000000000002
30
0
41
1
10
-15.9220466033725
20
-1.10000000000002
30
0
41
1
10
-15.870558657411
20
-1.10000000000002
30
0
41
1
10
-15.8321015017759
20
-1.10000000000002
30
0
41
1
10
-15.8194102104204
20
-1.10000000000002
30
0
41
1
10
-15.7944859149746
20
-1.10000000000002
30
0
41
1
10
-15.7822190960172
20
-1.10000000000002
30
0
41
1
10
-15.7459941541438
20
-1.10000000000002
30
0
41
1
10
-15.7226081173983
20
-1.10000000000002
30
0
41
1
10
-15.6999999999999
20
-1.10000000000002
30
0
0
SPLINE
5
11F
100
AcDbEntity
8
SK1
62
256
6
ByLayer
370
18
48
1
60
0
100
AcDbSpline
70
4
71
3
72
18
73
14
40
0
40
0
40
0
40
0
40
0.249999999999983
40
0.249999999999983
40
0.374999999999979
40
0.374999999999979
40
0.499999999999975
40
0.499999999999975
40
0.74999999999998
40
0.74999999999998
40
0.87499999999999
40
0.87499999999999
40
1
40
1
40
1
40
1
41
1
10
-16.375883427255
20
-1.31701639790964
30
0
41
1
10
-16.3562687756118
20
-1.30569187350346
30
0
41
1
10
-16.333262980277
20
-1.29240947137396
30
0
41
1
10
-16.2940479940687
20
-1.26976868853029
30
0
41
1
10
-16.2801833470932
20
-1.26176393086678
30
0
41
1
10
-16.2508360593353
20
-1.2448202663798
30
0
41
1
10
-16.2352643803384
20
-1.23582995331918
30
0
41
1
10
-16.1870128949532
20
-1.20797194524329
30
0
41
1
10
-16.1526573378335
20
-1.18813675509205
30
0
41
1
10
-16.0977668271983
20
-1.15644570400082
30
0
41
1
10
-16.0788868624311
20
-1.14554535126018
30
0
41
1
10
-16.0399930401354
20
-1.12308999248802
30
0
41
1
10
-16.0201844306104
20
-1.11165348644641
30
0
41
1
10
-15.9999999999999
20
-1.10000000000002
30
0
0
SPLINE
5
120
100
AcDbEntity
8
1
62
256
6
ByLayer
370
18
48
1
60
0
100
AcDbSpline
70
4
71
3
72
20
73
16
40
0
40
0
40
0
40
0
40
0.0624999999999999
40
0.0624999999999999
40
0.125
40
0.125
40
0.25
40
0.25
40
0.375
40
0.375
40
0.5
40
0.5
40
0.75
40
0.75
40
1
40
1
40
1
40
1
41
1
10
25.6017580539652
20
-7.75
30
0
41
1
10
25.5676836671986
20
-7.75
30
0
41
1
10
25.5335599428652
20
-7.7504920999944
30
0
41
1
10
25.4655029230175
20
-7.7523154078512
30
0
41
1
10
25.4315368437599
20
-7.75364693106866
30
0
41
1
10
25.3298040060116
20
-7.75875387697442
30
0
41
1
10
25.2622013490651
20
-7.76363294315854
30
0
41
1
10
25.1273673782295
20
-7.77588849474051
30
0
41
1
10
25.0601368290182
20
-7.78327012287974
30
0
41
1
10
24.9260171484411
20
-7.80032954027052
30
0
41
1
10
24.8593837925661
20
-7.80997732983951
30
0
41
1
10
24.660911519064
20
-7.84205615697005
30
0
41
1
10
24.5303844063573
20
-7.86759784525526
30
0
41
1
10
24.272955512386
20
-7.92710873166413
30
0
41
1
10
24.1460467155845
20
-7.96106162134549
30
0
41
1
10
24.0212825677097
20
-8
30
0
0
SPLINE
5
121
100
AcDbEntity
8
1
62
256
6
ByLayer
370
18
48
1
60
0
100
AcDbSpline
70
4
71
3
72
36
73
32
40
0
40
0
40
0
40
0
40
0.125000000000021
40
0.125000000000021
40
0.156250000000025
40
0.156250000000025
40
0.18750000000003
40
0.18750000000003
40
0.250000000000036
40
0.312500000000042
40
0.312500000000042
40
0.343750000000041
40
0.343750000000041
40
0.37500000000004
40
0.37500000000004
40
0.500000000000036
40
0.500000000000036
40
0.562500000000035
40
0.562500000000035
40
0.625000000000033
40
0.625000000000033
40
0.750000000000029
40
0.750000000000029
40
0.812500000000022
40
0.812500000000022
40
0.875000000000015
40
0.937500000000007
40
0.937500000000007
40
0.968750000000004
40
0.968750000000004
40
1
40
1
40
1
40
1
41
1
10
23.5000000000001
20
-4.75
30
0
41
1
10
23.5000000000001
20
-4.78581501715303
30
0
41
1
10
23.5038031682504
20
-4.82085150596981
30
0
41
1
10
23.5130276603579
20
-4.86373166844373
30
0
41
1
10
23.5150985745905
20
-4.87226141660216
30
0
41
1
10
23.5196950270025
20
-4.88922779631827
30
0
41
1
10
23.5222300041676
20
-4.8976918811864
30
0
41
1
10
23.5304482879693
20
-4.92271199284926
30
0
41
1
10
23.5430052761516
20
-4.95503546204577
30
0
41
1
10
23.5585602975044
20
-4.98541436749559
30
0
41
1
10
23.5713156309137
20
-5.0074916416927
30
0
41
1
10
23.5757493024565
20
-5.01473266695746
30
0
41
1
10
23.5849789226005
20
-5.02897946991624
30
0
41
1
10
23.5897799558402
20
-5.03599002802798
30
0
41
1
10
23.6144144088089
20
-5.07008786927702
30
0
41
1
10
23.6363070711625
20
-5.09465328956907
30
0
41
1
10
23.6721036512814
20
-5.1278208485794
30
0
41
1
10
23.6845933583024
20
-5.13830090667847
30
0
41
1
10
23.7102139342159
20
-5.15777810121631
30
0
41
1
10
23.7233341316581
20
-5.16677915130924
30
0
41
1
10
23.7635694849247
20
-5.19169680350569
30
0
41
1
10
23.7915521936616
20
-5.20554496805136
30
0
41
1
10
23.8351988593968
20
-5.22231717153505
30
0
41
1
10
23.8498977743824
20
-5.22718409650309
30
0
41
1
10
23.8794341104228
20
-5.23548862639745
30
0
41
1
10
23.9091572375411
20
-5.24238208479187
30
0
41
1
10
23.9392431966685
20
-5.24652749541934
30
0
41
1
10
23.9619433084639
20
-5.24860748484554
30
0
41
1
10
23.9695326542809
20
-5.24912904877124
30
0
41
1
10
23.984756997452
20
-5.24982568697072
30
0
41
1
10
23.9924388019776
20
-5.25
30
0
41
1
10
24.0000000000001
20
-5.25
30
0
0
SPLINE
5
122
100
AcDbEntity
8
SK1
62
256
6
ByLayer
370
18
48
1
60
0
100
AcDbSpline
70
4
71
3
72
25
73
21
40
0
40
0
40
0
40
0
40
0.125000000000002
40
0.125000000000002
40
0.250000000000005
40
0.250000000000005
40
0.375000000000007
40
0.375000000000007
40
0.437500000000005
40
0.437500000000005
40
0.500000000000003
40
0.500000000000003
40
0.624999999999998
40
0.624999999999998
40
0.687499999999999
40
0.687499999999999
40
0.749999999999999
40
0.749999999999999
40
0.874999999999999
40
1
40
1
40
1
40
1
41
1
10
-11.5663240377405
20
0.49996000494707
30
0
41
1
10
-11.5949121412513
20
0.499598391530469
30
0
41
1
10
-11.6230479453972
20
0.4968084025125
30
0
41
1
10
-11.6784550686339
20
0.486581985836665
30
0
41
1
10
-11.7057652223328
20
0.479131170255414
30
0
41
1
10
-11.7593271079322
20
0.459437571815158
30
0
41
1
10
-11.7848821348275
20
0.447458695729324
30
0
41
1
10
-11.8214588619559
20
0.426423590156333
30
0
41
1
10
-11.833356795615
20
0.418897816090634
30
0
41
1
10
-11.8565584221172
20
0.402805685543001
30
0
41
1
10
-11.8678900767776
20
0.394216057608219
30
0
41
1
10
-11.9007819024882
20
0.366985139690712
30
0
41
1
10
-11.920870145465
20
0.347221635758387
30
0
41
1
10
-11.9483528390515
20
0.315245307589578
30
0
41
1
10
-11.9570695976611
20
0.304195814835509
30
0
41
1
10
-11.9736034598318
20
0.28130328324653
30
0
41
1
10
-11.9814432382182
20
0.269422059607962
30
0
41
1
10
-12.0034127020598
20
0.232799855294957
30
0
41
1
10
-12.0281648795546
20
0.182154264954363
30
0
41
1
10
-12.0441823656438
20
0.128000523437151
30
0
41
1
10
-12.0498979485565
20
0.100000000000023
30
0
0
SPLINE
5
123
100
AcDbEntity
8
SK1
62
256
6
ByLayer
370
18
48
1
60
0
100
AcDbSpline
70
4
71
3
72
36
73
32
40
0
40
0
40
0
40
0
40
0.125000000000002
40
0.125000000000002
40
0.187500000000004
40
0.187500000000004
40
0.218750000000005
40
0.218750000000005
40
0.250000000000006
40
0.250000000000006
40
0.375000000000006
40
0.375000000000006
40
0.437500000000006
40
0.437500000000006
40
0.468750000000006
40
0.468750000000006
40
0.500000000000007
40
0.500000000000007
40
0.625000000000004
40
0.625000000000004
40
0.656250000000003
40
0.656250000000003
40
0.687500000000002
40
0.687500000000002
40
0.749999999999999
40
0.749999999999999
40
0.874999999999998
40
0.874999999999998
40
0.937499999999999
40
0.937499999999999
40
1
40
1
40
1
40
1
41
1
10
-12.5050125628933
20
0.100000000000023
30
0
41
1
10
-12.5112320686646
20
0.161883301075534
30
0
41
1
10
-12.5230642869974
20
0.22210979817072
30
0
41
1
10
-12.5488074503285
20
0.310107676292262
30
0
41
1
10
-12.5587301679191
20
0.339047439651551
30
0
41
1
10
-12.5756539264442
20
0.381863656403766
30
0
41
1
10
-12.5816356736801
20
0.396036674660934
30
0
41
1
10
-12.5942916120555
20
0.42418203585305
30
0
41
1
10
-12.6009515192723
20
0.438118216967723
30
0
41
1
10
-12.6356372147014
20
0.506605230127036
30
0
41
1
10
-12.6680046553577
20
0.558105483734209
30
0
41
1
10
-12.7233236208754
20
0.630633251763868
30
0
41
1
10
-12.7428988987122
20
0.654016806187144
30
0
41
1
10
-12.774015856794
20
0.687882285642104
30
0
41
1
10
-12.7846909301845
20
0.698975801181405
30
0
41
1
10
-12.8064162719104
20
0.720538581983476
30
0
41
1
10
-12.8174915955238
20
0.731036298482422
30
0
41
1
10
-12.8739186041231
20
0.782132185635078
30
0
41
1
10
-12.922393327176
20
0.818589689078578
30
0
41
1
10
-12.9872339279642
20
0.858663708672623
30
0
41
1
10
-13.0004161752621
20
0.866401281136632
30
0
41
1
10
-13.0272182667338
20
0.881313003753348
30
0
41
1
10
-13.0408716753643
20
0.88850353308743
30
0
41
1
10
-13.0822537968156
20
0.909086077822792
30
0
41
1
10
-13.1102907414736
20
0.921444178626587
30
0
41
1
10
-13.1957236960607
20
0.954540021625462
30
0
41
1
10
-13.2544310504711
20
0.971333729446997
30
0
41
1
10
-13.3452205455803
20
0.988428880204879
30
0
41
1
10
-13.376062972849
20
0.99277550570207
30
0
41
1
10
-13.4378772742126
20
0.998551129568114
30
0
41
1
10
-13.4688869542482
20
1
30
0
41
1
10
-13.4999999999999
20
1
30
0
0
SPLINE
5
124
100
AcDbEntity
8
SK1
62
256
6
ByLayer
370
18
48
1
60
0
100
AcDbSpline
70
4
71
3
72
8
73
4
40
0
40
0
40
0
40
0
40
1
40
1
40
1
40
1
41
1
10
-14.576794919243
20
1
30
0
41
0.999918993434324
10
-14.6348222950131
20
1.03350212102123
30
0
41
0.999918993434324
10
-14.6925619992272
20
1.06683815479226
30
0
41
1
10
-14.7499999999999
20
1.10000000000002
30
0
0
SPLINE
5
125
100
AcDbEntity
8
SK1
62
256
6
ByLayer
370
18
48
1
60
0
100
AcDbSpline
70
4
71
3
72
21
73
17
40
0
40
0
40
0
40
0
40
0.125
40
0.125
40
0.25
40
0.25
40
0.375
40
0.375
40
0.5
40
0.5
40
0.625
40
0.625
40
0.75
40
0.75
40
0.875
40
1
40
1
40
1
40
1
41
1
10
-12.0498979485565
20
-0.100000000000023
30
0
41
1
10
-12.0441824513288
20
-0.128000103668455
30
0
41
1
10
-12.0361703763643
20
-0.15509320527002
30
0
41
1
10
-12.0157572786005
20
-0.207551036254984
30
0
41
1
10
-12.003343230929
20
-0.232937227477464
30
0
41
1
10
-11.973988633236
20
-0.281826868674443
30
0
41
1
10
-11.9574496234912
20
-0.304670194508958
30
0
41
1
10
-11.9207969502698
20
-0.347297698396403
30
0
41
1
10
-11.9006446513517
20
-0.367113773310621
30
0
41
1
10
-11.8567496608688
20
-0.403424019888803
30
0
41
1
10
-11.8335650777473
20
-0.419467408587707
30
0
41
1
10
-11.7848062948922
20
-0.447496244014474
30
0
41
1
10
-11.7591769118571
20
-0.459502084981068
30
0
41
1
10
-11.7056277486782
20
-0.479172377265002
30
0
41
1
10
-11.6511573528259
20
-0.494018872730464
30
0
41
1
10
-11.5949121669817
20
-0.499598391205041
30
0
41
1
10
-11.5663240377405
20
-0.49996000494707
30
0
0
SPLINE
5
126
100
AcDbEntity
8
SK1
62
256
6
ByLayer
370
18
48
1
60
0
100
AcDbSpline
70
4
71
3
72
34
73
30
40
0
40
0
40
0
40
0
40
0.125000000000003
40
0.125000000000003
40
0.187500000000005
40
0.187500000000005
40
0.250000000000006
40
0.250000000000006
40
0.375000000000012
40
0.375000000000012
40
0.437500000000014
40
0.437500000000014
40
0.468750000000015
40
0.468750000000015
40
0.500000000000016
40
0.500000000000016
40
0.625000000000011
40
0.625000000000011
40
0.65625000000001
40
0.65625000000001
40
0.687500000000009
40
0.687500000000009
40
0.750000000000006
40
0.750000000000006
40
0.875000000000003
40
0.875000000000003
40
0.937500000000002
40
0.937500000000002
40
1
40
1
40
1
40
1
41
1
10
-13.4999999999999
20
-1
30
0
41
1
10
-13.4377829367157
20
-1
30
0
41
1
10
-13.3766097831687
20
-0.994245031444848
30
0
41
1
10
-13.2863350454878
20
-0.977386499422778
30
0
41
1
10
-13.2564925070442
20
-0.9703866829351
30
0
41
1
10
-13.1973100038779
20
-0.953585329056068
30
0
41
1
10
-13.1678342035729
20
-0.943722064425174
30
0
41
1
10
-13.0818044436551
20
-0.910436313779371
30
0
41
1
10
-13.0272646459367
20
-0.883306566860426
30
0
41
1
10
-12.9494889782057
20
-0.835383095587417
30
0
41
1
10
-12.9242405449817
20
-0.818195649161225
30
0
41
1
10
-12.8874002523091
20
-0.790542419302483
30
0
41
1
10
-12.8753157078592
20
-0.781027167959223
30
0
41
1
10
-12.8517236265288
20
-0.76155869474195
30
0
41
1
10
-12.8401878227494
20
-0.751584593573796
30
0
41
1
10
-12.7837860813005
20
-0.700529650614612
30
0
41
1
10
-12.7427175705361
20
-0.655927268694711
30
0
41
1
10
-12.6964191316667
20
-0.595390726150526
30
0
41
1
10
-12.6874134540643
20
-0.58304224267539
30
0
41
1
10
-12.6699182365604
20
-0.55785250504465
30
0
41
1
10
-12.6614111511751
20
-0.544981138325625
30
0
41
1
10
-12.6369094598776
20
-0.505981732444184
30
0
41
1
10
-12.6218706765067
20
-0.47939219346074
30
0
41
1
10
-12.5805427710969
20
-0.397882319205962
30
0
41
1
10
-12.5580086834341
20
-0.341235506911175
30
0
41
1
10
-12.5319533150966
20
-0.252651823194412
30
0
41
1
10
-12.5245572079031
20
-0.222421663568355
30
0
41
1
10
-12.512658321222
20
-0.16160583660951
30
0
41
1
10
-12.508121723188
20
-0.130935754331858
30
0
41
1
10
-12.5050125628933
20
-0.100000000000023
30
0
0
SPLINE
5
127
100
AcDbEntity
8
SK1
62
256
6
ByLayer
370
18
48
1
60
0
100
AcDbSpline
70
4
71
3
72
8
73
4
40
0
40
0
40
0
40
0
40
1
40
1
40
1
40
1
41
1
10
-14.7499999999999
20
-1.10000000000002
30
0
41
0.999918993434324
10
-14.6925619992272
20
-1.0668381547922
30
0
41
0.999918993434324
10
-14.6348222950131
20
-1.03350212102118
30
0
41
1
10
-14.576794919243
20
-1
30
0
0
SPLINE
5
128
100
AcDbEntity
8
SK1
62
256
6
ByLayer
370
18
48
1
60
0
100
AcDbSpline
70
4
71
3
72
46
73
42
40
0
40
0
40
0
40
0
40
0.124748191302681
40
0.124748191302681
40
0.187122286954022
40
0.187122286954022
40
0.218309334779693
40
0.218309334779693
40
0.249496382605363
40
0.249496382605363
40
0.311870478256704
40
0.374244573908045
40
0.436618669559386
40
0.436618669559386
40
0.452212193472221
40
0.452212193472221
40
0.467805717385056
40
0.467805717385056
40
0.498992765210727
40
0.498992765210727
40
0.561366860862068
40
0.561366860862068
40
0.62374095651341
40
0.62374095651341
40
0.654928004339081
40
0.670521528251916
40
0.670521528251916
40
0.686115052164752
40
0.686115052164752
40
0.748489147816094
40
0.748489147816094
40
0.810863243467436
40
0.810863243467436
40
0.873237339118779
40
0.873237339118779
40
0.90442438694445
40
0.90442438694445
40
0.935611434770121
40
0.935611434770121
40
0.997985530421463
40
1
40
1
40
1
40
1
41
1
10
-4.84999999999991
20
-3.62502605133648
30
0
41
1
10
-5.00727257310211
20
-3.60304572479748
30
0
41
1
10
-5.16209510770614
20
-3.58996498434146
30
0
41
1
10
-5.39071230431387
20
-3.58288011859725
30
0
41
1
10
-5.46631080410862
20
-3.58260336185674
30
0
41
1
10
-5.57876400925841
20
-3.58516810106431
30
0
41
1
10
-5.616090696318
20
-3.586519315656
30
0
41
1
10
-5.69041927701426
20
-3.59018549547659
30
0
41
1
10
-5.72746841536798
20
-3.59250408849221
30
0
41
1
10
-5.83780700390071
20
-3.60083447157712
30
0
41
1
10
-5.98097388252586
20
-3.61545562349579
30
0
41
1
10
-6.18433203901543
20
-3.64605440260903
30
0
41
1
10
-6.31240132919515
20
-3.67104944327082
30
0
41
1
10
-6.39005943290169
20
-3.68774820783045
30
0
41
1
10
-6.40547150636121
20
-3.69114182033979
30
0
41
1
10
-6.43605434734616
20
-3.69802779805099
30
0
41
1
10
-6.45122921565587
20
-3.7015213467173
30
0
41
1
10
-6.49616103232927
20
-3.712082021154
30
0
41
1
10
-6.52540327441238
20
-3.71924619578635
30
0
41
1
10
-6.61102882285263
20
-3.74098567982355
30
0
41
1
10
-6.66531665804246
20
-3.75580660163308
30
0
41
1
10
-6.76835025417245
20
-3.7854869933517
30
0
41
1
10
-6.81709640583676
20
-3.80034766508982
30
0
41
1
10
-6.88595558576799
20
-3.82222819305463
30
0
41
1
10
-6.9193179206386
20
-3.83306601354991
30
0
41
1
10
-6.95103773085339
20
-3.84366718378129
30
0
41
1
10
-6.9718129250266
20
-3.85067264575713
30
0
41
1
10
-6.98203029398508
20
-3.85414969657285
30
0
41
1
10
-7.03193731139834
20
-3.87127548164557
30
0
41
1
10
-7.06811842193292
20
-3.88414922533985
30
0
41
1
10
-7.13308642738775
20
-3.90779236048024
30
0
41
1
10
-7.16187336490032
20
-3.91856283307379
30
0
41
1
10
-7.21190847739706
20
-3.93757683725931
30
0
41
1
10
-7.23315800061209
20
-3.9458213842546
30
0
41
1
10
-7.25907688905079
20
-3.95597203246899
30
0
41
1
10
-7.26672916785867
20
-3.95898899576355
30
0
41
1
10
-7.27993394806344
20
-3.96421502647928
30
0
41
1
10
-7.28542955192211
20
-3.96640143341648
30
0
41
1
10
-7.29866084443393
20
-3.97167721113493
30
0
41
1
10
-7.3032941499124
20
-3.97354103008877
30
0
41
1
10
-7.30338409410956
20
-3.97357695109713
30
0
41
1
10
-7.3033824588731
20
-3.97357628584592
30
0
0
SPLINE
5
129
100
AcDbEntity
8
SK1
62
256
6
ByLayer
370
18
48
1
60
0
100
AcDbSpline
70
4
71
3
72
55
73
51
40
0
40
0
40
0
40
0
40
0.0140414267926677
40
0.0140414267926677
40
0.0296915628753242
40
0.0296915628753242
40
0.0609918350406372
40
0.0609918350406372
40
0.123592379371263
40
0.123592379371263
40
0.154892651536576
40
0.170542787619232
40
0.170542787619232
40
0.186192923701889
40
0.186192923701889
40
0.248793468032515
40
0.248793468032515
40
0.31139401236314
40
0.31139401236314
40
0.327044148445796
40
0.327044148445796
40
0.342694284528453
40
0.342694284528453
40
0.373994556693765
40
0.373994556693765
40
0.436595101024389
40
0.436595101024389
40
0.499195645355013
40
0.499195645355013
40
0.530495917520325
40
0.530495917520325
40
0.561796189685637
40
0.561796189685637
40
0.62439673401626
40
0.62439673401626
40
0.686997278346884
40
0.686997278346884
40
0.718297550512196
40
0.718297550512196
40
0.733947686594852
40
0.733947686594852
40
0.749597822677508
40
0.812198367008131
40
0.874798911338754
40
0.874798911338754
40
0.937399455669377
40
0.937399455669377
40
0.968699727834689
40
0.968699727834689
40
1
40
1
40
1
40
1
41
1
10
-2.17631932248492
20
-4.69413824091492
30
0
41
1
10
-2.17632365548695
20
-4.69413561797342
30
0
41
1
10
-2.17658701631535
20
-4.6939763283757
30
0
41
1
10
-2.17769965379887
20
-4.69330350363839
30
0
41
1
10
-2.17861548086319
20
-4.69274973339947
30
0
41
1
10
-2.18232338851396
20
-4.69050866143698
30
0
41
1
10
-2.18607558839699
20
-4.68824159352681
30
0
41
1
10
-2.20105362351751
20
-4.67920777286588
30
0
41
1
10
-2.21598936503994
20
-4.6702123862753
30
0
41
1
10
-2.24557017807229
20
-4.65252156513026
30
0
41
1
10
-2.26215935361438
20
-4.64262512415399
30
0
41
1
10
-2.28143887429553
20
-4.63118839488004
30
0
41
1
10
-2.29489148004905
20
-4.62322488569447
30
0
41
1
10
-2.30192243301076
20
-4.61907075945192
30
0
41
1
10
-2.33832854970603
20
-4.59760950203435
30
0
41
1
10
-2.37161195923431
20
-4.5781365274043
30
0
41
1
10
-2.44590033830139
20
-4.5352316358339
30
0
41
1
10
-2.48690800169459
20
-4.51179737965413
30
0
41
1
10
-2.54283961676242
20
-4.48035259065443
30
0
41
1
10
-2.55426028797479
20
-4.47395581008624
30
0
41
1
10
-2.57756931615108
20
-4.46095394418353
30
0
41
1
10
-2.58946422681015
20
-4.45434531026103
30
0
41
1
10
-2.62566304041627
20
-4.4343209423771
30
0
41
1
10
-2.65053716723639
20
-4.42067519243489
30
0
41
1
10
-2.72730927144221
20
-4.3789648385619
30
0
41
1
10
-2.78134965446645
20
-4.35012892272596
30
0
41
1
10
-2.89494587901208
20
-4.2909494786893
30
0
41
1
10
-2.95450251738271
20
-4.26060429353339
30
0
41
1
10
-3.04799396640271
20
-4.21433694638847
30
0
41
1
10
-3.07989529696874
20
-4.19876971931245
30
0
41
1
10
-3.14454478733796
20
-4.16771691044823
30
0
41
1
10
-3.17735301812536
20
-4.15220097969126
30
0
41
1
10
-3.27721941527898
20
-4.10577955171993
30
0
41
1
10
-3.34571480969873
20
-4.07499979919157
30
0
41
1
10
-3.4866065626569
20
-4.01428476889254
30
0
41
1
10
-3.55900271756218
20
-3.98434835198429
30
0
41
1
10
-3.67068150997454
20
-3.94048172760387
30
0
41
1
10
-3.7084230250274
20
-3.92603288194289
30
0
41
1
10
-3.76583929872516
20
-3.90467485489768
30
0
41
1
10
-3.78513674709348
20
-3.89759930355564
30
0
41
1
10
-3.82385289330978
20
-3.88361795271078
30
0
41
1
10
-3.9209580822577
20
-3.84908341575891
30
0
41
1
10
-4.09859485016659
20
-3.79084332595517
30
0
41
1
10
-4.26074648314909
20
-3.74557933130143
30
0
41
1
10
-4.42517802183795
20
-3.7040632954463
30
0
41
1
10
-4.50853349745034
20
-3.68517907040575
30
0
41
1
10
-4.63543394614089
20
-3.66006346361684
30
0
41
1
10
-4.67805686987458
20
-3.65222515279982
30
0
41
1
10
-4.76391323413725
20
-3.63769769314251
30
0
41
1
10
-4.80691747189258
20
-3.63104724128237
30
0
41
1
10
-4.84999999999991
20
-3.62502605133648
30
0
0
SPLINE
5
12A
100
AcDbEntity
8
SK1
62
256
6
ByLayer
370
18
48
1
60
0
100
AcDbSpline
70
4
71
3
72
46
73
42
40
0
40
0
40
0
40
0
40
0.124841013114639
40
0.124841013114639
40
0.187261519671959
40
0.187261519671959
40
0.218471772950619
40
0.218471772950619
40
0.249682026229279
40
0.249682026229279
40
0.312102532786599
40
0.374523039343919
40
0.436943545901238
40
0.436943545901238
40
0.452548672540568
40
0.452548672540568
40
0.468153799179898
40
0.468153799179898
40
0.499364052458558
40
0.499364052458558
40
0.561784559015879
40
0.561784559015879
40
0.624205065573199
40
0.624205065573199
40
0.65541531885186
40
0.67102044549119
40
0.67102044549119
40
0.68662557213052
40
0.68662557213052
40
0.749046078687841
40
0.749046078687841
40
0.811466585245161
40
0.811466585245161
40
0.873887091802482
40
0.873887091802482
40
0.905097345081142
40
0.905097345081142
40
0.936307598359803
40
0.936307598359803
40
0.998728104917123
40
1
40
1
40
1
40
1
41
1
10
-4.84999999999991
20
3.62502605133648
30
0
41
1
10
-5.00727257310211
20
3.60304572479743
30
0
41
1
10
-5.16209510770614
20
3.58996498434146
30
0
41
1
10
-5.39071230431387
20
3.58288011859725
30
0
41
1
10
-5.46631080410862
20
3.58260336185674
30
0
41
1
10
-5.57876400925841
20
3.58516810106431
30
0
41
1
10
-5.616090696318
20
3.586519315656
30
0
41
1
10
-5.69041927701426
20
3.59018549547659
30
0
41
1
10
-5.72746841536798
20
3.59250408849221
30
0
41
1
10
-5.83780700390071
20
3.60083447157712
30
0
41
1
10
-5.980973700047
20
3.61545617531789
30
0
41
1
10
-6.18433203901543
20
3.64605440260903
30
0
41
1
10
-6.31240132919515
20
3.67104944327082
30
0
41
1
10
-6.39005943290169
20
3.68774820783045
30
0
41
1
10
-6.40547150636121
20
3.69114182033979
30
0
41
1
10
-6.43605434734616
20
3.69802779805099
30
0
41
1
10
-6.45122921565587
20
3.7015213467173
30
0
41
1
10
-6.49616103232927
20
3.71208202115395
30
0
41
1
10
-6.52540327441238
20
3.71924619578635
30
0
41
1
10
-6.61102882285263
20
3.74098567982355
30
0
41
1
10
-6.66531665804246
20
3.75580660163308
30
0
41
1
10
-6.76835025417245
20
3.7854869933517
30
0
41
1
10
-6.81709640583676
20
3.80034766508982
30
0
41
1
10
-6.88595558576799
20
3.82222819305463
30
0
41
1
10
-6.9193179206386
20
3.83306601354991
30
0
41
1
10
-6.95103773085339
20
3.84366718378129
30
0
41
1
10
-6.9718129250266
20
3.85067264575713
30
0
41
1
10
-6.98203029398508
20
3.85414969657285
30
0
41
1
10
-7.03193731139834
20
3.87127548164557
30
0
41
1
10
-7.06811842193292
20
3.88414922533985
30
0
41
1
10
-7.13308642738775
20
3.90779236048024
30
0
41
1
10
-7.16187336490032
20
3.91856283307379
30
0
41
1
10
-7.21190847739706
20
3.93757683725931
30
0
41
1
10
-7.23315800061209
20
3.9458213842546
30
0
41
1
10
-7.25907688905079
20
3.95597203246899
30
0
41
1
10
-7.26672916785867
20
3.95898899576355
30
0
41
1
10
-7.27993394806344
20
3.96421502647928
30
0
41
1
10
-7.28542955192211
20
3.96640143341648
30
0
41
1
10
-7.29866084443393
20
3.97167721113493
30
0
41
1
10
-7.30324064730553
20
3.97351950783559
30
0
41
1
10
-7.30338141104505
20
3.97357587777276
30
0
41
1
10
-7.3033824513011
20
3.97357629128794
30
0
0
SPLINE
5
12B
100
AcDbEntity
8
SK1
62
256
6
ByLayer
370
18
48
1
60
0
100
AcDbSpline
70
4
71
3
72
55
73
51
40
0
40
0
40
0
40
0
40
0.0140362658748461
40
0.0140362658748461
40
0.0296864838768327
40
0.0296864838768327
40
0.0609869198808063
40
0.0609869198808063
40
0.123587791888753
40
0.123587791888753
40
0.154888227892727
40
0.170538445894713
40
0.170538445894713
40
0.1861886638967
40
0.1861886638967
40
0.248789535904646
40
0.248789535904646
40
0.311390407912593
40
0.311390407912593
40
0.32704062591458
40
0.32704062591458
40
0.342690843916566
40
0.342690843916566
40
0.373991279920539
40
0.373991279920539
40
0.436592151928486
40
0.436592151928486
40
0.499193023936432
40
0.499193023936432
40
0.530493459940405
40
0.530493459940405
40
0.561793895944379
40
0.561793895944379
40
0.624394767952325
40
0.624394767952325
40
0.686995639960272
40
0.686995639960272
40
0.718296075964245
40
0.718296075964245
40
0.733946293966232
40
0.733946293966232
40
0.749596511968218
40
0.812197383976164
40
0.874798255984109
40
0.874798255984109
40
0.937399127992054
40
0.937399127992054
40
0.968699563996027
40
0.968699563996027
40
1
40
1
40
1
40
1
41
1
10
-2.17631932743882
20
4.69413823791626
30
0
41
1
10
-2.17632385187574
20
4.69413549919074
30
0
41
1
10
-2.1765872124646
20
4.69397620976201
30
0
41
1
10
-2.17769965379887
20
4.69330350363839
30
0
41
1
10
-2.17861548086319
20
4.69274973339947
30
0
41
1
10
-2.18232338851396
20
4.69050866143698
30
0
41
1
10
-2.18607558839699
20
4.68824159352681
30
0
41
1
10
-2.20105362351751
20
4.67920777286588
30
0
41
1
10
-2.21598936503994
20
4.6702123862753
30
0
41
1
10
-2.24557017807229
20
4.65252156513026
30
0
41
1
10
-2.26215935361438
20
4.64262512415399
30
0
41
1
10
-2.28143887429553
20
4.63118839488004
30
0
41
1
10
-2.29489148004905
20
4.62322488569447
30
0
41
1
10
-2.30192243301076
20
4.61907075945192
30
0
41
1
10
-2.33832854970603
20
4.59760950203435
30
0
41
1
10
-2.37161195923431
20
4.5781365274043
30
0
41
1
10
-2.44590033830139
20
4.5352316358339
30
0
41
1
10
-2.48690800169459
20
4.51179737965413
30
0
41
1
10
-2.54283961676242
20
4.48035259065443
30
0
41
1
10
-2.55426028797479
20
4.47395581008624
30
0
41
1
10
-2.57756931615108
20
4.46095394418353
30
0
41
1
10
-2.58946422681015
20
4.45434531026103
30
0
41
1
10
-2.62566304041627
20
4.4343209423771
30
0
41
1
10
-2.65053716723639
20
4.42067519243489
30
0
41
1
10
-2.72730927144221
20
4.3789648385619
30
0
41
1
10
-2.78134965446645
20
4.35012892272596
30
0
41
1
10
-2.89494587901208
20
4.2909494786893
30
0
41
1
10
-2.95450251738271
20
4.26060429353339
30
0
41
1
10
-3.04799396640271
20
4.21433694638847
30
0
41
1
10
-3.07989529696874
20
4.19876971931245
30
0
41
1
10
-3.14454478733796
20
4.16771691044823
30
0
41
1
10
-3.17735301812536
20
4.15220097969126
30
0
41
1
10
-3.27721941527898
20
4.10577955171993
30
0
41
1
10
-3.34571480969873
20
4.07499979919157
30
0
41
1
10
-3.4866065626569
20
4.01428476889254
30
0
41
1
10
-3.55900271756218
20
3.98434835198429
30
0
41
1
10
-3.67068150997454
20
3.94048172760387
30
0
41
1
10
-3.7084230250274
20
3.92603288194289
30
0
41
1
10
-3.76583929872516
20
3.90467485489768
30
0
41
1
10
-3.78513674709348
20
3.89759930355564
30
0
41
1
10
-3.82385289330978
20
3.88361795271072
30
0
41
1
10
-3.9209580822577
20
3.84908341575891
30
0
41
1
10
-4.09859481149999
20
3.7908430905419
30
0
41
1
10
-4.26074648314909
20
3.74557933130143
30
0
41
1
10
-4.42517802183795
20
3.7040632954463
30
0
41
1
10
-4.50853349745034
20
3.68517907040575
30
0
41
1
10
-4.63543394614089
20
3.66006346361684
30
0
41
1
10
-4.67805686987458
20
3.65222515279982
30
0
41
1
10
-4.76391323413725
20
3.63769769314246
30
0
41
1
10
-4.80691747189258
20
3.63104724128237
30
0
41
1
10
-4.84999999999991
20
3.62502605133648
30
0
0
SPLINE
5
12C
100
AcDbEntity
8
1
62
256
6
ByLayer
370
18
48
1
60
0
100
AcDbSpline
70
4
71
3
72
8
73
4
40
0
40
0
40
0
40
0
40
1
40
1
40
1
40
1
41
1
10
25.874150800667
20
-6.31210100910056
30
0
41
1
10
25.832324691502
20
-6.29126679146867
30
0
41
1
10
25.7904651690288
20
-6.27054374977598
30
0
41
1
10
25.7485517613706
20
-6.25
30
0
0
SPLINE
5
12D
100
AcDbEntity
8
1
62
256
6
ByLayer
370
18
48
1
60
0
100
AcDbSpline
70
4
71
3
72
12
73
8
40
0
40
0
40
0
40
0
40
0.499999999999999
40
0.499999999999999
40
0.75
40
0.75
40
1
40
1
40
1
40
1
41
1
10
25.7485517613707
20
-6.25
30
0
41
1
10
25.700336688786
20
-6.08248222475748
30
0
41
1
10
25.651661003183
20
-5.915185439293
30
0
41
1
10
25.5771815170845
20
-5.66494358829789
30
0
41
1
10
25.5521055315637
20
-5.58164933665398
30
0
41
1
10
25.5011649563035
20
-5.41543918452913
30
0
41
1
10
25.4753038862162
20
-5.3325048862738
30
0
41
1
10
25.4488023043431
20
-5.25
30
0
0
SPLINE
5
12E
100
AcDbEntity
8
1
62
256
6
ByLayer
370
18
48
1
60
0
100
AcDbSpline
70
4
71
3
72
12
73
8
40
0
40
0
40
0
40
0
40
0.25
40
0.25
40
0.5
40
0.5
40
1
40
1
40
1
40
1
41
1
10
25.4488023043431
20
-7.75
30
0
41
1
10
25.4753084097408
20
-7.6674810310617
30
0
41
1
10
25.5011513341244
20
-7.58460444778041
30
0
41
1
10
25.5520778445789
20
-7.41844181492439
30
0
41
1
10
25.5771530850208
20
-7.33515126504494
30
0
41
1
10
25.6516413481803
20
-7.08488194778357
30
0
41
1
10
25.7003291777033
20
-6.91754387164343
30
0
41
1
10
25.7485517613706
20
-6.75
30
0
0
SPLINE
5
12F
100
AcDbEntity
8
1
62
256
6
ByLayer
370
18
48
1
60
0
100
AcDbSpline
70
4
71
3
72
8
73
4
40
0
40
0
40
0
40
0
40
1
40
1
40
1
40
1
41
1
10
25.7485517613706
20
-6.75
30
0
41
1
10
25.790464785104
20
-6.72945643840382
30
0
41
1
10
25.8323243639251
20
-6.70873337170235
30
0
41
1
10
25.874150800667
20
-6.68789899089944
30
0
0
SPLINE
5
130
100
AcDbEntity
8
1
62
256
6
ByLayer
370
18
48
1
60
0
100
AcDbSpline
70
4
71
3
72
20
73
16
40
0
40
0
40
0
40
0
40
0.250000000000007
40
0.250000000000007
40
0.375000000000006
40
0.375000000000006
40
0.500000000000004
40
0.500000000000004
40
0.625000000000003
40
0.625000000000003
40
0.750000000000002
40
0.750000000000002
40
0.875000000000001
40
0.875000000000001
40
1
40
1
40
1
40
1
41
1
10
25.874150800667
20
-6.68789899089944
30
0
41
1
10
25.8851465710515
20
-6.68242183135027
30
0
41
1
10
25.8952971376773
20
-6.67509828986874
30
0
41
1
10
25.9092332154931
20
-6.66129541806953
30
0
41
1
10
25.9136461081861
20
-6.65621679295617
30
0
41
1
10
25.9217318357869
20
-6.64542304473338
30
0
41
1
10
25.9254451434767
20
-6.63967085092906
30
0
41
1
10
25.9322006598793
20
-6.62744290009493
30
0
41
1
10
25.9352639153939
20
-6.62090466311469
30
0
41
1
10
25.9405165985893
20
-6.60744807419917
30
0
41
1
10
25.9427214135782
20
-6.60052222183555
30
0
41
1
10
25.9462946604782
20
-6.5862785274075
30
0
41
1
10
25.9476667884062
20
-6.57893070262406
30
0
41
1
10
25.9495078691014
20
-6.56395206685443
30
0
41
1
10
25.9499695610315
20
-6.55641136510206
30
0
41
1
10
25.9499695610315
20
-6.54881896105314
30
0
0
SPLINE
5
131
100
AcDbEntity
8
1
62
256
6
ByLayer
370
18
48
1
60
0
100
AcDbSpline
70
4
71
3
72
20
73
16
40
0
40
0
40
0
40
0
40
0.249999999999986
40
0.249999999999986
40
0.374999999999988
40
0.374999999999988
40
0.499999999999991
40
0.499999999999991
40
0.624999999999993
40
0.624999999999993
40
0.749999999999995
40
0.749999999999995
40
0.874999999999998
40
0.874999999999998
40
1
40
1
40
1
40
1
41
1
10
25.9499695610251
20
-6.4511810389476
30
0
41
1
10
25.9499695610251
20
-6.43600762324155
30
0
41
1
10
25.948156751713
20
-6.42123057453091
30
0
41
1
10
25.9427745019648
20
-6.39964726871369
30
0
41
1
10
25.940540839036
20
-6.39262793722554
30
0
41
1
10
25.9353246883858
20
-6.37923734188297
30
0
41
1
10
25.9323302811883
20
-6.37281643646924
30
0
41
1
10
25.9255665186546
20
-6.36052503264818
30
0
41
1
10
25.9217849882599
20
-6.35465476362725
30
0
41
1
10
25.9136961247622
20
-6.34384320729703
30
0
41
1
10
25.9093621293537
20
-6.33884795859177
30
0
41
1
10
25.9001233847589
20
-6.32966664849511
30
0
41
1
10
25.8951859668961
20
-6.32546131736171
30
0
41
1
10
25.8849540906692
20
-6.31805781368001
30
0
41
1
10
25.87964741937
20
-6.31483895801773
30
0
41
1
10
25.874150800667
20
-6.31210100910056
30
0
0
SPLINE
5
132
100
AcDbEntity
8
1
62
256
6
ByLayer
370
18
48
1
60
0
100
AcDbSpline
70
4
71
3
72
8
73
4
40
0
40
0
40
0
40
0
40
1
40
1
40
1
40
1
41
1
10
1.137E-13
20
-8
30
0
41
1
10
0.0332878053225159
20
-8
30
0
41
1
10
0.066621571735368
20
-8
30
0
41
1
10
0.100000000000136
20
-8
30
0
0
SPLINE
5
133
100
AcDbEntity
8
1
62
256
6
ByLayer
370
18
48
1
60
0
100
AcDbSpline
70
4
71
3
72
8
73
4
40
0
40
0
40
0
40
0
40
1
40
1
40
1
40
1
41
1
10
1.137E-13
20
10
30
0
41
1
10
0.0332094354583887
20
10
30
0
41
1
10
0.0665441451951665
20
10
30
0
41
1
10
0.100000000000136
20
10
30
0
0
SPLINE
5
134
100
AcDbEntity
8
1
62
256
6
ByLayer
370
18
48
1
60
0
100
AcDbSpline
70
4
71
3
72
8
73
4
40
0
40
0
40
0
40
0
40
1
40
1
40
1
40
1
41
1
10
16.5565057472708
20
-7.93270425324192
30
0
41
1
10
16.5331995691317
20
-7.9536510181311
30
0
41
1
10
16.5114904963547
20
-7.97605369036796
30
0
41
1
10
16.4914747672906
20
-7.99999999999568
30
0
0
SPLINE
5
135
100
AcDbEntity
8
1
62
256
6
ByLayer
370
18
48
1
60
0
100
AcDbSpline
70
4
71
3
72
23
73
19
40
0
40
0
40
0
40
0
40
0.0624999999999934
40
0.0624999999999934
40
0.124999999999987
40
0.124999999999987
40
0.249999999999982
40
0.374999999999977
40
0.374999999999977
40
0.437499999999969
40
0.437499999999969
40
0.499999999999961
40
0.499999999999961
40
0.749999999999965
40
0.749999999999965
40
0.874999999999982
40
0.874999999999982
40
1
40
1
40
1
40
1
41
1
10
16.5565057472708
20
-7.93270425324187
30
0
41
1
10
16.5613368660298
20
-7.92558563018162
30
0
41
1
10
16.5663395212192
20
-7.91861507250582
30
0
41
1
10
16.57669341495
20
-7.90497484442267
30
0
41
1
10
16.5820624092094
20
-7.89828501157791
30
0
41
1
10
16.5985456901034
20
-7.87886234289175
30
0
41
1
10
16.6215173817693
20
-7.85466985484555
30
0
41
1
10
16.6464107101389
20
-7.8337724349559
30
0
41
1
10
16.665803188786
20
-7.81933822473286
30
0
41
1
10
16.6723880312452
20
-7.81473375867904
30
0
41
1
10
16.6858027274317
20
-7.80594495219964
30
0
41
1
10
16.6926531241035
20
-7.80174921730173
30
0
41
1
10
16.7272641619018
20
-7.78199660586984
30
0
41
1
10
16.7558981408065
20
-7.77015016068952
30
0
41
1
10
16.8002207277559
20
-7.7581210023248
30
0
41
1
10
16.8152595447835
20
-7.75507232795638
30
0
41
1
10
16.8456733238455
20
-7.75100000138553
30
0
41
1
10
16.8608363209468
20
-7.75000000000006
30
0
41
1
10
16.875956957399
20
-7.75
30
0
0
SPLINE
5
136
100
AcDbEntity
8
1
62
256
6
ByLayer
370
18
48
1
60
0
100
AcDbSpline
70
4
71
3
72
31
73
27
40
0
40
0
40
0
40
0
40
0.0624999999999968
40
0.0624999999999968
40
0.124999999999994
40
0.124999999999994
40
0.24999999999998
40
0.24999999999998
40
0.312499999999978
40
0.312499999999978
40
0.374999999999977
40
0.374999999999977
40
0.499999999999975
40
0.499999999999975
40
0.562499999999979
40
0.562499999999979
40
0.624999999999983
40
0.687499999999987
40
0.687499999999987
40
0.749999999999991
40
0.749999999999991
40
0.874999999999995
40
0.874999999999995
40
0.937499999999997
40
0.937499999999997
40
1
40
1
40
1
40
1
41
1
10
16.8759569573996
20
-5.25
30
0
41
1
10
16.8625395881995
20
-5.25
30
0
41
1
10
16.8490828605752
20
-5.24921206624202
30
0
41
1
10
16.8220880984309
20
-5.24600847990388
30
0
41
1
10
16.8086879625115
20
-5.24360418306429
30
0
41
1
10
16.7691383243622
20
-5.23411343598048
30
0
41
1
10
16.7434759750454
20
-5.22475253866457
30
0
41
1
10
16.7060510416813
20
-5.20610683516099
30
0
41
1
10
16.6936928344713
20
-5.19907358130479
30
0
41
1
10
16.6698054296813
20
-5.18369478380299
30
0
41
1
10
16.6582446960421
20
-5.17534362442058
30
0
41
1
10
16.6246871225574
20
-5.1483468176105
30
0
41
1
10
16.6038038424031
20
-5.12777696630644
30
0
41
1
10
16.5748113412545
20
-5.09289182629414
30
0
41
1
10
16.5656604228338
20
-5.08072802315326
30
0
41
1
10
16.5484783228651
20
-5.05552083738087
30
0
41
1
10
16.5323738433146
20
-5.02938334709256
30
0
41
1
10
16.5184112681355
20
-5.00139676107841
30
0
41
1
10
16.5055441181187
20
-4.97246449979855
30
0
41
1
10
16.4996379244457
20
-4.95745060421257
30
0
41
1
10
16.4839548344802
20
-4.91189552984758
30
0
41
1
10
16.476073224154
20
-4.88063789890003
30
0
41
1
10
16.4680683963884
20
-4.83243493909504
30
0
41
1
10
16.4660394859084
20
-4.81612905055368
30
0
41
1
10
16.4633191401415
20
-4.78312991368921
30
0
41
1
10
16.4626387294347
20
-4.76658676684082
30
0
41
1
10
16.4626387294347
20
-4.75
30
0
0
SPLINE
5
137
100
AcDbEntity
8
1
62
256
6
ByLayer
370
18
48
1
60
0
100
AcDbSpline
70
4
71
3
72
24
73
20
40
0
40
0
40
0
40
0
40
0.0624999999999999
40
0.0624999999999999
40
0.125
40
0.125
40
0.249999999999999
40
0.249999999999999
40
0.312499999999999
40
0.312499999999999
40
0.374999999999999
40
0.374999999999999
40
0.499999999999999
40
0.499999999999999
40
0.625
40
0.625
40
0.75
40
0.75
40
1
40
1
40
1
40
1
41
1
10
12.7192322297153
20
0.869355262432123
30
0
41
1
10
12.7115065733695
20
0.874694920614957
30
0
41
1
10
12.7034808016059
20
0.879750860896593
30
0
41
1
10
12.6870494561039
20
0.889135296565939
30
0
41
1
10
12.6786987358214
20
0.893437016227438
30
0
41
1
10
12.6532564027905
20
0.905213131751452
30
0
41
1
10
12.6357772220408
20
0.911566196864499
30
0
41
1
10
12.6087905114681
20
0.918867387899525
30
0
41
1
10
12.5996499118593
20
0.920926338003483
30
0
41
1
10
12.5814716445667
20
0.924227129410269
30
0
41
1
10
12.5723900947738
20
0.92548266594639
30
0
41
1
10
12.5451692010531
20
0.928110732382436
30
0
41
1
10
12.5270533802121
20
0.928351868867651
30
0
41
1
10
12.4908953902231
20
0.925866525040021
30
0
41
1
10
12.4733259996834
20
0.923173331477926
30
0
41
1
10
12.4391458529396
20
0.915155097927197
30
0
41
1
10
12.4224804169363
20
0.909805828841399
30
0
41
1
10
12.3742531355241
20
0.890030332670563
30
0
41
1
10
12.3454284839055
20
0.872417159422753
30
0
41
1
10
12.3196771087034
20
0.850842705127945
30
0
0
SPLINE
5
138
100
AcDbEntity
8
1
62
256
6
ByLayer
370
18
48
1
60
0
100
AcDbSpline
70
4
71
3
72
26
73
22
40
0
40
0
40
0
40
0
40
0.249999999999996
40
0.249999999999996
40
0.312499999999995
40
0.312499999999995
40
0.374999999999994
40
0.374999999999994
40
0.499999999999993
40
0.499999999999993
40
0.562499999999993
40
0.562499999999993
40
0.624999999999993
40
0.624999999999993
40
0.749999999999994
40
0.749999999999994
40
0.812499999999996
40
0.812499999999996
40
0.874999999999998
40
0.874999999999998
40
1
40
1
40
1
40
1
41
1
10
11.1598240797517
20
0.94908141846895
30
0
41
1
10
11.1380062553845
20
0.974752589416426
30
0
41
1
10
11.1125203588407
20
0.996956449698132
30
0
41
1
10
11.0757411811476
20
1.01991168371364
30
0
41
1
10
11.0681003404435
20
1.02427292459544
30
0
41
1
10
11.0525437750819
20
1.03234240497807
30
0
41
1
10
11.0446118360472
20
1.03606427711429
30
0
41
1
10
11.0203563389537
20
1.04628619570582
30
0
41
1
10
11.0035762570007
20
1.05184910814023
30
0
41
1
10
10.9774438907328
20
1.05818728791723
30
0
41
1
10
10.9685719918471
20
1.05996412875027
30
0
41
1
10
10.9504872606709
20
1.0628020330833
30
0
41
1
10
10.9413399030025
20
1.06384924841552
30
0
41
1
10
10.9139447947354
20
1.06583327157466
30
0
41
1
10
10.8955997962265
20
1.0656444073183
30
0
41
1
10
10.8679617142986
20
1.06301986732831
30
0
41
1
10
10.8587288049639
20
1.06175290151737
30
0
41
1
10
10.8402212927169
20
1.05839590988484
30
0
41
1
10
10.8309533304964
20
1.05630083601295
30
0
41
1
10
10.803726876888
20
1.04890624190045
30
0
41
1
10
10.786125725943
20
1.04247167139454
30
0
41
1
10
10.7690745789229
20
1.03453220609987
30
0
0
SPLINE
5
139
100
AcDbEntity
8
1
62
256
6
ByLayer
370
18
48
1
60
0
100
AcDbSpline
70
4
71
3
72
34
73
30
40
0
40
0
40
0
40
0
40
0.124999999999999
40
0.124999999999999
40
0.187499999999998
40
0.187499999999998
40
0.218749999999998
40
0.218749999999998
40
0.249999999999998
40
0.249999999999998
40
0.374999999999998
40
0.374999999999998
40
0.406249999999998
40
0.406249999999998
40
0.437499999999998
40
0.499999999999998
40
0.562499999999998
40
0.562499999999998
40
0.624999999999998
40
0.624999999999998
40
0.687499999999998
40
0.687499999999998
40
0.749999999999998
40
0.749999999999998
40
0.874999999999999
40
0.874999999999999
40
0.937499999999999
40
0.937499999999999
40
1
40
1
40
1
40
1
41
1
10
11.1598240797517
20
0.94908141846895
30
0
41
1
10
11.1926686978094
20
0.910435960944369
30
0
41
1
10
11.228979240889
20
0.874846136761448
30
0
41
1
10
11.289091109691
20
0.826114852674436
30
0
41
1
10
11.3100769629986
20
0.810651704432701
30
0
41
1
10
11.3431241842405
20
0.788694601093823
30
0
41
1
10
11.3544284232282
20
0.781566798208928
30
0
41
1
10
11.3774712670134
20
0.767816369923708
30
0
41
1
10
11.3891715070719
20
0.761214844360154
30
0
41
1
10
11.4485873315215
20
0.729583154405873
30
0
41
1
10
11.499006656539
20
0.708621417594429
30
0
41
1
10
11.5663389961249
20
0.688514762578791
30
0
41
1
10
11.5800428375975
20
0.684800944724373
30
0
41
1
10
11.6074606086571
20
0.67812306726421
30
0
41
1
10
11.6487597495036
20
0.669181227509284
30
0
41
1
10
11.7184480166219
20
0.659592054007874
30
0
41
1
10
11.7751212134248
20
0.657626929832134
30
0
41
1
10
11.8322726568671
20
0.65862887144857
30
0
41
1
10
11.8603994798746
20
0.660601225816833
30
0
41
1
10
11.9157817270679
20
0.667278498771509
30
0
41
1
10
11.9430470864544
20
0.671984401317843
30
0
41
1
10
11.9967859207959
20
0.684032293416635
30
0
41
1
10
12.0233418539838
20
0.691417935522452
30
0
41
1
10
12.1000631858619
20
0.716827954360895
30
0
41
1
10
12.1479594932682
20
0.738169753746831
30
0
41
1
10
12.2157386024486
20
0.776168188373731
30
0
41
1
10
12.2377114321181
20
0.789890601451305
30
0
41
1
10
12.2799594587428
20
0.819088639449888
30
0
41
1
10
12.3002250999652
20
0.834545848351354
30
0
41
1
10
12.3196771087034
20
0.850842705127945
30
0
0
SPLINE
5
13A
100
AcDbEntity
8
1
62
256
6
ByLayer
370
18
48
1
60
0
100
AcDbSpline
70
4
71
3
72
24
73
20
40
0
40
0
40
0
40
0
40
0.0625000000000011
40
0.0625000000000011
40
0.125000000000002
40
0.125000000000002
40
0.250000000000005
40
0.250000000000005
40
0.312500000000005
40
0.312500000000005
40
0.375000000000005
40
0.375000000000005
40
0.500000000000004
40
0.500000000000004
40
0.625000000000004
40
0.625000000000004
40
0.750000000000003
40
0.750000000000003
40
1
40
1
40
1
40
1
41
1
10
9.64027994076832
20
-0.564286404792995
30
0
41
1
10
9.64116594734674
20
-0.554936928453344
30
0
41
1
10
9.6424622578661
20
-0.545540379960869
30
0
41
1
10
9.64585606779474
20
-0.526924827269454
30
0
41
1
10
9.6479387531873
20
-0.51776503781565
30
0
41
1
10
9.65530202619084
20
-0.490713763953408
30
0
41
1
10
9.66169025173281
20
-0.473247402843242
30
0
41
1
10
9.67347232428801
20
-0.447894440405491
30
0
41
1
10
9.67777985770488
20
-0.439573683672904
30
0
41
1
10
9.68695402630453
20
-0.423536874259014
30
0
41
1
10
9.69183842467623
20
-0.415778422662243
30
0
41
1
10
9.70734768452655
20
-0.393254065911265
30
0
41
1
10
9.71882328854917
20
-0.379234378901174
30
0
41
1
10
9.74399828079652
20
-0.353161463081562
30
0
41
1
10
9.75736789242148
20
-0.341448638465067
30
0
41
1
10
9.78550431222709
20
-0.320450629482821
30
0
41
1
10
9.80032485789036
20
-0.311139192258622
30
0
41
1
10
9.846500761828
20
-0.286958067041667
30
0
41
1
10
9.87853338773618
20
-0.276234481344034
30
0
41
1
10
9.91161958091118
20
-0.270412606723255
30
0
0
SPLINE
5
13B
100
AcDbEntity
8
1
62
256
6
ByLayer
370
18
48
1
60
0
100
AcDbSpline
70
4
71
3
72
26
73
22
40
0
40
0
40
0
40
0
40
0.125
40
0.125
40
0.25
40
0.25
40
0.312500000000001
40
0.312500000000001
40
0.375000000000001
40
0.375000000000001
40
0.5
40
0.5
40
0.562499999999999
40
0.562499999999999
40
0.624999999999999
40
0.624999999999999
40
0.749999999999999
40
0.749999999999999
40
0.874999999999999
40
0.874999999999999
40
1
40
1
40
1
40
1
41
1
10
10.7690745789229
20
1.03453220609987
30
0
41
1
10
10.7520840519771
20
1.02662096711606
30
0
41
1
10
10.735507334687
20
1.01709642461384
30
0
41
1
10
10.7047655314752
20
0.995747253343836
30
0
41
1
10
10.6904584222906
20
0.983887184199602
30
0
41
1
10
10.6705628429373
20
0.964356368010385
30
0
41
1
10
10.6641647412165
20
0.957518786307617
30
0
41
1
10
10.652094444231
20
0.943478213489641
30
0
41
1
10
10.6464108944974
20
0.93627049015555
30
0
41
1
10
10.6303693996679
20
0.914111547235507
30
0
41
1
10
10.6210142682373
20
0.8986278335679
30
0
41
1
10
10.6089379767859
20
0.874373758589456
30
0
41
1
10
10.6052541858201
20
0.86613691977692
30
0
41
1
10
10.5986461660605
20
0.849607594977442
30
0
41
1
10
10.5957048673254
20
0.841281878809411
30
0
41
1
10
10.5879248825123
20
0.816132568370392
30
0
41
1
10
10.5841241892699
20
0.799137765662067
30
0
41
1
10
10.5792197258638
20
0.764722650467832
30
0
41
1
10
10.5781648647277
20
0.747609852275389
30
0
41
1
10
10.5786436655451
20
0.713791931096239
30
0
41
1
10
10.5801735292665
20
0.697050236196617
30
0
41
1
10
10.5829683201251
20
0.680482110857611
30
0
0
SPLINE
5
13C
100
AcDbEntity
8
1
62
256
6
ByLayer
370
18
48
1
60
0
100
AcDbSpline
70
4
71
3
72
34
73
30
40
0
40
0
40
0
40
0
40
0.125
40
0.125
40
0.187499999999999
40
0.187499999999999
40
0.218749999999999
40
0.218749999999999
40
0.249999999999998
40
0.249999999999998
40
0.374999999999999
40
0.374999999999999
40
0.406249999999999
40
0.406249999999999
40
0.4375
40
0.5
40
0.5625
40
0.5625
40
0.625
40
0.625
40
0.6875
40
0.6875
40
0.75
40
0.75
40
0.875
40
0.875
40
0.9375
40
0.9375
40
1
40
1
40
1
40
1
41
1
10
9.91161958091118
20
-0.270412606723255
30
0
41
1
10
9.9615694580192
20
-0.2616233839708
30
0
41
1
10
10.010636212205
20
-0.248298785675956
30
0
41
1
10
10.0830774262141
20
-0.221087661874549
30
0
41
1
10
10.1070308195166
20
-0.210804184432448
30
0
41
1
10
10.1426864879758
20
-0.193399978627781
30
0
41
1
10
10.154552648111
20
-0.18725297975169
30
0
41
1
10
10.1780688494596
20
-0.174328766480642
30
0
41
1
10
10.1896812829672
20
-0.167573978323446
30
0
41
1
10
10.2470190337769
20
-0.13231512577778
30
0
41
1
10
10.2906020350471
20
-0.0994209815974614
30
0
41
1
10
10.3420011997287
20
-0.0515038989406662
30
0
41
1
10
10.352135801725
20
-0.0415601784583828
30
0
41
1
10
10.3717633082407
20
-0.0212848410693596
30
0
41
1
10
10.4003644439355
20
0.0098206367339344
30
0
41
1
10
10.4438821789762
20
0.0650891965130995
30
0
41
1
10
10.4742399021878
20
0.112986220366167
30
0
41
1
10
10.5022801226559
20
0.162796229012315
30
0
41
1
10
10.5148038735828
20
0.188058141961676
30
0
41
1
10
10.5370533360058
20
0.23921223027628
30
0
41
1
10
10.5467832250474
20
0.265113477032401
30
0
41
1
10
10.5635684107256
20
0.31756604024622
30
0
41
1
10
10.5706277533019
20
0.34421057048138
30
0
41
1
10
10.587509222638
20
0.423247575236871
30
0
41
1
10
10.5933218801414
20
0.475360353361736
30
0
41
1
10
10.5948210379446
20
0.553049740344363
30
0
41
1
10
10.5940958662261
20
0.578945375641638
30
0
41
1
10
10.5902744812789
20
0.63015883288034
30
0
41
1
10
10.5871893223593
20
0.655459095680158
30
0
41
1
10
10.5829683201251
20
0.680482110857611
30
0
0
SPLINE
5
13D
100
AcDbEntity
8
1
62
256
6
ByLayer
370
18
48
1
60
0
100
AcDbSpline
70
4
71
3
72
24
73
20
40
0
40
0
40
0
40
0
40
0.0624999999999994
40
0.0624999999999994
40
0.124999999999999
40
0.124999999999999
40
0.249999999999996
40
0.249999999999996
40
0.312499999999996
40
0.312499999999996
40
0.374999999999996
40
0.374999999999996
40
0.499999999999996
40
0.499999999999996
40
0.624999999999997
40
0.624999999999997
40
0.749999999999997
40
0.749999999999997
40
1
40
1
40
1
40
1
41
1
10
13.5597200592318
20
-0.935713595207005
30
0
41
1
10
13.5588340526534
20
-0.945063071546656
30
0
41
1
10
13.5575377421342
20
-0.954459620039131
30
0
41
1
10
13.5541439322055
20
-0.973075172730546
30
0
41
1
10
13.5520612468128
20
-0.98223496218435
30
0
41
1
10
13.5446979738094
20
-1.00928623604659
30
0
41
1
10
13.5383097482675
20
-1.02675259715676
30
0
41
1
10
13.5265276757123
20
-1.05210555959451
30
0
41
1
10
13.5222201422953
20
-1.0604263163271
30
0
41
1
10
13.5130459736957
20
-1.07646312574099
30
0
41
1
10
13.508161575324
20
-1.08422157733776
30
0
41
1
10
13.4926523154736
20
-1.10674593408873
30
0
41
1
10
13.481176711451
20
-1.12076562109883
30
0
41
1
10
13.4560017192036
20
-1.14683853691844
30
0
41
1
10
13.4426321075788
20
-1.15855136153493
30
0
41
1
10
13.4144956877732
20
-1.17954937051718
30
0
41
1
10
13.3996751421099
20
-1.18886080774138
30
0
41
1
10
13.3534992381723
20
-1.21304193295833
30
0
41
1
10
13.3214666122641
20
-1.22376551865597
30
0
41
1
10
13.2883804190891
20
-1.22958739327674
30
0
0
SPLINE
5
13E
100
AcDbEntity
8
1
62
256
6
ByLayer
370
18
48
1
60
0
100
AcDbSpline
70
4
71
3
72
26
73
22
40
0
40
0
40
0
40
0
40
0.125
40
0.125
40
0.250000000000001
40
0.250000000000001
40
0.312500000000001
40
0.312500000000001
40
0.375000000000001
40
0.375000000000001
40
0.5
40
0.5
40
0.5625
40
0.5625
40
0.625
40
0.625
40
0.749999999999999
40
0.749999999999999
40
0.874999999999999
40
0.874999999999999
40
1
40
1
40
1
40
1
41
1
10
12.4309254210773
20
-2.53453220609987
30
0
41
1
10
12.4479159480231
20
-2.52662096711606
30
0
41
1
10
12.4644926653133
20
-2.51709642461384
30
0
41
1
10
12.495234468525
20
-2.49574725334384
30
0
41
1
10
12.5095415777097
20
-2.4838871841996
30
0
41
1
10
12.5294371570628
20
-2.46435636801038
30
0
41
1
10
12.5358352587837
20
-2.45751878630762
30
0
41
1
10
12.5479055557693
20
-2.44347821348964
30
0
41
1
10
12.5535891055028
20
-2.43627049015555
30
0
41
1
10
12.5696306003324
20
-2.41411154723551
30
0
41
1
10
12.5789857317629
20
-2.3986278335679
30
0
41
1
10
12.5910620232142
20
-2.37437375858946
30
0
41
1
10
12.5947458141801
20
-2.36613691977692
30
0
41
1
10
12.6013538339397
20
-2.34960759497744
30
0
41
1
10
12.6042951326748
20
-2.34128187880941
30
0
41
1
10
12.6120751174878
20
-2.31613256837039
30
0
41
1
10
12.6158758107304
20
-2.29913776566207
30
0
41
1
10
12.6207802741365
20
-2.26472265046783
30
0
41
1
10
12.6218351352726
20
-2.24760985227539
30
0
41
1
10
12.6213563344551
20
-2.21379193109624
30
0
41
1
10
12.6198264707338
20
-2.19705023619662
30
0
41
1
10
12.6170316798751
20
-2.18048211085761
30
0
0
SPLINE
5
13F
100
AcDbEntity
8
1
62
256
6
ByLayer
370
18
48
1
60
0
100
AcDbSpline
70
4
71
3
72
34
73
30
40
0
40
0
40
0
40
0
40
0.125
40
0.125
40
0.1875
40
0.1875
40
0.21875
40
0.21875
40
0.25
40
0.25
40
0.374999999999999
40
0.374999999999999
40
0.406249999999999
40
0.406249999999999
40
0.437499999999999
40
0.499999999999999
40
0.562499999999999
40
0.562499999999999
40
0.624999999999999
40
0.624999999999999
40
0.687499999999999
40
0.687499999999999
40
0.75
40
0.75
40
0.875
40
0.875
40
0.9375
40
0.9375
40
1
40
1
40
1
40
1
41
1
10
13.2883804190891
20
-1.22958739327674
30
0
41
1
10
13.2384305419811
20
-1.2383766160292
30
0
41
1
10
13.1893637877953
20
-1.25170121432404
30
0
41
1
10
13.116922573786
20
-1.27891233812545
30
0
41
1
10
13.0929691804837
20
-1.28919581556755
30
0
41
1
10
13.0573135120244
20
-1.30660002137222
30
0
41
1
10
13.0454473518892
20
-1.31274702024831
30
0
41
1
10
13.0219311505407
20
-1.32567123351936
30
0
41
1
10
13.0103187170331
20
-1.33242602167655
30
0
41
1
10
12.9529809662232
20
-1.36768487422222
30
0
41
1
10
12.9093979649531
20
-1.40057901840254
30
0
41
1
10
12.8579988002716
20
-1.44849610105933
30
0
41
1
10
12.8478641982753
20
-1.45843982154162
30
0
41
1
10
12.8282366917596
20
-1.47871515893064
30
0
41
1
10
12.7996355560647
20
-1.50982063673393
30
0
41
1
10
12.756118065053
20
-1.56508938841267
30
0
41
1
10
12.7257600978124
20
-1.61298622036617
30
0
41
1
10
12.6977198773444
20
-1.66279622901232
30
0
41
1
10
12.6851961264174
20
-1.68805814196168
30
0
41
1
10
12.6629466639944
20
-1.73921223027628
30
0
41
1
10
12.6532167749527
20
-1.7651134770324
30
0
41
1
10
12.6364315892746
20
-1.81756604024622
30
0
41
1
10
12.6293722466984
20
-1.84421057048138
30
0
41
1
10
12.6124907773622
20
-1.92324757523687
30
0
41
1
10
12.6066781198589
20
-1.97536035336174
30
0
41
1
10
12.6051789620556
20
-2.05304974034436
30
0
41
1
10
12.6059041337741
20
-2.07894537564164
30
0
41
1
10
12.6097255187212
20
-2.13015883288034
30
0
41
1
10
12.6128106776408
20
-2.15545909568016
30
0
41
1
10
12.6170316798751
20
-2.18048211085761
30
0
0
SPLINE
5
140
100
AcDbEntity
8
1
62
256
6
ByLayer
370
18
48
1
60
0
100
AcDbSpline
70
4
71
3
72
24
73
20
40
0
40
0
40
0
40
0
40
0.124999999999998
40
0.124999999999998
40
0.187499999999998
40
0.187499999999998
40
0.249999999999997
40
0.249999999999997
40
0.374999999999996
40
0.374999999999996
40
0.499999999999995
40
0.499999999999995
40
0.624999999999994
40
0.624999999999994
40
0.687499999999994
40
0.687499999999994
40
0.749999999999995
40
0.749999999999995
40
1
40
1
40
1
40
1
41
1
10
13.5597200592318
20
-0.935713595207005
30
0
41
1
10
13.5615382887729
20
-0.916526949770571
30
0
41
1
10
13.561670896107
20
-0.897367851664455
30
0
41
1
10
13.5593726019105
20
-0.868670345030125
30
0
41
1
10
13.5581818091479
20
-0.859076459912615
30
0
41
1
10
13.5549665477867
20
-0.840059221532442
30
0
41
1
10
13.5529610365793
20
-0.83072725765993
30
0
41
1
10
13.5458148386666
20
-0.803234250890114
30
0
41
1
10
13.5395521068264
20
-0.785572609722067
30
0
41
1
10
13.5241538079414
20
-0.751537322328488
30
0
41
1
10
13.5149134454928
20
-0.735058784746116
30
0
41
1
10
13.4944094369341
20
-0.704700401126559
30
0
41
1
10
13.4830918770837
20
-0.690649124896879
30
0
41
1
10
13.4646340624735
20
-0.671160656528457
30
0
41
1
10
13.4582331702802
20
-0.664930696178658
30
0
41
1
10
13.4449393564087
20
-0.653001902369965
30
0
41
1
10
13.4380196930385
20
-0.647285757305212
30
0
41
1
10
13.4028030993021
20
-0.620498516807345
30
0
41
1
10
13.3723618350388
20
-0.604327740627241
30
0
41
1
10
13.3399196270628
20
-0.593006617002004
30
0
0
SPLINE
5
141
100
AcDbEntity
8
1
62
256
6
ByLayer
370
18
48
1
60
0
100
AcDbSpline
70
4
71
3
72
24
73
20
40
0
40
0
40
0
40
0
40
0.250000000000002
40
0.250000000000002
40
0.312500000000003
40
0.312500000000003
40
0.375000000000003
40
0.375000000000003
40
0.500000000000002
40
0.500000000000002
40
0.625000000000001
40
0.625000000000001
40
0.749999999999999
40
0.749999999999999
40
0.812499999999999
40
0.812499999999999
40
0.874999999999999
40
0.874999999999999
40
1
40
1
40
1
40
1
41
1
10
12.8400408842003
20
0.480555092815905
30
0
41
1
10
12.8522578058883
20
0.512670689073275
30
0
41
1
10
12.8594752730837
20
0.546376367222422
30
0
41
1
10
12.8616413158641
20
0.590569952577766
30
0
41
1
10
12.8617204147337
20
0.599544906556901
30
0
41
1
10
12.8611475096083
20
0.617396892124304
30
0
41
1
10
12.8604994687654
20
0.626305532306503
30
0
41
1
10
12.8574647413859
20
0.652975398246497
30
0
41
1
10
12.8539954431655
20
0.670681032787854
30
0
41
1
10
12.8439587256161
20
0.705913264108062
30
0
41
1
10
12.8372948078597
20
0.723591462522279
30
0
41
1
10
12.8211578030575
20
0.757282788891587
30
0
41
1
10
12.8116718910945
20
0.773443632096132
30
0
41
1
10
12.7952304328013
20
0.796608519642803
30
0
41
1
10
12.7893792892094
20
0.804149855306036
30
0
41
1
10
12.7768944173872
20
0.818850917744385
30
0
41
1
10
12.7703184298689
20
0.825937313669556
30
0
41
1
10
12.7498348109413
20
0.84616725185208
30
0
41
1
10
12.7350865325325
20
0.858397415748129
30
0
41
1
10
12.7192322297153
20
0.869355262432123
30
0
0
SPLINE
5
142
100
AcDbEntity
8
1
62
256
6
ByLayer
370
18
48
1
60
0
100
AcDbSpline
70
4
71
3
72
18
73
14
40
0
40
0
40
0
40
0
40
0.249999999999999
40
0.249999999999999
40
0.374999999999999
40
0.374999999999999
40
0.437499999999998
40
0.437499999999998
40
0.499999999999998
40
0.499999999999998
40
0.749999999999999
40
0.749999999999999
40
1
40
1
40
1
40
1
41
1
10
12.9406503980648
20
-0.294245120520884
30
0
41
1
10
12.9669805546803
20
-0.330989873625811
30
0
41
1
10
12.9954768423187
20
-0.364450845991541
30
0
41
1
10
13.0411335244531
20
-0.41043501931847
30
0
41
1
10
13.0568419088156
20
-0.42505596567986
30
0
41
1
10
13.0811272839892
20
-0.445971891186446
30
0
41
1
10
13.0893430564992
20
-0.452774350223876
30
0
41
1
10
13.1060160491828
20
-0.46604472312282
30
0
41
1
10
13.1144927081906
20
-0.47252655128915
30
0
41
1
10
13.1571971786187
20
-0.503899249880874
30
0
41
1
10
13.1923613490519
20
-0.525719885737431
30
0
41
1
10
13.2646495546174
20
-0.563622051716266
30
0
41
1
10
13.3017747568726
20
-0.579695476421989
30
0
41
1
10
13.3399196270628
20
-0.593006617002004
30
0
0
SPLINE
5
143
100
AcDbEntity
8
1
62
256
6
ByLayer
370
18
48
1
60
0
100
AcDbSpline
70
4
71
3
72
17
73
13
40
0
40
0
40
0
40
0
40
0.250000000000001
40
0.250000000000001
40
0.500000000000002
40
0.500000000000002
40
0.562500000000002
40
0.562500000000002
40
0.625000000000002
40
0.750000000000001
40
0.750000000000001
40
1
40
1
40
1
40
1
41
1
10
12.8400408842003
20
0.480555092815905
30
0
41
1
10
12.8256780736433
20
0.442798427368018
30
0
41
1
10
12.8140912986381
20
0.404060694933833
30
0
41
1
10
12.7965820306326
20
0.324423169004888
30
0
41
1
10
12.790652878224
20
0.283527487630067
30
0
41
1
10
12.7871674645078
20
0.230762916433662
30
0
41
1
10
12.7866679313289
20
0.220101924114147
30
0
41
1
10
12.7860847191535
20
0.198750935924522
30
0
41
1
10
12.7858307089313
20
0.166683596566656
30
0
41
1
10
12.7874478627215
20
0.134480927669585
30
0
41
1
10
12.7932555777697
20
0.0698559591882599
30
0
41
1
10
12.8005304913453
20
0.0264820442131963
30
0
41
1
10
12.8117028506788
20
-0.0173116613066213
30
0
0
SPLINE
5
144
100
AcDbEntity
8
1
62
256
6
ByLayer
370
18
48
1
60
0
100
AcDbSpline
70
4
71
3
72
24
73
20
40
0
40
0
40
0
40
0
40
0.124999999999999
40
0.124999999999999
40
0.187499999999998
40
0.187499999999998
40
0.249999999999998
40
0.249999999999998
40
0.374999999999997
40
0.374999999999997
40
0.499999999999996
40
0.499999999999996
40
0.624999999999995
40
0.624999999999995
40
0.687499999999996
40
0.687499999999996
40
0.749999999999996
40
0.749999999999996
40
1
40
1
40
1
40
1
41
1
10
9.64027994076832
20
-0.564286404792995
30
0
41
1
10
9.63846171122725
20
-0.583473050229429
30
0
41
1
10
9.63832910389328
20
-0.602632148335545
30
0
41
1
10
9.64062739808981
20
-0.631329654969875
30
0
41
1
10
9.64181819085229
20
-0.640923540087385
30
0
41
1
10
9.64503345221351
20
-0.659940778467558
30
0
41
1
10
9.64703896342087
20
-0.66927274234007
30
0
41
1
10
9.65418516133366
20
-0.696765749109886
30
0
41
1
10
9.6604478931738
20
-0.714427390277933
30
0
41
1
10
9.67584619205888
20
-0.748462677671455
30
0
41
1
10
9.68508655450739
20
-0.764941215253884
30
0
41
1
10
9.70559056306615
20
-0.795299598873441
30
0
41
1
10
9.71690812291661
20
-0.809350875103121
30
0
41
1
10
9.73536593752669
20
-0.828839343471543
30
0
41
1
10
9.74176682971995
20
-0.835069303821342
30
0
41
1
10
9.75506064359161
20
-0.846998097630035
30
0
41
1
10
9.76198030696173
20
-0.852714242694788
30
0
41
1
10
9.79719690069817
20
-0.879501483192655
30
0
41
1
10
9.8276381649614
20
-0.895672259372759
30
0
41
1
10
9.86008037293732
20
-0.906993382997996
30
0
0
SPLINE
5
145
100
AcDbEntity
8
1
62
256
6
ByLayer
370
18
48
1
60
0
100
AcDbSpline
70
4
71
3
72
17
73
13
40
0
40
0
40
0
40
0
40
0.25
40
0.25
40
0.5
40
0.5
40
0.5625
40
0.5625
40
0.625
40
0.750000000000001
40
0.750000000000001
40
1
40
1
40
1
40
1
41
1
10
10.3599591157998
20
-1.98055509281591
30
0
41
1
10
10.3743219263569
20
-1.94279842736807
30
0
41
1
10
10.385908701362
20
-1.90406069493395
30
0
41
1
10
10.4034179693675
20
-1.82442316900511
30
0
41
1
10
10.4093471217761
20
-1.78352748763041
30
0
41
1
10
10.4128325354924
20
-1.73076291643406
30
0
41
1
10
10.4133320686713
20
-1.72010192411454
30
0
41
1
10
10.4139152808467
20
-1.69875093592498
30
0
41
1
10
10.4141692910689
20
-1.66668359656711
30
0
41
1
10
10.4125521372788
20
-1.63448092767004
30
0
41
1
10
10.4067444222305
20
-1.56985595918866
30
0
41
1
10
10.399469508655
20
-1.52648204421342
30
0
41
1
10
10.3882971493215
20
-1.48268833869338
30
0
0
SPLINE
5
146
100
AcDbEntity
8
1
62
256
6
ByLayer
370
18
48
1
60
0
100
AcDbSpline
70
4
71
3
72
18
73
14
40
0
40
0
40
0
40
0
40
0.249999999999999
40
0.249999999999999
40
0.374999999999998
40
0.374999999999998
40
0.437499999999998
40
0.437499999999998
40
0.499999999999998
40
0.499999999999998
40
0.749999999999999
40
0.749999999999999
40
1
40
1
40
1
40
1
41
1
10
10.2593496019355
20
-1.20575487947912
30
0
41
1
10
10.2330194453201
20
-1.16901012637442
30
0
41
1
10
10.2045231576818
20
-1.13554915400874
30
0
41
1
10
10.1588664755474
20
-1.08956498068176
30
0
41
1
10
10.1431580911848
20
-1.07494403432025
30
0
41
1
10
10.1188727160111
20
-1.0540281088135
30
0
41
1
10
10.110656943501
20
-1.04722564977607
30
0
41
1
10
10.0939839508172
20
-1.03395527687707
30
0
41
1
10
10.0855072918093
20
-1.02747344871062
30
0
41
1
10
10.0428028213813
20
-0.996100750119069
30
0
41
1
10
10.0076386509484
20
-0.974280114262569
30
0
41
1
10
9.93535044538294
20
-0.936377948283791
30
0
41
1
10
9.89822524312763
20
-0.920304523578068
30
0
41
1
10
9.86008037293732
20
-0.906993382997996
30
0
0
SPLINE
5
147
100
AcDbEntity
8
1
62
256
6
ByLayer
370
18
48
1
60
0
100
AcDbSpline
70
4
71
3
72
24
73
20
40
0
40
0
40
0
40
0
40
0.250000000000003
40
0.250000000000003
40
0.312500000000004
40
0.312500000000004
40
0.375000000000004
40
0.375000000000004
40
0.500000000000003
40
0.500000000000003
40
0.625000000000002
40
0.625000000000002
40
0.750000000000001
40
0.750000000000001
40
0.812500000000001
40
0.812500000000001
40
0.875
40
0.875
40
1
40
1
40
1
40
1
41
1
10
10.3599591157998
20
-1.98055509281591
30
0
41
1
10
10.347742194112
20
-2.01267068907327
30
0
41
1
10
10.3405247269164
20
-2.04637636722242
30
0
41
1
10
10.3383586841361
20
-2.09056995257777
30
0
41
1
10
10.3382795852665
20
-2.09954490655684
30
0
41
1
10
10.338852490392
20
-2.1173968921243
30
0
41
1
10
10.3395005312348
20
-2.1263055323065
30
0
41
1
10
10.3425352586144
20
-2.1529753982465
30
0
41
1
10
10.3460045568347
20
-2.1706810327878
30
0
41
1
10
10.3560412743841
20
-2.20591326410806
30
0
41
1
10
10.3627051921405
20
-2.22359146252228
30
0
41
1
10
10.3788421969427
20
-2.25728278889159
30
0
41
1
10
10.3883281089057
20
-2.27344363209613
30
0
41
1
10
10.4047695671988
20
-2.2966085196428
30
0
41
1
10
10.4106207107909
20
-2.30414985530604
30
0
41
1
10
10.4231055826129
20
-2.31885091774438
30
0
41
1
10
10.4296815701314
20
-2.32593731366956
30
0
41
1
10
10.450165189059
20
-2.34616725185208
30
0
41
1
10
10.4649134674677
20
-2.35839741574813
30
0
41
1
10
10.4807677702848
20
-2.36935526243212
30
0
0
SPLINE
5
148
100
AcDbEntity
8
1
62
256
6
ByLayer
370
18
48
1
60
0
100
AcDbSpline
70
4
71
3
72
34
73
30
40
0
40
0
40
0
40
0
40
0.125
40
0.125
40
0.1875
40
0.1875
40
0.21875
40
0.21875
40
0.25
40
0.25
40
0.375
40
0.375
40
0.406250000000001
40
0.406250000000001
40
0.437500000000001
40
0.500000000000001
40
0.562500000000001
40
0.562500000000001
40
0.625
40
0.625
40
0.6875
40
0.6875
40
0.75
40
0.75
40
0.875
40
0.875
40
0.9375
40
0.9375
40
1
40
1
40
1
40
1
41
1
10
12.0401759202484
20
-2.44908141846895
30
0
41
1
10
12.0073313021908
20
-2.41043596094437
30
0
41
1
10
11.9710207591112
20
-2.37484613676145
30
0
41
1
10
11.9109088903093
20
-2.32611485267444
30
0
41
1
10
11.8899230370016
20
-2.3106517044327
30
0
41
1
10
11.8568758157597
20
-2.28869460109382
30
0
41
1
10
11.845571576772
20
-2.28156679820893
30
0
41
1
10
11.8225287329867
20
-2.26781636992371
30
0
41
1
10
11.8108284929283
20
-2.26121484436015
30
0
41
1
10
11.7514126684788
20
-2.22958315440587
30
0
41
1
10
11.7009933434613
20
-2.20862141759443
30
0
41
1
10
11.6336610038752
20
-2.18851476257879
30
0
41
1
10
11.6199571624027
20
-2.18480094472437
30
0
41
1
10
11.5925393913431
20
-2.17812306726421
30
0
41
1
10
11.5512402504967
20
-2.16918122750923
30
0
41
1
10
11.4815520255077
20
-2.15959174643331
30
0
41
1
10
11.4248787865754
20
-2.15762692983213
30
0
41
1
10
11.3677273431331
20
-2.15862887144857
30
0
41
1
10
11.3396005201257
20
-2.16060122581683
30
0
41
1
10
11.2842182729322
20
-2.16727849877151
30
0
41
1
10
11.2569529135458
20
-2.17198440131784
30
0
41
1
10
11.2032140792044
20
-2.18403229341664
30
0
41
1
10
11.1766581460164
20
-2.19141793552245
30
0
41
1
10
11.0999368141382
20
-2.2168279543609
30
0
41
1
10
11.0520405067319
20
-2.23816975374683
30
0
41
1
10
10.9842613975516
20
-2.27616818837373
30
0
41
1
10
10.9622885678821
20
-2.28989060145131
30
0
41
1
10
10.9200405412574
20
-2.31908863944989
30
0
41
1
10
10.899774900035
20
-2.33454584835135
30
0
41
1
10
10.8803228912967
20
-2.35084270512795
30
0
0
SPLINE
5
149
100
AcDbEntity
8
1
62
256
6
ByLayer
370
18
48
1
60
0
100
AcDbSpline
70
4
71
3
72
24
73
20
40
0
40
0
40
0
40
0
40
0.0624999999999991
40
0.0624999999999991
40
0.124999999999998
40
0.124999999999998
40
0.249999999999996
40
0.249999999999996
40
0.312499999999996
40
0.312499999999996
40
0.374999999999996
40
0.374999999999996
40
0.499999999999997
40
0.499999999999997
40
0.624999999999998
40
0.624999999999998
40
0.749999999999999
40
0.749999999999999
40
1
40
1
40
1
40
1
41
1
10
10.4807677702848
20
-2.36935526243212
30
0
41
1
10
10.4884934266307
20
-2.37469492061496
30
0
41
1
10
10.4965191983944
20
-2.37975086089659
30
0
41
1
10
10.5129505438964
20
-2.38913529656594
30
0
41
1
10
10.5213012641789
20
-2.39343701622744
30
0
41
1
10
10.5467435972098
20
-2.40521313175145
30
0
41
1
10
10.5642227779593
20
-2.4115661968645
30
0
41
1
10
10.5912094885321
20
-2.41886738789953
30
0
41
1
10
10.600350088141
20
-2.42092633800348
30
0
41
1
10
10.6185283554336
20
-2.42422712941027
30
0
41
1
10
10.6276099052263
20
-2.42548266594639
30
0
41
1
10
10.6548307989472
20
-2.42811073238244
30
0
41
1
10
10.6729466197881
20
-2.42835186886765
30
0
41
1
10
10.7091046097771
20
-2.42586652503996
30
0
41
1
10
10.7266740003167
20
-2.42317333147793
30
0
41
1
10
10.7608541470605
20
-2.4151550979272
30
0
41
1
10
10.777519583064
20
-2.4098058288414
30
0
41
1
10
10.8257468644762
20
-2.39003033267056
30
0
41
1
10
10.8545715160948
20
-2.37241715942275
30
0
41
1
10
10.8803228912967
20
-2.35084270512795
30
0
0
SPLINE
5
14A
100
AcDbEntity
8
1
62
256
6
ByLayer
370
18
48
1
60
0
100
AcDbSpline
70
4
71
3
72
26
73
22
40
0
40
0
40
0
40
0
40
0.249999999999993
40
0.249999999999993
40
0.312499999999993
40
0.312499999999993
40
0.374999999999992
40
0.374999999999992
40
0.499999999999992
40
0.499999999999992
40
0.562499999999992
40
0.562499999999992
40
0.624999999999992
40
0.624999999999992
40
0.749999999999994
40
0.749999999999994
40
0.812499999999995
40
0.812499999999995
40
0.874999999999997
40
0.874999999999997
40
1
40
1
40
1
40
1
41
1
10
12.0401759202484
20
-2.44908141846895
30
0
41
1
10
12.0619937446157
20
-2.47475258941643
30
0
41
1
10
12.0874796411596
20
-2.49695644969813
30
0
41
1
10
12.1242588188527
20
-2.51991168371364
30
0
41
1
10
12.1318996595568
20
-2.52427292459544
30
0
41
1
10
12.1474562249184
20
-2.53234240497807
30
0
41
1
10
12.155388163953
20
-2.53606427711429
30
0
41
1
10
12.1796436610465
20
-2.54628619570582
30
0
41
1
10
12.1964237429995
20
-2.55184910814023
30
0
41
1
10
12.2225561092673
20
-2.55818728791724
30
0
41
1
10
12.2314280081531
20
-2.55996412875027
30
0
41
1
10
12.2495127393294
20
-2.5628020330833
30
0
41
1
10
12.2586600969978
20
-2.56384924841552
30
0
41
1
10
12.2860552052649
20
-2.56583327157466
30
0
41
1
10
12.3044002037736
20
-2.5656444073183
30
0
41
1
10
12.3320382857016
20
-2.56301986732831
30
0
41
1
10
12.3412711950364
20
-2.56175290151737
30
0
41
1
10
12.3597787072833
20
-2.55839590988484
30
0
41
1
10
12.3690466695039
20
-2.55630083601295
30
0
41
1
10
12.3962731231122
20
-2.54890624190045
30
0
41
1
10
12.4138742740572
20
-2.54247167139454
30
0
41
1
10
12.4309254210773
20
-2.53453220609987
30
0
0
LINE
5
74
100
AcDbEntity
8
81
62
256
6
ByLayer
370
18
48
1
60
0
100
AcDbLine
10
32
20
-8
30
0
11
34
21
-8
31
0
39
0
210
0
220
0
230
1
0
LINE
5
75
100
AcDbEntity
8
80
62
256
6
ByLayer
370
18
48
1
60
0
100
AcDbLine
10
0
20
0
30
0
11
-2
21
0
31
0
39
0
210
0
220
0
230
1
0
LINE
5
76
100
AcDbEntity
8
4
62
256
6
ByLayer
370
18
48
0.05
60
0
100
AcDbLine
10
0
20
0
30
0
11
32
21
0
31
0
39
0
210
0
220
0
230
1
0
LINE
5
78
100
AcDbEntity
8
SK4
62
256
6
ByLayer
370
18
48
0.05
60
0
100
AcDbLine
10
34
20
0
30
0
11
-18.5
21
0
31
0
39
0
210
0
220
0
230
1
0
LINE
5
7A
100
AcDbEntity
8
1
62
256
6
ByLayer
370
35
48
1
60
0
100
AcDbLine
10
30.609011
20
-5.062217
30
0
11
31.555796
21
-5.004309
31
0
39
0
210
0
220
0
230
1
0
LINE
5
7C
100
AcDbEntity
8
1
62
256
6
ByLayer
370
35
48
1
60
0
100
AcDbLine
10
31.555796
20
-7.995691
30
0
11
30.609011
21
-7.937783
31
0
39
0
210
0
220
0
230
1
0
LINE
5
7D
100
AcDbEntity
8
1
62
256
6
ByLayer
370
35
48
1
60
0
100
AcDbLine
10
31.99999
20
-5.196849
30
0
11
31.99999
21
-7.803151
31
0
39
0
210
0
220
0
230
1
0
LINE
5
7E
100
AcDbEntity
8
1
62
256
6
ByLayer
370
35
48
1
60
0
100
AcDbLine
10
29.851573
20
-5.058705
30
0
11
30.609011
21
-5.062217
31
0
39
0
210
0
220
0
230
1
0
LINE
5
7F
100
AcDbEntity
8
1
62
256
6
ByLayer
370
35
48
1
60
0
100
AcDbLine
10
30.609011
20
-7.937783
30
0
11
29.851573
21
-7.941295
31
0
39
0
210
0
220
0
230
1
0
LINE
5
80
100
AcDbEntity
8
1
62
256
6
ByLayer
370
35
48
1
60
0
100
AcDbLine
10
30.609011
20
-7.937783
30
0
11
30.609011
21
-5.062217
31
0
39
0
210
0
220
0
230
1
0
LINE
5
81
100
AcDbEntity
8
1
62
256
6
ByLayer
370
35
48
1
60
0
100
AcDbLine
10
29.18134
20
-6.5
30
0
11
25.949961
21
-6.5
31
0
39
0
210
0
220
0
230
1
0
LINE
5
82
100
AcDbEntity
8
1
62
256
6
ByLayer
370
35
48
1
60
0
100
AcDbLine
10
25.855018
20
-6.302665
30
0
11
28.397706
21
-6.302665
31
0
39
0
210
0
220
0
230
1
0
LINE
5
83
100
AcDbEntity
8
1
62
256
6
ByLayer
370
35
48
1
60
0
100
AcDbLine
10
28.397706
20
-6.697335
30
0
11
25.855018
21
-6.697335
31
0
39
0
210
0
220
0
230
1
0
LINE
5
84
100
AcDbEntity
8
1
62
256
6
ByLayer
370
35
48
1
60
0
100
AcDbLine
10
25.848085
20
-6.299244
30
0
11
28.344414
21
-6.299244
31
0
39
0
210
0
220
0
230
1
0
LINE
5
85
100
AcDbEntity
8
1
62
256
6
ByLayer
370
35
48
1
60
0
100
AcDbLine
10
25.848085
20
-6.700756
30
0
11
28.344414
21
-6.700756
31
0
39
0
210
0
220
0
230
1
0
LINE
5
86
100
AcDbEntity
8
1
62
256
6
ByLayer
370
35
48
1
60
0
100
AcDbLine
10
25.748107
20
-6.751024
30
0
11
27.636252
21
-6.751024
31
0
39
0
210
0
220
0
230
1
0
LINE
5
87
100
AcDbEntity
8
1
62
256
6
ByLayer
370
35
48
1
60
0
100
AcDbLine
10
25.748107
20
-6.248976
30
0
11
27.636252
21
-6.248976
31
0
39
0
210
0
220
0
230
1
0
LINE
5
88
100
AcDbEntity
8
1
62
256
6
ByLayer
370
35
48
1
60
0
100
AcDbLine
10
25.714116
20
-6.867998
30
0
11
27.024167
21
-6.867998
31
0
39
0
210
0
220
0
230
1
0
LINE
5
89
100
AcDbEntity
8
1
62
256
6
ByLayer
370
35
48
1
60
0
100
AcDbLine
10
25.714116
20
-6.132002
30
0
11
27.024167
21
-6.132002
31
0
39
0
210
0
220
0
230
1
0
LINE
5
8A
100
AcDbEntity
8
1
62
256
6
ByLayer
370
35
48
1
60
0
100
AcDbLine
10
25.534263
20
-7.475984
30
0
11
25.82005
21
-7.475984
31
0
39
0
210
0
220
0
230
1
0
LINE
5
8B
100
AcDbEntity
8
1
62
256
6
ByLayer
370
35
48
1
60
0
100
AcDbLine
10
28.228061
20
-5.35
30
0
11
25.772487
21
-5.35
31
0
39
0
210
0
220
0
230
1
0
LINE
5
8C
100
AcDbEntity
8
1
62
256
6
ByLayer
370
35
48
1
60
0
100
AcDbLine
10
28.472465
20
-5.3198
30
0
11
29.419669
21
-5.081125
31
0
39
0
210
0
220
0
230
1
0
LINE
5
8D
100
AcDbEntity
8
1
62
256
6
ByLayer
370
35
48
1
60
0
100
AcDbLine
10
27.024167
20
-6.132002
30
0
11
25.82005
21
-5.524016
31
0
39
0
210
0
220
0
230
1
0
LINE
5
8E
100
AcDbEntity
8
1
62
256
6
ByLayer
370
35
48
1
60
0
100
AcDbLine
10
28.397706
20
-6.302665
30
0
11
28.344414
21
-6.299244
31
0
39
0
210
0
220
0
230
1
0
LINE
5
8F
100
AcDbEntity
8
1
62
256
6
ByLayer
370
35
48
1
60
0
100
AcDbLine
10
28.344414
20
-6.700756
30
0
11
28.397706
21
-6.697335
31
0
39
0
210
0
220
0
230
1
0
LINE
5
90
100
AcDbEntity
8
1
62
256
6
ByLayer
370
35
48
1
60
0
100
AcDbLine
10
25.82005
20
-7.475984
30
0
11
27.024167
21
-6.867998
31
0
39
0
210
0
220
0
230
1
0
LINE
5
91
100
AcDbEntity
8
1
62
256
6
ByLayer
370
35
48
1
60
0
100
AcDbLine
10
25.772487
20
-7.65
30
0
11
28.228061
21
-7.65
31
0
39
0
210
0
220
0
230
1
0
LINE
5
92
100
AcDbEntity
8
1
62
256
6
ByLayer
370
35
48
1
60
0
100
AcDbLine
10
29.419669
20
-7.918875
30
0
11
28.472465
21
-7.6802
31
0
39
0
210
0
220
0
230
1
0
LINE
5
93
100
AcDbEntity
8
1
62
256
6
ByLayer
370
35
48
1
60
0
100
AcDbLine
10
29.851573
20
-7.941295
30
0
11
29.458733
21
-7.924561
31
0
39
0
210
0
220
0
230
1
0
LINE
5
94
100
AcDbEntity
8
1
62
256
6
ByLayer
370
35
48
1
60
0
100
AcDbLine
10
29.851573
20
-7.941295
30
0
11
29.851573
21
-5.058705
31
0
39
0
210
0
220
0
230
1
0
LINE
5
95
100
AcDbEntity
8
1
62
256
6
ByLayer
370
35
48
1
60
0
100
AcDbLine
10
29.458733
20
-5.075439
30
0
11
29.851573
21
-5.058705
31
0
39
0
210
0
220
0
230
1
0
LINE
5
96
100
AcDbEntity
8
1
62
256
6
ByLayer
370
35
48
1
60
0
100
AcDbLine
10
25.772487
20
-5.474562
30
0
11
25.772487
21
-5.35
31
0
39
0
210
0
220
0
230
1
0
LINE
5
97
100
AcDbEntity
8
1
62
256
6
ByLayer
370
35
48
1
60
0
100
AcDbLine
10
25.772487
20
-5.35
30
0
11
25.480355
21
-5.35
31
0
39
0
210
0
220
0
230
1
0
LINE
5
98
100
AcDbEntity
8
1
62
256
6
ByLayer
370
35
48
1
60
0
100
AcDbLine
10
25.480001
20
-7.65
30
0
11
25.772487
21
-7.65
31
0
39
0
210
0
220
0
230
1
0
LINE
5
99
100
AcDbEntity
8
1
62
256
6
ByLayer
370
35
48
1
60
0
100
AcDbLine
10
25.772487
20
-7.65
30
0
11
25.772487
21
-7.525438
31
0
39
0
210
0
220
0
230
1
0
LINE
5
9A
100
AcDbEntity
8
1
62
256
6
ByLayer
370
35
48
1
60
0
100
AcDbLine
10
25.772487
20
-7.525438
30
0
11
25.518905
21
-7.525438
31
0
39
0
210
0
220
0
230
1
0
LINE
5
9B
100
AcDbEntity
8
1
62
256
6
ByLayer
370
35
48
1
60
0
100
AcDbLine
10
25.82005
20
-5.524016
30
0
11
25.533666
21
-5.524016
31
0
39
0
210
0
220
0
230
1
0
LINE
5
9C
100
AcDbEntity
8
1
62
256
6
ByLayer
370
35
48
1
60
0
100
AcDbLine
10
25.518669
20
-5.474562
30
0
11
25.772487
21
-5.474562
31
0
39
0
210
0
220
0
230
1
0
LINE
5
9D
100
AcDbEntity
8
SK1
62
256
6
ByLayer
370
18
48
1
60
0
100
AcDbLine
10
-16.5
20
-1.388675
30
0
11
-16.5
21
-2.910024
31
0
39
0
210
0
220
0
230
1
0
LINE
5
9F
100
AcDbEntity
8
SK1
62
256
6
ByLayer
370
18
48
1
60
0
100
AcDbLine
10
-16.5
20
-2.910024
30
0
11
-16.375883
21
-3.125
31
0
39
0
210
0
220
0
230
1
0
LINE
5
A0
100
AcDbEntity
8
SK1
62
256
6
ByLayer
370
18
48
1
60
0
100
AcDbLine
10
-16.5
20
2.910024
30
0
11
-16.5
21
1.388675
31
0
39
0
210
0
220
0
230
1
0
LINE
5
A1
100
AcDbEntity
8
SK1
62
256
6
ByLayer
370
18
48
1
60
0
100
AcDbLine
10
-16.375883
20
3.125
30
0
11
-16.5
21
2.910024
31
0
39
0
210
0
220
0
230
1
0
LINE
5
A2
100
AcDbEntity
8
SK1
62
256
6
ByLayer
370
18
48
1
60
0
100
AcDbLine
10
-11.566324
20
-3.075
30
0
11
-10.566324
21
-3.075
31
0
39
0
210
0
220
0
230
1
0
LINE
5
A3
100
AcDbEntity
8
SK1
62
256
6
ByLayer
370
18
48
1
60
0
100
AcDbLine
10
-10.566324
20
3.075
30
0
11
-11.566324
21
3.075
31
0
39
0
210
0
220
0
230
1
0
LINE
5
A4
100
AcDbEntity
8
SK1
62
256
6
ByLayer
370
18
48
1
60
0
100
AcDbLine
10
-15.7
20
-3.312051
30
0
11
-15.343
21
-3.375
31
0
39
0
210
0
220
0
230
1
0
LINE
5
A5
100
AcDbEntity
8
SK1
62
256
6
ByLayer
370
18
48
1
60
0
100
AcDbLine
10
-15.343
20
3.375
30
0
11
-15.7
21
3.312051
31
0
39
0
210
0
220
0
230
1
0
LINE
5
A6
100
AcDbEntity
8
SK1
62
256
6
ByLayer
370
18
48
1
60
0
100
AcDbLine
10
-15.7
20
1.1
30
0
11
-15.7
21
3.312051
31
0
39
0
210
0
220
0
230
1
0
LINE
5
A7
100
AcDbEntity
8
SK1
62
256
6
ByLayer
370
18
48
1
60
0
100
AcDbLine
10
-16.375883
20
3.125
30
0
11
-16.375883
21
1.317016
31
0
39
0
210
0
220
0
230
1
0
LINE
5
A8
100
AcDbEntity
8
SK1
62
256
6
ByLayer
370
18
48
1
60
0
100
AcDbLine
10
-16.375883
20
-3.125
30
0
11
-16.375883
21
-1.317016
31
0
39
0
210
0
220
0
230
1
0
LINE
5
A9
100
AcDbEntity
8
SK1
62
256
6
ByLayer
370
18
48
1
60
0
100
AcDbLine
10
-15.7
20
-1.1
30
0
11
-15.7
21
-3.312051
31
0
39
0
210
0
220
0
230
1
0
LINE
5
AA
100
AcDbEntity
8
1
62
256
6
ByLayer
370
18
48
1
60
0
100
AcDbLine
10
24.021283
20
-8
30
0
11
16.49155
21
-8
31
0
39
0
210
0
220
0
230
1
0
LINE
5
AB
100
AcDbEntity
8
SK1
62
256
6
ByLayer
370
18
48
1
60
0
100
AcDbLine
10
-15.343
20
1.1
30
0
11
-15.343
21
3.375
31
0
39
0
210
0
220
0
230
1
0
LINE
5
AC
100
AcDbEntity
8
SK1
62
256
6
ByLayer
370
18
48
1
60
0
100
AcDbLine
10
-14.75
20
1.1
30
0
11
-15.343
21
1.1
31
0
39
0
210
0
220
0
230
1
0
LINE
5
AD
100
AcDbEntity
8
SK1
62
256
6
ByLayer
370
18
48
1
60
0
100
AcDbLine
10
-13.5
20
1
30
0
11
-14.576795
21
1
31
0
39
0
210
0
220
0
230
1
0
LINE
5
AE
100
AcDbEntity
8
SK1
62
256
6
ByLayer
370
18
48
1
60
0
100
AcDbLine
10
-12.049898
20
0.1
30
0
11
-12.505013
21
0.1
31
0
39
0
210
0
220
0
230
1
0
LINE
5
AF
100
AcDbEntity
8
SK1
62
256
6
ByLayer
370
18
48
1
60
0
100
AcDbLine
10
-11.566324
20
0.49996
30
0
11
-11.566324
21
3.375
31
0
39
0
210
0
220
0
230
1
0
LINE
5
B0
100
AcDbEntity
8
SK1
62
256
6
ByLayer
370
18
48
1
60
0
100
AcDbLine
10
-11.566324
20
3.375
30
0
11
-15.343
21
3.375
31
0
39
0
210
0
220
0
230
1
0
LINE
5
B1
100
AcDbEntity
8
SK1
62
256
6
ByLayer
370
18
48
1
60
0
100
AcDbLine
10
-14.576795
20
-1
30
0
11
-13.5
21
-1
31
0
39
0
210
0
220
0
230
1
0
LINE
5
B2
100
AcDbEntity
8
SK1
62
256
6
ByLayer
370
18
48
1
60
0
100
AcDbLine
10
-15.343
20
-1.1
30
0
11
-14.75
21
-1.1
31
0
39
0
210
0
220
0
230
1
0
LINE
5
B3
100
AcDbEntity
8
SK1
62
256
6
ByLayer
370
18
48
1
60
0
100
AcDbLine
10
-15.343
20
-1.1
30
0
11
-15.343
21
-3.375
31
0
39
0
210
0
220
0
230
1
0
LINE
5
B4
100
AcDbEntity
8
SK1
62
256
6
ByLayer
370
18
48
1
60
0
100
AcDbLine
10
-11.566324
20
-0.49996
30
0
11
-11.566324
21
-3.375
31
0
39
0
210
0
220
0
230
1
0
LINE
5
B5
100
AcDbEntity
8
SK1
62
256
6
ByLayer
370
18
48
1
60
0
100
AcDbLine
10
-12.505013
20
-0.1
30
0
11
-12.049898
21
-0.1
31
0
39
0
210
0
220
0
230
1
0
LINE
5
B6
100
AcDbEntity
8
SK1
62
256
6
ByLayer
370
18
48
1
60
0
100
AcDbLine
10
-15.343
20
-3.375
30
0
11
-11.566324
21
-3.375
31
0
39
0
210
0
220
0
230
1
0
LINE
5
B7
100
AcDbEntity
8
1
62
256
6
ByLayer
370
18
48
1
60
0
100
AcDbLine
10
25.897836
20
-5.25
30
0
11
25.448802
21
-5.25
31
0
39
0
210
0
220
0
230
1
0
LINE
5
B8
100
AcDbEntity
8
1
62
256
6
ByLayer
370
18
48
1
60
0
100
AcDbLine
10
25.448802
20
-7.75
30
0
11
25.897836
21
-7.75
31
0
39
0
210
0
220
0
230
1
0
LINE
5
B9
100
AcDbEntity
8
1
62
256
6
ByLayer
370
18
48
1
60
0
100
AcDbLine
10
26.816232
20
-7.75
30
0
11
28.749474
21
-7.75
31
0
39
0
210
0
220
0
230
1
0
LINE
5
BA
100
AcDbEntity
8
1
62
256
6
ByLayer
370
18
48
1
60
0
100
AcDbLine
10
25.897836
20
-7.75
30
0
11
26.816232
21
-7.75
31
0
39
0
210
0
220
0
230
1
0
LINE
5
BB
100
AcDbEntity
8
1
62
256
6
ByLayer
370
18
48
1
60
0
100
AcDbLine
10
26.816232
20
-7.75
30
0
11
26.815282
21
-7.649984
31
0
39
0
210
0
220
0
230
1
0
LINE
5
BC
100
AcDbEntity
8
1
62
256
6
ByLayer
370
18
48
1
60
0
100
AcDbLine
10
25.897836
20
-7.75
30
0
11
25.896886
21
-7.649984
31
0
39
0
210
0
220
0
230
1
0
LINE
5
BD
100
AcDbEntity
8
1
62
256
6
ByLayer
370
18
48
1
60
0
100
AcDbLine
10
26.816232
20
-5.25
30
0
11
25.897836
21
-5.25
31
0
39
0
210
0
220
0
230
1
0
LINE
5
BE
100
AcDbEntity
8
1
62
256
6
ByLayer
370
18
48
1
60
0
100
AcDbLine
10
25.896886
20
-5.350016
30
0
11
25.897836
21
-5.25
31
0
39
0
210
0
220
0
230
1
0
LINE
5
BF
100
AcDbEntity
8
1
62
256
6
ByLayer
370
18
48
1
60
0
100
AcDbLine
10
28.749474
20
-5.25
30
0
11
26.816232
21
-5.25
31
0
39
0
210
0
220
0
230
1
0
LINE
5
C0
100
AcDbEntity
8
1
62
256
6
ByLayer
370
18
48
1
60
0
100
AcDbLine
10
26.815282
20
-5.350016
30
0
11
26.816232
21
-5.25
31
0
39
0
210
0
220
0
230
1
0
LINE
5
C1
100
AcDbEntity
8
SK1
62
256
6
ByLayer
370
18
48
1
60
0
100
AcDbLine
10
-0.1
20
4.69
30
0
11
-0.999897
21
4.69
31
0
39
0
210
0
220
0
230
1
0
LINE
5
C2
100
AcDbEntity
8
SK1
62
256
6
ByLayer
370
18
48
1
60
0
100
AcDbLine
10
-0.999897
20
-4.69
30
0
11
-0.1
21
-4.69
31
0
39
0
210
0
220
0
230
1
0
LINE
5
C3
100
AcDbEntity
8
SK1
62
256
6
ByLayer
370
18
48
1
60
0
100
AcDbLine
10
-10.566324
20
0
30
0
11
-10.566324
21
-3.515
31
0
39
0
210
0
220
0
230
1
0
LINE
5
C4
100
AcDbEntity
8
SK1
62
256
6
ByLayer
370
18
48
1
60
0
100
AcDbLine
10
-10.566324
20
-3.515
30
0
11
-7.303138
21
-3.973611
31
0
39
0
210
0
220
0
230
1
0
LINE
5
C5
100
AcDbEntity
8
SK1
62
256
6
ByLayer
370
18
48
1
60
0
100
AcDbLine
10
-2.178411
20
-4.693844
30
0
11
-1.25
21
-4.824324
31
0
39
0
210
0
220
0
230
1
0
LINE
5
C6
100
AcDbEntity
8
SK1
62
256
6
ByLayer
370
18
48
1
60
0
100
AcDbLine
10
-10.566324
20
0
30
0
11
-10.566324
21
3.515
31
0
39
0
210
0
220
0
230
1
0
LINE
5
C7
100
AcDbEntity
8
SK1
62
256
6
ByLayer
370
18
48
1
60
0
100
AcDbLine
10
-1.25
20
4.824324
30
0
11
-2.178411
21
4.693844
31
0
39
0
210
0
220
0
230
1
0
LINE
5
C8
100
AcDbEntity
8
SK1
62
256
6
ByLayer
370
18
48
1
60
0
100
AcDbLine
10
-7.303138
20
3.973611
30
0
11
-10.566324
21
3.515
31
0
39
0
210
0
220
0
230
1
0
LINE
5
C9
100
AcDbEntity
8
SK1
62
256
6
ByLayer
370
18
48
1
60
0
100
AcDbLine
10
-0.999897
20
0
30
0
11
-0.999897
21
-4.69
31
0
39
0
210
0
220
0
230
1
0
LINE
5
CA
100
AcDbEntity
8
SK1
62
256
6
ByLayer
370
18
48
1
60
0
100
AcDbLine
10
-1.25
20
0
30
0
11
-1.25
21
-4.824324
31
0
39
0
210
0
220
0
230
1
0
LINE
5
CB
100
AcDbEntity
8
SK1
62
256
6
ByLayer
370
18
48
1
60
0
100
AcDbLine
10
-1.25
20
0
30
0
11
-1.25
21
4.824324
31
0
39
0
210
0
220
0
230
1
0
LINE
5
CC
100
AcDbEntity
8
SK1
62
256
6
ByLayer
370
18
48
1
60
0
100
AcDbLine
10
-0.999897
20
0
30
0
11
-0.999897
21
4.69
31
0
39
0
210
0
220
0
230
1
0
LINE
5
CD
100
AcDbEntity
8
SK1
62
256
6
ByLayer
370
18
48
1
60
0
100
AcDbLine
10
-0.1
20
0
30
0
11
-0.1
21
-4.69
31
0
39
0
210
0
220
0
230
1
0
LINE
5
CE
100
AcDbEntity
8
SK1
62
256
6
ByLayer
370
18
48
1
60
0
100
AcDbLine
10
-0.1
20
0
30
0
11
-0.1
21
4.69
31
0
39
0
210
0
220
0
230
1
0
LINE
5
CF
100
AcDbEntity
8
1
62
256
6
ByLayer
370
18
48
1
60
0
100
AcDbLine
10
16.462685
20
-4.75
30
0
11
23.5
21
-4.75
31
0
39
0
210
0
220
0
230
1
0
LINE
5
D0
100
AcDbEntity
8
1
62
256
6
ByLayer
370
18
48
1
60
0
100
AcDbLine
10
23.5
20
-4.75
30
0
11
23.5
21
-0.804403
31
0
39
0
210
0
220
0
230
1
0
LINE
5
D1
100
AcDbEntity
8
1
62
256
6
ByLayer
370
18
48
1
60
0
100
AcDbLine
10
16.462646
20
3.258615
30
0
11
23.5
21
-0.804403
31
0
39
0
210
0
220
0
230
1
0
LINE
5
D2
100
AcDbEntity
8
1
62
256
6
ByLayer
370
18
48
1
60
0
100
AcDbLine
10
25.94997
20
-6.548819
30
0
11
25.94997
21
-6.451181
31
0
39
0
210
0
220
0
230
1
0
LINE
5
D3
100
AcDbEntity
8
1
62
256
6
ByLayer
370
18
48
1
60
0
100
AcDbLine
10
0
20
10
30
0
11
0
21
-8
31
0
39
0
210
0
220
0
230
1
0
LINE
5
D4
100
AcDbEntity
8
1
62
256
6
ByLayer
370
18
48
1
60
0
100
AcDbLine
10
0.1
20
-3.5
30
0
11
0.1
21
-8
31
0
39
0
210
0
220
0
230
1
0
LINE
5
D5
100
AcDbEntity
8
1
62
256
6
ByLayer
370
18
48
1
60
0
100
AcDbLine
10
16.491475
20
-8
30
0
11
0.1
21
-8
31
0
39
0
210
0
220
0
230
1
0
LINE
5
D6
100
AcDbEntity
8
1
62
256
6
ByLayer
370
18
48
1
60
0
100
AcDbLine
10
14.14951
20
-3.5
30
0
11
14.252371
21
-3.5
31
0
39
0
210
0
220
0
230
1
0
LINE
5
D7
100
AcDbEntity
8
1
62
256
6
ByLayer
370
18
48
1
60
0
100
AcDbLine
10
16.462639
20
-4.75
30
0
11
16.462639
21
3.258619
31
0
39
0
210
0
220
0
230
1
0
LINE
5
D8
100
AcDbEntity
8
1
62
256
6
ByLayer
370
18
48
1
60
0
100
AcDbLine
10
16.462639
20
3.258619
30
0
11
14.717009
21
4.266459
31
0
39
0
210
0
220
0
230
1
0
LINE
5
D9
100
AcDbEntity
8
1
62
256
6
ByLayer
370
18
48
1
60
0
100
AcDbLine
10
14.252371
20
-3.5
30
0
11
14.252371
21
-3.40093
31
0
39
0
210
0
220
0
230
1
0
LINE
5
DA
100
AcDbEntity
8
1
62
256
6
ByLayer
370
18
48
1
60
0
100
AcDbLine
10
16.556506
20
-7.932704
30
0
11
14.252371
21
-3.5
31
0
39
0
210
0
220
0
230
1
0
LINE
5
DB
100
AcDbEntity
8
1
62
256
6
ByLayer
370
18
48
1
60
0
100
AcDbLine
10
16.875957
20
-7.75
30
0
11
22.25
21
-7.75
31
0
39
0
210
0
220
0
230
1
0
LINE
5
DC
100
AcDbEntity
8
1
62
256
6
ByLayer
370
18
48
1
60
0
100
AcDbLine
10
22.25
20
-7.75
30
0
11
22.25
21
-5.25
31
0
39
0
210
0
220
0
230
1
0
LINE
5
DD
100
AcDbEntity
8
1
62
256
6
ByLayer
370
18
48
1
60
0
100
AcDbLine
10
22.25
20
-5.25
30
0
11
16.875957
21
-5.25
31
0
39
0
210
0
220
0
230
1
0
LINE
5
DE
100
AcDbEntity
8
1
62
256
6
ByLayer
370
18
48
1
60
0
100
AcDbLine
10
14.252371
20
1.90093
30
0
11
14.252371
21
3.5
31
0
39
0
210
0
220
0
230
1
0
LINE
5
DF
100
AcDbEntity
8
1
62
256
6
ByLayer
370
18
48
1
60
0
100
AcDbLine
10
0.1
20
3.5
30
0
11
0.1
21
-3.5
31
0
39
0
210
0
220
0
230
1
0
LINE
5
E0
100
AcDbEntity
8
1
62
256
6
ByLayer
370
18
48
1
60
0
100
AcDbLine
10
0.1
20
-3.5
30
0
11
9.05049
21
-3.5
31
0
39
0
210
0
220
0
230
1
0
LINE
5
E1
100
AcDbEntity
8
1
62
256
6
ByLayer
370
18
48
1
60
0
100
AcDbLine
10
14.252371
20
3.5
30
0
11
14.717009
21
4.266459
31
0
39
0
210
0
220
0
230
1
0
LINE
5
E2
100
AcDbEntity
8
1
62
256
6
ByLayer
370
18
48
1
60
0
100
AcDbLine
10
14.717009
20
4.266459
30
0
11
4.786225
21
10
31
0
39
0
210
0
220
0
230
1
0
LINE
5
E3
100
AcDbEntity
8
1
62
256
6
ByLayer
370
18
48
1
60
0
100
AcDbLine
10
0.1
20
10
30
0
11
4.786225
21
10
31
0
39
0
210
0
220
0
230
1
0
LINE
5
E4
100
AcDbEntity
8
1
62
256
6
ByLayer
370
18
48
1
60
0
100
AcDbLine
10
0.1
20
10
30
0
11
0.1
21
3.5
31
0
39
0
210
0
220
0
230
1
0
LINE
5
E5
100
AcDbEntity
8
1
62
256
6
ByLayer
370
18
48
1
60
0
100
AcDbLine
10
0.1
20
3.5
30
0
11
14.252371
21
3.5
31
0
39
0
210
0
220
0
230
1
0
LINE
5
E6
100
AcDbEntity
8
1
62
256
6
ByLayer
370
18
48
1
60
0
100
AcDbLine
10
22.25
20
-5.25
30
0
11
25.448802
21
-5.25
31
0
39
0
210
0
220
0
230
1
0
LINE
5
E7
100
AcDbEntity
8
1
62
256
6
ByLayer
370
18
48
1
60
0
100
AcDbLine
10
22.25
20
-7.75
30
0
11
25.448802
21
-7.75
31
0
39
0
210
0
220
0
230
1
0
MTEXT
5
14B
100
AcDbEntity
8
SK6
62
256
6
ByLayer
370
18
48
1
60
0
100
AcDbMText
10
-13.452636
20
-34.184746
30
0
210
0
220
0
230
1
1
\W0.7692;C2R-QSM16-LG17AD
40
3.5
41
0
44
1.084337
50
0
71
7
72
5
7
iso_b_vert
0
DIMENSION
5
150
100
AcDbEntity
8
2
62
256
6
ByLayer
370
18
48
1
60
0
100
AcDbDimension
2
_U0
10
32
20
-17.009298
30
0
11
16
21
-17.009298
31
0
70
32
71
1
72
1
41
1
210
0
220
0
230
1
3
Standard
100
AcDbAlignedDimension
13
0
23
-8
33
0
14
32
24
-8
34
0
50
0
100
AcDbRotatedDimension
1001
ACAD
1000
DSTYLE
1002
{
1070
   371
1070
    13
1070
   372
1070
    13
1070
   170
1070
     0
1070
   144
1040
1.0
1070
   277
1070
     2
1070
   284
1070
     8
1070
   278
1070
    46
1070
   146
1040
1.166667
1070
   345
1005
16
1070
   347
1005
16
1070
   346
1005
16
1070
   344
1005
0
1070
   343
1005
0
1070
   172
1070
     1
1070
    76
1070
     0
1070
    75
1070
     0
1070
   282
1070
     0
1070
   281
1070
     0
1070
    71
1070
     0
1070
    74
1070
     0
1070
   279
1070
     0
1070
   173
1070
     1
1070
   340
1005
14C
1070
   271
1070
     2
1070
   272
1070
     2
1070
    77
1070
     1
1070
    73
1070
     1
1070
   171
1070
     3
1070
   274
1070
     4
1070
   177
1070
     7
1070
   176
1070
     7
1070
   178
1070
     7
1070
    78
1070
     8
1070
    48
1040
-0.1
1070
    41
1040
3.175
1070
   147
1040
1.5
1070
    42
1040
1.5875
1070
    44
1040
2.0
1070
   140
1040
3.0
1002
}
1001
ACAD_DSTYLE_DIM_LINETYPE
1070
   380
1005
16
1001
ACAD_DSTYLE_DIM_EXT1_LINETYPE
1070
   381
1005
16
1001
ACAD_DSTYLE_DIM_EXT2_LINETYPE
1070
   382
1005
16
0
DIMENSION
5
16A
100
AcDbEntity
8
2
62
256
6
ByLayer
370
18
48
1
60
0
100
AcDbDimension
2
_U1
10
48.004126
20
-8
30
0
11
48.004126
21
-4
31
0
70
32
71
1
72
1
41
1
210
0
220
0
230
1
3
Standard
100
AcDbAlignedDimension
13
34
23
0
33
0
14
32
24
-8
34
0
50
90
100
AcDbRotatedDimension
1001
ACAD
1000
DSTYLE
1002
{
1070
   371
1070
    13
1070
   372
1070
    13
1070
   170
1070
     0
1070
   144
1040
1.0
1070
   277
1070
     2
1070
   284
1070
     8
1070
   278
1070
    46
1070
   146
1040
1.166667
1070
   345
1005
16
1070
   347
1005
16
1070
   346
1005
16
1070
   344
1005
0
1070
   343
1005
0
1070
   172
1070
     1
1070
    76
1070
     0
1070
    75
1070
     0
1070
   282
1070
     0
1070
   281
1070
     0
1070
    71
1070
     0
1070
    74
1070
     0
1070
   279
1070
     0
1070
   173
1070
     1
1070
   340
1005
14C
1070
   271
1070
     2
1070
   272
1070
     2
1070
    77
1070
     1
1070
    73
1070
     0
1070
   171
1070
     3
1070
   274
1070
     4
1070
   177
1070
     7
1070
   176
1070
     7
1070
   178
1070
     7
1070
    78
1070
     8
1070
    48
1040
-0.1
1070
    41
1040
3.175
1070
   147
1040
1.5
1070
    42
1040
1.5875
1070
    44
1040
2.0
1070
   140
1040
3.0
1002
}
1001
ACAD_DSTYLE_DIM_LINETYPE
1070
   380
1005
16
1001
ACAD_DSTYLE_DIM_EXT1_LINETYPE
1070
   381
1005
16
1001
ACAD_DSTYLE_DIM_EXT2_LINETYPE
1070
   382
1005
16
0
DIMENSION
5
183
100
AcDbEntity
8
SK2
62
256
6
ByLayer
370
18
48
1
60
0
100
AcDbDimension
2
_U2
10
-24.178306
20
-8
30
0
11
-24.178306
21
1
31
0
70
32
71
1
72
1
41
1
210
0
220
0
230
1
3
Standard
100
AcDbAlignedDimension
13
0
23
10
33
0
14
0
24
-8
34
0
50
90
100
AcDbRotatedDimension
1001
ACAD
1000
DSTYLE
1002
{
1070
   371
1070
    13
1070
   372
1070
    13
1070
   170
1070
     0
1070
   144
1040
1.0
1070
   277
1070
     2
1070
   284
1070
     8
1070
   278
1070
    46
1070
   146
1040
1.166667
1070
   345
1005
16
1070
   347
1005
16
1070
   346
1005
16
1070
   344
1005
0
1070
   343
1005
0
1070
   172
1070
     1
1070
    76
1070
     0
1070
    75
1070
     0
1070
   282
1070
     0
1070
   281
1070
     0
1070
    71
1070
     0
1070
    74
1070
     0
1070
   279
1070
     0
1070
   173
1070
     1
1070
   340
1005
14C
1070
   271
1070
     0
1070
   272
1070
     2
1070
    77
1070
     1
1070
    73
1070
     0
1070
   171
1070
     3
1070
   274
1070
     4
1070
   177
1070
     7
1070
   176
1070
     7
1070
   178
1070
     7
1070
    78
1070
     8
1070
    48
1040
-0.1
1070
    41
1040
3.175
1070
   147
1040
1.5
1070
    42
1040
1.5875
1070
    44
1040
2.0
1070
   140
1040
3.0
1002
}
1001
ACAD_DSTYLE_DIM_LINETYPE
1070
   380
1005
16
1001
ACAD_DSTYLE_DIM_EXT1_LINETYPE
1070
   381
1005
16
1001
ACAD_DSTYLE_DIM_EXT2_LINETYPE
1070
   382
1005
16
0
DIMENSION
5
19C
100
AcDbEntity
8
SK2
62
256
6
ByLayer
370
18
48
1
60
0
100
AcDbDimension
2
_U3
10
32
20
-25.190065
30
0
11
7.75
21
-25.190065
31
0
70
32
71
1
72
1
41
1
210
0
220
0
230
1
3
Standard
100
AcDbAlignedDimension
13
-16.5
23
-2.910024
33
0
14
32
24
-8
34
0
50
0
100
AcDbRotatedDimension
1001
ACAD
1000
DSTYLE
1002
{
1070
   371
1070
    13
1070
   372
1070
    13
1070
   170
1070
     0
1070
   144
1040
1.0
1070
   277
1070
     2
1070
   284
1070
     8
1070
   278
1070
    46
1070
   146
1040
1.166667
1070
   345
1005
16
1070
   347
1005
16
1070
   346
1005
16
1070
   344
1005
0
1070
   343
1005
0
1070
   172
1070
     1
1070
    76
1070
     0
1070
    75
1070
     0
1070
   282
1070
     0
1070
   281
1070
     0
1070
    71
1070
     0
1070
    74
1070
     0
1070
   279
1070
     0
1070
   173
1070
     1
1070
   340
1005
14C
1070
   271
1070
     2
1070
   272
1070
     2
1070
    77
1070
     1
1070
    73
1070
     1
1070
   171
1070
     3
1070
   274
1070
     4
1070
   177
1070
     7
1070
   176
1070
     7
1070
   178
1070
     7
1070
    78
1070
     8
1070
    48
1040
-0.1
1070
    41
1040
3.175
1070
   147
1040
1.5
1070
    42
1040
1.5875
1070
    44
1040
2.0
1070
   140
1040
3.0
1002
}
1001
ACAD_DSTYLE_DIM_LINETYPE
1070
   380
1005
16
1001
ACAD_DSTYLE_DIM_EXT1_LINETYPE
1070
   381
1005
16
1001
ACAD_DSTYLE_DIM_EXT2_LINETYPE
1070
   382
1005
16
0
DIMENSION
5
1B4
100
AcDbEntity
8
SK2
62
256
6
ByLayer
370
18
48
1
60
0
100
AcDbDimension
2
_U4
10
39.355256
20
-4.996849
30
0
11
39.355256
21
-19.85
31
0
70
32
71
1
72
1
41
1
210
0
220
0
230
1
3
Standard
100
AcDbAlignedDimension
13
32
23
-8
33
0
14
31.79999
24
-4.996849
34
0
50
90
100
AcDbRotatedDimension
1001
ACAD
1000
DSTYLE
1002
{
1070
   371
1070
    13
1070
   372
1070
    13
1070
   170
1070
     0
1070
   144
1040
1.0
1070
   277
1070
     2
1070
   284
1070
     8
1070
   278
1070
    46
1070
   146
1040
1.166667
1070
   345
1005
16
1070
   347
1005
16
1070
   346
1005
16
1070
   344
1005
0
1070
   343
1005
0
1070
   172
1070
     1
1070
    76
1070
     0
1070
    75
1070
     0
1070
   282
1070
     0
1070
   281
1070
     0
1070
    71
1070
     0
1070
    74
1070
     0
1070
   279
1070
     0
1070
   173
1070
     1
1070
   340
1005
14C
1070
   271
1070
     2
1070
   272
1070
     2
1070
    77
1070
     1
1070
    73
1070
     0
1070
   171
1070
     3
1070
   274
1070
     4
1070
   177
1070
     7
1070
   176
1070
     7
1070
   178
1070
     7
1070
    78
1070
     8
1070
    48
1040
-0.1
1070
    41
1040
3.175
1070
   147
1040
1.5
1070
    42
1040
1.5875
1070
    44
1040
2.0
1070
   140
1040
3.0
1002
}
1001
ACAD_DSTYLE_DIM_LINETYPE
1070
   380
1005
16
1001
ACAD_DSTYLE_DIM_EXT1_LINETYPE
1070
   381
1005
16
1001
ACAD_DSTYLE_DIM_EXT2_LINETYPE
1070
   382
1005
16
0
ENDSEC
0
SECTION
2
OBJECTS
0
DICTIONARY
5
23e
330
0
100
AcDbDictionary
280
0
281
1
3
ACAD_GROUP
350
23f
3
ACAD_MLINESTYLE
350
240
0
DICTIONARY
5
23f
330
0
100
AcDbDictionary
280
0
281
1
0
DICTIONARY
5
240
330
0
100
AcDbDictionary
280
0
281
1
3
Standard
350
18
0
MLINESTYLE
5
18
330
240
100
AcDbMlineStyle
2
Standard
70
0
3

62
256
51
90
52
90
71
2
49
-0.5
62
256
6
ByLayer
49
0.5
62
256
6
ByLayer
0
RASTERVARIABLES
5
22c
330

100
AcDbRasterVariables
90
0
70
1
71
1
72
1
0
ENDSEC
0
EOF
