0
SECTION
2
HEADER
9
$ACADVER
1
AC1015
9
$DWGCODEPAGE
3
ANSI_1252
9
$HANDSEED
5
248
9
$ANGBASE
50
0
9
$ANGDIR
70
0
9
$ATTMODE
70
1
9
$AUNITS
70
0
9
$AUPREC
70
0
9
$CECOLOR
62
256
9
$CELTSCALE
40
1
9
$CELTYPE
6
ByLayer
9
$CELWEIGHT
370
18
9
$CLAYER
8
0
9
$CMLJUST
70
0
9
$CMLSCALE
40
1
9
$CMLSTYLE
2
Standard
9
$DIMSTYLE
2
Standard
9
$TEXTSIZE
40
0.2
9
$TEXTSTYLE
7
Standard
9
$LUNITS
70
2
9
$LUPREC
70
4
9
$EXTNAMES
290
1
9
$INSUNITS
70
4
9
$LTSCALE
40
1
9
$LWDISPLAY
290
1
9
$PDMODE
70
0
9
$PDSIZE
40
0
9
$PLINEGEN
70
0
0
ENDSEC
0
SECTION
2
CLASSES
0
CLASS
1
RASTERVARIABLES
2
AcDbRasterVariables
3
ISM
90
0
280
0
281
0
0
ENDSEC
0
SECTION
2
TABLES
0
TABLE
2
VPORT
5
23e
100
AcDbSymbolTable
0
VPORT
5
1
100
AcDbSymbolTableRecord
100
AcDbViewportTableRecord
2
*Active
70
0
10
0
20
0
11
1
21
1
12
-1
22
1
13
0
23
0
14
0.5
24
0.5
15
10
25
10
16
0
26
0
36
1
17
0
27
0
37
0
0
ENDTAB
0
TABLE
2
LTYPE
5
23f
100
AcDbSymbolTable
0
LTYPE
5
14
100
AcDbSymbolTableRecord
100
AcDbLinetypeTableRecord
70
0
2
ByBlock
3

72
65
73
0
40
0
0
LTYPE
5
15
100
AcDbSymbolTableRecord
100
AcDbLinetypeTableRecord
70
0
2
ByLayer
3

72
65
73
0
40
0
0
LTYPE
5
16
100
AcDbSymbolTableRecord
100
AcDbLinetypeTableRecord
70
0
2
Continuous
3
Solid line
72
65
73
0
40
0
0
LTYPE
5
6E
100
AcDbSymbolTableRecord
100
AcDbLinetypeTableRecord
70
0
2
CENTER
3
____ _ ____ _ ____ _ ____
72
65
73
4
40
47.5
49
22
74
0
49
-8.5
74
0
49
8.5
74
0
49
-8.5
74
0
0
LTYPE
5
6F
100
AcDbSymbolTableRecord
100
AcDbLinetypeTableRecord
70
0
2
DASHED
3
__ __ __ __ __ __ __ __ __
72
65
73
2
40
25.72
49
12.86
74
0
49
-12.86
74
0
0
ENDTAB
0
TABLE
2
LAYER
5
240
100
AcDbSymbolTable
0
LAYER
5
10
100
AcDbSymbolTableRecord
100
AcDbLayerTableRecord
2
0
70
0
62
7
6
Continuous
290
1
370
-3
390
0
0
LAYER
5
71
100
AcDbSymbolTableRecord
100
AcDbLayerTableRecord
2
81
70
0
62
-3
6
Continuous
290
1
370
-3
390
0
0
LAYER
5
73
100
AcDbSymbolTableRecord
100
AcDbLayerTableRecord
2
80
70
0
62
-6
6
Continuous
290
1
370
-3
390
0
0
LAYER
5
77
100
AcDbSymbolTableRecord
100
AcDbLayerTableRecord
2
4
70
0
62
-2
6
CENTER
290
1
370
-3
390
0
0
LAYER
5
7B
100
AcDbSymbolTableRecord
100
AcDbLayerTableRecord
2
1
70
0
62
4
6
Continuous
290
1
370
-3
390
0
0
LAYER
5
150
100
AcDbSymbolTableRecord
100
AcDbLayerTableRecord
2
Defpoints
70
0
62
7
6
Continuous
290
0
370
-3
390
0
0
LAYER
5
15D
100
AcDbSymbolTableRecord
100
AcDbLayerTableRecord
2
2
70
0
62
7
6
Continuous
290
1
370
-3
390
0
0
LAYER
5
22a
100
AcDbSymbolTableRecord
100
AcDbLayerTableRecord
2
SK4
70
0
62
2
6
CENTER
290
1
370
-3
390
0
0
LAYER
5
22b
100
AcDbSymbolTableRecord
100
AcDbLayerTableRecord
2
SK1
70
0
62
4
6
Continuous
290
1
370
-3
390
0
0
LAYER
5
22c
100
AcDbSymbolTableRecord
100
AcDbLayerTableRecord
2
SK6
70
0
62
5
6
Continuous
290
1
370
-3
390
0
0
LAYER
5
22d
100
AcDbSymbolTableRecord
100
AcDbLayerTableRecord
2
SK2
70
0
62
7
6
Continuous
290
1
370
-3
390
0
0
ENDTAB
0
TABLE
2
STYLE
5
241
100
AcDbSymbolTable
0
STYLE
5
11
100
AcDbSymbolTableRecord
100
AcDbTextStyleTableRecord
2
Standard
3
txt
70
0
71
0
40
0
41
1
42
0
50
0
0
STYLE
5
149
100
AcDbSymbolTableRecord
100
AcDbTextStyleTableRecord
2
iso_b_vert
3
simplex.shx
70
0
71
0
40
0
41
1
42
0
50
0
0
STYLE
5
14A
100
AcDbSymbolTableRecord
100
AcDbTextStyleTableRecord
2
DWGDirectTextStyle
3
simplex
70
0
71
0
40
0
41
1
42
0
50
0
0
ENDTAB
0
TABLE
2
DIMSTYLE
5
242
100
AcDbSymbolTable
100
AcDbDimStyleTable
0
DIMSTYLE
105
27
100
AcDbSymbolTableRecord
100
AcDbDimStyleTableRecord
2
Standard
70
0
3
<>
41
0.18
42
0.0625
44
0.18
140
0.18
147
0.09
73
0
74
0
77
1
271
2
275
0
278
52
280
0
340
11
0
ENDTAB
0
TABLE
2
VIEW
5
243
100
AcDbSymbolTable
0
ENDTAB
0
TABLE
2
UCS
5
244
100
AcDbSymbolTable
0
ENDTAB
0
TABLE
2
APPID
5
245
100
AcDbSymbolTable
0
APPID
5
12
100
AcDbSymbolTableRecord
100
AcDbRegAppTableRecord
2
ACAD
70
0
0
APPID
5
14C
100
AcDbSymbolTableRecord
100
AcDbRegAppTableRecord
2
ACAD_DSTYLE_DIMBREAK
70
0
0
APPID
5
1E9
100
AcDbSymbolTableRecord
100
AcDbRegAppTableRecord
2
ACAD_DSTYLE_DIM_LINETYPE
70
0
0
APPID
5
1EA
100
AcDbSymbolTableRecord
100
AcDbRegAppTableRecord
2
ACAD_DSTYLE_DIM_EXT1_LINETYPE
70
0
0
APPID
5
1EB
100
AcDbSymbolTableRecord
100
AcDbRegAppTableRecord
2
ACAD_DSTYLE_DIM_EXT2_LINETYPE
70
0
0
APPID
5
226
100
AcDbSymbolTableRecord
100
AcDbRegAppTableRecord
2
ACAD_MLEADERVER
70
0
0
ENDTAB
0
TABLE
2
BLOCK_RECORD
5
246
100
AcDbSymbolTable
0
BLOCK_RECORD
5
1F
100
AcDbSymbolTableRecord
100
AcDbBlockTableRecord
2
*Model_Space
340
0
70
0
0
BLOCK_RECORD
5
1B
100
AcDbSymbolTableRecord
100
AcDbBlockTableRecord
2
*Paper_Space
340
0
70
0
0
BLOCK_RECORD
5
23
100
AcDbSymbolTableRecord
100
AcDbBlockTableRecord
2
*Paper_Space0
340
0
70
0
0
BLOCK_RECORD
5
151
100
AcDbSymbolTableRecord
100
AcDbBlockTableRecord
2
*D1
340
0
70
0
0
BLOCK_RECORD
5
15E
100
AcDbSymbolTableRecord
100
AcDbBlockTableRecord
2
_U0
340
0
70
0
0
BLOCK_RECORD
5
16A
100
AcDbSymbolTableRecord
100
AcDbBlockTableRecord
2
*D3
340
0
70
0
0
BLOCK_RECORD
5
177
100
AcDbSymbolTableRecord
100
AcDbBlockTableRecord
2
_U1
340
0
70
0
0
BLOCK_RECORD
5
183
100
AcDbSymbolTableRecord
100
AcDbBlockTableRecord
2
*D5
340
0
70
0
0
BLOCK_RECORD
5
190
100
AcDbSymbolTableRecord
100
AcDbBlockTableRecord
2
_U2
340
0
70
0
0
BLOCK_RECORD
5
19C
100
AcDbSymbolTableRecord
100
AcDbBlockTableRecord
2
*D7
340
0
70
0
0
BLOCK_RECORD
5
1A8
100
AcDbSymbolTableRecord
100
AcDbBlockTableRecord
2
_U3
340
0
70
0
0
BLOCK_RECORD
5
1B4
100
AcDbSymbolTableRecord
100
AcDbBlockTableRecord
2
*D9
340
0
70
0
0
BLOCK_RECORD
5
1C2
100
AcDbSymbolTableRecord
100
AcDbBlockTableRecord
2
_U4
340
0
70
0
0
ENDTAB
0
ENDSEC
0
SECTION
2
BLOCKS
0
BLOCK
5
20
100
AcDbEntity
8
0
100
AcDbBlockBegin
2
*Model_Space
70
0
10
0
20
0
30
0
3
*Model_Space
0
ENDBLK
5
21
100
AcDbEntity
8
0
100
AcDbBlockEnd
0
BLOCK
5
1C
100
AcDbEntity
8
0
100
AcDbBlockBegin
2
*Paper_Space
70
0
10
0
20
0
30
0
3
*Paper_Space
0
ENDBLK
5
1D
100
AcDbEntity
8
0
100
AcDbBlockEnd
0
BLOCK
5
24
100
AcDbEntity
8
0
100
AcDbBlockBegin
2
*Paper_Space0
70
0
10
0
20
0
30
0
3
*Paper_Space0
0
ENDBLK
5
25
100
AcDbEntity
8
0
100
AcDbBlockEnd
0
BLOCK
5
152
100
AcDbEntity
8
0
100
AcDbBlockBegin
2
*D1
70
1
10
0
20
0
30
0
3
*D1
0
LINE
5
154
100
AcDbEntity
8
0
62
256
6
ByLayer
370
-2
48
1
60
0
100
AcDbLine
10
0
20
-11.5875
30
0
11
0
21
-17.130995
31
0
39
0
210
0
220
0
230
1
0
LINE
5
155
100
AcDbEntity
8
0
62
256
6
ByLayer
370
-2
48
1
60
0
100
AcDbLine
10
28
20
4.4125
30
0
11
28
21
-17.130995
31
0
39
0
210
0
220
0
230
1
0
LINE
5
156
100
AcDbEntity
8
0
62
256
6
ByLayer
370
-2
48
1
60
0
100
AcDbLine
10
3.175
20
-15.130995
30
0
11
24.825
21
-15.130995
31
0
39
0
210
0
220
0
230
1
0
SOLID
5
157
100
AcDbEntity
8
0
62
256
6
ByLayer
370
-1
48
1
60
0
100
AcDbTrace
10
3.175
20
-14.601828
30
0
11
3.175
21
-15.660161
31
0
12
0
22
-15.130995
32
0
13
0
23
-15.130995
33
0
39
0
210
0
220
0
230
1
0
SOLID
5
158
100
AcDbEntity
8
0
62
256
6
ByLayer
370
-1
48
1
60
0
100
AcDbTrace
10
24.825
20
-15.660161
30
0
11
24.825
21
-14.601828
31
0
12
28
22
-15.130995
32
0
13
28
23
-15.130995
33
0
39
0
210
0
220
0
230
1
0
MTEXT
5
159
100
AcDbEntity
8
0
62
256
6
ByLayer
370
18
48
1
60
0
100
AcDbMText
10
14
20
-9.130995
30
0
210
0
220
0
230
1
1
\A1;28
40
3
41
0
44
1
50
0
71
5
72
5
7
iso_b_vert
0
POINT
5
15A
100
AcDbEntity
8
Defpoints
62
0
6
ByLayer
370
-1
48
1
60
0
100
AcDbPoint
10
0
20
-10
30
0
39
0
210
0
220
0
230
1
50
360
0
POINT
5
15B
100
AcDbEntity
8
Defpoints
62
0
6
ByLayer
370
-1
48
1
60
0
100
AcDbPoint
10
28
20
6
30
0
39
0
210
0
220
0
230
1
50
360
0
POINT
5
15C
100
AcDbEntity
8
Defpoints
62
0
6
ByLayer
370
-1
48
1
60
0
100
AcDbPoint
10
28
20
-15.130995
30
0
39
0
210
0
220
0
230
1
50
360
0
ENDBLK
5
153
100
AcDbEntity
8
0
100
AcDbBlockEnd
0
BLOCK
5
165
100
AcDbEntity
8
0
100
AcDbBlockBegin
2
_U0
70
0
10
0
20
0
30
0
3
_U0
0
MTEXT
5
15F
100
AcDbEntity
8
2
62
256
6
ByLayer
370
18
48
1
60
0
100
AcDbMText
10
12.367172
20
-14.24588
30
0
210
0
220
0
230
1
1
\W0.6740;28
40
3
41
0
44
1.084337
50
0
71
7
72
5
7
iso_b_vert
0
LINE
5
160
100
AcDbEntity
8
2
62
256
6
ByLayer
370
13
48
1
60
0
100
AcDbLine
10
0
20
-11.5875
30
0
11
0
21
-17.130995
31
0
39
0
210
0
220
0
230
1
0
LINE
5
161
100
AcDbEntity
8
2
62
256
6
ByLayer
370
13
48
1
60
0
100
AcDbLine
10
28
20
4.4125
30
0
11
28
21
-17.130995
31
0
39
0
210
0
220
0
230
1
0
LINE
5
162
100
AcDbEntity
8
2
62
256
6
ByLayer
370
13
48
1
60
0
100
AcDbLine
10
0
20
-15.130995
30
0
11
28
21
-15.130995
31
0
39
0
210
0
220
0
230
1
0
SOLID
5
163
100
AcDbEntity
8
2
62
256
6
ByLayer
370
18
48
1
60
0
100
AcDbTrace
10
0
20
-15.130995
30
0
11
3.174998
21
-14.712998
31
0
12
3.175002
22
-15.548991
32
0
13
3.175002
23
-15.548991
33
0
39
0
210
0
220
0
230
1
0
SOLID
5
164
100
AcDbEntity
8
2
62
256
6
ByLayer
370
18
48
1
60
0
100
AcDbTrace
10
28
20
-15.130995
30
0
11
24.825002
21
-15.548991
31
0
12
24.824998
22
-14.712998
32
0
13
24.824998
23
-14.712998
33
0
39
0
210
0
220
0
230
1
0
ENDBLK
5
166
100
AcDbEntity
8
0
100
AcDbBlockEnd
0
BLOCK
5
16B
100
AcDbEntity
8
0
100
AcDbBlockBegin
2
*D3
70
1
10
0
20
0
30
0
3
*D3
0
LINE
5
16D
100
AcDbEntity
8
0
62
256
6
ByLayer
370
-2
48
1
60
0
100
AcDbLine
10
31.5875
20
0
30
0
11
47.071433
21
0
31
0
39
0
210
0
220
0
230
1
0
LINE
5
16E
100
AcDbEntity
8
0
62
256
6
ByLayer
370
-2
48
1
60
0
100
AcDbLine
10
29.5875
20
6
30
0
11
47.071433
21
6
31
0
39
0
210
0
220
0
230
1
0
LINE
5
16F
100
AcDbEntity
8
0
62
256
6
ByLayer
370
-2
48
1
60
0
100
AcDbLine
10
45.071433
20
-3.175
30
0
11
45.071433
21
-6.35
31
0
39
0
210
0
220
0
230
1
0
LINE
5
170
100
AcDbEntity
8
0
62
256
6
ByLayer
370
-2
48
1
60
0
100
AcDbLine
10
45.071433
20
9.175
30
0
11
45.071433
21
12.35
31
0
39
0
210
0
220
0
230
1
0
SOLID
5
171
100
AcDbEntity
8
0
62
256
6
ByLayer
370
-1
48
1
60
0
100
AcDbTrace
10
45.600599
20
-3.175
30
0
11
44.542266
21
-3.175
31
0
12
45.071433
22
0
32
0
13
45.071433
23
0
33
0
39
0
210
0
220
0
230
1
0
SOLID
5
172
100
AcDbEntity
8
0
62
256
6
ByLayer
370
-1
48
1
60
0
100
AcDbTrace
10
44.542266
20
9.175
30
0
11
45.600599
21
9.175
31
0
12
45.071433
22
6
32
0
13
45.071433
23
6
33
0
39
0
210
0
220
0
230
1
0
MTEXT
5
173
100
AcDbEntity
8
0
62
256
6
ByLayer
370
18
48
1
60
0
100
AcDbMText
10
39.071433
20
3
30
0
210
0
220
0
230
1
1
\A1;6
40
3
41
0
44
1
50
90
71
5
72
5
7
iso_b_vert
0
POINT
5
174
100
AcDbEntity
8
Defpoints
62
0
6
ByLayer
370
-1
48
1
60
0
100
AcDbPoint
10
30
20
0
30
0
39
0
210
0
220
0
230
1
50
360
0
POINT
5
175
100
AcDbEntity
8
Defpoints
62
0
6
ByLayer
370
-1
48
1
60
0
100
AcDbPoint
10
28
20
6
30
0
39
0
210
0
220
0
230
1
50
360
0
POINT
5
176
100
AcDbEntity
8
Defpoints
62
0
6
ByLayer
370
-1
48
1
60
0
100
AcDbPoint
10
45.071433
20
6
30
0
39
0
210
0
220
0
230
1
50
360
0
ENDBLK
5
16C
100
AcDbEntity
8
0
100
AcDbBlockEnd
0
BLOCK
5
17E
100
AcDbEntity
8
0
100
AcDbBlockBegin
2
_U1
70
0
10
0
20
0
30
0
3
_U1
0
MTEXT
5
178
100
AcDbEntity
8
2
62
256
6
ByLayer
370
18
48
1
60
0
100
AcDbMText
10
44.480318
20
2.464086
30
0
210
0
220
0
230
1
1
\W0.5404;6
40
3
41
0
44
1.084337
50
90
71
7
72
5
7
iso_b_vert
0
LINE
5
179
100
AcDbEntity
8
2
62
256
6
ByLayer
370
13
48
1
60
0
100
AcDbLine
10
31.5875
20
0
30
0
11
47.071433
21
0
31
0
39
0
210
0
220
0
230
1
0
LINE
5
17A
100
AcDbEntity
8
2
62
256
6
ByLayer
370
13
48
1
60
0
100
AcDbLine
10
31.5875
20
6
30
0
11
47.071433
21
6
31
0
39
0
210
0
220
0
230
1
0
LINE
5
17B
100
AcDbEntity
8
2
62
256
6
ByLayer
370
13
48
1
60
0
100
AcDbLine
10
45.071433
20
-7.5
30
0
11
45.071433
21
13.5
31
0
39
0
210
0
220
0
230
1
0
SOLID
5
17C
100
AcDbEntity
8
2
62
256
6
ByLayer
370
18
48
1
60
0
100
AcDbTrace
10
45.071433
20
0
30
0
11
45.48943
21
-3.174998
31
0
12
44.653436
22
-3.175002
32
0
13
44.653436
23
-3.175002
33
0
39
0
210
0
220
0
230
1
0
SOLID
5
17D
100
AcDbEntity
8
2
62
256
6
ByLayer
370
18
48
1
60
0
100
AcDbTrace
10
45.071433
20
6
30
0
11
44.653436
21
9.174998
31
0
12
45.48943
22
9.175002
32
0
13
45.48943
23
9.175002
33
0
39
0
210
0
220
0
230
1
0
ENDBLK
5
17F
100
AcDbEntity
8
0
100
AcDbBlockEnd
0
BLOCK
5
184
100
AcDbEntity
8
0
100
AcDbBlockBegin
2
*D5
70
1
10
0
20
0
30
0
3
*D5
0
LINE
5
186
100
AcDbEntity
8
0
62
256
6
ByLayer
370
-2
48
1
60
0
100
AcDbLine
10
-1.5875
20
6
30
0
11
-22.823225
21
6
31
0
39
0
210
0
220
0
230
1
0
LINE
5
187
100
AcDbEntity
8
0
62
256
6
ByLayer
370
-2
48
1
60
0
100
AcDbLine
10
-1.5875
20
-10
30
0
11
-22.823225
21
-10
31
0
39
0
210
0
220
0
230
1
0
LINE
5
188
100
AcDbEntity
8
0
62
256
6
ByLayer
370
-2
48
1
60
0
100
AcDbLine
10
-20.823225
20
2.825
30
0
11
-20.823225
21
-6.825
31
0
39
0
210
0
220
0
230
1
0
SOLID
5
189
100
AcDbEntity
8
0
62
256
6
ByLayer
370
-1
48
1
60
0
100
AcDbTrace
10
-20.294058
20
2.825
30
0
11
-21.352391
21
2.825
31
0
12
-20.823225
22
6
32
0
13
-20.823225
23
6
33
0
39
0
210
0
220
0
230
1
0
SOLID
5
18A
100
AcDbEntity
8
0
62
256
6
ByLayer
370
-1
48
1
60
0
100
AcDbTrace
10
-21.352391
20
-6.825
30
0
11
-20.294058
21
-6.825
31
0
12
-20.823225
22
-10
32
0
13
-20.823225
23
-10
33
0
39
0
210
0
220
0
230
1
0
MTEXT
5
18B
100
AcDbEntity
8
0
62
256
6
ByLayer
370
18
48
1
60
0
100
AcDbMText
10
-26.823225
20
-2
30
0
210
0
220
0
230
1
1
\A1;16
40
3
41
0
44
1
50
90
71
5
72
5
7
iso_b_vert
0
POINT
5
18C
100
AcDbEntity
8
Defpoints
62
0
6
ByLayer
370
-1
48
1
60
0
100
AcDbPoint
10
0
20
6
30
0
39
0
210
0
220
0
230
1
50
360
0
POINT
5
18D
100
AcDbEntity
8
Defpoints
62
0
6
ByLayer
370
-1
48
1
60
0
100
AcDbPoint
10
0
20
-10
30
0
39
0
210
0
220
0
230
1
50
360
0
POINT
5
18E
100
AcDbEntity
8
Defpoints
62
0
6
ByLayer
370
-1
48
1
60
0
100
AcDbPoint
10
-20.823225
20
-10
30
0
39
0
210
0
220
0
230
1
50
360
0
ENDBLK
5
185
100
AcDbEntity
8
0
100
AcDbBlockEnd
0
BLOCK
5
197
100
AcDbEntity
8
0
100
AcDbBlockBegin
2
_U2
70
0
10
0
20
0
30
0
3
_U2
0
MTEXT
5
191
100
AcDbEntity
8
SK2
62
256
6
ByLayer
370
18
48
1
60
0
100
AcDbMText
10
-21.414339
20
-3.281885
30
0
210
0
220
0
230
1
1
\W0.5321;16
40
3
41
0
44
1.084337
50
90
71
7
72
5
7
iso_b_vert
0
LINE
5
192
100
AcDbEntity
8
SK2
62
256
6
ByLayer
370
13
48
1
60
0
100
AcDbLine
10
-1.5875
20
6
30
0
11
-22.823225
21
6
31
0
39
0
210
0
220
0
230
1
0
LINE
5
193
100
AcDbEntity
8
SK2
62
256
6
ByLayer
370
13
48
1
60
0
100
AcDbLine
10
-1.5875
20
-10
30
0
11
-22.823225
21
-10
31
0
39
0
210
0
220
0
230
1
0
LINE
5
194
100
AcDbEntity
8
SK2
62
256
6
ByLayer
370
13
48
1
60
0
100
AcDbLine
10
-20.823225
20
6
30
0
11
-20.823225
21
-10
31
0
39
0
210
0
220
0
230
1
0
SOLID
5
195
100
AcDbEntity
8
SK2
62
256
6
ByLayer
370
18
48
1
60
0
100
AcDbTrace
10
-20.823225
20
6
30
0
11
-20.405228
21
2.825002
31
0
12
-21.241221
22
2.824998
32
0
13
-21.241221
23
2.824998
33
0
39
0
210
0
220
0
230
1
0
SOLID
5
196
100
AcDbEntity
8
SK2
62
256
6
ByLayer
370
18
48
1
60
0
100
AcDbTrace
10
-20.823225
20
-10
30
0
11
-21.241221
21
-6.825002
31
0
12
-20.405228
22
-6.824998
32
0
13
-20.405228
23
-6.824998
33
0
39
0
210
0
220
0
230
1
0
ENDBLK
5
198
100
AcDbEntity
8
0
100
AcDbBlockEnd
0
BLOCK
5
19D
100
AcDbEntity
8
0
100
AcDbBlockBegin
2
*D7
70
1
10
0
20
0
30
0
3
*D7
0
LINE
5
19F
100
AcDbEntity
8
0
62
256
6
ByLayer
370
-2
48
1
60
0
100
AcDbLine
10
-16.5
20
-4.497524
30
0
11
-16.5
21
-27.190065
31
0
39
0
210
0
220
0
230
1
0
LINE
5
1A0
100
AcDbEntity
8
0
62
256
6
ByLayer
370
-2
48
1
60
0
100
AcDbLine
10
28
20
4.4125
30
0
11
28
21
-27.190065
31
0
39
0
210
0
220
0
230
1
0
LINE
5
1A1
100
AcDbEntity
8
0
62
256
6
ByLayer
370
-2
48
1
60
0
100
AcDbLine
10
-13.325
20
-25.190065
30
0
11
24.825
21
-25.190065
31
0
39
0
210
0
220
0
230
1
0
SOLID
5
1A2
100
AcDbEntity
8
0
62
256
6
ByLayer
370
-1
48
1
60
0
100
AcDbTrace
10
-13.325
20
-24.660899
30
0
11
-13.325
21
-25.719232
31
0
12
-16.5
22
-25.190065
32
0
13
-16.5
23
-25.190065
33
0
39
0
210
0
220
0
230
1
0
SOLID
5
1A3
100
AcDbEntity
8
0
62
256
6
ByLayer
370
-1
48
1
60
0
100
AcDbTrace
10
24.825
20
-25.719232
30
0
11
24.825
21
-24.660899
31
0
12
28
22
-25.190065
32
0
13
28
23
-25.190065
33
0
39
0
210
0
220
0
230
1
0
MTEXT
5
1A4
100
AcDbEntity
8
0
62
256
6
ByLayer
370
18
48
1
60
0
100
AcDbMText
10
5.75
20
-19.190065
30
0
210
0
220
0
230
1
1
\A1;44.5
40
3
41
0
44
1
50
0
71
5
72
5
7
iso_b_vert
0
POINT
5
1A5
100
AcDbEntity
8
Defpoints
62
0
6
ByLayer
370
-1
48
1
60
0
100
AcDbPoint
10
-16.5
20
-2.910024
30
0
39
0
210
0
220
0
230
1
50
360
0
POINT
5
1A6
100
AcDbEntity
8
Defpoints
62
0
6
ByLayer
370
-1
48
1
60
0
100
AcDbPoint
10
28
20
6
30
0
39
0
210
0
220
0
230
1
50
360
0
POINT
5
1A7
100
AcDbEntity
8
Defpoints
62
0
6
ByLayer
370
-1
48
1
60
0
100
AcDbPoint
10
28
20
-25.190065
30
0
39
0
210
0
220
0
230
1
50
360
0
ENDBLK
5
19E
100
AcDbEntity
8
0
100
AcDbBlockEnd
0
BLOCK
5
1AF
100
AcDbEntity
8
0
100
AcDbBlockBegin
2
_U3
70
0
10
0
20
0
30
0
3
_U3
0
MTEXT
5
1A9
100
AcDbEntity
8
SK2
62
256
6
ByLayer
370
18
48
1
60
0
100
AcDbMText
10
2.072658
20
-24.304951
30
0
210
0
220
0
230
1
1
\W0.7983;44.5
40
3
41
0
44
1.084337
50
0
71
7
72
5
7
iso_b_vert
0
LINE
5
1AA
100
AcDbEntity
8
SK2
62
256
6
ByLayer
370
13
48
1
60
0
100
AcDbLine
10
-16.5
20
-4.497524
30
0
11
-16.5
21
-27.190065
31
0
39
0
210
0
220
0
230
1
0
LINE
5
1AB
100
AcDbEntity
8
SK2
62
256
6
ByLayer
370
13
48
1
60
0
100
AcDbLine
10
28
20
4.4125
30
0
11
28
21
-27.190065
31
0
39
0
210
0
220
0
230
1
0
LINE
5
1AC
100
AcDbEntity
8
SK2
62
256
6
ByLayer
370
13
48
1
60
0
100
AcDbLine
10
-16.5
20
-25.190065
30
0
11
28
21
-25.190065
31
0
39
0
210
0
220
0
230
1
0
SOLID
5
1AD
100
AcDbEntity
8
SK2
62
256
6
ByLayer
370
18
48
1
60
0
100
AcDbTrace
10
-16.5
20
-25.190065
30
0
11
-13.325002
21
-24.772069
31
0
12
-13.324998
22
-25.608062
32
0
13
-13.324998
23
-25.608062
33
0
39
0
210
0
220
0
230
1
0
SOLID
5
1AE
100
AcDbEntity
8
SK2
62
256
6
ByLayer
370
18
48
1
60
0
100
AcDbTrace
10
28
20
-25.190065
30
0
11
24.825002
21
-25.608062
31
0
12
24.824998
22
-24.772069
32
0
13
24.824998
23
-24.772069
33
0
39
0
210
0
220
0
230
1
0
ENDBLK
5
1B0
100
AcDbEntity
8
0
100
AcDbBlockEnd
0
BLOCK
5
1B5
100
AcDbEntity
8
0
100
AcDbBlockBegin
2
*D9
70
1
10
0
20
0
30
0
3
*D9
0
LINE
5
1B7
100
AcDbEntity
8
0
62
256
6
ByLayer
370
-2
48
1
60
0
100
AcDbLine
10
29.5875
20
6
30
0
11
37.5321
21
6
31
0
39
0
210
0
220
0
230
1
0
LINE
5
1B8
100
AcDbEntity
8
0
62
256
6
ByLayer
370
-2
48
1
60
0
100
AcDbLine
10
29.3875
20
3.497331
30
0
11
37.5321
21
3.497331
31
0
39
0
210
0
220
0
230
1
0
LINE
5
1B9
100
AcDbEntity
8
0
62
256
6
ByLayer
370
-2
48
1
60
0
100
AcDbLine
10
35.5321
20
6
30
0
11
35.5321
21
27.635714
31
0
39
0
210
0
220
0
230
1
0
LINE
5
1BA
100
AcDbEntity
8
0
62
256
6
ByLayer
370
-2
48
1
60
0
100
AcDbLine
10
35.5321
20
9.175
30
0
11
35.5321
21
12.35
31
0
39
0
210
0
220
0
230
1
0
LINE
5
1BB
100
AcDbEntity
8
0
62
256
6
ByLayer
370
-2
48
1
60
0
100
AcDbLine
10
35.5321
20
0.322331
30
0
11
35.5321
21
-2.852669
31
0
39
0
210
0
220
0
230
1
0
SOLID
5
1BC
100
AcDbEntity
8
0
62
256
6
ByLayer
370
-1
48
1
60
0
100
AcDbTrace
10
35.002933
20
9.175
30
0
11
36.061267
21
9.175
31
0
12
35.5321
22
6
32
0
13
35.5321
23
6
33
0
39
0
210
0
220
0
230
1
0
SOLID
5
1BD
100
AcDbEntity
8
0
62
256
6
ByLayer
370
-1
48
1
60
0
100
AcDbTrace
10
36.061267
20
0.322331
30
0
11
35.002933
21
0.322331
31
0
12
35.5321
22
3.497331
32
0
13
35.5321
23
3.497331
33
0
39
0
210
0
220
0
230
1
0
MTEXT
5
1BE
100
AcDbEntity
8
0
62
256
6
ByLayer
370
18
48
1
60
0
100
AcDbMText
10
29.5321
20
19.992857
30
0
210
0
220
0
230
1
1
\A1;2.5
40
3
41
0
44
1
50
90
71
5
72
5
7
iso_b_vert
0
POINT
5
1BF
100
AcDbEntity
8
Defpoints
62
0
6
ByLayer
370
-1
48
1
60
0
100
AcDbPoint
10
28
20
6
30
0
39
0
210
0
220
0
230
1
50
360
0
POINT
5
1C0
100
AcDbEntity
8
Defpoints
62
0
6
ByLayer
370
-1
48
1
60
0
100
AcDbPoint
10
27.8
20
3.497331
30
0
39
0
210
0
220
0
230
1
50
360
0
POINT
5
1C1
100
AcDbEntity
8
Defpoints
62
0
6
ByLayer
370
-1
48
1
60
0
100
AcDbPoint
10
35.5321
20
3.497331
30
0
39
0
210
0
220
0
230
1
50
360
0
ENDBLK
5
1B6
100
AcDbEntity
8
0
100
AcDbBlockEnd
0
BLOCK
5
1C9
100
AcDbEntity
8
0
100
AcDbBlockBegin
2
_U4
70
0
10
0
20
0
30
0
3
_U4
0
MTEXT
5
1C3
100
AcDbEntity
8
SK2
62
256
6
ByLayer
370
18
48
1
60
0
100
AcDbMText
10
34.940986
20
8.864503
30
0
210
0
220
0
230
1
1
\W0.7121;2.5
40
3
41
0
44
1.084337
50
90
71
7
72
5
7
iso_b_vert
0
LINE
5
1C4
100
AcDbEntity
8
SK2
62
256
6
ByLayer
370
13
48
1
60
0
100
AcDbLine
10
29.5875
20
6
30
0
11
37.5321
21
6
31
0
39
0
210
0
220
0
230
1
0
LINE
5
1C5
100
AcDbEntity
8
SK2
62
256
6
ByLayer
370
13
48
1
60
0
100
AcDbLine
10
29.3875
20
3.497331
30
0
11
37.5321
21
3.497331
31
0
39
0
210
0
220
0
230
1
0
LINE
5
1C6
100
AcDbEntity
8
SK2
62
256
6
ByLayer
370
13
48
1
60
0
100
AcDbLine
10
35.5321
20
-4.002669
30
0
11
35.5321
21
13.528587
31
0
39
0
210
0
220
0
230
1
0
SOLID
5
1C7
100
AcDbEntity
8
SK2
62
256
6
ByLayer
370
18
48
1
60
0
100
AcDbTrace
10
35.5321
20
6
30
0
11
35.114103
21
9.174998
31
0
12
35.950097
22
9.175002
32
0
13
35.950097
23
9.175002
33
0
39
0
210
0
220
0
230
1
0
SOLID
5
1C8
100
AcDbEntity
8
SK2
62
256
6
ByLayer
370
18
48
1
60
0
100
AcDbTrace
10
35.5321
20
3.497331
30
0
11
35.950097
21
0.322332
31
0
12
35.114103
22
0.322329
32
0
13
35.114103
23
0.322329
33
0
39
0
210
0
220
0
230
1
0
ENDBLK
5
1CA
100
AcDbEntity
8
0
100
AcDbBlockEnd
0
ENDSEC
0
SECTION
2
ENTITIES
0
ARC
5
E8
100
AcDbEntity
8
1
62
256
6
ByLayer
370
35
48
1
60
0
100
AcDbCircle
39
0
10
9.5
20
-0.75
30
0
40
3.75
210
0
220
0
230
1
100
AcDbArc
50
115.973026
51
244.026974
0
ARC
5
E9
100
AcDbEntity
8
1
62
256
6
ByLayer
370
18
48
1
60
0
100
AcDbCircle
39
0
10
9.5
20
-0.75
30
0
40
1.416
210
0
220
0
230
1
100
AcDbArc
50
211.160371
51
265.158644
0
ARC
5
EA
100
AcDbEntity
8
1
62
256
6
ByLayer
370
18
48
1
60
0
100
AcDbCircle
39
0
10
9.5
20
-0.75
30
0
40
1.416
210
0
220
0
230
1
100
AcDbArc
50
324.777222
51
18.775495
0
ARC
5
EB
100
AcDbEntity
8
1
62
256
6
ByLayer
370
18
48
1
60
0
100
AcDbCircle
39
0
10
9.5
20
-0.75
30
0
40
1.416
210
0
220
0
230
1
100
AcDbArc
50
31.160371
51
85.158644
0
ARC
5
EC
100
AcDbEntity
8
1
62
256
6
ByLayer
370
18
48
1
60
0
100
AcDbCircle
39
0
10
9.5
20
-0.75
30
0
40
1.416
210
0
220
0
230
1
100
AcDbArc
50
265.158644
51
324.777222
0
ARC
5
ED
100
AcDbEntity
8
1
62
256
6
ByLayer
370
18
48
1
60
0
100
AcDbCircle
39
0
10
9.5
20
-0.75
30
0
40
1.416
210
0
220
0
230
1
100
AcDbArc
50
144.777222
51
198.775495
0
ARC
5
EE
100
AcDbEntity
8
1
62
256
6
ByLayer
370
18
48
1
60
0
100
AcDbCircle
39
0
10
9.5
20
-0.75
30
0
40
1.416
210
0
220
0
230
1
100
AcDbArc
50
85.158644
51
144.777222
0
ARC
5
EF
100
AcDbEntity
8
1
62
256
6
ByLayer
370
18
48
1
60
0
100
AcDbCircle
39
0
10
9.5
20
-0.75
30
0
40
1.416
210
0
220
0
230
1
100
AcDbArc
50
198.775495
51
211.160371
0
ARC
5
F0
100
AcDbEntity
8
1
62
256
6
ByLayer
370
18
48
1
60
0
100
AcDbCircle
39
0
10
9.5
20
-0.75
30
0
40
1.416
210
0
220
0
230
1
100
AcDbArc
50
18.775495
51
31.160371
0
ARC
5
F1
100
AcDbEntity
8
1
62
256
6
ByLayer
370
18
48
1
60
0
100
AcDbCircle
39
0
10
9.5
20
-0.75
30
0
40
1.9685
210
0
220
0
230
1
100
AcDbArc
50
55.349355
51
114.967933
0
ARC
5
F2
100
AcDbEntity
8
1
62
256
6
ByLayer
370
18
48
1
60
0
100
AcDbCircle
39
0
10
9.5
20
-0.75
30
0
40
1.9685
210
0
220
0
230
1
100
AcDbArc
50
354.586511
51
55.349355
0
ARC
5
F3
100
AcDbEntity
8
1
62
256
6
ByLayer
370
18
48
1
60
0
100
AcDbCircle
39
0
10
9.5
20
-0.75
30
0
40
1.9685
210
0
220
0
230
1
100
AcDbArc
50
294.967933
51
354.586511
0
ARC
5
F4
100
AcDbEntity
8
1
62
256
6
ByLayer
370
18
48
1
60
0
100
AcDbCircle
39
0
10
9.5
20
-0.75
30
0
40
1.9685
210
0
220
0
230
1
100
AcDbArc
50
235.349355
51
294.967933
0
ARC
5
F5
100
AcDbEntity
8
1
62
256
6
ByLayer
370
18
48
1
60
0
100
AcDbCircle
39
0
10
9.5
20
-0.75
30
0
40
1.9685
210
0
220
0
230
1
100
AcDbArc
50
174.586511
51
235.349355
0
ARC
5
F6
100
AcDbEntity
8
1
62
256
6
ByLayer
370
18
48
1
60
0
100
AcDbCircle
39
0
10
9.5
20
-0.75
30
0
40
1.9685
210
0
220
0
230
1
100
AcDbArc
50
114.967933
51
174.586511
0
ARC
5
F9
100
AcDbEntity
8
SK1
62
256
6
ByLayer
370
35
48
1
60
0
100
AcDbCircle
39
0
10
-15.942871
20
-2.875
30
0
40
0.5
210
0
220
0
230
1
100
AcDbArc
50
210
51
299.061062
0
ARC
5
FA
100
AcDbEntity
8
SK1
62
256
6
ByLayer
370
35
48
1
60
0
100
AcDbCircle
39
0
10
-15.942871
20
2.875
30
0
40
0.5
210
0
220
0
230
1
100
AcDbArc
50
60.938938
51
150
0
ARC
5
FB
100
AcDbEntity
8
SK1
62
256
6
ByLayer
370
35
48
1
60
0
100
AcDbCircle
39
0
10
-0.999897
20
4.99
30
0
40
0.3
210
0
220
0
230
1
100
AcDbArc
50
213.521749
51
270
0
ARC
5
FC
100
AcDbEntity
8
SK1
62
256
6
ByLayer
370
35
48
1
60
0
100
AcDbCircle
39
0
10
-0.999897
20
-4.99
30
0
40
0.3
210
0
220
0
230
1
100
AcDbArc
50
90
51
146.478251
0
ARC
5
FD
100
AcDbEntity
8
SK1
62
256
6
ByLayer
370
35
48
1
60
0
100
AcDbCircle
39
0
10
-0.1
20
-4.99
30
0
40
0.3
210
0
220
0
230
1
100
AcDbArc
50
70.527647
51
90
0
ARC
5
FE
100
AcDbEntity
8
SK1
62
256
6
ByLayer
370
35
48
1
60
0
100
AcDbCircle
39
0
10
-0.1
20
4.99
30
0
40
0.3
210
0
220
0
230
1
100
AcDbArc
50
270
51
289.472353
0
ARC
5
FF
100
AcDbEntity
8
1
62
256
6
ByLayer
370
35
48
1
60
0
100
AcDbCircle
39
0
10
9.5
20
-0.75
30
0
40
3.75
210
0
220
0
230
1
100
AcDbArc
50
244.026974
51
115.973026
0
CIRCLE
5
F7
100
AcDbEntity
8
1
62
256
6
ByLayer
370
18
48
1
60
0
100
AcDbCircle
10
9.5
20
-0.75
30
0
40
3.5
39
0
210
0
220
0
230
1
0
CIRCLE
5
F8
100
AcDbEntity
8
1
62
256
6
ByLayer
370
18
48
1
60
0
100
AcDbCircle
10
9.5
20
-0.75
30
0
40
3
39
0
210
0
220
0
230
1
0
ELLIPSE
5
100
100
AcDbEntity
8
1
62
256
6
ByLayer
370
35
48
1
60
0
100
AcDbEllipse
10
24.694849
20
6.55
30
0
11
0.909842478032456
21
1.06583985181618E-15
31
0
210
0
220
0
230
1
40
0.879273
41
-1.5707963267949
42
-1.29515256585583
0
ELLIPSE
5
101
100
AcDbEntity
8
1
62
256
6
ByLayer
370
35
48
1
60
0
100
AcDbEllipse
10
23.407075
20
5.625438
30
0
11
0.705694516440515
21
8.26689627040711E-16
31
0
210
0
220
0
230
1
40
0.212557
41
3.14159265358979
42
-2.80561677258542
0
ELLIPSE
5
102
100
AcDbEntity
8
1
62
256
6
ByLayer
370
35
48
1
60
0
100
AcDbEllipse
10
24.381595
20
5.183936
30
0
11
0.940926021894218
21
1.10225283602328E-15
31
0
210
0
220
0
230
1
40
0.212557
41
-2.80561677258144
42
-1.98717825108344
0
ELLIPSE
5
103
100
AcDbEntity
8
1
62
256
6
ByLayer
370
35
48
1
60
0
100
AcDbEllipse
10
27.806648
20
6.830141
30
0
11
9.40926021889013
21
1.10225283601718E-14
31
0
210
0
220
0
230
1
40
0.212557
41
-1.98717825107781
42
-1.91986217718717
0
ELLIPSE
5
104
100
AcDbEntity
8
1
62
256
6
ByLayer
370
35
48
1
60
0
100
AcDbEllipse
10
24.294794
20
4.75
30
0
11
0.987972322990717
21
1.15736547782653E-15
31
0
210
0
220
0
230
1
40
0.212557
41
0
42
1.22173047639588
0
ELLIPSE
5
105
100
AcDbEntity
8
1
62
256
6
ByLayer
370
35
48
1
60
0
100
AcDbEllipse
10
24.294794
20
4.75
30
0
11
0.987972322990579
21
1.15736547782637E-15
31
0
210
0
220
0
230
1
40
0.212557
41
-1.22173047639598
42
0
0
ELLIPSE
5
106
100
AcDbEntity
8
1
62
256
6
ByLayer
370
35
48
1
60
0
100
AcDbEllipse
10
27.806648
20
2.669859
30
0
11
9.40926023493831
21
-2.18732329535838E-09
31
0
210
0
220
0
230
1
40
0.212557
41
1.91986217782575
42
1.98717825161615
0
ELLIPSE
5
107
100
AcDbEntity
8
1
62
256
6
ByLayer
370
35
48
1
60
0
100
AcDbEllipse
10
24.381595
20
4.316064
30
0
11
0.940926021895565
21
1.10225283602485E-15
31
0
210
0
220
0
230
1
40
0.212557
41
1.98717825108402
42
2.80561677258091
0
ELLIPSE
5
108
100
AcDbEntity
8
1
62
256
6
ByLayer
370
35
48
1
60
0
100
AcDbEllipse
10
23.407075
20
3.874562
30
0
11
0.705694516283702
21
8.26689626857012E-16
31
0
210
0
220
0
230
1
40
0.212557
41
2.80561677254752
42
3.14159265358979
0
ELLIPSE
5
109
100
AcDbEntity
8
1
62
256
6
ByLayer
370
35
48
1
60
0
100
AcDbEllipse
10
24.694849
20
2.95
30
0
11
0.90984247799782
21
1.0658398517756E-15
31
0
210
0
220
0
230
1
40
0.879273
41
1.2951525658452
42
1.5707963267949
0
ELLIPSE
5
10A
100
AcDbEntity
8
1
62
256
6
ByLayer
370
35
48
1
60
0
100
AcDbEllipse
10
23.915997
20
5.4
30
0
11
7.85307604188958E-18
21
0.128254700253313
31
0
210
0
220
0
230
1
40
0.978148
41
0
42
6.28318530717959
0
ELLIPSE
5
10B
100
AcDbEntity
8
1
62
256
6
ByLayer
370
35
48
1
60
0
100
AcDbEllipse
10
20.587717
20
4.75
30
0
11
0.881656489251232
21
1.03282122405235E-15
31
0
210
0
220
0
230
1
40
0.680537
41
0
42
6.28318530717959
0
POINT
5
70
100
AcDbEntity
8
81
62
256
6
ByLayer
370
18
48
1
60
0
100
AcDbPoint
10
28
20
6
30
0
39
0
210
0
220
0
230
1
50
360
0
POINT
5
72
100
AcDbEntity
8
80
62
256
6
ByLayer
370
18
48
1
60
0
100
AcDbPoint
10
0
20
0
30
0
39
0
210
0
220
0
230
1
50
360
0
SPLINE
5
10C
100
AcDbEntity
8
1
62
256
6
ByLayer
370
35
48
1
60
0
100
AcDbSpline
70
4
71
3
72
8
73
4
40
0
40
0
40
0
40
0
40
1
40
1
40
1
40
1
41
1
10
25.5124323856594
20
5.91778903897938
30
0
41
1
10
25.4990608709808
20
5.91722032733281
30
0
41
1
10
25.4857630337706
20
5.91531314894667
30
0
41
1
10
25.4727590928245
20
5.91207910918638
30
0
0
SPLINE
5
10D
100
AcDbEntity
8
1
62
256
6
ByLayer
370
35
48
1
60
0
100
AcDbSpline
70
4
71
3
72
8
73
4
40
0
40
0
40
0
40
0
40
1
40
1
40
1
40
1
41
1
10
25.4727590928259
20
3.58792089081328
30
0
41
1
10
25.485763124624
20
3.58468682845836
30
0
41
1
10
25.4990607875051
20
3.58277967621717
30
0
41
1
10
25.5124323856727
20
3.58221096102005
30
0
0
SPLINE
5
10E
100
AcDbEntity
8
1
62
256
6
ByLayer
370
35
48
1
60
0
100
AcDbSpline
70
4
71
3
72
30
73
26
40
0
40
0
40
0
40
0
40
0.125000000000009
40
0.125000000000009
40
0.187500000000014
40
0.187500000000014
40
0.25000000000002
40
0.25000000000002
40
0.375000000000033
40
0.375000000000033
40
0.43750000000004
40
0.43750000000004
40
0.500000000000047
40
0.500000000000047
40
0.625000000000057
40
0.625000000000057
40
0.656250000000054
40
0.656250000000054
40
0.687500000000051
40
0.750000000000041
40
0.812500000000031
40
0.812500000000031
40
0.87500000000002
40
0.87500000000002
40
1
40
1
40
1
40
1
41
1
10
13.9268836845931
20
3.14999999999998
30
0
41
1
10
13.9268836845931
20
3.18311384279434
30
0
41
1
10
13.9297161585673
20
3.21567156929257
30
0
41
1
10
13.938039011732
20
3.26370825870805
30
0
41
1
10
13.9414973953964
20
3.27958617527361
30
0
41
1
10
13.9498137475944
20
3.31106721966495
30
0
41
1
10
13.9546927376852
20
3.3267042244845
30
0
41
1
10
13.9711242031846
20
3.37217435451055
30
0
41
1
10
13.984527968602
20
3.40092191487827
30
0
41
1
10
14.0082743681334
20
3.44171583748454
30
0
41
1
10
14.0168402442351
20
3.4549769606291
30
0
41
1
10
14.035059282988
20
3.4804347588302
30
0
41
1
10
14.0446444455227
20
3.49254847014947
30
0
41
1
10
14.0747825850016
20
3.52710130856724
30
0
41
1
10
14.0967051160449
20
3.54776908053771
30
0
41
1
10
14.1264518722785
20
3.57057263779058
30
0
41
1
10
14.1325332403129
20
3.57498892841573
30
0
41
1
10
14.1448086075593
20
3.58342281403901
30
0
41
1
10
14.1634257626272
20
3.59550488598916
30
0
41
1
10
14.1954537246003
20
3.61285682893549
30
0
41
1
10
14.2221265148024
20
3.62381128259455
30
0
41
1
10
14.2493320082037
20
3.63328130623484
30
0
41
1
10
14.2632795878827
20
3.63728955161554
30
0
41
1
10
14.3052845216918
20
3.64685172489669
30
0
41
1
10
14.3334460828858
20
3.65000000000009
30
0
41
1
10
14.3617620785025
20
3.65000000000003
30
0
0
SPLINE
5
10F
100
AcDbEntity
8
1
62
256
6
ByLayer
370
18
48
1
60
0
100
AcDbSpline
70
4
71
3
72
24
73
20
40
0
40
0
40
0
40
0
40
0.0624999999999999
40
0.0624999999999999
40
0.125
40
0.125
40
0.249999999999999
40
0.249999999999999
40
0.312499999999999
40
0.312499999999999
40
0.374999999999999
40
0.374999999999999
40
0.499999999999999
40
0.499999999999999
40
0.625
40
0.625
40
0.75
40
0.75
40
1
40
1
40
1
40
1
41
1
10
10.6192322297156
20
0.869355262432123
30
0
41
1
10
10.6115065733698
20
0.874694920614957
30
0
41
1
10
10.6034808016061
20
0.879750860896593
30
0
41
1
10
10.5870494561041
20
0.889135296565939
30
0
41
1
10
10.5786987358216
20
0.893437016227438
30
0
41
1
10
10.5532564027907
20
0.905213131751452
30
0
41
1
10
10.5357772220411
20
0.911566196864499
30
0
41
1
10
10.5087905114684
20
0.918867387899525
30
0
41
1
10
10.4996499118595
20
0.920926338003483
30
0
41
1
10
10.4814716445669
20
0.924227129410269
30
0
41
1
10
10.472390094774
20
0.92548266594639
30
0
41
1
10
10.4451692010533
20
0.928110732382436
30
0
41
1
10
10.4270533802123
20
0.928351868867651
30
0
41
1
10
10.3908953902234
20
0.925866525040021
30
0
41
1
10
10.3733259996836
20
0.923173331477926
30
0
41
1
10
10.33914585294
20
0.915155097927197
30
0
41
1
10
10.3224804169365
20
0.909805828841399
30
0
41
1
10
10.2742531355243
20
0.890030332670563
30
0
41
1
10
10.2454284839057
20
0.872417159422753
30
0
41
1
10
10.2196771087038
20
0.850842705127945
30
0
0
SPLINE
5
110
100
AcDbEntity
8
1
62
256
6
ByLayer
370
18
48
1
60
0
100
AcDbSpline
70
4
71
3
72
26
73
22
40
0
40
0
40
0
40
0
40
0.249999999999996
40
0.249999999999996
40
0.312499999999995
40
0.312499999999995
40
0.374999999999994
40
0.374999999999994
40
0.499999999999993
40
0.499999999999993
40
0.562499999999993
40
0.562499999999993
40
0.624999999999993
40
0.624999999999993
40
0.749999999999994
40
0.749999999999994
40
0.812499999999996
40
0.812499999999996
40
0.874999999999998
40
0.874999999999998
40
1
40
1
40
1
40
1
41
1
10
9.05982407975193
20
0.94908141846895
30
0
41
1
10
9.03800625538474
20
0.974752589416426
30
0
41
1
10
9.0125203588409
20
0.996956449698132
30
0
41
1
10
8.97574118114778
20
1.01991168371364
30
0
41
1
10
8.9681003404437
20
1.02427292459544
30
0
41
1
10
8.95254377508206
20
1.03234240497807
30
0
41
1
10
8.94461183604744
20
1.03606427711429
30
0
41
1
10
8.92035633895398
20
1.04628619570582
30
0
41
1
10
8.90357625700096
20
1.05184910814029
30
0
41
1
10
8.87744389073316
20
1.05818728791723
30
0
41
1
10
8.86857199184738
20
1.05996412875027
30
0
41
1
10
8.85048726067112
20
1.0628020330833
30
0
41
1
10
8.84133990300268
20
1.06384924841552
30
0
41
1
10
8.81394479473556
20
1.06583327157466
30
0
41
1
10
8.79559979622672
20
1.0656444073183
30
0
41
1
10
8.76796171429885
20
1.06301986732831
30
0
41
1
10
8.75872880496411
20
1.06175290151737
30
0
41
1
10
8.74022129271714
20
1.05839590988484
30
0
41
1
10
8.73095333049662
20
1.05630083601295
30
0
41
1
10
8.70372687688825
20
1.04890624190045
30
0
41
1
10
8.68612572594327
20
1.04247167139454
30
0
41
1
10
8.66907457892307
20
1.03453220609987
30
0
0
SPLINE
5
111
100
AcDbEntity
8
1
62
256
6
ByLayer
370
18
48
1
60
0
100
AcDbSpline
70
4
71
3
72
34
73
30
40
0
40
0
40
0
40
0
40
0.124999999999999
40
0.124999999999999
40
0.187499999999998
40
0.187499999999998
40
0.218749999999998
40
0.218749999999998
40
0.249999999999998
40
0.249999999999998
40
0.374999999999998
40
0.374999999999998
40
0.406249999999998
40
0.406249999999998
40
0.437499999999998
40
0.499999999999998
40
0.562499999999998
40
0.562499999999998
40
0.624999999999998
40
0.624999999999998
40
0.687499999999998
40
0.687499999999998
40
0.749999999999998
40
0.749999999999998
40
0.874999999999999
40
0.874999999999999
40
0.937499999999999
40
0.937499999999999
40
1
40
1
40
1
40
1
41
1
10
9.05982407975193
20
0.94908141846895
30
0
41
1
10
9.0926686978097
20
0.910435960944369
30
0
41
1
10
9.12897924088918
20
0.874846136761448
30
0
41
1
10
9.18909110969116
20
0.826114852674436
30
0
41
1
10
9.21007696299887
20
0.810651704432701
30
0
41
1
10
9.24312418424074
20
0.788694601093823
30
0
41
1
10
9.25442842322843
20
0.781566798208928
30
0
41
1
10
9.27747126701377
20
0.767816369923708
30
0
41
1
10
9.28917150707218
20
0.761214844360154
30
0
41
1
10
9.34858733152169
20
0.729583154405873
30
0
41
1
10
9.3990066565392
20
0.708621417594429
30
0
41
1
10
9.46633899612527
20
0.688514762578791
30
0
41
1
10
9.48004283759769
20
0.684800944724373
30
0
41
1
10
9.50746060865742
20
0.67812306726421
30
0
41
1
10
9.5487597495038
20
0.669181227509284
30
0
41
1
10
9.6184480166221
20
0.659592054007874
30
0
41
1
10
9.67512121342497
20
0.657626929832134
30
0
41
1
10
9.73227265686739
20
0.65862887144857
30
0
41
1
10
9.76039947987476
20
0.660601225816833
30
0
41
1
10
9.81578172706827
20
0.667278498771509
30
0
41
1
10
9.84304708645459
20
0.671984401317843
30
0
41
1
10
9.89678592079611
20
0.684032293416635
30
0
41
1
10
9.92334185398397
20
0.691417935522452
30
0
41
1
10
10.0000631858621
20
0.716827954360895
30
0
41
1
10
10.0479594932685
20
0.738169753746831
30
0
41
1
10
10.1157386024488
20
0.776168188373731
30
0
41
1
10
10.1377114321184
20
0.789890601451305
30
0
41
1
10
10.179959458743
20
0.819088639449888
30
0
41
1
10
10.2002250999655
20
0.834545848351354
30
0
41
1
10
10.2196771087038
20
0.850842705127945
30
0
0
SPLINE
5
112
100
AcDbEntity
8
1
62
256
6
ByLayer
370
18
48
1
60
0
100
AcDbSpline
70
4
71
3
72
26
73
22
40
0
40
0
40
0
40
0
40
0.249999999999993
40
0.249999999999993
40
0.312499999999993
40
0.312499999999993
40
0.374999999999992
40
0.374999999999992
40
0.499999999999992
40
0.499999999999992
40
0.562499999999992
40
0.562499999999992
40
0.624999999999992
40
0.624999999999992
40
0.749999999999994
40
0.749999999999994
40
0.812499999999995
40
0.812499999999995
40
0.874999999999997
40
0.874999999999997
40
1
40
1
40
1
40
1
41
1
10
9.94017592024875
20
-2.44908141846895
30
0
41
1
10
9.96199374461594
20
-2.47475258941643
30
0
41
1
10
9.98747964115978
20
-2.49695644969813
30
0
41
1
10
10.0242588188529
20
-2.51991168371364
30
0
41
1
10
10.031899659557
20
-2.52427292459544
30
0
41
1
10
10.0474562249186
20
-2.53234240497807
30
0
41
1
10
10.0553881639532
20
-2.53606427711429
30
0
41
1
10
10.0796436610467
20
-2.54628619570582
30
0
41
1
10
10.0964237429997
20
-2.55184910814023
30
0
41
1
10
10.1225561092675
20
-2.55818728791724
30
0
41
1
10
10.1314280081533
20
-2.55996412875027
30
0
41
1
10
10.1495127393296
20
-2.5628020330833
30
0
41
1
10
10.158660096998
20
-2.56384924841552
30
0
41
1
10
10.1860552052651
20
-2.56583327157466
30
0
41
1
10
10.204400203774
20
-2.5656444073183
30
0
41
1
10
10.2320382857018
20
-2.56301986732831
30
0
41
1
10
10.2412711950366
20
-2.56175290151737
30
0
41
1
10
10.2597787072835
20
-2.55839590988484
30
0
41
1
10
10.2690466695041
20
-2.55630083601295
30
0
41
1
10
10.2962731231124
20
-2.54890624190045
30
0
41
1
10
10.3138742740574
20
-2.54247167139454
30
0
41
1
10
10.3309254210776
20
-2.53453220609987
30
0
0
SPLINE
5
113
100
AcDbEntity
8
1
62
256
6
ByLayer
370
18
48
1
60
0
100
AcDbSpline
70
4
71
3
72
24
73
20
40
0
40
0
40
0
40
0
40
0.0624999999999991
40
0.0624999999999991
40
0.124999999999998
40
0.124999999999998
40
0.249999999999996
40
0.249999999999996
40
0.312499999999996
40
0.312499999999996
40
0.374999999999996
40
0.374999999999996
40
0.499999999999997
40
0.499999999999997
40
0.624999999999998
40
0.624999999999998
40
0.749999999999999
40
0.749999999999999
40
1
40
1
40
1
40
1
41
1
10
8.38076777028505
20
-2.36935526243212
30
0
41
1
10
8.38849342663093
20
-2.37469492061496
30
0
41
1
10
8.39651919839457
20
-2.37975086089659
30
0
41
1
10
8.41295054389661
20
-2.38913529656594
30
0
41
1
10
8.42130126417908
20
-2.39343701622744
30
0
41
1
10
8.44674359721
20
-2.40521313175145
30
0
41
1
10
8.46422277795955
20
-2.4115661968645
30
0
41
1
10
8.49120948853226
20
-2.41886738789953
30
0
41
1
10
8.5003500881412
20
-2.42092633800348
30
0
41
1
10
8.51852835543377
20
-2.42422712941027
30
0
41
1
10
8.52760990522665
20
-2.42548266594639
30
0
41
1
10
8.55483079894736
20
-2.42811073238244
30
0
41
1
10
8.57294661978835
20
-2.42835186886765
30
0
41
1
10
8.60910460977732
20
-2.42586652503996
30
0
41
1
10
8.62667400031705
20
-2.42317333147793
30
0
41
1
10
8.66085414706072
20
-2.4151550979272
30
0
41
1
10
8.67751958306417
20
-2.4098058288414
30
0
41
1
10
8.72574686447638
20
-2.39003033267056
30
0
41
1
10
8.75457151609498
20
-2.37241715942275
30
0
41
1
10
8.78032289129692
20
-2.35084270512795
30
0
0
SPLINE
5
114
100
AcDbEntity
8
1
62
256
6
ByLayer
370
18
48
1
60
0
100
AcDbSpline
70
4
71
3
72
34
73
30
40
0
40
0
40
0
40
0
40
0.125
40
0.125
40
0.1875
40
0.1875
40
0.21875
40
0.21875
40
0.25
40
0.25
40
0.375
40
0.375
40
0.406250000000001
40
0.406250000000001
40
0.437500000000001
40
0.500000000000001
40
0.562500000000001
40
0.562500000000001
40
0.625
40
0.625
40
0.6875
40
0.6875
40
0.75
40
0.75
40
0.875
40
0.875
40
0.9375
40
0.9375
40
1
40
1
40
1
40
1
41
1
10
9.94017592024875
20
-2.44908141846895
30
0
41
1
10
9.90733130219098
20
-2.41043596094437
30
0
41
1
10
9.8710207591115
20
-2.37484613676145
30
0
41
1
10
9.81090889030952
20
-2.32611485267444
30
0
41
1
10
9.78992303700181
20
-2.3106517044327
30
0
41
1
10
9.75687581575994
20
-2.28869460109382
30
0
41
1
10
9.74557157677225
20
-2.28156679820893
30
0
41
1
10
9.72252873298692
20
-2.26781636992371
30
0
41
1
10
9.7108284929285
20
-2.26121484436015
30
0
41
1
10
9.651412668479
20
-2.22958315440587
30
0
41
1
10
9.60099334346148
20
-2.20862141759443
30
0
41
1
10
9.53366100387541
20
-2.18851476257879
30
0
41
1
10
9.51995716240299
20
-2.18480094472437
30
0
41
1
10
9.49253939134326
20
-2.17812306726421
30
0
41
1
10
9.45124025049688
20
-2.16918122750923
30
0
41
1
10
9.38155202550786
20
-2.15959174643331
30
0
41
1
10
9.32487878657571
20
-2.15762692983213
30
0
41
1
10
9.26772734313329
20
-2.15862887144857
30
0
41
1
10
9.23960052012592
20
-2.16060122581683
30
0
41
1
10
9.18421827293241
20
-2.16727849877151
30
0
41
1
10
9.15695291354609
20
-2.17198440131784
30
0
41
1
10
9.10321407920458
20
-2.18403229341664
30
0
41
1
10
9.07665814601671
20
-2.19141793552245
30
0
41
1
10
8.99993681413855
20
-2.2168279543609
30
0
41
1
10
8.95204050673215
20
-2.23816975374683
30
0
41
1
10
8.88426139755188
20
-2.27616818837373
30
0
41
1
10
8.86228856788227
20
-2.28989060145131
30
0
41
1
10
8.82004054125764
20
-2.31908863944989
30
0
41
1
10
8.79977490003523
20
-2.33454584835135
30
0
41
1
10
8.78032289129692
20
-2.35084270512795
30
0
0
SPLINE
5
115
100
AcDbEntity
8
1
62
256
6
ByLayer
370
18
48
1
60
0
100
AcDbSpline
70
4
71
3
72
24
73
20
40
0
40
0
40
0
40
0
40
0.250000000000003
40
0.250000000000003
40
0.312500000000004
40
0.312500000000004
40
0.375000000000004
40
0.375000000000004
40
0.500000000000003
40
0.500000000000003
40
0.625000000000002
40
0.625000000000002
40
0.750000000000001
40
0.750000000000001
40
0.812500000000001
40
0.812500000000001
40
0.875
40
0.875
40
1
40
1
40
1
40
1
41
1
10
8.25995911580003
20
-1.98055509281591
30
0
41
1
10
8.24774219411222
20
-2.01267068907327
30
0
41
1
10
8.24052472691676
20
-2.04637636722242
30
0
41
1
10
8.23835868413641
20
-2.09056995257777
30
0
41
1
10
8.23827958526681
20
-2.09954490655684
30
0
41
1
10
8.23885249039222
20
-2.1173968921243
30
0
41
1
10
8.23950053123508
20
-2.1263055323065
30
0
41
1
10
8.24253525861457
20
-2.1529753982465
30
0
41
1
10
8.24600455683492
20
-2.1706810327878
30
0
41
1
10
8.2560412743843
20
-2.20591326410806
30
0
41
1
10
8.26270519214074
20
-2.22359146252228
30
0
41
1
10
8.27884219694295
20
-2.25728278889159
30
0
41
1
10
8.28832810890594
20
-2.27344363209613
30
0
41
1
10
8.30476956719906
20
-2.2966085196428
30
0
41
1
10
8.31062071079111
20
-2.30414985530604
30
0
41
1
10
8.32310558261315
20
-2.31885091774438
30
0
41
1
10
8.32968157013158
20
-2.32593731366956
30
0
41
1
10
8.35016518905923
20
-2.34616725185208
30
0
41
1
10
8.36491346746789
20
-2.35839741574813
30
0
41
1
10
8.38076777028505
20
-2.36935526243212
30
0
0
SPLINE
5
116
100
AcDbEntity
8
1
62
256
6
ByLayer
370
18
48
1
60
0
100
AcDbSpline
70
4
71
3
72
24
73
20
40
0
40
0
40
0
40
0
40
0.124999999999999
40
0.124999999999999
40
0.187499999999998
40
0.187499999999998
40
0.249999999999998
40
0.249999999999998
40
0.374999999999997
40
0.374999999999997
40
0.499999999999996
40
0.499999999999996
40
0.624999999999995
40
0.624999999999995
40
0.687499999999996
40
0.687499999999996
40
0.749999999999996
40
0.749999999999996
40
1
40
1
40
1
40
1
41
1
10
7.54027994076864
20
-0.564286404792995
30
0
41
1
10
7.53846171122745
20
-0.583473050229429
30
0
41
1
10
7.53832910389349
20
-0.602632148335545
30
0
41
1
10
7.54062739809001
20
-0.631329654969875
30
0
41
1
10
7.5418181908525
20
-0.640923540087385
30
0
41
1
10
7.54503345221371
20
-0.659940778467558
30
0
41
1
10
7.54703896342107
20
-0.669272742340013
30
0
41
1
10
7.55418516133386
20
-0.696765749109886
30
0
41
1
10
7.560447893174
20
-0.714427390277933
30
0
41
1
10
7.57584619205909
20
-0.748462677671455
30
0
41
1
10
7.5850865545076
20
-0.764941215253884
30
0
41
1
10
7.60559056306636
20
-0.795299598873441
30
0
41
1
10
7.61690812291681
20
-0.809350875103121
30
0
41
1
10
7.6353659375269
20
-0.828839343471543
30
0
41
1
10
7.64176682972015
20
-0.835069303821342
30
0
41
1
10
7.65506064359181
20
-0.846998097630035
30
0
41
1
10
7.66198030696194
20
-0.852714242694788
30
0
41
1
10
7.69719690069837
20
-0.879501483192655
30
0
41
1
10
7.72763816496172
20
-0.895672259372759
30
0
41
1
10
7.76008037293764
20
-0.906993382997996
30
0
0
SPLINE
5
117
100
AcDbEntity
8
1
62
256
6
ByLayer
370
35
48
1
60
0
100
AcDbSpline
70
4
71
3
72
34
73
30
40
0
40
0
40
0
40
0
40
0.124999999999987
40
0.124999999999987
40
0.187499999999981
40
0.187499999999981
40
0.249999999999975
40
0.312499999999969
40
0.312499999999969
40
0.343749999999968
40
0.343749999999968
40
0.374999999999968
40
0.374999999999968
40
0.499999999999976
40
0.499999999999976
40
0.562499999999977
40
0.562499999999977
40
0.624999999999977
40
0.624999999999977
40
0.749999999999989
40
0.749999999999989
40
0.812499999999989
40
0.812499999999989
40
0.87499999999999
40
0.93749999999999
40
0.93749999999999
40
0.968749999999995
40
0.968749999999995
40
1
40
1
40
1
40
1
41
1
10
20.0000000000003
20
3.14999999999998
30
0
41
1
10
20.0000000000003
20
3.18561203625893
30
0
41
1
10
20.003760733076
20
3.22046412291297
30
0
41
1
10
20.0147150365674
20
3.27166821659625
30
0
41
1
10
20.0192803199443
20
3.28861686567171
30
0
41
1
10
20.0301439525974
20
3.32187594642852
30
0
41
1
10
20.0425997394046
20
3.35411448190183
30
0
41
1
10
20.0580424336562
20
3.38443725071062
30
0
41
1
10
20.0707111530517
20
3.40648180174787
30
0
41
1
10
20.0751155039928
20
3.41371352008934
30
0
41
1
10
20.0842857409446
20
3.42794479747448
30
0
41
1
10
20.0890635735572
20
3.43495966381442
30
0
41
1
10
20.1136080880283
20
3.46911345259809
30
0
41
1
10
20.1354375651309
20
3.49373367884613
30
0
41
1
10
20.1711533745831
20
3.5269940976653
30
0
41
1
10
20.1836108533035
20
3.53750275877132
30
0
41
1
10
20.2092596808168
20
3.55710016826816
30
0
41
1
10
20.2223962359215
20
3.56615665537436
30
0
41
1
10
20.2626862228282
20
3.59122898560355
30
0
41
1
10
20.2907126902264
20
3.60516492489643
30
0
41
1
10
20.3344335901445
20
3.62205067063775
30
0
41
1
10
20.3492239485124
20
3.62697402686655
30
0
41
1
10
20.3788937079396
20
3.63535647315234
30
0
41
1
10
20.4087510080236
20
3.64231360761124
30
0
41
1
10
20.4389723445753
20
3.64649638821226
30
0
41
1
10
20.4617743510019
20
3.64859508553263
30
0
41
1
10
20.469397723872
20
3.64912131736878
30
0
41
1
10
20.484690239175
20
3.64982416906315
30
0
41
1
10
20.492406189536
20
3.64999999999998
30
0
41
1
10
20.5000000000003
20
3.64999999999998
30
0
0
SPLINE
5
118
100
AcDbEntity
8
1
62
256
6
ByLayer
370
35
48
1
60
0
100
AcDbSpline
70
4
71
3
72
16
73
12
40
0
40
0
40
0
40
0
40
0.125
40
0.125
40
0.25
40
0.25
40
0.5
40
0.5
40
0.75
40
0.75
40
1
40
1
40
1
40
1
41
1
10
21.780876267512
20
5.85000000000002
30
0
41
1
10
21.7339375766067
20
5.85000000000002
30
0
41
1
10
21.6869373183023
20
5.85112425317129
30
0
41
1
10
21.5928368283901
20
5.85519832475711
30
0
41
1
10
21.5457031631785
20
5.858158799629
30
0
41
1
10
21.4053553482051
20
5.86932663825695
30
0
41
1
10
21.3127568220085
20
5.8798039521659
30
0
41
1
10
21.1291537884193
20
5.90575835923954
30
0
41
1
10
21.0381553821736
20
5.92125458918451
30
0
41
1
10
20.8576753358224
20
5.9570045185996
30
0
41
1
10
20.7681947468107
20
5.97726151491781
30
0
41
1
10
20.6795053006774
20
6
30
0
0
SPLINE
5
119
100
AcDbEntity
8
1
62
256
6
ByLayer
370
18
48
1
60
0
100
AcDbSpline
70
4
71
3
72
17
73
13
40
0
40
0
40
0
40
0
40
0.25
40
0.25
40
0.5
40
0.5
40
0.5625
40
0.5625
40
0.625
40
0.750000000000001
40
0.750000000000001
40
1
40
1
40
1
40
1
41
1
10
8.25995911580003
20
-1.98055509281591
30
0
41
1
10
8.27432192635706
20
-1.94279842736807
30
0
41
1
10
8.28590870136225
20
-1.90406069493395
30
0
41
1
10
8.30341796936773
20
-1.82442316900511
30
0
41
1
10
8.30934712177634
20
-1.78352748763041
30
0
41
1
10
8.31283253549259
20
-1.73076291643406
30
0
41
1
10
8.31333206867146
20
-1.72010192411454
30
0
41
1
10
8.31391528084691
20
-1.69875093592498
30
0
41
1
10
8.31416929106922
20
-1.66668359656711
30
0
41
1
10
8.312552137279
20
-1.63448092767004
30
0
41
1
10
8.30674442223074
20
-1.56985595918866
30
0
41
1
10
8.29946950865519
20
-1.52648204421342
30
0
41
1
10
8.28829714932169
20
-1.48268833869338
30
0
0
SPLINE
5
11A
100
AcDbEntity
8
1
62
256
6
ByLayer
370
18
48
1
60
0
100
AcDbSpline
70
4
71
3
72
18
73
14
40
0
40
0
40
0
40
0
40
0.249999999999999
40
0.249999999999999
40
0.374999999999998
40
0.374999999999998
40
0.437499999999998
40
0.437499999999998
40
0.499999999999998
40
0.499999999999998
40
0.749999999999999
40
0.749999999999999
40
1
40
1
40
1
40
1
41
1
10
8.15934960193567
20
-1.20575487947912
30
0
41
1
10
8.13301944532031
20
-1.16901012637442
30
0
41
1
10
8.10452315768214
20
-1.13554915400874
30
0
41
1
10
8.05886647554757
20
-1.08956498068176
30
0
41
1
10
8.04315809118498
20
-1.07494403432025
30
0
41
1
10
8.01887271601129
20
-1.0540281088135
30
0
41
1
10
8.0106569435012
20
-1.04722564977607
30
0
41
1
10
7.99398395081744
20
-1.03395527687707
30
0
41
1
10
7.98550729180954
20
-1.02747344871062
30
0
41
1
10
7.94280282138152
20
-0.996100750119069
30
0
41
1
10
7.90763865094857
20
-0.974280114262569
30
0
41
1
10
7.83535044538314
20
-0.936377948283734
30
0
41
1
10
7.79822524312783
20
-0.920304523578068
30
0
41
1
10
7.76008037293764
20
-0.906993382997996
30
0
0
SPLINE
5
11B
100
AcDbEntity
8
1
62
256
6
ByLayer
370
18
48
1
60
0
100
AcDbSpline
70
4
71
3
72
24
73
20
40
0
40
0
40
0
40
0
40
0.124999999999998
40
0.124999999999998
40
0.187499999999998
40
0.187499999999998
40
0.249999999999997
40
0.249999999999997
40
0.374999999999996
40
0.374999999999996
40
0.499999999999995
40
0.499999999999995
40
0.624999999999994
40
0.624999999999994
40
0.687499999999994
40
0.687499999999994
40
0.749999999999995
40
0.749999999999995
40
1
40
1
40
1
40
1
41
1
10
11.459720059232
20
-0.935713595207005
30
0
41
1
10
11.4615382887732
20
-0.916526949770571
30
0
41
1
10
11.4616708961072
20
-0.897367851664455
30
0
41
1
10
11.4593726019107
20
-0.868670345030125
30
0
41
1
10
11.4581818091482
20
-0.859076459912615
30
0
41
1
10
11.454966547787
20
-0.840059221532442
30
0
41
1
10
11.4529610365796
20
-0.83072725765993
30
0
41
1
10
11.4458148386668
20
-0.803234250890114
30
0
41
1
10
11.4395521068267
20
-0.785572609722067
30
0
41
1
10
11.4241538079416
20
-0.751537322328488
30
0
41
1
10
11.4149134454931
20
-0.735058784746116
30
0
41
1
10
11.3944094369343
20
-0.704700401126559
30
0
41
1
10
11.3830918770839
20
-0.690649124896879
30
0
41
1
10
11.3646340624738
20
-0.671160656528457
30
0
41
1
10
11.3582331702805
20
-0.664930696178658
30
0
41
1
10
11.3449393564089
20
-0.653001902369965
30
0
41
1
10
11.3380196930387
20
-0.647285757305212
30
0
41
1
10
11.3028030993023
20
-0.620498516807345
30
0
41
1
10
11.272361835039
20
-0.604327740627241
30
0
41
1
10
11.2399196270632
20
-0.593006617002004
30
0
0
SPLINE
5
11C
100
AcDbEntity
8
1
62
256
6
ByLayer
370
18
48
1
60
0
100
AcDbSpline
70
4
71
3
72
24
73
20
40
0
40
0
40
0
40
0
40
0.250000000000002
40
0.250000000000002
40
0.312500000000003
40
0.312500000000003
40
0.375000000000003
40
0.375000000000003
40
0.500000000000002
40
0.500000000000002
40
0.625000000000001
40
0.625000000000001
40
0.749999999999999
40
0.749999999999999
40
0.812499999999999
40
0.812499999999999
40
0.874999999999999
40
0.874999999999999
40
1
40
1
40
1
40
1
41
1
10
10.7400408842006
20
0.480555092815905
30
0
41
1
10
10.7522578058885
20
0.512670689073275
30
0
41
1
10
10.7594752730839
20
0.546376367222422
30
0
41
1
10
10.7616413158643
20
0.590569952577766
30
0
41
1
10
10.7617204147339
20
0.599544906556901
30
0
41
1
10
10.7611475096085
20
0.617396892124304
30
0
41
1
10
10.7604994687656
20
0.626305532306503
30
0
41
1
10
10.7574647413861
20
0.652975398246554
30
0
41
1
10
10.7539954431658
20
0.670681032787854
30
0
41
1
10
10.7439587256164
20
0.705913264108062
30
0
41
1
10
10.7372948078599
20
0.723591462522279
30
0
41
1
10
10.7211578030577
20
0.757282788891587
30
0
41
1
10
10.7116718910947
20
0.773443632096132
30
0
41
1
10
10.6952304328016
20
0.796608519642803
30
0
41
1
10
10.6893792892096
20
0.804149855306036
30
0
41
1
10
10.6768944173875
20
0.818850917744385
30
0
41
1
10
10.6703184298691
20
0.825937313669556
30
0
41
1
10
10.6498348109415
20
0.84616725185208
30
0
41
1
10
10.6350865325328
20
0.858397415748129
30
0
41
1
10
10.6192322297156
20
0.869355262432123
30
0
0
SPLINE
5
11D
100
AcDbEntity
8
1
62
256
6
ByLayer
370
18
48
1
60
0
100
AcDbSpline
70
4
71
3
72
18
73
14
40
0
40
0
40
0
40
0
40
0.249999999999999
40
0.249999999999999
40
0.374999999999999
40
0.374999999999999
40
0.437499999999998
40
0.437499999999998
40
0.499999999999998
40
0.499999999999998
40
0.749999999999999
40
0.749999999999999
40
1
40
1
40
1
40
1
41
1
10
10.840650398065
20
-0.294245120520884
30
0
41
1
10
10.8669805546805
20
-0.330989873625811
30
0
41
1
10
10.8954768423189
20
-0.364450845991541
30
0
41
1
10
10.9411335244533
20
-0.41043501931847
30
0
41
1
10
10.9568419088158
20
-0.42505596567986
30
0
41
1
10
10.9811272839894
20
-0.445971891186446
30
0
41
1
10
10.9893430564994
20
-0.452774350223876
30
0
41
1
10
11.006016049183
20
-0.466044723122764
30
0
41
1
10
11.0144927081909
20
-0.47252655128915
30
0
41
1
10
11.0571971786191
20
-0.503899249880874
30
0
41
1
10
11.0923613490521
20
-0.525719885737431
30
0
41
1
10
11.1646495546177
20
-0.563622051716266
30
0
41
1
10
11.2017747568728
20
-0.579695476421989
30
0
41
1
10
11.2399196270632
20
-0.593006617002004
30
0
0
SPLINE
5
11E
100
AcDbEntity
8
1
62
256
6
ByLayer
370
18
48
1
60
0
100
AcDbSpline
70
4
71
3
72
17
73
13
40
0
40
0
40
0
40
0
40
0.250000000000001
40
0.250000000000001
40
0.500000000000002
40
0.500000000000002
40
0.562500000000002
40
0.562500000000002
40
0.625000000000002
40
0.750000000000001
40
0.750000000000001
40
1
40
1
40
1
40
1
41
1
10
10.7400408842006
20
0.480555092815905
30
0
41
1
10
10.7256780736436
20
0.442798427368018
30
0
41
1
10
10.7140912986384
20
0.404060694933833
30
0
41
1
10
10.6965820306328
20
0.324423169004888
30
0
41
1
10
10.6906528782243
20
0.283527487630067
30
0
41
1
10
10.687167464508
20
0.230762916433662
30
0
41
1
10
10.6866679313292
20
0.220101924114147
30
0
41
1
10
10.6860847191538
20
0.198750935924522
30
0
41
1
10
10.6858307089315
20
0.166683596566656
30
0
41
1
10
10.6874478627217
20
0.134480927669585
30
0
41
1
10
10.6932555777699
20
0.0698559591882599
30
0
41
1
10
10.7005304913455
20
0.0264820442131963
30
0
41
1
10
10.711702850679
20
-0.0173116613066213
30
0
0
SPLINE
5
11F
100
AcDbEntity
8
1
62
256
6
ByLayer
370
18
48
1
60
0
100
AcDbSpline
70
4
71
3
72
26
73
22
40
0
40
0
40
0
40
0
40
0.125
40
0.125
40
0.25
40
0.25
40
0.312500000000001
40
0.312500000000001
40
0.375000000000001
40
0.375000000000001
40
0.5
40
0.5
40
0.562499999999999
40
0.562499999999999
40
0.624999999999999
40
0.624999999999999
40
0.749999999999999
40
0.749999999999999
40
0.874999999999999
40
0.874999999999999
40
1
40
1
40
1
40
1
41
1
10
8.66907457892307
20
1.03453220609987
30
0
41
1
10
8.65208405197734
20
1.02662096711606
30
0
41
1
10
8.63550733468719
20
1.01709642461384
30
0
41
1
10
8.60476553147544
20
0.995747253343836
30
0
41
1
10
8.59045842229079
20
0.983887184199602
30
0
41
1
10
8.57056284293753
20
0.964356368010385
30
0
41
1
10
8.56416474121681
20
0.957518786307617
30
0
41
1
10
8.55209444423122
20
0.943478213489641
30
0
41
1
10
8.54641089449763
20
0.93627049015555
30
0
41
1
10
8.53036939966807
20
0.914111547235507
30
0
41
1
10
8.52101426823754
20
0.8986278335679
30
0
41
1
10
8.50893797678623
20
0.874373758589456
30
0
41
1
10
8.50525418582026
20
0.86613691977692
30
0
41
1
10
8.49864616606078
20
0.849607594977442
30
0
41
1
10
8.49570486732569
20
0.841281878809411
30
0
41
1
10
8.48792488251263
20
0.816132568370392
30
0
41
1
10
8.48412418927012
20
0.799137765662067
30
0
41
1
10
8.47921972586403
20
0.764722650467832
30
0
41
1
10
8.47816486472789
20
0.747609852275389
30
0
41
1
10
8.47864366554541
20
0.713791931096239
30
0
41
1
10
8.48017352926672
20
0.697050236196674
30
0
41
1
10
8.48296832012534
20
0.680482110857611
30
0
0
SPLINE
5
120
100
AcDbEntity
8
1
62
256
6
ByLayer
370
18
48
1
60
0
100
AcDbSpline
70
4
71
3
72
24
73
20
40
0
40
0
40
0
40
0
40
0.0625000000000011
40
0.0625000000000011
40
0.125000000000002
40
0.125000000000002
40
0.250000000000005
40
0.250000000000005
40
0.312500000000005
40
0.312500000000005
40
0.375000000000005
40
0.375000000000005
40
0.500000000000004
40
0.500000000000004
40
0.625000000000004
40
0.625000000000004
40
0.750000000000003
40
0.750000000000003
40
1
40
1
40
1
40
1
41
1
10
7.54027994076864
20
-0.564286404792995
30
0
41
1
10
7.54116594734705
20
-0.554936928453344
30
0
41
1
10
7.5424622578663
20
-0.545540379960869
30
0
41
1
10
7.54585606779494
20
-0.526924827269454
30
0
41
1
10
7.54793875318762
20
-0.51776503781565
30
0
41
1
10
7.55530202619104
20
-0.490713763953408
30
0
41
1
10
7.56169025173301
20
-0.473247402843242
30
0
41
1
10
7.57347232428822
20
-0.447894440405491
30
0
41
1
10
7.5777798577052
20
-0.439573683672904
30
0
41
1
10
7.58695402630474
20
-0.423536874259014
30
0
41
1
10
7.59183842467644
20
-0.415778422662243
30
0
41
1
10
7.60734768452687
20
-0.393254065911265
30
0
41
1
10
7.61882328854949
20
-0.379234378901174
30
0
41
1
10
7.64399828079672
20
-0.353161463081562
30
0
41
1
10
7.65736789242169
20
-0.341448638465067
30
0
41
1
10
7.68550431222729
20
-0.320450629482821
30
0
41
1
10
7.70032485789056
20
-0.311139192258622
30
0
41
1
10
7.7465007618282
20
-0.286958067041667
30
0
41
1
10
7.77853338773639
20
-0.276234481344034
30
0
41
1
10
7.81161958091138
20
-0.270412606723255
30
0
0
SPLINE
5
121
100
AcDbEntity
8
1
62
256
6
ByLayer
370
18
48
1
60
0
100
AcDbSpline
70
4
71
3
72
34
73
30
40
0
40
0
40
0
40
0
40
0.125
40
0.125
40
0.187499999999999
40
0.187499999999999
40
0.218749999999999
40
0.218749999999999
40
0.249999999999998
40
0.249999999999998
40
0.374999999999999
40
0.374999999999999
40
0.406249999999999
40
0.406249999999999
40
0.4375
40
0.5
40
0.5625
40
0.5625
40
0.625
40
0.625
40
0.6875
40
0.6875
40
0.75
40
0.75
40
0.875
40
0.875
40
0.9375
40
0.9375
40
1
40
1
40
1
40
1
41
1
10
7.81161958091138
20
-0.270412606723255
30
0
41
1
10
7.8615694580194
20
-0.2616233839708
30
0
41
1
10
7.91063621220519
20
-0.248298785675956
30
0
41
1
10
7.98307742621432
20
-0.221087661874549
30
0
41
1
10
8.00703081951679
20
-0.210804184432448
30
0
41
1
10
8.04268648797608
20
-0.193399978627781
30
0
41
1
10
8.05455264811133
20
-0.18725297975169
30
0
41
1
10
8.07806884945978
20
-0.174328766480642
30
0
41
1
10
8.08968128296738
20
-0.167573978323446
30
0
41
1
10
8.14701903377727
20
-0.13231512577778
30
0
41
1
10
8.19060203504739
20
-0.0994209815974614
30
0
41
1
10
8.24200119972886
20
-0.0515038989406662
30
0
41
1
10
8.25213580172522
20
-0.0415601784583828
30
0
41
1
10
8.27176330824091
20
-0.0212848410693596
30
0
41
1
10
8.30036444393579
20
0.0098206367339344
30
0
41
1
10
8.34388217897651
20
0.0650891965130995
30
0
41
1
10
8.37423990218804
20
0.112986220366167
30
0
41
1
10
8.40228012265607
20
0.162796229012315
30
0
41
1
10
8.41480387358308
20
0.188058141961676
30
0
41
1
10
8.43705333600599
20
0.23921223027628
30
0
41
1
10
8.44678322504774
20
0.265113477032401
30
0
41
1
10
8.46356841072577
20
0.31756604024622
30
0
41
1
10
8.4706277533021
20
0.34421057048138
30
0
41
1
10
8.48750922263821
20
0.423247575236871
30
0
41
1
10
8.49332188014159
20
0.475360353361736
30
0
41
1
10
8.4948210379448
20
0.553049740344363
30
0
41
1
10
8.49409586622642
20
0.578945375641638
30
0
41
1
10
8.49027448127924
20
0.63015883288034
30
0
41
1
10
8.48718932235965
20
0.655459095680158
30
0
41
1
10
8.48296832012534
20
0.680482110857611
30
0
0
SPLINE
5
122
100
AcDbEntity
8
1
62
256
6
ByLayer
370
18
48
1
60
0
100
AcDbSpline
70
4
71
3
72
24
73
20
40
0
40
0
40
0
40
0
40
0.0624999999999994
40
0.0624999999999994
40
0.124999999999999
40
0.124999999999999
40
0.249999999999996
40
0.249999999999996
40
0.312499999999996
40
0.312499999999996
40
0.374999999999996
40
0.374999999999996
40
0.499999999999996
40
0.499999999999996
40
0.624999999999997
40
0.624999999999997
40
0.749999999999997
40
0.749999999999997
40
1
40
1
40
1
40
1
41
1
10
11.459720059232
20
-0.935713595207005
30
0
41
1
10
11.4588340526536
20
-0.945063071546656
30
0
41
1
10
11.4575377421344
20
-0.954459620039131
30
0
41
1
10
11.4541439322057
20
-0.973075172730546
30
0
41
1
10
11.4520612468131
20
-0.98223496218435
30
0
41
1
10
11.4446979738096
20
-1.00928623604659
30
0
41
1
10
11.4383097482677
20
-1.02675259715676
30
0
41
1
10
11.4265276757125
20
-1.05210555959451
30
0
41
1
10
11.4222201422955
20
-1.0604263163271
30
0
41
1
10
11.4130459736959
20
-1.07646312574099
30
0
41
1
10
11.4081615753242
20
-1.08422157733776
30
0
41
1
10
11.3926523154738
20
-1.10674593408873
30
0
41
1
10
11.3811767114512
20
-1.12076562109883
30
0
41
1
10
11.356001719204
20
-1.14683853691844
30
0
41
1
10
11.342632107579
20
-1.15855136153493
30
0
41
1
10
11.3144956877734
20
-1.17954937051718
30
0
41
1
10
11.2996751421101
20
-1.18886080774138
30
0
41
1
10
11.2534992381725
20
-1.21304193295833
30
0
41
1
10
11.2214666122643
20
-1.22376551865591
30
0
41
1
10
11.1883804190893
20
-1.22958739327674
30
0
0
SPLINE
5
123
100
AcDbEntity
8
1
62
256
6
ByLayer
370
18
48
1
60
0
100
AcDbSpline
70
4
71
3
72
34
73
30
40
0
40
0
40
0
40
0
40
0.125
40
0.125
40
0.1875
40
0.1875
40
0.21875
40
0.21875
40
0.25
40
0.25
40
0.374999999999999
40
0.374999999999999
40
0.406249999999999
40
0.406249999999999
40
0.437499999999999
40
0.499999999999999
40
0.562499999999999
40
0.562499999999999
40
0.624999999999999
40
0.624999999999999
40
0.687499999999999
40
0.687499999999999
40
0.75
40
0.75
40
0.875
40
0.875
40
0.9375
40
0.9375
40
1
40
1
40
1
40
1
41
1
10
11.1883804190893
20
-1.22958739327674
30
0
41
1
10
11.1384305419813
20
-1.2383766160292
30
0
41
1
10
11.0893637877955
20
-1.25170121432404
30
0
41
1
10
11.0169225737864
20
-1.27891233812545
30
0
41
1
10
10.9929691804839
20
-1.28919581556755
30
0
41
1
10
10.9573135120246
20
-1.30660002137222
30
0
41
1
10
10.9454473518894
20
-1.31274702024831
30
0
41
1
10
10.9219311505409
20
-1.32567123351936
30
0
41
1
10
10.9103187170333
20
-1.33242602167655
30
0
41
1
10
10.8529809662234
20
-1.36768487422222
30
0
41
1
10
10.8093979649533
20
-1.40057901840254
30
0
41
1
10
10.7579988002718
20
-1.44849610105933
30
0
41
1
10
10.7478641982755
20
-1.45843982154162
30
0
41
1
10
10.7282366917598
20
-1.47871515893064
30
0
41
1
10
10.6996355560649
20
-1.50982063673393
30
0
41
1
10
10.6561180650532
20
-1.56508938841267
30
0
41
1
10
10.6257600978126
20
-1.61298622036617
30
0
41
1
10
10.5977198773446
20
-1.66279622901232
30
0
41
1
10
10.5851961264176
20
-1.68805814196168
30
0
41
1
10
10.5629466639947
20
-1.73921223027628
30
0
41
1
10
10.5532167749529
20
-1.7651134770324
30
0
41
1
10
10.5364315892749
20
-1.81756604024622
30
0
41
1
10
10.5293722466986
20
-1.84421057048138
30
0
41
1
10
10.5124907773625
20
-1.92324757523687
30
0
41
1
10
10.5066781198591
20
-1.97536035336174
30
0
41
1
10
10.5051789620559
20
-2.05304974034436
30
0
41
1
10
10.5059041337743
20
-2.07894537564164
30
0
41
1
10
10.5097255187214
20
-2.13015883288034
30
0
41
1
10
10.512810677641
20
-2.15545909568016
30
0
41
1
10
10.5170316798753
20
-2.18048211085761
30
0
0
SPLINE
5
124
100
AcDbEntity
8
1
62
256
6
ByLayer
370
18
48
1
60
0
100
AcDbSpline
70
4
71
3
72
26
73
22
40
0
40
0
40
0
40
0
40
0.125
40
0.125
40
0.250000000000001
40
0.250000000000001
40
0.312500000000001
40
0.312500000000001
40
0.375000000000001
40
0.375000000000001
40
0.5
40
0.5
40
0.5625
40
0.5625
40
0.625
40
0.625
40
0.749999999999999
40
0.749999999999999
40
0.874999999999999
40
0.874999999999999
40
1
40
1
40
1
40
1
41
1
10
10.3309254210776
20
-2.53453220609987
30
0
41
1
10
10.3479159480233
20
-2.52662096711606
30
0
41
1
10
10.3644926653135
20
-2.51709642461384
30
0
41
1
10
10.3952344685252
20
-2.49574725334384
30
0
41
1
10
10.4095415777099
20
-2.4838871841996
30
0
41
1
10
10.4294371570632
20
-2.46435636801038
30
0
41
1
10
10.4358352587839
20
-2.45751878630762
30
0
41
1
10
10.4479055557695
20
-2.44347821348964
30
0
41
1
10
10.4535891055031
20
-2.43627049015555
30
0
41
1
10
10.4696306003326
20
-2.41411154723551
30
0
41
1
10
10.4789857317631
20
-2.3986278335679
30
0
41
1
10
10.4910620232145
20
-2.37437375858946
30
0
41
1
10
10.4947458141804
20
-2.36613691977692
30
0
41
1
10
10.5013538339399
20
-2.34960759497744
30
0
41
1
10
10.504295132675
20
-2.34128187880941
30
0
41
1
10
10.5120751174881
20
-2.31613256837039
30
0
41
1
10
10.5158758107306
20
-2.29913776566207
30
0
41
1
10
10.5207802741366
20
-2.26472265046783
30
0
41
1
10
10.5218351352728
20
-2.24760985227539
30
0
41
1
10
10.5213563344553
20
-2.21379193109624
30
0
41
1
10
10.519826470734
20
-2.19705023619662
30
0
41
1
10
10.5170316798753
20
-2.18048211085761
30
0
0
SPLINE
5
125
100
AcDbEntity
8
1
62
256
6
ByLayer
370
35
48
1
60
0
100
AcDbSpline
70
4
71
2
72
6
73
3
40
0
40
0
40
0
40
1
40
1
40
1
41
1.03186391735993
10
27.5558058418609
20
3.50479132011118
30
0
41
1.03138264657361
10
27.677788946806
20
3.4973305137986
30
0
41
1.03186391735993
10
27.8000000000004
20
3.49733051379862
30
0
0
SPLINE
5
126
100
AcDbEntity
8
1
62
256
6
ByLayer
370
35
48
1
60
0
100
AcDbSpline
70
4
71
2
72
6
73
3
40
0
40
0
40
0
40
1
40
1
40
1
41
1.03186391735993
10
27.8000000000004
20
3.49733051379862
30
0
41
0.729637973226922
10
28.0000000000003
20
3.49733051379865
30
0
41
1.03186391735993
10
28.0000000000003
20
3.69733051379861
30
0
0
SPLINE
5
127
100
AcDbEntity
8
1
62
256
6
ByLayer
370
35
48
1
60
0
100
AcDbSpline
70
4
71
2
72
6
73
3
40
0
40
0
40
0
40
1
40
1
40
1
41
1.03186391735993
10
28.0000000000003
20
5.8026694862014
30
0
41
0.729637973226922
10
28.0000000000003
20
6.00266948620143
30
0
41
1.03186391735993
10
27.8000000000004
20
6.00266948620139
30
0
0
SPLINE
5
128
100
AcDbEntity
8
1
62
256
6
ByLayer
370
35
48
1
60
0
100
AcDbSpline
70
4
71
2
72
6
73
3
40
0
40
0
40
0
40
1
40
1
40
1
41
1.03186391735993
10
27.8000000000004
20
6.00266948620139
30
0
41
1.03138264657361
10
27.677788946806
20
6.0026694862014
30
0
41
1.03186391735993
10
27.5558058418609
20
5.99520867988883
30
0
0
SPLINE
5
129
100
AcDbEntity
8
1
62
256
6
ByLayer
370
35
48
1
60
0
100
AcDbSpline
70
4
71
2
72
6
73
3
40
0
40
0
40
0
40
1
40
1
40
1
41
1.03186391735993
10
8.20000000000037
20
6.00266948620134
30
0
41
1.03158869803517
10
8.26987360589436
20
6.00266948620135
30
0
41
1.03162825234253
10
8.3397045816269
20
6.00022907048177
30
0
0
SPLINE
5
12A
100
AcDbEntity
8
1
62
256
6
ByLayer
370
35
48
1
60
0
100
AcDbSpline
70
4
71
2
72
6
73
3
40
0
40
0
40
0
40
1
40
1
40
1
41
0.985519794152165
10
8.17582823576866
20
6.0012034274152
30
0
41
1.00657595127805
10
8.18786965839981
20
6.00266948620138
30
0
41
1.03186391735993
10
8.20000000000037
20
6.00266948620134
30
0
0
SPLINE
5
12B
100
AcDbEntity
8
SK1
62
256
6
ByLayer
370
35
48
1
60
0
100
AcDbSpline
70
4
71
3
72
8
73
4
40
0
40
0
40
0
40
0
40
1
40
1
40
1
40
1
41
1
10
-14.5767949192427
20
-1
30
0
41
0.999918993434324
10
-14.634822295013
20
-1.03350212102123
30
0
41
0.999918993434324
10
-14.6925619992271
20
-1.0668381547922
30
0
41
1
10
-14.7499999999997
20
-1.10000000000002
30
0
0
SPLINE
5
12C
100
AcDbEntity
8
SK1
62
256
6
ByLayer
370
35
48
1
60
0
100
AcDbSpline
70
4
71
3
72
21
73
17
40
0
40
0
40
0
40
0
40
0.125
40
0.125
40
0.25
40
0.25
40
0.375
40
0.375
40
0.5
40
0.5
40
0.625
40
0.625
40
0.75
40
0.75
40
0.875
40
1
40
1
40
1
40
1
41
1
10
-12.0498979485562
20
0.100000000000023
30
0
41
1
10
-12.0441824513285
20
0.128000103668398
30
0
41
1
10
-12.0361703763641
20
0.15509320527002
30
0
41
1
10
-12.0157572786003
20
0.207551036254984
30
0
41
1
10
-12.0033432309288
20
0.232937227477464
30
0
41
1
10
-11.9739886332358
20
0.281826868674443
30
0
41
1
10
-11.957449623491
20
0.304670194508901
30
0
41
1
10
-11.9207969502696
20
0.347297698396403
30
0
41
1
10
-11.9006446513515
20
0.367113773310621
30
0
41
1
10
-11.8567496608686
20
0.403424019888803
30
0
41
1
10
-11.833565077747
20
0.419467408587707
30
0
41
1
10
-11.784806294892
20
0.447496244014474
30
0
41
1
10
-11.7591769118569
20
0.459502084981068
30
0
41
1
10
-11.705627748678
20
0.479172377265002
30
0
41
1
10
-11.6511573528256
20
0.494018872730464
30
0
41
1
10
-11.5949121669814
20
0.499598391205041
30
0
41
1
10
-11.5663240377403
20
0.49996000494707
30
0
0
SPLINE
5
12D
100
AcDbEntity
8
SK1
62
256
6
ByLayer
370
35
48
1
60
0
100
AcDbSpline
70
4
71
3
72
34
73
30
40
0
40
0
40
0
40
0
40
0.125000000000003
40
0.125000000000003
40
0.187500000000005
40
0.187500000000005
40
0.250000000000006
40
0.250000000000006
40
0.375000000000012
40
0.375000000000012
40
0.437500000000014
40
0.437500000000014
40
0.468750000000015
40
0.468750000000015
40
0.500000000000016
40
0.500000000000016
40
0.625000000000011
40
0.625000000000011
40
0.65625000000001
40
0.65625000000001
40
0.687500000000009
40
0.687500000000009
40
0.750000000000006
40
0.750000000000006
40
0.875000000000003
40
0.875000000000003
40
0.937500000000002
40
0.937500000000002
40
1
40
1
40
1
40
1
41
1
10
-13.4999999999997
20
1
30
0
41
1
10
-13.4377829367155
20
1
30
0
41
1
10
-13.3766097831684
20
0.994245031444848
30
0
41
1
10
-13.2863350454876
20
0.977386499422778
30
0
41
1
10
-13.256492507044
20
0.970386682935043
30
0
41
1
10
-13.1973100038777
20
0.953585329056068
30
0
41
1
10
-13.1678342035726
20
0.943722064425174
30
0
41
1
10
-13.0818044436548
20
0.910436313779371
30
0
41
1
10
-13.0272646459365
20
0.883306566860426
30
0
41
1
10
-12.9494889782055
20
0.835383095587417
30
0
41
1
10
-12.9242405449814
20
0.818195649161225
30
0
41
1
10
-12.8874002523089
20
0.790542419302483
30
0
41
1
10
-12.8753157078589
20
0.781027167959223
30
0
41
1
10
-12.8517236265286
20
0.76155869474195
30
0
41
1
10
-12.8401878227492
20
0.751584593573796
30
0
41
1
10
-12.7837860813003
20
0.700529650614612
30
0
41
1
10
-12.7427175705359
20
0.655927268694711
30
0
41
1
10
-12.6964191316665
20
0.595390726150526
30
0
41
1
10
-12.6874134540641
20
0.58304224267539
30
0
41
1
10
-12.6699182365602
20
0.55785250504465
30
0
41
1
10
-12.6614111511749
20
0.544981138325625
30
0
41
1
10
-12.6369094598774
20
0.505981732444184
30
0
41
1
10
-12.6218706765064
20
0.47939219346074
30
0
41
1
10
-12.5805427710967
20
0.397882319205962
30
0
41
1
10
-12.5580086834338
20
0.341235506911175
30
0
41
1
10
-12.5319533150964
20
0.252651823194412
30
0
41
1
10
-12.5245572079028
20
0.222421663568355
30
0
41
1
10
-12.5126583212218
20
0.16160583660951
30
0
41
1
10
-12.5081217231877
20
0.130935754331858
30
0
41
1
10
-12.5050125628931
20
0.100000000000023
30
0
0
SPLINE
5
12E
100
AcDbEntity
8
SK1
62
256
6
ByLayer
370
35
48
1
60
0
100
AcDbSpline
70
4
71
3
72
8
73
4
40
0
40
0
40
0
40
0
40
1
40
1
40
1
40
1
41
1
10
-14.7499999999997
20
1.10000000000002
30
0
41
0.999918993434324
10
-14.6925619992271
20
1.0668381547922
30
0
41
0.999918993434324
10
-14.634822295013
20
1.03350212102123
30
0
41
1
10
-14.5767949192427
20
1
30
0
0
SPLINE
5
12F
100
AcDbEntity
8
SK1
62
256
6
ByLayer
370
35
48
1
60
0
100
AcDbSpline
70
4
71
3
72
46
73
42
40
0
40
0
40
0
40
0
40
0.124841013261197
40
0.124841013261197
40
0.187261519891796
40
0.187261519891796
40
0.218471773207095
40
0.218471773207095
40
0.249682026522395
40
0.249682026522395
40
0.312102533152994
40
0.374523039783592
40
0.436943546414191
40
0.436943546414191
40
0.45254867307184
40
0.45254867307184
40
0.46815379972949
40
0.46815379972949
40
0.49936405304479
40
0.49936405304479
40
0.561784559675389
40
0.561784559675389
40
0.624205066305989
40
0.624205066305989
40
0.655415319621288
40
0.671020446278938
40
0.671020446278938
40
0.686625572936588
40
0.686625572936588
40
0.749046079567188
40
0.749046079567188
40
0.811466586197787
40
0.811466586197787
40
0.873887092828387
40
0.873887092828387
40
0.905097346143687
40
0.905097346143687
40
0.936307599458986
40
0.936307599458986
40
0.998728106089586
40
1
40
1
40
1
40
1
41
1
10
-4.84999999999968
20
-3.62502605133648
30
0
41
1
10
-5.00727257310189
20
-3.60304572479743
30
0
41
1
10
-5.16209510770591
20
-3.58996498434146
30
0
41
1
10
-5.39071230431364
20
-3.58288011859725
30
0
41
1
10
-5.46631080410839
20
-3.58260336185674
30
0
41
1
10
-5.57876400925818
20
-3.58516810106431
30
0
41
1
10
-5.61609069631777
20
-3.586519315656
30
0
41
1
10
-5.69041927701403
20
-3.59018549547659
30
0
41
1
10
-5.72746841536775
20
-3.59250408849221
30
0
41
1
10
-5.83780700390048
20
-3.60083447157712
30
0
41
1
10
-5.98097370004677
20
-3.61545617531789
30
0
41
1
10
-6.1843320390152
20
-3.64605440260903
30
0
41
1
10
-6.31240132919493
20
-3.67104944327082
30
0
41
1
10
-6.39005943290147
20
-3.68774820783045
30
0
41
1
10
-6.40547150636098
20
-3.69114182033979
30
0
41
1
10
-6.43605434734593
20
-3.69802779805099
30
0
41
1
10
-6.45122921565564
20
-3.7015213467173
30
0
41
1
10
-6.49616103232904
20
-3.71208202115395
30
0
41
1
10
-6.52540327441216
20
-3.71924619578635
30
0
41
1
10
-6.6110288228524
20
-3.74098567982355
30
0
41
1
10
-6.66531665804223
20
-3.75580660163308
30
0
41
1
10
-6.76835025417222
20
-3.7854869933517
30
0
41
1
10
-6.81709640583654
20
-3.80034766508982
30
0
41
1
10
-6.88595558576776
20
-3.82222819305463
30
0
41
1
10
-6.91931792063838
20
-3.83306601354991
30
0
41
1
10
-6.95103773085316
20
-3.84366718378129
30
0
41
1
10
-6.97181292502637
20
-3.85067264575713
30
0
41
1
10
-6.98203029398485
20
-3.85414969657285
30
0
41
1
10
-7.03193731139811
20
-3.87127548164557
30
0
41
1
10
-7.0681184219327
20
-3.88414922533985
30
0
41
1
10
-7.13308642738753
20
-3.90779236048024
30
0
41
1
10
-7.16187336490009
20
-3.91856283307379
30
0
41
1
10
-7.21190847739683
20
-3.93757683725931
30
0
41
1
10
-7.23315800061187
20
-3.9458213842546
30
0
41
1
10
-7.25907688905056
20
-3.95597203246899
30
0
41
1
10
-7.26672916785844
20
-3.95898899576355
30
0
41
1
10
-7.27993394806322
20
-3.96421502647928
30
0
41
1
10
-7.28542955192188
20
-3.96640143341648
30
0
41
1
10
-7.2986608444337
20
-3.97167721113493
30
0
41
1
10
-7.30324064722072
20
-3.97351950780166
30
0
41
1
10
-7.30338141103948
20
-3.97357587777066
30
0
41
1
10
-7.30338245129792
20
-3.97357629128675
30
0
0
SPLINE
5
130
100
AcDbEntity
8
SK1
62
256
6
ByLayer
370
35
48
1
60
0
100
AcDbSpline
70
4
71
3
72
55
73
51
40
0
40
0
40
0
40
0
40
0.0140360832248563
40
0.0140360832248563
40
0.0296863041260491
40
0.0296863041260491
40
0.0609867459284351
40
0.0609867459284351
40
0.123587629533206
40
0.123587629533206
40
0.154888071335592
40
0.170538292236785
40
0.170538292236785
40
0.186188513137978
40
0.186188513137978
40
0.248789396742749
40
0.248789396742749
40
0.311390280347521
40
0.311390280347521
40
0.327040501248714
40
0.327040501248714
40
0.342690722149906
40
0.342690722149906
40
0.373991163952292
40
0.373991163952292
40
0.436592047557063
40
0.436592047557063
40
0.499192931161834
40
0.499192931161834
40
0.53049337296422
40
0.53049337296422
40
0.561793814766606
40
0.561793814766606
40
0.624394698371377
40
0.624394698371377
40
0.686995581976148
40
0.686995581976148
40
0.718296023778534
40
0.718296023778534
40
0.733946244679727
40
0.733946244679727
40
0.749596465580919
40
0.812197349185689
40
0.87479823279046
40
0.87479823279046
40
0.93739911639523
40
0.93739911639523
40
0.968699558197615
40
0.968699558197615
40
1
40
1
40
1
40
1
41
1
10
-2.17631932761787
20
-4.69413823780775
30
0
41
1
10
-2.17632385882712
20
-4.69413549498614
30
0
41
1
10
-2.1765872194062
20
-4.69397620556418
30
0
41
1
10
-2.17769965379864
20
-4.69330350363839
30
0
41
1
10
-2.17861548086296
20
-4.69274973339947
30
0
41
1
10
-2.18232338851374
20
-4.69050866143698
30
0
41
1
10
-2.18607558839676
20
-4.68824159352681
30
0
41
1
10
-2.20105362351728
20
-4.67920777286588
30
0
41
1
10
-2.21598936503972
20
-4.6702123862753
30
0
41
1
10
-2.24557017807206
20
-4.65252156513026
30
0
41
1
10
-2.26215935361415
20
-4.64262512415399
30
0
41
1
10
-2.2814388742953
20
-4.63118839488004
30
0
41
1
10
-2.29489148004882
20
-4.62322488569447
30
0
41
1
10
-2.30192243301053
20
-4.61907075945192
30
0
41
1
10
-2.33832854970581
20
-4.59760950203435
30
0
41
1
10
-2.37161195923409
20
-4.5781365274043
30
0
41
1
10
-2.44590033830116
20
-4.5352316358339
30
0
41
1
10
-2.48690800169436
20
-4.51179737965413
30
0
41
1
10
-2.54283961676219
20
-4.48035259065443
30
0
41
1
10
-2.55426028797456
20
-4.47395581008624
30
0
41
1
10
-2.57756931615086
20
-4.46095394418353
30
0
41
1
10
-2.58946422680992
20
-4.45434531026103
30
0
41
1
10
-2.62566304041604
20
-4.4343209423771
30
0
41
1
10
-2.65053716723617
20
-4.42067519243489
30
0
41
1
10
-2.72730927144198
20
-4.3789648385619
30
0
41
1
10
-2.78134965446623
20
-4.35012892272596
30
0
41
1
10
-2.89494587901186
20
-4.2909494786893
30
0
41
1
10
-2.95450251738248
20
-4.26060429353339
30
0
41
1
10
-3.04799396640249
20
-4.21433694638847
30
0
41
1
10
-3.07989529696852
20
-4.19876971931245
30
0
41
1
10
-3.14454478733774
20
-4.16771691044823
30
0
41
1
10
-3.17735301812513
20
-4.15220097969126
30
0
41
1
10
-3.27721941527875
20
-4.10577955171993
30
0
41
1
10
-3.34571480969851
20
-4.07499979919157
30
0
41
1
10
-3.48660656265668
20
-4.01428476889254
30
0
41
1
10
-3.55900271756195
20
-3.98434835198429
30
0
41
1
10
-3.67068150997431
20
-3.94048172760387
30
0
41
1
10
-3.70842302502717
20
-3.92603288194289
30
0
41
1
10
-3.76583929872493
20
-3.90467485489768
30
0
41
1
10
-3.78513674709325
20
-3.89759930355564
30
0
41
1
10
-3.82385289330955
20
-3.88361795271072
30
0
41
1
10
-3.92095808225747
20
-3.84908341575891
30
0
41
1
10
-4.09859481149976
20
-3.7908430905419
30
0
41
1
10
-4.26074648314886
20
-3.74557933130143
30
0
41
1
10
-4.42517802183772
20
-3.7040632954463
30
0
41
1
10
-4.50853349745012
20
-3.68517907040575
30
0
41
1
10
-4.63543394614067
20
-3.66006346361684
30
0
41
1
10
-4.67805686987435
20
-3.65222515279982
30
0
41
1
10
-4.76391323413702
20
-3.63769769314251
30
0
41
1
10
-4.80691747189235
20
-3.63104724128237
30
0
41
1
10
-4.84999999999968
20
-3.62502605133648
30
0
0
SPLINE
5
131
100
AcDbEntity
8
SK1
62
256
6
ByLayer
370
35
48
1
60
0
100
AcDbSpline
70
4
71
3
72
46
73
42
40
0
40
0
40
0
40
0
40
0.124748191577916
40
0.124748191577916
40
0.187122287366874
40
0.187122287366874
40
0.218309335261353
40
0.218309335261353
40
0.249496383155833
40
0.249496383155833
40
0.311870478944791
40
0.374244574733749
40
0.436618670522707
40
0.436618670522707
40
0.452212194469947
40
0.452212194469947
40
0.467805718417186
40
0.467805718417186
40
0.498992766311666
40
0.498992766311666
40
0.561366862100624
40
0.561366862100624
40
0.623740957889584
40
0.623740957889584
40
0.654928005784063
40
0.670521529731303
40
0.670521529731303
40
0.686115053678542
40
0.686115053678542
40
0.748489149467502
40
0.748489149467502
40
0.810863245256462
40
0.810863245256462
40
0.873237341045422
40
0.873237341045422
40
0.904424388939901
40
0.904424388939901
40
0.935611436834381
40
0.935611436834381
40
0.997985532623341
40
1
40
1
40
1
40
1
41
1
10
-4.84999999999968
20
3.62502605133648
30
0
41
1
10
-5.00727257310189
20
3.60304572479748
30
0
41
1
10
-5.16209510770591
20
3.58996498434146
30
0
41
1
10
-5.39071230431364
20
3.58288011859725
30
0
41
1
10
-5.46631080410839
20
3.58260336185674
30
0
41
1
10
-5.57876400925818
20
3.58516810106431
30
0
41
1
10
-5.61609069631777
20
3.586519315656
30
0
41
1
10
-5.69041927701403
20
3.59018549547659
30
0
41
1
10
-5.72746841536775
20
3.59250408849221
30
0
41
1
10
-5.83780700390048
20
3.60083447157712
30
0
41
1
10
-5.98097388252563
20
3.61545562349579
30
0
41
1
10
-6.1843320390152
20
3.64605440260903
30
0
41
1
10
-6.31240132919493
20
3.67104944327082
30
0
41
1
10
-6.39005943290147
20
3.68774820783045
30
0
41
1
10
-6.40547150636098
20
3.69114182033979
30
0
41
1
10
-6.43605434734593
20
3.69802779805099
30
0
41
1
10
-6.45122921565564
20
3.7015213467173
30
0
41
1
10
-6.49616103232904
20
3.71208202115395
30
0
41
1
10
-6.52540327441216
20
3.71924619578635
30
0
41
1
10
-6.6110288228524
20
3.74098567982355
30
0
41
1
10
-6.66531665804223
20
3.75580660163308
30
0
41
1
10
-6.76835025417222
20
3.7854869933517
30
0
41
1
10
-6.81709640583654
20
3.80034766508982
30
0
41
1
10
-6.88595558576776
20
3.82222819305463
30
0
41
1
10
-6.91931792063838
20
3.83306601354991
30
0
41
1
10
-6.95103773085316
20
3.84366718378129
30
0
41
1
10
-6.97181292502637
20
3.85067264575713
30
0
41
1
10
-6.98203029398485
20
3.85414969657285
30
0
41
1
10
-7.03193731139811
20
3.87127548164557
30
0
41
1
10
-7.0681184219327
20
3.88414922533985
30
0
41
1
10
-7.13308642738753
20
3.90779236048024
30
0
41
1
10
-7.16187336490009
20
3.91856283307379
30
0
41
1
10
-7.21190847739683
20
3.93757683725931
30
0
41
1
10
-7.23315800061187
20
3.9458213842546
30
0
41
1
10
-7.25907688905056
20
3.95597203246899
30
0
41
1
10
-7.26672916785844
20
3.95898899576355
30
0
41
1
10
-7.27993394806322
20
3.96421502647928
30
0
41
1
10
-7.28542955192188
20
3.96640143341648
30
0
41
1
10
-7.2986608444337
20
3.97167721113493
30
0
41
1
10
-7.30329414975347
20
3.97354103002482
30
0
41
1
10
-7.30338409410319
20
3.97357695109457
30
0
41
1
10
-7.30338245887833
20
3.97357628584803
30
0
0
SPLINE
5
132
100
AcDbEntity
8
SK1
62
256
6
ByLayer
370
35
48
1
60
0
100
AcDbSpline
70
4
71
3
72
55
73
51
40
0
40
0
40
0
40
0
40
0.0140413785931125
40
0.0140413785931125
40
0.0296915154408413
40
0.0296915154408413
40
0.0609917891362989
40
0.0609917891362989
40
0.123592336527214
40
0.123592336527214
40
0.154892610222672
40
0.1705427470704
40
0.1705427470704
40
0.186192883918129
40
0.186192883918129
40
0.248793431309044
40
0.248793431309044
40
0.311393978699959
40
0.311393978699959
40
0.327044115547687
40
0.327044115547687
40
0.342694252395416
40
0.342694252395416
40
0.373994526090873
40
0.373994526090873
40
0.436595073481786
40
0.436595073481786
40
0.499195620872699
40
0.499195620872699
40
0.530495894568156
40
0.530495894568156
40
0.561796168263612
40
0.561796168263612
40
0.624396715654525
40
0.624396715654525
40
0.686997263045438
40
0.686997263045438
40
0.718297536740894
40
0.718297536740894
40
0.733947673588623
40
0.733947673588623
40
0.749597810436351
40
0.812198357827263
40
0.874798905218175
40
0.874798905218175
40
0.937399452609088
40
0.937399452609088
40
0.968699726304544
40
0.968699726304544
40
1
40
1
40
1
40
1
41
1
10
-2.17631932252994
20
4.69413824088747
30
0
41
1
10
-2.17632365732049
20
4.69413561686417
30
0
41
1
10
-2.17658701814708
20
4.69397632726793
30
0
41
1
10
-2.17769965379864
20
4.69330350363839
30
0
41
1
10
-2.17861548086296
20
4.69274973339947
30
0
41
1
10
-2.18232338851374
20
4.69050866143698
30
0
41
1
10
-2.18607558839676
20
4.68824159352681
30
0
41
1
10
-2.20105362351728
20
4.67920777286588
30
0
41
1
10
-2.21598936503972
20
4.6702123862753
30
0
41
1
10
-2.24557017807206
20
4.65252156513026
30
0
41
1
10
-2.26215935361415
20
4.64262512415399
30
0
41
1
10
-2.2814388742953
20
4.63118839488004
30
0
41
1
10
-2.29489148004882
20
4.62322488569447
30
0
41
1
10
-2.30192243301053
20
4.61907075945192
30
0
41
1
10
-2.33832854970581
20
4.59760950203435
30
0
41
1
10
-2.37161195923409
20
4.5781365274043
30
0
41
1
10
-2.44590033830116
20
4.5352316358339
30
0
41
1
10
-2.48690800169436
20
4.51179737965413
30
0
41
1
10
-2.54283961676219
20
4.48035259065443
30
0
41
1
10
-2.55426028797456
20
4.47395581008624
30
0
41
1
10
-2.57756931615086
20
4.46095394418353
30
0
41
1
10
-2.58946422680992
20
4.45434531026103
30
0
41
1
10
-2.62566304041604
20
4.4343209423771
30
0
41
1
10
-2.65053716723617
20
4.42067519243489
30
0
41
1
10
-2.72730927144198
20
4.3789648385619
30
0
41
1
10
-2.78134965446623
20
4.35012892272596
30
0
41
1
10
-2.89494587901186
20
4.2909494786893
30
0
41
1
10
-2.95450251738248
20
4.26060429353339
30
0
41
1
10
-3.04799396640249
20
4.21433694638847
30
0
41
1
10
-3.07989529696852
20
4.19876971931245
30
0
41
1
10
-3.14454478733774
20
4.16771691044823
30
0
41
1
10
-3.17735301812513
20
4.15220097969126
30
0
41
1
10
-3.27721941527875
20
4.10577955171993
30
0
41
1
10
-3.34571480969851
20
4.07499979919157
30
0
41
1
10
-3.48660656265668
20
4.01428476889254
30
0
41
1
10
-3.55900271756195
20
3.98434835198429
30
0
41
1
10
-3.67068150997431
20
3.94048172760387
30
0
41
1
10
-3.70842302502717
20
3.92603288194289
30
0
41
1
10
-3.76583929872493
20
3.90467485489768
30
0
41
1
10
-3.78513674709325
20
3.89759930355564
30
0
41
1
10
-3.82385289330955
20
3.88361795271078
30
0
41
1
10
-3.92095808225747
20
3.84908341575891
30
0
41
1
10
-4.09859485016636
20
3.79084332595517
30
0
41
1
10
-4.26074648314886
20
3.74557933130143
30
0
41
1
10
-4.42517802183772
20
3.7040632954463
30
0
41
1
10
-4.50853349745012
20
3.68517907040575
30
0
41
1
10
-4.63543394614067
20
3.66006346361684
30
0
41
1
10
-4.67805686987435
20
3.65222515279982
30
0
41
1
10
-4.76391323413702
20
3.63769769314251
30
0
41
1
10
-4.80691747189235
20
3.63104724128237
30
0
41
1
10
-4.84999999999968
20
3.62502605133648
30
0
0
SPLINE
5
133
100
AcDbEntity
8
SK1
62
256
6
ByLayer
370
35
48
1
60
0
100
AcDbSpline
70
4
71
3
72
8
73
4
40
0
40
0
40
0
40
0
40
1
40
1
40
1
40
1
41
1
10
-16.4999999999997
20
1.38867513459485
30
0
41
1
10
-16.4594309401979
20
1.36525257699748
30
0
41
1
10
-16.4180043020193
20
1.34133489629346
30
0
41
1
10
-16.3758834272547
20
1.31701639790964
30
0
0
SPLINE
5
134
100
AcDbEntity
8
SK1
62
256
6
ByLayer
370
35
48
1
60
0
100
AcDbSpline
70
4
71
3
72
8
73
4
40
0
40
0
40
0
40
0
40
1
40
1
40
1
40
1
41
1
10
-16.3758834272547
20
-1.31701639790964
30
0
41
1
10
-16.4180043020193
20
-1.34133489629346
30
0
41
1
10
-16.4594309401979
20
-1.36525257699748
30
0
41
1
10
-16.4999999999997
20
-1.38867513459479
30
0
0
SPLINE
5
135
100
AcDbEntity
8
SK1
62
256
6
ByLayer
370
35
48
1
60
0
100
AcDbSpline
70
4
71
3
72
31
73
27
40
0
40
0
40
0
40
0
40
0.12499999999999
40
0.12499999999999
40
0.187499999999985
40
0.187499999999985
40
0.24999999999998
40
0.24999999999998
40
0.37499999999997
40
0.37499999999997
40
0.406249999999968
40
0.406249999999968
40
0.437499999999966
40
0.437499999999966
40
0.499999999999966
40
0.499999999999966
40
0.624999999999971
40
0.624999999999971
40
0.687499999999976
40
0.687499999999976
40
0.74999999999998
40
0.812499999999985
40
0.812499999999985
40
0.874999999999989
40
0.874999999999989
40
1
40
1
40
1
40
1
41
1
10
-11.5663240377403
20
0.49996000494707
30
0
41
1
10
-11.5329868618973
20
0.50038168979404
30
0
41
1
10
-11.5001792241883
20
0.497495227264324
30
0
41
1
10
-11.4517275055558
20
0.488412810580598
30
0
41
1
10
-11.4357044948273
20
0.484587201785473
30
0
41
1
10
-11.4039190131028
20
0.47530290791201
30
0
41
1
10
-11.3881371089906
20
0.469824866654335
30
0
41
1
10
-11.3422351924064
20
0.451295383429567
30
0
41
1
10
-11.3131844319766
20
0.436079802215886
30
0
41
1
10
-11.2787847435684
20
0.413504171028251
30
0
41
1
10
-11.2720013760733
20
0.408809579973422
30
0
41
1
10
-11.2586307804124
20
0.399055226186761
30
0
41
1
10
-11.252029763855
20
0.393983269381295
30
0
41
1
10
-11.232725831273
20
0.378372237482722
30
0
41
1
10
-11.220465456057
20
0.367403177195172
30
0
41
1
10
-11.1854565104795
20
0.332854891854822
30
0
41
1
10
-11.1644624466512
20
0.307650993415734
30
0
41
1
10
-11.1365951282993
20
0.266464044638269
30
0
41
1
10
-11.1279881954016
20
0.252262648293083
30
0
41
1
10
-11.1123403777282
20
0.223319290755626
30
0
41
1
10
-11.0981799020748
20
0.193720996370303
30
0
41
1
10
-11.0869653767969
20
0.162821695526816
30
0
41
1
10
-11.077253480738
20
0.131257218558176
30
0
41
1
10
-11.0731370875445
20
0.115064293799833
30
0
41
1
10
-11.0633015135839
20
0.0662703743778366
30
0
41
1
10
-11.0599999999996
20
0.033339247828394
30
0
41
1
10
-11.0599999999996
20
-1.137E-13
30
0
0
SPLINE
5
136
100
AcDbEntity
8
SK1
62
256
6
ByLayer
370
35
48
1
60
0
100
AcDbSpline
70
4
71
3
72
31
73
27
40
0
40
0
40
0
40
0
40
0.124999999999992
40
0.124999999999992
40
0.187499999999987
40
0.187499999999987
40
0.249999999999982
40
0.249999999999982
40
0.374999999999973
40
0.374999999999973
40
0.406249999999974
40
0.406249999999974
40
0.437499999999974
40
0.437499999999974
40
0.499999999999975
40
0.499999999999975
40
0.624999999999981
40
0.624999999999981
40
0.687499999999984
40
0.687499999999984
40
0.749999999999987
40
0.81249999999999
40
0.81249999999999
40
0.874999999999994
40
0.874999999999994
40
1
40
1
40
1
40
1
41
1
10
-11.0599999999996
20
-1.137E-13
30
0
41
1
10
-11.0599999999996
20
-0.0333398988911995
30
0
41
1
10
-11.0633011851796
20
-0.06610753092599
30
0
41
1
10
-11.0729949748861
20
-0.114438127765027
30
0
41
1
10
-11.0770225791439
20
-0.130410500718369
30
0
41
1
10
-11.0867070812832
20
-0.16207375125839
30
0
41
1
10
-11.0923838138948
20
-0.177784536635272
30
0
41
1
10
-11.1114909599712
20
-0.223447078539891
30
0
41
1
10
-11.127071509858
20
-0.252302025114375
30
0
41
1
10
-11.1500781883133
20
-0.286411976258933
30
0
41
1
10
-11.1548577187655
20
-0.29313512729675
30
0
41
1
10
-11.1647793629136
20
-0.306380676479762
30
0
41
1
10
-11.1699340830306
20
-0.312917029792288
30
0
41
1
10
-11.1857879477031
20
-0.332023023864053
30
0
41
1
10
-11.1969110907913
20
-0.344144228780294
30
0
41
1
10
-11.2318987857882
20
-0.378714692088806
30
0
41
1
10
-11.2573653917784
20
-0.39938867440469
30
0
41
1
10
-11.2988993665689
20
-0.426733188369496
30
0
41
1
10
-11.3132107173301
20
-0.435161735266377
30
0
41
1
10
-11.3423516374539
20
-0.450444087719859
30
0
41
1
10
-11.3721282296076
20
-0.464230431966143
30
0
41
1
10
-11.4031675518655
20
-0.475053941039164
30
0
41
1
10
-11.4348524666436
20
-0.484366347488674
30
0
41
1
10
-11.4510964183505
20
-0.48827794223655
30
0
41
1
10
-11.5000153408607
20
-0.497496931197702
30
0
41
1
10
-11.5329872831215
20
-0.500381684465935
30
0
41
1
10
-11.5663240377403
20
-0.49996000494707
30
0
0
SPLINE
5
137
100
AcDbEntity
8
SK1
62
256
6
ByLayer
370
35
48
1
60
0
100
AcDbSpline
70
4
71
3
72
8
73
4
40
0
40
0
40
0
40
0
40
1
40
1
40
1
40
1
41
1
10
-15.6999999999997
20
1.10000000000002
30
0
41
1
10
-15.5810046005047
20
1.10000000000002
30
0
41
1
10
-15.4620044795722
20
1.10000000000002
30
0
41
1
10
-15.3429999999996
20
1.10000000000002
30
0
0
SPLINE
5
138
100
AcDbEntity
8
SK1
62
256
6
ByLayer
370
35
48
1
60
0
100
AcDbSpline
70
4
71
3
72
8
73
4
40
0
40
0
40
0
40
0
40
1
40
1
40
1
40
1
41
1
10
-15.3429999999996
20
-1.10000000000002
30
0
41
1
10
-15.4620044825367
20
-1.10000000000002
30
0
41
1
10
-15.5810046315164
20
-1.10000000000002
30
0
41
1
10
-15.6999999999997
20
-1.10000000000002
30
0
0
SPLINE
5
139
100
AcDbEntity
8
SK1
62
256
6
ByLayer
370
35
48
1
60
0
100
AcDbSpline
70
4
71
3
72
15
73
11
40
0
40
0
40
0
40
0
40
0.250000000000008
40
0.500000000000017
40
0.500000000000017
40
0.625000000000021
40
0.625000000000021
40
0.750000000000025
40
0.750000000000025
40
1
40
1
40
1
40
1
41
1
10
-15.6999999999997
20
-1.10000000000002
30
0
41
1
10
-15.7226072955967
20
-1.10000000000002
30
0
41
1
10
-15.7693398815922
20
-1.10000000000002
30
0
41
1
10
-15.8190375823014
20
-1.10000000000002
30
0
41
1
10
-15.8574791628475
20
-1.10000000000002
30
0
41
1
10
-15.8704021086047
20
-1.10000000000002
30
0
41
1
10
-15.8962113548656
20
-1.10000000000002
30
0
41
1
10
-15.9091364816043
20
-1.10000000000002
30
0
41
1
10
-15.9479727787756
20
-1.10000000000002
30
0
41
1
10
-15.9739444742008
20
-1.10000000000002
30
0
41
1
10
-15.9999999999997
20
-1.10000000000002
30
0
0
SPLINE
5
13A
100
AcDbEntity
8
SK1
62
256
6
ByLayer
370
35
48
1
60
0
100
AcDbSpline
70
4
71
3
72
18
73
14
40
0
40
0
40
0
40
0
40
0.249999999999982
40
0.249999999999982
40
0.374999999999981
40
0.374999999999981
40
0.499999999999979
40
0.499999999999979
40
0.74999999999999
40
0.74999999999999
40
0.874999999999995
40
0.874999999999995
40
1
40
1
40
1
40
1
41
1
10
-15.9999999999997
20
-1.10000000000002
30
0
41
1
10
-16.0403777757339
20
-1.1233121196895
30
0
41
1
10
-16.0786752928951
20
-1.14542320153174
30
0
41
1
10
-16.1333550441697
20
-1.17699257064936
30
0
41
1
10
-16.1511148810686
20
-1.18724621726369
30
0
41
1
10
-16.1857014248696
20
-1.20721476763754
30
0
41
1
10
-16.2026103497855
20
-1.21697713998941
30
0
41
1
10
-16.2509213249909
20
-1.24486949452915
30
0
41
1
10
-16.2801672758636
20
-1.26175465213817
30
0
41
1
10
-16.3196717126779
20
-1.28456254936702
30
0
41
1
10
-16.3321417747403
20
-1.29176214305562
30
0
41
1
10
-16.3553634764801
20
-1.30516919880614
30
0
41
1
10
-16.3660810187172
20
-1.31135697470171
30
0
41
1
10
-16.375883427255
20
-1.31701639790975
30
0
0
SPLINE
5
13B
100
AcDbEntity
8
SK1
62
256
6
ByLayer
370
35
48
1
60
0
100
AcDbSpline
70
4
71
3
72
18
73
14
40
0
40
0
40
0
40
0
40
0.249999999999983
40
0.249999999999983
40
0.374999999999979
40
0.374999999999979
40
0.499999999999975
40
0.499999999999975
40
0.74999999999998
40
0.74999999999998
40
0.87499999999999
40
0.87499999999999
40
1
40
1
40
1
40
1
41
1
10
-16.3758834272547
20
1.31701639790964
30
0
41
1
10
-16.3562687756116
20
1.30569187350346
30
0
41
1
10
-16.3332629802768
20
1.29240947137396
30
0
41
1
10
-16.2940479940685
20
1.26976868853029
30
0
41
1
10
-16.2801833470929
20
1.26176393086678
30
0
41
1
10
-16.250836059335
20
1.2448202663798
30
0
41
1
10
-16.2352643803382
20
1.23582995331918
30
0
41
1
10
-16.187012894953
20
1.20797194524329
30
0
41
1
10
-16.1526573378333
20
1.18813675509205
30
0
41
1
10
-16.097766827198
20
1.15644570400082
30
0
41
1
10
-16.0788868624309
20
1.14554535126018
30
0
41
1
10
-16.0399930401352
20
1.12308999248802
30
0
41
1
10
-16.0201844306101
20
1.11165348644641
30
0
41
1
10
-15.9999999999997
20
1.10000000000002
30
0
0
SPLINE
5
13C
100
AcDbEntity
8
SK1
62
256
6
ByLayer
370
35
48
1
60
0
100
AcDbSpline
70
4
71
3
72
15
73
11
40
0
40
0
40
0
40
0
40
0.249999999999992
40
0.499999999999985
40
0.499999999999985
40
0.624999999999997
40
0.624999999999997
40
0.750000000000009
40
0.750000000000009
40
1
40
1
40
1
40
1
41
1
10
-15.9999999999997
20
1.10000000000002
30
0
41
1
10
-15.9739443427535
20
1.10000000000002
30
0
41
1
10
-15.9220466033722
20
1.10000000000002
30
0
41
1
10
-15.8705586574108
20
1.10000000000002
30
0
41
1
10
-15.8321015017757
20
1.10000000000002
30
0
41
1
10
-15.8194102104202
20
1.10000000000002
30
0
41
1
10
-15.7944859149744
20
1.10000000000002
30
0
41
1
10
-15.782219096017
20
1.10000000000002
30
0
41
1
10
-15.7459941541436
20
1.10000000000002
30
0
41
1
10
-15.7226081173981
20
1.10000000000002
30
0
41
1
10
-15.6999999999997
20
1.10000000000002
30
0
0
SPLINE
5
13D
100
AcDbEntity
8
SK1
62
256
6
ByLayer
370
35
48
1
60
0
100
AcDbSpline
70
4
71
3
72
36
73
32
40
0
40
0
40
0
40
0
40
0.125000000000002
40
0.125000000000002
40
0.187500000000004
40
0.187500000000004
40
0.218750000000005
40
0.218750000000005
40
0.250000000000006
40
0.250000000000006
40
0.375000000000006
40
0.375000000000006
40
0.437500000000006
40
0.437500000000006
40
0.468750000000006
40
0.468750000000006
40
0.500000000000007
40
0.500000000000007
40
0.625000000000004
40
0.625000000000004
40
0.656250000000003
40
0.656250000000003
40
0.687500000000002
40
0.687500000000002
40
0.749999999999999
40
0.749999999999999
40
0.874999999999998
40
0.874999999999998
40
0.937499999999999
40
0.937499999999999
40
1
40
1
40
1
40
1
41
1
10
-12.5050125628931
20
-0.100000000000023
30
0
41
1
10
-12.5112320686644
20
-0.161883301075534
30
0
41
1
10
-12.5230642869972
20
-0.22210979817072
30
0
41
1
10
-12.5488074503282
20
-0.310107676292262
30
0
41
1
10
-12.5587301679188
20
-0.339047439651551
30
0
41
1
10
-12.5756539264439
20
-0.381863656403766
30
0
41
1
10
-12.5816356736799
20
-0.396036674660934
30
0
41
1
10
-12.5942916120553
20
-0.42418203585305
30
0
41
1
10
-12.600951519272
20
-0.438118216967723
30
0
41
1
10
-12.6356372147012
20
-0.506605230127036
30
0
41
1
10
-12.6680046553574
20
-0.558105483734209
30
0
41
1
10
-12.7233236208751
20
-0.630633251763868
30
0
41
1
10
-12.742898898712
20
-0.654016806187144
30
0
41
1
10
-12.7740158567938
20
-0.687882285642104
30
0
41
1
10
-12.7846909301843
20
-0.698975801181405
30
0
41
1
10
-12.8064162719102
20
-0.720538581983476
30
0
41
1
10
-12.8174915955236
20
-0.731036298482422
30
0
41
1
10
-12.8739186041229
20
-0.782132185635078
30
0
41
1
10
-12.9223933271758
20
-0.818589689078578
30
0
41
1
10
-12.987233927964
20
-0.858663708672623
30
0
41
1
10
-13.0004161752619
20
-0.866401281136632
30
0
41
1
10
-13.0272182667336
20
-0.881313003753348
30
0
41
1
10
-13.0408716753641
20
-0.88850353308743
30
0
41
1
10
-13.0822537968154
20
-0.909086077822792
30
0
41
1
10
-13.1102907414734
20
-0.921444178626587
30
0
41
1
10
-13.1957236960604
20
-0.954540021625462
30
0
41
1
10
-13.2544310504709
20
-0.971333729446997
30
0
41
1
10
-13.3452205455801
20
-0.988428880204879
30
0
41
1
10
-13.3760629728488
20
-0.99277550570207
30
0
41
1
10
-13.4378772742124
20
-0.998551129568114
30
0
41
1
10
-13.468886954248
20
-1
30
0
41
1
10
-13.4999999999997
20
-1
30
0
0
SPLINE
5
13E
100
AcDbEntity
8
SK1
62
256
6
ByLayer
370
35
48
1
60
0
100
AcDbSpline
70
4
71
3
72
25
73
21
40
0
40
0
40
0
40
0
40
0.125000000000002
40
0.125000000000002
40
0.250000000000005
40
0.250000000000005
40
0.375000000000007
40
0.375000000000007
40
0.437500000000005
40
0.437500000000005
40
0.500000000000003
40
0.500000000000003
40
0.624999999999998
40
0.624999999999998
40
0.687499999999999
40
0.687499999999999
40
0.749999999999999
40
0.749999999999999
40
0.874999999999999
40
1
40
1
40
1
40
1
41
1
10
-11.5663240377403
20
-0.49996000494707
30
0
41
1
10
-11.594912141251
20
-0.499598391530469
30
0
41
1
10
-11.6230479453969
20
-0.4968084025125
30
0
41
1
10
-11.6784550686336
20
-0.486581985836665
30
0
41
1
10
-11.7057652223326
20
-0.479131170255414
30
0
41
1
10
-11.759327107932
20
-0.459437571815158
30
0
41
1
10
-11.7848821348273
20
-0.447458695729324
30
0
41
1
10
-11.8214588619556
20
-0.426423590156333
30
0
41
1
10
-11.8333567956148
20
-0.418897816090634
30
0
41
1
10
-11.856558422117
20
-0.402805685543001
30
0
41
1
10
-11.8678900767774
20
-0.394216057608219
30
0
41
1
10
-11.900781902488
20
-0.366985139690712
30
0
41
1
10
-11.9208701454647
20
-0.347221635758387
30
0
41
1
10
-11.9483528390513
20
-0.315245307589578
30
0
41
1
10
-11.9570695976608
20
-0.304195814835509
30
0
41
1
10
-11.9736034598316
20
-0.28130328324653
30
0
41
1
10
-11.9814432382179
20
-0.269422059607962
30
0
41
1
10
-12.0034127020596
20
-0.232799855294957
30
0
41
1
10
-12.0281648795544
20
-0.182154264954363
30
0
41
1
10
-12.0441823656436
20
-0.128000523437151
30
0
41
1
10
-12.0498979485562
20
-0.100000000000023
30
0
0
SPLINE
5
13F
100
AcDbEntity
8
1
62
256
6
ByLayer
370
35
48
1
60
0
100
AcDbSpline
70
4
71
3
72
8
73
4
40
0
40
0
40
0
40
0
40
1
40
1
40
1
40
1
41
1
10
21.8741508006673
20
4.93789899089944
30
0
41
1
10
21.8323246915022
20
4.95873320853133
30
0
41
1
10
21.7904651690291
20
4.97945625022402
30
0
41
1
10
21.7485517613708
20
5
30
0
0
SPLINE
5
140
100
AcDbEntity
8
1
62
256
6
ByLayer
370
35
48
1
60
0
100
AcDbSpline
70
4
71
3
72
10
73
6
40
0
40
0
40
0
40
0
40
0.5
40
0.5
40
1
40
1
40
1
40
1
41
1
10
21.7485517613708
20
5
30
0
41
1
10
21.7076182286248
20
5.14221889485708
30
0
41
1
10
21.666344481038
20
5.28427077251899
30
0
41
1
10
21.58253653027
20
5.56775574896318
30
0
41
1
10
21.5400384880602
20
5.70920659977543
30
0
41
1
10
21.496201215798
20
5.85000000000002
30
0
0
SPLINE
5
141
100
AcDbEntity
8
1
62
256
6
ByLayer
370
35
48
1
60
0
100
AcDbSpline
70
4
71
3
72
10
73
6
40
0
40
0
40
0
40
0
40
0.5
40
0.5
40
1
40
1
40
1
40
1
41
1
10
21.496201215798
20
3.64999999999998
30
0
41
1
10
21.5400384880602
20
3.79079340022457
30
0
41
1
10
21.58253653027
20
3.93224425103682
30
0
41
1
10
21.666344481038
20
4.21572922748101
30
0
41
1
10
21.7076182286248
20
4.35778110514292
30
0
41
1
10
21.7485517613708
20
4.5
30
0
0
SPLINE
5
142
100
AcDbEntity
8
1
62
256
6
ByLayer
370
35
48
1
60
0
100
AcDbSpline
70
4
71
3
72
8
73
4
40
0
40
0
40
0
40
0
40
1
40
1
40
1
40
1
41
1
10
21.7485517613708
20
4.5
30
0
41
1
10
21.7904647851043
20
4.52054356159618
30
0
41
1
10
21.8323243639253
20
4.54126662829765
30
0
41
1
10
21.8741508006673
20
4.56210100910056
30
0
0
SPLINE
5
143
100
AcDbEntity
8
1
62
256
6
ByLayer
370
35
48
1
60
0
100
AcDbSpline
70
4
71
3
72
20
73
16
40
0
40
0
40
0
40
0
40
0.250000000000007
40
0.250000000000007
40
0.375000000000006
40
0.375000000000006
40
0.500000000000004
40
0.500000000000004
40
0.625000000000003
40
0.625000000000003
40
0.750000000000002
40
0.750000000000002
40
0.875000000000001
40
0.875000000000001
40
1
40
1
40
1
40
1
41
1
10
21.8741508006673
20
4.56210100910056
30
0
41
1
10
21.8851465710517
20
4.56757816864973
30
0
41
1
10
21.8952971376775
20
4.57490171013126
30
0
41
1
10
21.9092332154934
20
4.58870458193047
30
0
41
1
10
21.9136461081863
20
4.59378320704383
30
0
41
1
10
21.9217318357871
20
4.60457695526662
30
0
41
1
10
21.925445143477
20
4.61032914907094
30
0
41
1
10
21.9322006598795
20
4.62255709990507
30
0
41
1
10
21.9352639153941
20
4.62909533688531
30
0
41
1
10
21.9405165985895
20
4.64255192580083
30
0
41
1
10
21.9427214135784
20
4.64947777816445
30
0
41
1
10
21.9462946604784
20
4.6637214725925
30
0
41
1
10
21.9476667884064
20
4.67106929737594
30
0
41
1
10
21.9495078691016
20
4.68604793314557
30
0
41
1
10
21.9499695610317
20
4.69358863489794
30
0
41
1
10
21.9499695610317
20
4.70118103894686
30
0
0
SPLINE
5
144
100
AcDbEntity
8
1
62
256
6
ByLayer
370
35
48
1
60
0
100
AcDbSpline
70
4
71
3
72
20
73
16
40
0
40
0
40
0
40
0
40
0.24999999999999
40
0.24999999999999
40
0.374999999999992
40
0.374999999999992
40
0.499999999999993
40
0.499999999999993
40
0.624999999999995
40
0.624999999999995
40
0.749999999999997
40
0.749999999999997
40
0.874999999999998
40
0.874999999999998
40
1
40
1
40
1
40
1
41
1
10
21.9499695610253
20
4.7988189610524
30
0
41
1
10
21.9499695610253
20
4.81399237675845
30
0
41
1
10
21.9481567517132
20
4.82876942546909
30
0
41
1
10
21.942774501965
20
4.85035273128631
30
0
41
1
10
21.9405408390362
20
4.85737206277446
30
0
41
1
10
21.935324688386
20
4.87076265811703
30
0
41
1
10
21.9323302811886
20
4.87718356353076
30
0
41
1
10
21.9255665186548
20
4.88947496735182
30
0
41
1
10
21.9217849882601
20
4.89534523637275
30
0
41
1
10
21.9136961247624
20
4.90615679270297
30
0
41
1
10
21.9093621293539
20
4.91115204140823
30
0
41
1
10
21.9001233847591
20
4.92033335150489
30
0
41
1
10
21.8951859668963
20
4.92453868263829
30
0
41
1
10
21.8849540906694
20
4.93194218631999
30
0
41
1
10
21.8796474193703
20
4.93516104198227
30
0
41
1
10
21.8741508006673
20
4.93789899089944
30
0
0
SPLINE
5
145
100
AcDbEntity
8
1
62
256
6
ByLayer
370
35
48
1
60
0
100
AcDbSpline
70
4
71
3
72
8
73
4
40
0
40
0
40
0
40
0
40
1
40
1
40
1
40
1
41
1
10
3.411E-13
20
6
30
0
41
1
10
0.0333144962619372
20
6
30
0
41
1
10
0.0666479907426947
20
6
30
0
41
1
10
0.100000000000364
20
6
30
0
0
SPLINE
5
146
100
AcDbEntity
8
1
62
256
6
ByLayer
370
35
48
1
60
0
100
AcDbSpline
70
4
71
3
72
8
73
4
40
0
40
0
40
0
40
0
40
1
40
1
40
1
40
1
41
1
10
0.100000000000364
20
-10
30
0
41
1
10
0.0665441451953939
20
-10
30
0
41
1
10
0.0332094354586161
20
-10
30
0
41
1
10
3.411E-13
20
-10
30
0
0
SPLINE
5
147
100
AcDbEntity
8
1
62
256
6
ByLayer
370
35
48
1
60
0
100
AcDbSpline
70
4
71
3
72
20
73
16
40
0
40
0
40
0
40
0
40
0.250000000000001
40
0.250000000000001
40
0.375000000000002
40
0.375000000000002
40
0.500000000000004
40
0.500000000000004
40
0.75
40
0.75
40
0.812499999999996
40
0.812499999999996
40
0.874999999999991
40
0.874999999999991
40
1
40
1
40
1
40
1
41
1
10
14.3617620785018
20
5.85000000000002
30
0
41
1
10
14.3327150458404
20
5.85000000000002
30
0
41
1
10
14.3041391282959
20
5.8533116026926
30
0
41
1
10
14.2619559507307
20
5.86306383264332
30
0
41
1
10
14.2480091953234
20
5.86711804987931
30
0
41
1
10
14.2203502585138
20
5.87687537201907
30
0
41
1
10
14.2066327962677
20
5.88259376883445
30
0
41
1
10
14.166751811355
20
5.90185268931958
30
0
41
1
10
14.1415303706274
20
5.91757448332851
30
0
41
1
10
14.1117089442937
20
5.94082569235542
30
0
41
1
10
14.1058307130908
20
5.94565753983176
30
0
41
1
10
14.0942495459306
20
5.95569117211602
30
0
41
1
10
14.08853382261
20
5.96090630084888
30
0
41
1
10
14.0718321306911
20
5.97694618555602
30
0
41
1
10
14.0612431608156
20
5.98820048069803
30
0
41
1
10
14.0511843060785
20
6
30
0
0
LINE
5
74
100
AcDbEntity
8
81
62
256
6
ByLayer
370
18
48
1
60
0
100
AcDbLine
10
28
20
6
30
0
11
30
21
6
31
0
39
0
210
0
220
0
230
1
0
LINE
5
75
100
AcDbEntity
8
80
62
256
6
ByLayer
370
18
48
1
60
0
100
AcDbLine
10
0
20
0
30
0
11
-2
21
0
31
0
39
0
210
0
220
0
230
1
0
LINE
5
76
100
AcDbEntity
8
4
62
256
6
ByLayer
370
18
48
0.05
60
0
100
AcDbLine
10
0
20
0
30
0
11
28
21
0
31
0
39
0
210
0
220
0
230
1
0
LINE
5
78
100
AcDbEntity
8
SK4
62
256
6
ByLayer
370
18
48
0.05
60
0
100
AcDbLine
10
30
20
0
30
0
11
-18.5
21
0
31
0
39
0
210
0
220
0
230
1
0
LINE
5
7A
100
AcDbEntity
8
1
62
256
6
ByLayer
370
35
48
1
60
0
100
AcDbLine
10
25.849374
20
3.56788
30
0
11
26.633187
21
3.561221
31
0
39
0
210
0
220
0
230
1
0
LINE
5
7C
100
AcDbEntity
8
1
62
256
6
ByLayer
370
35
48
1
60
0
100
AcDbLine
10
26.633187
20
3.561221
30
0
11
26.633187
21
5.938779
31
0
39
0
210
0
220
0
230
1
0
LINE
5
7D
100
AcDbEntity
8
1
62
256
6
ByLayer
370
35
48
1
60
0
100
AcDbLine
10
25.282766
20
4.75
30
0
11
21.949763
21
4.75
31
0
39
0
210
0
220
0
230
1
0
LINE
5
7E
100
AcDbEntity
8
1
62
256
6
ByLayer
370
35
48
1
60
0
100
AcDbLine
10
24.6327
20
4.552665
30
0
11
21.85505
21
4.552665
31
0
39
0
210
0
220
0
230
1
0
LINE
5
7F
100
AcDbEntity
8
1
62
256
6
ByLayer
370
35
48
1
60
0
100
AcDbLine
10
21.85505
20
4.947335
30
0
11
24.6327
21
4.947335
31
0
39
0
210
0
220
0
230
1
0
LINE
5
80
100
AcDbEntity
8
1
62
256
6
ByLayer
370
35
48
1
60
0
100
AcDbLine
10
21.848091
20
4.950756
30
0
11
24.588491
21
4.950756
31
0
39
0
210
0
220
0
230
1
0
LINE
5
81
100
AcDbEntity
8
1
62
256
6
ByLayer
370
35
48
1
60
0
100
AcDbLine
10
21.848091
20
4.549244
30
0
11
24.588491
21
4.549244
31
0
39
0
210
0
220
0
230
1
0
LINE
5
82
100
AcDbEntity
8
1
62
256
6
ByLayer
370
35
48
1
60
0
100
AcDbLine
10
21.748208
20
5.001024
30
0
11
24.001033
21
5.001024
31
0
39
0
210
0
220
0
230
1
0
LINE
5
83
100
AcDbEntity
8
1
62
256
6
ByLayer
370
35
48
1
60
0
100
AcDbLine
10
21.748208
20
4.498976
30
0
11
24.001033
21
4.498976
31
0
39
0
210
0
220
0
230
1
0
LINE
5
84
100
AcDbEntity
8
1
62
256
6
ByLayer
370
35
48
1
60
0
100
AcDbLine
10
21.714142
20
4.382002
30
0
11
23.493277
21
4.382002
31
0
39
0
210
0
220
0
230
1
0
LINE
5
85
100
AcDbEntity
8
1
62
256
6
ByLayer
370
35
48
1
60
0
100
AcDbLine
10
21.714142
20
5.117998
30
0
11
23.493277
21
5.117998
31
0
39
0
210
0
220
0
230
1
0
LINE
5
86
100
AcDbEntity
8
1
62
256
6
ByLayer
370
35
48
1
60
0
100
AcDbLine
10
21.579035
20
3.924016
30
0
11
22.740837
21
3.924016
31
0
39
0
210
0
220
0
230
1
0
LINE
5
87
100
AcDbEntity
8
1
62
256
6
ByLayer
370
35
48
1
60
0
100
AcDbLine
10
22.740837
20
5.575984
30
0
11
21.579035
21
5.575984
31
0
39
0
210
0
220
0
230
1
0
LINE
5
88
100
AcDbEntity
8
1
62
256
6
ByLayer
370
35
48
1
60
0
100
AcDbLine
10
22.701381
20
5.75
30
0
11
21.526329
21
5.75
31
0
39
0
210
0
220
0
230
1
0
LINE
5
89
100
AcDbEntity
8
1
62
256
6
ByLayer
370
35
48
1
60
0
100
AcDbLine
10
21.564087
20
5.625438
30
0
11
22.701381
21
5.625438
31
0
39
0
210
0
220
0
230
1
0
LINE
5
8A
100
AcDbEntity
8
1
62
256
6
ByLayer
370
35
48
1
60
0
100
AcDbLine
10
22.701381
20
3.874562
30
0
11
21.564087
21
3.874562
31
0
39
0
210
0
220
0
230
1
0
LINE
5
8B
100
AcDbEntity
8
1
62
256
6
ByLayer
370
35
48
1
60
0
100
AcDbLine
10
21.526329
20
3.75
30
0
11
22.701381
21
3.75
31
0
39
0
210
0
220
0
230
1
0
LINE
5
8C
100
AcDbEntity
8
1
62
256
6
ByLayer
370
35
48
1
60
0
100
AcDbLine
10
25.849374
20
5.93212
30
0
11
25.512432
21
5.917789
31
0
39
0
210
0
220
0
230
1
0
LINE
5
8D
100
AcDbEntity
8
1
62
256
6
ByLayer
370
35
48
1
60
0
100
AcDbLine
10
25.472759
20
5.912079
30
0
11
24.942478
21
5.7802
31
0
39
0
210
0
220
0
230
1
0
LINE
5
8E
100
AcDbEntity
8
1
62
256
6
ByLayer
370
35
48
1
60
0
100
AcDbLine
10
22.701381
20
5.75
30
0
11
24.694849
21
5.75
31
0
39
0
210
0
220
0
230
1
0
LINE
5
8F
100
AcDbEntity
8
1
62
256
6
ByLayer
370
35
48
1
60
0
100
AcDbLine
10
22.701381
20
5.75
30
0
11
22.701381
21
5.625438
31
0
39
0
210
0
220
0
230
1
0
LINE
5
90
100
AcDbEntity
8
1
62
256
6
ByLayer
370
35
48
1
60
0
100
AcDbLine
10
22.740837
20
5.575984
30
0
11
23.493277
21
5.117998
31
0
39
0
210
0
220
0
230
1
0
LINE
5
91
100
AcDbEntity
8
1
62
256
6
ByLayer
370
35
48
1
60
0
100
AcDbLine
10
24.588491
20
4.950756
30
0
11
24.6327
21
4.947335
31
0
39
0
210
0
220
0
230
1
0
LINE
5
92
100
AcDbEntity
8
1
62
256
6
ByLayer
370
35
48
1
60
0
100
AcDbLine
10
24.6327
20
4.552665
30
0
11
24.588491
21
4.549244
31
0
39
0
210
0
220
0
230
1
0
LINE
5
93
100
AcDbEntity
8
1
62
256
6
ByLayer
370
35
48
1
60
0
100
AcDbLine
10
23.493277
20
4.382002
30
0
11
22.740837
21
3.924016
31
0
39
0
210
0
220
0
230
1
0
LINE
5
94
100
AcDbEntity
8
1
62
256
6
ByLayer
370
35
48
1
60
0
100
AcDbLine
10
22.701381
20
3.874562
30
0
11
22.701381
21
3.75
31
0
39
0
210
0
220
0
230
1
0
LINE
5
95
100
AcDbEntity
8
1
62
256
6
ByLayer
370
35
48
1
60
0
100
AcDbLine
10
24.694849
20
3.75
30
0
11
22.701381
21
3.75
31
0
39
0
210
0
220
0
230
1
0
LINE
5
96
100
AcDbEntity
8
1
62
256
6
ByLayer
370
35
48
1
60
0
100
AcDbLine
10
24.942478
20
3.7198
30
0
11
25.472759
21
3.587921
31
0
39
0
210
0
220
0
230
1
0
LINE
5
97
100
AcDbEntity
8
1
62
256
6
ByLayer
370
35
48
1
60
0
100
AcDbLine
10
25.512432
20
3.582211
30
0
11
25.849374
21
3.56788
31
0
39
0
210
0
220
0
230
1
0
LINE
5
98
100
AcDbEntity
8
1
62
256
6
ByLayer
370
35
48
1
60
0
100
AcDbLine
10
25.849374
20
3.56788
30
0
11
25.849374
21
5.93212
31
0
39
0
210
0
220
0
230
1
0
LINE
5
99
100
AcDbEntity
8
1
62
256
6
ByLayer
370
35
48
1
60
0
100
AcDbLine
10
14.051184
20
6
30
0
11
8.723721
21
6
31
0
39
0
210
0
220
0
230
1
0
LINE
5
9A
100
AcDbEntity
8
1
62
256
6
ByLayer
370
35
48
1
60
0
100
AcDbLine
10
7.857695
20
5.5
30
0
11
8.723721
21
6
31
0
39
0
210
0
220
0
230
1
0
LINE
5
9B
100
AcDbEntity
8
1
62
256
6
ByLayer
370
35
48
1
60
0
100
AcDbLine
10
13.926884
20
-4.879263
30
0
11
8.080385
21
-8.25474
31
0
39
0
210
0
220
0
230
1
0
LINE
5
9C
100
AcDbEntity
8
1
62
256
6
ByLayer
370
35
48
1
60
0
100
AcDbLine
10
13.926884
20
3.15
30
0
11
13.926884
21
-4.879263
31
0
39
0
210
0
220
0
230
1
0
LINE
5
9D
100
AcDbEntity
8
1
62
256
6
ByLayer
370
35
48
1
60
0
100
AcDbLine
10
18.25
20
3.65
30
0
11
14.361762
21
3.65
31
0
39
0
210
0
220
0
230
1
0
LINE
5
9E
100
AcDbEntity
8
1
62
256
6
ByLayer
370
35
48
1
60
0
100
AcDbLine
10
18.25
20
3.65
30
0
11
18.25
21
5.85
31
0
39
0
210
0
220
0
230
1
0
LINE
5
9F
100
AcDbEntity
8
1
62
256
6
ByLayer
370
35
48
1
60
0
100
AcDbLine
10
7.857695
20
5.5
30
0
11
7.857695
21
2.621251
31
0
39
0
210
0
220
0
230
1
0
LINE
5
A0
100
AcDbEntity
8
1
62
256
6
ByLayer
370
35
48
1
60
0
100
AcDbLine
10
7.857695
20
5.5
30
0
11
0.1
21
5.5
31
0
39
0
210
0
220
0
230
1
0
LINE
5
A1
100
AcDbEntity
8
1
62
256
6
ByLayer
370
35
48
1
60
0
100
AcDbLine
10
0.1
20
-8.032051
30
0
11
0.1
21
5.5
31
0
39
0
210
0
220
0
230
1
0
LINE
5
A2
100
AcDbEntity
8
1
62
256
6
ByLayer
370
35
48
1
60
0
100
AcDbLine
10
7.857695
20
-4.121251
30
0
11
7.857695
21
-8.032051
31
0
39
0
210
0
220
0
230
1
0
LINE
5
A3
100
AcDbEntity
8
1
62
256
6
ByLayer
370
35
48
1
60
0
100
AcDbLine
10
5.057506
20
-10
30
0
11
8.080385
21
-8.25474
31
0
39
0
210
0
220
0
230
1
0
LINE
5
A4
100
AcDbEntity
8
1
62
256
6
ByLayer
370
35
48
1
60
0
100
AcDbLine
10
8.080385
20
-8.25474
30
0
11
7.857695
21
-8.032051
31
0
39
0
210
0
220
0
230
1
0
LINE
5
A5
100
AcDbEntity
8
1
62
256
6
ByLayer
370
35
48
1
60
0
100
AcDbLine
10
7.857695
20
-8.032051
30
0
11
0.1
21
-8.032051
31
0
39
0
210
0
220
0
230
1
0
LINE
5
A6
100
AcDbEntity
8
1
62
256
6
ByLayer
370
35
48
1
60
0
100
AcDbLine
10
0.1
20
-8.032051
30
0
11
0.1
21
-10
31
0
39
0
210
0
220
0
230
1
0
LINE
5
A7
100
AcDbEntity
8
1
62
256
6
ByLayer
370
35
48
1
60
0
100
AcDbLine
10
0.1
20
-10
30
0
11
5.057506
21
-10
31
0
39
0
210
0
220
0
230
1
0
LINE
5
A8
100
AcDbEntity
8
1
62
256
6
ByLayer
370
35
48
1
60
0
100
AcDbLine
10
21.896411
20
5.85
30
0
11
21.496156
21
5.85
31
0
39
0
210
0
220
0
230
1
0
LINE
5
A9
100
AcDbEntity
8
1
62
256
6
ByLayer
370
35
48
1
60
0
100
AcDbLine
10
21.896411
20
3.65
30
0
11
21.496156
21
3.65
31
0
39
0
210
0
220
0
230
1
0
LINE
5
AA
100
AcDbEntity
8
1
62
256
6
ByLayer
370
35
48
1
60
0
100
AcDbLine
10
25.2231
20
3.65
30
0
11
22.814808
21
3.65
31
0
39
0
210
0
220
0
230
1
0
LINE
5
AB
100
AcDbEntity
8
1
62
256
6
ByLayer
370
35
48
1
60
0
100
AcDbLine
10
22.814808
20
3.65
30
0
11
22.813858
21
3.750008
31
0
39
0
210
0
220
0
230
1
0
LINE
5
AC
100
AcDbEntity
8
1
62
256
6
ByLayer
370
35
48
1
60
0
100
AcDbLine
10
21.896411
20
3.65
30
0
11
21.895461
21
3.750008
31
0
39
0
210
0
220
0
230
1
0
LINE
5
AD
100
AcDbEntity
8
1
62
256
6
ByLayer
370
35
48
1
60
0
100
AcDbLine
10
22.814808
20
3.65
30
0
11
21.896411
21
3.65
31
0
39
0
210
0
220
0
230
1
0
LINE
5
AE
100
AcDbEntity
8
1
62
256
6
ByLayer
370
35
48
1
60
0
100
AcDbLine
10
22.814808
20
5.85
30
0
11
21.896411
21
5.85
31
0
39
0
210
0
220
0
230
1
0
LINE
5
AF
100
AcDbEntity
8
1
62
256
6
ByLayer
370
35
48
1
60
0
100
AcDbLine
10
27.555806
20
5.995209
30
0
11
26.633187
21
5.938779
31
0
39
0
210
0
220
0
230
1
0
LINE
5
B0
100
AcDbEntity
8
1
62
256
6
ByLayer
370
35
48
1
60
0
100
AcDbLine
10
26.633187
20
3.561221
30
0
11
27.555806
21
3.504791
31
0
39
0
210
0
220
0
230
1
0
LINE
5
B1
100
AcDbEntity
8
1
62
256
6
ByLayer
370
35
48
1
60
0
100
AcDbLine
10
28
20
3.697331
30
0
11
28
21
5.802669
31
0
39
0
210
0
220
0
230
1
0
LINE
5
B2
100
AcDbEntity
8
1
62
256
6
ByLayer
370
35
48
1
60
0
100
AcDbLine
10
26.633187
20
5.938779
30
0
11
25.849374
21
5.93212
31
0
39
0
210
0
220
0
230
1
0
LINE
5
B3
100
AcDbEntity
8
SK1
62
256
6
ByLayer
370
35
48
1
60
0
100
AcDbLine
10
-13.5
20
-1
30
0
11
-14.576795
21
-1
31
0
39
0
210
0
220
0
230
1
0
LINE
5
B5
100
AcDbEntity
8
SK1
62
256
6
ByLayer
370
35
48
1
60
0
100
AcDbLine
10
-14.75
20
-1.1
30
0
11
-15.343
21
-1.1
31
0
39
0
210
0
220
0
230
1
0
LINE
5
B6
100
AcDbEntity
8
SK1
62
256
6
ByLayer
370
35
48
1
60
0
100
AcDbLine
10
-15.343
20
-1.1
30
0
11
-15.343
21
-3.375
31
0
39
0
210
0
220
0
230
1
0
LINE
5
B7
100
AcDbEntity
8
SK1
62
256
6
ByLayer
370
35
48
1
60
0
100
AcDbLine
10
-15.343
20
-3.375
30
0
11
-11.566324
21
-3.375
31
0
39
0
210
0
220
0
230
1
0
LINE
5
B8
100
AcDbEntity
8
SK1
62
256
6
ByLayer
370
35
48
1
60
0
100
AcDbLine
10
-12.505013
20
0.1
30
0
11
-12.049898
21
0.1
31
0
39
0
210
0
220
0
230
1
0
LINE
5
B9
100
AcDbEntity
8
SK1
62
256
6
ByLayer
370
35
48
1
60
0
100
AcDbLine
10
-11.566324
20
0.49996
30
0
11
-11.566324
21
3.375
31
0
39
0
210
0
220
0
230
1
0
LINE
5
BA
100
AcDbEntity
8
SK1
62
256
6
ByLayer
370
35
48
1
60
0
100
AcDbLine
10
-15.343
20
1.1
30
0
11
-15.343
21
3.375
31
0
39
0
210
0
220
0
230
1
0
LINE
5
BB
100
AcDbEntity
8
SK1
62
256
6
ByLayer
370
35
48
1
60
0
100
AcDbLine
10
-15.343
20
1.1
30
0
11
-14.75
21
1.1
31
0
39
0
210
0
220
0
230
1
0
LINE
5
BC
100
AcDbEntity
8
SK1
62
256
6
ByLayer
370
35
48
1
60
0
100
AcDbLine
10
-14.576795
20
1
30
0
11
-13.5
21
1
31
0
39
0
210
0
220
0
230
1
0
LINE
5
BD
100
AcDbEntity
8
SK1
62
256
6
ByLayer
370
35
48
1
60
0
100
AcDbLine
10
-11.566324
20
3.375
30
0
11
-15.343
21
3.375
31
0
39
0
210
0
220
0
230
1
0
LINE
5
BE
100
AcDbEntity
8
1
62
256
6
ByLayer
370
35
48
1
60
0
100
AcDbLine
10
13.92695
20
-4.879224
30
0
11
20
21
-1.372947
31
0
39
0
210
0
220
0
230
1
0
LINE
5
BF
100
AcDbEntity
8
1
62
256
6
ByLayer
370
35
48
1
60
0
100
AcDbLine
10
20
20
-1.372947
30
0
11
20
21
3.15
31
0
39
0
210
0
220
0
230
1
0
LINE
5
C0
100
AcDbEntity
8
1
62
256
6
ByLayer
370
35
48
1
60
0
100
AcDbLine
10
13.926716
20
3.15
30
0
11
20
21
3.15
31
0
39
0
210
0
220
0
230
1
0
LINE
5
C1
100
AcDbEntity
8
SK1
62
256
6
ByLayer
370
35
48
1
60
0
100
AcDbLine
10
-0.999897
20
-4.69
30
0
11
-0.1
21
-4.69
31
0
39
0
210
0
220
0
230
1
0
LINE
5
C2
100
AcDbEntity
8
SK1
62
256
6
ByLayer
370
35
48
1
60
0
100
AcDbLine
10
-0.1
20
4.69
30
0
11
-0.999897
21
4.69
31
0
39
0
210
0
220
0
230
1
0
LINE
5
C3
100
AcDbEntity
8
SK1
62
256
6
ByLayer
370
35
48
1
60
0
100
AcDbLine
10
-10.566324
20
0
30
0
11
-10.566324
21
-3.515
31
0
39
0
210
0
220
0
230
1
0
LINE
5
C4
100
AcDbEntity
8
SK1
62
256
6
ByLayer
370
35
48
1
60
0
100
AcDbLine
10
-10.566324
20
-3.515
30
0
11
-7.303138
21
-3.973611
31
0
39
0
210
0
220
0
230
1
0
LINE
5
C5
100
AcDbEntity
8
SK1
62
256
6
ByLayer
370
35
48
1
60
0
100
AcDbLine
10
-2.178411
20
-4.693844
30
0
11
-1.25
21
-4.824324
31
0
39
0
210
0
220
0
230
1
0
LINE
5
C6
100
AcDbEntity
8
SK1
62
256
6
ByLayer
370
35
48
1
60
0
100
AcDbLine
10
-10.566324
20
0
30
0
11
-10.566324
21
3.515
31
0
39
0
210
0
220
0
230
1
0
LINE
5
C7
100
AcDbEntity
8
SK1
62
256
6
ByLayer
370
35
48
1
60
0
100
AcDbLine
10
-1.25
20
4.824324
30
0
11
-2.178411
21
4.693844
31
0
39
0
210
0
220
0
230
1
0
LINE
5
C8
100
AcDbEntity
8
SK1
62
256
6
ByLayer
370
35
48
1
60
0
100
AcDbLine
10
-7.303138
20
3.973611
30
0
11
-10.566324
21
3.515
31
0
39
0
210
0
220
0
230
1
0
LINE
5
C9
100
AcDbEntity
8
1
62
256
6
ByLayer
370
35
48
1
60
0
100
AcDbLine
10
21.895461
20
5.749992
30
0
11
21.896411
21
5.85
31
0
39
0
210
0
220
0
230
1
0
LINE
5
CA
100
AcDbEntity
8
1
62
256
6
ByLayer
370
35
48
1
60
0
100
AcDbLine
10
25.2231
20
5.85
30
0
11
22.814808
21
5.85
31
0
39
0
210
0
220
0
230
1
0
LINE
5
CB
100
AcDbEntity
8
1
62
256
6
ByLayer
370
35
48
1
60
0
100
AcDbLine
10
22.813858
20
5.749992
30
0
11
22.814808
21
5.85
31
0
39
0
210
0
220
0
230
1
0
LINE
5
CC
100
AcDbEntity
8
SK1
62
256
6
ByLayer
370
35
48
1
60
0
100
AcDbLine
10
-16.5
20
1.388675
30
0
11
-16.5
21
2.910024
31
0
39
0
210
0
220
0
230
1
0
LINE
5
CD
100
AcDbEntity
8
SK1
62
256
6
ByLayer
370
35
48
1
60
0
100
AcDbLine
10
-16.375883
20
3.125
30
0
11
-16.5
21
2.910024
31
0
39
0
210
0
220
0
230
1
0
LINE
5
CE
100
AcDbEntity
8
SK1
62
256
6
ByLayer
370
35
48
1
60
0
100
AcDbLine
10
-16.5
20
-2.910024
30
0
11
-16.5
21
-1.388675
31
0
39
0
210
0
220
0
230
1
0
LINE
5
CF
100
AcDbEntity
8
SK1
62
256
6
ByLayer
370
35
48
1
60
0
100
AcDbLine
10
-16.5
20
-2.910024
30
0
11
-16.375883
21
-3.125
31
0
39
0
210
0
220
0
230
1
0
LINE
5
D0
100
AcDbEntity
8
SK1
62
256
6
ByLayer
370
35
48
1
60
0
100
AcDbLine
10
-10.566324
20
3.075
30
0
11
-11.566324
21
3.075
31
0
39
0
210
0
220
0
230
1
0
LINE
5
D1
100
AcDbEntity
8
SK1
62
256
6
ByLayer
370
35
48
1
60
0
100
AcDbLine
10
-11.566324
20
-3.075
30
0
11
-10.566324
21
-3.075
31
0
39
0
210
0
220
0
230
1
0
LINE
5
D2
100
AcDbEntity
8
SK1
62
256
6
ByLayer
370
35
48
1
60
0
100
AcDbLine
10
-15.343
20
3.375
30
0
11
-15.7
21
3.312051
31
0
39
0
210
0
220
0
230
1
0
LINE
5
D3
100
AcDbEntity
8
SK1
62
256
6
ByLayer
370
35
48
1
60
0
100
AcDbLine
10
-15.7
20
-3.312051
30
0
11
-15.343
21
-3.375
31
0
39
0
210
0
220
0
230
1
0
LINE
5
D4
100
AcDbEntity
8
SK1
62
256
6
ByLayer
370
35
48
1
60
0
100
AcDbLine
10
-16.375883
20
-3.125
30
0
11
-16.375883
21
-1.317016
31
0
39
0
210
0
220
0
230
1
0
LINE
5
D5
100
AcDbEntity
8
SK1
62
256
6
ByLayer
370
35
48
1
60
0
100
AcDbLine
10
-15.7
20
-1.1
30
0
11
-15.7
21
-3.312051
31
0
39
0
210
0
220
0
230
1
0
LINE
5
D6
100
AcDbEntity
8
SK1
62
256
6
ByLayer
370
35
48
1
60
0
100
AcDbLine
10
-16.375883
20
3.125
30
0
11
-16.375883
21
1.317016
31
0
39
0
210
0
220
0
230
1
0
LINE
5
D7
100
AcDbEntity
8
SK1
62
256
6
ByLayer
370
35
48
1
60
0
100
AcDbLine
10
-15.7
20
1.1
30
0
11
-15.7
21
3.312051
31
0
39
0
210
0
220
0
230
1
0
LINE
5
D8
100
AcDbEntity
8
SK1
62
256
6
ByLayer
370
35
48
1
60
0
100
AcDbLine
10
-11.566324
20
-0.49996
30
0
11
-11.566324
21
-3.375
31
0
39
0
210
0
220
0
230
1
0
LINE
5
D9
100
AcDbEntity
8
SK1
62
256
6
ByLayer
370
35
48
1
60
0
100
AcDbLine
10
-12.049898
20
-0.1
30
0
11
-12.505013
21
-0.1
31
0
39
0
210
0
220
0
230
1
0
LINE
5
DA
100
AcDbEntity
8
SK1
62
256
6
ByLayer
370
35
48
1
60
0
100
AcDbLine
10
-0.999897
20
0
30
0
11
-0.999897
21
4.69
31
0
39
0
210
0
220
0
230
1
0
LINE
5
DB
100
AcDbEntity
8
SK1
62
256
6
ByLayer
370
35
48
1
60
0
100
AcDbLine
10
-1.25
20
0
30
0
11
-1.25
21
4.824324
31
0
39
0
210
0
220
0
230
1
0
LINE
5
DC
100
AcDbEntity
8
SK1
62
256
6
ByLayer
370
35
48
1
60
0
100
AcDbLine
10
-0.999897
20
0
30
0
11
-0.999897
21
-4.69
31
0
39
0
210
0
220
0
230
1
0
LINE
5
DD
100
AcDbEntity
8
SK1
62
256
6
ByLayer
370
35
48
1
60
0
100
AcDbLine
10
-1.25
20
0
30
0
11
-1.25
21
-4.824324
31
0
39
0
210
0
220
0
230
1
0
LINE
5
DE
100
AcDbEntity
8
SK1
62
256
6
ByLayer
370
35
48
1
60
0
100
AcDbLine
10
-0.1
20
0
30
0
11
-0.1
21
4.69
31
0
39
0
210
0
220
0
230
1
0
LINE
5
DF
100
AcDbEntity
8
SK1
62
256
6
ByLayer
370
35
48
1
60
0
100
AcDbLine
10
-0.1
20
0
30
0
11
-0.1
21
-4.69
31
0
39
0
210
0
220
0
230
1
0
LINE
5
E0
100
AcDbEntity
8
1
62
256
6
ByLayer
370
35
48
1
60
0
100
AcDbLine
10
21.94997
20
4.701181
30
0
11
21.94997
21
4.798819
31
0
39
0
210
0
220
0
230
1
0
LINE
5
E1
100
AcDbEntity
8
1
62
256
6
ByLayer
370
35
48
1
60
0
100
AcDbLine
10
0
20
-10
30
0
11
0
21
6
31
0
39
0
210
0
220
0
230
1
0
LINE
5
E2
100
AcDbEntity
8
1
62
256
6
ByLayer
370
35
48
1
60
0
100
AcDbLine
10
0.1
20
5.5
30
0
11
0.1
21
6
31
0
39
0
210
0
220
0
230
1
0
LINE
5
E3
100
AcDbEntity
8
1
62
256
6
ByLayer
370
35
48
1
60
0
100
AcDbLine
10
0.1
20
6
30
0
11
8.723721
21
6
31
0
39
0
210
0
220
0
230
1
0
LINE
5
E4
100
AcDbEntity
8
1
62
256
6
ByLayer
370
35
48
1
60
0
100
AcDbLine
10
18.25
20
5.85
30
0
11
14.361762
21
5.85
31
0
39
0
210
0
220
0
230
1
0
LINE
5
E5
100
AcDbEntity
8
1
62
256
6
ByLayer
370
35
48
1
60
0
100
AcDbLine
10
14.051184
20
6
30
0
11
20.679505
21
6
31
0
39
0
210
0
220
0
230
1
0
LINE
5
E6
100
AcDbEntity
8
1
62
256
6
ByLayer
370
35
48
1
60
0
100
AcDbLine
10
18.25
20
5.85
30
0
11
21.496156
21
5.85
31
0
39
0
210
0
220
0
230
1
0
LINE
5
E7
100
AcDbEntity
8
1
62
256
6
ByLayer
370
35
48
1
60
0
100
AcDbLine
10
18.25
20
3.65
30
0
11
21.496156
21
3.65
31
0
39
0
210
0
220
0
230
1
0
MTEXT
5
148
100
AcDbEntity
8
SK6
62
256
6
ByLayer
370
18
48
1
60
0
100
AcDbMText
10
-15.562782
20
-33.969485
30
0
210
0
220
0
230
1
1
\W0.7669;C2R-QSM12-RF15AD
40
3.5
41
0
44
1.084337
50
0
71
7
72
5
7
iso_b_vert
0
DIMENSION
5
14D
100
AcDbEntity
8
2
62
256
6
ByLayer
370
18
48
1
60
0
100
AcDbDimension
2
_U0
10
28
20
-15.130995
30
0
11
14
21
-15.130995
31
0
70
32
71
1
72
1
41
1
210
0
220
0
230
1
3
Standard
100
AcDbAlignedDimension
13
0
23
-10
33
0
14
28
24
6
34
0
50
0
100
AcDbRotatedDimension
1001
ACAD
1000
DSTYLE
1002
{
1070
   371
1070
    13
1070
   372
1070
    13
1070
   170
1070
     0
1070
   144
1040
1.0
1070
   277
1070
     2
1070
   284
1070
     8
1070
   278
1070
    46
1070
   146
1040
1.166667
1070
   345
1005
16
1070
   347
1005
16
1070
   346
1005
16
1070
   344
1005
0
1070
   343
1005
0
1070
   172
1070
     1
1070
    76
1070
     0
1070
    75
1070
     0
1070
   282
1070
     0
1070
   281
1070
     0
1070
    71
1070
     0
1070
    74
1070
     0
1070
   279
1070
     0
1070
   173
1070
     1
1070
   340
1005
149
1070
   271
1070
     2
1070
   272
1070
     2
1070
    77
1070
     1
1070
    73
1070
     1
1070
   171
1070
     3
1070
   274
1070
     4
1070
   177
1070
     7
1070
   176
1070
     7
1070
   178
1070
     7
1070
    78
1070
     8
1070
    48
1040
-0.1
1070
    41
1040
3.175
1070
   147
1040
1.5
1070
    42
1040
1.5875
1070
    44
1040
2.0
1070
   140
1040
3.0
1002
}
1001
ACAD_DSTYLE_DIM_LINETYPE
1070
   380
1005
16
1001
ACAD_DSTYLE_DIM_EXT1_LINETYPE
1070
   381
1005
16
1001
ACAD_DSTYLE_DIM_EXT2_LINETYPE
1070
   382
1005
16
0
DIMENSION
5
167
100
AcDbEntity
8
2
62
256
6
ByLayer
370
18
48
1
60
0
100
AcDbDimension
2
_U1
10
45.071433
20
6
30
0
11
45.071433
21
3
31
0
70
32
71
1
72
1
41
1
210
0
220
0
230
1
3
Standard
100
AcDbAlignedDimension
13
30
23
0
33
0
14
28
24
6
34
0
50
90
100
AcDbRotatedDimension
1001
ACAD
1000
DSTYLE
1002
{
1070
   371
1070
    13
1070
   372
1070
    13
1070
   170
1070
     0
1070
   144
1040
1.0
1070
   277
1070
     2
1070
   284
1070
     8
1070
   278
1070
    46
1070
   146
1040
1.166667
1070
   345
1005
16
1070
   347
1005
16
1070
   346
1005
16
1070
   344
1005
0
1070
   343
1005
0
1070
   172
1070
     1
1070
    76
1070
     0
1070
    75
1070
     0
1070
   282
1070
     0
1070
   281
1070
     0
1070
    71
1070
     0
1070
    74
1070
     0
1070
   279
1070
     0
1070
   173
1070
     1
1070
   340
1005
149
1070
   271
1070
     2
1070
   272
1070
     2
1070
    77
1070
     1
1070
    73
1070
     0
1070
   171
1070
     3
1070
   274
1070
     4
1070
   177
1070
     7
1070
   176
1070
     7
1070
   178
1070
     7
1070
    78
1070
     8
1070
    48
1040
-0.1
1070
    41
1040
3.175
1070
   147
1040
1.5
1070
    42
1040
1.5875
1070
    44
1040
2.0
1070
   140
1040
3.0
1002
}
1001
ACAD_DSTYLE_DIM_LINETYPE
1070
   380
1005
16
1001
ACAD_DSTYLE_DIM_EXT1_LINETYPE
1070
   381
1005
16
1001
ACAD_DSTYLE_DIM_EXT2_LINETYPE
1070
   382
1005
16
0
DIMENSION
5
180
100
AcDbEntity
8
SK2
62
256
6
ByLayer
370
18
48
1
60
0
100
AcDbDimension
2
_U2
10
-20.823225
20
-10
30
0
11
-20.823225
21
-2
31
0
70
32
71
1
72
1
41
1
210
0
220
0
230
1
3
Standard
100
AcDbAlignedDimension
13
0
23
6
33
0
14
0
24
-10
34
0
50
90
100
AcDbRotatedDimension
1001
ACAD
1000
DSTYLE
1002
{
1070
   371
1070
    13
1070
   372
1070
    13
1070
   170
1070
     0
1070
   144
1040
1.0
1070
   277
1070
     2
1070
   284
1070
     8
1070
   278
1070
    46
1070
   146
1040
1.166667
1070
   345
1005
16
1070
   347
1005
16
1070
   346
1005
16
1070
   344
1005
0
1070
   343
1005
0
1070
   172
1070
     1
1070
    76
1070
     0
1070
    75
1070
     0
1070
   282
1070
     0
1070
   281
1070
     0
1070
    71
1070
     0
1070
    74
1070
     0
1070
   279
1070
     0
1070
   173
1070
     1
1070
   340
1005
149
1070
   271
1070
     0
1070
   272
1070
     2
1070
    77
1070
     1
1070
    73
1070
     0
1070
   171
1070
     3
1070
   274
1070
     4
1070
   177
1070
     7
1070
   176
1070
     7
1070
   178
1070
     7
1070
    78
1070
     8
1070
    48
1040
-0.1
1070
    41
1040
3.175
1070
   147
1040
1.5
1070
    42
1040
1.5875
1070
    44
1040
2.0
1070
   140
1040
3.0
1002
}
1001
ACAD_DSTYLE_DIM_LINETYPE
1070
   380
1005
16
1001
ACAD_DSTYLE_DIM_EXT1_LINETYPE
1070
   381
1005
16
1001
ACAD_DSTYLE_DIM_EXT2_LINETYPE
1070
   382
1005
16
0
DIMENSION
5
199
100
AcDbEntity
8
SK2
62
256
6
ByLayer
370
18
48
1
60
0
100
AcDbDimension
2
_U3
10
28
20
-25.190065
30
0
11
5.75
21
-25.190065
31
0
70
32
71
1
72
1
41
1
210
0
220
0
230
1
3
Standard
100
AcDbAlignedDimension
13
-16.5
23
-2.910024
33
0
14
28
24
6
34
0
50
0
100
AcDbRotatedDimension
1001
ACAD
1000
DSTYLE
1002
{
1070
   371
1070
    13
1070
   372
1070
    13
1070
   170
1070
     0
1070
   144
1040
1.0
1070
   277
1070
     2
1070
   284
1070
     8
1070
   278
1070
    46
1070
   146
1040
1.166667
1070
   345
1005
16
1070
   347
1005
16
1070
   346
1005
16
1070
   344
1005
0
1070
   343
1005
0
1070
   172
1070
     1
1070
    76
1070
     0
1070
    75
1070
     0
1070
   282
1070
     0
1070
   281
1070
     0
1070
    71
1070
     0
1070
    74
1070
     0
1070
   279
1070
     0
1070
   173
1070
     1
1070
   340
1005
149
1070
   271
1070
     2
1070
   272
1070
     2
1070
    77
1070
     1
1070
    73
1070
     1
1070
   171
1070
     3
1070
   274
1070
     4
1070
   177
1070
     7
1070
   176
1070
     7
1070
   178
1070
     7
1070
    78
1070
     8
1070
    48
1040
-0.1
1070
    41
1040
3.175
1070
   147
1040
1.5
1070
    42
1040
1.5875
1070
    44
1040
2.0
1070
   140
1040
3.0
1002
}
1001
ACAD_DSTYLE_DIM_LINETYPE
1070
   380
1005
16
1001
ACAD_DSTYLE_DIM_EXT1_LINETYPE
1070
   381
1005
16
1001
ACAD_DSTYLE_DIM_EXT2_LINETYPE
1070
   382
1005
16
0
DIMENSION
5
1B1
100
AcDbEntity
8
SK2
62
256
6
ByLayer
370
18
48
1
60
0
100
AcDbDimension
2
_U4
10
35.5321
20
3.497331
30
0
11
35.5321
21
19.992857
31
0
70
32
71
1
72
1
41
1
210
0
220
0
230
1
3
Standard
100
AcDbAlignedDimension
13
28
23
6
33
0
14
27.8
24
3.497331
34
0
50
90
100
AcDbRotatedDimension
1001
ACAD
1000
DSTYLE
1002
{
1070
   371
1070
    13
1070
   372
1070
    13
1070
   170
1070
     0
1070
   144
1040
1.0
1070
   277
1070
     2
1070
   284
1070
     8
1070
   278
1070
    46
1070
   146
1040
1.166667
1070
   345
1005
16
1070
   347
1005
16
1070
   346
1005
16
1070
   344
1005
0
1070
   343
1005
0
1070
   172
1070
     1
1070
    76
1070
     0
1070
    75
1070
     0
1070
   282
1070
     0
1070
   281
1070
     0
1070
    71
1070
     0
1070
    74
1070
     0
1070
   279
1070
     0
1070
   173
1070
     1
1070
   340
1005
149
1070
   271
1070
     2
1070
   272
1070
     2
1070
    77
1070
     1
1070
    73
1070
     0
1070
   171
1070
     3
1070
   274
1070
     4
1070
   177
1070
     7
1070
   176
1070
     7
1070
   178
1070
     7
1070
    78
1070
     8
1070
    48
1040
-0.1
1070
    41
1040
3.175
1070
   147
1040
1.5
1070
    42
1040
1.5875
1070
    44
1040
2.0
1070
   140
1040
3.0
1002
}
1001
ACAD_DSTYLE_DIM_LINETYPE
1070
   380
1005
16
1001
ACAD_DSTYLE_DIM_EXT1_LINETYPE
1070
   381
1005
16
1001
ACAD_DSTYLE_DIM_EXT2_LINETYPE
1070
   382
1005
16
0
ENDSEC
0
SECTION
2
OBJECTS
0
DICTIONARY
5
23b
330
0
100
AcDbDictionary
280
0
281
1
3
ACAD_GROUP
350
23c
3
ACAD_MLINESTYLE
350
23d
0
DICTIONARY
5
23c
330
0
100
AcDbDictionary
280
0
281
1
0
DICTIONARY
5
23d
330
0
100
AcDbDictionary
280
0
281
1
3
Standard
350
18
0
MLINESTYLE
5
18
330
23d
100
AcDbMlineStyle
2
Standard
70
0
3

62
256
51
90
52
90
71
2
49
-0.5
62
256
6
ByLayer
49
0.5
62
256
6
ByLayer
0
RASTERVARIABLES
5
229
330

100
AcDbRasterVariables
90
0
70
1
71
1
72
1
0
ENDSEC
0
EOF
