0
SECTION
2
HEADER
9
$ACADVER
1
AC1015
9
$DWGCODEPAGE
3
ANSI_1252
9
$HANDSEED
5
200
9
$ANGBASE
50
0
9
$ANGDIR
70
0
9
$ATTMODE
70
1
9
$AUNITS
70
0
9
$AUPREC
70
0
9
$CECOLOR
62
256
9
$CELTSCALE
40
1
9
$CELTYPE
6
ByLayer
9
$CELWEIGHT
370
18
9
$CLAYER
8
0
9
$CMLJUST
70
0
9
$CMLSCALE
40
1
9
$CMLSTYLE
2
Standard
9
$DIMSTYLE
2
Standard
9
$TEXTSIZE
40
0.2
9
$TEXTSTYLE
7
Standard
9
$LUNITS
70
2
9
$LUPREC
70
4
9
$EXTNAMES
290
1
9
$INSUNITS
70
4
9
$LTSCALE
40
1
9
$LWDISPLAY
290
1
9
$PDMODE
70
0
9
$PDSIZE
40
0
9
$PLINEGEN
70
0
0
ENDSEC
0
SECTION
2
CLASSES
0
CLASS
1
RASTERVARIABLES
2
AcDbRasterVariables
3
ISM
90
0
280
0
281
0
0
ENDSEC
0
SECTION
2
TABLES
0
TABLE
2
VPORT
5
1f6
100
AcDbSymbolTable
0
VPORT
5
1
100
AcDbSymbolTableRecord
100
AcDbViewportTableRecord
2
*Active
70
0
10
0
20
0
11
1
21
1
12
-1
22
1
13
0
23
0
14
0.5
24
0.5
15
10
25
10
16
0
26
0
36
1
17
0
27
0
37
0
0
ENDTAB
0
TABLE
2
LTYPE
5
1f7
100
AcDbSymbolTable
0
LTYPE
5
14
100
AcDbSymbolTableRecord
100
AcDbLinetypeTableRecord
70
0
2
ByBlock
3

72
65
73
0
40
0
0
LTYPE
5
15
100
AcDbSymbolTableRecord
100
AcDbLinetypeTableRecord
70
0
2
ByLayer
3

72
65
73
0
40
0
0
LTYPE
5
16
100
AcDbSymbolTableRecord
100
AcDbLinetypeTableRecord
70
0
2
Continuous
3
Solid line
72
65
73
0
40
0
0
LTYPE
5
6E
100
AcDbSymbolTableRecord
100
AcDbLinetypeTableRecord
70
0
2
CENTER
3
____ _ ____ _ ____ _ ____
72
65
73
4
40
47.5
49
22
74
0
49
-8.5
74
0
49
8.5
74
0
49
-8.5
74
0
0
LTYPE
5
6F
100
AcDbSymbolTableRecord
100
AcDbLinetypeTableRecord
70
0
2
DASHED
3
__ __ __ __ __ __ __ __ __
72
65
73
2
40
25.72
49
12.86
74
0
49
-12.86
74
0
0
ENDTAB
0
TABLE
2
LAYER
5
1f8
100
AcDbSymbolTable
0
LAYER
5
10
100
AcDbSymbolTableRecord
100
AcDbLayerTableRecord
2
0
70
0
62
7
6
Continuous
290
1
370
-3
390
0
0
LAYER
5
71
100
AcDbSymbolTableRecord
100
AcDbLayerTableRecord
2
81
70
0
62
-3
6
Continuous
290
1
370
-3
390
0
0
LAYER
5
73
100
AcDbSymbolTableRecord
100
AcDbLayerTableRecord
2
80
70
0
62
-6
6
Continuous
290
1
370
-3
390
0
0
LAYER
5
77
100
AcDbSymbolTableRecord
100
AcDbLayerTableRecord
2
4
70
0
62
-2
6
CENTER
290
1
370
-3
390
0
0
LAYER
5
7B
100
AcDbSymbolTableRecord
100
AcDbLayerTableRecord
2
1
70
0
62
4
6
Continuous
290
1
370
-3
390
0
0
LAYER
5
119
100
AcDbSymbolTableRecord
100
AcDbLayerTableRecord
2
Defpoints
70
0
62
7
6
Continuous
290
0
370
-3
390
0
0
LAYER
5
126
100
AcDbSymbolTableRecord
100
AcDbLayerTableRecord
2
2
70
0
62
7
6
Continuous
290
1
370
-3
390
0
0
LAYER
5
1e2
100
AcDbSymbolTableRecord
100
AcDbLayerTableRecord
2
SK4
70
0
62
2
6
CENTER
290
1
370
-3
390
0
0
LAYER
5
1e3
100
AcDbSymbolTableRecord
100
AcDbLayerTableRecord
2
SK1
70
0
62
4
6
Continuous
290
1
370
-3
390
0
0
LAYER
5
1e4
100
AcDbSymbolTableRecord
100
AcDbLayerTableRecord
2
SK6
70
0
62
5
6
Continuous
290
1
370
-3
390
0
0
LAYER
5
1e5
100
AcDbSymbolTableRecord
100
AcDbLayerTableRecord
2
SK2
70
0
62
7
6
Continuous
290
1
370
-3
390
0
0
ENDTAB
0
TABLE
2
STYLE
5
1f9
100
AcDbSymbolTable
0
STYLE
5
11
100
AcDbSymbolTableRecord
100
AcDbTextStyleTableRecord
2
Standard
3
txt
70
0
71
0
40
0
41
1
42
0
50
0
0
STYLE
5
112
100
AcDbSymbolTableRecord
100
AcDbTextStyleTableRecord
2
iso_b_vert
3
simplex.shx
70
0
71
0
40
0
41
1
42
0
50
0
0
STYLE
5
113
100
AcDbSymbolTableRecord
100
AcDbTextStyleTableRecord
2
DWGDirectTextStyle
3
simplex
70
0
71
0
40
0
41
1
42
0
50
0
0
ENDTAB
0
TABLE
2
DIMSTYLE
5
1fa
100
AcDbSymbolTable
100
AcDbDimStyleTable
0
DIMSTYLE
105
27
100
AcDbSymbolTableRecord
100
AcDbDimStyleTableRecord
2
Standard
70
0
3
<>
41
0.18
42
0.0625
44
0.18
140
0.18
147
0.09
73
0
74
0
77
1
271
2
275
0
278
52
280
0
340
11
0
ENDTAB
0
TABLE
2
VIEW
5
1fb
100
AcDbSymbolTable
0
ENDTAB
0
TABLE
2
UCS
5
1fc
100
AcDbSymbolTable
0
ENDTAB
0
TABLE
2
APPID
5
1fd
100
AcDbSymbolTable
0
APPID
5
12
100
AcDbSymbolTableRecord
100
AcDbRegAppTableRecord
2
ACAD
70
0
0
APPID
5
115
100
AcDbSymbolTableRecord
100
AcDbRegAppTableRecord
2
ACAD_DSTYLE_DIMBREAK
70
0
0
APPID
5
1A1
100
AcDbSymbolTableRecord
100
AcDbRegAppTableRecord
2
ACAD_DSTYLE_DIM_LINETYPE
70
0
0
APPID
5
1A2
100
AcDbSymbolTableRecord
100
AcDbRegAppTableRecord
2
ACAD_DSTYLE_DIM_EXT1_LINETYPE
70
0
0
APPID
5
1A3
100
AcDbSymbolTableRecord
100
AcDbRegAppTableRecord
2
ACAD_DSTYLE_DIM_EXT2_LINETYPE
70
0
0
APPID
5
1DE
100
AcDbSymbolTableRecord
100
AcDbRegAppTableRecord
2
ACAD_MLEADERVER
70
0
0
ENDTAB
0
TABLE
2
BLOCK_RECORD
5
1fe
100
AcDbSymbolTable
0
BLOCK_RECORD
5
1F
100
AcDbSymbolTableRecord
100
AcDbBlockTableRecord
2
*Model_Space
340
0
70
0
0
BLOCK_RECORD
5
1B
100
AcDbSymbolTableRecord
100
AcDbBlockTableRecord
2
*Paper_Space
340
0
70
0
0
BLOCK_RECORD
5
23
100
AcDbSymbolTableRecord
100
AcDbBlockTableRecord
2
*Paper_Space0
340
0
70
0
0
BLOCK_RECORD
5
11A
100
AcDbSymbolTableRecord
100
AcDbBlockTableRecord
2
*D1
340
0
70
0
0
BLOCK_RECORD
5
127
100
AcDbSymbolTableRecord
100
AcDbBlockTableRecord
2
_U0
340
0
70
0
0
BLOCK_RECORD
5
133
100
AcDbSymbolTableRecord
100
AcDbBlockTableRecord
2
*D3
340
0
70
0
0
BLOCK_RECORD
5
140
100
AcDbSymbolTableRecord
100
AcDbBlockTableRecord
2
_U1
340
0
70
0
0
BLOCK_RECORD
5
149
100
AcDbSymbolTableRecord
100
AcDbBlockTableRecord
2
_U2
340
0
70
0
0
BLOCK_RECORD
5
156
100
AcDbSymbolTableRecord
100
AcDbBlockTableRecord
2
*D6
340
0
70
0
0
BLOCK_RECORD
5
162
100
AcDbSymbolTableRecord
100
AcDbBlockTableRecord
2
_U3
340
0
70
0
0
BLOCK_RECORD
5
16E
100
AcDbSymbolTableRecord
100
AcDbBlockTableRecord
2
*D8
340
0
70
0
0
BLOCK_RECORD
5
17A
100
AcDbSymbolTableRecord
100
AcDbBlockTableRecord
2
_U4
340
0
70
0
0
ENDTAB
0
ENDSEC
0
SECTION
2
BLOCKS
0
BLOCK
5
20
100
AcDbEntity
8
0
100
AcDbBlockBegin
2
*Model_Space
70
0
10
0
20
0
30
0
3
*Model_Space
0
ENDBLK
5
21
100
AcDbEntity
8
0
100
AcDbBlockEnd
0
BLOCK
5
1C
100
AcDbEntity
8
0
100
AcDbBlockBegin
2
*Paper_Space
70
0
10
0
20
0
30
0
3
*Paper_Space
0
ENDBLK
5
1D
100
AcDbEntity
8
0
100
AcDbBlockEnd
0
BLOCK
5
24
100
AcDbEntity
8
0
100
AcDbBlockBegin
2
*Paper_Space0
70
0
10
0
20
0
30
0
3
*Paper_Space0
0
ENDBLK
5
25
100
AcDbEntity
8
0
100
AcDbBlockEnd
0
BLOCK
5
11B
100
AcDbEntity
8
0
100
AcDbBlockBegin
2
*D1
70
1
10
0
20
0
30
0
3
*D1
0
LINE
5
11D
100
AcDbEntity
8
0
62
256
6
ByLayer
370
-2
48
1
60
0
100
AcDbLine
10
0
20
-11.5875
30
0
11
0
21
-21.082217
31
0
39
0
210
0
220
0
230
1
0
LINE
5
11E
100
AcDbEntity
8
0
62
256
6
ByLayer
370
-2
48
1
60
0
100
AcDbLine
10
21
20
6.4125
30
0
11
21
21
-21.082217
31
0
39
0
210
0
220
0
230
1
0
LINE
5
11F
100
AcDbEntity
8
0
62
256
6
ByLayer
370
-2
48
1
60
0
100
AcDbLine
10
3.175
20
-19.082217
30
0
11
17.825
21
-19.082217
31
0
39
0
210
0
220
0
230
1
0
SOLID
5
120
100
AcDbEntity
8
0
62
256
6
ByLayer
370
-1
48
1
60
0
100
AcDbTrace
10
3.175
20
-18.55305
30
0
11
3.175
21
-19.611383
31
0
12
0
22
-19.082217
32
0
13
0
23
-19.082217
33
0
39
0
210
0
220
0
230
1
0
SOLID
5
121
100
AcDbEntity
8
0
62
256
6
ByLayer
370
-1
48
1
60
0
100
AcDbTrace
10
17.825
20
-19.611383
30
0
11
17.825
21
-18.55305
31
0
12
21
22
-19.082217
32
0
13
21
23
-19.082217
33
0
39
0
210
0
220
0
230
1
0
MTEXT
5
122
100
AcDbEntity
8
0
62
256
6
ByLayer
370
18
48
1
60
0
100
AcDbMText
10
10.5
20
-13.082217
30
0
210
0
220
0
230
1
1
\A1;21
40
3
41
0
44
1
50
0
71
5
72
5
7
iso_b_vert
0
POINT
5
123
100
AcDbEntity
8
Defpoints
62
0
6
ByLayer
370
-1
48
1
60
0
100
AcDbPoint
10
0
20
-10
30
0
39
0
210
0
220
0
230
1
50
360
0
POINT
5
124
100
AcDbEntity
8
Defpoints
62
0
6
ByLayer
370
-1
48
1
60
0
100
AcDbPoint
10
21
20
8
30
0
39
0
210
0
220
0
230
1
50
360
0
POINT
5
125
100
AcDbEntity
8
Defpoints
62
0
6
ByLayer
370
-1
48
1
60
0
100
AcDbPoint
10
21
20
-19.082217
30
0
39
0
210
0
220
0
230
1
50
360
0
ENDBLK
5
11C
100
AcDbEntity
8
0
100
AcDbBlockEnd
0
BLOCK
5
12E
100
AcDbEntity
8
0
100
AcDbBlockBegin
2
_U0
70
0
10
0
20
0
30
0
3
_U0
0
MTEXT
5
128
100
AcDbEntity
8
2
62
256
6
ByLayer
370
18
48
1
60
0
100
AcDbMText
10
9.242115
20
-18.197102
30
0
210
0
220
0
230
1
1
\W0.6351;21
40
3
41
0
44
1.084337
50
0
71
7
72
5
7
iso_b_vert
0
LINE
5
129
100
AcDbEntity
8
2
62
256
6
ByLayer
370
13
48
1
60
0
100
AcDbLine
10
0
20
-11.5875
30
0
11
0
21
-21.082217
31
0
39
0
210
0
220
0
230
1
0
LINE
5
12A
100
AcDbEntity
8
2
62
256
6
ByLayer
370
13
48
1
60
0
100
AcDbLine
10
21
20
6.4125
30
0
11
21
21
-21.082217
31
0
39
0
210
0
220
0
230
1
0
LINE
5
12B
100
AcDbEntity
8
2
62
256
6
ByLayer
370
13
48
1
60
0
100
AcDbLine
10
0
20
-19.082217
30
0
11
21
21
-19.082217
31
0
39
0
210
0
220
0
230
1
0
SOLID
5
12C
100
AcDbEntity
8
2
62
256
6
ByLayer
370
18
48
1
60
0
100
AcDbTrace
10
0
20
-19.082217
30
0
11
3.174998
21
-18.66422
31
0
12
3.175002
22
-19.500213
32
0
13
3.175002
23
-19.500213
33
0
39
0
210
0
220
0
230
1
0
SOLID
5
12D
100
AcDbEntity
8
2
62
256
6
ByLayer
370
18
48
1
60
0
100
AcDbTrace
10
21
20
-19.082217
30
0
11
17.825002
21
-19.500213
31
0
12
17.824998
22
-18.66422
32
0
13
17.824998
23
-18.66422
33
0
39
0
210
0
220
0
230
1
0
ENDBLK
5
12F
100
AcDbEntity
8
0
100
AcDbBlockEnd
0
BLOCK
5
134
100
AcDbEntity
8
0
100
AcDbBlockBegin
2
*D3
70
1
10
0
20
0
30
0
3
*D3
0
LINE
5
136
100
AcDbEntity
8
0
62
256
6
ByLayer
370
-2
48
1
60
0
100
AcDbLine
10
24.5875
20
0
30
0
11
33.813729
21
0
31
0
39
0
210
0
220
0
230
1
0
LINE
5
137
100
AcDbEntity
8
0
62
256
6
ByLayer
370
-2
48
1
60
0
100
AcDbLine
10
22.5875
20
8
30
0
11
33.813729
21
8
31
0
39
0
210
0
220
0
230
1
0
LINE
5
138
100
AcDbEntity
8
0
62
256
6
ByLayer
370
-2
48
1
60
0
100
AcDbLine
10
31.813729
20
-3.175
30
0
11
31.813729
21
-6.35
31
0
39
0
210
0
220
0
230
1
0
LINE
5
139
100
AcDbEntity
8
0
62
256
6
ByLayer
370
-2
48
1
60
0
100
AcDbLine
10
31.813729
20
11.175
30
0
11
31.813729
21
14.35
31
0
39
0
210
0
220
0
230
1
0
SOLID
5
13A
100
AcDbEntity
8
0
62
256
6
ByLayer
370
-1
48
1
60
0
100
AcDbTrace
10
32.342895
20
-3.175
30
0
11
31.284562
21
-3.175
31
0
12
31.813729
22
0
32
0
13
31.813729
23
0
33
0
39
0
210
0
220
0
230
1
0
SOLID
5
13B
100
AcDbEntity
8
0
62
256
6
ByLayer
370
-1
48
1
60
0
100
AcDbTrace
10
31.284562
20
11.175
30
0
11
32.342895
21
11.175
31
0
12
31.813729
22
8
32
0
13
31.813729
23
8
33
0
39
0
210
0
220
0
230
1
0
MTEXT
5
13C
100
AcDbEntity
8
0
62
256
6
ByLayer
370
18
48
1
60
0
100
AcDbMText
10
25.813729
20
4
30
0
210
0
220
0
230
1
1
\A1;8
40
3
41
0
44
1
50
90
71
5
72
5
7
iso_b_vert
0
POINT
5
13D
100
AcDbEntity
8
Defpoints
62
0
6
ByLayer
370
-1
48
1
60
0
100
AcDbPoint
10
23
20
0
30
0
39
0
210
0
220
0
230
1
50
360
0
POINT
5
13E
100
AcDbEntity
8
Defpoints
62
0
6
ByLayer
370
-1
48
1
60
0
100
AcDbPoint
10
21
20
8
30
0
39
0
210
0
220
0
230
1
50
360
0
POINT
5
13F
100
AcDbEntity
8
Defpoints
62
0
6
ByLayer
370
-1
48
1
60
0
100
AcDbPoint
10
31.813729
20
8
30
0
39
0
210
0
220
0
230
1
50
360
0
ENDBLK
5
135
100
AcDbEntity
8
0
100
AcDbBlockEnd
0
BLOCK
5
147
100
AcDbEntity
8
0
100
AcDbBlockBegin
2
_U1
70
0
10
0
20
0
30
0
3
_U1
0
MTEXT
5
141
100
AcDbEntity
8
2
62
256
6
ByLayer
370
18
48
1
60
0
100
AcDbMText
10
31.222614
20
3.464086
30
0
210
0
220
0
230
1
1
\W0.5404;8
40
3
41
0
44
1.084337
50
90
71
7
72
5
7
iso_b_vert
0
LINE
5
142
100
AcDbEntity
8
2
62
256
6
ByLayer
370
13
48
1
60
0
100
AcDbLine
10
24.5875
20
0
30
0
11
33.813729
21
0
31
0
39
0
210
0
220
0
230
1
0
LINE
5
143
100
AcDbEntity
8
2
62
256
6
ByLayer
370
13
48
1
60
0
100
AcDbLine
10
24.5875
20
8
30
0
11
33.813729
21
8
31
0
39
0
210
0
220
0
230
1
0
LINE
5
144
100
AcDbEntity
8
2
62
256
6
ByLayer
370
13
48
1
60
0
100
AcDbLine
10
31.813729
20
0
30
0
11
31.813729
21
8
31
0
39
0
210
0
220
0
230
1
0
SOLID
5
145
100
AcDbEntity
8
2
62
256
6
ByLayer
370
18
48
1
60
0
100
AcDbTrace
10
31.813729
20
0
30
0
11
31.395732
21
3.174998
31
0
12
32.231725
22
3.175002
32
0
13
32.231725
23
3.175002
33
0
39
0
210
0
220
0
230
1
0
SOLID
5
146
100
AcDbEntity
8
2
62
256
6
ByLayer
370
18
48
1
60
0
100
AcDbTrace
10
31.813729
20
8
30
0
11
32.231725
21
4.825002
31
0
12
31.395732
22
4.824998
32
0
13
31.395732
23
4.824998
33
0
39
0
210
0
220
0
230
1
0
ENDBLK
5
148
100
AcDbEntity
8
0
100
AcDbBlockEnd
0
BLOCK
5
151
100
AcDbEntity
8
0
100
AcDbBlockBegin
2
_U2
70
0
10
0
20
0
30
0
3
_U2
0
MTEXT
5
14A
100
AcDbEntity
8
SK2
62
256
6
ByLayer
370
18
48
1
60
0
100
AcDbMText
10
12.458669
20
12.420368
30
0
210
0
220
0
230
1
1
\W0.8531;95%%d
40
3
41
0
44
1.084337
50
47.5000000000001
71
7
72
5
7
iso_b_vert
0
LINE
5
14C
100
AcDbEntity
8
SK2
62
256
6
ByLayer
370
13
48
1
60
0
100
AcDbLine
10
21
20
9.5875
30
0
11
21
21
18.571351
31
0
39
0
210
0
220
0
230
1
0
ARC
5
14D
100
AcDbEntity
8
SK2
62
256
6
ByLayer
370
13
48
1
60
0
100
AcDbCircle
39
0
10
21
20
8.036238
30
0
40
8.53511287832907
210
0
220
0
230
1
100
AcDbArc
50
90
51
184.999943
0
SOLID
5
14E
100
AcDbEntity
8
SK2
62
256
6
ByLayer
370
18
48
1
60
0
100
AcDbTrace
10
21
20
16.571351
30
0
11
17.876793
21
15.863598
31
0
12
17.800031
22
16.69606
32
0
13
21
23
16.571351
33
0
39
0
210
0
220
0
230
1
0
SOLID
5
14F
100
AcDbEntity
8
SK2
62
256
6
ByLayer
370
18
48
1
60
0
100
AcDbTrace
10
12.497366
20
7.292354
30
0
11
12.094236
21
10.469274
31
0
12
12.93022
22
10.465364
32
0
13
12.497366
23
7.292354
33
0
39
0
210
0
220
0
230
1
0
ENDBLK
5
152
100
AcDbEntity
8
0
100
AcDbBlockEnd
0
BLOCK
5
157
100
AcDbEntity
8
0
100
AcDbBlockBegin
2
*D6
70
1
10
0
20
0
30
0
3
*D6
0
LINE
5
159
100
AcDbEntity
8
0
62
256
6
ByLayer
370
-2
48
1
60
0
100
AcDbLine
10
-1.5875
20
8
30
0
11
-27.484389
21
8
31
0
39
0
210
0
220
0
230
1
0
LINE
5
15A
100
AcDbEntity
8
0
62
256
6
ByLayer
370
-2
48
1
60
0
100
AcDbLine
10
-1.5875
20
-10
30
0
11
-27.484389
21
-10
31
0
39
0
210
0
220
0
230
1
0
LINE
5
15B
100
AcDbEntity
8
0
62
256
6
ByLayer
370
-2
48
1
60
0
100
AcDbLine
10
-25.484389
20
4.825
30
0
11
-25.484389
21
-6.825
31
0
39
0
210
0
220
0
230
1
0
SOLID
5
15C
100
AcDbEntity
8
0
62
256
6
ByLayer
370
-1
48
1
60
0
100
AcDbTrace
10
-24.955223
20
4.825
30
0
11
-26.013556
21
4.825
31
0
12
-25.484389
22
8
32
0
13
-25.484389
23
8
33
0
39
0
210
0
220
0
230
1
0
SOLID
5
15D
100
AcDbEntity
8
0
62
256
6
ByLayer
370
-1
48
1
60
0
100
AcDbTrace
10
-26.013556
20
-6.825
30
0
11
-24.955223
21
-6.825
31
0
12
-25.484389
22
-10
32
0
13
-25.484389
23
-10
33
0
39
0
210
0
220
0
230
1
0
MTEXT
5
15E
100
AcDbEntity
8
0
62
256
6
ByLayer
370
18
48
1
60
0
100
AcDbMText
10
-31.484389
20
-1
30
0
210
0
220
0
230
1
1
\A1;18
40
3
41
0
44
1
50
90
71
5
72
5
7
iso_b_vert
0
POINT
5
15F
100
AcDbEntity
8
Defpoints
62
0
6
ByLayer
370
-1
48
1
60
0
100
AcDbPoint
10
0
20
8
30
0
39
0
210
0
220
0
230
1
50
360
0
POINT
5
160
100
AcDbEntity
8
Defpoints
62
0
6
ByLayer
370
-1
48
1
60
0
100
AcDbPoint
10
0
20
-10
30
0
39
0
210
0
220
0
230
1
50
360
0
POINT
5
161
100
AcDbEntity
8
Defpoints
62
0
6
ByLayer
370
-1
48
1
60
0
100
AcDbPoint
10
-25.484389
20
-10
30
0
39
0
210
0
220
0
230
1
50
360
0
ENDBLK
5
158
100
AcDbEntity
8
0
100
AcDbBlockEnd
0
BLOCK
5
169
100
AcDbEntity
8
0
100
AcDbBlockBegin
2
_U3
70
0
10
0
20
0
30
0
3
_U3
0
MTEXT
5
163
100
AcDbEntity
8
SK2
62
256
6
ByLayer
370
18
48
1
60
0
100
AcDbMText
10
-26.075504
20
-2.281885
30
0
210
0
220
0
230
1
1
\W0.5321;18
40
3
41
0
44
1.084337
50
90
71
7
72
5
7
iso_b_vert
0
LINE
5
164
100
AcDbEntity
8
SK2
62
256
6
ByLayer
370
13
48
1
60
0
100
AcDbLine
10
-1.5875
20
8
30
0
11
-27.484389
21
8
31
0
39
0
210
0
220
0
230
1
0
LINE
5
165
100
AcDbEntity
8
SK2
62
256
6
ByLayer
370
13
48
1
60
0
100
AcDbLine
10
-1.5875
20
-10
30
0
11
-27.484389
21
-10
31
0
39
0
210
0
220
0
230
1
0
LINE
5
166
100
AcDbEntity
8
SK2
62
256
6
ByLayer
370
13
48
1
60
0
100
AcDbLine
10
-25.484389
20
8
30
0
11
-25.484389
21
-10
31
0
39
0
210
0
220
0
230
1
0
SOLID
5
167
100
AcDbEntity
8
SK2
62
256
6
ByLayer
370
18
48
1
60
0
100
AcDbTrace
10
-25.484389
20
8
30
0
11
-25.066393
21
4.825002
31
0
12
-25.902386
22
4.824998
32
0
13
-25.902386
23
4.824998
33
0
39
0
210
0
220
0
230
1
0
SOLID
5
168
100
AcDbEntity
8
SK2
62
256
6
ByLayer
370
18
48
1
60
0
100
AcDbTrace
10
-25.484389
20
-10
30
0
11
-25.902386
21
-6.825002
31
0
12
-25.066393
22
-6.824998
32
0
13
-25.066393
23
-6.824998
33
0
39
0
210
0
220
0
230
1
0
ENDBLK
5
16A
100
AcDbEntity
8
0
100
AcDbBlockEnd
0
BLOCK
5
16F
100
AcDbEntity
8
0
100
AcDbBlockBegin
2
*D8
70
1
10
0
20
0
30
0
3
*D8
0
LINE
5
171
100
AcDbEntity
8
0
62
256
6
ByLayer
370
-2
48
1
60
0
100
AcDbLine
10
-16.5
20
-4.497524
30
0
11
-16.5
21
-31.428109
31
0
39
0
210
0
220
0
230
1
0
LINE
5
172
100
AcDbEntity
8
0
62
256
6
ByLayer
370
-2
48
1
60
0
100
AcDbLine
10
21
20
6.4125
30
0
11
21
21
-31.428109
31
0
39
0
210
0
220
0
230
1
0
LINE
5
173
100
AcDbEntity
8
0
62
256
6
ByLayer
370
-2
48
1
60
0
100
AcDbLine
10
-13.325
20
-29.428109
30
0
11
17.825
21
-29.428109
31
0
39
0
210
0
220
0
230
1
0
SOLID
5
174
100
AcDbEntity
8
0
62
256
6
ByLayer
370
-1
48
1
60
0
100
AcDbTrace
10
-13.325
20
-28.898942
30
0
11
-13.325
21
-29.957275
31
0
12
-16.5
22
-29.428109
32
0
13
-16.5
23
-29.428109
33
0
39
0
210
0
220
0
230
1
0
SOLID
5
175
100
AcDbEntity
8
0
62
256
6
ByLayer
370
-1
48
1
60
0
100
AcDbTrace
10
17.825
20
-29.957275
30
0
11
17.825
21
-28.898942
31
0
12
21
22
-29.428109
32
0
13
21
23
-29.428109
33
0
39
0
210
0
220
0
230
1
0
MTEXT
5
176
100
AcDbEntity
8
0
62
256
6
ByLayer
370
18
48
1
60
0
100
AcDbMText
10
2.25
20
-23.428109
30
0
210
0
220
0
230
1
1
\A1;37.5
40
3
41
0
44
1
50
0
71
5
72
5
7
iso_b_vert
0
POINT
5
177
100
AcDbEntity
8
Defpoints
62
0
6
ByLayer
370
-1
48
1
60
0
100
AcDbPoint
10
-16.5
20
-2.910024
30
0
39
0
210
0
220
0
230
1
50
360
0
POINT
5
178
100
AcDbEntity
8
Defpoints
62
0
6
ByLayer
370
-1
48
1
60
0
100
AcDbPoint
10
21
20
8
30
0
39
0
210
0
220
0
230
1
50
360
0
POINT
5
179
100
AcDbEntity
8
Defpoints
62
0
6
ByLayer
370
-1
48
1
60
0
100
AcDbPoint
10
21
20
-29.428109
30
0
39
0
210
0
220
0
230
1
50
360
0
ENDBLK
5
170
100
AcDbEntity
8
0
100
AcDbBlockEnd
0
BLOCK
5
181
100
AcDbEntity
8
0
100
AcDbBlockBegin
2
_U4
70
0
10
0
20
0
30
0
3
_U4
0
MTEXT
5
17B
100
AcDbEntity
8
SK2
62
256
6
ByLayer
370
18
48
1
60
0
100
AcDbMText
10
-1.111456
20
-28.542994
30
0
210
0
220
0
230
1
1
\W0.7346;37.5
40
3
41
0
44
1.084337
50
0
71
7
72
5
7
iso_b_vert
0
LINE
5
17C
100
AcDbEntity
8
SK2
62
256
6
ByLayer
370
13
48
1
60
0
100
AcDbLine
10
-16.5
20
-4.497524
30
0
11
-16.5
21
-31.428109
31
0
39
0
210
0
220
0
230
1
0
LINE
5
17D
100
AcDbEntity
8
SK2
62
256
6
ByLayer
370
13
48
1
60
0
100
AcDbLine
10
21
20
6.4125
30
0
11
21
21
-31.428109
31
0
39
0
210
0
220
0
230
1
0
LINE
5
17E
100
AcDbEntity
8
SK2
62
256
6
ByLayer
370
13
48
1
60
0
100
AcDbLine
10
-16.5
20
-29.428109
30
0
11
21
21
-29.428109
31
0
39
0
210
0
220
0
230
1
0
SOLID
5
17F
100
AcDbEntity
8
SK2
62
256
6
ByLayer
370
18
48
1
60
0
100
AcDbTrace
10
-16.5
20
-29.428109
30
0
11
-13.325002
21
-29.010112
31
0
12
-13.324998
22
-29.846105
32
0
13
-13.324998
23
-29.846105
33
0
39
0
210
0
220
0
230
1
0
SOLID
5
180
100
AcDbEntity
8
SK2
62
256
6
ByLayer
370
18
48
1
60
0
100
AcDbTrace
10
21
20
-29.428109
30
0
11
17.825002
21
-29.846105
31
0
12
17.824998
22
-29.010112
32
0
13
17.824998
23
-29.010112
33
0
39
0
210
0
220
0
230
1
0
ENDBLK
5
182
100
AcDbEntity
8
0
100
AcDbBlockEnd
0
ENDSEC
0
SECTION
2
ENTITIES
0
ARC
5
BE
100
AcDbEntity
8
1
62
256
6
ByLayer
370
13
48
1
60
0
100
AcDbCircle
39
0
10
10.998201
20
-2.001799
30
0
40
0.396874999999997
210
0
220
0
230
1
100
AcDbArc
50
175
51
275
0
ARC
5
BF
100
AcDbEntity
8
1
62
256
6
ByLayer
370
13
48
1
60
0
100
AcDbCircle
39
0
10
19.830407
20
-1.229081
30
0
40
0.396874999999997
210
0
220
0
230
1
100
AcDbArc
50
275
51
355
0
ARC
5
C0
100
AcDbEntity
8
1
62
256
6
ByLayer
370
13
48
1
60
0
100
AcDbCircle
39
0
10
20.603125
20
7.603125
30
0
40
0.396874999999997
210
0
220
0
230
1
100
AcDbArc
50
355
51
95
0
ARC
5
C1
100
AcDbEntity
8
1
62
256
6
ByLayer
370
13
48
1
60
0
100
AcDbCircle
39
0
10
11.770919
20
6.830407
30
0
40
0.396874999999997
210
0
220
0
230
1
100
AcDbArc
50
95
51
175
0
ARC
5
C2
100
AcDbEntity
8
1
62
256
6
ByLayer
370
18
48
1
60
0
100
AcDbCircle
39
0
10
15.800663
20
2.800663
30
0
40
1.2903
210
0
220
0
230
1
100
AcDbArc
50
105
51
165
0
ARC
5
C3
100
AcDbEntity
8
1
62
256
6
ByLayer
370
18
48
1
60
0
100
AcDbCircle
39
0
10
15.800663
20
2.800663
30
0
40
1.2903
210
0
220
0
230
1
100
AcDbArc
50
165
51
225
0
ARC
5
C4
100
AcDbEntity
8
1
62
256
6
ByLayer
370
18
48
1
60
0
100
AcDbCircle
39
0
10
15.800663
20
2.800663
30
0
40
1.2903
210
0
220
0
230
1
100
AcDbArc
50
225
51
285
0
ARC
5
C5
100
AcDbEntity
8
1
62
256
6
ByLayer
370
18
48
1
60
0
100
AcDbCircle
39
0
10
15.800663
20
2.800663
30
0
40
1.2903
210
0
220
0
230
1
100
AcDbArc
50
285
51
345
0
ARC
5
C6
100
AcDbEntity
8
1
62
256
6
ByLayer
370
18
48
1
60
0
100
AcDbCircle
39
0
10
15.800663
20
2.800663
30
0
40
1.2903
210
0
220
0
230
1
100
AcDbArc
50
345
51
45
0
ARC
5
C7
100
AcDbEntity
8
1
62
256
6
ByLayer
370
18
48
1
60
0
100
AcDbCircle
39
0
10
15.800663
20
2.800663
30
0
40
1.2903
210
0
220
0
230
1
100
AcDbArc
50
45
51
105
0
ARC
5
CA
100
AcDbEntity
8
1
62
256
6
ByLayer
370
18
48
1
60
0
100
AcDbCircle
39
0
10
15.800663
20
2.800663
30
0
40
1.6764
210
0
220
0
230
1
100
AcDbArc
50
135
51
195
0
ARC
5
CB
100
AcDbEntity
8
1
62
256
6
ByLayer
370
18
48
1
60
0
100
AcDbCircle
39
0
10
15.800663
20
2.800663
30
0
40
1.6764
210
0
220
0
230
1
100
AcDbArc
50
315
51
15
0
ARC
5
CC
100
AcDbEntity
8
1
62
256
6
ByLayer
370
18
48
1
60
0
100
AcDbCircle
39
0
10
15.800663
20
2.800663
30
0
40
1.6764
210
0
220
0
230
1
100
AcDbArc
50
15
51
75
0
ARC
5
CD
100
AcDbEntity
8
1
62
256
6
ByLayer
370
18
48
1
60
0
100
AcDbCircle
39
0
10
15.800663
20
2.800663
30
0
40
1.6764
210
0
220
0
230
1
100
AcDbArc
50
255
51
315
0
ARC
5
CE
100
AcDbEntity
8
1
62
256
6
ByLayer
370
18
48
1
60
0
100
AcDbCircle
39
0
10
15.800663
20
2.800663
30
0
40
1.6764
210
0
220
0
230
1
100
AcDbArc
50
195
51
255
0
ARC
5
CF
100
AcDbEntity
8
1
62
256
6
ByLayer
370
18
48
1
60
0
100
AcDbCircle
39
0
10
15.800663
20
2.800663
30
0
40
1.6764
210
0
220
0
230
1
100
AcDbArc
50
75
51
135
0
ARC
5
D0
100
AcDbEntity
8
1
62
256
6
ByLayer
370
13
48
1
60
0
100
AcDbCircle
39
0
10
11.672567
20
-2.361219
30
0
40
1.5
210
0
220
0
230
1
100
AcDbArc
50
132.167435
51
302.166572
0
ARC
5
D1
100
AcDbEntity
8
1
62
256
6
ByLayer
370
13
48
1
60
0
100
AcDbCircle
39
0
10
12.327417
20
-2.062628
30
0
40
1.57491820480221
210
0
220
0
230
1
100
AcDbArc
50
275.235976
51
355
0
ARC
5
D2
100
AcDbEntity
8
1
62
256
6
ByLayer
370
13
48
1
60
0
100
AcDbCircle
39
0
10
12
20
11.464883
30
0
40
5
210
0
220
0
230
1
100
AcDbArc
50
231.328771
51
262.46457
0
ARC
5
D3
100
AcDbEntity
8
1
62
256
6
ByLayer
370
13
48
1
60
0
100
AcDbCircle
39
0
10
12.327417
20
-2.062628
30
0
40
1.67491820480221
210
0
220
0
230
1
100
AcDbArc
50
276.053039
51
355
0
ARC
5
D4
100
AcDbEntity
8
1
62
256
6
ByLayer
370
13
48
1
60
0
100
AcDbCircle
39
0
10
11.672567
20
-2.361219
30
0
40
1.6
210
0
220
0
230
1
100
AcDbArc
50
128.432566
51
301.309975
0
ARC
5
D5
100
AcDbEntity
8
SK1
62
256
6
ByLayer
370
13
48
1
60
0
100
AcDbCircle
39
0
10
-15.942871
20
-2.875
30
0
40
0.5
210
0
220
0
230
1
100
AcDbArc
50
210
51
299.061062
0
ARC
5
D6
100
AcDbEntity
8
SK1
62
256
6
ByLayer
370
13
48
1
60
0
100
AcDbCircle
39
0
10
-15.942871
20
2.875
30
0
40
0.5
210
0
220
0
230
1
100
AcDbArc
50
60.938938
51
150
0
ARC
5
D7
100
AcDbEntity
8
SK1
62
256
6
ByLayer
370
13
48
1
60
0
100
AcDbCircle
39
0
10
-0.999897
20
-4.99
30
0
40
0.3
210
0
220
0
230
1
100
AcDbArc
50
90
51
146.478251
0
ARC
5
D8
100
AcDbEntity
8
SK1
62
256
6
ByLayer
370
13
48
1
60
0
100
AcDbCircle
39
0
10
-0.999897
20
4.99
30
0
40
0.3
210
0
220
0
230
1
100
AcDbArc
50
213.521749
51
270
0
ARC
5
D9
100
AcDbEntity
8
SK1
62
256
6
ByLayer
370
13
48
1
60
0
100
AcDbCircle
39
0
10
-0.1
20
-4.99
30
0
40
0.3
210
0
220
0
230
1
100
AcDbArc
50
70.527647
51
90
0
ARC
5
DA
100
AcDbEntity
8
SK1
62
256
6
ByLayer
370
13
48
1
60
0
100
AcDbCircle
39
0
10
-0.1
20
4.99
30
0
40
0.3
210
0
220
0
230
1
100
AcDbArc
50
270
51
289.472353
0
CIRCLE
5
BB
100
AcDbEntity
8
1
62
256
6
ByLayer
370
13
48
1
60
0
100
AcDbCircle
10
15.800663
20
2.800663
30
0
40
2.92104776441583
39
0
210
0
220
0
230
1
0
CIRCLE
5
BC
100
AcDbEntity
8
1
62
256
6
ByLayer
370
13
48
1
60
0
100
AcDbCircle
10
15.800663
20
2.800663
30
0
40
3.00996076009771
39
0
210
0
220
0
230
1
0
CIRCLE
5
BD
100
AcDbEntity
8
1
62
256
6
ByLayer
370
13
48
1
60
0
100
AcDbCircle
10
15.800663
20
2.800663
30
0
40
3.0713253481824
39
0
210
0
220
0
230
1
0
CIRCLE
5
C8
100
AcDbEntity
8
1
62
256
6
ByLayer
370
18
48
1
60
0
100
AcDbCircle
10
15.800663
20
2.800663
30
0
40
2.625
39
0
210
0
220
0
230
1
0
CIRCLE
5
C9
100
AcDbEntity
8
1
62
256
6
ByLayer
370
18
48
1
60
0
100
AcDbCircle
10
15.800663
20
2.800663
30
0
40
1.8
39
0
210
0
220
0
230
1
0
POINT
5
70
100
AcDbEntity
8
81
62
256
6
ByLayer
370
18
48
1
60
0
100
AcDbPoint
10
21
20
8
30
0
39
0
210
0
220
0
230
1
50
360
0
POINT
5
72
100
AcDbEntity
8
80
62
256
6
ByLayer
370
18
48
1
60
0
100
AcDbPoint
10
0
20
0
30
0
39
0
210
0
220
0
230
1
50
360
0
SPLINE
5
DB
100
AcDbEntity
8
1
62
256
6
ByLayer
370
18
48
1
60
0
100
AcDbSpline
70
4
71
3
72
32
73
28
40
0
40
0
40
0
40
0
40
0.0625000000000015
40
0.0625000000000015
40
0.125000000000003
40
0.125000000000003
40
0.156250000000004
40
0.156250000000004
40
0.187500000000005
40
0.187500000000005
40
0.250000000000004
40
0.250000000000004
40
0.312500000000004
40
0.312500000000004
40
0.375000000000004
40
0.375000000000004
40
0.437500000000003
40
0.437500000000003
40
0.500000000000003
40
0.500000000000003
40
0.625000000000002
40
0.625000000000002
40
0.750000000000001
40
0.750000000000001
40
0.875000000000001
40
0.875000000000001
40
1
40
1
40
1
40
1
41
1
10
14.3040454187341
20
2.79984434755136
30
0
41
1
10
14.2944319972652
20
2.80103464858365
30
0
41
1
10
14.2848958568788
20
2.80095879747654
30
0
41
1
10
14.2659985116545
20
2.79794962592899
30
0
41
1
10
14.2565507054732
20
2.79492641206127
30
0
41
1
10
14.2434286172052
20
2.78837933324235
30
0
41
1
10
14.2391930964611
20
2.78586194405761
30
0
41
1
10
14.2309931373109
20
2.78017716303998
30
0
41
1
10
14.227005562556
20
2.77698588313615
30
0
41
1
10
14.2156946960429
20
2.76669415713246
30
0
41
1
10
14.2089645550303
20
2.75886994111886
30
0
41
1
10
14.1968371531342
20
2.74166367036457
30
0
41
1
10
14.1915788226528
20
2.73247445726355
30
0
41
1
10
14.1823741053596
20
2.71337213143943
30
0
41
1
10
14.1784126084417
20
2.70342812207076
30
0
41
1
10
14.171536245168
20
2.68290970515716
30
0
41
1
10
14.168642354321
20
2.67238133063131
30
0
41
1
10
14.1638072046549
20
2.65112777614377
30
0
41
1
10
14.1618540651498
20
2.64036298239461
30
0
41
1
10
14.1571783010455
20
2.60772367943071
30
0
41
1
10
14.1556558033028
20
2.58572878868853
30
0
41
1
10
14.1550610363502
20
2.54154471836819
30
0
41
1
10
14.1559991047975
20
2.51942420929629
30
0
41
1
10
14.1599424584208
20
2.47531152267789
30
0
41
1
10
14.1629529960874
20
2.45331983802436
30
0
41
1
10
14.1708135435623
20
2.40973246401177
30
0
41
1
10
14.1756579385481
20
2.38815243706148
30
0
41
1
10
14.1813849883272
20
2.36677879630827
30
0
0
SPLINE
5
DC
100
AcDbEntity
8
1
62
256
6
ByLayer
370
18
48
1
60
0
100
AcDbSpline
70
4
71
3
72
32
73
28
40
0
40
0
40
0
40
0
40
0.0624999999999966
40
0.0624999999999966
40
0.124999999999993
40
0.124999999999993
40
0.156249999999992
40
0.156249999999992
40
0.187499999999991
40
0.187499999999991
40
0.249999999999992
40
0.249999999999992
40
0.312499999999992
40
0.312499999999992
40
0.374999999999993
40
0.374999999999993
40
0.437499999999994
40
0.437499999999994
40
0.499999999999994
40
0.499999999999994
40
0.624999999999996
40
0.624999999999996
40
0.749999999999997
40
0.749999999999997
40
0.874999999999999
40
0.874999999999999
40
1
40
1
40
1
40
1
41
1
10
14.504963508687
20
3.54968086741536
30
0
41
1
10
14.4960428909615
20
3.5534567472177
30
0
41
1
10
14.4878222766864
20
3.55829050639653
30
0
41
1
10
14.4729612814318
20
3.57034519801317
30
0
41
1
10
14.4662908482026
20
3.57768728111444
30
0
41
1
10
14.4582003258213
20
3.5899182618262
30
0
41
1
10
14.4557909518511
20
3.59421614518339
30
0
41
1
10
14.4515319694258
20
3.60323928953477
30
0
41
1
10
14.4496742683405
20
3.6079968063795
30
0
41
1
10
14.4450246336031
20
3.62256513580405
30
0
41
1
10
14.443108268522
20
3.63270617614273
30
0
41
1
10
14.4412087657752
20
3.65367094466848
30
0
41
1
10
14.4412495245473
20
3.66425820189539
30
0
41
1
10
14.4428291684488
20
3.68540365997706
30
0
41
1
10
14.4443704161653
20
3.69599617316476
30
0
41
1
10
14.4486745193414
20
3.7172038250942
30
0
41
1
10
14.451432523615
20
3.72776861031764
30
0
41
1
10
14.4578719384168
20
3.74859230325762
30
0
41
1
10
14.4615628668629
20
3.75889145786346
30
0
41
1
10
14.4738331878484
20
3.78949580544418
30
0
41
1
10
14.4835121114971
20
3.80930518845162
30
0
41
1
10
14.505089063367
20
3.84786709926806
30
0
41
1
10
14.5169617090088
20
3.86655498784529
30
0
41
1
10
14.5424330967319
20
3.90278601827435
30
0
41
1
10
14.5560361411569
20
3.92032610702307
30
0
41
1
10
14.5846372619642
20
3.95414360646475
30
0
41
1
10
14.5996226445629
20
3.97041026052517
30
0
41
1
10
14.615269235537
20
3.98605685149926
30
0
0
SPLINE
5
DD
100
AcDbEntity
8
1
62
256
6
ByLayer
370
18
48
1
60
0
100
AcDbSpline
70
4
71
3
72
42
73
38
40
0
40
0
40
0
40
0
40
0.0625000000000006
40
0.0625000000000006
40
0.0937500000000008
40
0.0937500000000008
40
0.125000000000001
40
0.125000000000001
40
0.187500000000003
40
0.187500000000003
40
0.218750000000003
40
0.218750000000003
40
0.250000000000003
40
0.250000000000003
40
0.375000000000003
40
0.375000000000003
40
0.437500000000003
40
0.437500000000003
40
0.500000000000003
40
0.500000000000003
40
0.562500000000002
40
0.562500000000002
40
0.625000000000002
40
0.625000000000002
40
0.687500000000002
40
0.687500000000002
40
0.750000000000002
40
0.750000000000002
40
0.812500000000001
40
0.812500000000001
40
0.875000000000001
40
0.875000000000001
40
0.906250000000001
40
0.906250000000001
40
0.937500000000001
40
0.937500000000001
40
1
40
1
40
1
40
1
41
1
10
14.3232503713092
20
2.80544455488678
30
0
41
1
10
14.3386829834831
20
2.80994473928246
30
0
41
1
10
14.3531084065341
20
2.81708394172767
30
0
41
1
10
14.3737779696877
20
2.83042749510741
30
0
41
1
10
14.3805235336533
20
2.83535157909881
30
0
41
1
10
14.3934830592793
20
2.84579198899229
30
0
41
1
10
14.3997284727184
20
2.85132564594988
30
0
41
1
10
14.4178785450748
20
2.86872614130311
30
0
41
1
10
14.4292036541475
20
2.88138393357127
30
0
41
1
10
14.4452899423918
20
2.90165913787814
30
0
41
1
10
14.4505129879402
20
2.90865541320477
30
0
41
1
10
14.4605656962772
20
2.92289086853072
30
0
41
1
10
14.46540726989
20
2.93014302007458
30
0
41
1
10
14.4887853096982
20
2.96701683088088
30
0
41
1
10
14.504898825194
20
2.99843316458856
30
0
41
1
10
14.5259448161565
20
3.04799996020495
30
0
41
1
10
14.5324290045492
20
3.06496050829907
30
0
41
1
10
14.5441810705248
20
3.09920674915145
30
0
41
1
10
14.5494759297561
20
3.11655146922493
30
0
41
1
10
14.5589132096467
20
3.15168130963912
30
0
41
1
10
14.5630229319555
20
3.16934536739331
30
0
41
1
10
14.5700133600453
20
3.20485956552818
30
0
41
1
10
14.5728999598069
20
3.22275776592733
30
0
41
1
10
14.5773355207873
20
3.2585065549992
30
0
41
1
10
14.5788877371178
20
3.27634448060275
30
0
41
1
10
14.5805462607228
20
3.31195485342948
30
0
41
1
10
14.5806486275417
20
3.32974303244896
30
0
41
1
10
14.5792018343598
20
3.36484415848167
30
0
41
1
10
14.5776532341431
20
3.38225381734009
30
0
41
1
10
14.5725949994613
20
3.41643215704971
30
0
41
1
10
14.5691018957904
20
3.4331549860172
30
0
41
1
10
14.5620140893989
20
3.45748845000458
30
0
41
1
10
14.5593533297864
20
3.46543008774705
30
0
41
1
10
14.5533406839369
20
3.48092959879239
30
0
41
1
10
14.549973814491
20
3.48851637033368
30
0
41
1
10
14.5387560012992
20
3.51033910678962
30
0
41
1
10
14.529851874615
20
3.52367596056376
30
0
41
1
10
14.5187953818279
20
3.53522846930883
30
0
0
SPLINE
5
DE
100
AcDbEntity
8
1
62
256
6
ByLayer
370
18
48
1
60
0
100
AcDbSpline
70
4
71
3
72
8
73
4
40
0
40
0
40
0
40
0
40
1
40
1
40
1
40
1
41
1
10
14.5187953818279
20
3.53522846930883
30
0
41
1
10
14.5141841532727
20
3.54004656662374
30
0
41
1
10
14.5095735365445
20
3.54486402466375
30
0
41
1
10
14.504963508687
20
3.54968086741536
30
0
0
SPLINE
5
DF
100
AcDbEntity
8
1
62
256
6
ByLayer
370
18
48
1
60
0
100
AcDbSpline
70
4
71
3
72
8
73
4
40
0
40
0
40
0
40
0
40
1
40
1
40
1
40
1
41
1
10
14.3232503713092
20
2.80544455488678
30
0
41
1
10
14.3168478815803
20
2.80357757449178
30
0
41
1
10
14.3104462413467
20
2.80171084181148
30
0
41
1
10
14.3040454187341
20
2.79984434755136
30
0
0
SPLINE
5
E0
100
AcDbEntity
8
1
62
256
6
ByLayer
370
18
48
1
60
0
100
AcDbSpline
70
4
71
3
72
32
73
28
40
0
40
0
40
0
40
0
40
0.0624999999999993
40
0.0624999999999993
40
0.124999999999999
40
0.124999999999999
40
0.156249999999998
40
0.156249999999998
40
0.187499999999997
40
0.187499999999997
40
0.249999999999997
40
0.249999999999997
40
0.312499999999997
40
0.312499999999997
40
0.374999999999998
40
0.374999999999998
40
0.437499999999998
40
0.437499999999998
40
0.499999999999998
40
0.499999999999998
40
0.624999999999999
40
0.624999999999999
40
0.749999999999999
40
0.749999999999999
40
0.875
40
0.875
40
1
40
1
40
1
40
1
41
1
10
17.2972806683023
20
2.80148173948487
30
0
41
1
10
17.3068940897712
20
2.80029143845263
30
0
41
1
10
17.3164302301574
20
2.80036728955969
30
0
41
1
10
17.3353275753817
20
2.80337646110723
30
0
41
1
10
17.3447753815632
20
2.80639967497501
30
0
41
1
10
17.3578974698312
20
2.81294675379394
30
0
41
1
10
17.3621329905751
20
2.81546414297861
30
0
41
1
10
17.3703329497255
20
2.8211489239963
30
0
41
1
10
17.3743205244803
20
2.82434020390013
30
0
41
1
10
17.3856313909935
20
2.83463192990382
30
0
41
1
10
17.3923615320059
20
2.84245614591737
30
0
41
1
10
17.4044889339021
20
2.85966241667171
30
0
41
1
10
17.4097472643836
20
2.86885162977268
30
0
41
1
10
17.4189519816766
20
2.8879539555968
30
0
41
1
10
17.4229134785946
20
2.89789796496547
30
0
41
1
10
17.4297898418682
20
2.91841638187907
30
0
41
1
10
17.4326837327152
20
2.92894475640492
30
0
41
1
10
17.4375188823814
20
2.95019831089246
30
0
41
1
10
17.4394720218864
20
2.96096310464162
30
0
41
1
10
17.4441477859907
20
2.99360240760558
30
0
41
1
10
17.4456702837334
20
3.0155972983477
30
0
41
1
10
17.4462650506862
20
3.0597813686681
30
0
41
1
10
17.4453269822388
20
3.08190187773994
30
0
41
1
10
17.4413836286155
20
3.12601456435834
30
0
41
1
10
17.4383730909489
20
3.14800624901193
30
0
41
1
10
17.430512543474
20
3.19159362302452
30
0
41
1
10
17.4256681484883
20
3.21317364997481
30
0
41
1
10
17.4199410987092
20
3.23454729072802
30
0
0
SPLINE
5
E1
100
AcDbEntity
8
1
62
256
6
ByLayer
370
18
48
1
60
0
100
AcDbSpline
70
4
71
3
72
40
73
36
40
0
40
0
40
0
40
0
40
0.0625000000000019
40
0.0625000000000019
40
0.0937500000000019
40
0.0937500000000019
40
0.125000000000002
40
0.125000000000002
40
0.187500000000001
40
0.187500000000001
40
0.250000000000001
40
0.250000000000001
40
0.3125
40
0.3125
40
0.375
40
0.375
40
0.5
40
0.5
40
0.5625
40
0.5625
40
0.625
40
0.625
40
0.6875
40
0.6875
40
0.749999999999999
40
0.749999999999999
40
0.812499999999999
40
0.812499999999999
40
0.874999999999999
40
0.874999999999999
40
0.906249999999999
40
0.906249999999999
40
0.9375
40
0.9375
40
1
40
1
40
1
40
1
41
1
10
17.0825307052083
20
2.06609761772739
30
0
41
1
10
17.071480078675
20
2.07764399704706
30
0
41
1
10
17.0625965609784
20
2.09095220218427
30
0
41
1
10
17.0514071462137
20
2.11269468059521
30
0
41
1
10
17.0480382417195
20
2.12027292176879
30
0
41
1
10
17.0420239281584
20
2.13575166491393
30
0
41
1
10
17.0393654564958
20
2.14367337201639
30
0
41
1
10
17.0322866724965
20
2.16791874390151
30
0
41
1
10
17.0287716757667
20
2.18468372078962
30
0
41
1
10
17.0237015294152
20
2.21881532968251
30
0
41
1
10
17.0221429591427
20
2.23621929461348
30
0
41
1
10
17.0206791574914
20
2.27135330972021
30
0
41
1
10
17.0207755516316
20
2.28909725593167
30
0
41
1
10
17.0224138971071
20
2.32463562191975
30
0
41
1
10
17.0239590031268
20
2.34250081013391
30
0
41
1
10
17.0305885722388
20
2.39612370088594
30
0
41
1
10
17.0375757517972
20
2.43153488761715
30
0
41
1
10
17.0516792641673
20
2.48418917247011
30
0
41
1
10
17.0569550047521
20
2.50151850260772
30
0
41
1
10
17.0686628869985
20
2.53572857269955
30
0
41
1
10
17.0751135230756
20
2.55265199172243
30
0
41
1
10
17.0891460373271
20
2.58578635341337
30
0
41
1
10
17.0967195038649
20
2.60198982948651
30
0
41
1
10
17.1130841833528
20
2.63361830763455
30
0
41
1
10
17.1218860695899
20
2.64905385876085
30
0
41
1
10
17.1406805673117
20
2.67868925934306
30
0
41
1
10
17.1507214662868
20
2.69297352042463
30
0
41
1
10
17.1721772665807
20
2.72000603386692
30
0
41
1
10
17.1835565021198
20
2.73272478401594
30
0
41
1
10
17.201847058283
20
2.75022913816934
30
0
41
1
10
17.2081171099316
20
2.75576850105824
30
0
41
1
10
17.2210632595265
20
2.76617036571935
30
0
41
1
10
17.2277667508458
20
2.77105035208632
30
0
41
1
10
17.2483739980207
20
2.78432135710415
30
0
41
1
10
17.2627399071364
20
2.79140957589624
30
0
41
1
10
17.278075715727
20
2.79588153214951
30
0
0
SPLINE
5
E2
100
AcDbEntity
8
1
62
256
6
ByLayer
370
18
48
1
60
0
100
AcDbSpline
70
4
71
3
72
8
73
4
40
0
40
0
40
0
40
0
40
1
40
1
40
1
40
1
41
1
10
17.0963625783494
20
2.05164521962087
30
0
41
1
10
17.0917525504917
20
2.05646206237253
30
0
41
1
10
17.0871419337636
20
2.06127952041254
30
0
41
1
10
17.0825307052083
20
2.06609761772739
30
0
0
SPLINE
5
E3
100
AcDbEntity
8
1
62
256
6
ByLayer
370
18
48
1
60
0
100
AcDbSpline
70
4
71
3
72
31
73
27
40
0
40
0
40
0
40
0
40
0.25
40
0.25
40
0.375
40
0.375
40
0.499999999999999
40
0.499999999999999
40
0.562499999999999
40
0.562499999999999
40
0.624999999999998
40
0.624999999999998
40
0.687499999999998
40
0.687499999999998
40
0.749999999999997
40
0.749999999999997
40
0.781249999999997
40
0.781249999999997
40
0.812499999999997
40
0.843749999999997
40
0.843749999999997
40
0.874999999999997
40
0.874999999999997
40
0.937499999999999
40
0.937499999999999
40
1
40
1
40
1
40
1
41
1
10
16.9860568514993
20
1.61526923553703
30
0
41
1
10
17.0173283912666
20
1.64654077530435
30
0
41
1
10
17.0461987307023
20
1.68048130108718
30
0
41
1
10
17.0843609441556
20
1.73476731022941
30
0
41
1
10
17.0962358226941
20
1.7534594736768
30
0
41
1
10
17.117781800196
20
1.79196076724048
30
0
41
1
10
17.1274712577058
20
1.81178899191798
30
0
41
1
10
17.1397209577565
20
1.84232291640137
30
0
41
1
10
17.1434269630649
20
1.85265364782566
30
0
41
1
10
17.1498752998763
20
1.87349069462493
30
0
41
1
10
17.1526360154371
20
1.8840632093237
30
0
41
1
10
17.1569337323239
20
1.90520439047504
30
0
41
1
10
17.1584720234795
20
1.9157468654638
30
0
41
1
10
17.1600644389791
20
1.93675155865708
30
0
41
1
10
17.1601234488521
20
1.94721415640743
30
0
41
1
10
17.158759104031
20
1.96281875642148
30
0
41
1
10
17.1580524265562
20
1.96803999164092
30
0
41
1
10
17.15610046342
20
1.97823956508216
30
0
41
1
10
17.1536192280669
20
1.98819183418141
30
0
41
1
10
17.1499957303306
20
1.9976047204554
30
0
41
1
10
17.1457436543882
20
2.00671807208306
30
0
41
1
10
17.1432948576478
20
2.011124541463
30
0
41
1
10
17.135189281002
20
2.02345878942697
30
0
41
1
10
17.1287180310655
20
2.03065224843778
30
0
41
1
10
17.1136412373803
20
2.04296487526977
30
0
41
1
10
17.105316480387
20
2.04785525138135
30
0
41
1
10
17.0963625783494
20
2.05164521962087
30
0
0
SPLINE
5
E4
100
AcDbEntity
8
1
62
256
6
ByLayer
370
18
48
1
60
0
100
AcDbSpline
70
4
71
3
72
8
73
4
40
0
40
0
40
0
40
0
40
1
40
1
40
1
40
1
41
1
10
17.278075715727
20
2.79588153214951
30
0
41
1
10
17.2844782054559
20
2.7977485125445
30
0
41
1
10
17.2908798456896
20
2.79961524522474
30
0
41
1
10
17.2972806683023
20
2.80148173948487
30
0
0
SPLINE
5
E5
100
AcDbEntity
8
1
62
256
6
ByLayer
370
18
48
1
60
0
100
AcDbSpline
70
4
71
3
72
31
73
27
40
0
40
0
40
0
40
0
40
0.249999999999999
40
0.249999999999999
40
0.374999999999998
40
0.374999999999998
40
0.499999999999998
40
0.499999999999998
40
0.562499999999997
40
0.562499999999997
40
0.624999999999996
40
0.624999999999996
40
0.687499999999995
40
0.687499999999995
40
0.749999999999994
40
0.749999999999994
40
0.781249999999994
40
0.781249999999994
40
0.812499999999995
40
0.843749999999995
40
0.843749999999995
40
0.874999999999995
40
0.874999999999995
40
0.937499999999998
40
0.937499999999998
40
1
40
1
40
1
40
1
41
1
10
17.4199410987092
20
3.23454729072802
30
0
41
1
10
17.4084949207388
20
3.27726500846563
30
0
41
1
10
17.3935367329109
20
3.31923771872425
30
0
41
1
10
17.3656047766503
20
3.37943016961054
30
0
41
1
10
17.3553543275225
20
3.39906019781546
30
0
41
1
10
17.3327842179687
20
3.43697020846327
30
0
41
1
10
17.320457200441
20
3.45527563715444
30
0
41
1
10
17.3001388961865
20
3.48115115082874
30
0
41
1
10
17.2930452229875
20
3.48952601128462
30
0
41
1
10
17.2782239795253
20
3.50552895817498
30
0
41
1
10
17.2704482709946
20
3.51320606533267
30
0
41
1
10
17.2542883294949
20
3.52749858791054
30
0
41
1
10
17.2459274239137
20
3.53410202462413
30
0
41
1
10
17.2285330337594
20
3.54598344349682
30
0
41
1
10
17.2195016632545
20
3.55126584642107
30
0
41
1
10
17.205305510816
20
3.5578865891535
30
0
41
1
10
17.2004304497393
20
3.55988520611777
30
0
41
1
10
17.1906213784633
20
3.56329454317518
30
0
41
1
10
17.1807618429216
20
3.56612186487621
30
0
41
1
10
17.1707982954173
20
3.56769026692308
30
0
41
1
10
17.1607798634228
20
3.56856453695195
30
0
41
1
10
17.1557393506287
20
3.56864705145608
30
0
41
1
10
17.1410047902323
20
3.56779454015043
30
0
41
1
10
17.1315394470197
20
3.56578700281659
30
0
41
1
10
17.1133380025532
20
3.55888642989356
30
0
41
1
10
17.1049404341099
20
3.55412216691292
30
0
41
1
10
17.0971812743161
20
3.54826284440503
30
0
0
SPLINE
5
E6
100
AcDbEntity
8
1
62
256
6
ByLayer
370
18
48
1
60
0
100
AcDbSpline
70
4
71
3
72
32
73
28
40
0
40
0
40
0
40
0
40
0.0624999999999987
40
0.0624999999999987
40
0.124999999999998
40
0.124999999999998
40
0.156249999999997
40
0.156249999999997
40
0.187499999999996
40
0.187499999999996
40
0.249999999999997
40
0.249999999999997
40
0.312499999999997
40
0.312499999999997
40
0.374999999999998
40
0.374999999999998
40
0.437499999999998
40
0.437499999999998
40
0.499999999999999
40
0.499999999999999
40
0.624999999999999
40
0.624999999999999
40
0.749999999999999
40
0.749999999999999
40
0.875
40
0.875
40
1
40
1
40
1
40
1
41
1
10
16.548262844405
20
4.09718127431609
30
0
41
1
10
16.5541003860715
20
4.10491159100928
30
0
41
1
10
16.5588027672791
20
4.11320805639139
30
0
41
1
10
16.5656454208867
20
4.13107822319353
30
0
41
1
10
16.5677511439668
20
4.14077187029051
30
0
41
1
10
16.5686422515231
20
4.15540947149083
30
0
41
1
10
16.5685798889099
20
4.16033623464568
30
0
41
1
10
16.5677567037088
20
4.17027999808869
30
0
41
1
10
16.566986761619
20
4.17532897907779
30
0
41
1
10
16.5637292987075
20
4.19027033981882
30
0
41
1
10
16.5603183993813
20
4.20001092091348
30
0
41
1
10
16.5514810327518
20
4.21911669441465
30
0
41
1
10
16.5461521060063
20
4.2282651487435
30
0
41
1
10
16.5342113652177
20
4.24578783066607
30
0
41
1
10
16.5275803489479
20
4.25419059231842
30
0
41
1
10
16.5132490602922
20
4.27040490605583
30
0
41
1
10
16.5055781659157
20
4.27817527630799
30
0
41
1
10
16.4895896226419
20
4.29298941599376
30
0
41
1
10
16.4812436075412
20
4.30006328129684
30
0
41
1
10
16.4553150240647
20
4.32043226327528
30
0
41
1
10
16.4370281387999
20
4.33274823036868
30
0
41
1
10
16.3990609949362
20
4.35535534881927
30
0
41
1
10
16.3794350379117
20
4.36560321224931
30
0
41
1
10
16.3392606538592
20
4.38424451114463
30
0
41
1
10
16.318710027444
20
4.3926331513731
30
0
41
1
10
16.2770319805273
20
4.4076194045785
30
0
41
1
10
16.2559209314812
20
4.41421404892998
30
0
41
1
10
16.234547290728
20
4.4199410987091
30
0
0
SPLINE
5
E7
100
AcDbEntity
8
1
62
256
6
ByLayer
370
18
48
1
60
0
100
AcDbSpline
70
4
71
3
72
40
73
36
40
0
40
0
40
0
40
0
40
0.0625000000000002
40
0.0625000000000002
40
0.0937499999999995
40
0.0937499999999995
40
0.124999999999999
40
0.124999999999999
40
0.187499999999999
40
0.187499999999999
40
0.249999999999999
40
0.249999999999999
40
0.312499999999999
40
0.312499999999999
40
0.374999999999999
40
0.374999999999999
40
0.499999999999999
40
0.499999999999999
40
0.562499999999999
40
0.562499999999999
40
0.624999999999999
40
0.624999999999999
40
0.687499999999999
40
0.687499999999999
40
0.749999999999999
40
0.749999999999999
40
0.812499999999999
40
0.812499999999999
40
0.875
40
0.875
40
0.90625
40
0.90625
40
0.9375
40
0.9375
40
1
40
1
40
1
40
1
41
1
10
17.0777491938397
20
3.54351028993631
30
0
41
1
10
17.0622244227606
20
3.53971335629046
30
0
41
1
10
17.0462574201846
20
3.53867410685882
30
0
41
1
10
17.0218331741572
20
3.53985502862463
30
0
41
1
10
17.0135857725377
20
3.54072659233645
30
0
41
1
10
16.9971736309749
20
3.54325741557886
30
0
41
1
10
16.9889839955515
20
3.54491596513503
30
0
41
1
10
16.9644474955751
20
3.55090824430624
30
0
41
1
10
16.9481711013312
20
3.55624665628812
30
0
41
1
10
16.9160771877823
20
3.56892158519332
30
0
41
1
10
16.9002256268891
20
3.57627380620909
30
0
41
1
10
16.8690667764441
20
3.59257312434636
30
0
41
1
10
16.8537482653318
20
3.6015285772263
30
0
41
1
10
16.8237903103147
20
3.62071660902228
30
0
41
1
10
16.8090911564878
20
3.63098730419404
30
0
41
1
10
16.7659671554281
20
3.66354012483714
30
0
41
1
10
16.73879375792
20
3.6872967932012
30
0
41
1
10
16.7002455658043
20
3.72583793562274
30
0
41
1
10
16.687875795967
20
3.73907152606171
30
0
41
1
10
16.6641029473253
20
3.76631588455746
30
0
41
1
10
16.6526721545712
20
3.78036400878227
30
0
41
1
10
16.6309932127344
20
3.80908370344855
30
0
41
1
10
16.6207473240944
20
3.82374425590149
30
0
41
1
10
16.6015385982791
20
3.85373072313689
30
0
41
1
10
16.5925719620009
20
3.86907115578259
30
0
41
1
10
16.5763042011063
20
3.90016536855222
30
0
41
1
10
16.5689541176229
20
3.91600317268217
30
0
41
1
10
16.5562711744006
20
3.94810069751634
30
0
41
1
10
16.5509460314368
20
3.96431477964342
30
0
41
1
10
16.5449320941447
20
3.98890704300681
30
0
41
1
10
16.5432698909864
20
3.99710674846193
30
0
41
1
10
16.5407346867406
20
4.01351937522298
30
0
41
1
10
16.5398602402364
20
4.02176476218295
30
0
41
1
10
16.5386708363446
20
4.04624666424741
30
0
41
1
10
16.539715213361
20
4.06223201588608
30
0
41
1
10
16.5435102899363
20
4.07774919383974
30
0
0
SPLINE
5
E8
100
AcDbEntity
8
1
62
256
6
ByLayer
370
18
48
1
60
0
100
AcDbSpline
70
4
71
3
72
8
73
4
40
0
40
0
40
0
40
0
40
1
40
1
40
1
40
1
41
1
10
17.0971812743161
20
3.54826284440503
30
0
41
1
10
17.0907047521983
20
3.54667886454399
30
0
41
1
10
17.08422740279
20
3.54509468235034
30
0
41
1
10
17.0777491938397
20
3.54351028993631
30
0
0
SPLINE
5
E9
100
AcDbEntity
8
1
62
256
6
ByLayer
370
18
48
1
60
0
100
AcDbSpline
70
4
71
3
72
8
73
4
40
0
40
0
40
0
40
0
40
1
40
1
40
1
40
1
41
1
10
16.5435102899363
20
4.07774919383974
30
0
41
1
10
16.5450946823503
20
4.08422740278996
30
0
41
1
10
16.546678864544
20
4.09070475219835
30
0
41
1
10
16.548262844405
20
4.09718127431609
30
0
0
SPLINE
5
EA
100
AcDbEntity
8
1
62
256
6
ByLayer
370
18
48
1
60
0
100
AcDbSpline
70
4
71
3
72
40
73
36
40
0
40
0
40
0
40
0
40
0.0625000000000005
40
0.0625000000000005
40
0.09375
40
0.09375
40
0.125
40
0.125
40
0.1875
40
0.1875
40
0.25
40
0.25
40
0.3125
40
0.3125
40
0.375
40
0.375
40
0.500000000000001
40
0.500000000000001
40
0.562500000000001
40
0.562500000000001
40
0.625000000000001
40
0.625000000000001
40
0.687500000000001
40
0.687500000000001
40
0.750000000000001
40
0.750000000000001
40
0.812500000000001
40
0.812500000000001
40
0.875000000000001
40
0.875000000000001
40
0.906250000000001
40
0.906250000000001
40
0.937500000000001
40
0.937500000000001
40
1
40
1
40
1
40
1
41
1
10
15.8054445548868
20
1.32325037130926
30
0
41
1
10
15.8099186994326
20
1.33859368427471
30
0
41
1
10
15.8170021843119
20
1.35294113884356
30
0
41
1
10
15.8302370155746
20
1.3735026954887
30
0
41
1
10
15.8351155126999
20
1.3802093729505
30
0
41
1
10
15.8455133407017
20
1.39315729285323
30
0
41
1
10
15.8510445044625
20
1.39942045039953
30
0
41
1
10
15.8685022204395
20
1.41767354311338
30
0
41
1
10
15.8812636179536
20
1.42910010801967
30
0
41
1
10
15.9082873851512
20
1.4505567880073
30
0
41
1
10
15.9225803757716
20
1.4606085319225
30
0
41
1
10
15.9522754245653
20
1.47944322889202
30
0
41
1
10
15.967690329818
20
1.48823172222353
30
0
41
1
10
15.9992866303104
20
1.50458205641564
30
0
41
1
10
16.0155308901572
20
1.51217654945799
30
0
41
1
10
16.0652844603287
20
1.53324661956691
30
0
41
1
10
16.0994450373953
20
1.54490113793412
30
0
41
1
10
16.1520967418811
20
1.55901428036554
30
0
41
1
10
16.1697422523033
20
1.56311002006413
30
0
41
1
10
16.2052229831912
20
1.57007573166021
30
0
41
1
10
16.2231044120225
20
1.57295102645827
30
0
41
1
10
16.2588158681108
20
1.57736569348293
30
0
41
1
10
16.2766352232886
20
1.57890861710314
30
0
41
1
10
16.3122086285919
20
1.58055062801577
30
0
41
1
10
16.3299771511072
20
1.58064574649637
30
0
41
1
10
16.3650394097236
20
1.57918693430901
30
0
41
1
10
16.3824303921821
20
1.57763339126058
30
0
41
1
10
16.4165691356982
20
1.5725683798687
30
0
41
1
10
16.4332735142012
20
1.56907304789064
30
0
41
1
10
16.4575780076565
20
1.56198513868065
30
0
41
1
10
16.4655102624633
20
1.55932479611442
30
0
41
1
10
16.4809916163041
20
1.55331403401453
30
0
41
1
10
16.4885695541276
20
1.54994863342148
30
0
41
1
10
16.5103662051943
20
1.5387377363748
30
0
41
1
10
16.5236877372936
20
1.52984060352827
30
0
41
1
10
16.5352284693089
20
1.51879538182789
30
0
0
SPLINE
5
EB
100
AcDbEntity
8
1
62
256
6
ByLayer
370
18
48
1
60
0
100
AcDbSpline
70
4
71
3
72
8
73
4
40
0
40
0
40
0
40
0
40
1
40
1
40
1
40
1
41
1
10
15.7998443475514
20
1.30404541873401
30
0
41
1
10
15.8017108418115
20
1.31044624134665
30
0
41
1
10
15.8035775744918
20
1.31684788158032
30
0
41
1
10
15.8054445548868
20
1.32325037130926
30
0
0
SPLINE
5
EC
100
AcDbEntity
8
1
62
256
6
ByLayer
370
18
48
1
60
0
100
AcDbSpline
70
4
71
3
72
31
73
27
40
0
40
0
40
0
40
0
40
0.249999999999999
40
0.249999999999999
40
0.374999999999998
40
0.374999999999998
40
0.499999999999996
40
0.499999999999996
40
0.562499999999995
40
0.562499999999995
40
0.624999999999994
40
0.624999999999994
40
0.687499999999993
40
0.687499999999993
40
0.749999999999992
40
0.749999999999992
40
0.781249999999993
40
0.781249999999993
40
0.812499999999994
40
0.843749999999994
40
0.843749999999994
40
0.874999999999995
40
0.874999999999995
40
0.937499999999998
40
0.937499999999998
40
1
40
1
40
1
40
1
41
1
10
15.3667787963083
20
1.18138498832713
30
0
41
1
10
15.4094965140459
20
1.16993881035682
30
0
41
1
10
15.4533250413095
20
1.1619066258811
30
0
41
1
10
15.5194192110234
20
1.15600018413698
30
0
41
1
10
15.5415445386898
20
1.15506231937945
30
0
41
1
10
15.5856606257454
20
1.15565360229533
30
0
41
1
10
15.607677100783
20
1.15717639828165
30
0
41
1
10
15.6402451050882
20
1.16183480909075
30
0
41
1
10
15.6510447835956
20
1.16379068005921
30
0
41
1
10
15.6723143638692
20
1.16862477996807
30
0
41
1
10
15.6828507879607
20
1.17152018750914
30
0
41
1
10
15.703308446347
20
1.17836884608261
30
0
41
1
10
15.7132076430839
20
1.18230788435778
30
0
41
1
10
15.7321944487378
20
1.19143115867837
30
0
41
1
10
15.7412848291157
20
1.19661135350447
30
0
41
1
10
15.7541166367332
20
1.2055952107861
30
0
41
1
10
15.7582850203349
20
1.20881782904132
30
0
41
1
10
15.7661421284747
20
1.2156080654251
30
0
41
1
10
15.7735204286633
20
1.22273301282331
30
0
41
1
10
15.7798604784315
20
1.23057749705043
30
0
41
1
10
15.7856268344835
20
1.23881657864928
30
0
41
1
10
15.7882185505373
20
1.24314053352509
30
0
41
1
10
15.7948475342878
20
1.25632729279471
30
0
41
1
10
15.797841627564
20
1.2655282891393
30
0
41
1
10
15.8009662783452
20
1.28474148889433
30
0
41
1
10
15.8010390897953
20
1.2943961279866
30
0
41
1
10
15.7998443475514
20
1.30404541873401
30
0
0
SPLINE
5
ED
100
AcDbEntity
8
1
62
256
6
ByLayer
370
18
48
1
60
0
100
AcDbSpline
70
4
71
3
72
32
73
28
40
0
40
0
40
0
40
0
40
0.0625000000000007
40
0.0625000000000007
40
0.125000000000001
40
0.125000000000001
40
0.156250000000002
40
0.156250000000002
40
0.187500000000002
40
0.187500000000002
40
0.250000000000002
40
0.250000000000002
40
0.312500000000002
40
0.312500000000002
40
0.375000000000002
40
0.375000000000002
40
0.437500000000002
40
0.437500000000002
40
0.500000000000002
40
0.500000000000002
40
0.625000000000001
40
0.625000000000001
40
0.750000000000001
40
0.750000000000001
40
0.875
40
0.875
40
1
40
1
40
1
40
1
41
1
10
16.5496808674154
20
1.50496350868696
30
0
41
1
10
16.5534567472178
20
1.49604289096146
30
0
41
1
10
16.5582905063965
20
1.48782227668642
30
0
41
1
10
16.5703451980132
20
1.47296128143188
30
0
41
1
10
16.5776872811144
20
1.46629084820262
30
0
41
1
10
16.5899182618263
20
1.45820032582128
30
0
41
1
10
16.5942161451834
20
1.45579095185104
30
0
41
1
10
16.6032392895348
20
1.45153196942573
30
0
41
1
10
16.6079968063795
20
1.44967426834046
30
0
41
1
10
16.622565135804
20
1.44502463360311
30
0
41
1
10
16.6327061761427
20
1.443108268522
30
0
41
1
10
16.6536709446685
20
1.44120876577517
30
0
41
1
10
16.6642582018955
20
1.44124952454729
30
0
41
1
10
16.6854036599771
20
1.44282916844884
30
0
41
1
10
16.6959961731648
20
1.44437041616521
30
0
41
1
10
16.7172038250942
20
1.44867451934141
30
0
41
1
10
16.7277686103176
20
1.45143252361504
30
0
41
1
10
16.7485923032576
20
1.45787193841687
30
0
41
1
10
16.7588914578635
20
1.46156286686289
30
0
41
1
10
16.7894958054442
20
1.47383318784847
30
0
41
1
10
16.8093051884516
20
1.48351211149713
30
0
41
1
10
16.8478670992681
20
1.50508906336694
30
0
41
1
10
16.8665549878452
20
1.5169617090088
30
0
41
1
10
16.9027860182744
20
1.54243309673188
30
0
41
1
10
16.920326107023
20
1.55603614115694
30
0
41
1
10
16.9541436064648
20
1.58463726196419
30
0
41
1
10
16.9704102605252
20
1.59962264456294
30
0
41
1
10
16.9860568514993
20
1.61526923553703
30
0
0
SPLINE
5
EE
100
AcDbEntity
8
1
62
256
6
ByLayer
370
18
48
1
60
0
100
AcDbSpline
70
4
71
3
72
8
73
4
40
0
40
0
40
0
40
0
40
1
40
1
40
1
40
1
41
1
10
16.5352284693089
20
1.51879538182789
30
0
41
1
10
16.5400465666238
20
1.51418415327265
30
0
41
1
10
16.5448640246637
20
1.50957353654457
30
0
41
1
10
16.5496808674154
20
1.50496350868696
30
0
0
SPLINE
5
EF
100
AcDbEntity
8
1
62
256
6
ByLayer
370
18
48
1
60
0
100
AcDbSpline
70
4
71
3
72
40
73
36
40
0
40
0
40
0
40
0
40
0.0625000000000014
40
0.0625000000000014
40
0.0937500000000017
40
0.0937500000000017
40
0.125000000000002
40
0.125000000000002
40
0.187500000000002
40
0.187500000000002
40
0.250000000000002
40
0.250000000000002
40
0.312500000000001
40
0.312500000000001
40
0.375000000000001
40
0.375000000000001
40
0.500000000000001
40
0.500000000000001
40
0.562500000000001
40
0.562500000000001
40
0.625000000000001
40
0.625000000000001
40
0.6875
40
0.6875
40
0.75
40
0.75
40
0.8125
40
0.8125
40
0.875
40
0.875
40
0.90625
40
0.90625
40
0.9375
40
0.9375
40
1
40
1
40
1
40
1
41
1
10
14.5235768931965
20
2.05781579709998
30
0
41
1
10
14.5391016642757
20
2.06161273074577
30
0
41
1
10
14.5550686668516
20
2.06265198017746
30
0
41
1
10
14.5794929128791
20
2.0614710584116
30
0
41
1
10
14.5877403144986
20
2.06059949469983
30
0
41
1
10
14.6041524560615
20
2.05806867145742
30
0
41
1
10
14.6123420914848
20
2.05641012190125
30
0
41
1
10
14.6368785914611
20
2.05041784272998
30
0
41
1
10
14.653154985705
20
2.04507943074816
30
0
41
1
10
14.685248899254
20
2.03240450184296
30
0
41
1
10
14.7011004601471
20
2.02505228082714
30
0
41
1
10
14.7322593105921
20
2.00875296268993
30
0
41
1
10
14.7475778217046
20
1.99979750980998
30
0
41
1
10
14.7775357767215
20
1.980609478014
30
0
41
1
10
14.7922349305484
20
1.97033878284225
30
0
41
1
10
14.8353589316081
20
1.93778596219914
30
0
41
1
10
14.8625323291162
20
1.91402929383508
30
0
41
1
10
14.901080521232
20
1.87548815141355
30
0
41
1
10
14.9134502910692
20
1.86225456097452
30
0
41
1
10
14.9372231397109
20
1.83501020247883
30
0
41
1
10
14.948653932465
20
1.82096207825396
30
0
41
1
10
14.9703328743018
20
1.79224238358773
30
0
41
1
10
14.9805787629418
20
1.7775818311348
30
0
41
1
10
14.9997874887572
20
1.74759536389939
30
0
41
1
10
15.0087541250354
20
1.73225493125364
30
0
41
1
10
15.02502188593
20
1.701160718484
30
0
41
1
10
15.0323719694134
20
1.68532291435406
30
0
41
1
10
15.0450549126357
20
1.65322538951989
30
0
41
1
10
15.0503800555995
20
1.63701130739281
30
0
41
1
10
15.0563939928916
20
1.61241904402948
30
0
41
1
10
15.0580561960499
20
1.60421933857435
30
0
41
1
10
15.0605914002956
20
1.5878067118133
30
0
41
1
10
15.0614658467999
20
1.57956132485327
30
0
41
1
10
15.0626552506916
20
1.55507942278882
30
0
41
1
10
15.0616108736754
20
1.53909407115015
30
0
41
1
10
15.0578157971
20
1.52357689319649
30
0
0
SPLINE
5
F0
100
AcDbEntity
8
1
62
256
6
ByLayer
370
18
48
1
60
0
100
AcDbSpline
70
4
71
3
72
8
73
4
40
0
40
0
40
0
40
0
40
1
40
1
40
1
40
1
41
1
10
14.5041448127201
20
2.05306324263125
30
0
41
1
10
14.5106213348379
20
2.05464722249229
30
0
41
1
10
14.5170986842463
20
2.05623140468595
30
0
41
1
10
14.5235768931965
20
2.05781579709998
30
0
0
SPLINE
5
F1
100
AcDbEntity
8
1
62
256
6
ByLayer
370
18
48
1
60
0
100
AcDbSpline
70
4
71
3
72
31
73
27
40
0
40
0
40
0
40
0
40
0.25
40
0.25
40
0.375
40
0.375
40
0.5
40
0.5
40
0.5625
40
0.5625
40
0.624999999999999
40
0.624999999999999
40
0.687499999999999
40
0.687499999999999
40
0.749999999999998
40
0.749999999999998
40
0.781249999999999
40
0.781249999999999
40
0.812499999999999
40
0.843749999999999
40
0.843749999999999
40
0.874999999999999
40
0.874999999999999
40
0.9375
40
0.9375
40
1
40
1
40
1
40
1
41
1
10
14.1813849883272
20
2.36677879630827
30
0
41
1
10
14.1928311662974
20
2.32406107857059
30
0
41
1
10
14.2077893541253
20
2.28208836831203
30
0
41
1
10
14.2357213103859
20
2.22189591742574
30
0
41
1
10
14.2459717595139
20
2.20226588922077
30
0
41
1
10
14.2685418690676
20
2.16435587857296
30
0
41
1
10
14.2808688865953
20
2.14605044988178
30
0
41
1
10
14.3011871908499
20
2.12017493620749
30
0
41
1
10
14.3082808640487
20
2.11180007575166
30
0
41
1
10
14.3231021075111
20
2.09579712886125
30
0
41
1
10
14.3308778160417
20
2.08812002170362
30
0
41
1
10
14.3470377575413
20
2.07382749912574
30
0
41
1
10
14.3553986631225
20
2.06722406241215
30
0
41
1
10
14.3727930532768
20
2.0553426435394
30
0
41
1
10
14.3818244237817
20
2.05006024061521
30
0
41
1
10
14.3960205762204
20
2.04343949788279
30
0
41
1
10
14.4008956372969
20
2.04144088091852
30
0
41
1
10
14.4107047085729
20
2.03803154386105
30
0
41
1
10
14.4205642298746
20
2.03520403241652
30
0
41
1
10
14.4305277916191
20
2.0336358201132
30
0
41
1
10
14.4405462236134
20
2.03276155008433
30
0
41
1
10
14.4455867364077
20
2.0326790355802
30
0
41
1
10
14.460321296804
20
2.03353154688585
30
0
41
1
10
14.4697866400167
20
2.03553908421964
30
0
41
1
10
14.487988084483
20
2.04243965714267
30
0
41
1
10
14.4963856529264
20
2.04720392012331
30
0
41
1
10
14.5041448127201
20
2.05306324263125
30
0
0
SPLINE
5
F2
100
AcDbEntity
8
1
62
256
6
ByLayer
370
18
48
1
60
0
100
AcDbSpline
70
4
71
3
72
32
73
28
40
0
40
0
40
0
40
0
40
0.0624999999999972
40
0.0624999999999972
40
0.124999999999994
40
0.124999999999994
40
0.156249999999993
40
0.156249999999993
40
0.187499999999993
40
0.187499999999993
40
0.249999999999993
40
0.249999999999993
40
0.312499999999993
40
0.312499999999993
40
0.374999999999993
40
0.374999999999993
40
0.437499999999994
40
0.437499999999994
40
0.499999999999994
40
0.499999999999994
40
0.624999999999996
40
0.624999999999996
40
0.749999999999997
40
0.749999999999997
40
0.874999999999999
40
0.874999999999999
40
1
40
1
40
1
40
1
41
1
10
15.0530632426313
20
1.5041448127202
30
0
41
1
10
15.0472257009648
20
1.496414496027
30
0
41
1
10
15.0425233197573
20
1.48811803064484
30
0
41
1
10
15.0356806661496
20
1.47024786384276
30
0
41
1
10
15.0335749430694
20
1.46055421674572
30
0
41
1
10
15.0326838355132
20
1.44591661554546
30
0
41
1
10
15.0327461981264
20
1.44098985239054
30
0
41
1
10
15.0335693833275
20
1.4310460889476
30
0
41
1
10
15.0343393254174
20
1.42599710795849
30
0
41
1
10
15.0375967883288
20
1.41105574721746
30
0
41
1
10
15.041007687655
20
1.40131516612274
30
0
41
1
10
15.0498450542845
20
1.38220939262163
30
0
41
1
10
15.0551739810301
20
1.37306093829272
30
0
41
1
10
15.0671147218185
20
1.35553825637015
30
0
41
1
10
15.0737457380883
20
1.34713549471786
30
0
41
1
10
15.0880770267441
20
1.3309211809804
30
0
41
1
10
15.0957479211205
20
1.32315081072824
30
0
41
1
10
15.1117364643944
20
1.30833667104253
30
0
41
1
10
15.1200824794952
20
1.30126280573938
30
0
41
1
10
15.1460110629715
20
1.28089382376101
30
0
41
1
10
15.1642979482364
20
1.26857785666755
30
0
41
1
10
15.2022650921001
20
1.24597073821701
30
0
41
1
10
15.2218910491247
20
1.23572287478697
30
0
41
1
10
15.262065433177
20
1.21708157589166
30
0
41
1
10
15.2826160595923
20
1.20869293566318
30
0
41
1
10
15.3242941065089
20
1.19370668245779
30
0
41
1
10
15.3454051555551
20
1.18711203810625
30
0
41
1
10
15.3667787963083
20
1.18138498832713
30
0
0
SPLINE
5
F3
100
AcDbEntity
8
1
62
256
6
ByLayer
370
18
48
1
60
0
100
AcDbSpline
70
4
71
3
72
8
73
4
40
0
40
0
40
0
40
0
40
1
40
1
40
1
40
1
41
1
10
15.0578157971
20
1.52357689319649
30
0
41
1
10
15.0562314046859
20
1.51709868424626
30
0
41
1
10
15.0546472224924
20
1.51062133483794
30
0
41
1
10
15.0530632426313
20
1.5041448127202
30
0
0
SPLINE
5
F4
100
AcDbEntity
8
1
62
256
6
ByLayer
370
18
48
1
60
0
100
AcDbSpline
70
4
71
3
72
8
73
4
40
0
40
0
40
0
40
0
40
1
40
1
40
1
40
1
41
1
10
15.8014817394849
20
4.29728066830228
30
0
41
1
10
15.7996152452248
20
4.29087984568957
30
0
41
1
10
15.7977485125444
20
4.28447820545591
30
0
41
1
10
15.7958815321496
20
4.27807571572703
30
0
0
SPLINE
5
F5
100
AcDbEntity
8
1
62
256
6
ByLayer
370
18
48
1
60
0
100
AcDbSpline
70
4
71
3
72
31
73
27
40
0
40
0
40
0
40
0
40
0.249999999999995
40
0.249999999999995
40
0.374999999999993
40
0.374999999999993
40
0.499999999999991
40
0.499999999999991
40
0.562499999999991
40
0.562499999999991
40
0.624999999999991
40
0.624999999999991
40
0.68749999999999
40
0.68749999999999
40
0.74999999999999
40
0.74999999999999
40
0.781249999999991
40
0.781249999999991
40
0.812499999999991
40
0.843749999999992
40
0.843749999999992
40
0.874999999999993
40
0.874999999999993
40
0.937499999999996
40
0.937499999999996
40
1
40
1
40
1
40
1
41
1
10
16.234547290728
20
4.4199410987091
30
0
41
1
10
16.1918295729903
20
4.43138727667946
30
0
41
1
10
16.1480010457268
20
4.43941946115518
30
0
41
1
10
16.0819068760129
20
4.4453259028993
30
0
41
1
10
16.0597815483465
20
4.44626376765683
30
0
41
1
10
16.0156654612908
20
4.4456724847409
30
0
41
1
10
15.9936489862532
20
4.44414968875464
30
0
41
1
10
15.961080981948
20
4.43949127794554
30
0
41
1
10
15.9502813034408
20
4.43753540697708
30
0
41
1
10
15.929011723167
20
4.43270130706821
30
0
41
1
10
15.9184752990757
20
4.42980589952708
30
0
41
1
10
15.8980176406892
20
4.42295724095362
30
0
41
1
10
15.8881184439524
20
4.4190182026785
30
0
41
1
10
15.8691316382984
20
4.40989492835786
30
0
41
1
10
15.8600412579206
20
4.40471473353176
30
0
41
1
10
15.8472094503031
20
4.39573087625013
30
0
41
1
10
15.8430410667013
20
4.39250825799496
30
0
41
1
10
15.8351839585615
20
4.38571802161118
30
0
41
1
10
15.8278056583729
20
4.37859307421292
30
0
41
1
10
15.8214656086047
20
4.37074858998585
30
0
41
1
10
15.8156992525528
20
4.36250950838701
30
0
41
1
10
15.8131075364989
20
4.35818555351119
30
0
41
1
10
15.8064785527484
20
4.34499879424158
30
0
41
1
10
15.8034844594723
20
4.33579779789693
30
0
41
1
10
15.800359808691
20
4.31658459814196
30
0
41
1
10
15.800286997241
20
4.30692995904968
30
0
41
1
10
15.8014817394849
20
4.29728066830228
30
0
0
SPLINE
5
F6
100
AcDbEntity
8
1
62
256
6
ByLayer
370
18
48
1
60
0
100
AcDbSpline
70
4
71
3
72
31
73
27
40
0
40
0
40
0
40
0
40
0.25
40
0.25
40
0.375
40
0.375
40
0.5
40
0.5
40
0.5625
40
0.5625
40
0.625
40
0.625
40
0.6875
40
0.6875
40
0.749999999999999
40
0.749999999999999
40
0.781249999999999
40
0.781249999999999
40
0.812499999999999
40
0.843749999999999
40
0.843749999999999
40
0.874999999999999
40
0.874999999999999
40
0.937499999999999
40
0.937499999999999
40
1
40
1
40
1
40
1
41
1
10
14.615269235537
20
3.98605685149926
30
0
41
1
10
14.6465407753044
20
4.01732839126663
30
0
41
1
10
14.6804813010872
20
4.04619873070226
30
0
41
1
10
14.7347673102295
20
4.0843609441556
30
0
41
1
10
14.7534594736768
20
4.0962358226941
30
0
41
1
10
14.7919607672405
20
4.11778180019598
30
0
41
1
10
14.811788991918
20
4.12747125770585
30
0
41
1
10
14.8423229164014
20
4.13972095775648
30
0
41
1
10
14.8526536478257
20
4.14342696306494
30
0
41
1
10
14.8734906946249
20
4.14987529987627
30
0
41
1
10
14.8840632093237
20
4.15263601543711
30
0
41
1
10
14.9052043904751
20
4.15693373232381
30
0
41
1
10
14.9157468654638
20
4.15847202347948
30
0
41
1
10
14.9367515586571
20
4.16006443897913
30
0
41
1
10
14.9472141564074
20
4.16012344885206
30
0
41
1
10
14.9628187564215
20
4.15875910403099
30
0
41
1
10
14.9680399916409
20
4.1580524265562
30
0
41
1
10
14.9782395650822
20
4.15610046341999
30
0
41
1
10
14.9881918341814
20
4.15361922806682
30
0
41
1
10
14.9976047204555
20
4.1499957303306
30
0
41
1
10
15.0067180720831
20
4.14574365438813
30
0
41
1
10
15.011124541463
20
4.14329485764779
30
0
41
1
10
15.0234587894271
20
4.13518928100194
30
0
41
1
10
15.0306522484378
20
4.12871803106549
30
0
41
1
10
15.0429648752698
20
4.11364123738025
30
0
41
1
10
15.0478552513814
20
4.10531648038705
30
0
41
1
10
15.0516452196209
20
4.09636257834933
30
0
0
SPLINE
5
F7
100
AcDbEntity
8
1
62
256
6
ByLayer
370
18
48
1
60
0
100
AcDbSpline
70
4
71
3
72
8
73
4
40
0
40
0
40
0
40
0
40
1
40
1
40
1
40
1
41
1
10
15.0516452196209
20
4.09636257834933
30
0
41
1
10
15.0564620623725
20
4.09175255049172
30
0
41
1
10
15.0612795204125
20
4.08714193376363
30
0
41
1
10
15.0660976177275
20
4.0825307052084
30
0
0
SPLINE
5
F8
100
AcDbEntity
8
1
62
256
6
ByLayer
370
18
48
1
60
0
100
AcDbSpline
70
4
71
3
72
40
73
36
40
0
40
0
40
0
40
0
40
0.0625000000000024
40
0.0625000000000024
40
0.0937500000000027
40
0.0937500000000027
40
0.125000000000003
40
0.125000000000003
40
0.187500000000003
40
0.187500000000003
40
0.250000000000003
40
0.250000000000003
40
0.312500000000003
40
0.312500000000003
40
0.375000000000003
40
0.375000000000003
40
0.500000000000003
40
0.500000000000003
40
0.625000000000003
40
0.625000000000003
40
0.687500000000003
40
0.687500000000003
40
0.750000000000002
40
0.750000000000002
40
0.812500000000002
40
0.812500000000002
40
0.843750000000002
40
0.843750000000002
40
0.875000000000001
40
0.875000000000001
40
0.937500000000001
40
0.937500000000001
40
0.96875
40
0.96875
40
1
40
1
40
1
40
1
41
1
10
15.0660976177275
20
4.0825307052084
30
0
41
1
10
15.0776573791377
20
4.0714672711548
30
0
41
1
10
15.0909829478561
20
4.06257584453408
30
0
41
1
10
15.1127549128815
20
4.05137860825238
30
0
41
1
10
15.1203434114403
20
4.04800793262808
30
0
41
1
10
15.1358426453371
20
4.04199152813118
30
0
41
1
10
15.143774922455
20
4.03933260462253
30
0
41
1
10
15.1680528746725
20
4.03225398383904
30
0
41
1
10
15.1848394101531
20
4.02874140040217
30
0
41
1
10
15.2190156894304
20
4.02367898964485
30
0
41
1
10
15.2364413453145
20
4.02212598451683
30
0
41
1
10
15.2716199236485
20
4.02067588075101
30
0
41
1
10
15.2893847919715
20
4.02078048659428
30
0
41
1
10
15.3249659265687
20
4.02243759083223
30
0
41
1
10
15.3428461036447
20
4.02399248096594
30
0
41
1
10
15.3965566833299
20
4.0306608191712
30
0
41
1
10
15.4322716725629
20
4.03773643107598
30
0
41
1
10
15.5025339954929
20
4.05663042338762
30
0
41
1
10
15.536510910588
20
4.06827211644406
30
0
41
1
10
15.5857208839411
20
4.08912112549484
30
0
41
1
10
15.6018282548414
20
4.09664257266763
30
0
41
1
10
15.6333932805255
20
4.11296116670684
30
0
41
1
10
15.6488990720196
20
4.12179539188588
30
0
41
1
10
15.6785083620621
20
4.14055844172339
30
0
41
1
10
15.6926902740657
20
4.15051871052469
30
0
41
1
10
15.7128780927898
20
4.16650918011555
30
0
41
1
10
15.7194254088541
20
4.17201551883932
30
0
41
1
10
15.7321105333741
20
4.18343243181096
30
0
41
1
10
15.7382703658874
20
4.1893667840626
30
0
41
1
10
15.7558142361963
20
4.20765284645967
30
0
41
1
10
15.7663167110335
20
4.22048647195732
30
0
41
1
10
15.7796569861512
20
4.24109762824264
30
0
41
1
10
15.7837144062469
20
4.24823734446124
30
0
41
1
10
15.7907028303025
20
4.2628822920305
30
0
41
1
10
15.7936356253343
20
4.27037376269374
30
0
41
1
10
15.7958815321496
20
4.27807571572703
30
0
0
SPLINE
5
F9
100
AcDbEntity
8
1
62
256
6
ByLayer
370
13
48
1
60
0
100
AcDbSpline
70
4
71
3
72
8
73
4
40
0
40
0
40
0
40
0
40
1
40
1
40
1
40
1
41
1
10
12.5040353174743
20
-3.72820831048955
30
0
41
1
10
12.4930845234469
20
-3.69582116601759
30
0
41
1
10
12.4821205099587
20
-3.66341157762167
30
0
41
1
10
12.4711404631255
20
-3.63097480136139
30
0
0
SPLINE
5
FA
100
AcDbEntity
8
1
62
256
6
ByLayer
370
13
48
1
60
0
100
AcDbSpline
70
4
71
3
72
24
73
20
40
0
40
0
40
0
40
0
40
0.125000000000005
40
0.125000000000005
40
0.250000000000011
40
0.250000000000011
40
0.312500000000011
40
0.312500000000011
40
0.375000000000012
40
0.375000000000012
40
0.500000000000013
40
0.500000000000013
40
0.625000000000014
40
0.625000000000014
40
0.687500000000014
40
0.687500000000014
40
0.750000000000014
40
0.750000000000014
40
1
40
1
40
1
40
1
41
1
10
8.39520000919003
20
8
30
0
41
1
10
8.40888951347074
20
7.98575769539565
30
0
41
1
10
8.42389261851099
20
7.97031900634317
30
0
41
1
10
8.45605053191639
20
7.93771081100641
30
0
41
1
10
8.47321168580982
20
7.92053397844603
30
0
41
1
10
8.50042991284863
20
7.89372513906415
30
0
41
1
10
8.50970178534544
20
7.8846613368994
30
0
41
1
10
8.52851491849412
20
7.86641664637449
30
0
41
1
10
8.53807335221779
20
7.85721880949768
30
0
41
1
10
8.56718621690902
20
7.82943166229018
30
0
41
1
10
8.58717634060872
20
7.81065061609286
30
0
41
1
10
8.62828016677565
20
7.7726905644659
30
0
41
1
10
8.64939432156268
20
7.75351085644479
30
0
41
1
10
8.68192145232729
20
7.72448691664306
30
0
41
1
10
8.69293055346418
20
7.71474892197881
30
0
41
1
10
8.71508403750147
20
7.69532851294872
30
0
41
1
10
8.72623431897796
20
7.68564040733537
30
0
41
1
10
8.78235456646905
20
7.63731654862914
30
0
41
1
10
8.82842195595038
20
7.59903720501558
30
0
41
1
10
8.87574658390486
20
7.56116202995565
30
0
0
SPLINE
5
FB
100
AcDbEntity
8
1
62
256
6
ByLayer
370
13
48
1
60
0
100
AcDbSpline
70
4
71
3
72
8
73
4
40
0
40
0
40
0
40
0
40
1
40
1
40
1
40
1
41
1
10
0
20
-10
30
0
41
1
10
0.0332093615595568
20
-10
30
0
41
1
10
0.0665440715748673
20
-10
30
0
41
1
10
0.100000000000023
20
-10
30
0
0
SPLINE
5
FC
100
AcDbEntity
8
1
62
256
6
ByLayer
370
13
48
1
60
0
100
AcDbSpline
70
4
71
3
72
8
73
4
40
0
40
0
40
0
40
0
40
1
40
1
40
1
40
1
41
1
10
0.100000000000023
20
8
30
0
41
1
10
0.0666186282272747
20
8
30
0
41
1
10
0.03328484213921
20
8
30
0
41
1
10
0
20
8
30
0
0
SPLINE
5
FD
100
AcDbEntity
8
SK1
62
256
6
ByLayer
370
13
48
1
60
0
100
AcDbSpline
70
4
71
3
72
8
73
4
40
0
40
0
40
0
40
0
40
1
40
1
40
1
40
1
41
1
10
-16.5
20
1.38867513459485
30
0
41
1
10
-16.4594309401982
20
1.36525257699748
30
0
41
1
10
-16.4180043020197
20
1.34133489629346
30
0
41
1
10
-16.3758834272551
20
1.31701639790964
30
0
0
SPLINE
5
FE
100
AcDbEntity
8
SK1
62
256
6
ByLayer
370
13
48
1
60
0
100
AcDbSpline
70
4
71
3
72
8
73
4
40
0
40
0
40
0
40
0
40
1
40
1
40
1
40
1
41
1
10
-16.3758834272551
20
-1.31701639790964
30
0
41
1
10
-16.4180043020197
20
-1.34133489629346
30
0
41
1
10
-16.4594309401982
20
-1.36525257699748
30
0
41
1
10
-16.5
20
-1.38867513459479
30
0
0
SPLINE
5
FF
100
AcDbEntity
8
SK1
62
256
6
ByLayer
370
13
48
1
60
0
100
AcDbSpline
70
4
71
3
72
31
73
27
40
0
40
0
40
0
40
0
40
0.124999999999992
40
0.124999999999992
40
0.187499999999987
40
0.187499999999987
40
0.249999999999982
40
0.249999999999982
40
0.374999999999973
40
0.374999999999973
40
0.406249999999974
40
0.406249999999974
40
0.437499999999974
40
0.437499999999974
40
0.499999999999975
40
0.499999999999975
40
0.624999999999981
40
0.624999999999981
40
0.687499999999984
40
0.687499999999984
40
0.749999999999987
40
0.81249999999999
40
0.81249999999999
40
0.874999999999994
40
0.874999999999994
40
1
40
1
40
1
40
1
41
1
10
-11.06
20
-1.137E-13
30
0
41
1
10
-11.06
20
-0.0333398988911995
30
0
41
1
10
-11.06330118518
20
-0.06610753092599
30
0
41
1
10
-11.0729949748865
20
-0.114438127765027
30
0
41
1
10
-11.0770225791442
20
-0.130410500718369
30
0
41
1
10
-11.0867070812835
20
-0.16207375125839
30
0
41
1
10
-11.0923838138951
20
-0.177784536635272
30
0
41
1
10
-11.1114909599715
20
-0.223447078539891
30
0
41
1
10
-11.1270715098583
20
-0.252302025114375
30
0
41
1
10
-11.1500781883136
20
-0.286411976258933
30
0
41
1
10
-11.1548577187658
20
-0.29313512729675
30
0
41
1
10
-11.1647793629139
20
-0.306380676479762
30
0
41
1
10
-11.169934083031
20
-0.312917029792288
30
0
41
1
10
-11.1857879477035
20
-0.332023023864053
30
0
41
1
10
-11.1969110907917
20
-0.344144228780294
30
0
41
1
10
-11.2318987857885
20
-0.378714692088806
30
0
41
1
10
-11.2573653917788
20
-0.39938867440469
30
0
41
1
10
-11.2988993665692
20
-0.426733188369496
30
0
41
1
10
-11.3132107173304
20
-0.435161735266377
30
0
41
1
10
-11.3423516374543
20
-0.450444087719859
30
0
41
1
10
-11.3721282296079
20
-0.464230431966143
30
0
41
1
10
-11.4031675518659
20
-0.475053941039164
30
0
41
1
10
-11.434852466644
20
-0.484366347488674
30
0
41
1
10
-11.4510964183509
20
-0.48827794223655
30
0
41
1
10
-11.5000153408611
20
-0.497496931197702
30
0
41
1
10
-11.5329872831219
20
-0.500381684465935
30
0
41
1
10
-11.5663240377406
20
-0.49996000494707
30
0
0
SPLINE
5
100
100
AcDbEntity
8
SK1
62
256
6
ByLayer
370
13
48
1
60
0
100
AcDbSpline
70
4
71
3
72
31
73
27
40
0
40
0
40
0
40
0
40
0.12499999999999
40
0.12499999999999
40
0.187499999999985
40
0.187499999999985
40
0.24999999999998
40
0.24999999999998
40
0.37499999999997
40
0.37499999999997
40
0.406249999999968
40
0.406249999999968
40
0.437499999999966
40
0.437499999999966
40
0.499999999999966
40
0.499999999999966
40
0.624999999999971
40
0.624999999999971
40
0.687499999999976
40
0.687499999999976
40
0.74999999999998
40
0.812499999999985
40
0.812499999999985
40
0.874999999999989
40
0.874999999999989
40
1
40
1
40
1
40
1
41
1
10
-11.5663240377406
20
0.49996000494707
30
0
41
1
10
-11.5329868618976
20
0.50038168979404
30
0
41
1
10
-11.5001792241886
20
0.497495227264324
30
0
41
1
10
-11.4517275055562
20
0.488412810580598
30
0
41
1
10
-11.4357044948276
20
0.484587201785473
30
0
41
1
10
-11.4039190131032
20
0.47530290791201
30
0
41
1
10
-11.3881371089909
20
0.469824866654335
30
0
41
1
10
-11.3422351924068
20
0.451295383429567
30
0
41
1
10
-11.313184431977
20
0.436079802215886
30
0
41
1
10
-11.2787847435687
20
0.413504171028251
30
0
41
1
10
-11.2720013760736
20
0.408809579973422
30
0
41
1
10
-11.2586307804128
20
0.399055226186761
30
0
41
1
10
-11.2520297638554
20
0.393983269381295
30
0
41
1
10
-11.2327258312733
20
0.378372237482722
30
0
41
1
10
-11.2204654560573
20
0.367403177195172
30
0
41
1
10
-11.1854565104799
20
0.332854891854822
30
0
41
1
10
-11.1644624466516
20
0.307650993415734
30
0
41
1
10
-11.1365951282996
20
0.266464044638269
30
0
41
1
10
-11.1279881954019
20
0.252262648293083
30
0
41
1
10
-11.1123403777285
20
0.223319290755626
30
0
41
1
10
-11.0981799020751
20
0.193720996370303
30
0
41
1
10
-11.0869653767973
20
0.162821695526816
30
0
41
1
10
-11.0772534807384
20
0.131257218558176
30
0
41
1
10
-11.0731370875449
20
0.115064293799833
30
0
41
1
10
-11.0633015135843
20
0.0662703743778366
30
0
41
1
10
-11.06
20
0.033339247828394
30
0
41
1
10
-11.06
20
-1.137E-13
30
0
0
SPLINE
5
101
100
AcDbEntity
8
SK1
62
256
6
ByLayer
370
13
48
1
60
0
100
AcDbSpline
70
4
71
3
72
8
73
4
40
0
40
0
40
0
40
0
40
1
40
1
40
1
40
1
41
1
10
-15.7000000000001
20
1.10000000000002
30
0
41
1
10
-15.581004600505
20
1.10000000000002
30
0
41
1
10
-15.4620044795726
20
1.10000000000002
30
0
41
1
10
-15.343
20
1.10000000000002
30
0
0
SPLINE
5
102
100
AcDbEntity
8
SK1
62
256
6
ByLayer
370
13
48
1
60
0
100
AcDbSpline
70
4
71
3
72
8
73
4
40
0
40
0
40
0
40
0
40
1
40
1
40
1
40
1
41
1
10
-15.343
20
-1.10000000000002
30
0
41
1
10
-15.4620044825371
20
-1.10000000000002
30
0
41
1
10
-15.5810046315168
20
-1.10000000000002
30
0
41
1
10
-15.7000000000001
20
-1.10000000000002
30
0
0
SPLINE
5
103
100
AcDbEntity
8
SK1
62
256
6
ByLayer
370
13
48
1
60
0
100
AcDbSpline
70
4
71
3
72
15
73
11
40
0
40
0
40
0
40
0
40
0.250000000000008
40
0.500000000000017
40
0.500000000000017
40
0.625000000000021
40
0.625000000000021
40
0.750000000000025
40
0.750000000000025
40
1
40
1
40
1
40
1
41
1
10
-15.7000000000001
20
-1.10000000000002
30
0
41
1
10
-15.7226072955971
20
-1.10000000000002
30
0
41
1
10
-15.7693398815925
20
-1.10000000000002
30
0
41
1
10
-15.8190375823017
20
-1.10000000000002
30
0
41
1
10
-15.8574791628479
20
-1.10000000000002
30
0
41
1
10
-15.8704021086051
20
-1.10000000000002
30
0
41
1
10
-15.8962113548659
20
-1.10000000000002
30
0
41
1
10
-15.9091364816046
20
-1.10000000000002
30
0
41
1
10
-15.9479727787759
20
-1.10000000000002
30
0
41
1
10
-15.9739444742012
20
-1.10000000000002
30
0
41
1
10
-16
20
-1.10000000000002
30
0
0
SPLINE
5
104
100
AcDbEntity
8
SK1
62
256
6
ByLayer
370
13
48
1
60
0
100
AcDbSpline
70
4
71
3
72
18
73
14
40
0
40
0
40
0
40
0
40
0.249999999999982
40
0.249999999999982
40
0.374999999999981
40
0.374999999999981
40
0.499999999999979
40
0.499999999999979
40
0.74999999999999
40
0.74999999999999
40
0.874999999999995
40
0.874999999999995
40
1
40
1
40
1
40
1
41
1
10
-16
20
-1.10000000000002
30
0
41
1
10
-16.0403777757342
20
-1.1233121196895
30
0
41
1
10
-16.0786752928955
20
-1.14542320153174
30
0
41
1
10
-16.13335504417
20
-1.17699257064936
30
0
41
1
10
-16.1511148810689
20
-1.18724621726369
30
0
41
1
10
-16.18570142487
20
-1.20721476763754
30
0
41
1
10
-16.2026103497858
20
-1.21697713998941
30
0
41
1
10
-16.2509213249913
20
-1.24486949452915
30
0
41
1
10
-16.280167275864
20
-1.26175465213817
30
0
41
1
10
-16.3196717126782
20
-1.28456254936702
30
0
41
1
10
-16.3321417747406
20
-1.29176214305562
30
0
41
1
10
-16.3553634764804
20
-1.30516919880614
30
0
41
1
10
-16.3660810187175
20
-1.31135697470171
30
0
41
1
10
-16.3758834272553
20
-1.31701639790975
30
0
0
SPLINE
5
105
100
AcDbEntity
8
SK1
62
256
6
ByLayer
370
13
48
1
60
0
100
AcDbSpline
70
4
71
3
72
18
73
14
40
0
40
0
40
0
40
0
40
0.249999999999983
40
0.249999999999983
40
0.374999999999979
40
0.374999999999979
40
0.499999999999975
40
0.499999999999975
40
0.74999999999998
40
0.74999999999998
40
0.87499999999999
40
0.87499999999999
40
1
40
1
40
1
40
1
41
1
10
-16.3758834272551
20
1.31701639790964
30
0
41
1
10
-16.356268775612
20
1.30569187350346
30
0
41
1
10
-16.3332629802771
20
1.29240947137396
30
0
41
1
10
-16.2940479940688
20
1.26976868853029
30
0
41
1
10
-16.2801833470933
20
1.26176393086678
30
0
41
1
10
-16.2508360593354
20
1.2448202663798
30
0
41
1
10
-16.2352643803385
20
1.23582995331918
30
0
41
1
10
-16.1870128949533
20
1.20797194524329
30
0
41
1
10
-16.1526573378336
20
1.18813675509205
30
0
41
1
10
-16.0977668271984
20
1.15644570400082
30
0
41
1
10
-16.0788868624312
20
1.14554535126018
30
0
41
1
10
-16.0399930401355
20
1.12308999248802
30
0
41
1
10
-16.0201844306105
20
1.11165348644641
30
0
41
1
10
-16
20
1.10000000000002
30
0
0
SPLINE
5
106
100
AcDbEntity
8
SK1
62
256
6
ByLayer
370
13
48
1
60
0
100
AcDbSpline
70
4
71
3
72
15
73
11
40
0
40
0
40
0
40
0
40
0.249999999999992
40
0.499999999999985
40
0.499999999999985
40
0.624999999999997
40
0.624999999999997
40
0.750000000000009
40
0.750000000000009
40
1
40
1
40
1
40
1
41
1
10
-16
20
1.10000000000002
30
0
41
1
10
-15.9739443427538
20
1.10000000000002
30
0
41
1
10
-15.9220466033726
20
1.10000000000002
30
0
41
1
10
-15.8705586574112
20
1.10000000000002
30
0
41
1
10
-15.832101501776
20
1.10000000000002
30
0
41
1
10
-15.8194102104205
20
1.10000000000002
30
0
41
1
10
-15.7944859149748
20
1.10000000000002
30
0
41
1
10
-15.7822190960173
20
1.10000000000002
30
0
41
1
10
-15.7459941541439
20
1.10000000000002
30
0
41
1
10
-15.7226081173984
20
1.10000000000002
30
0
41
1
10
-15.7000000000001
20
1.10000000000002
30
0
0
SPLINE
5
107
100
AcDbEntity
8
SK1
62
256
6
ByLayer
370
13
48
1
60
0
100
AcDbSpline
70
4
71
3
72
36
73
32
40
0
40
0
40
0
40
0
40
0.125000000000002
40
0.125000000000002
40
0.187500000000004
40
0.187500000000004
40
0.218750000000005
40
0.218750000000005
40
0.250000000000006
40
0.250000000000006
40
0.375000000000006
40
0.375000000000006
40
0.437500000000006
40
0.437500000000006
40
0.468750000000006
40
0.468750000000006
40
0.500000000000007
40
0.500000000000007
40
0.625000000000004
40
0.625000000000004
40
0.656250000000003
40
0.656250000000003
40
0.687500000000002
40
0.687500000000002
40
0.749999999999999
40
0.749999999999999
40
0.874999999999998
40
0.874999999999998
40
0.937499999999999
40
0.937499999999999
40
1
40
1
40
1
40
1
41
1
10
-12.5050125628934
20
-0.100000000000023
30
0
41
1
10
-12.5112320686648
20
-0.161883301075534
30
0
41
1
10
-12.5230642869975
20
-0.22210979817072
30
0
41
1
10
-12.5488074503286
20
-0.310107676292262
30
0
41
1
10
-12.5587301679192
20
-0.339047439651551
30
0
41
1
10
-12.5756539264443
20
-0.381863656403766
30
0
41
1
10
-12.5816356736802
20
-0.396036674660934
30
0
41
1
10
-12.5942916120556
20
-0.42418203585305
30
0
41
1
10
-12.6009515192724
20
-0.438118216967723
30
0
41
1
10
-12.6356372147015
20
-0.506605230127036
30
0
41
1
10
-12.6680046553578
20
-0.558105483734209
30
0
41
1
10
-12.7233236208755
20
-0.630633251763868
30
0
41
1
10
-12.7428988987124
20
-0.654016806187144
30
0
41
1
10
-12.7740158567941
20
-0.687882285642104
30
0
41
1
10
-12.7846909301846
20
-0.698975801181405
30
0
41
1
10
-12.8064162719105
20
-0.720538581983476
30
0
41
1
10
-12.817491595524
20
-0.731036298482422
30
0
41
1
10
-12.8739186041232
20
-0.782132185635078
30
0
41
1
10
-12.9223933271761
20
-0.818589689078578
30
0
41
1
10
-12.9872339279643
20
-0.858663708672623
30
0
41
1
10
-13.0004161752622
20
-0.866401281136632
30
0
41
1
10
-13.0272182667339
20
-0.881313003753348
30
0
41
1
10
-13.0408716753644
20
-0.88850353308743
30
0
41
1
10
-13.0822537968157
20
-0.909086077822792
30
0
41
1
10
-13.1102907414737
20
-0.921444178626587
30
0
41
1
10
-13.1957236960608
20
-0.954540021625462
30
0
41
1
10
-13.2544310504712
20
-0.971333729446997
30
0
41
1
10
-13.3452205455804
20
-0.988428880204879
30
0
41
1
10
-13.3760629728491
20
-0.99277550570207
30
0
41
1
10
-13.4378772742127
20
-0.998551129568114
30
0
41
1
10
-13.4688869542483
20
-1
30
0
41
1
10
-13.5
20
-1
30
0
0
SPLINE
5
108
100
AcDbEntity
8
SK1
62
256
6
ByLayer
370
13
48
1
60
0
100
AcDbSpline
70
4
71
3
72
25
73
21
40
0
40
0
40
0
40
0
40
0.125000000000002
40
0.125000000000002
40
0.250000000000005
40
0.250000000000005
40
0.375000000000007
40
0.375000000000007
40
0.437500000000005
40
0.437500000000005
40
0.500000000000003
40
0.500000000000003
40
0.624999999999998
40
0.624999999999998
40
0.687499999999999
40
0.687499999999999
40
0.749999999999999
40
0.749999999999999
40
0.874999999999999
40
1
40
1
40
1
40
1
41
1
10
-11.5663240377406
20
-0.49996000494707
30
0
41
1
10
-11.5949121412514
20
-0.499598391530469
30
0
41
1
10
-11.6230479453973
20
-0.4968084025125
30
0
41
1
10
-11.678455068634
20
-0.486581985836665
30
0
41
1
10
-11.705765222333
20
-0.479131170255414
30
0
41
1
10
-11.7593271079323
20
-0.459437571815158
30
0
41
1
10
-11.7848821348276
20
-0.447458695729324
30
0
41
1
10
-11.821458861956
20
-0.426423590156333
30
0
41
1
10
-11.8333567956152
20
-0.418897816090634
30
0
41
1
10
-11.8565584221174
20
-0.402805685543001
30
0
41
1
10
-11.8678900767777
20
-0.394216057608219
30
0
41
1
10
-11.9007819024883
20
-0.366985139690712
30
0
41
1
10
-11.9208701454651
20
-0.347221635758387
30
0
41
1
10
-11.9483528390516
20
-0.315245307589578
30
0
41
1
10
-11.9570695976612
20
-0.304195814835509
30
0
41
1
10
-11.9736034598319
20
-0.28130328324653
30
0
41
1
10
-11.9814432382183
20
-0.269422059607962
30
0
41
1
10
-12.0034127020599
20
-0.232799855294957
30
0
41
1
10
-12.0281648795548
20
-0.182154264954363
30
0
41
1
10
-12.0441823656439
20
-0.128000523437151
30
0
41
1
10
-12.0498979485566
20
-0.100000000000023
30
0
0
SPLINE
5
109
100
AcDbEntity
8
SK1
62
256
6
ByLayer
370
13
48
1
60
0
100
AcDbSpline
70
4
71
3
72
8
73
4
40
0
40
0
40
0
40
0
40
1
40
1
40
1
40
1
41
1
10
-14.5767949192431
20
-1
30
0
41
0.999918993434324
10
-14.6348222950132
20
-1.03350212102123
30
0
41
0.999918993434324
10
-14.6925619992273
20
-1.0668381547922
30
0
41
1
10
-14.75
20
-1.10000000000002
30
0
0
SPLINE
5
10A
100
AcDbEntity
8
SK1
62
256
6
ByLayer
370
13
48
1
60
0
100
AcDbSpline
70
4
71
3
72
34
73
30
40
0
40
0
40
0
40
0
40
0.125000000000003
40
0.125000000000003
40
0.187500000000005
40
0.187500000000005
40
0.250000000000006
40
0.250000000000006
40
0.375000000000012
40
0.375000000000012
40
0.437500000000014
40
0.437500000000014
40
0.468750000000015
40
0.468750000000015
40
0.500000000000016
40
0.500000000000016
40
0.625000000000011
40
0.625000000000011
40
0.65625000000001
40
0.65625000000001
40
0.687500000000009
40
0.687500000000009
40
0.750000000000006
40
0.750000000000006
40
0.875000000000003
40
0.875000000000003
40
0.937500000000002
40
0.937500000000002
40
1
40
1
40
1
40
1
41
1
10
-13.5
20
1
30
0
41
1
10
-13.4377829367159
20
1
30
0
41
1
10
-13.3766097831688
20
0.994245031444848
30
0
41
1
10
-13.2863350454879
20
0.977386499422778
30
0
41
1
10
-13.2564925070443
20
0.970386682935043
30
0
41
1
10
-13.197310003878
20
0.953585329056068
30
0
41
1
10
-13.167834203573
20
0.943722064425174
30
0
41
1
10
-13.0818044436552
20
0.910436313779371
30
0
41
1
10
-13.0272646459368
20
0.883306566860426
30
0
41
1
10
-12.9494889782059
20
0.835383095587417
30
0
41
1
10
-12.9242405449818
20
0.818195649161225
30
0
41
1
10
-12.8874002523093
20
0.790542419302483
30
0
41
1
10
-12.8753157078593
20
0.781027167959223
30
0
41
1
10
-12.8517236265289
20
0.76155869474195
30
0
41
1
10
-12.8401878227495
20
0.751584593573796
30
0
41
1
10
-12.7837860813006
20
0.700529650614612
30
0
41
1
10
-12.7427175705362
20
0.655927268694711
30
0
41
1
10
-12.6964191316669
20
0.595390726150526
30
0
41
1
10
-12.6874134540644
20
0.58304224267539
30
0
41
1
10
-12.6699182365605
20
0.55785250504465
30
0
41
1
10
-12.6614111511752
20
0.544981138325625
30
0
41
1
10
-12.6369094598778
20
0.505981732444184
30
0
41
1
10
-12.6218706765068
20
0.47939219346074
30
0
41
1
10
-12.580542771097
20
0.397882319205962
30
0
41
1
10
-12.5580086834342
20
0.341235506911175
30
0
41
1
10
-12.5319533150968
20
0.252651823194412
30
0
41
1
10
-12.5245572079032
20
0.222421663568355
30
0
41
1
10
-12.5126583212221
20
0.16160583660951
30
0
41
1
10
-12.5081217231881
20
0.130935754331858
30
0
41
1
10
-12.5050125628934
20
0.100000000000023
30
0
0
SPLINE
5
10B
100
AcDbEntity
8
SK1
62
256
6
ByLayer
370
13
48
1
60
0
100
AcDbSpline
70
4
71
3
72
21
73
17
40
0
40
0
40
0
40
0
40
0.125
40
0.125
40
0.25
40
0.25
40
0.375
40
0.375
40
0.5
40
0.5
40
0.625
40
0.625
40
0.75
40
0.75
40
0.875
40
1
40
1
40
1
40
1
41
1
10
-12.0498979485566
20
0.100000000000023
30
0
41
1
10
-12.0441824513289
20
0.128000103668398
30
0
41
1
10
-12.0361703763644
20
0.15509320527002
30
0
41
1
10
-12.0157572786006
20
0.207551036254984
30
0
41
1
10
-12.0033432309291
20
0.232937227477464
30
0
41
1
10
-11.9739886332361
20
0.281826868674443
30
0
41
1
10
-11.9574496234914
20
0.304670194508901
30
0
41
1
10
-11.92079695027
20
0.347297698396403
30
0
41
1
10
-11.9006446513519
20
0.367113773310621
30
0
41
1
10
-11.8567496608689
20
0.403424019888803
30
0
41
1
10
-11.8335650777474
20
0.419467408587707
30
0
41
1
10
-11.7848062948923
20
0.447496244014474
30
0
41
1
10
-11.7591769118572
20
0.459502084981068
30
0
41
1
10
-11.7056277486783
20
0.479172377265002
30
0
41
1
10
-11.651157352826
20
0.494018872730464
30
0
41
1
10
-11.5949121669818
20
0.499598391205041
30
0
41
1
10
-11.5663240377406
20
0.49996000494707
30
0
0
SPLINE
5
10C
100
AcDbEntity
8
SK1
62
256
6
ByLayer
370
13
48
1
60
0
100
AcDbSpline
70
4
71
3
72
8
73
4
40
0
40
0
40
0
40
0
40
1
40
1
40
1
40
1
41
1
10
-14.75
20
1.10000000000002
30
0
41
0.999918993434324
10
-14.6925619992273
20
1.0668381547922
30
0
41
0.999918993434324
10
-14.6348222950132
20
1.03350212102123
30
0
41
1
10
-14.5767949192431
20
1
30
0
0
SPLINE
5
10D
100
AcDbEntity
8
SK1
62
256
6
ByLayer
370
13
48
1
60
0
100
AcDbSpline
70
4
71
3
72
46
73
42
40
0
40
0
40
0
40
0
40
0.124748190933991
40
0.124748190933991
40
0.187122286400986
40
0.187122286400986
40
0.218309334134485
40
0.218309334134485
40
0.249496381867983
40
0.249496381867983
40
0.311870477334978
40
0.374244572801974
40
0.436618668268969
40
0.436618668268969
40
0.452212192135718
40
0.452212192135718
40
0.467805716002467
40
0.467805716002467
40
0.498992763735965
40
0.498992763735965
40
0.561366859202962
40
0.561366859202962
40
0.623740954669958
40
0.623740954669958
40
0.654928002403456
40
0.670521526270205
40
0.670521526270205
40
0.686115050136954
40
0.686115050136954
40
0.748489145603952
40
0.748489145603952
40
0.810863241070949
40
0.810863241070949
40
0.873237336537946
40
0.873237336537946
40
0.904424384271444
40
0.904424384271444
40
0.935611432004943
40
0.935611432004943
40
0.99798552747194
40
1
40
1
40
1
40
1
41
1
10
-4.85000000000002
20
3.62502605133648
30
0
41
1
10
-5.00727257310223
20
3.60304572479748
30
0
41
1
10
-5.16209510770625
20
3.58996498434146
30
0
41
1
10
-5.39071230431398
20
3.58288011859725
30
0
41
1
10
-5.46631080410873
20
3.58260336185674
30
0
41
1
10
-5.57876400925852
20
3.58516810106431
30
0
41
1
10
-5.61609069631811
20
3.586519315656
30
0
41
1
10
-5.69041927701437
20
3.59018549547659
30
0
41
1
10
-5.72746841536809
20
3.59250408849221
30
0
41
1
10
-5.83780700390082
20
3.60083447157712
30
0
41
1
10
-5.98097388252597
20
3.61545562349579
30
0
41
1
10
-6.18433203901554
20
3.64605440260903
30
0
41
1
10
-6.31240132919527
20
3.67104944327082
30
0
41
1
10
-6.39005943290181
20
3.68774820783045
30
0
41
1
10
-6.40547150636132
20
3.69114182033979
30
0
41
1
10
-6.43605434734627
20
3.69802779805099
30
0
41
1
10
-6.45122921565599
20
3.7015213467173
30
0
41
1
10
-6.49616103232938
20
3.71208202115395
30
0
41
1
10
-6.5254032744125
20
3.71924619578635
30
0
41
1
10
-6.61102882285275
20
3.74098567982355
30
0
41
1
10
-6.66531665804257
20
3.75580660163308
30
0
41
1
10
-6.76835025417256
20
3.7854869933517
30
0
41
1
10
-6.81709640583688
20
3.80034766508982
30
0
41
1
10
-6.8859555857681
20
3.82222819305463
30
0
41
1
10
-6.91931792063872
20
3.83306601354991
30
0
41
1
10
-6.9510377308535
20
3.84366718378129
30
0
41
1
10
-6.97181292502671
20
3.85067264575713
30
0
41
1
10
-6.98203029398519
20
3.85414969657285
30
0
41
1
10
-7.03193731139845
20
3.87127548164557
30
0
41
1
10
-7.06811842193304
20
3.88414922533985
30
0
41
1
10
-7.13308642738787
20
3.90779236048024
30
0
41
1
10
-7.16187336490043
20
3.91856283307379
30
0
41
1
10
-7.21190847739717
20
3.93757683725931
30
0
41
1
10
-7.23315800061221
20
3.9458213842546
30
0
41
1
10
-7.2590768890509
20
3.95597203246899
30
0
41
1
10
-7.26672916785878
20
3.95898899576355
30
0
41
1
10
-7.27993394806356
20
3.96421502647928
30
0
41
1
10
-7.28542955192222
20
3.96640143341648
30
0
41
1
10
-7.29866084443404
20
3.97167721113493
30
0
41
1
10
-7.30329415012523
20
3.9735410301742
30
0
41
1
10
-7.30338409411797
20
3.97357695110037
30
0
41
1
10
-7.30338245886605
20
3.97357628584297
30
0
0
SPLINE
5
10E
100
AcDbEntity
8
SK1
62
256
6
ByLayer
370
13
48
1
60
0
100
AcDbSpline
70
4
71
3
72
55
73
51
40
0
40
0
40
0
40
0
40
0.0140414338998956
40
0.0140414338998956
40
0.0296915698697389
40
0.0296915698697389
40
0.0609918418094257
40
0.0609918418094257
40
0.123592385688799
40
0.123592385688799
40
0.154892657628486
40
0.170542793598329
40
0.170542793598329
40
0.186192929568172
40
0.186192929568172
40
0.248793473447545
40
0.248793473447545
40
0.311394017326919
40
0.311394017326919
40
0.327044153296762
40
0.327044153296762
40
0.342694289266605
40
0.342694289266605
40
0.37399456120629
40
0.37399456120629
40
0.436595105085662
40
0.436595105085662
40
0.499195648965033
40
0.499195648965033
40
0.530495920904719
40
0.530495920904719
40
0.561796192844405
40
0.561796192844405
40
0.624396736723776
40
0.624396736723776
40
0.686997280603147
40
0.686997280603147
40
0.718297552542832
40
0.718297552542832
40
0.733947688512675
40
0.733947688512675
40
0.749597824482518
40
0.812198368361889
40
0.874798912241259
40
0.874798912241259
40
0.93739945612063
40
0.93739945612063
40
0.968699728060315
40
0.968699728060315
40
1
40
1
40
1
40
1
41
1
10
-2.17631932247855
20
4.6941382409189
30
0
41
1
10
-2.17632365521661
20
4.69413561813684
30
0
41
1
10
-2.17658701604546
20
4.69397632853901
30
0
41
1
10
-2.17769965379898
20
4.69330350363839
30
0
41
1
10
-2.1786154808633
20
4.69274973339947
30
0
41
1
10
-2.18232338851408
20
4.69050866143698
30
0
41
1
10
-2.1860755883971
20
4.68824159352681
30
0
41
1
10
-2.20105362351762
20
4.67920777286588
30
0
41
1
10
-2.21598936504006
20
4.6702123862753
30
0
41
1
10
-2.2455701780724
20
4.65252156513026
30
0
41
1
10
-2.26215935361449
20
4.64262512415399
30
0
41
1
10
-2.28143887429564
20
4.63118839488004
30
0
41
1
10
-2.29489148004916
20
4.62322488569447
30
0
41
1
10
-2.30192243301087
20
4.61907075945192
30
0
41
1
10
-2.33832854970615
20
4.59760950203435
30
0
41
1
10
-2.37161195923443
20
4.5781365274043
30
0
41
1
10
-2.4459003383015
20
4.5352316358339
30
0
41
1
10
-2.4869080016947
20
4.51179737965413
30
0
41
1
10
-2.54283961676254
20
4.48035259065443
30
0
41
1
10
-2.5542602879749
20
4.47395581008624
30
0
41
1
10
-2.5775693161512
20
4.46095394418353
30
0
41
1
10
-2.58946422681026
20
4.45434531026103
30
0
41
1
10
-2.62566304041638
20
4.4343209423771
30
0
41
1
10
-2.65053716723651
20
4.42067519243489
30
0
41
1
10
-2.72730927144232
20
4.3789648385619
30
0
41
1
10
-2.78134965446657
20
4.35012892272596
30
0
41
1
10
-2.8949458790122
20
4.2909494786893
30
0
41
1
10
-2.95450251738282
20
4.26060429353339
30
0
41
1
10
-3.04799396640283
20
4.21433694638847
30
0
41
1
10
-3.07989529696886
20
4.19876971931245
30
0
41
1
10
-3.14454478733808
20
4.16771691044823
30
0
41
1
10
-3.17735301812547
20
4.15220097969126
30
0
41
1
10
-3.27721941527909
20
4.10577955171993
30
0
41
1
10
-3.34571480969885
20
4.07499979919157
30
0
41
1
10
-3.48660656265702
20
4.01428476889254
30
0
41
1
10
-3.55900271756229
20
3.98434835198429
30
0
41
1
10
-3.67068150997466
20
3.94048172760387
30
0
41
1
10
-3.70842302502751
20
3.92603288194289
30
0
41
1
10
-3.76583929872527
20
3.90467485489768
30
0
41
1
10
-3.78513674709359
20
3.89759930355564
30
0
41
1
10
-3.82385289330989
20
3.88361795271078
30
0
41
1
10
-3.92095808225781
20
3.84908341575891
30
0
41
1
10
-4.09859485016671
20
3.79084332595517
30
0
41
1
10
-4.26074648314921
20
3.74557933130143
30
0
41
1
10
-4.42517802183807
20
3.7040632954463
30
0
41
1
10
-4.50853349745046
20
3.68517907040575
30
0
41
1
10
-4.63543394614101
20
3.66006346361684
30
0
41
1
10
-4.67805686987469
20
3.65222515279982
30
0
41
1
10
-4.76391323413736
20
3.63769769314251
30
0
41
1
10
-4.80691747189269
20
3.63104724128237
30
0
41
1
10
-4.85000000000002
20
3.62502605133648
30
0
0
SPLINE
5
10F
100
AcDbEntity
8
SK1
62
256
6
ByLayer
370
13
48
1
60
0
100
AcDbSpline
70
4
71
3
72
46
73
42
40
0
40
0
40
0
40
0
40
0.124841013876345
40
0.124841013876345
40
0.187261520814517
40
0.187261520814517
40
0.218471774283604
40
0.218471774283604
40
0.24968202775269
40
0.24968202775269
40
0.312102534690863
40
0.374523041629035
40
0.436943548567208
40
0.436943548567208
40
0.452548675301751
40
0.452548675301751
40
0.468153802036294
40
0.468153802036294
40
0.499364055505381
40
0.499364055505381
40
0.561784562443554
40
0.561784562443554
40
0.624205069381727
40
0.624205069381727
40
0.655415322850814
40
0.671020449585358
40
0.671020449585358
40
0.686625576319901
40
0.686625576319901
40
0.749046083258074
40
0.749046083258074
40
0.811466590196248
40
0.811466590196248
40
0.873887097134421
40
0.873887097134421
40
0.905097350603508
40
0.905097350603508
40
0.936307604072595
40
0.936307604072595
40
0.998728111010768
40
1
40
1
40
1
40
1
41
1
10
-4.85000000000002
20
-3.62502605133648
30
0
41
1
10
-5.00727257310223
20
-3.60304572479743
30
0
41
1
10
-5.16209510770625
20
-3.58996498434146
30
0
41
1
10
-5.39071230431398
20
-3.58288011859725
30
0
41
1
10
-5.46631080410873
20
-3.58260336185674
30
0
41
1
10
-5.57876400925852
20
-3.58516810106431
30
0
41
1
10
-5.61609069631811
20
-3.586519315656
30
0
41
1
10
-5.69041927701437
20
-3.59018549547659
30
0
41
1
10
-5.72746841536809
20
-3.59250408849221
30
0
41
1
10
-5.83780700390082
20
-3.60083447157712
30
0
41
1
10
-5.98097370004712
20
-3.61545617531789
30
0
41
1
10
-6.18433203901554
20
-3.64605440260903
30
0
41
1
10
-6.31240132919527
20
-3.67104944327082
30
0
41
1
10
-6.39005943290181
20
-3.68774820783045
30
0
41
1
10
-6.40547150636132
20
-3.69114182033979
30
0
41
1
10
-6.43605434734627
20
-3.69802779805099
30
0
41
1
10
-6.45122921565599
20
-3.7015213467173
30
0
41
1
10
-6.49616103232938
20
-3.71208202115395
30
0
41
1
10
-6.5254032744125
20
-3.71924619578635
30
0
41
1
10
-6.61102882285275
20
-3.74098567982355
30
0
41
1
10
-6.66531665804257
20
-3.75580660163308
30
0
41
1
10
-6.76835025417256
20
-3.7854869933517
30
0
41
1
10
-6.81709640583688
20
-3.80034766508982
30
0
41
1
10
-6.8859555857681
20
-3.82222819305463
30
0
41
1
10
-6.91931792063872
20
-3.83306601354991
30
0
41
1
10
-6.9510377308535
20
-3.84366718378129
30
0
41
1
10
-6.97181292502671
20
-3.85067264575713
30
0
41
1
10
-6.98203029398519
20
-3.85414969657285
30
0
41
1
10
-7.03193731139845
20
-3.87127548164557
30
0
41
1
10
-7.06811842193304
20
-3.88414922533985
30
0
41
1
10
-7.13308642738787
20
-3.90779236048024
30
0
41
1
10
-7.16187336490043
20
-3.91856283307379
30
0
41
1
10
-7.21190847739717
20
-3.93757683725931
30
0
41
1
10
-7.23315800061221
20
-3.9458213842546
30
0
41
1
10
-7.2590768890509
20
-3.95597203246899
30
0
41
1
10
-7.26672916785878
20
-3.95898899576355
30
0
41
1
10
-7.27993394806356
20
-3.96421502647928
30
0
41
1
10
-7.28542955192222
20
-3.96640143341648
30
0
41
1
10
-7.29866084443404
20
-3.97167721113493
30
0
41
1
10
-7.30324064686681
20
-3.97351950765915
30
0
41
1
10
-7.30338141101811
20
-3.97357587776202
30
0
41
1
10
-7.30338245128632
20
-3.97357629128203
30
0
0
SPLINE
5
110
100
AcDbEntity
8
SK1
62
256
6
ByLayer
370
13
48
1
60
0
100
AcDbSpline
70
4
71
3
72
55
73
51
40
0
40
0
40
0
40
0
40
0.0140361433681479
40
0.0140361433681479
40
0.0296863633146853
40
0.0296863633146853
40
0.0609868032077605
40
0.0609868032077605
40
0.12358768299391
40
0.12358768299391
40
0.154888122886985
40
0.170538342833523
40
0.170538342833523
40
0.18618856278006
40
0.18618856278006
40
0.24878944256621
40
0.24878944256621
40
0.31139032235236
40
0.31139032235236
40
0.327040542298897
40
0.327040542298897
40
0.342690762245434
40
0.342690762245434
40
0.373991202138509
40
0.373991202138509
40
0.436592081924658
40
0.436592081924658
40
0.499192961710808
40
0.499192961710808
40
0.530493401603882
40
0.530493401603882
40
0.561793841496957
40
0.561793841496957
40
0.624394721283107
40
0.624394721283107
40
0.686995601069257
40
0.686995601069257
40
0.718296040962331
40
0.718296040962331
40
0.733946260908869
40
0.733946260908869
40
0.749596480855406
40
0.812197360641554
40
0.874798240427703
40
0.874798240427703
40
0.937399120213851
40
0.937399120213851
40
0.968699560106926
40
0.968699560106926
40
1
40
1
40
1
40
1
41
1
10
-2.1763193275591
20
-4.69413823784345
30
0
41
1
10
-2.17632385653837
20
-4.69413549637062
30
0
41
1
10
-2.17658721712076
20
-4.69397620694645
30
0
41
1
10
-2.17769965379898
20
-4.69330350363839
30
0
41
1
10
-2.1786154808633
20
-4.69274973339947
30
0
41
1
10
-2.18232338851408
20
-4.69050866143698
30
0
41
1
10
-2.1860755883971
20
-4.68824159352681
30
0
41
1
10
-2.20105362351762
20
-4.67920777286588
30
0
41
1
10
-2.21598936504006
20
-4.6702123862753
30
0
41
1
10
-2.2455701780724
20
-4.65252156513026
30
0
41
1
10
-2.26215935361449
20
-4.64262512415399
30
0
41
1
10
-2.28143887429564
20
-4.63118839488004
30
0
41
1
10
-2.29489148004916
20
-4.62322488569447
30
0
41
1
10
-2.30192243301087
20
-4.61907075945192
30
0
41
1
10
-2.33832854970615
20
-4.59760950203435
30
0
41
1
10
-2.37161195923443
20
-4.5781365274043
30
0
41
1
10
-2.4459003383015
20
-4.5352316358339
30
0
41
1
10
-2.4869080016947
20
-4.51179737965413
30
0
41
1
10
-2.54283961676254
20
-4.48035259065443
30
0
41
1
10
-2.5542602879749
20
-4.47395581008624
30
0
41
1
10
-2.5775693161512
20
-4.46095394418353
30
0
41
1
10
-2.58946422681026
20
-4.45434531026103
30
0
41
1
10
-2.62566304041638
20
-4.4343209423771
30
0
41
1
10
-2.65053716723651
20
-4.42067519243489
30
0
41
1
10
-2.72730927144232
20
-4.3789648385619
30
0
41
1
10
-2.78134965446657
20
-4.35012892272596
30
0
41
1
10
-2.8949458790122
20
-4.2909494786893
30
0
41
1
10
-2.95450251738282
20
-4.26060429353339
30
0
41
1
10
-3.04799396640283
20
-4.21433694638847
30
0
41
1
10
-3.07989529696886
20
-4.19876971931245
30
0
41
1
10
-3.14454478733808
20
-4.16771691044823
30
0
41
1
10
-3.17735301812547
20
-4.15220097969126
30
0
41
1
10
-3.27721941527909
20
-4.10577955171993
30
0
41
1
10
-3.34571480969885
20
-4.07499979919157
30
0
41
1
10
-3.48660656265702
20
-4.01428476889254
30
0
41
1
10
-3.55900271756229
20
-3.98434835198429
30
0
41
1
10
-3.67068150997466
20
-3.94048172760387
30
0
41
1
10
-3.70842302502751
20
-3.92603288194289
30
0
41
1
10
-3.76583929872527
20
-3.90467485489768
30
0
41
1
10
-3.78513674709359
20
-3.89759930355564
30
0
41
1
10
-3.82385289330989
20
-3.88361795271072
30
0
41
1
10
-3.92095808225781
20
-3.84908341575891
30
0
41
1
10
-4.09859481150011
20
-3.7908430905419
30
0
41
1
10
-4.26074648314921
20
-3.74557933130143
30
0
41
1
10
-4.42517802183807
20
-3.7040632954463
30
0
41
1
10
-4.50853349745046
20
-3.68517907040575
30
0
41
1
10
-4.63543394614101
20
-3.66006346361684
30
0
41
1
10
-4.67805686987469
20
-3.65222515279982
30
0
41
1
10
-4.76391323413736
20
-3.63769769314251
30
0
41
1
10
-4.80691747189269
20
-3.63104724128237
30
0
41
1
10
-4.85000000000002
20
-3.62502605133648
30
0
0
INSERT
5
150
100
AcDbEntity
8
SK2
62
256
6
ByLayer
370
18
48
1
60
0
100
AcDbBlockReference
2
_U2
10
0
20
0
30
0
41
1
42
1
43
1
50
0
210
0
220
0
230
1
0
LINE
5
74
100
AcDbEntity
8
81
62
256
6
ByLayer
370
18
48
1
60
0
100
AcDbLine
10
21
20
8
30
0
11
23
21
8
31
0
39
0
210
0
220
0
230
1
0
LINE
5
75
100
AcDbEntity
8
80
62
256
6
ByLayer
370
18
48
1
60
0
100
AcDbLine
10
0
20
0
30
0
11
-2
21
0
31
0
39
0
210
0
220
0
230
1
0
LINE
5
76
100
AcDbEntity
8
4
62
256
6
ByLayer
370
18
48
0.05
60
0
100
AcDbLine
10
0
20
0
30
0
11
21
21
0
31
0
39
0
210
0
220
0
230
1
0
LINE
5
78
100
AcDbEntity
8
SK4
62
256
6
ByLayer
370
18
48
0.05
60
0
100
AcDbLine
10
23
20
0
30
0
11
-18.5
21
0
31
0
39
0
210
0
220
0
230
1
0
LINE
5
7A
100
AcDbEntity
8
1
62
256
6
ByLayer
370
13
48
1
60
0
100
AcDbLine
10
11.375554
20
6.864997
30
0
11
10.602836
21
-1.967209
31
0
39
0
210
0
220
0
230
1
0
LINE
5
7C
100
AcDbEntity
8
1
62
256
6
ByLayer
370
13
48
1
60
0
100
AcDbLine
10
11.032791
20
-2.397164
30
0
11
19.864997
21
-1.624446
31
0
39
0
210
0
220
0
230
1
0
LINE
5
7D
100
AcDbEntity
8
1
62
256
6
ByLayer
370
13
48
1
60
0
100
AcDbLine
10
20.225772
20
-1.263671
30
0
11
20.99849
21
7.568535
31
0
39
0
210
0
220
0
230
1
0
LINE
5
7E
100
AcDbEntity
8
1
62
256
6
ByLayer
370
13
48
1
60
0
100
AcDbLine
10
20.568535
20
7.99849
30
0
11
11.736329
21
7.225772
31
0
39
0
210
0
220
0
230
1
0
LINE
5
7F
100
AcDbEntity
8
1
62
256
6
ByLayer
370
13
48
1
60
0
100
AcDbLine
10
13.896342
20
-2.199891
30
0
11
13.901037
21
-2.146221
31
0
39
0
210
0
220
0
230
1
0
LINE
5
80
100
AcDbEntity
8
1
62
256
6
ByLayer
370
13
48
1
60
0
100
AcDbLine
10
13.995961
20
-2.208607
30
0
11
13.896342
21
-2.199891
31
0
39
0
210
0
220
0
230
1
0
LINE
5
81
100
AcDbEntity
8
1
62
256
6
ByLayer
370
13
48
1
60
0
100
AcDbLine
10
14.09583
20
-10
30
0
11
10.412149
21
-10
31
0
39
0
210
0
220
0
230
1
0
LINE
5
82
100
AcDbEntity
8
1
62
256
6
ByLayer
370
13
48
1
60
0
100
AcDbLine
10
19.09583
20
-5
30
0
11
19.387496
21
-1.666237
31
0
39
0
210
0
220
0
230
1
0
LINE
5
83
100
AcDbEntity
8
1
62
256
6
ByLayer
370
13
48
1
60
0
100
AcDbLine
10
14.002193
20
-2.137376
30
0
11
13.995961
21
-2.208607
31
0
39
0
210
0
220
0
230
1
0
LINE
5
84
100
AcDbEntity
8
1
62
256
6
ByLayer
370
13
48
1
60
0
100
AcDbLine
10
14.09583
20
-10
30
0
11
19.09583
21
-5
31
0
39
0
210
0
220
0
230
1
0
LINE
5
85
100
AcDbEntity
8
1
62
256
6
ByLayer
370
13
48
1
60
0
100
AcDbLine
10
8.3952
20
8
30
0
11
8.335443
21
8
31
0
39
0
210
0
220
0
230
1
0
LINE
5
86
100
AcDbEntity
8
1
62
256
6
ByLayer
370
13
48
1
60
0
100
AcDbLine
10
9.910239
20
-10
30
0
11
10.412149
21
-10
31
0
39
0
210
0
220
0
230
1
0
LINE
5
87
100
AcDbEntity
8
1
62
256
6
ByLayer
370
13
48
1
60
0
100
AcDbLine
10
10.412149
20
-10
30
0
11
8.875747
21
7.561162
31
0
39
0
210
0
220
0
230
1
0
LINE
5
88
100
AcDbEntity
8
1
62
256
6
ByLayer
370
13
48
1
60
0
100
AcDbLine
10
0
20
-10
30
0
11
0
21
8
31
0
39
0
210
0
220
0
230
1
0
LINE
5
89
100
AcDbEntity
8
1
62
256
6
ByLayer
370
13
48
1
60
0
100
AcDbLine
10
0.1
20
-10
30
0
11
0.1
21
-9.5
31
0
39
0
210
0
220
0
230
1
0
LINE
5
8A
100
AcDbEntity
8
1
62
256
6
ByLayer
370
13
48
1
60
0
100
AcDbLine
10
9.910239
20
-10
30
0
11
0.1
21
-10
31
0
39
0
210
0
220
0
230
1
0
LINE
5
8B
100
AcDbEntity
8
1
62
256
6
ByLayer
370
13
48
1
60
0
100
AcDbLine
10
0.1
20
7.5
30
0
11
0.1
21
8
31
0
39
0
210
0
220
0
230
1
0
LINE
5
8C
100
AcDbEntity
8
1
62
256
6
ByLayer
370
13
48
1
60
0
100
AcDbLine
10
0.1
20
8
30
0
11
8.335443
21
8
31
0
39
0
210
0
220
0
230
1
0
LINE
5
8D
100
AcDbEntity
8
1
62
256
6
ByLayer
370
13
48
1
60
0
100
AcDbLine
10
7.877278
20
7.5
30
0
11
8.335443
21
8
31
0
39
0
210
0
220
0
230
1
0
LINE
5
8E
100
AcDbEntity
8
1
62
256
6
ByLayer
370
13
48
1
60
0
100
AcDbLine
10
9.364585
20
-9.5
30
0
11
9.910239
21
-10
31
0
39
0
210
0
220
0
230
1
0
LINE
5
8F
100
AcDbEntity
8
1
62
256
6
ByLayer
370
13
48
1
60
0
100
AcDbLine
10
8.335443
20
8
30
0
11
9.910239
21
-10
31
0
39
0
210
0
220
0
230
1
0
LINE
5
90
100
AcDbEntity
8
1
62
256
6
ByLayer
370
13
48
1
60
0
100
AcDbLine
10
0.1
20
7.5
30
0
11
0.1
21
-9.5
31
0
39
0
210
0
220
0
230
1
0
LINE
5
91
100
AcDbEntity
8
1
62
256
6
ByLayer
370
13
48
1
60
0
100
AcDbLine
10
0.1
20
-9.5
30
0
11
9.364585
21
-9.5
31
0
39
0
210
0
220
0
230
1
0
LINE
5
92
100
AcDbEntity
8
1
62
256
6
ByLayer
370
13
48
1
60
0
100
AcDbLine
10
9.364585
20
-9.5
30
0
11
7.877278
21
7.5
31
0
39
0
210
0
220
0
230
1
0
LINE
5
93
100
AcDbEntity
8
1
62
256
6
ByLayer
370
13
48
1
60
0
100
AcDbLine
10
7.877278
20
7.5
30
0
11
0.1
21
7.5
31
0
39
0
210
0
220
0
230
1
0
LINE
5
94
100
AcDbEntity
8
SK1
62
256
6
ByLayer
370
13
48
1
60
0
100
AcDbLine
10
-16.5
20
1.388675
30
0
11
-16.5
21
2.910024
31
0
39
0
210
0
220
0
230
1
0
LINE
5
96
100
AcDbEntity
8
SK1
62
256
6
ByLayer
370
13
48
1
60
0
100
AcDbLine
10
-16.375883
20
3.125
30
0
11
-16.5
21
2.910024
31
0
39
0
210
0
220
0
230
1
0
LINE
5
97
100
AcDbEntity
8
SK1
62
256
6
ByLayer
370
13
48
1
60
0
100
AcDbLine
10
-16.5
20
-2.910024
30
0
11
-16.5
21
-1.388675
31
0
39
0
210
0
220
0
230
1
0
LINE
5
98
100
AcDbEntity
8
SK1
62
256
6
ByLayer
370
13
48
1
60
0
100
AcDbLine
10
-16.5
20
-2.910024
30
0
11
-16.375883
21
-3.125
31
0
39
0
210
0
220
0
230
1
0
LINE
5
99
100
AcDbEntity
8
SK1
62
256
6
ByLayer
370
13
48
1
60
0
100
AcDbLine
10
-11.566324
20
-3.075
30
0
11
-10.566324
21
-3.075
31
0
39
0
210
0
220
0
230
1
0
LINE
5
9A
100
AcDbEntity
8
SK1
62
256
6
ByLayer
370
13
48
1
60
0
100
AcDbLine
10
-10.566324
20
3.075
30
0
11
-11.566324
21
3.075
31
0
39
0
210
0
220
0
230
1
0
LINE
5
9B
100
AcDbEntity
8
SK1
62
256
6
ByLayer
370
13
48
1
60
0
100
AcDbLine
10
-15.343
20
3.375
30
0
11
-15.7
21
3.312051
31
0
39
0
210
0
220
0
230
1
0
LINE
5
9C
100
AcDbEntity
8
SK1
62
256
6
ByLayer
370
13
48
1
60
0
100
AcDbLine
10
-15.7
20
-3.312051
30
0
11
-15.343
21
-3.375
31
0
39
0
210
0
220
0
230
1
0
LINE
5
9D
100
AcDbEntity
8
SK1
62
256
6
ByLayer
370
13
48
1
60
0
100
AcDbLine
10
-16.375883
20
-3.125
30
0
11
-16.375883
21
-1.317016
31
0
39
0
210
0
220
0
230
1
0
LINE
5
9E
100
AcDbEntity
8
SK1
62
256
6
ByLayer
370
13
48
1
60
0
100
AcDbLine
10
-15.7
20
-1.1
30
0
11
-15.7
21
-3.312051
31
0
39
0
210
0
220
0
230
1
0
LINE
5
9F
100
AcDbEntity
8
SK1
62
256
6
ByLayer
370
13
48
1
60
0
100
AcDbLine
10
-16.375883
20
3.125
30
0
11
-16.375883
21
1.317016
31
0
39
0
210
0
220
0
230
1
0
LINE
5
A0
100
AcDbEntity
8
SK1
62
256
6
ByLayer
370
13
48
1
60
0
100
AcDbLine
10
-15.7
20
1.1
30
0
11
-15.7
21
3.312051
31
0
39
0
210
0
220
0
230
1
0
LINE
5
A1
100
AcDbEntity
8
SK1
62
256
6
ByLayer
370
13
48
1
60
0
100
AcDbLine
10
-11.566324
20
-0.49996
30
0
11
-11.566324
21
-3.375
31
0
39
0
210
0
220
0
230
1
0
LINE
5
A2
100
AcDbEntity
8
SK1
62
256
6
ByLayer
370
13
48
1
60
0
100
AcDbLine
10
-12.049898
20
-0.1
30
0
11
-12.505013
21
-0.1
31
0
39
0
210
0
220
0
230
1
0
LINE
5
A3
100
AcDbEntity
8
SK1
62
256
6
ByLayer
370
13
48
1
60
0
100
AcDbLine
10
-13.5
20
-1
30
0
11
-14.576795
21
-1
31
0
39
0
210
0
220
0
230
1
0
LINE
5
A4
100
AcDbEntity
8
SK1
62
256
6
ByLayer
370
13
48
1
60
0
100
AcDbLine
10
-14.75
20
-1.1
30
0
11
-15.343
21
-1.1
31
0
39
0
210
0
220
0
230
1
0
LINE
5
A5
100
AcDbEntity
8
SK1
62
256
6
ByLayer
370
13
48
1
60
0
100
AcDbLine
10
-15.343
20
-1.1
30
0
11
-15.343
21
-3.375
31
0
39
0
210
0
220
0
230
1
0
LINE
5
A6
100
AcDbEntity
8
SK1
62
256
6
ByLayer
370
13
48
1
60
0
100
AcDbLine
10
-15.343
20
-3.375
30
0
11
-11.566324
21
-3.375
31
0
39
0
210
0
220
0
230
1
0
LINE
5
A7
100
AcDbEntity
8
SK1
62
256
6
ByLayer
370
13
48
1
60
0
100
AcDbLine
10
-12.505013
20
0.1
30
0
11
-12.049898
21
0.1
31
0
39
0
210
0
220
0
230
1
0
LINE
5
A8
100
AcDbEntity
8
SK1
62
256
6
ByLayer
370
13
48
1
60
0
100
AcDbLine
10
-11.566324
20
0.49996
30
0
11
-11.566324
21
3.375
31
0
39
0
210
0
220
0
230
1
0
LINE
5
A9
100
AcDbEntity
8
SK1
62
256
6
ByLayer
370
13
48
1
60
0
100
AcDbLine
10
-15.343
20
1.1
30
0
11
-15.343
21
3.375
31
0
39
0
210
0
220
0
230
1
0
LINE
5
AA
100
AcDbEntity
8
SK1
62
256
6
ByLayer
370
13
48
1
60
0
100
AcDbLine
10
-15.343
20
1.1
30
0
11
-14.75
21
1.1
31
0
39
0
210
0
220
0
230
1
0
LINE
5
AB
100
AcDbEntity
8
SK1
62
256
6
ByLayer
370
13
48
1
60
0
100
AcDbLine
10
-14.576795
20
1
30
0
11
-13.5
21
1
31
0
39
0
210
0
220
0
230
1
0
LINE
5
AC
100
AcDbEntity
8
SK1
62
256
6
ByLayer
370
13
48
1
60
0
100
AcDbLine
10
-11.566324
20
3.375
30
0
11
-15.343
21
3.375
31
0
39
0
210
0
220
0
230
1
0
LINE
5
AD
100
AcDbEntity
8
SK1
62
256
6
ByLayer
370
13
48
1
60
0
100
AcDbLine
10
-0.1
20
4.69
30
0
11
-0.999897
21
4.69
31
0
39
0
210
0
220
0
230
1
0
LINE
5
AE
100
AcDbEntity
8
SK1
62
256
6
ByLayer
370
13
48
1
60
0
100
AcDbLine
10
-0.999897
20
-4.69
30
0
11
-0.1
21
-4.69
31
0
39
0
210
0
220
0
230
1
0
LINE
5
AF
100
AcDbEntity
8
SK1
62
256
6
ByLayer
370
13
48
1
60
0
100
AcDbLine
10
-0.999897
20
0
30
0
11
-0.999897
21
-4.69
31
0
39
0
210
0
220
0
230
1
0
LINE
5
B0
100
AcDbEntity
8
SK1
62
256
6
ByLayer
370
13
48
1
60
0
100
AcDbLine
10
-10.566324
20
0
30
0
11
-10.566324
21
3.515
31
0
39
0
210
0
220
0
230
1
0
LINE
5
B1
100
AcDbEntity
8
SK1
62
256
6
ByLayer
370
13
48
1
60
0
100
AcDbLine
10
-1.25
20
4.824324
30
0
11
-2.178411
21
4.693844
31
0
39
0
210
0
220
0
230
1
0
LINE
5
B2
100
AcDbEntity
8
SK1
62
256
6
ByLayer
370
13
48
1
60
0
100
AcDbLine
10
-7.303138
20
3.973611
30
0
11
-10.566324
21
3.515
31
0
39
0
210
0
220
0
230
1
0
LINE
5
B3
100
AcDbEntity
8
SK1
62
256
6
ByLayer
370
13
48
1
60
0
100
AcDbLine
10
-0.999897
20
0
30
0
11
-0.999897
21
4.69
31
0
39
0
210
0
220
0
230
1
0
LINE
5
B4
100
AcDbEntity
8
SK1
62
256
6
ByLayer
370
13
48
1
60
0
100
AcDbLine
10
-1.25
20
0
30
0
11
-1.25
21
4.824324
31
0
39
0
210
0
220
0
230
1
0
LINE
5
B5
100
AcDbEntity
8
SK1
62
256
6
ByLayer
370
13
48
1
60
0
100
AcDbLine
10
-10.566324
20
0
30
0
11
-10.566324
21
-3.515
31
0
39
0
210
0
220
0
230
1
0
LINE
5
B6
100
AcDbEntity
8
SK1
62
256
6
ByLayer
370
13
48
1
60
0
100
AcDbLine
10
-1.25
20
0
30
0
11
-1.25
21
-4.824324
31
0
39
0
210
0
220
0
230
1
0
LINE
5
B7
100
AcDbEntity
8
SK1
62
256
6
ByLayer
370
13
48
1
60
0
100
AcDbLine
10
-10.566324
20
-3.515
30
0
11
-7.303138
21
-3.973611
31
0
39
0
210
0
220
0
230
1
0
LINE
5
B8
100
AcDbEntity
8
SK1
62
256
6
ByLayer
370
13
48
1
60
0
100
AcDbLine
10
-2.178411
20
-4.693844
30
0
11
-1.25
21
-4.824324
31
0
39
0
210
0
220
0
230
1
0
LINE
5
B9
100
AcDbEntity
8
SK1
62
256
6
ByLayer
370
13
48
1
60
0
100
AcDbLine
10
-0.1
20
0
30
0
11
-0.1
21
4.69
31
0
39
0
210
0
220
0
230
1
0
LINE
5
BA
100
AcDbEntity
8
SK1
62
256
6
ByLayer
370
13
48
1
60
0
100
AcDbLine
10
-0.1
20
0
30
0
11
-0.1
21
-4.69
31
0
39
0
210
0
220
0
230
1
0
MTEXT
5
111
100
AcDbEntity
8
SK6
62
256
6
ByLayer
370
18
48
1
60
0
100
AcDbMText
10
-18.263244
20
-38.69749
30
0
210
0
220
0
230
1
1
\W0.7580;QSM16-SCLCR-09C
40
3.5
41
0
44
1.084337
50
0
71
7
72
5
7
iso_b_vert
0
DIMENSION
5
116
100
AcDbEntity
8
2
62
256
6
ByLayer
370
18
48
1
60
0
100
AcDbDimension
2
_U0
10
21
20
-19.082217
30
0
11
10.5
21
-19.082217
31
0
70
32
71
1
72
1
41
1
210
0
220
0
230
1
3
Standard
100
AcDbAlignedDimension
13
0
23
-10
33
0
14
21
24
8
34
0
50
0
100
AcDbRotatedDimension
1001
ACAD
1000
DSTYLE
1002
{
1070
   371
1070
    13
1070
   372
1070
    13
1070
   170
1070
     0
1070
   144
1040
1.0
1070
   277
1070
     2
1070
   284
1070
     8
1070
   278
1070
    46
1070
   146
1040
1.166667
1070
   345
1005
16
1070
   347
1005
16
1070
   346
1005
16
1070
   344
1005
0
1070
   343
1005
0
1070
   172
1070
     1
1070
    76
1070
     0
1070
    75
1070
     0
1070
   282
1070
     0
1070
   281
1070
     0
1070
    71
1070
     0
1070
    74
1070
     0
1070
   279
1070
     0
1070
   173
1070
     1
1070
   340
1005
112
1070
   271
1070
     2
1070
   272
1070
     2
1070
    77
1070
     1
1070
    73
1070
     1
1070
   171
1070
     3
1070
   274
1070
     4
1070
   177
1070
     7
1070
   176
1070
     7
1070
   178
1070
     7
1070
    78
1070
     8
1070
    48
1040
-0.1
1070
    41
1040
3.175
1070
   147
1040
1.5
1070
    42
1040
1.5875
1070
    44
1040
2.0
1070
   140
1040
3.0
1002
}
1001
ACAD_DSTYLE_DIM_LINETYPE
1070
   380
1005
16
1001
ACAD_DSTYLE_DIM_EXT1_LINETYPE
1070
   381
1005
16
1001
ACAD_DSTYLE_DIM_EXT2_LINETYPE
1070
   382
1005
16
0
DIMENSION
5
130
100
AcDbEntity
8
2
62
256
6
ByLayer
370
18
48
1
60
0
100
AcDbDimension
2
_U1
10
31.813729
20
8
30
0
11
31.813729
21
4
31
0
70
32
71
1
72
1
41
1
210
0
220
0
230
1
3
Standard
100
AcDbAlignedDimension
13
23
23
0
33
0
14
21
24
8
34
0
50
90
100
AcDbRotatedDimension
1001
ACAD
1000
DSTYLE
1002
{
1070
   371
1070
    13
1070
   372
1070
    13
1070
   170
1070
     0
1070
   144
1040
1.0
1070
   277
1070
     2
1070
   284
1070
     8
1070
   278
1070
    46
1070
   146
1040
1.166667
1070
   345
1005
16
1070
   347
1005
16
1070
   346
1005
16
1070
   344
1005
0
1070
   343
1005
0
1070
   172
1070
     1
1070
    76
1070
     0
1070
    75
1070
     0
1070
   282
1070
     0
1070
   281
1070
     0
1070
    71
1070
     0
1070
    74
1070
     0
1070
   279
1070
     0
1070
   173
1070
     1
1070
   340
1005
112
1070
   271
1070
     2
1070
   272
1070
     2
1070
    77
1070
     1
1070
    73
1070
     0
1070
   171
1070
     3
1070
   274
1070
     4
1070
   177
1070
     7
1070
   176
1070
     7
1070
   178
1070
     7
1070
    78
1070
     8
1070
    48
1040
-0.1
1070
    41
1040
3.175
1070
   147
1040
1.5
1070
    42
1040
1.5875
1070
    44
1040
2.0
1070
   140
1040
3.0
1002
}
1001
ACAD_DSTYLE_DIM_LINETYPE
1070
   380
1005
16
1001
ACAD_DSTYLE_DIM_EXT1_LINETYPE
1070
   381
1005
16
1001
ACAD_DSTYLE_DIM_EXT2_LINETYPE
1070
   382
1005
16
0
DIMENSION
5
153
100
AcDbEntity
8
SK2
62
256
6
ByLayer
370
18
48
1
60
0
100
AcDbDimension
2
_U3
10
-25.484389
20
-10
30
0
11
-25.484389
21
-1
31
0
70
32
71
1
72
1
41
1
210
0
220
0
230
1
3
Standard
100
AcDbAlignedDimension
13
0
23
8
33
0
14
0
24
-10
34
0
50
90
100
AcDbRotatedDimension
1001
ACAD
1000
DSTYLE
1002
{
1070
   371
1070
    13
1070
   372
1070
    13
1070
   170
1070
     0
1070
   144
1040
1.0
1070
   277
1070
     2
1070
   284
1070
     8
1070
   278
1070
    46
1070
   146
1040
1.166667
1070
   345
1005
16
1070
   347
1005
16
1070
   346
1005
16
1070
   344
1005
0
1070
   343
1005
0
1070
   172
1070
     1
1070
    76
1070
     0
1070
    75
1070
     0
1070
   282
1070
     0
1070
   281
1070
     0
1070
    71
1070
     0
1070
    74
1070
     0
1070
   279
1070
     0
1070
   173
1070
     1
1070
   340
1005
112
1070
   271
1070
     0
1070
   272
1070
     2
1070
    77
1070
     1
1070
    73
1070
     0
1070
   171
1070
     3
1070
   274
1070
     4
1070
   177
1070
     7
1070
   176
1070
     7
1070
   178
1070
     7
1070
    78
1070
     8
1070
    48
1040
-0.1
1070
    41
1040
3.175
1070
   147
1040
1.5
1070
    42
1040
1.5875
1070
    44
1040
2.0
1070
   140
1040
3.0
1002
}
1001
ACAD_DSTYLE_DIM_LINETYPE
1070
   380
1005
16
1001
ACAD_DSTYLE_DIM_EXT1_LINETYPE
1070
   381
1005
16
1001
ACAD_DSTYLE_DIM_EXT2_LINETYPE
1070
   382
1005
16
0
DIMENSION
5
16B
100
AcDbEntity
8
SK2
62
256
6
ByLayer
370
18
48
1
60
0
100
AcDbDimension
2
_U4
10
21
20
-29.428109
30
0
11
2.25
21
-29.428109
31
0
70
32
71
1
72
1
41
1
210
0
220
0
230
1
3
Standard
100
AcDbAlignedDimension
13
-16.5
23
-2.910024
33
0
14
21
24
8
34
0
50
0
100
AcDbRotatedDimension
1001
ACAD
1000
DSTYLE
1002
{
1070
   371
1070
    13
1070
   372
1070
    13
1070
   170
1070
     0
1070
   144
1040
1.0
1070
   277
1070
     2
1070
   284
1070
     8
1070
   278
1070
    46
1070
   146
1040
1.166667
1070
   345
1005
16
1070
   347
1005
16
1070
   346
1005
16
1070
   344
1005
0
1070
   343
1005
0
1070
   172
1070
     1
1070
    76
1070
     0
1070
    75
1070
     0
1070
   282
1070
     0
1070
   281
1070
     0
1070
    71
1070
     0
1070
    74
1070
     0
1070
   279
1070
     0
1070
   173
1070
     1
1070
   340
1005
112
1070
   271
1070
     2
1070
   272
1070
     2
1070
    77
1070
     1
1070
    73
1070
     1
1070
   171
1070
     3
1070
   274
1070
     4
1070
   177
1070
     7
1070
   176
1070
     7
1070
   178
1070
     7
1070
    78
1070
     8
1070
    48
1040
-0.1
1070
    41
1040
3.175
1070
   147
1040
1.5
1070
    42
1040
1.5875
1070
    44
1040
2.0
1070
   140
1040
3.0
1002
}
1001
ACAD_DSTYLE_DIM_LINETYPE
1070
   380
1005
16
1001
ACAD_DSTYLE_DIM_EXT1_LINETYPE
1070
   381
1005
16
1001
ACAD_DSTYLE_DIM_EXT2_LINETYPE
1070
   382
1005
16
0
ENDSEC
0
SECTION
2
OBJECTS
0
DICTIONARY
5
1f3
330
0
100
AcDbDictionary
280
0
281
1
3
ACAD_GROUP
350
1f4
3
ACAD_MLINESTYLE
350
1f5
0
DICTIONARY
5
1f4
330
0
100
AcDbDictionary
280
0
281
1
0
DICTIONARY
5
1f5
330
0
100
AcDbDictionary
280
0
281
1
3
Standard
350
18
0
MLINESTYLE
5
18
330
1f5
100
AcDbMlineStyle
2
Standard
70
0
3

62
256
51
90
52
90
71
2
49
-0.5
62
256
6
ByLayer
49
0.5
62
256
6
ByLayer
0
RASTERVARIABLES
5
1e1
330

100
AcDbRasterVariables
90
0
70
1
71
1
72
1
0
ENDSEC
0
EOF
