0
SECTION
2
HEADER
9
$ACADVER
1
AC1015
9
$DWGCODEPAGE
3
ANSI_1252
9
$HANDSEED
5
218
9
$ANGBASE
50
0
9
$ANGDIR
70
0
9
$ATTMODE
70
1
9
$AUNITS
70
0
9
$AUPREC
70
0
9
$CECOLOR
62
256
9
$CELTSCALE
40
1
9
$CELTYPE
6
ByLayer
9
$CELWEIGHT
370
18
9
$CLAYER
8
0
9
$CMLJUST
70
0
9
$CMLSCALE
40
1
9
$CMLSTYLE
2
Standard
9
$DIMSTYLE
2
Standard
9
$TEXTSIZE
40
0.2
9
$TEXTSTYLE
7
Standard
9
$LUNITS
70
2
9
$LUPREC
70
4
9
$EXTNAMES
290
1
9
$INSUNITS
70
4
9
$LTSCALE
40
1
9
$LWDISPLAY
290
1
9
$PDMODE
70
0
9
$PDSIZE
40
0
9
$PLINEGEN
70
0
0
ENDSEC
0
SECTION
2
CLASSES
0
CLASS
1
RASTERVARIABLES
2
AcDbRasterVariables
3
ISM
90
0
280
0
281
0
0
ENDSEC
0
SECTION
2
TABLES
0
TABLE
2
VPORT
5
20e
100
AcDbSymbolTable
0
VPORT
5
1
100
AcDbSymbolTableRecord
100
AcDbViewportTableRecord
2
*Active
70
0
10
0
20
0
11
1
21
1
12
-1
22
1
13
0
23
0
14
0.5
24
0.5
15
10
25
10
16
0
26
0
36
1
17
0
27
0
37
0
0
ENDTAB
0
TABLE
2
LTYPE
5
20f
100
AcDbSymbolTable
0
LTYPE
5
14
100
AcDbSymbolTableRecord
100
AcDbLinetypeTableRecord
70
0
2
ByBlock
3

72
65
73
0
40
0
0
LTYPE
5
15
100
AcDbSymbolTableRecord
100
AcDbLinetypeTableRecord
70
0
2
ByLayer
3

72
65
73
0
40
0
0
LTYPE
5
16
100
AcDbSymbolTableRecord
100
AcDbLinetypeTableRecord
70
0
2
Continuous
3
Solid line
72
65
73
0
40
0
0
LTYPE
5
6E
100
AcDbSymbolTableRecord
100
AcDbLinetypeTableRecord
70
0
2
CENTER
3
____ _ ____ _ ____ _ ____
72
65
73
4
40
47.5
49
22
74
0
49
-8.5
74
0
49
8.5
74
0
49
-8.5
74
0
0
LTYPE
5
6F
100
AcDbSymbolTableRecord
100
AcDbLinetypeTableRecord
70
0
2
DASHED
3
__ __ __ __ __ __ __ __ __
72
65
73
2
40
25.72
49
12.86
74
0
49
-12.86
74
0
0
ENDTAB
0
TABLE
2
LAYER
5
210
100
AcDbSymbolTable
0
LAYER
5
10
100
AcDbSymbolTableRecord
100
AcDbLayerTableRecord
2
0
70
0
62
7
6
Continuous
290
1
370
-3
390
0
0
LAYER
5
71
100
AcDbSymbolTableRecord
100
AcDbLayerTableRecord
2
81
70
0
62
-3
6
Continuous
290
1
370
-3
390
0
0
LAYER
5
73
100
AcDbSymbolTableRecord
100
AcDbLayerTableRecord
2
80
70
0
62
-6
6
Continuous
290
1
370
-3
390
0
0
LAYER
5
77
100
AcDbSymbolTableRecord
100
AcDbLayerTableRecord
2
4
70
0
62
-2
6
CENTER
290
1
370
-3
390
0
0
LAYER
5
7B
100
AcDbSymbolTableRecord
100
AcDbLayerTableRecord
2
1
70
0
62
4
6
Continuous
290
1
370
-3
390
0
0
LAYER
5
131
100
AcDbSymbolTableRecord
100
AcDbLayerTableRecord
2
Defpoints
70
0
62
7
6
Continuous
290
0
370
-3
390
0
0
LAYER
5
13E
100
AcDbSymbolTableRecord
100
AcDbLayerTableRecord
2
2
70
0
62
7
6
Continuous
290
1
370
-3
390
0
0
LAYER
5
1fa
100
AcDbSymbolTableRecord
100
AcDbLayerTableRecord
2
SK4
70
0
62
2
6
CENTER
290
1
370
-3
390
0
0
LAYER
5
1fb
100
AcDbSymbolTableRecord
100
AcDbLayerTableRecord
2
SK1
70
0
62
4
6
Continuous
290
1
370
-3
390
0
0
LAYER
5
1fc
100
AcDbSymbolTableRecord
100
AcDbLayerTableRecord
2
SK6
70
0
62
5
6
Continuous
290
1
370
-3
390
0
0
LAYER
5
1fd
100
AcDbSymbolTableRecord
100
AcDbLayerTableRecord
2
SK2
70
0
62
7
6
Continuous
290
1
370
-3
390
0
0
ENDTAB
0
TABLE
2
STYLE
5
211
100
AcDbSymbolTable
0
STYLE
5
11
100
AcDbSymbolTableRecord
100
AcDbTextStyleTableRecord
2
Standard
3
txt
70
0
71
0
40
0
41
1
42
0
50
0
0
STYLE
5
12A
100
AcDbSymbolTableRecord
100
AcDbTextStyleTableRecord
2
iso_b_vert
3
simplex.shx
70
0
71
0
40
0
41
1
42
0
50
0
0
STYLE
5
12B
100
AcDbSymbolTableRecord
100
AcDbTextStyleTableRecord
2
DWGDirectTextStyle
3
simplex
70
0
71
0
40
0
41
1
42
0
50
0
0
ENDTAB
0
TABLE
2
DIMSTYLE
5
212
100
AcDbSymbolTable
100
AcDbDimStyleTable
0
DIMSTYLE
105
27
100
AcDbSymbolTableRecord
100
AcDbDimStyleTableRecord
2
Standard
70
0
3
<>
41
0.18
42
0.0625
44
0.18
140
0.18
147
0.09
73
0
74
0
77
1
271
2
275
0
278
52
280
0
340
11
0
ENDTAB
0
TABLE
2
VIEW
5
213
100
AcDbSymbolTable
0
ENDTAB
0
TABLE
2
UCS
5
214
100
AcDbSymbolTable
0
ENDTAB
0
TABLE
2
APPID
5
215
100
AcDbSymbolTable
0
APPID
5
12
100
AcDbSymbolTableRecord
100
AcDbRegAppTableRecord
2
ACAD
70
0
0
APPID
5
12D
100
AcDbSymbolTableRecord
100
AcDbRegAppTableRecord
2
ACAD_DSTYLE_DIMBREAK
70
0
0
APPID
5
1B9
100
AcDbSymbolTableRecord
100
AcDbRegAppTableRecord
2
ACAD_DSTYLE_DIM_LINETYPE
70
0
0
APPID
5
1BA
100
AcDbSymbolTableRecord
100
AcDbRegAppTableRecord
2
ACAD_DSTYLE_DIM_EXT1_LINETYPE
70
0
0
APPID
5
1BB
100
AcDbSymbolTableRecord
100
AcDbRegAppTableRecord
2
ACAD_DSTYLE_DIM_EXT2_LINETYPE
70
0
0
APPID
5
1F6
100
AcDbSymbolTableRecord
100
AcDbRegAppTableRecord
2
ACAD_MLEADERVER
70
0
0
ENDTAB
0
TABLE
2
BLOCK_RECORD
5
216
100
AcDbSymbolTable
0
BLOCK_RECORD
5
1F
100
AcDbSymbolTableRecord
100
AcDbBlockTableRecord
2
*Model_Space
340
0
70
0
0
BLOCK_RECORD
5
1B
100
AcDbSymbolTableRecord
100
AcDbBlockTableRecord
2
*Paper_Space
340
0
70
0
0
BLOCK_RECORD
5
23
100
AcDbSymbolTableRecord
100
AcDbBlockTableRecord
2
*Paper_Space0
340
0
70
0
0
BLOCK_RECORD
5
132
100
AcDbSymbolTableRecord
100
AcDbBlockTableRecord
2
*D1
340
0
70
0
0
BLOCK_RECORD
5
13F
100
AcDbSymbolTableRecord
100
AcDbBlockTableRecord
2
_U0
340
0
70
0
0
BLOCK_RECORD
5
14B
100
AcDbSymbolTableRecord
100
AcDbBlockTableRecord
2
*D3
340
0
70
0
0
BLOCK_RECORD
5
158
100
AcDbSymbolTableRecord
100
AcDbBlockTableRecord
2
_U1
340
0
70
0
0
BLOCK_RECORD
5
164
100
AcDbSymbolTableRecord
100
AcDbBlockTableRecord
2
*D5
340
0
70
0
0
BLOCK_RECORD
5
171
100
AcDbSymbolTableRecord
100
AcDbBlockTableRecord
2
_U2
340
0
70
0
0
BLOCK_RECORD
5
17D
100
AcDbSymbolTableRecord
100
AcDbBlockTableRecord
2
*D7
340
0
70
0
0
BLOCK_RECORD
5
189
100
AcDbSymbolTableRecord
100
AcDbBlockTableRecord
2
_U3
340
0
70
0
0
BLOCK_RECORD
5
192
100
AcDbSymbolTableRecord
100
AcDbBlockTableRecord
2
_U4
340
0
70
0
0
ENDTAB
0
ENDSEC
0
SECTION
2
BLOCKS
0
BLOCK
5
20
100
AcDbEntity
8
0
100
AcDbBlockBegin
2
*Model_Space
70
0
10
0
20
0
30
0
3
*Model_Space
0
ENDBLK
5
21
100
AcDbEntity
8
0
100
AcDbBlockEnd
0
BLOCK
5
1C
100
AcDbEntity
8
0
100
AcDbBlockBegin
2
*Paper_Space
70
0
10
0
20
0
30
0
3
*Paper_Space
0
ENDBLK
5
1D
100
AcDbEntity
8
0
100
AcDbBlockEnd
0
BLOCK
5
24
100
AcDbEntity
8
0
100
AcDbBlockBegin
2
*Paper_Space0
70
0
10
0
20
0
30
0
3
*Paper_Space0
0
ENDBLK
5
25
100
AcDbEntity
8
0
100
AcDbBlockEnd
0
BLOCK
5
133
100
AcDbEntity
8
0
100
AcDbBlockBegin
2
*D1
70
1
10
0
20
0
30
0
3
*D1
0
LINE
5
135
100
AcDbEntity
8
0
62
256
6
ByLayer
370
-2
48
1
60
0
100
AcDbLine
10
0
20
-11.5875
30
0
11
0
21
-22.242797
31
0
39
0
210
0
220
0
230
1
0
LINE
5
136
100
AcDbEntity
8
0
62
256
6
ByLayer
370
-2
48
1
60
0
100
AcDbLine
10
23
20
4.4125
30
0
11
23
21
-22.242797
31
0
39
0
210
0
220
0
230
1
0
LINE
5
137
100
AcDbEntity
8
0
62
256
6
ByLayer
370
-2
48
1
60
0
100
AcDbLine
10
3.175
20
-20.242797
30
0
11
19.825
21
-20.242797
31
0
39
0
210
0
220
0
230
1
0
SOLID
5
138
100
AcDbEntity
8
0
62
256
6
ByLayer
370
-1
48
1
60
0
100
AcDbTrace
10
3.175
20
-19.71363
30
0
11
3.175
21
-20.771964
31
0
12
0
22
-20.242797
32
0
13
0
23
-20.242797
33
0
39
0
210
0
220
0
230
1
0
SOLID
5
139
100
AcDbEntity
8
0
62
256
6
ByLayer
370
-1
48
1
60
0
100
AcDbTrace
10
19.825
20
-20.771964
30
0
11
19.825
21
-19.71363
31
0
12
23
22
-20.242797
32
0
13
23
23
-20.242797
33
0
39
0
210
0
220
0
230
1
0
MTEXT
5
13A
100
AcDbEntity
8
0
62
256
6
ByLayer
370
18
48
1
60
0
100
AcDbMText
10
11.5
20
-14.242797
30
0
210
0
220
0
230
1
1
\A1;23
40
3
41
0
44
1
50
0
71
5
72
5
7
iso_b_vert
0
POINT
5
13B
100
AcDbEntity
8
Defpoints
62
0
6
ByLayer
370
-1
48
1
60
0
100
AcDbPoint
10
0
20
-10
30
0
39
0
210
0
220
0
230
1
50
360
0
POINT
5
13C
100
AcDbEntity
8
Defpoints
62
0
6
ByLayer
370
-1
48
1
60
0
100
AcDbPoint
10
23
20
6
30
0
39
0
210
0
220
0
230
1
50
360
0
POINT
5
13D
100
AcDbEntity
8
Defpoints
62
0
6
ByLayer
370
-1
48
1
60
0
100
AcDbPoint
10
23
20
-20.242797
30
0
39
0
210
0
220
0
230
1
50
360
0
ENDBLK
5
134
100
AcDbEntity
8
0
100
AcDbBlockEnd
0
BLOCK
5
146
100
AcDbEntity
8
0
100
AcDbBlockBegin
2
_U0
70
0
10
0
20
0
30
0
3
_U0
0
MTEXT
5
140
100
AcDbEntity
8
2
62
256
6
ByLayer
370
18
48
1
60
0
100
AcDbMText
10
9.867172
20
-19.357683
30
0
210
0
220
0
230
1
1
\W0.6740;23
40
3
41
0
44
1.084337
50
0
71
7
72
5
7
iso_b_vert
0
LINE
5
141
100
AcDbEntity
8
2
62
256
6
ByLayer
370
13
48
1
60
0
100
AcDbLine
10
0
20
-11.5875
30
0
11
0
21
-22.242797
31
0
39
0
210
0
220
0
230
1
0
LINE
5
142
100
AcDbEntity
8
2
62
256
6
ByLayer
370
13
48
1
60
0
100
AcDbLine
10
23
20
4.4125
30
0
11
23
21
-22.242797
31
0
39
0
210
0
220
0
230
1
0
LINE
5
143
100
AcDbEntity
8
2
62
256
6
ByLayer
370
13
48
1
60
0
100
AcDbLine
10
0
20
-20.242797
30
0
11
23
21
-20.242797
31
0
39
0
210
0
220
0
230
1
0
SOLID
5
144
100
AcDbEntity
8
2
62
256
6
ByLayer
370
18
48
1
60
0
100
AcDbTrace
10
0
20
-20.242797
30
0
11
3.174998
21
-19.8248
31
0
12
3.175002
22
-20.660794
32
0
13
3.175002
23
-20.660794
33
0
39
0
210
0
220
0
230
1
0
SOLID
5
145
100
AcDbEntity
8
2
62
256
6
ByLayer
370
18
48
1
60
0
100
AcDbTrace
10
23
20
-20.242797
30
0
11
19.825002
21
-20.660794
31
0
12
19.824998
22
-19.8248
32
0
13
19.824998
23
-19.8248
33
0
39
0
210
0
220
0
230
1
0
ENDBLK
5
147
100
AcDbEntity
8
0
100
AcDbBlockEnd
0
BLOCK
5
14C
100
AcDbEntity
8
0
100
AcDbBlockBegin
2
*D3
70
1
10
0
20
0
30
0
3
*D3
0
LINE
5
14E
100
AcDbEntity
8
0
62
256
6
ByLayer
370
-2
48
1
60
0
100
AcDbLine
10
26.5875
20
0
30
0
11
33.813729
21
0
31
0
39
0
210
0
220
0
230
1
0
LINE
5
14F
100
AcDbEntity
8
0
62
256
6
ByLayer
370
-2
48
1
60
0
100
AcDbLine
10
24.5875
20
6
30
0
11
33.813729
21
6
31
0
39
0
210
0
220
0
230
1
0
LINE
5
150
100
AcDbEntity
8
0
62
256
6
ByLayer
370
-2
48
1
60
0
100
AcDbLine
10
31.813729
20
-3.175
30
0
11
31.813729
21
-6.35
31
0
39
0
210
0
220
0
230
1
0
LINE
5
151
100
AcDbEntity
8
0
62
256
6
ByLayer
370
-2
48
1
60
0
100
AcDbLine
10
31.813729
20
9.175
30
0
11
31.813729
21
12.35
31
0
39
0
210
0
220
0
230
1
0
SOLID
5
152
100
AcDbEntity
8
0
62
256
6
ByLayer
370
-1
48
1
60
0
100
AcDbTrace
10
32.342895
20
-3.175
30
0
11
31.284562
21
-3.175
31
0
12
31.813729
22
0
32
0
13
31.813729
23
0
33
0
39
0
210
0
220
0
230
1
0
SOLID
5
153
100
AcDbEntity
8
0
62
256
6
ByLayer
370
-1
48
1
60
0
100
AcDbTrace
10
31.284562
20
9.175
30
0
11
32.342895
21
9.175
31
0
12
31.813729
22
6
32
0
13
31.813729
23
6
33
0
39
0
210
0
220
0
230
1
0
MTEXT
5
154
100
AcDbEntity
8
0
62
256
6
ByLayer
370
18
48
1
60
0
100
AcDbMText
10
25.813729
20
3
30
0
210
0
220
0
230
1
1
\A1;6
40
3
41
0
44
1
50
90
71
5
72
5
7
iso_b_vert
0
POINT
5
155
100
AcDbEntity
8
Defpoints
62
0
6
ByLayer
370
-1
48
1
60
0
100
AcDbPoint
10
25
20
0
30
0
39
0
210
0
220
0
230
1
50
360
0
POINT
5
156
100
AcDbEntity
8
Defpoints
62
0
6
ByLayer
370
-1
48
1
60
0
100
AcDbPoint
10
23
20
6
30
0
39
0
210
0
220
0
230
1
50
360
0
POINT
5
157
100
AcDbEntity
8
Defpoints
62
0
6
ByLayer
370
-1
48
1
60
0
100
AcDbPoint
10
31.813729
20
6
30
0
39
0
210
0
220
0
230
1
50
360
0
ENDBLK
5
14D
100
AcDbEntity
8
0
100
AcDbBlockEnd
0
BLOCK
5
15F
100
AcDbEntity
8
0
100
AcDbBlockBegin
2
_U1
70
0
10
0
20
0
30
0
3
_U1
0
MTEXT
5
159
100
AcDbEntity
8
2
62
256
6
ByLayer
370
18
48
1
60
0
100
AcDbMText
10
31.222614
20
2.464086
30
0
210
0
220
0
230
1
1
\W0.5404;6
40
3
41
0
44
1.084337
50
90
71
7
72
5
7
iso_b_vert
0
LINE
5
15A
100
AcDbEntity
8
2
62
256
6
ByLayer
370
13
48
1
60
0
100
AcDbLine
10
26.5875
20
0
30
0
11
33.813729
21
0
31
0
39
0
210
0
220
0
230
1
0
LINE
5
15B
100
AcDbEntity
8
2
62
256
6
ByLayer
370
13
48
1
60
0
100
AcDbLine
10
26.5875
20
6
30
0
11
33.813729
21
6
31
0
39
0
210
0
220
0
230
1
0
LINE
5
15C
100
AcDbEntity
8
2
62
256
6
ByLayer
370
13
48
1
60
0
100
AcDbLine
10
31.813729
20
-7.5
30
0
11
31.813729
21
13.5
31
0
39
0
210
0
220
0
230
1
0
SOLID
5
15D
100
AcDbEntity
8
2
62
256
6
ByLayer
370
18
48
1
60
0
100
AcDbTrace
10
31.813729
20
0
30
0
11
32.231725
21
-3.174998
31
0
12
31.395732
22
-3.175002
32
0
13
31.395732
23
-3.175002
33
0
39
0
210
0
220
0
230
1
0
SOLID
5
15E
100
AcDbEntity
8
2
62
256
6
ByLayer
370
18
48
1
60
0
100
AcDbTrace
10
31.813729
20
6
30
0
11
31.395732
21
9.174998
31
0
12
32.231725
22
9.175002
32
0
13
32.231725
23
9.175002
33
0
39
0
210
0
220
0
230
1
0
ENDBLK
5
160
100
AcDbEntity
8
0
100
AcDbBlockEnd
0
BLOCK
5
165
100
AcDbEntity
8
0
100
AcDbBlockBegin
2
*D5
70
1
10
0
20
0
30
0
3
*D5
0
LINE
5
167
100
AcDbEntity
8
0
62
256
6
ByLayer
370
-2
48
1
60
0
100
AcDbLine
10
-1.5875
20
5.975
30
0
11
-27.484389
21
5.975
31
0
39
0
210
0
220
0
230
1
0
LINE
5
168
100
AcDbEntity
8
0
62
256
6
ByLayer
370
-2
48
1
60
0
100
AcDbLine
10
-1.5875
20
-10
30
0
11
-27.484389
21
-10
31
0
39
0
210
0
220
0
230
1
0
LINE
5
169
100
AcDbEntity
8
0
62
256
6
ByLayer
370
-2
48
1
60
0
100
AcDbLine
10
-25.484389
20
2.8
30
0
11
-25.484389
21
-6.825
31
0
39
0
210
0
220
0
230
1
0
SOLID
5
16A
100
AcDbEntity
8
0
62
256
6
ByLayer
370
-1
48
1
60
0
100
AcDbTrace
10
-24.955223
20
2.8
30
0
11
-26.013556
21
2.8
31
0
12
-25.484389
22
5.975
32
0
13
-25.484389
23
5.975
33
0
39
0
210
0
220
0
230
1
0
SOLID
5
16B
100
AcDbEntity
8
0
62
256
6
ByLayer
370
-1
48
1
60
0
100
AcDbTrace
10
-26.013556
20
-6.825
30
0
11
-24.955223
21
-6.825
31
0
12
-25.484389
22
-10
32
0
13
-25.484389
23
-10
33
0
39
0
210
0
220
0
230
1
0
MTEXT
5
16C
100
AcDbEntity
8
0
62
256
6
ByLayer
370
18
48
1
60
0
100
AcDbMText
10
-31.484389
20
-2.0125
30
0
210
0
220
0
230
1
1
\A1;16
40
3
41
0
44
1
50
90
71
5
72
5
7
iso_b_vert
0
POINT
5
16D
100
AcDbEntity
8
Defpoints
62
0
6
ByLayer
370
-1
48
1
60
0
100
AcDbPoint
10
0
20
5.975
30
0
39
0
210
0
220
0
230
1
50
360
0
POINT
5
16E
100
AcDbEntity
8
Defpoints
62
0
6
ByLayer
370
-1
48
1
60
0
100
AcDbPoint
10
0
20
-10
30
0
39
0
210
0
220
0
230
1
50
360
0
POINT
5
16F
100
AcDbEntity
8
Defpoints
62
0
6
ByLayer
370
-1
48
1
60
0
100
AcDbPoint
10
-25.484389
20
-10
30
0
39
0
210
0
220
0
230
1
50
360
0
ENDBLK
5
166
100
AcDbEntity
8
0
100
AcDbBlockEnd
0
BLOCK
5
178
100
AcDbEntity
8
0
100
AcDbBlockBegin
2
_U2
70
0
10
0
20
0
30
0
3
_U2
0
MTEXT
5
172
100
AcDbEntity
8
SK2
62
256
6
ByLayer
370
18
48
1
60
0
100
AcDbMText
10
-26.075504
20
-3.294385
30
0
210
0
220
0
230
1
1
\W0.5321;16
40
3
41
0
44
1.084337
50
90
71
7
72
5
7
iso_b_vert
0
LINE
5
173
100
AcDbEntity
8
SK2
62
256
6
ByLayer
370
13
48
1
60
0
100
AcDbLine
10
-1.5875
20
5.975
30
0
11
-27.484389
21
5.975
31
0
39
0
210
0
220
0
230
1
0
LINE
5
174
100
AcDbEntity
8
SK2
62
256
6
ByLayer
370
13
48
1
60
0
100
AcDbLine
10
-1.5875
20
-10
30
0
11
-27.484389
21
-10
31
0
39
0
210
0
220
0
230
1
0
LINE
5
175
100
AcDbEntity
8
SK2
62
256
6
ByLayer
370
13
48
1
60
0
100
AcDbLine
10
-25.484389
20
5.975
30
0
11
-25.484389
21
-10
31
0
39
0
210
0
220
0
230
1
0
SOLID
5
176
100
AcDbEntity
8
SK2
62
256
6
ByLayer
370
18
48
1
60
0
100
AcDbTrace
10
-25.484389
20
5.975
30
0
11
-25.066393
21
2.800002
31
0
12
-25.902386
22
2.799998
32
0
13
-25.902386
23
2.799998
33
0
39
0
210
0
220
0
230
1
0
SOLID
5
177
100
AcDbEntity
8
SK2
62
256
6
ByLayer
370
18
48
1
60
0
100
AcDbTrace
10
-25.484389
20
-10
30
0
11
-25.902386
21
-6.825002
31
0
12
-25.066393
22
-6.824998
32
0
13
-25.066393
23
-6.824998
33
0
39
0
210
0
220
0
230
1
0
ENDBLK
5
179
100
AcDbEntity
8
0
100
AcDbBlockEnd
0
BLOCK
5
17E
100
AcDbEntity
8
0
100
AcDbBlockBegin
2
*D7
70
1
10
0
20
0
30
0
3
*D7
0
LINE
5
180
100
AcDbEntity
8
0
62
256
6
ByLayer
370
-2
48
1
60
0
100
AcDbLine
10
-16.5
20
-4.497524
30
0
11
-16.5
21
-32.898859
31
0
39
0
210
0
220
0
230
1
0
LINE
5
181
100
AcDbEntity
8
0
62
256
6
ByLayer
370
-2
48
1
60
0
100
AcDbLine
10
23
20
4.4125
30
0
11
23
21
-32.898859
31
0
39
0
210
0
220
0
230
1
0
LINE
5
182
100
AcDbEntity
8
0
62
256
6
ByLayer
370
-2
48
1
60
0
100
AcDbLine
10
-13.325
20
-30.898859
30
0
11
19.825
21
-30.898859
31
0
39
0
210
0
220
0
230
1
0
SOLID
5
183
100
AcDbEntity
8
0
62
256
6
ByLayer
370
-1
48
1
60
0
100
AcDbTrace
10
-13.325
20
-30.369693
30
0
11
-13.325
21
-31.428026
31
0
12
-16.5
22
-30.898859
32
0
13
-16.5
23
-30.898859
33
0
39
0
210
0
220
0
230
1
0
SOLID
5
184
100
AcDbEntity
8
0
62
256
6
ByLayer
370
-1
48
1
60
0
100
AcDbTrace
10
19.825
20
-31.428026
30
0
11
19.825
21
-30.369693
31
0
12
23
22
-30.898859
32
0
13
23
23
-30.898859
33
0
39
0
210
0
220
0
230
1
0
MTEXT
5
185
100
AcDbEntity
8
0
62
256
6
ByLayer
370
18
48
1
60
0
100
AcDbMText
10
3.25
20
-24.898859
30
0
210
0
220
0
230
1
1
\A1;39.5
40
3
41
0
44
1
50
0
71
5
72
5
7
iso_b_vert
0
POINT
5
186
100
AcDbEntity
8
Defpoints
62
0
6
ByLayer
370
-1
48
1
60
0
100
AcDbPoint
10
-16.5
20
-2.910024
30
0
39
0
210
0
220
0
230
1
50
360
0
POINT
5
187
100
AcDbEntity
8
Defpoints
62
0
6
ByLayer
370
-1
48
1
60
0
100
AcDbPoint
10
23
20
6
30
0
39
0
210
0
220
0
230
1
50
360
0
POINT
5
188
100
AcDbEntity
8
Defpoints
62
0
6
ByLayer
370
-1
48
1
60
0
100
AcDbPoint
10
23
20
-30.898859
30
0
39
0
210
0
220
0
230
1
50
360
0
ENDBLK
5
17F
100
AcDbEntity
8
0
100
AcDbBlockEnd
0
BLOCK
5
190
100
AcDbEntity
8
0
100
AcDbBlockBegin
2
_U3
70
0
10
0
20
0
30
0
3
_U3
0
MTEXT
5
18A
100
AcDbEntity
8
SK2
62
256
6
ByLayer
370
18
48
1
60
0
100
AcDbMText
10
-0.111456
20
-30.013745
30
0
210
0
220
0
230
1
1
\W0.7346;39.5
40
3
41
0
44
1.084337
50
0
71
7
72
5
7
iso_b_vert
0
LINE
5
18B
100
AcDbEntity
8
SK2
62
256
6
ByLayer
370
13
48
1
60
0
100
AcDbLine
10
-16.5
20
-4.497524
30
0
11
-16.5
21
-32.898859
31
0
39
0
210
0
220
0
230
1
0
LINE
5
18C
100
AcDbEntity
8
SK2
62
256
6
ByLayer
370
13
48
1
60
0
100
AcDbLine
10
23
20
4.4125
30
0
11
23
21
-32.898859
31
0
39
0
210
0
220
0
230
1
0
LINE
5
18D
100
AcDbEntity
8
SK2
62
256
6
ByLayer
370
13
48
1
60
0
100
AcDbLine
10
-16.5
20
-30.898859
30
0
11
23
21
-30.898859
31
0
39
0
210
0
220
0
230
1
0
SOLID
5
18E
100
AcDbEntity
8
SK2
62
256
6
ByLayer
370
18
48
1
60
0
100
AcDbTrace
10
-16.5
20
-30.898859
30
0
11
-13.325002
21
-30.480863
31
0
12
-13.324998
22
-31.316856
32
0
13
-13.324998
23
-31.316856
33
0
39
0
210
0
220
0
230
1
0
SOLID
5
18F
100
AcDbEntity
8
SK2
62
256
6
ByLayer
370
18
48
1
60
0
100
AcDbTrace
10
23
20
-30.898859
30
0
11
19.825002
21
-31.316856
31
0
12
19.824998
22
-30.480863
32
0
13
19.824998
23
-30.480863
33
0
39
0
210
0
220
0
230
1
0
ENDBLK
5
191
100
AcDbEntity
8
0
100
AcDbBlockEnd
0
BLOCK
5
199
100
AcDbEntity
8
0
100
AcDbBlockBegin
2
_U4
70
0
10
0
20
0
30
0
3
_U4
0
MTEXT
5
193
100
AcDbEntity
8
SK2
62
256
6
ByLayer
370
18
48
1
60
0
100
AcDbMText
10
13.578596
20
11.484801
30
0
210
0
220
0
230
1
1
\W0.8531;93%%d
40
3
41
0
44
1.084337
50
46.4999999999999
71
7
72
5
7
iso_b_vert
0
LINE
5
194
100
AcDbEntity
8
SK2
62
256
6
ByLayer
370
13
48
1
60
0
100
AcDbLine
10
23
20
7.5875
30
0
11
23
21
17.895129
31
0
39
0
210
0
220
0
230
1
0
ARC
5
195
100
AcDbEntity
8
SK2
62
256
6
ByLayer
370
13
48
1
60
0
100
AcDbCircle
39
0
10
23
20
6.042688
30
0
40
9.85244112095619
210
0
220
0
230
1
100
AcDbArc
50
90
51
182.999943
0
SOLID
5
196
100
AcDbEntity
8
SK2
62
256
6
ByLayer
370
18
48
1
60
0
100
AcDbTrace
10
23
20
15.895129
30
0
11
19.868478
21
15.225125
31
0
12
19.801769
22
16.058452
32
0
13
23
23
15.895129
33
0
39
0
210
0
220
0
230
1
0
SOLID
5
197
100
AcDbEntity
8
SK2
62
256
6
ByLayer
370
18
48
1
60
0
100
AcDbTrace
10
13.161061
20
5.527051
30
0
11
12.830579
21
8.712348
31
0
12
13.666256
22
8.68935
32
0
13
13.161061
23
5.527051
33
0
39
0
210
0
220
0
230
1
0
ENDBLK
5
19A
100
AcDbEntity
8
0
100
AcDbBlockEnd
0
ENDSEC
0
SECTION
2
ENTITIES
0
ARC
5
CB
100
AcDbEntity
8
1
62
256
6
ByLayer
370
13
48
1
60
0
100
AcDbCircle
39
0
10
7.263065
20
-4.354244
30
0
40
1.525
210
0
220
0
230
1
100
AcDbArc
50
105.536762
51
320.414834
0
ARC
5
CC
100
AcDbEntity
8
1
62
256
6
ByLayer
370
13
48
1
60
0
100
AcDbCircle
39
0
10
8.393748
20
-3.726715
30
0
40
1.59991820480221
210
0
220
0
230
1
100
AcDbArc
50
271.597438
51
328
0
ARC
5
CD
100
AcDbEntity
8
1
62
256
6
ByLayer
370
13
48
1
60
0
100
AcDbCircle
39
0
10
7.263065
20
-4.354244
30
0
40
1.625
210
0
220
0
230
1
100
AcDbArc
50
101.813384
51
158.159887
0
ARC
5
CE
100
AcDbEntity
8
1
62
256
6
ByLayer
370
13
48
1
60
0
100
AcDbCircle
39
0
10
13.52865
20
7.959623
30
0
40
3.2
210
0
220
0
230
1
100
AcDbArc
50
218.330351
51
239.658866
0
ARC
5
CF
100
AcDbEntity
8
1
62
256
6
ByLayer
370
13
48
1
60
0
100
AcDbCircle
39
0
10
7.263065
20
-4.354244
30
0
40
1.625
210
0
220
0
230
1
100
AcDbArc
50
195.869738
51
318.823223
0
ARC
5
D0
100
AcDbEntity
8
1
62
256
6
ByLayer
370
13
48
1
60
0
100
AcDbCircle
39
0
10
20.176221
20
-4.088208
30
0
40
3.2
210
0
220
0
230
1
100
AcDbArc
50
175.020668
51
194.567463
0
ARC
5
D1
100
AcDbEntity
8
1
62
256
6
ByLayer
370
13
48
1
60
0
100
AcDbCircle
39
0
10
8.393748
20
-3.726715
30
0
40
1.69991820480221
210
0
220
0
230
1
100
AcDbArc
50
273.116706
51
328
0
ARC
5
D2
100
AcDbEntity
8
1
62
256
6
ByLayer
370
13
48
1
60
0
100
AcDbCircle
39
0
10
11.2
20
-4.523463
30
0
40
5.5
210
0
220
0
230
1
100
AcDbArc
50
150
51
171.912723
0
ARC
5
D3
100
AcDbEntity
8
1
62
256
6
ByLayer
370
13
48
1
60
0
100
AcDbCircle
39
0
10
11.2
20
-4.523463
30
0
40
6
210
0
220
0
230
1
100
AcDbArc
50
150
51
180
0
ARC
5
D4
100
AcDbEntity
8
1
62
256
6
ByLayer
370
13
48
1
60
0
100
AcDbCircle
39
0
10
11.2
20
-4.523463
30
0
40
6.50000000000001
210
0
220
0
230
1
100
AcDbArc
50
150
51
180
0
ARC
5
D8
100
AcDbEntity
8
1
62
256
6
ByLayer
370
13
48
1
60
0
100
AcDbCircle
39
0
10
7.394768
20
-3.51838
30
0
40
0.793749999999998
210
0
220
0
230
1
100
AcDbArc
50
148
51
273
0
ARC
5
D9
100
AcDbEntity
8
1
62
256
6
ByLayer
370
13
48
1
60
0
100
AcDbCircle
39
0
10
17.071386
20
-3.01125
30
0
40
0.793749999999998
210
0
220
0
230
1
100
AcDbArc
50
273
51
328
0
ARC
5
DA
100
AcDbEntity
8
1
62
256
6
ByLayer
370
13
48
1
60
0
100
AcDbCircle
39
0
10
22.20625
20
5.20625
30
0
40
0.793749999999998
210
0
220
0
230
1
100
AcDbArc
50
328
51
93
0
ARC
5
DB
100
AcDbEntity
8
1
62
256
6
ByLayer
370
13
48
1
60
0
100
AcDbCircle
39
0
10
12.529631
20
4.69912
30
0
40
0.793749999999998
210
0
220
0
230
1
100
AcDbArc
50
93
51
148
0
ARC
5
DC
100
AcDbEntity
8
1
62
256
6
ByLayer
370
18
48
1
60
0
100
AcDbCircle
39
0
10
14.800509
20
0.843935
30
0
40
1.2903
210
0
220
0
230
1
100
AcDbArc
50
90.5
51
150.5
0
ARC
5
DD
100
AcDbEntity
8
1
62
256
6
ByLayer
370
18
48
1
60
0
100
AcDbCircle
39
0
10
14.800509
20
0.843935
30
0
40
1.2903
210
0
220
0
230
1
100
AcDbArc
50
150.5
51
210.5
0
ARC
5
DE
100
AcDbEntity
8
1
62
256
6
ByLayer
370
18
48
1
60
0
100
AcDbCircle
39
0
10
14.800509
20
0.843935
30
0
40
1.2903
210
0
220
0
230
1
100
AcDbArc
50
210.5
51
270.5
0
ARC
5
DF
100
AcDbEntity
8
1
62
256
6
ByLayer
370
18
48
1
60
0
100
AcDbCircle
39
0
10
14.800509
20
0.843935
30
0
40
1.2903
210
0
220
0
230
1
100
AcDbArc
50
270.5
51
330.5
0
ARC
5
E0
100
AcDbEntity
8
1
62
256
6
ByLayer
370
18
48
1
60
0
100
AcDbCircle
39
0
10
14.800509
20
0.843935
30
0
40
1.2903
210
0
220
0
230
1
100
AcDbArc
50
330.5
51
30.5
0
ARC
5
E1
100
AcDbEntity
8
1
62
256
6
ByLayer
370
18
48
1
60
0
100
AcDbCircle
39
0
10
14.800509
20
0.843935
30
0
40
1.2903
210
0
220
0
230
1
100
AcDbArc
50
30.5
51
90.5
0
ARC
5
E4
100
AcDbEntity
8
1
62
256
6
ByLayer
370
18
48
1
60
0
100
AcDbCircle
39
0
10
14.800509
20
0.843935
30
0
40
1.6764
210
0
220
0
230
1
100
AcDbArc
50
120.5
51
180.5
0
ARC
5
E5
100
AcDbEntity
8
1
62
256
6
ByLayer
370
18
48
1
60
0
100
AcDbCircle
39
0
10
14.800509
20
0.843935
30
0
40
1.6764
210
0
220
0
230
1
100
AcDbArc
50
300.5
51
0.5
0
ARC
5
E6
100
AcDbEntity
8
1
62
256
6
ByLayer
370
18
48
1
60
0
100
AcDbCircle
39
0
10
14.800509
20
0.843935
30
0
40
1.6764
210
0
220
0
230
1
100
AcDbArc
50
60.5
51
120.5
0
ARC
5
E7
100
AcDbEntity
8
1
62
256
6
ByLayer
370
18
48
1
60
0
100
AcDbCircle
39
0
10
14.800509
20
0.843935
30
0
40
1.6764
210
0
220
0
230
1
100
AcDbArc
50
0.5
51
60.5
0
ARC
5
E8
100
AcDbEntity
8
1
62
256
6
ByLayer
370
18
48
1
60
0
100
AcDbCircle
39
0
10
14.800509
20
0.843935
30
0
40
1.6764
210
0
220
0
230
1
100
AcDbArc
50
180.5
51
240.5
0
ARC
5
E9
100
AcDbEntity
8
1
62
256
6
ByLayer
370
18
48
1
60
0
100
AcDbCircle
39
0
10
14.800509
20
0.843935
30
0
40
1.6764
210
0
220
0
230
1
100
AcDbArc
50
240.5
51
300.5
0
ARC
5
EA
100
AcDbEntity
8
SK1
62
256
6
ByLayer
370
13
48
1
60
0
100
AcDbCircle
39
0
10
-15.942871
20
-2.875
30
0
40
0.5
210
0
220
0
230
1
100
AcDbArc
50
210
51
299.061062
0
ARC
5
EB
100
AcDbEntity
8
SK1
62
256
6
ByLayer
370
13
48
1
60
0
100
AcDbCircle
39
0
10
-15.942871
20
2.875
30
0
40
0.5
210
0
220
0
230
1
100
AcDbArc
50
60.938938
51
150
0
ARC
5
EC
100
AcDbEntity
8
SK1
62
256
6
ByLayer
370
13
48
1
60
0
100
AcDbCircle
39
0
10
-0.999897
20
-4.99
30
0
40
0.3
210
0
220
0
230
1
100
AcDbArc
50
90
51
146.478251
0
ARC
5
ED
100
AcDbEntity
8
SK1
62
256
6
ByLayer
370
13
48
1
60
0
100
AcDbCircle
39
0
10
-0.999897
20
4.99
30
0
40
0.3
210
0
220
0
230
1
100
AcDbArc
50
213.521749
51
270
0
ARC
5
EE
100
AcDbEntity
8
SK1
62
256
6
ByLayer
370
13
48
1
60
0
100
AcDbCircle
39
0
10
-0.1
20
-4.99
30
0
40
0.3
210
0
220
0
230
1
100
AcDbArc
50
70.527647
51
90
0
ARC
5
EF
100
AcDbEntity
8
SK1
62
256
6
ByLayer
370
13
48
1
60
0
100
AcDbCircle
39
0
10
-0.1
20
4.99
30
0
40
0.3
210
0
220
0
230
1
100
AcDbArc
50
270
51
289.472353
0
CIRCLE
5
D5
100
AcDbEntity
8
1
62
256
6
ByLayer
370
13
48
1
60
0
100
AcDbCircle
10
14.800509
20
0.843935
30
0
40
2.92104776441581
39
0
210
0
220
0
230
1
0
CIRCLE
5
D6
100
AcDbEntity
8
1
62
256
6
ByLayer
370
13
48
1
60
0
100
AcDbCircle
10
14.800509
20
0.843935
30
0
40
3.00996076009769
39
0
210
0
220
0
230
1
0
CIRCLE
5
D7
100
AcDbEntity
8
1
62
256
6
ByLayer
370
13
48
1
60
0
100
AcDbCircle
10
14.800509
20
0.843935
30
0
40
3.07132534818237
39
0
210
0
220
0
230
1
0
CIRCLE
5
E2
100
AcDbEntity
8
1
62
256
6
ByLayer
370
18
48
1
60
0
100
AcDbCircle
10
14.800509
20
0.843935
30
0
40
2.625
39
0
210
0
220
0
230
1
0
CIRCLE
5
E3
100
AcDbEntity
8
1
62
256
6
ByLayer
370
18
48
1
60
0
100
AcDbCircle
10
14.800509
20
0.843935
30
0
40
1.8
39
0
210
0
220
0
230
1
0
POINT
5
70
100
AcDbEntity
8
81
62
256
6
ByLayer
370
18
48
1
60
0
100
AcDbPoint
10
23
20
6
30
0
39
0
210
0
220
0
230
1
50
360
0
POINT
5
72
100
AcDbEntity
8
80
62
256
6
ByLayer
370
18
48
1
60
0
100
AcDbPoint
10
0
20
0
30
0
39
0
210
0
220
0
230
1
50
360
0
SPLINE
5
F0
100
AcDbEntity
8
1
62
256
6
ByLayer
370
13
48
1
60
0
100
AcDbSpline
70
4
71
3
72
8
73
4
40
0
40
0
40
0
40
0
40
1
40
1
40
1
40
1
41
1
10
8.48617251182952
20
-5.42411876950723
30
0
41
1
10
8.47028302367141
20
-5.39149709916728
30
0
41
1
10
8.45434541981513
20
-5.35880028260658
30
0
41
1
10
8.43834886534887
20
-5.32601139805757
30
0
0
SPLINE
5
F1
100
AcDbEntity
8
1
62
256
6
ByLayer
370
13
48
1
60
0
100
AcDbSpline
70
4
71
3
72
18
73
14
40
0
40
0
40
0
40
0
40
0.250000000000002
40
0.250000000000002
40
0.500000000000005
40
0.500000000000005
40
0.625000000000005
40
0.625000000000005
40
0.687500000000004
40
0.687500000000004
40
0.750000000000004
40
0.750000000000004
40
1
40
1
40
1
40
1
41
1
10
5.64689932511999
20
-4.52346281956363
30
0
41
1
10
5.639993061209
20
-4.45750285461975
30
0
41
1
10
5.63717559293184
20
-4.39175560873684
30
0
41
1
10
5.63943703016048
20
-4.26067219421594
30
0
41
1
10
5.64451668093966
20
-4.19533606366508
30
0
41
1
10
5.65811535119917
20
-4.09764305501238
30
0
41
1
10
5.66364745516967
20
-4.06513071997875
30
0
41
1
10
5.67347691762484
20
-4.01644187208279
30
0
41
1
10
5.67700865399922
20
-4.00023169147772
30
0
41
1
10
5.68453545369755
20
-3.96805245678712
30
0
41
1
10
5.68853571956117
20
-3.95205650225455
30
0
41
1
10
5.70970707986021
20
-3.87253965636643
30
0
41
1
10
5.73037549669425
20
-3.81040235154211
30
0
41
1
10
5.75469793536877
20
-3.74971517018287
30
0
0
SPLINE
5
F2
100
AcDbEntity
8
1
62
256
6
ByLayer
370
13
48
1
60
0
100
AcDbSpline
70
4
71
3
72
10
73
6
40
0
40
0
40
0
40
0
40
0.5
40
0.5
40
1
40
1
40
1
40
1
41
1
10
5.70000000000004
20
-4.79860228697089
30
0
41
1
10
5.68718002523997
20
-4.75350703110638
30
0
41
1
10
5.67635705914404
20
-4.70803130050797
30
0
41
1
10
5.65865743922393
20
-4.61632018714567
30
0
41
1
10
5.65178082780403
20
-4.57008480643833
30
0
41
1
10
5.64689932512749
20
-4.52346281956403
30
0
0
SPLINE
5
F3
100
AcDbEntity
8
1
62
256
6
ByLayer
370
13
48
1
60
0
100
AcDbSpline
70
4
71
3
72
8
73
4
40
0
40
0
40
0
40
0
40
1
40
1
40
1
40
1
41
1
10
0.100000000000023
20
-10
30
0
41
1
10
0.0665422022946132
20
-10
30
0
41
1
10
0.0332074854302391
20
-10
30
0
41
1
10
0
20
-10
30
0
0
SPLINE
5
F4
100
AcDbEntity
8
1
62
256
6
ByLayer
370
13
48
1
60
0
100
AcDbSpline
70
4
71
3
72
8
73
4
40
0
40
0
40
0
40
0
40
1
40
1
40
1
40
1
41
1
10
0
20
-5
30
0
41
1
10
0.0327307703415727
20
-5.085100002888
30
0
41
1
10
0.0660723236762806
20
-5.16993708518925
30
0
41
1
10
0.100000000000023
20
-5.25452186216785
30
0
0
SPLINE
5
F5
100
AcDbEntity
8
1
62
256
6
ByLayer
370
13
48
1
60
0
100
AcDbSpline
70
4
71
3
72
8
73
4
40
0
40
0
40
0
40
0
40
1
40
1
40
1
40
1
41
1
10
0.100000000000023
20
5.66161090089383
30
0
41
1
10
0.0656688206754552
20
5.73471796598324
30
0
41
1
10
0.0323215296207309
20
5.80804864047769
30
0
41
1
10
0
20
5.88161244093891
30
0
0
SPLINE
5
F6
100
AcDbEntity
8
1
62
256
6
ByLayer
370
13
48
1
60
0
100
AcDbSpline
70
4
71
3
72
8
73
4
40
0
40
0
40
0
40
0
40
1
40
1
40
1
40
1
41
1
10
0.100000000000023
20
5.25452186216785
30
0
41
1
10
0.0660521149341093
20
5.16988670296058
30
0
41
1
10
0.0327110285724075
20
5.0850486742882
30
0
41
1
10
0
20
5
30
0
0
SPLINE
5
F7
100
AcDbEntity
8
1
62
256
6
ByLayer
370
18
48
1
60
0
100
AcDbSpline
70
4
71
3
72
32
73
28
40
0
40
0
40
0
40
0
40
0.0625000000000015
40
0.0625000000000015
40
0.125000000000003
40
0.125000000000003
40
0.156250000000004
40
0.156250000000004
40
0.187500000000005
40
0.187500000000005
40
0.250000000000004
40
0.250000000000004
40
0.312500000000004
40
0.312500000000004
40
0.375000000000004
40
0.375000000000004
40
0.437500000000003
40
0.437500000000003
40
0.500000000000003
40
0.500000000000003
40
0.625000000000002
40
0.625000000000002
40
0.750000000000001
40
0.750000000000001
40
0.875000000000001
40
0.875000000000001
40
1
40
1
40
1
40
1
41
1
10
13.351356989832
20
1.21786555981509
30
0
41
1
10
13.3423478060982
20
1.22142495545717
30
0
41
1
10
13.3330964226844
20
1.2237391792554
30
0
41
1
10
13.3140475661117
20
1.22555737429605
30
0
41
1
10
13.3041437425501
20
1.22499599867365
30
0
41
1
10
13.2898003661353
20
1.22194296827746
30
0
41
1
10
13.285069452807
20
1.22056625357948
30
0
41
1
10
13.2757073262102
20
1.21711565205646
30
0
41
1
10
13.2710477324451
20
1.21502443093107
30
0
41
1
10
13.2575203013213
20
1.20789253548861
30
0
41
1
10
13.2490455039434
20
1.20200263195124
30
0
41
1
10
13.2329962822724
20
1.18838088045669
30
0
41
1
10
13.2256046468111
20
1.18080094628328
30
0
41
1
10
13.2119102810661
20
1.16461175176409
30
0
41
1
10
13.2055851860666
20
1.15597636217228
30
0
41
1
10
13.1937904498787
20
1.13783320911739
30
0
41
1
10
13.1883526418274
20
1.1283647605652
30
0
41
1
10
13.1783500380284
20
1.10899880673145
30
0
41
1
10
13.1737638215227
20
1.09906592414126
30
0
41
1
10
13.1610647627297
20
1.06863697782853
30
0
41
1
10
13.1540836792995
20
1.04772387924714
30
0
41
1
10
13.1424450493716
20
1.00509609357619
30
0
41
1
10
13.1378147049744
20
0.983445301332665
30
0
41
1
10
13.1305875188256
20
0.939750370976128
30
0
41
1
10
13.127995885671
20
0.917705394937684
30
0
41
1
10
13.1246926492789
20
0.873538257728455
30
0
41
1
10
13.1239795316182
20
0.851432665921095
30
0
41
1
10
13.1241726290897
20
0.829305887312671
30
0
0
SPLINE
5
F8
100
AcDbEntity
8
1
62
256
6
ByLayer
370
18
48
1
60
0
100
AcDbSpline
70
4
71
3
72
32
73
28
40
0
40
0
40
0
40
0
40
0.0624999999999966
40
0.0624999999999966
40
0.124999999999993
40
0.124999999999993
40
0.156249999999992
40
0.156249999999992
40
0.187499999999991
40
0.187499999999991
40
0.249999999999992
40
0.249999999999992
40
0.312499999999992
40
0.312499999999992
40
0.374999999999993
40
0.374999999999993
40
0.437499999999994
40
0.437499999999994
40
0.499999999999994
40
0.499999999999994
40
0.624999999999996
40
0.624999999999996
40
0.749999999999997
40
0.749999999999997
40
0.874999999999999
40
0.874999999999999
40
1
40
1
40
1
40
1
41
1
10
13.7336194354128
20
1.89351214501374
30
0
41
1
10
13.7259283652114
20
1.899401298437
30
0
41
1
10
13.7191798735414
20
1.90613936841561
30
0
41
1
10
13.7078104897879
20
1.92153098571191
30
0
41
1
10
13.7031908363933
20
1.93030934924081
30
0
41
1
10
13.6984204092406
20
1.94417644938307
30
0
41
1
10
13.6971638835689
20
1.94894069407837
30
0
41
1
10
13.6952997747028
20
1.95874279402784
30
0
41
1
10
13.6946924328674
20
1.96381390394043
30
0
41
1
10
13.6938385183482
20
1.97908237326141
30
0
41
1
10
13.694522307738
20
1.9893802170331
30
0
41
1
10
13.6979324674642
20
2.01015280571784
30
0
41
1
10
13.7006227654806
20
2.0203926286386
30
0
41
1
10
13.7074464938768
20
2.04046904273861
30
0
41
1
10
13.7115908027115
20
2.05033826177748
30
0
41
1
10
13.7210677820216
20
2.06979273858025
30
0
41
1
10
13.7263831483183
20
2.07933046134417
30
0
41
1
10
13.7378312888868
20
2.09787856982382
30
0
41
1
10
13.7439833549247
20
2.10692553737403
30
0
41
1
10
13.7635255539049
20
2.1334828212515
30
0
41
1
10
13.7778560543944
20
2.15023781972514
30
0
41
1
10
13.8084008608204
20
2.18216900539386
30
0
41
1
10
13.8245744083013
20
2.19728896755964
30
0
41
1
10
13.8583059977682
20
2.22598842801659
30
0
41
1
10
13.8758674406223
20
2.2395638932324
30
0
41
1
10
13.9120247738913
20
2.26514307677672
30
0
41
1
10
13.9306056816041
20
2.27713955936633
30
0
41
1
10
13.9496714852471
20
2.2883701759863
30
0
0
SPLINE
5
F9
100
AcDbEntity
8
1
62
256
6
ByLayer
370
18
48
1
60
0
100
AcDbSpline
70
4
71
3
72
42
73
38
40
0
40
0
40
0
40
0
40
0.0625000000000006
40
0.0625000000000006
40
0.0937500000000008
40
0.0937500000000008
40
0.125000000000001
40
0.125000000000001
40
0.187500000000003
40
0.187500000000003
40
0.218750000000003
40
0.218750000000003
40
0.250000000000003
40
0.250000000000003
40
0.375000000000003
40
0.375000000000003
40
0.437500000000003
40
0.437500000000003
40
0.500000000000003
40
0.500000000000003
40
0.562500000000002
40
0.562500000000002
40
0.625000000000002
40
0.625000000000002
40
0.687500000000002
40
0.687500000000002
40
0.750000000000002
40
0.750000000000002
40
0.812500000000001
40
0.812500000000001
40
0.875000000000001
40
0.875000000000001
40
0.906250000000001
40
0.906250000000001
40
0.937500000000001
40
0.937500000000001
40
1
40
1
40
1
40
1
41
1
10
13.3713523992866
20
1.21847885122884
30
0
41
1
10
13.3874202025347
20
1.21897167663417
30
0
41
1
10
13.4031736553603
20
1.22227164115367
30
0
41
1
10
13.4265258031044
20
1.23001492556631
30
0
41
1
10
13.4342893971104
20
1.23309321153056
30
0
41
1
10
13.4494502011372
20
1.23995626365468
30
0
41
1
10
13.4568822004728
20
1.24374993393872
30
0
41
1
10
13.4788108862945
20
1.25605176726611
30
0
41
1
10
13.4929445219997
20
1.26547079812741
30
0
41
1
10
13.5135949297424
20
1.28107250441946
30
0
41
1
10
13.5204033364104
20
1.2865381857028
30
0
41
1
10
13.5337001156283
20
1.29780321103215
30
0
41
1
10
13.5402032674303
20
1.3036121312162
30
0
41
1
10
13.5720691264064
20
1.33345803043812
30
0
41
1
10
13.5955354101731
20
1.35983917771136
30
0
41
1
10
13.6283215711502
20
1.40255765862594
30
0
41
1
10
13.6388458049429
20
1.41735446212675
30
0
41
1
10
13.6587981138102
20
1.44756739707316
30
0
41
1
10
13.6682670903634
20
1.46303392000948
30
0
41
1
10
13.6861995802065
20
1.49468188593613
30
0
41
1
10
13.6946011250145
20
1.51075430948197
30
0
41
1
10
13.7102609365478
20
1.54338703319269
30
0
41
1
10
13.7175369427844
20
1.55999238681613
30
0
41
1
10
13.730782002634
20
1.59349191682617
30
0
41
1
10
13.7367510370966
20
1.61037301847739
30
0
41
1
10
13.747272858104
20
1.64443385575567
30
0
41
1
10
13.7518257686331
20
1.66162980869547
30
0
41
1
10
13.7592136793064
20
1.69597512912139
30
0
41
1
10
13.7620734361162
20
1.71321798779349
30
0
41
1
10
13.7657338909797
20
1.7475741475555
30
0
41
1
10
13.7665391128877
20
1.76463891827211
30
0
41
1
10
13.7657696826662
20
1.78997194900677
30
0
41
1
10
13.7651821018159
20
1.79832682785047
30
0
41
1
10
13.7632417405627
20
1.81483808918819
30
0
41
1
10
13.7618816897425
20
1.82302620093947
30
0
41
1
10
13.756485167213
20
1.84696254785831
30
0
41
1
10
13.7512039394761
20
1.86210400664515
30
0
41
1
10
13.7433921392598
20
1.876056865436
30
0
0
SPLINE
5
FA
100
AcDbEntity
8
1
62
256
6
ByLayer
370
18
48
1
60
0
100
AcDbSpline
70
4
71
3
72
8
73
4
40
0
40
0
40
0
40
0
40
1
40
1
40
1
40
1
41
1
10
13.7433921392598
20
1.876056865436
30
0
41
1
10
13.7401341444401
20
1.88187605440692
30
0
41
1
10
13.7368765818976
20
1.88769447127601
30
0
41
1
10
13.7336194354128
20
1.89351214501374
30
0
0
SPLINE
5
FB
100
AcDbEntity
8
1
62
256
6
ByLayer
370
18
48
1
60
0
100
AcDbSpline
70
4
71
3
72
8
73
4
40
0
40
0
40
0
40
0
40
1
40
1
40
1
40
1
41
1
10
13.3713523992866
20
1.21847885122884
30
0
41
1
10
13.3646863894041
20
1.21827439396907
30
0
41
1
10
13.3580212639813
20
1.21806996383714
30
0
41
1
10
13.351356989832
20
1.21786555981509
30
0
0
SPLINE
5
FC
100
AcDbEntity
8
1
62
256
6
ByLayer
370
18
48
1
60
0
100
AcDbSpline
70
4
71
3
72
32
73
28
40
0
40
0
40
0
40
0
40
0.0624999999999993
40
0.0624999999999993
40
0.124999999999999
40
0.124999999999999
40
0.156249999999998
40
0.156249999999998
40
0.187499999999997
40
0.187499999999997
40
0.249999999999997
40
0.249999999999997
40
0.312499999999997
40
0.312499999999997
40
0.374999999999998
40
0.374999999999998
40
0.437499999999998
40
0.437499999999998
40
0.499999999999998
40
0.499999999999998
40
0.624999999999999
40
0.624999999999999
40
0.749999999999999
40
0.749999999999999
40
0.875
40
0.875
40
1
40
1
40
1
40
1
41
1
10
16.249660603997
20
0.47000454302912
30
0
41
1
10
16.2586697877307
20
0.466445147387049
30
0
41
1
10
16.2679211711445
20
0.464130923588812
30
0
41
1
10
16.2869700277171
20
0.46231272854817
30
0
41
1
10
16.2968738512789
20
0.462874104170567
30
0
41
1
10
16.3112172276937
20
0.465927134566755
30
0
41
1
10
16.315948141022
20
0.467303849264795
30
0
41
1
10
16.3253102676188
20
0.470754450787808
30
0
41
1
10
16.3299698613838
20
0.472845671913205
30
0
41
1
10
16.3434972925077
20
0.479977567355661
30
0
41
1
10
16.3519720898855
20
0.485867470893027
30
0
41
1
10
16.3680213115564
20
0.499489222387581
30
0
41
1
10
16.3754129470178
20
0.507069156560988
30
0
41
1
10
16.3891073127628
20
0.523258351080187
30
0
41
1
10
16.3954324077623
20
0.53189374067199
30
0
41
1
10
16.4072271439501
20
0.550036893726826
30
0
41
1
10
16.4126649520016
20
0.559505342279067
30
0
41
1
10
16.4226675558004
20
0.578871296112766
30
0
41
1
10
16.4272537723062
20
0.588804178703015
30
0
41
1
10
16.4399528310992
20
0.619233125015739
30
0
41
1
10
16.4469339145295
20
0.640146223597128
30
0
41
1
10
16.4585725444573
20
0.682774009268087
30
0
41
1
10
16.4632028888545
20
0.704424801511607
30
0
41
1
10
16.4704300750034
20
0.748119731868144
30
0
41
1
10
16.4730217081579
20
0.770164707906588
30
0
41
1
10
16.47632494455
20
0.814331845115817
30
0
41
1
10
16.4770380622108
20
0.836437436923177
30
0
41
1
10
16.4768449647393
20
0.858564215531601
30
0
0
SPLINE
5
FD
100
AcDbEntity
8
1
62
256
6
ByLayer
370
18
48
1
60
0
100
AcDbSpline
70
4
71
3
72
31
73
27
40
0
40
0
40
0
40
0
40
0.25
40
0.25
40
0.375
40
0.375
40
0.499999999999999
40
0.499999999999999
40
0.562499999999999
40
0.562499999999999
40
0.624999999999998
40
0.624999999999998
40
0.687499999999998
40
0.687499999999998
40
0.749999999999997
40
0.749999999999997
40
0.781249999999997
40
0.781249999999997
40
0.812499999999997
40
0.843749999999997
40
0.843749999999997
40
0.874999999999997
40
0.874999999999997
40
0.937499999999999
40
0.937499999999999
40
1
40
1
40
1
40
1
41
1
10
15.6513461085817
20
-0.60050007314203
30
0
41
1
10
15.6894513442722
20
-0.578054373959048
30
0
41
1
10
15.7259001242569
20
-0.552423489714158
30
0
41
1
10
15.7764389123524
20
-0.509421673216707
30
0
41
1
10
15.7926156919491
20
-0.494298131418191
30
0
41
1
10
15.8231153332657
20
-0.462417876837264
30
0
41
1
10
15.8374607496656
20
-0.445647274313501
30
0
41
1
10
15.8569653520009
20
-0.419153007321768
30
0
41
1
10
15.8631399208714
20
-0.410079243694099
30
0
41
1
10
15.8746000428017
20
-0.391520440599891
30
0
41
1
10
15.8799199693309
20
-0.381975913414749
30
0
41
1
10
15.8893741228162
20
-0.362584191139774
30
0
41
1
10
15.8935030406991
20
-0.352762676201507
30
0
41
1
10
15.9003038891746
20
-0.332825741048794
30
0
41
1
10
15.902980644711
20
-0.322711176616792
30
0
41
1
10
15.9055668373065
20
-0.307262015272329
30
0
41
1
10
15.9061899620722
20
-0.302030150805706
30
0
41
1
10
15.9068539428074
20
-0.291666725307778
30
0
41
1
10
15.9069435898324
20
-0.281410207745182
30
0
41
1
10
15.9057923075526
20
-0.271389892731975
30
0
41
1
10
15.9039574712797
20
-0.261502188065947
30
0
41
1
10
15.9026899663149
20
-0.256622945395634
30
0
41
1
10
15.8979308204666
20
-0.242652098020017
30
0
41
1
10
15.8934667934067
20
-0.234067496067212
30
0
41
1
10
15.881953066732
20
-0.218372127788939
30
0
41
1
10
15.8751179252829
20
-0.211553169006208
30
0
41
1
10
15.867398158416
20
-0.205642042169529
30
0
0
SPLINE
5
FE
100
AcDbEntity
8
1
62
256
6
ByLayer
370
18
48
1
60
0
100
AcDbSpline
70
4
71
3
72
40
73
36
40
0
40
0
40
0
40
0
40
0.0625000000000019
40
0.0625000000000019
40
0.0937500000000019
40
0.0937500000000019
40
0.125000000000002
40
0.125000000000002
40
0.187500000000001
40
0.187500000000001
40
0.250000000000001
40
0.250000000000001
40
0.3125
40
0.3125
40
0.375
40
0.375
40
0.5
40
0.5
40
0.5625
40
0.5625
40
0.625
40
0.625
40
0.6875
40
0.6875
40
0.749999999999999
40
0.749999999999999
40
0.812499999999999
40
0.812499999999999
40
0.874999999999999
40
0.874999999999999
40
0.906249999999999
40
0.906249999999999
40
0.9375
40
0.9375
40
1
40
1
40
1
40
1
41
1
10
15.8576254545692
20
-0.188186762591783
30
0
41
1
10
15.8498177990671
20
-0.174241306782335
30
0
41
1
10
15.8445493508269
20
-0.159132744184149
30
0
41
1
10
15.8391602271581
20
-0.135281209300501
30
0
41
1
10
15.837796070277
20
-0.127100846669123
30
0
41
1
10
15.8358488945659
20
-0.110609274163323
30
0
41
1
10
15.8352585385551
20
-0.102274263978643
30
0
41
1
10
15.8344757868404
20
-0.0770287784315542
30
0
41
1
10
15.8352703660316
20
-0.0599177207208754
30
0
41
1
10
15.8389075881781
20
-0.0256038208449354
30
0
41
1
10
15.8417562668564
20
-0.0083639784325555
30
0
41
1
10
15.8491359455865
20
0.0260174420533872
30
0
41
1
10
15.8536719986703
20
0.0431720665437751
30
0
41
1
10
15.8641562551967
20
0.077168242771279
30
0
41
1
10
15.8701252318414
20
0.0940775189341707
30
0
41
1
10
15.8899697331377
20
0.144332482544939
30
0
41
1
10
15.9056006076175
20
0.176866289375539
30
0
41
1
10
15.9324384698946
20
0.224312173527323
30
0
41
1
10
15.9418850834431
20
0.239768583660407
30
0
41
1
10
15.961785559502
20
0.269957562692639
30
0
41
1
10
15.9722680133226
20
0.284726820599644
30
0
41
1
10
15.9941497404983
20
0.313292313710974
30
0
41
1
10
16.0055390006612
20
0.32708342625466
30
0
41
1
10
16.02930156498
20
0.35360707422592
30
0
41
1
10
16.0416878437248
20
0.36634715031505
30
0
41
1
10
16.0673038040643
20
0.390332827044574
30
0
41
1
10
16.0806013700617
20
0.401648060379159
30
0
41
1
10
16.1081421533139
20
0.422447421117226
30
0
41
1
10
16.1223434540644
20
0.431911916022159
30
0
41
1
10
16.1444341531188
20
0.444279125665787
30
0
41
1
10
16.1518914345301
20
0.448072151218696
30
0
41
1
10
16.1670296376285
20
0.454901234957788
30
0
41
1
10
16.1747414579379
20
0.457947362060338
30
0
41
1
10
16.1980151099551
20
0.465636011622564
30
0
41
1
10
16.2136981792172
20
0.468901517537972
30
0
41
1
10
16.2296651945423
20
0.469391251615434
30
0
0
SPLINE
5
FF
100
AcDbEntity
8
1
62
256
6
ByLayer
370
18
48
1
60
0
100
AcDbSpline
70
4
71
3
72
8
73
4
40
0
40
0
40
0
40
0
40
1
40
1
40
1
40
1
41
1
10
15.867398158416
20
-0.205642042169529
30
0
41
1
10
15.8641410119313
20
-0.199824368431791
30
0
41
1
10
15.8608834493889
20
-0.194005951562644
30
0
41
1
10
15.8576254545692
20
-0.188186762591783
30
0
0
SPLINE
5
100
100
AcDbEntity
8
1
62
256
6
ByLayer
370
18
48
1
60
0
100
AcDbSpline
70
4
71
3
72
8
73
4
40
0
40
0
40
0
40
0
40
1
40
1
40
1
40
1
41
1
10
16.2296651945423
20
0.469391251615434
30
0
41
1
10
16.2363312044248
20
0.469595708875147
30
0
41
1
10
16.2429963298476
20
0.469800139007134
30
0
41
1
10
16.249660603997
20
0.47000454302912
30
0
0
SPLINE
5
101
100
AcDbEntity
8
1
62
256
6
ByLayer
370
18
48
1
60
0
100
AcDbSpline
70
4
71
3
72
8
73
4
40
0
40
0
40
0
40
0
40
1
40
1
40
1
40
1
41
1
10
15.1760245424442
20
2.29267688830566
30
0
41
1
10
15.1726148624388
20
2.28694727983719
30
0
41
1
10
15.1692047468915
20
2.28121693948646
30
0
41
1
10
15.1657941788233
20
2.27548583872175
30
0
0
SPLINE
5
102
100
AcDbEntity
8
1
62
256
6
ByLayer
370
18
48
1
60
0
100
AcDbSpline
70
4
71
3
72
31
73
27
40
0
40
0
40
0
40
0
40
0.249999999999995
40
0.249999999999995
40
0.374999999999993
40
0.374999999999993
40
0.499999999999991
40
0.499999999999991
40
0.562499999999991
40
0.562499999999991
40
0.624999999999991
40
0.624999999999991
40
0.68749999999999
40
0.68749999999999
40
0.74999999999999
40
0.74999999999999
40
0.781249999999991
40
0.781249999999991
40
0.812499999999991
40
0.843749999999992
40
0.843749999999992
40
0.874999999999993
40
0.874999999999993
40
0.937499999999996
40
0.937499999999996
40
1
40
1
40
1
40
1
41
1
10
15.6260076530719
20
2.30299934009577
30
0
41
1
10
15.5875164895284
20
2.32477659262941
30
0
41
1
10
15.5470951026586
20
2.34352671991064
30
0
41
1
10
15.4845850431152
20
2.36579368602918
30
0
41
1
10
15.4633992819241
20
2.37224141721197
30
0
41
1
10
15.4205403509196
20
2.38271475410801
30
0
41
1
10
15.3988438748974
20
2.38675294787629
30
0
41
1
10
15.3661468654602
20
2.39039729549353
30
0
41
1
10
15.3552014712154
20
2.39120774717901
30
0
41
1
10
15.3333990153069
20
2.39185310235399
30
0
41
1
10
15.3224732490329
20
2.3916880302819
30
0
41
1
10
15.300952448177
20
2.39017970623399
30
0
41
1
10
15.2903823077953
20
2.38884469654164
30
0
41
1
10
15.2697159912417
20
2.38476593651222
30
0
41
1
10
15.2596181437272
20
2.38202679259052
30
0
41
1
10
15.2449456812379
20
2.37654192040515
30
0
41
1
10
15.2401031913179
20
2.37446563004863
30
0
41
1
10
15.2307962111988
20
2.36985894148393
30
0
41
1
10
15.2218689829227
20
2.36480831930368
30
0
41
1
10
15.2137667767073
20
2.35880112209588
30
0
41
1
10
15.2061211914179
20
2.35226825493874
30
0
41
1
10
15.2025293957964
20
2.34873094210474
30
0
41
1
10
15.1928098599809
20
2.33762397721188
30
0
41
1
10
15.1876073901385
20
2.32946571539838
30
0
41
1
10
15.1797716658251
20
2.31164685146672
30
0
41
1
10
15.1772838450164
20
2.30231796594199
30
0
41
1
10
15.1760245424442
20
2.29267688830566
30
0
0
SPLINE
5
103
100
AcDbEntity
8
1
62
256
6
ByLayer
370
18
48
1
60
0
100
AcDbSpline
70
4
71
3
72
31
73
27
40
0
40
0
40
0
40
0
40
0.25
40
0.25
40
0.375
40
0.375
40
0.5
40
0.5
40
0.5625
40
0.5625
40
0.625
40
0.625
40
0.6875
40
0.6875
40
0.749999999999999
40
0.749999999999999
40
0.781249999999999
40
0.781249999999999
40
0.812499999999999
40
0.843749999999999
40
0.843749999999999
40
0.874999999999999
40
0.874999999999999
40
0.937499999999999
40
0.937499999999999
40
1
40
1
40
1
40
1
41
1
10
13.9496714852471
20
2.2883701759863
30
0
41
1
10
13.9877767209376
20
2.31081587516934
30
0
41
1
10
14.0278647165924
20
2.33026859718774
30
0
41
1
10
14.0899766434081
20
2.35362312290505
30
0
41
1
10
14.1110466494799
20
2.36043961458216
30
0
41
1
10
14.1537162679294
20
2.37165934782166
30
0
41
1
10
14.1753389632744
20
2.3760755822712
30
0
41
1
10
14.2079673901628
20
2.38029001633464
30
0
41
1
10
14.2188969730388
20
2.38129136805338
30
0
41
1
10
14.240684845327
20
2.38231713025954
30
0
41
1
10
14.2516118284587
20
2.38234276424231
30
0
41
1
10
14.2731556754767
20
2.38121025968286
30
0
41
1
10
14.2837475051066
20
2.38005992770502
30
0
41
1
10
14.3044818582579
20
2.37634246584656
30
0
41
1
10
14.3146259724742
20
2.37377997084866
30
0
41
1
10
14.3293919244951
20
2.36855200381467
30
0
41
1
10
14.3342699131437
20
2.3665605427895
30
0
41
1
10
14.3436558735657
20
2.36211698504553
30
0
41
1
10
14.3526698876927
20
2.35722293371572
30
0
41
1
10
14.3608756999502
20
2.35135805442906
30
0
41
1
10
14.3686341350327
20
2.34495961612117
30
0
41
1
10
14.3722871182275
20
2.34148552751407
30
0
41
1
10
14.3821990169763
20
2.33054988355519
30
0
41
1
10
14.3875430757585
20
2.32248365990262
30
0
41
1
10
14.3956885887086
20
2.30480426211568
30
0
41
1
10
14.3983388421119
20
2.29552021588535
30
0
41
1
10
14.3997662128916
20
2.28590258449219
30
0
0
SPLINE
5
104
100
AcDbEntity
8
1
62
256
6
ByLayer
370
18
48
1
60
0
100
AcDbSpline
70
4
71
3
72
8
73
4
40
0
40
0
40
0
40
0
40
1
40
1
40
1
40
1
41
1
10
14.3997662128916
20
2.28590258449219
30
0
41
1
10
14.4032753690419
20
2.28023335579212
30
0
41
1
10
14.4067849734409
20
2.27456340292252
30
0
41
1
10
14.4102950435631
20
2.26889269765229
30
0
0
SPLINE
5
105
100
AcDbEntity
8
1
62
256
6
ByLayer
370
18
48
1
60
0
100
AcDbSpline
70
4
71
3
72
40
73
36
40
0
40
0
40
0
40
0
40
0.0625000000000024
40
0.0625000000000024
40
0.0937500000000027
40
0.0937500000000027
40
0.125000000000003
40
0.125000000000003
40
0.187500000000003
40
0.187500000000003
40
0.250000000000003
40
0.250000000000003
40
0.312500000000003
40
0.312500000000003
40
0.375000000000003
40
0.375000000000003
40
0.500000000000003
40
0.500000000000003
40
0.625000000000003
40
0.625000000000003
40
0.687500000000003
40
0.687500000000003
40
0.750000000000002
40
0.750000000000002
40
0.812500000000002
40
0.812500000000002
40
0.843750000000002
40
0.843750000000002
40
0.875000000000001
40
0.875000000000001
40
0.937500000000001
40
0.937500000000001
40
0.96875
40
0.96875
40
1
40
1
40
1
40
1
41
1
10
14.4102950435631
20
2.26889269765229
30
0
41
1
10
14.4187165366326
20
2.25528732697006
30
0
41
1
10
14.4293914191106
20
2.24334265731784
30
0
41
1
10
14.4476663316108
20
2.22705081474163
30
0
41
1
10
14.454169168808
20
2.2218874947896
30
0
41
1
10
14.4676683281506
20
2.21218202872637
30
0
41
1
10
14.4746822022462
20
2.20762171462866
30
0
41
1
10
14.4964144992983
20
2.19468985084529
30
0
41
1
10
14.5117868633588
20
2.1870861386576
30
0
41
1
10
14.5436070210722
20
2.17362792068423
30
0
41
1
10
14.560088787268
20
2.16776134664315
30
0
41
1
10
14.5937837678872
20
2.15754941951809
30
0
41
1
10
14.6110089744473
20
2.15320272561564
30
0
41
1
10
14.6458716717152
20
2.14589824254881
30
0
41
1
10
14.6635716363589
20
2.14292676695402
30
0
41
1
10
14.7172410258913
20
2.13593464769332
30
0
41
1
10
14.7535900001809
20
2.13384256551416
30
0
41
1
10
14.8263449802046
20
2.13454245888795
30
0
41
1
10
14.8621544975359
20
2.13730619641126
30
0
41
1
10
14.9150171920916
20
2.14516992200032
30
0
41
1
10
14.9324947251949
20
2.14841882974156
30
0
41
1
10
14.9671401799712
20
2.15631438679617
30
0
41
1
10
14.9843639887545
20
2.16098488092064
30
0
41
1
10
15.0177280455368
20
2.17173670918623
30
0
41
1
10
15.033952082322
20
2.1778288527388
30
0
41
1
10
15.057500565225
20
2.18825536200774
30
0
41
1
10
15.0652180109356
20
2.19194699382757
30
0
41
1
10
15.0803576510236
20
2.19982414965273
30
0
41
1
10
15.0878071214772
20
2.20402717989265
30
0
41
1
10
15.1093706424971
20
2.21733815373511
30
0
41
1
10
15.122751871933
20
2.22713338828584
30
0
41
1
10
15.1408278492045
20
2.24374789247088
30
0
41
1
10
15.1465436730719
20
2.24964429502091
30
0
41
1
10
15.1569763013631
20
2.26207300481013
30
0
41
1
10
15.161691394408
20
2.26859154122377
30
0
41
1
10
15.1657941788233
20
2.27548583872175
30
0
0
SPLINE
5
106
100
AcDbEntity
8
1
62
256
6
ByLayer
370
18
48
1
60
0
100
AcDbSpline
70
4
71
3
72
31
73
27
40
0
40
0
40
0
40
0
40
0.249999999999999
40
0.249999999999999
40
0.374999999999998
40
0.374999999999998
40
0.499999999999998
40
0.499999999999998
40
0.562499999999997
40
0.562499999999997
40
0.624999999999996
40
0.624999999999996
40
0.687499999999995
40
0.687499999999995
40
0.749999999999994
40
0.749999999999994
40
0.781249999999994
40
0.781249999999994
40
0.812499999999995
40
0.843749999999995
40
0.843749999999995
40
0.874999999999995
40
0.874999999999995
40
0.937499999999998
40
0.937499999999998
40
1
40
1
40
1
40
1
41
1
10
16.4768449647393
20
0.858564215531601
30
0
41
1
10
16.4764590368862
20
0.902787167248277
30
0
41
1
10
16.472486430001
20
0.947168178774405
30
0
41
1
10
16.4605151585532
20
1.01243696139034
30
0
41
1
10
16.4555061769588
20
1.03400823437164
30
0
41
1
10
16.4431468872709
20
1.07636182584866
30
0
41
1
10
16.4357958276485
20
1.09717062214065
30
0
41
1
10
16.4226034205467
20
1.12730923674962
30
0
41
1
10
16.4178325951724
20
1.13719345206277
30
0
41
1
10
16.4074902611942
20
1.15639761033197
30
0
41
1
10
16.4018844214493
20
1.16577706544507
30
0
41
1
10
16.3898177740787
20
1.18366046367208
30
0
41
1
10
16.38337655158
20
1.19214696891805
30
0
41
1
10
16.3695110835018
20
1.20800514404135
30
0
41
1
10
16.3620899915237
20
1.21538056455159
30
0
41
1
10
16.35000372163
20
1.22534485371068
30
0
41
1
10
16.3457843564756
20
1.22850042782079
30
0
41
1
10
16.3371413570918
20
1.23425716475401
30
0
41
1
10
16.3283037758407
20
1.23946306013636
30
0
41
1
10
16.3190502873455
20
1.24347617794177
30
0
41
1
10
16.3095698657832
20
1.24683101545065
30
0
41
1
10
16.304710565197
20
1.24817294528697
30
0
41
1
10
16.2902318835331
20
1.25103682776978
30
0
41
1
10
16.2805653866307
20
1.25146316790904
30
0
41
1
10
16.2612159356426
20
1.24933967225564
30
0
41
1
10
16.2518929733849
20
1.24682974551365
30
0
41
1
10
16.2429139039458
20
1.24309979471405
30
0
0
SPLINE
5
107
100
AcDbEntity
8
1
62
256
6
ByLayer
370
18
48
1
60
0
100
AcDbSpline
70
4
71
3
72
40
73
36
40
0
40
0
40
0
40
0
40
0.0625000000000002
40
0.0625000000000002
40
0.0937499999999995
40
0.0937499999999995
40
0.124999999999999
40
0.124999999999999
40
0.187499999999999
40
0.187499999999999
40
0.249999999999999
40
0.249999999999999
40
0.312499999999999
40
0.312499999999999
40
0.374999999999999
40
0.374999999999999
40
0.499999999999999
40
0.499999999999999
40
0.562499999999999
40
0.562499999999999
40
0.624999999999999
40
0.624999999999999
40
0.687499999999999
40
0.687499999999999
40
0.749999999999999
40
0.749999999999999
40
0.812499999999999
40
0.812499999999999
40
0.875
40
0.875
40
0.90625
40
0.90625
40
0.9375
40
0.9375
40
1
40
1
40
1
40
1
41
1
10
16.2229108364779
20
1.24336402470783
30
0
41
1
10
16.2069298897285
20
1.24357512460375
30
0
41
1
10
16.1912112665838
20
1.24656679588838
30
0
41
1
10
16.1678606696208
20
1.25382544532886
30
0
41
1
10
16.1600941893294
20
1.25673423213078
30
0
41
1
10
16.1448384807354
20
1.26329371475219
30
0
41
1
10
16.1373249721694
20
1.26694995654191
30
0
41
1
10
16.1150703644972
20
1.27889481644564
30
0
41
1
10
16.1006490434299
20
1.28813847106596
30
0
41
1
10
16.0727509455077
20
1.30844534778203
30
0
41
1
10
16.0592451433604
20
1.31953229709069
30
0
41
1
10
16.0331597991665
20
1.34311399658577
30
0
41
1
10
16.0205714851072
20
1.35561964603448
30
0
41
1
10
15.9963720611259
20
1.38169736663986
30
0
41
1
10
15.9847126867315
20
1.3953212901302
30
0
41
1
10
15.9511128622266
20
1.43763461418365
30
0
41
1
10
15.9307531962694
20
1.46743825198183
30
0
41
1
10
15.9030827864274
20
1.51440346457292
30
0
41
1
10
15.8944204493752
20
1.53031267695224
30
0
41
1
10
15.8782262646483
20
1.56264148428272
30
0
41
1
10
15.8706769390161
20
1.57910418453889
30
0
41
1
10
15.8568793598979
20
1.61233706270735
30
0
41
1
10
15.8506305361701
20
1.6290960076106
30
0
41
1
10
15.8395416653853
20
1.66293681595533
30
0
41
1
10
15.8347015752184
20
1.68003368605133
30
0
41
1
10
15.8267373500135
20
1.71421059681245
30
0
41
1
10
15.8235868534947
20
1.73138424344199
30
0
41
1
10
15.8193444703392
20
1.76563494174758
30
0
41
1
10
15.8182486276927
20
1.78266587641667
30
0
41
1
10
15.8185836594946
20
1.80798058780704
30
0
41
1
10
15.8190274437142
20
1.81633529572872
30
0
41
1
10
15.8206823852607
20
1.83285990604918
30
0
41
1
10
15.8219002719615
20
1.84106160189782
30
0
41
1
10
15.8268785321285
20
1.86506150056471
30
0
41
1
10
15.8318920556806
20
1.88027618991271
30
0
41
1
10
15.8394514411909
20
1.89434889784559
30
0
0
SPLINE
5
108
100
AcDbEntity
8
1
62
256
6
ByLayer
370
18
48
1
60
0
100
AcDbSpline
70
4
71
3
72
8
73
4
40
0
40
0
40
0
40
0
40
1
40
1
40
1
40
1
41
1
10
16.2429139039458
20
1.24309979471405
30
0
41
1
10
16.2362470774557
20
1.24318785998327
30
0
41
1
10
16.229579399366
20
1.24327593650168
30
0
41
1
10
16.2229108364779
20
1.24336402470783
30
0
0
SPLINE
5
109
100
AcDbEntity
8
1
62
256
6
ByLayer
370
18
48
1
60
0
100
AcDbSpline
70
4
71
3
72
32
73
28
40
0
40
0
40
0
40
0
40
0.0624999999999987
40
0.0624999999999987
40
0.124999999999998
40
0.124999999999998
40
0.156249999999997
40
0.156249999999997
40
0.187499999999996
40
0.187499999999996
40
0.249999999999997
40
0.249999999999997
40
0.312499999999997
40
0.312499999999997
40
0.374999999999998
40
0.374999999999998
40
0.437499999999998
40
0.437499999999998
40
0.499999999999999
40
0.499999999999999
40
0.624999999999999
40
0.624999999999999
40
0.749999999999999
40
0.749999999999999
40
0.875
40
0.875
40
1
40
1
40
1
40
1
41
1
10
15.8489180199741
20
1.91197207609923
30
0
41
1
10
15.8565051388891
20
1.91799456025893
30
0
41
1
10
15.8631350071953
20
1.92484938141632
30
0
41
1
10
15.8742340385759
20
1.94043707760096
30
0
41
1
10
15.8786997848066
20
1.94929472821121
30
0
41
1
10
15.8832274711324
20
1.96324297176057
30
0
41
1
10
15.8844006578944
20
1.96802842023499
30
0
41
1
10
15.8860934126154
20
1.97786156046277
30
0
41
1
10
15.8866121588784
20
1.98294249759726
30
0
41
1
10
15.88719947181
20
1.99822354431973
30
0
41
1
10
15.8863360644098
20
2.00850788590958
30
0
41
1
10
15.8825638924069
20
2.02921779533483
30
0
41
1
10
15.8796952945844
20
2.03940910650658
30
0
41
1
10
15.8725222237365
20
2.05936337239007
30
0
41
1
10
15.8682063044782
20
2.06915876013693
30
0
41
1
10
15.8583912411218
20
2.08844487783392
30
0
41
1
10
15.8529102281669
20
2.09788838202348
30
0
41
1
10
15.8411401220778
20
2.11623386793417
30
0
41
1
10
15.8348311016748
20
2.12517208923055
30
0
41
1
10
15.8148283905541
20
2.15138426990575
30
0
41
1
10
15.8002076576258
20
2.16788661479302
30
0
41
1
10
15.7691102272917
20
2.19927985681119
30
0
41
1
10
15.7526752633953
20
2.21411524880926
30
0
41
1
10
15.7184479367644
20
2.24222164079026
30
0
41
1
10
15.7006522440665
20
2.25548854895862
30
0
41
1
10
15.664053999427
20
2.28043280419354
30
0
41
1
10
15.6452665541865
20
2.29210317810731
30
0
41
1
10
15.6260076530719
20
2.30299934009577
30
0
0
SPLINE
5
10A
100
AcDbEntity
8
1
62
256
6
ByLayer
370
18
48
1
60
0
100
AcDbSpline
70
4
71
3
72
8
73
4
40
0
40
0
40
0
40
0
40
1
40
1
40
1
40
1
41
1
10
15.8394514411909
20
1.89434889784559
30
0
41
1
10
15.8426073809512
20
1.90022406037553
30
0
41
1
10
15.8457629019751
20
1.90609844337706
30
0
41
1
10
15.8489180199741
20
1.91197207609923
30
0
0
SPLINE
5
10B
100
AcDbEntity
8
1
62
256
6
ByLayer
370
18
48
1
60
0
100
AcDbSpline
70
4
71
3
72
32
73
28
40
0
40
0
40
0
40
0
40
0.0624999999999972
40
0.0624999999999972
40
0.124999999999994
40
0.124999999999994
40
0.156249999999993
40
0.156249999999993
40
0.187499999999993
40
0.187499999999993
40
0.249999999999993
40
0.249999999999993
40
0.312499999999993
40
0.312499999999993
40
0.374999999999993
40
0.374999999999993
40
0.437499999999994
40
0.437499999999994
40
0.499999999999994
40
0.499999999999994
40
0.624999999999996
40
0.624999999999996
40
0.749999999999997
40
0.749999999999997
40
0.874999999999999
40
0.874999999999999
40
1
40
1
40
1
40
1
41
1
10
13.7520995738548
20
-0.22410197325496
30
0
41
1
10
13.7445124549398
20
-0.230124457414718
30
0
41
1
10
13.7378825866335
20
-0.236979278572107
30
0
41
1
10
13.7267835552531
20
-0.252566974756689
30
0
41
1
10
13.7223178090222
20
-0.261424625366999
30
0
41
1
10
13.7177901226964
20
-0.275372868916293
30
0
41
1
10
13.7166169359345
20
-0.280158317390772
30
0
41
1
10
13.7149241812134
20
-0.289991457618555
30
0
41
1
10
13.7144054349504
20
-0.295072394753049
30
0
41
1
10
13.7138181220189
20
-0.310353441475456
30
0
41
1
10
13.7146815294191
20
-0.320637783065308
30
0
41
1
10
13.7184537014219
20
-0.341347692490615
30
0
41
1
10
13.7213222992444
20
-0.351539003662367
30
0
41
1
10
13.7284953700923
20
-0.371493269545851
30
0
41
1
10
13.7328112893507
20
-0.381288657292657
30
0
41
1
10
13.742626352707
20
-0.40057477498965
30
0
41
1
10
13.748107365662
20
-0.410018279179269
30
0
41
1
10
13.759877471751
20
-0.428363765089955
30
0
41
1
10
13.7661864921541
20
-0.437301986386274
30
0
41
1
10
13.7861892032748
20
-0.463514167061533
30
0
41
1
10
13.8008099362031
20
-0.480016511948747
30
0
41
1
10
13.8319073665373
20
-0.511409753966973
30
0
41
1
10
13.8483423304335
20
-0.526245145965049
30
0
41
1
10
13.8825696570646
20
-0.554351537946047
30
0
41
1
10
13.9003653497624
20
-0.567618446114409
30
0
41
1
10
13.936963594402
20
-0.592562701349266
30
0
41
1
10
13.9557510396425
20
-0.604233075263096
30
0
41
1
10
13.975009940757
20
-0.615129237251551
30
0
0
SPLINE
5
10C
100
AcDbEntity
8
1
62
256
6
ByLayer
370
18
48
1
60
0
100
AcDbSpline
70
4
71
3
72
40
73
36
40
0
40
0
40
0
40
0
40
0.0625000000000014
40
0.0625000000000014
40
0.0937500000000017
40
0.0937500000000017
40
0.125000000000002
40
0.125000000000002
40
0.187500000000002
40
0.187500000000002
40
0.250000000000002
40
0.250000000000002
40
0.312500000000001
40
0.312500000000001
40
0.375000000000001
40
0.375000000000001
40
0.500000000000001
40
0.500000000000001
40
0.562500000000001
40
0.562500000000001
40
0.625000000000001
40
0.625000000000001
40
0.6875
40
0.6875
40
0.75
40
0.75
40
0.8125
40
0.8125
40
0.875
40
0.875
40
0.90625
40
0.90625
40
0.9375
40
0.9375
40
1
40
1
40
1
40
1
41
1
10
13.378106757351
20
0.444506078136442
30
0
41
1
10
13.3940877041003
20
0.444294978240521
30
0
41
1
10
13.4098063272451
20
0.441303306955831
30
0
41
1
10
13.4331569242081
20
0.434044657515415
30
0
41
1
10
13.4409234044995
20
0.431135870713433
30
0
41
1
10
13.4561791130934
20
0.424576388092078
30
0
41
1
10
13.4636926216596
20
0.420920146302308
30
0
41
1
10
13.4859472293316
20
0.408975286398629
30
0
41
1
10
13.500368550399
20
0.399731631778252
30
0
41
1
10
13.5282666483213
20
0.379424755062246
30
0
41
1
10
13.5417724504686
20
0.368337805753526
30
0
41
1
10
13.5678577946625
20
0.344756106258444
30
0
41
1
10
13.5804461087216
20
0.332250456809788
30
0
41
1
10
13.604645532703
20
0.30617273620436
30
0
41
1
10
13.6163049070973
20
0.292548812714017
30
0
41
1
10
13.6499047316023
20
0.250235488660564
30
0
41
1
10
13.6702643975595
20
0.22043185086244
30
0
41
1
10
13.6979348074015
20
0.17346663827135
30
0
41
1
10
13.7065971444538
20
0.157557425892037
30
0
41
1
10
13.7227913291806
20
0.125228618561494
30
0
41
1
10
13.7303406548128
20
0.10876591830538
30
0
41
1
10
13.7441382339309
20
0.075533040136861
30
0
41
1
10
13.7503870576588
20
0.0587740952336731
30
0
41
1
10
13.7614759284436
20
0.0249332868889383
30
0
41
1
10
13.7663160186104
20
0.0078364167928839
30
0
41
1
10
13.7742802438155
20
-0.0263404939681777
30
0
41
1
10
13.7774307403342
20
-0.043514140597722
30
0
41
1
10
13.7816731234898
20
-0.0777648389033061
30
0
41
1
10
13.7827689661361
20
-0.0947957735724003
30
0
41
1
10
13.7824339343342
20
-0.120110484962765
30
0
41
1
10
13.7819901501147
20
-0.128465192884505
30
0
41
1
10
13.7803352085681
20
-0.144989803204908
30
0
41
1
10
13.7791173218674
20
-0.153191499053548
30
0
41
1
10
13.7741390617005
20
-0.177191397720435
30
0
41
1
10
13.7691255381484
20
-0.192406087068491
30
0
41
1
10
13.7615661526379
20
-0.206478795001317
30
0
0
SPLINE
5
10D
100
AcDbEntity
8
1
62
256
6
ByLayer
370
18
48
1
60
0
100
AcDbSpline
70
4
71
3
72
8
73
4
40
0
40
0
40
0
40
0
40
1
40
1
40
1
40
1
41
1
10
13.358103689883
20
0.444770308130217
30
0
41
1
10
13.3647705163733
20
0.444682242860949
30
0
41
1
10
13.3714381944629
20
0.44459416634254
30
0
41
1
10
13.378106757351
20
0.444506078136442
30
0
0
SPLINE
5
10E
100
AcDbEntity
8
1
62
256
6
ByLayer
370
18
48
1
60
0
100
AcDbSpline
70
4
71
3
72
31
73
27
40
0
40
0
40
0
40
0
40
0.25
40
0.25
40
0.375
40
0.375
40
0.5
40
0.5
40
0.5625
40
0.5625
40
0.624999999999999
40
0.624999999999999
40
0.687499999999999
40
0.687499999999999
40
0.749999999999998
40
0.749999999999998
40
0.781249999999999
40
0.781249999999999
40
0.812499999999999
40
0.843749999999999
40
0.843749999999999
40
0.874999999999999
40
0.874999999999999
40
0.9375
40
0.9375
40
1
40
1
40
1
40
1
41
1
10
13.1241726290897
20
0.829305887312671
30
0
41
1
10
13.1245585569426
20
0.785082935595995
30
0
41
1
10
13.1285311638278
20
0.740701924069867
30
0
41
1
10
13.1405024352757
20
0.675433141453937
30
0
41
1
10
13.1455114168701
20
0.653861868472575
30
0
41
1
10
13.157870706558
20
0.611508276995608
30
0
41
1
10
13.1652217661804
20
0.590699480703563
30
0
41
1
10
13.1784141732823
20
0.56056086609459
30
0
41
1
10
13.1831849986564
20
0.550676650781497
30
0
41
1
10
13.1935273326347
20
0.53147249251225
30
0
41
1
10
13.1991331723797
20
0.522093037399202
30
0
41
1
10
13.2111998197502
20
0.504209639172188
30
0
41
1
10
13.2176410422489
20
0.495723133926219
30
0
41
1
10
13.2315065103271
20
0.479864958802921
30
0
41
1
10
13.2389276023052
20
0.472489538292677
30
0
41
1
10
13.2510138721989
20
0.462525249133534
30
0
41
1
10
13.2552332373533
20
0.459369675023481
30
0
41
1
10
13.2638762367371
20
0.453612938090202
30
0
41
1
10
13.2727137566936
20
0.448406862573563
30
0
41
1
10
13.2819673064835
20
0.444393924902499
30
0
41
1
10
13.2914477280458
20
0.441039087393619
30
0
41
1
10
13.2963070286319
20
0.439697157557305
30
0
41
1
10
13.3107857102958
20
0.436833275074491
30
0
41
1
10
13.3204522071983
20
0.436406934935235
30
0
41
1
10
13.3398016581864
20
0.438530430588628
30
0
41
1
10
13.3491246204441
20
0.441040357330564
30
0
41
1
10
13.358103689883
20
0.444770308130217
30
0
0
SPLINE
5
10F
100
AcDbEntity
8
1
62
256
6
ByLayer
370
18
48
1
60
0
100
AcDbSpline
70
4
71
3
72
8
73
4
40
0
40
0
40
0
40
0
40
1
40
1
40
1
40
1
41
1
10
13.7615661526379
20
-0.206478795001317
30
0
41
1
10
13.7584102128776
20
-0.212353957531263
30
0
41
1
10
13.7552546918538
20
-0.218228340532846
30
0
41
1
10
13.7520995738548
20
-0.22410197325496
30
0
0
SPLINE
5
110
100
AcDbEntity
8
1
62
256
6
ByLayer
370
18
48
1
60
0
100
AcDbSpline
70
4
71
3
72
40
73
36
40
0
40
0
40
0
40
0
40
0.0625000000000005
40
0.0625000000000005
40
0.09375
40
0.09375
40
0.125
40
0.125
40
0.1875
40
0.1875
40
0.25
40
0.25
40
0.3125
40
0.3125
40
0.375
40
0.375
40
0.500000000000001
40
0.500000000000001
40
0.562500000000001
40
0.562500000000001
40
0.625000000000001
40
0.625000000000001
40
0.687500000000001
40
0.687500000000001
40
0.750000000000001
40
0.750000000000001
40
0.812500000000001
40
0.812500000000001
40
0.875000000000001
40
0.875000000000001
40
0.906250000000001
40
0.906250000000001
40
0.937500000000001
40
0.937500000000001
40
1
40
1
40
1
40
1
41
1
10
14.4352234150057
20
-0.587615735877478
30
0
41
1
10
14.443396706253
20
-0.57388137996395
30
0
41
1
10
14.4538468811576
20
-0.561764488650454
30
0
41
1
10
14.4718083544517
20
-0.545171603207223
30
0
41
1
10
14.4782106778621
20
-0.539900027377769
30
0
41
1
10
14.4915192107448
20
-0.529967937493439
30
0
41
1
10
14.4984423633002
20
-0.525289169098471
30
0
41
1
10
14.5199142192575
20
-0.511988543455061
30
0
41
1
10
14.5351301195162
20
-0.504121140364759
30
0
41
1
10
14.566665439585
20
-0.490114117204826
30
0
41
1
10
14.5830199204104
20
-0.483961224101165
30
0
41
1
10
14.6164849433345
20
-0.473161503110248
30
0
41
1
10
14.6336093104775
20
-0.468512528068573
30
0
41
1
10
14.6682929909853
20
-0.46059407244644
30
0
41
1
10
14.6859213420242
20
-0.457308719773891
30
0
41
1
10
14.7393656678256
20
-0.449367080216632
30
0
41
1
10
14.7753562082626
20
-0.446636911184157
30
0
41
1
10
14.8298644803816
20
-0.446156239623463
30
0
41
1
10
14.8479734309824
20
-0.446609041869692
30
0
41
1
10
14.8840680917681
20
-0.448748870167947
30
0
41
1
10
14.9020998712209
20
-0.450442312517111
30
0
41
1
10
14.9377791775148
20
-0.455109697574301
30
0
41
1
10
14.9554172614055
20
-0.458077529933803
30
0
41
1
10
14.990268696509
20
-0.465394690307278
30
0
41
1
10
15.0074950654208
20
-0.469751484314202
30
0
41
1
10
15.0410752509653
20
-0.479942718345683
30
0
41
1
10
15.0575233134815
20
-0.485801131640699
30
0
41
1
10
15.0893064798893
20
-0.499252469208216
30
0
41
1
10
15.1046036232862
20
-0.506818908972434
30
0
41
1
10
15.1263592905386
20
-0.519766410719114
30
0
41
1
10
15.1333727877303
20
-0.524328093087945
30
0
41
1
10
15.1468560492822
20
-0.534023619669256
30
0
41
1
10
15.1533499828909
20
-0.539179188415346
30
0
41
1
10
15.1716453747412
20
-0.555490437520007
30
0
41
1
10
15.1823149204512
20
-0.567439620952598
30
0
41
1
10
15.1907225502658
20
-0.581022594808019
30
0
0
SPLINE
5
111
100
AcDbEntity
8
1
62
256
6
ByLayer
370
18
48
1
60
0
100
AcDbSpline
70
4
71
3
72
8
73
4
40
0
40
0
40
0
40
0
40
1
40
1
40
1
40
1
41
1
10
14.4249930513846
20
-0.604806785461449
30
0
41
1
10
14.4284027313901
20
-0.599077176992921
30
0
41
1
10
14.4318128469373
20
-0.59334683664224
30
0
41
1
10
14.4352234150057
20
-0.587615735877478
30
0
0
SPLINE
5
112
100
AcDbEntity
8
1
62
256
6
ByLayer
370
18
48
1
60
0
100
AcDbSpline
70
4
71
3
72
31
73
27
40
0
40
0
40
0
40
0
40
0.249999999999999
40
0.249999999999999
40
0.374999999999998
40
0.374999999999998
40
0.499999999999996
40
0.499999999999996
40
0.562499999999995
40
0.562499999999995
40
0.624999999999994
40
0.624999999999994
40
0.687499999999993
40
0.687499999999993
40
0.749999999999992
40
0.749999999999992
40
0.781249999999993
40
0.781249999999993
40
0.812499999999994
40
0.843749999999994
40
0.843749999999994
40
0.874999999999995
40
0.874999999999995
40
0.937499999999998
40
0.937499999999998
40
1
40
1
40
1
40
1
41
1
10
13.975009940757
20
-0.615129237251551
30
0
41
1
10
14.0135011043004
20
-0.63690648978519
30
0
41
1
10
14.0539224911703
20
-0.655656617066427
30
0
41
1
10
14.1164325507137
20
-0.677923583184906
30
0
41
1
10
14.1376183119047
20
-0.684371314367752
30
0
41
1
10
14.1804772429093
20
-0.694844651263793
30
0
41
1
10
14.2021737189316
20
-0.698882845032074
30
0
41
1
10
14.2348707283687
20
-0.702527192649256
30
0
41
1
10
14.2458161226134
20
-0.703337644334738
30
0
41
1
10
14.2676185785221
20
-0.703982999509776
30
0
41
1
10
14.278544344796
20
-0.703817927437683
30
0
41
1
10
14.300065145652
20
-0.702309603389722
30
0
41
1
10
14.3106352860336
20
-0.700974593697424
30
0
41
1
10
14.3313016025871
20
-0.696895833668009
30
0
41
1
10
14.3413994501017
20
-0.694156689746251
30
0
41
1
10
14.356071912591
20
-0.688671817560873
30
0
41
1
10
14.3609144025111
20
-0.686595527204361
30
0
41
1
10
14.3702213826301
20
-0.681988838639711
30
0
41
1
10
14.3791486109061
20
-0.676938216459405
30
0
41
1
10
14.3872508171216
20
-0.670931019251611
30
0
41
1
10
14.3948964024111
20
-0.66439815209452
30
0
41
1
10
14.3984881980324
20
-0.660860839260465
30
0
41
1
10
14.4082077338479
20
-0.649753874367661
30
0
41
1
10
14.4134102036904
20
-0.641595612554113
30
0
41
1
10
14.4212459280038
20
-0.623776748622447
30
0
41
1
10
14.4237337488125
20
-0.61444786309778
30
0
41
1
10
14.4249930513846
20
-0.604806785461449
30
0
0
SPLINE
5
113
100
AcDbEntity
8
1
62
256
6
ByLayer
370
18
48
1
60
0
100
AcDbSpline
70
4
71
3
72
32
73
28
40
0
40
0
40
0
40
0
40
0.0625000000000007
40
0.0625000000000007
40
0.125000000000001
40
0.125000000000001
40
0.156250000000002
40
0.156250000000002
40
0.187500000000002
40
0.187500000000002
40
0.250000000000002
40
0.250000000000002
40
0.312500000000002
40
0.312500000000002
40
0.375000000000002
40
0.375000000000002
40
0.437500000000002
40
0.437500000000002
40
0.500000000000002
40
0.500000000000002
40
0.625000000000001
40
0.625000000000001
40
0.750000000000001
40
0.750000000000001
40
0.875
40
0.875
40
1
40
1
40
1
40
1
41
1
10
15.2012513809374
20
-0.598032481647977
30
0
41
1
10
15.2026734457561
20
-0.607614361449805
30
0
41
1
10
15.2052949608636
20
-0.616783406405432
30
0
41
1
10
15.2132447860557
20
-0.634189297630655
30
0
41
1
10
15.2186828633867
20
-0.642485572618511
30
0
41
1
10
15.2284985534757
20
-0.653380785771674
30
0
41
1
10
15.2320562800421
20
-0.656789519548056
30
0
41
1
10
15.2397256519178
20
-0.663172058252826
30
0
41
1
10
15.2438664994198
20
-0.66616177426198
30
0
41
1
10
15.256806617612
20
-0.674310925541931
30
0
41
1
10
15.2661448223902
20
-0.678705363594418
30
0
41
1
10
15.2859662160639
20
-0.685793521525113
30
0
41
1
10
15.2962264493478
20
-0.688404898523515
30
0
41
1
10
15.3170938859407
20
-0.692169969887743
30
0
41
1
10
15.3277349001986
20
-0.693329968042804
30
0
41
1
10
15.3493446997427
20
-0.69447293268496
30
0
41
1
10
15.3602635207491
20
-0.694447988322338
30
0
41
1
10
15.382036230637
20
-0.693427520399268
30
0
41
1
10
15.3929314675459
20
-0.692432859105395
30
0
41
1
10
15.4256332374596
20
-0.688216093467929
30
0
41
1
10
15.4472350538181
20
-0.683805339773755
30
0
41
1
10
15.48997111408
20
-0.672570796121022
30
0
41
1
10
15.5110364223736
20
-0.665755395875578
30
0
41
1
10
15.5524909351534
20
-0.650166857500039
30
0
41
1
10
15.5728782610058
20
-0.641388789629957
30
0
41
1
10
15.6127797420374
20
-0.622165907655585
30
0
41
1
10
15.6322803049387
20
-0.611730689762055
30
0
41
1
10
15.6513461085817
20
-0.60050007314203
30
0
0
SPLINE
5
114
100
AcDbEntity
8
1
62
256
6
ByLayer
370
18
48
1
60
0
100
AcDbSpline
70
4
71
3
72
8
73
4
40
0
40
0
40
0
40
0
40
1
40
1
40
1
40
1
41
1
10
15.1907225502658
20
-0.581022594808019
30
0
41
1
10
15.194232620388
20
-0.586693300078252
30
0
41
1
10
15.197742224787
20
-0.592363252947848
30
0
41
1
10
15.2012513809374
20
-0.598032481647977
30
0
0
SPLINE
5
115
100
AcDbEntity
8
SK1
62
256
6
ByLayer
370
13
48
1
60
0
100
AcDbSpline
70
4
71
3
72
8
73
4
40
0
40
0
40
0
40
0
40
1
40
1
40
1
40
1
41
1
10
-16.5
20
1.38867513459479
30
0
41
1
10
-16.4594309401982
20
1.36525257699748
30
0
41
1
10
-16.4180043020195
20
1.34133489629346
30
0
41
1
10
-16.3758834272551
20
1.31701639790964
30
0
0
SPLINE
5
116
100
AcDbEntity
8
SK1
62
256
6
ByLayer
370
13
48
1
60
0
100
AcDbSpline
70
4
71
3
72
8
73
4
40
0
40
0
40
0
40
0
40
1
40
1
40
1
40
1
41
1
10
-16.3758834272551
20
-1.3170163979097
30
0
41
1
10
-16.4180043020195
20
-1.34133489629346
30
0
41
1
10
-16.4594309401982
20
-1.36525257699748
30
0
41
1
10
-16.5
20
-1.38867513459485
30
0
0
SPLINE
5
117
100
AcDbEntity
8
SK1
62
256
6
ByLayer
370
13
48
1
60
0
100
AcDbSpline
70
4
71
3
72
31
73
27
40
0
40
0
40
0
40
0
40
0.124999999999993
40
0.124999999999993
40
0.18749999999999
40
0.18749999999999
40
0.249999999999987
40
0.249999999999987
40
0.37499999999998
40
0.37499999999998
40
0.406249999999978
40
0.406249999999978
40
0.437499999999976
40
0.437499999999976
40
0.499999999999978
40
0.499999999999978
40
0.624999999999986
40
0.624999999999986
40
0.687499999999988
40
0.687499999999988
40
0.74999999999999
40
0.812499999999992
40
0.812499999999992
40
0.874999999999994
40
0.874999999999994
40
1
40
1
40
1
40
1
41
1
10
-11.5663240377406
20
0.49996000494707
30
0
41
1
10
-11.5329868618976
20
0.50038168979404
30
0
41
1
10
-11.5001792241886
20
0.497495227264324
30
0
41
1
10
-11.4517275055562
20
0.488412810580598
30
0
41
1
10
-11.4357044948276
20
0.484587201785416
30
0
41
1
10
-11.4039190131032
20
0.47530290791201
30
0
41
1
10
-11.3881371089909
20
0.469824866654335
30
0
41
1
10
-11.3422351924068
20
0.451295383429567
30
0
41
1
10
-11.313184431977
20
0.436079802215886
30
0
41
1
10
-11.2787847435687
20
0.413504171028251
30
0
41
1
10
-11.2720013760736
20
0.408809579973422
30
0
41
1
10
-11.2586307804128
20
0.399055226186704
30
0
41
1
10
-11.2520297638554
20
0.393983269381238
30
0
41
1
10
-11.2327258312733
20
0.378372237482722
30
0
41
1
10
-11.2204654560573
20
0.367403177195172
30
0
41
1
10
-11.1854565104799
20
0.332854891854765
30
0
41
1
10
-11.1644624466516
20
0.307650993415734
30
0
41
1
10
-11.1365951282996
20
0.266464044638269
30
0
41
1
10
-11.1279881954019
20
0.252262648293026
30
0
41
1
10
-11.1123403777285
20
0.223319290755626
30
0
41
1
10
-11.0981799369559
20
0.193720978127772
30
0
41
1
10
-11.0869653767973
20
0.162821695526816
30
0
41
1
10
-11.0772534807384
20
0.131257218558176
30
0
41
1
10
-11.0731370875449
20
0.115064293799776
30
0
41
1
10
-11.0633015135843
20
0.0662703743778366
30
0
41
1
10
-11.06
20
0.0333392478283372
30
0
41
1
10
-11.06
20
-1.137E-13
30
0
0
SPLINE
5
118
100
AcDbEntity
8
SK1
62
256
6
ByLayer
370
13
48
1
60
0
100
AcDbSpline
70
4
71
3
72
31
73
27
40
0
40
0
40
0
40
0
40
0.124999999999992
40
0.124999999999992
40
0.187499999999987
40
0.187499999999987
40
0.249999999999982
40
0.249999999999982
40
0.374999999999973
40
0.374999999999973
40
0.406249999999973
40
0.406249999999973
40
0.437499999999974
40
0.437499999999974
40
0.499999999999975
40
0.499999999999975
40
0.624999999999981
40
0.624999999999981
40
0.687499999999984
40
0.687499999999984
40
0.749999999999987
40
0.81249999999999
40
0.81249999999999
40
0.874999999999994
40
0.874999999999994
40
1
40
1
40
1
40
1
41
1
10
-11.06
20
-1.137E-13
30
0
41
1
10
-11.0600000000001
20
-0.0333398988911995
30
0
41
1
10
-11.06330118518
20
-0.06610753092599
30
0
41
1
10
-11.0729949748865
20
-0.114438127765027
30
0
41
1
10
-11.0770225791442
20
-0.130410500718369
30
0
41
1
10
-11.0867070812835
20
-0.16207375125839
30
0
41
1
10
-11.0923838138951
20
-0.177784536635272
30
0
41
1
10
-11.1114909599715
20
-0.223447078539948
30
0
41
1
10
-11.1270715098583
20
-0.252302025114375
30
0
41
1
10
-11.1500781883136
20
-0.286411976258933
30
0
41
1
10
-11.1548577187658
20
-0.293135127296807
30
0
41
1
10
-11.1647793629139
20
-0.306380676479762
30
0
41
1
10
-11.169934083031
20
-0.312917029792288
30
0
41
1
10
-11.1857879477035
20
-0.33202302386411
30
0
41
1
10
-11.1969110907917
20
-0.344144228780294
30
0
41
1
10
-11.2318987857885
20
-0.378714692088863
30
0
41
1
10
-11.2573653917788
20
-0.39938867440469
30
0
41
1
10
-11.2988993665692
20
-0.426733188369553
30
0
41
1
10
-11.3132107173304
20
-0.435161735266377
30
0
41
1
10
-11.3423516374543
20
-0.450444087719859
30
0
41
1
10
-11.3721282467884
20
-0.464230397569338
30
0
41
1
10
-11.4031675518659
20
-0.475053941039221
30
0
41
1
10
-11.434852466644
20
-0.484366347488674
30
0
41
1
10
-11.4510964183509
20
-0.48827794223655
30
0
41
1
10
-11.5000153408611
20
-0.497496931197702
30
0
41
1
10
-11.5329872831219
20
-0.500381684465992
30
0
41
1
10
-11.5663240377406
20
-0.49996000494707
30
0
0
SPLINE
5
119
100
AcDbEntity
8
SK1
62
256
6
ByLayer
370
13
48
1
60
0
100
AcDbSpline
70
4
71
3
72
8
73
4
40
0
40
0
40
0
40
0
40
1
40
1
40
1
40
1
41
1
10
-15.7000000000001
20
1.09999999999997
30
0
41
1
10
-15.581004600505
20
1.09999999999997
30
0
41
1
10
-15.4620044795726
20
1.09999999999997
30
0
41
1
10
-15.343
20
1.09999999999997
30
0
0
SPLINE
5
11A
100
AcDbEntity
8
SK1
62
256
6
ByLayer
370
13
48
1
60
0
100
AcDbSpline
70
4
71
3
72
8
73
4
40
0
40
0
40
0
40
0
40
1
40
1
40
1
40
1
41
1
10
-15.343
20
-1.10000000000002
30
0
41
1
10
-15.4620044825371
20
-1.10000000000002
30
0
41
1
10
-15.5810046315168
20
-1.10000000000002
30
0
41
1
10
-15.7000000000001
20
-1.10000000000002
30
0
0
SPLINE
5
11B
100
AcDbEntity
8
SK1
62
256
6
ByLayer
370
13
48
1
60
0
100
AcDbSpline
70
4
71
3
72
15
73
11
40
0
40
0
40
0
40
0
40
0.250000000000008
40
0.500000000000017
40
0.500000000000017
40
0.625000000000021
40
0.625000000000021
40
0.750000000000025
40
0.750000000000025
40
1
40
1
40
1
40
1
41
1
10
-15.7000000000001
20
-1.10000000000002
30
0
41
1
10
-15.7226072955971
20
-1.10000000000002
30
0
41
1
10
-15.7693398815925
20
-1.10000000000002
30
0
41
1
10
-15.8190375823017
20
-1.10000000000002
30
0
41
1
10
-15.8574791628479
20
-1.10000000000002
30
0
41
1
10
-15.8704021086051
20
-1.10000000000002
30
0
41
1
10
-15.8962113548659
20
-1.10000000000002
30
0
41
1
10
-15.9091364816046
20
-1.10000000000002
30
0
41
1
10
-15.9479727787759
20
-1.10000000000002
30
0
41
1
10
-15.9739444742012
20
-1.10000000000002
30
0
41
1
10
-16
20
-1.10000000000002
30
0
0
SPLINE
5
11C
100
AcDbEntity
8
SK1
62
256
6
ByLayer
370
13
48
1
60
0
100
AcDbSpline
70
4
71
3
72
18
73
14
40
0
40
0
40
0
40
0
40
0.250000000000005
40
0.250000000000005
40
0.375000000000001
40
0.375000000000001
40
0.499999999999996
40
0.499999999999996
40
0.749999999999998
40
0.749999999999998
40
0.874999999999999
40
0.874999999999999
40
1
40
1
40
1
40
1
41
1
10
-16
20
-1.10000000000002
30
0
41
1
10
-16.0403777757342
20
-1.1233121196895
30
0
41
1
10
-16.0786752928954
20
-1.14542320153174
30
0
41
1
10
-16.13335504417
20
-1.17699257064936
30
0
41
1
10
-16.1511148810689
20
-1.18724621726369
30
0
41
1
10
-16.18570142487
20
-1.2072147676376
30
0
41
1
10
-16.2026103497858
20
-1.21697713998941
30
0
41
1
10
-16.2509213249913
20
-1.24486949452915
30
0
41
1
10
-16.280167275864
20
-1.26175465213817
30
0
41
1
10
-16.3196717126782
20
-1.28456254936708
30
0
41
1
10
-16.3321417747405
20
-1.29176214305562
30
0
41
1
10
-16.3553634764804
20
-1.30516919880614
30
0
41
1
10
-16.3660810187175
20
-1.31135697470171
30
0
41
1
10
-16.3758834272553
20
-1.31701639790975
30
0
0
SPLINE
5
11D
100
AcDbEntity
8
SK1
62
256
6
ByLayer
370
13
48
1
60
0
100
AcDbSpline
70
4
71
3
72
18
73
14
40
0
40
0
40
0
40
0
40
0.249999999999984
40
0.249999999999984
40
0.374999999999981
40
0.374999999999981
40
0.499999999999977
40
0.499999999999977
40
0.749999999999981
40
0.749999999999981
40
0.874999999999991
40
0.874999999999991
40
1
40
1
40
1
40
1
41
1
10
-16.3758834272551
20
1.31701639790964
30
0
41
1
10
-16.356268775612
20
1.30569187350341
30
0
41
1
10
-16.3332629802771
20
1.29240947137396
30
0
41
1
10
-16.2940479940688
20
1.26976868853029
30
0
41
1
10
-16.2801833470933
20
1.26176393086678
30
0
41
1
10
-16.2508360593354
20
1.24482026637975
30
0
41
1
10
-16.2352643803385
20
1.23582995331918
30
0
41
1
10
-16.1870128949533
20
1.20797194524323
30
0
41
1
10
-16.1526573378336
20
1.18813675509205
30
0
41
1
10
-16.0977668271984
20
1.15644570400082
30
0
41
1
10
-16.0788868624312
20
1.14554535126018
30
0
41
1
10
-16.0399930401355
20
1.12308999248796
30
0
41
1
10
-16.0201844306105
20
1.11165348644641
30
0
41
1
10
-16
20
1.09999999999997
30
0
0
SPLINE
5
11E
100
AcDbEntity
8
SK1
62
256
6
ByLayer
370
13
48
1
60
0
100
AcDbSpline
70
4
71
3
72
15
73
11
40
0
40
0
40
0
40
0
40
0.249999999999992
40
0.499999999999985
40
0.499999999999985
40
0.624999999999997
40
0.624999999999997
40
0.750000000000009
40
0.750000000000009
40
1
40
1
40
1
40
1
41
1
10
-16
20
1.09999999999997
30
0
41
1
10
-15.9739443427538
20
1.09999999999997
30
0
41
1
10
-15.9220466033726
20
1.09999999999997
30
0
41
1
10
-15.8705586574112
20
1.09999999999997
30
0
41
1
10
-15.832101501776
20
1.09999999999997
30
0
41
1
10
-15.8194102104205
20
1.09999999999997
30
0
41
1
10
-15.7944859149748
20
1.09999999999997
30
0
41
1
10
-15.7822190960173
20
1.09999999999997
30
0
41
1
10
-15.7459941541439
20
1.09999999999997
30
0
41
1
10
-15.7226081173984
20
1.09999999999997
30
0
41
1
10
-15.7000000000001
20
1.09999999999997
30
0
0
SPLINE
5
11F
100
AcDbEntity
8
SK1
62
256
6
ByLayer
370
13
48
1
60
0
100
AcDbSpline
70
4
71
3
72
34
73
30
40
0
40
0
40
0
40
0
40
0.125
40
0.125
40
0.1875
40
0.1875
40
0.25
40
0.25
40
0.375000000000003
40
0.375000000000003
40
0.437500000000007
40
0.437500000000007
40
0.468750000000008
40
0.468750000000008
40
0.50000000000001
40
0.50000000000001
40
0.625000000000008
40
0.625000000000008
40
0.656250000000008
40
0.656250000000008
40
0.687500000000007
40
0.687500000000007
40
0.750000000000006
40
0.750000000000006
40
0.875000000000003
40
0.875000000000003
40
0.937500000000002
40
0.937500000000002
40
1
40
1
40
1
40
1
41
1
10
-13.5
20
1
30
0
41
1
10
-13.4377829367159
20
1
30
0
41
1
10
-13.3766097831688
20
0.994245031444791
30
0
41
1
10
-13.2863350454879
20
0.977386499422778
30
0
41
1
10
-13.2564925070443
20
0.970386682935043
30
0
41
1
10
-13.197310003878
20
0.953585329056068
30
0
41
1
10
-13.167834203573
20
0.943722064425117
30
0
41
1
10
-13.0818044436552
20
0.910436313779371
30
0
41
1
10
-13.0272646459368
20
0.883306566860426
30
0
41
1
10
-12.9494889782059
20
0.835383095587417
30
0
41
1
10
-12.9242405449818
20
0.818195649161225
30
0
41
1
10
-12.8874002523093
20
0.790542419302426
30
0
41
1
10
-12.8753157078593
20
0.781027167959223
30
0
41
1
10
-12.8517236265289
20
0.76155869474195
30
0
41
1
10
-12.8401878227495
20
0.751584593573796
30
0
41
1
10
-12.7837860813006
20
0.700529650614612
30
0
41
1
10
-12.7427175705362
20
0.655927268694711
30
0
41
1
10
-12.6964191316669
20
0.59539072615047
30
0
41
1
10
-12.6874134540644
20
0.583042242675333
30
0
41
1
10
-12.6699182365605
20
0.557852505044593
30
0
41
1
10
-12.6614111511752
20
0.544981138325625
30
0
41
1
10
-12.6369094598778
20
0.505981732444184
30
0
41
1
10
-12.6218706765068
20
0.47939219346074
30
0
41
1
10
-12.580542771097
20
0.397882319205962
30
0
41
1
10
-12.5580086834342
20
0.341235506911175
30
0
41
1
10
-12.5319533150968
20
0.252651823194412
30
0
41
1
10
-12.5245572079032
20
0.222421663568355
30
0
41
1
10
-12.5126583212221
20
0.16160583660951
30
0
41
1
10
-12.5081217231881
20
0.130935754331858
30
0
41
1
10
-12.5050125628934
20
0.100000000000023
30
0
0
SPLINE
5
120
100
AcDbEntity
8
SK1
62
256
6
ByLayer
370
13
48
1
60
0
100
AcDbSpline
70
4
71
3
72
21
73
17
40
0
40
0
40
0
40
0
40
0.125
40
0.125
40
0.25
40
0.25
40
0.375
40
0.375
40
0.5
40
0.5
40
0.625
40
0.625
40
0.75
40
0.75
40
0.875
40
1
40
1
40
1
40
1
41
1
10
-12.0498979485566
20
0.0999999999999659
30
0
41
1
10
-12.0441824513289
20
0.128000103668398
30
0
41
1
10
-12.0361703763644
20
0.155093205269964
30
0
41
1
10
-12.0157572786006
20
0.207551036254927
30
0
41
1
10
-12.0033432309291
20
0.232937227477464
30
0
41
1
10
-11.9739886332361
20
0.281826868674443
30
0
41
1
10
-11.9574496234914
20
0.304670194508901
30
0
41
1
10
-11.92079695027
20
0.347297698396403
30
0
41
1
10
-11.9006446513519
20
0.367113773310621
30
0
41
1
10
-11.8567496608689
20
0.403424019888803
30
0
41
1
10
-11.8335650777474
20
0.41946740858765
30
0
41
1
10
-11.7848062948923
20
0.447496244014417
30
0
41
1
10
-11.7591769118572
20
0.459502084981068
30
0
41
1
10
-11.7056277486783
20
0.479172377265002
30
0
41
1
10
-11.651157352826
20
0.494018872730408
30
0
41
1
10
-11.5949121669818
20
0.499598391204984
30
0
41
1
10
-11.5663240377406
20
0.49996000494707
30
0
0
SPLINE
5
121
100
AcDbEntity
8
SK1
62
256
6
ByLayer
370
13
48
1
60
0
100
AcDbSpline
70
4
71
3
72
8
73
4
40
0
40
0
40
0
40
0
40
1
40
1
40
1
40
1
41
1
10
-14.75
20
1.09999999999997
30
0
41
0.999918993434324
10
-14.6925619992273
20
1.06683815479214
30
0
41
0.999918993434324
10
-14.6348222950132
20
1.03350212102123
30
0
41
1
10
-14.5767949192431
20
1
30
0
0
SPLINE
5
122
100
AcDbEntity
8
SK1
62
256
6
ByLayer
370
13
48
1
60
0
100
AcDbSpline
70
4
71
3
72
25
73
21
40
0
40
0
40
0
40
0
40
0.125000000000003
40
0.125000000000003
40
0.250000000000005
40
0.250000000000005
40
0.375000000000008
40
0.375000000000008
40
0.437500000000006
40
0.437500000000006
40
0.500000000000003
40
0.500000000000003
40
0.624999999999999
40
0.624999999999999
40
0.687499999999999
40
0.687499999999999
40
0.749999999999999
40
0.749999999999999
40
0.875
40
1
40
1
40
1
40
1
41
1
10
-11.5663240377406
20
-0.49996000494707
30
0
41
1
10
-11.5949121412514
20
-0.499598391530526
30
0
41
1
10
-11.6230479453973
20
-0.4968084025125
30
0
41
1
10
-11.678455068634
20
-0.486581985836665
30
0
41
1
10
-11.705765222333
20
-0.479131170255414
30
0
41
1
10
-11.7593271079323
20
-0.459437571815215
30
0
41
1
10
-11.7848821348276
20
-0.447458695729324
30
0
41
1
10
-11.821458861956
20
-0.426423590156333
30
0
41
1
10
-11.8333567956152
20
-0.418897816090634
30
0
41
1
10
-11.8565584221174
20
-0.402805685543001
30
0
41
1
10
-11.8678900767777
20
-0.394216057608219
30
0
41
1
10
-11.9007819024883
20
-0.366985139690769
30
0
41
1
10
-11.9208701454651
20
-0.347221635758387
30
0
41
1
10
-11.9483528390516
20
-0.315245307589578
30
0
41
1
10
-11.9570695976612
20
-0.304195814835509
30
0
41
1
10
-11.9736034598319
20
-0.28130328324653
30
0
41
1
10
-11.9814432382183
20
-0.269422059608019
30
0
41
1
10
-12.0034127020599
20
-0.232799855294957
30
0
41
1
10
-12.0281648795548
20
-0.18215426495442
30
0
41
1
10
-12.0441823656439
20
-0.128000523437151
30
0
41
1
10
-12.0498979485566
20
-0.100000000000023
30
0
0
SPLINE
5
123
100
AcDbEntity
8
SK1
62
256
6
ByLayer
370
13
48
1
60
0
100
AcDbSpline
70
4
71
3
72
36
73
32
40
0
40
0
40
0
40
0
40
0.124999999999997
40
0.124999999999997
40
0.187499999999995
40
0.187499999999995
40
0.218749999999995
40
0.218749999999995
40
0.249999999999995
40
0.249999999999995
40
0.37499999999999
40
0.37499999999999
40
0.437499999999987
40
0.437499999999987
40
0.468749999999986
40
0.468749999999986
40
0.499999999999985
40
0.499999999999985
40
0.624999999999988
40
0.624999999999988
40
0.656249999999989
40
0.656249999999989
40
0.687499999999989
40
0.687499999999989
40
0.749999999999989
40
0.749999999999989
40
0.874999999999993
40
0.874999999999993
40
0.937499999999996
40
0.937499999999996
40
1
40
1
40
1
40
1
41
1
10
-12.5050125628934
20
-0.100000000000023
30
0
41
1
10
-12.5112320686648
20
-0.161883301075591
30
0
41
1
10
-12.5230642869975
20
-0.222109798170777
30
0
41
1
10
-12.5488074503286
20
-0.310107676292262
30
0
41
1
10
-12.5587301679192
20
-0.339047439651608
30
0
41
1
10
-12.5756539264443
20
-0.381863656403766
30
0
41
1
10
-12.5816356736802
20
-0.396036674660934
30
0
41
1
10
-12.5942916120556
20
-0.42418203585305
30
0
41
1
10
-12.6009515192724
20
-0.438118216967723
30
0
41
1
10
-12.6356372147015
20
-0.506605230127036
30
0
41
1
10
-12.6680046553578
20
-0.558105483734209
30
0
41
1
10
-12.7233236208755
20
-0.630633251763868
30
0
41
1
10
-12.7428988987124
20
-0.654016806187144
30
0
41
1
10
-12.7740158567941
20
-0.687882285642104
30
0
41
1
10
-12.7846909301846
20
-0.698975801181405
30
0
41
1
10
-12.8064162719105
20
-0.720538581983533
30
0
41
1
10
-12.817491595524
20
-0.731036298482479
30
0
41
1
10
-12.8739186041232
20
-0.782132185635135
30
0
41
1
10
-12.9223933271761
20
-0.818589689078578
30
0
41
1
10
-12.9872339279643
20
-0.858663708672623
30
0
41
1
10
-13.0004161752622
20
-0.866401281136632
30
0
41
1
10
-13.0272182667339
20
-0.881313003753348
30
0
41
1
10
-13.0408716753644
20
-0.88850353308743
30
0
41
1
10
-13.0822537968157
20
-0.909086077822792
30
0
41
1
10
-13.1102907414737
20
-0.921444178626587
30
0
41
1
10
-13.1957236960608
20
-0.954540021625462
30
0
41
1
10
-13.2544310504712
20
-0.971333729446997
30
0
41
1
10
-13.3452205455804
20
-0.988428880204879
30
0
41
1
10
-13.3760629728491
20
-0.992775505702127
30
0
41
1
10
-13.4378772742127
20
-0.998551129568114
30
0
41
1
10
-13.4688869542483
20
-1
30
0
41
1
10
-13.5
20
-1
30
0
0
SPLINE
5
124
100
AcDbEntity
8
SK1
62
256
6
ByLayer
370
13
48
1
60
0
100
AcDbSpline
70
4
71
3
72
8
73
4
40
0
40
0
40
0
40
0
40
1
40
1
40
1
40
1
41
1
10
-14.5767949192431
20
-1
30
0
41
0.999918993434324
10
-14.6348222950132
20
-1.03350212102129
30
0
41
0.999918993434324
10
-14.6925619992273
20
-1.0668381547922
30
0
41
1
10
-14.75
20
-1.10000000000002
30
0
0
SPLINE
5
125
100
AcDbEntity
8
SK1
62
256
6
ByLayer
370
13
48
1
60
0
100
AcDbSpline
70
4
71
3
72
46
73
42
40
0
40
0
40
0
40
0
40
0.124841132275248
40
0.124841132275248
40
0.187261698412871
40
0.187261698412871
40
0.218471981481683
40
0.218471981481683
40
0.249682264550495
40
0.249682264550495
40
0.312102830688118
40
0.374523396825741
40
0.436943962963364
40
0.436943962963364
40
0.452549104497769
40
0.452549104497769
40
0.468154246032175
40
0.468154246032175
40
0.499364529100987
40
0.499364529100987
40
0.561785095238611
40
0.561785095238611
40
0.624205661376235
40
0.624205661376235
40
0.655415944445047
40
0.671021085979453
40
0.671021085979453
40
0.68662622751386
40
0.68662622751386
40
0.749046793651484
40
0.749046793651484
40
0.811467359789109
40
0.811467359789109
40
0.873887925926734
40
0.873887925926734
40
0.905098208995546
40
0.905098208995546
40
0.936308492064358
40
0.936308492064358
40
0.998729058201983
40
1
40
1
40
1
40
1
41
1
10
-4.85000000000002
20
3.62502605133648
30
0
41
1
10
-5.00727257310223
20
3.60304572479743
30
0
41
1
10
-5.16209510770625
20
3.58996498434146
30
0
41
1
10
-5.39071230431398
20
3.58288011859725
30
0
41
1
10
-5.46631080410873
20
3.58260336185674
30
0
41
1
10
-5.57876400925852
20
3.58516810106426
30
0
41
1
10
-5.61609069631811
20
3.586519315656
30
0
41
1
10
-5.69041927701437
20
3.59018549547659
30
0
41
1
10
-5.72746841536809
20
3.59250408849221
30
0
41
1
10
-5.83780700390082
20
3.60083447157712
30
0
41
1
10
-5.98097388252597
20
3.61545562349579
30
0
41
1
10
-6.18433234769066
20
3.64605498743345
30
0
41
1
10
-6.31240132919527
20
3.67104944327082
30
0
41
1
10
-6.39005943290181
20
3.68774820783045
30
0
41
1
10
-6.40547150636132
20
3.69114182033979
30
0
41
1
10
-6.43605434734627
20
3.69802779805099
30
0
41
1
10
-6.45122921565599
20
3.7015213467173
30
0
41
1
10
-6.49616103232938
20
3.71208202115395
30
0
41
1
10
-6.5254032744125
20
3.71924619578635
30
0
41
1
10
-6.61102882285275
20
3.74098567982355
30
0
41
1
10
-6.66531665804257
20
3.75580660163308
30
0
41
1
10
-6.76835025417256
20
3.7854869933517
30
0
41
1
10
-6.81709640583688
20
3.80034766508982
30
0
41
1
10
-6.8859555857681
20
3.82222819305463
30
0
41
1
10
-6.91931792063872
20
3.83306601354985
30
0
41
1
10
-6.9510377308535
20
3.84366718378129
30
0
41
1
10
-6.97181292502671
20
3.85067264575707
30
0
41
1
10
-6.98203029398519
20
3.85414969657285
30
0
41
1
10
-7.03193731139845
20
3.87127548164557
30
0
41
1
10
-7.06811842193304
20
3.88414922533985
30
0
41
1
10
-7.13308642738787
20
3.90779236048019
30
0
41
1
10
-7.16187336490043
20
3.91856283307379
30
0
41
1
10
-7.21190847739717
20
3.93757683725931
30
0
41
1
10
-7.23315800061221
20
3.94582138425454
30
0
41
1
10
-7.2590768890509
20
3.95597203246899
30
0
41
1
10
-7.26672916785878
20
3.95898899576349
30
0
41
1
10
-7.27993394806356
20
3.96421502647928
30
0
41
1
10
-7.28542955192222
20
3.96640143341642
30
0
41
1
10
-7.29866084443404
20
3.97167721113493
30
0
41
1
10
-7.30324057867244
20
3.97351948022691
30
0
41
1
10
-7.30338140682522
20
3.97357587608286
30
0
41
1
10
-7.30338244895643
20
3.97357629035577
30
0
0
SPLINE
5
126
100
AcDbEntity
8
SK1
62
256
6
ByLayer
370
13
48
1
60
0
100
AcDbSpline
70
4
71
3
72
55
73
51
40
0
40
0
40
0
40
0
40
0.0140414240295317
40
0.0140414240295317
40
0.0296915601560471
40
0.0296915601560471
40
0.0609918324090779
40
0.0609918324090779
40
0.12359237691514
40
0.12359237691514
40
0.15489264916817
40
0.170542785294686
40
0.170542785294686
40
0.186192921421201
40
0.186192921421201
40
0.248793465927262
40
0.248793465927262
40
0.311394010433324
40
0.311394010433324
40
0.327044146559839
40
0.327044146559839
40
0.342694282686355
40
0.342694282686355
40
0.373994554939386
40
0.373994554939386
40
0.436595099445448
40
0.436595099445448
40
0.49919564395151
40
0.49919564395151
40
0.530495916204541
40
0.530495916204541
40
0.561796188457572
40
0.561796188457572
40
0.624396732963634
40
0.624396732963634
40
0.686997277469696
40
0.686997277469696
40
0.718297549722727
40
0.718297549722727
40
0.733947685849242
40
0.733947685849242
40
0.749597821975757
40
0.812198366481818
40
0.874798910987879
40
0.874798910987879
40
0.937399455493939
40
0.937399455493939
40
0.96869972774697
40
0.96869972774697
40
1
40
1
40
1
40
1
41
1
10
-2.17631932248776
20
4.69413824091328
30
0
41
1
10
-2.17632365559223
20
4.69413561790975
30
0
41
1
10
-2.17658701642051
20
4.6939763283122
30
0
41
1
10
-2.17769965379898
20
4.69330350363839
30
0
41
1
10
-2.1786154808633
20
4.69274973339947
30
0
41
1
10
-2.18232338851408
20
4.69050866143698
30
0
41
1
10
-2.1860755883971
20
4.68824159352681
30
0
41
1
10
-2.20105362351762
20
4.67920777286588
30
0
41
1
10
-2.21598936504006
20
4.6702123862753
30
0
41
1
10
-2.2455701780724
20
4.65252156513026
30
0
41
1
10
-2.26215935361449
20
4.64262512415399
30
0
41
1
10
-2.28143887429564
20
4.63118839488004
30
0
41
1
10
-2.29489148004916
20
4.62322488569447
30
0
41
1
10
-2.30192243301087
20
4.61907075945192
30
0
41
1
10
-2.33832854970615
20
4.59760950203435
30
0
41
1
10
-2.37161195923443
20
4.5781365274043
30
0
41
1
10
-2.4459003383015
20
4.5352316358339
30
0
41
1
10
-2.4869080016947
20
4.51179737965413
30
0
41
1
10
-2.54283961676254
20
4.48035259065443
30
0
41
1
10
-2.5542602879749
20
4.47395581008624
30
0
41
1
10
-2.5775693161512
20
4.46095394418353
30
0
41
1
10
-2.58946422681026
20
4.45434531026103
30
0
41
1
10
-2.62566304041638
20
4.4343209423771
30
0
41
1
10
-2.65053716723651
20
4.42067519243489
30
0
41
1
10
-2.72730927144232
20
4.3789648385619
30
0
41
1
10
-2.78134965446657
20
4.35012892272596
30
0
41
1
10
-2.8949458790122
20
4.2909494786893
30
0
41
1
10
-2.95450251738282
20
4.26060429353339
30
0
41
1
10
-3.04799396640283
20
4.21433694638847
30
0
41
1
10
-3.07989529696886
20
4.19876971931245
30
0
41
1
10
-3.14454478733808
20
4.16771691044823
30
0
41
1
10
-3.17735301812547
20
4.15220097969126
30
0
41
1
10
-3.27721941527909
20
4.10577955171993
30
0
41
1
10
-3.34571480969885
20
4.07499979919157
30
0
41
1
10
-3.48660656265702
20
4.01428476889254
30
0
41
1
10
-3.55900271756229
20
3.98434835198429
30
0
41
1
10
-3.67068150997466
20
3.94048172760387
30
0
41
1
10
-3.70842302502751
20
3.92603288194289
30
0
41
1
10
-3.76583929872527
20
3.90467485489768
30
0
41
1
10
-3.78513674709359
20
3.89759930355564
30
0
41
1
10
-3.82385289330989
20
3.88361795271072
30
0
41
1
10
-3.92095808225781
20
3.84908341575891
30
0
41
1
10
-4.09859485016671
20
3.79084332595517
30
0
41
1
10
-4.26074648314921
20
3.74557933130143
30
0
41
1
10
-4.42517802183807
20
3.7040632954463
30
0
41
1
10
-4.50853349745046
20
3.68517907040575
30
0
41
1
10
-4.63543394614112
20
3.66006346361684
30
0
41
1
10
-4.67805686987469
20
3.65222515279982
30
0
41
1
10
-4.76391323413736
20
3.63769769314246
30
0
41
1
10
-4.80691747189269
20
3.63104724128237
30
0
41
1
10
-4.85000000000002
20
3.62502605133648
30
0
0
SPLINE
5
127
100
AcDbEntity
8
SK1
62
256
6
ByLayer
370
13
48
1
60
0
100
AcDbSpline
70
4
71
3
72
46
73
42
40
0
40
0
40
0
40
0
40
0.124748190942254
40
0.124748190942254
40
0.187122286413381
40
0.187122286413381
40
0.218309334148944
40
0.218309334148944
40
0.249496381884508
40
0.249496381884508
40
0.311870477355635
40
0.374244572826762
40
0.436618668297889
40
0.436618668297889
40
0.45221219216567
40
0.45221219216567
40
0.467805716033452
40
0.467805716033452
40
0.498992763769015
40
0.498992763769015
40
0.561366859240141
40
0.561366859240141
40
0.623740954711267
40
0.623740954711267
40
0.65492800244683
40
0.670521526314611
40
0.670521526314611
40
0.686115050182393
40
0.686115050182393
40
0.74848914565352
40
0.74848914565352
40
0.810863241124647
40
0.810863241124647
40
0.873237336595774
40
0.873237336595774
40
0.904424384331337
40
0.904424384331337
40
0.9356114320669
40
0.9356114320669
40
0.997985527538027
40
1
40
1
40
1
40
1
41
1
10
-4.85000000000002
20
-3.62502605133648
30
0
41
1
10
-5.00727257310223
20
-3.60304572479748
30
0
41
1
10
-5.16209510770625
20
-3.58996498434146
30
0
41
1
10
-5.39071230431398
20
-3.58288011859725
30
0
41
1
10
-5.46631080410873
20
-3.58260336185674
30
0
41
1
10
-5.57876400925841
20
-3.58516810106431
30
0
41
1
10
-5.61609069631811
20
-3.586519315656
30
0
41
1
10
-5.69041927701437
20
-3.59018549547659
30
0
41
1
10
-5.72746841536809
20
-3.59250408849221
30
0
41
1
10
-5.83780700390082
20
-3.60083447157712
30
0
41
1
10
-5.98097388252597
20
-3.61545562349579
30
0
41
1
10
-6.18433203901554
20
-3.64605440260903
30
0
41
1
10
-6.31240132919527
20
-3.67104944327082
30
0
41
1
10
-6.39005943290181
20
-3.68774820783051
30
0
41
1
10
-6.40547150636132
20
-3.69114182033979
30
0
41
1
10
-6.43605434734627
20
-3.69802779805099
30
0
41
1
10
-6.45122921565599
20
-3.7015213467173
30
0
41
1
10
-6.49616103232938
20
-3.712082021154
30
0
41
1
10
-6.5254032744125
20
-3.71924619578635
30
0
41
1
10
-6.61102882285275
20
-3.74098567982355
30
0
41
1
10
-6.66531665804257
20
-3.75580660163308
30
0
41
1
10
-6.76835025417256
20
-3.7854869933517
30
0
41
1
10
-6.81709640583688
20
-3.80034766508982
30
0
41
1
10
-6.8859555857681
20
-3.82222819305463
30
0
41
1
10
-6.91931792063872
20
-3.83306601354991
30
0
41
1
10
-6.9510377308535
20
-3.84366718378135
30
0
41
1
10
-6.97181292502671
20
-3.85067264575713
30
0
41
1
10
-6.98203029398519
20
-3.85414969657285
30
0
41
1
10
-7.03193731139845
20
-3.87127548164557
30
0
41
1
10
-7.06811842193292
20
-3.88414922533985
30
0
41
1
10
-7.13308642738787
20
-3.90779236048024
30
0
41
1
10
-7.16187336490043
20
-3.91856283307379
30
0
41
1
10
-7.21190847739717
20
-3.93757683725931
30
0
41
1
10
-7.23315800061221
20
-3.9458213842546
30
0
41
1
10
-7.2590768890509
20
-3.95597203246899
30
0
41
1
10
-7.26672916785878
20
-3.95898899576355
30
0
41
1
10
-7.27993394806356
20
-3.96421502647928
30
0
41
1
10
-7.28542955192222
20
-3.96640143341648
30
0
41
1
10
-7.29866084443404
20
-3.97167721113493
30
0
41
1
10
-7.30329415012056
20
-3.97354103017233
30
0
41
1
10
-7.30338409411775
20
-3.97357695110031
30
0
41
1
10
-7.30338245886617
20
-3.97357628584302
30
0
0
SPLINE
5
128
100
AcDbEntity
8
SK1
62
256
6
ByLayer
370
13
48
1
60
0
100
AcDbSpline
70
4
71
3
72
55
73
51
40
0
40
0
40
0
40
0
40
0.0140414416103559
40
0.0140414416103559
40
0.0296915774578103
40
0.0296915774578103
40
0.0609918491527195
40
0.0609918491527195
40
0.123592392542538
40
0.123592392542538
40
0.154892664237447
40
0.170542800084901
40
0.170542800084901
40
0.186192935932356
40
0.186192935932356
40
0.248793479322174
40
0.248793479322174
40
0.311394022711992
40
0.311394022711992
40
0.327044158559447
40
0.327044158559447
40
0.342694294406901
40
0.342694294406901
40
0.373994566101811
40
0.373994566101811
40
0.43659510949163
40
0.43659510949163
40
0.499195652881449
40
0.499195652881449
40
0.530495924576359
40
0.530495924576359
40
0.561796196271268
40
0.561796196271268
40
0.624396739661087
40
0.624396739661087
40
0.686997283050906
40
0.686997283050906
40
0.718297554745816
40
0.718297554745816
40
0.733947690593271
40
0.733947690593271
40
0.749597826440725
40
0.812198369830544
40
0.874798913220363
40
0.874798913220363
40
0.937399456610181
40
0.937399456610181
40
0.968699728305091
40
0.968699728305091
40
1
40
1
40
1
40
1
41
1
10
-2.17631932247116
20
-4.69413824092334
30
0
41
1
10
-2.17632365492329
20
-4.69413561831436
30
0
41
1
10
-2.17658701575226
20
-4.6939763287163
30
0
41
1
10
-2.17769965379898
20
-4.69330350363839
30
0
41
1
10
-2.1786154808633
20
-4.69274973339947
30
0
41
1
10
-2.18232338851408
20
-4.69050866143698
30
0
41
1
10
-2.1860755883971
20
-4.68824159352681
30
0
41
1
10
-2.20105362351762
20
-4.67920777286588
30
0
41
1
10
-2.21598936504006
20
-4.6702123862753
30
0
41
1
10
-2.2455701780724
20
-4.65252156513026
30
0
41
1
10
-2.26215935361449
20
-4.64262512415399
30
0
41
1
10
-2.28143887429564
20
-4.63118839488004
30
0
41
1
10
-2.29489148004916
20
-4.62322488569447
30
0
41
1
10
-2.30192243301087
20
-4.61907075945192
30
0
41
1
10
-2.33832854970615
20
-4.59760950203435
30
0
41
1
10
-2.37161195923443
20
-4.5781365274043
30
0
41
1
10
-2.4459003383015
20
-4.5352316358339
30
0
41
1
10
-2.4869080016947
20
-4.51179737965413
30
0
41
1
10
-2.54283961676254
20
-4.48035259065443
30
0
41
1
10
-2.5542602879749
20
-4.47395581008624
30
0
41
1
10
-2.5775693161512
20
-4.46095394418353
30
0
41
1
10
-2.58946422681026
20
-4.45434531026103
30
0
41
1
10
-2.62566304041638
20
-4.4343209423771
30
0
41
1
10
-2.65053716723639
20
-4.42067519243489
30
0
41
1
10
-2.72730927144232
20
-4.3789648385619
30
0
41
1
10
-2.78134965446657
20
-4.35012892272596
30
0
41
1
10
-2.8949458790122
20
-4.2909494786893
30
0
41
1
10
-2.95450251738282
20
-4.26060429353339
30
0
41
1
10
-3.04799396640283
20
-4.21433694638847
30
0
41
1
10
-3.07989529696886
20
-4.19876971931245
30
0
41
1
10
-3.14454478733808
20
-4.16771691044823
30
0
41
1
10
-3.17735301812536
20
-4.15220097969126
30
0
41
1
10
-3.27721941527909
20
-4.10577955171993
30
0
41
1
10
-3.34571480969885
20
-4.07499979919157
30
0
41
1
10
-3.48660656265702
20
-4.01428476889254
30
0
41
1
10
-3.55900271756229
20
-3.98434835198429
30
0
41
1
10
-3.67068150997454
20
-3.94048172760387
30
0
41
1
10
-3.7084230250274
20
-3.92603288194289
30
0
41
1
10
-3.76583929872527
20
-3.90467485489768
30
0
41
1
10
-3.78513674709359
20
-3.89759930355564
30
0
41
1
10
-3.82385289330989
20
-3.88361795271078
30
0
41
1
10
-3.92095808225781
20
-3.84908341575891
30
0
41
1
10
-4.09859485016671
20
-3.79084332595517
30
0
41
1
10
-4.26074648314921
20
-3.74557933130143
30
0
41
1
10
-4.42517802183807
20
-3.7040632954463
30
0
41
1
10
-4.50853349745046
20
-3.68517907040575
30
0
41
1
10
-4.63543394614101
20
-3.66006346361684
30
0
41
1
10
-4.67805686987469
20
-3.65222515279982
30
0
41
1
10
-4.76391323413736
20
-3.63769769314251
30
0
41
1
10
-4.80691747189269
20
-3.63104724128237
30
0
41
1
10
-4.85000000000002
20
-3.62502605133648
30
0
0
INSERT
5
198
100
AcDbEntity
8
SK2
62
256
6
ByLayer
370
18
48
1
60
0
100
AcDbBlockReference
2
_U4
10
0
20
0
30
0
41
1
42
1
43
1
50
0
210
0
220
0
230
1
0
LINE
5
74
100
AcDbEntity
8
81
62
256
6
ByLayer
370
18
48
1
60
0
100
AcDbLine
10
23
20
6
30
0
11
25
21
6
31
0
39
0
210
0
220
0
230
1
0
LINE
5
75
100
AcDbEntity
8
80
62
256
6
ByLayer
370
18
48
1
60
0
100
AcDbLine
10
0
20
0
30
0
11
-2
21
0
31
0
39
0
210
0
220
0
230
1
0
LINE
5
76
100
AcDbEntity
8
4
62
256
6
ByLayer
370
18
48
0.05
60
0
100
AcDbLine
10
0
20
0
30
0
11
23
21
0
31
0
39
0
210
0
220
0
230
1
0
LINE
5
78
100
AcDbEntity
8
SK4
62
256
6
ByLayer
370
18
48
0.05
60
0
100
AcDbLine
10
25
20
0
30
0
11
-18.5
21
0
31
0
39
0
210
0
220
0
230
1
0
LINE
5
7A
100
AcDbEntity
8
1
62
256
6
ByLayer
370
13
48
1
60
0
100
AcDbLine
10
9.750556
20
-4.574542
30
0
11
9.999132
21
-4.176737
31
0
39
0
210
0
220
0
230
1
0
LINE
5
7C
100
AcDbEntity
8
1
62
256
6
ByLayer
370
13
48
1
60
0
100
AcDbLine
10
9.83536
20
-4.627534
30
0
11
9.750556
21
-4.574542
31
0
39
0
210
0
220
0
230
1
0
LINE
5
7D
100
AcDbEntity
8
1
62
256
6
ByLayer
370
13
48
1
60
0
100
AcDbLine
10
11.018417
20
5.975
30
0
11
9
21
5.975
31
0
39
0
210
0
220
0
230
1
0
LINE
5
7E
100
AcDbEntity
8
1
62
256
6
ByLayer
370
13
48
1
60
0
100
AcDbLine
10
5.7
20
-10
30
0
11
13.887931
21
-10
31
0
39
0
210
0
220
0
230
1
0
LINE
5
7F
100
AcDbEntity
8
1
62
256
6
ByLayer
370
13
48
1
60
0
100
AcDbLine
10
9.83536
20
-4.627534
30
0
11
10.121046
21
-4.170342
31
0
39
0
210
0
220
0
230
1
0
LINE
5
80
100
AcDbEntity
8
1
62
256
6
ByLayer
370
13
48
1
60
0
100
AcDbLine
10
13.887931
20
-10
30
0
11
17.079094
21
-4.893072
31
0
39
0
210
0
220
0
230
1
0
LINE
5
81
100
AcDbEntity
8
1
62
256
6
ByLayer
370
13
48
1
60
0
100
AcDbLine
10
8.5
20
5.975
30
0
11
9
21
5.975
31
0
39
0
210
0
220
0
230
1
0
LINE
5
82
100
AcDbEntity
8
1
62
256
6
ByLayer
370
13
48
1
60
0
100
AcDbLine
10
9
20
5.975
30
0
11
9
21
2.666025
31
0
39
0
210
0
220
0
230
1
0
LINE
5
83
100
AcDbEntity
8
1
62
256
6
ByLayer
370
13
48
1
60
0
100
AcDbLine
10
9
20
2.666025
30
0
11
6.43686
21
-1.773463
31
0
39
0
210
0
220
0
230
1
0
LINE
5
84
100
AcDbEntity
8
1
62
256
6
ByLayer
370
13
48
1
60
0
100
AcDbLine
10
8.5
20
2.8
30
0
11
9
21
2.666025
31
0
39
0
210
0
220
0
230
1
0
LINE
5
85
100
AcDbEntity
8
1
62
256
6
ByLayer
370
13
48
1
60
0
100
AcDbLine
10
6.43686
20
-1.773463
30
0
11
6.003848
21
-1.523463
31
0
39
0
210
0
220
0
230
1
0
LINE
5
86
100
AcDbEntity
8
1
62
256
6
ByLayer
370
13
48
1
60
0
100
AcDbLine
10
5.2
20
-10
30
0
11
5.7
21
-10
31
0
39
0
210
0
220
0
230
1
0
LINE
5
87
100
AcDbEntity
8
1
62
256
6
ByLayer
370
13
48
1
60
0
100
AcDbLine
10
5.7
20
-4.798602
30
0
11
5.7
21
-10
31
0
39
0
210
0
220
0
230
1
0
LINE
5
88
100
AcDbEntity
8
1
62
256
6
ByLayer
370
13
48
1
60
0
100
AcDbLine
10
5.2
20
-4.523463
30
0
11
5.646899
21
-4.523463
31
0
39
0
210
0
220
0
230
1
0
LINE
5
89
100
AcDbEntity
8
1
62
256
6
ByLayer
370
13
48
1
60
0
100
AcDbLine
10
0.1
20
5.475
30
0
11
0.1
21
5.661611
31
0
39
0
210
0
220
0
230
1
0
LINE
5
8A
100
AcDbEntity
8
1
62
256
6
ByLayer
370
13
48
1
60
0
100
AcDbLine
10
0
20
5.975
30
0
11
8.5
21
5.975
31
0
39
0
210
0
220
0
230
1
0
LINE
5
8B
100
AcDbEntity
8
1
62
256
6
ByLayer
370
13
48
1
60
0
100
AcDbLine
10
0
20
5.881612
30
0
11
0
21
5.975
31
0
39
0
210
0
220
0
230
1
0
LINE
5
8C
100
AcDbEntity
8
1
62
256
6
ByLayer
370
13
48
1
60
0
100
AcDbLine
10
0
20
-10
30
0
11
0
21
-5
31
0
39
0
210
0
220
0
230
1
0
LINE
5
8D
100
AcDbEntity
8
1
62
256
6
ByLayer
370
13
48
1
60
0
100
AcDbLine
10
8.5
20
2.8
30
0
11
6.003848
21
-1.523463
31
0
39
0
210
0
220
0
230
1
0
LINE
5
8E
100
AcDbEntity
8
1
62
256
6
ByLayer
370
13
48
1
60
0
100
AcDbLine
10
6.003848
20
-1.523463
30
0
11
5.570835
21
-1.273463
31
0
39
0
210
0
220
0
230
1
0
LINE
5
8F
100
AcDbEntity
8
1
62
256
6
ByLayer
370
13
48
1
60
0
100
AcDbLine
10
5.2
20
-4.523463
30
0
11
5.2
21
-10
31
0
39
0
210
0
220
0
230
1
0
LINE
5
90
100
AcDbEntity
8
1
62
256
6
ByLayer
370
13
48
1
60
0
100
AcDbLine
10
5.2
20
-4.523463
30
0
11
4.7
21
-4.523463
31
0
39
0
210
0
220
0
230
1
0
LINE
5
91
100
AcDbEntity
8
1
62
256
6
ByLayer
370
13
48
1
60
0
100
AcDbLine
10
0.1
20
-10
30
0
11
0.1
21
-9.5
31
0
39
0
210
0
220
0
230
1
0
LINE
5
92
100
AcDbEntity
8
1
62
256
6
ByLayer
370
13
48
1
60
0
100
AcDbLine
10
5.2
20
-10
30
0
11
0.1
21
-10
31
0
39
0
210
0
220
0
230
1
0
LINE
5
93
100
AcDbEntity
8
1
62
256
6
ByLayer
370
13
48
1
60
0
100
AcDbLine
10
5.2
20
-10
30
0
11
4.7
21
-9.5
31
0
39
0
210
0
220
0
230
1
0
LINE
5
94
100
AcDbEntity
8
1
62
256
6
ByLayer
370
13
48
1
60
0
100
AcDbLine
10
0.1
20
5.254522
30
0
11
0.1
21
5.475
31
0
39
0
210
0
220
0
230
1
0
LINE
5
95
100
AcDbEntity
8
1
62
256
6
ByLayer
370
13
48
1
60
0
100
AcDbLine
10
5.570835
20
-1.273463
30
0
11
8
21
2.933975
31
0
39
0
210
0
220
0
230
1
0
LINE
5
96
100
AcDbEntity
8
1
62
256
6
ByLayer
370
13
48
1
60
0
100
AcDbLine
10
8
20
5.475
30
0
11
0.1
21
5.475
31
0
39
0
210
0
220
0
230
1
0
LINE
5
97
100
AcDbEntity
8
1
62
256
6
ByLayer
370
13
48
1
60
0
100
AcDbLine
10
0
20
-5
30
0
11
0
21
5
31
0
39
0
210
0
220
0
230
1
0
LINE
5
98
100
AcDbEntity
8
1
62
256
6
ByLayer
370
13
48
1
60
0
100
AcDbLine
10
0.1
20
-9.5
30
0
11
0.1
21
-5.254522
31
0
39
0
210
0
220
0
230
1
0
LINE
5
99
100
AcDbEntity
8
1
62
256
6
ByLayer
370
13
48
1
60
0
100
AcDbLine
10
0.1
20
-9.5
30
0
11
4.7
21
-9.5
31
0
39
0
210
0
220
0
230
1
0
LINE
5
9A
100
AcDbEntity
8
1
62
256
6
ByLayer
370
13
48
1
60
0
100
AcDbLine
10
4.7
20
-9.5
30
0
11
4.7
21
-4.523463
31
0
39
0
210
0
220
0
230
1
0
LINE
5
9B
100
AcDbEntity
8
1
62
256
6
ByLayer
370
13
48
1
60
0
100
AcDbLine
10
8
20
5.475
30
0
11
8.5
21
5.975
31
0
39
0
210
0
220
0
230
1
0
LINE
5
9C
100
AcDbEntity
8
1
62
256
6
ByLayer
370
13
48
1
60
0
100
AcDbLine
10
8
20
2.933975
30
0
11
8
21
5.475
31
0
39
0
210
0
220
0
230
1
0
LINE
5
9D
100
AcDbEntity
8
1
62
256
6
ByLayer
370
13
48
1
60
0
100
AcDbLine
10
8
20
2.933975
30
0
11
8.5
21
2.8
31
0
39
0
210
0
220
0
230
1
0
LINE
5
9E
100
AcDbEntity
8
1
62
256
6
ByLayer
370
13
48
1
60
0
100
AcDbLine
10
8.5
20
5.975
30
0
11
8.5
21
2.8
31
0
39
0
210
0
220
0
230
1
0
LINE
5
9F
100
AcDbEntity
8
1
62
256
6
ByLayer
370
13
48
1
60
0
100
AcDbLine
10
0
20
5
30
0
11
0
21
5.881612
31
0
39
0
210
0
220
0
230
1
0
LINE
5
A0
100
AcDbEntity
8
1
62
256
6
ByLayer
370
13
48
1
60
0
100
AcDbLine
10
11.856493
20
5.119743
30
0
11
6.721629
21
-3.097756
31
0
39
0
210
0
220
0
230
1
0
LINE
5
A1
100
AcDbEntity
8
1
62
256
6
ByLayer
370
13
48
1
60
0
100
AcDbLine
10
7.436309
20
-4.311042
30
0
11
17.112928
21
-3.803912
31
0
39
0
210
0
220
0
230
1
0
LINE
5
A2
100
AcDbEntity
8
1
62
256
6
ByLayer
370
13
48
1
60
0
100
AcDbLine
10
17.744524
20
-3.431873
30
0
11
22.879388
21
4.785627
31
0
39
0
210
0
220
0
230
1
0
LINE
5
A3
100
AcDbEntity
8
1
62
256
6
ByLayer
370
13
48
1
60
0
100
AcDbLine
10
22.164708
20
5.998912
30
0
11
12.48809
21
5.491782
31
0
39
0
210
0
220
0
230
1
0
LINE
5
A4
100
AcDbEntity
8
SK1
62
256
6
ByLayer
370
13
48
1
60
0
100
AcDbLine
10
-16.5
20
1.388675
30
0
11
-16.5
21
2.910024
31
0
39
0
210
0
220
0
230
1
0
LINE
5
A6
100
AcDbEntity
8
SK1
62
256
6
ByLayer
370
13
48
1
60
0
100
AcDbLine
10
-16.375883
20
3.125
30
0
11
-16.5
21
2.910024
31
0
39
0
210
0
220
0
230
1
0
LINE
5
A7
100
AcDbEntity
8
SK1
62
256
6
ByLayer
370
13
48
1
60
0
100
AcDbLine
10
-16.5
20
-2.910024
30
0
11
-16.5
21
-1.388675
31
0
39
0
210
0
220
0
230
1
0
LINE
5
A8
100
AcDbEntity
8
SK1
62
256
6
ByLayer
370
13
48
1
60
0
100
AcDbLine
10
-16.5
20
-2.910024
30
0
11
-16.375883
21
-3.125
31
0
39
0
210
0
220
0
230
1
0
LINE
5
A9
100
AcDbEntity
8
SK1
62
256
6
ByLayer
370
13
48
1
60
0
100
AcDbLine
10
-10.566324
20
3.075
30
0
11
-11.566324
21
3.075
31
0
39
0
210
0
220
0
230
1
0
LINE
5
AA
100
AcDbEntity
8
SK1
62
256
6
ByLayer
370
13
48
1
60
0
100
AcDbLine
10
-11.566324
20
-3.075
30
0
11
-10.566324
21
-3.075
31
0
39
0
210
0
220
0
230
1
0
LINE
5
AB
100
AcDbEntity
8
SK1
62
256
6
ByLayer
370
13
48
1
60
0
100
AcDbLine
10
-15.343
20
3.375
30
0
11
-15.7
21
3.312051
31
0
39
0
210
0
220
0
230
1
0
LINE
5
AC
100
AcDbEntity
8
SK1
62
256
6
ByLayer
370
13
48
1
60
0
100
AcDbLine
10
-15.7
20
-3.312051
30
0
11
-15.343
21
-3.375
31
0
39
0
210
0
220
0
230
1
0
LINE
5
AD
100
AcDbEntity
8
SK1
62
256
6
ByLayer
370
13
48
1
60
0
100
AcDbLine
10
-16.375883
20
-3.125
30
0
11
-16.375883
21
-1.317016
31
0
39
0
210
0
220
0
230
1
0
LINE
5
AE
100
AcDbEntity
8
SK1
62
256
6
ByLayer
370
13
48
1
60
0
100
AcDbLine
10
-15.7
20
-1.1
30
0
11
-15.7
21
-3.312051
31
0
39
0
210
0
220
0
230
1
0
LINE
5
AF
100
AcDbEntity
8
SK1
62
256
6
ByLayer
370
13
48
1
60
0
100
AcDbLine
10
-16.375883
20
3.125
30
0
11
-16.375883
21
1.317016
31
0
39
0
210
0
220
0
230
1
0
LINE
5
B0
100
AcDbEntity
8
SK1
62
256
6
ByLayer
370
13
48
1
60
0
100
AcDbLine
10
-15.7
20
1.1
30
0
11
-15.7
21
3.312051
31
0
39
0
210
0
220
0
230
1
0
LINE
5
B1
100
AcDbEntity
8
SK1
62
256
6
ByLayer
370
13
48
1
60
0
100
AcDbLine
10
-12.505013
20
0.1
30
0
11
-12.049898
21
0.1
31
0
39
0
210
0
220
0
230
1
0
LINE
5
B2
100
AcDbEntity
8
SK1
62
256
6
ByLayer
370
13
48
1
60
0
100
AcDbLine
10
-11.566324
20
0.49996
30
0
11
-11.566324
21
3.375
31
0
39
0
210
0
220
0
230
1
0
LINE
5
B3
100
AcDbEntity
8
SK1
62
256
6
ByLayer
370
13
48
1
60
0
100
AcDbLine
10
-15.343
20
1.1
30
0
11
-15.343
21
3.375
31
0
39
0
210
0
220
0
230
1
0
LINE
5
B4
100
AcDbEntity
8
SK1
62
256
6
ByLayer
370
13
48
1
60
0
100
AcDbLine
10
-15.343
20
1.1
30
0
11
-14.75
21
1.1
31
0
39
0
210
0
220
0
230
1
0
LINE
5
B5
100
AcDbEntity
8
SK1
62
256
6
ByLayer
370
13
48
1
60
0
100
AcDbLine
10
-14.576795
20
1
30
0
11
-13.5
21
1
31
0
39
0
210
0
220
0
230
1
0
LINE
5
B6
100
AcDbEntity
8
SK1
62
256
6
ByLayer
370
13
48
1
60
0
100
AcDbLine
10
-11.566324
20
3.375
30
0
11
-15.343
21
3.375
31
0
39
0
210
0
220
0
230
1
0
LINE
5
B7
100
AcDbEntity
8
SK1
62
256
6
ByLayer
370
13
48
1
60
0
100
AcDbLine
10
-11.566324
20
-0.49996
30
0
11
-11.566324
21
-3.375
31
0
39
0
210
0
220
0
230
1
0
LINE
5
B8
100
AcDbEntity
8
SK1
62
256
6
ByLayer
370
13
48
1
60
0
100
AcDbLine
10
-12.049898
20
-0.1
30
0
11
-12.505013
21
-0.1
31
0
39
0
210
0
220
0
230
1
0
LINE
5
B9
100
AcDbEntity
8
SK1
62
256
6
ByLayer
370
13
48
1
60
0
100
AcDbLine
10
-13.5
20
-1
30
0
11
-14.576795
21
-1
31
0
39
0
210
0
220
0
230
1
0
LINE
5
BA
100
AcDbEntity
8
SK1
62
256
6
ByLayer
370
13
48
1
60
0
100
AcDbLine
10
-14.75
20
-1.1
30
0
11
-15.343
21
-1.1
31
0
39
0
210
0
220
0
230
1
0
LINE
5
BB
100
AcDbEntity
8
SK1
62
256
6
ByLayer
370
13
48
1
60
0
100
AcDbLine
10
-15.343
20
-1.1
30
0
11
-15.343
21
-3.375
31
0
39
0
210
0
220
0
230
1
0
LINE
5
BC
100
AcDbEntity
8
SK1
62
256
6
ByLayer
370
13
48
1
60
0
100
AcDbLine
10
-15.343
20
-3.375
30
0
11
-11.566324
21
-3.375
31
0
39
0
210
0
220
0
230
1
0
LINE
5
BD
100
AcDbEntity
8
SK1
62
256
6
ByLayer
370
13
48
1
60
0
100
AcDbLine
10
-0.999897
20
-4.69
30
0
11
-0.1
21
-4.69
31
0
39
0
210
0
220
0
230
1
0
LINE
5
BE
100
AcDbEntity
8
SK1
62
256
6
ByLayer
370
13
48
1
60
0
100
AcDbLine
10
-0.1
20
4.69
30
0
11
-0.999897
21
4.69
31
0
39
0
210
0
220
0
230
1
0
LINE
5
BF
100
AcDbEntity
8
SK1
62
256
6
ByLayer
370
13
48
1
60
0
100
AcDbLine
10
-0.999897
20
0
30
0
11
-0.999897
21
-4.69
31
0
39
0
210
0
220
0
230
1
0
LINE
5
C0
100
AcDbEntity
8
SK1
62
256
6
ByLayer
370
13
48
1
60
0
100
AcDbLine
10
-10.566324
20
0
30
0
11
-10.566324
21
3.515
31
0
39
0
210
0
220
0
230
1
0
LINE
5
C1
100
AcDbEntity
8
SK1
62
256
6
ByLayer
370
13
48
1
60
0
100
AcDbLine
10
-1.25
20
4.824324
30
0
11
-2.178411
21
4.693844
31
0
39
0
210
0
220
0
230
1
0
LINE
5
C2
100
AcDbEntity
8
SK1
62
256
6
ByLayer
370
13
48
1
60
0
100
AcDbLine
10
-7.303138
20
3.973611
30
0
11
-10.566324
21
3.515
31
0
39
0
210
0
220
0
230
1
0
LINE
5
C3
100
AcDbEntity
8
SK1
62
256
6
ByLayer
370
13
48
1
60
0
100
AcDbLine
10
-10.566324
20
0
30
0
11
-10.566324
21
-3.515
31
0
39
0
210
0
220
0
230
1
0
LINE
5
C4
100
AcDbEntity
8
SK1
62
256
6
ByLayer
370
13
48
1
60
0
100
AcDbLine
10
-1.25
20
0
30
0
11
-1.25
21
-4.824324
31
0
39
0
210
0
220
0
230
1
0
LINE
5
C5
100
AcDbEntity
8
SK1
62
256
6
ByLayer
370
13
48
1
60
0
100
AcDbLine
10
-10.566324
20
-3.515
30
0
11
-7.303138
21
-3.973611
31
0
39
0
210
0
220
0
230
1
0
LINE
5
C6
100
AcDbEntity
8
SK1
62
256
6
ByLayer
370
13
48
1
60
0
100
AcDbLine
10
-2.178411
20
-4.693844
30
0
11
-1.25
21
-4.824324
31
0
39
0
210
0
220
0
230
1
0
LINE
5
C7
100
AcDbEntity
8
SK1
62
256
6
ByLayer
370
13
48
1
60
0
100
AcDbLine
10
-0.999897
20
0
30
0
11
-0.999897
21
4.69
31
0
39
0
210
0
220
0
230
1
0
LINE
5
C8
100
AcDbEntity
8
SK1
62
256
6
ByLayer
370
13
48
1
60
0
100
AcDbLine
10
-1.25
20
0
30
0
11
-1.25
21
4.824324
31
0
39
0
210
0
220
0
230
1
0
LINE
5
C9
100
AcDbEntity
8
SK1
62
256
6
ByLayer
370
13
48
1
60
0
100
AcDbLine
10
-0.1
20
0
30
0
11
-0.1
21
4.69
31
0
39
0
210
0
220
0
230
1
0
LINE
5
CA
100
AcDbEntity
8
SK1
62
256
6
ByLayer
370
13
48
1
60
0
100
AcDbLine
10
-0.1
20
0
30
0
11
-0.1
21
-4.69
31
0
39
0
210
0
220
0
230
1
0
MTEXT
5
129
100
AcDbEntity
8
SK6
62
256
6
ByLayer
370
18
48
1
60
0
100
AcDbMText
10
-15.633064
20
-39.874605
30
0
210
0
220
0
230
1
1
\W0.7260;QSM12-SDJCR-11C
40
3.5
41
0
44
1.084337
50
0
71
7
72
5
7
iso_b_vert
0
DIMENSION
5
12E
100
AcDbEntity
8
2
62
256
6
ByLayer
370
18
48
1
60
0
100
AcDbDimension
2
_U0
10
23
20
-20.242797
30
0
11
11.5
21
-20.242797
31
0
70
32
71
1
72
1
41
1
210
0
220
0
230
1
3
Standard
100
AcDbAlignedDimension
13
0
23
-10
33
0
14
23
24
6
34
0
50
0
100
AcDbRotatedDimension
1001
ACAD
1000
DSTYLE
1002
{
1070
   371
1070
    13
1070
   372
1070
    13
1070
   170
1070
     0
1070
   144
1040
1.0
1070
   277
1070
     2
1070
   284
1070
     8
1070
   278
1070
    46
1070
   146
1040
1.166667
1070
   345
1005
16
1070
   347
1005
16
1070
   346
1005
16
1070
   344
1005
0
1070
   343
1005
0
1070
   172
1070
     1
1070
    76
1070
     0
1070
    75
1070
     0
1070
   282
1070
     0
1070
   281
1070
     0
1070
    71
1070
     0
1070
    74
1070
     0
1070
   279
1070
     0
1070
   173
1070
     1
1070
   340
1005
12A
1070
   271
1070
     2
1070
   272
1070
     2
1070
    77
1070
     1
1070
    73
1070
     1
1070
   171
1070
     3
1070
   274
1070
     4
1070
   177
1070
     7
1070
   176
1070
     7
1070
   178
1070
     7
1070
    78
1070
     8
1070
    48
1040
-0.1
1070
    41
1040
3.175
1070
   147
1040
1.5
1070
    42
1040
1.5875
1070
    44
1040
2.0
1070
   140
1040
3.0
1002
}
1001
ACAD_DSTYLE_DIM_LINETYPE
1070
   380
1005
16
1001
ACAD_DSTYLE_DIM_EXT1_LINETYPE
1070
   381
1005
16
1001
ACAD_DSTYLE_DIM_EXT2_LINETYPE
1070
   382
1005
16
0
DIMENSION
5
148
100
AcDbEntity
8
2
62
256
6
ByLayer
370
18
48
1
60
0
100
AcDbDimension
2
_U1
10
31.813729
20
6
30
0
11
31.813729
21
3
31
0
70
32
71
1
72
1
41
1
210
0
220
0
230
1
3
Standard
100
AcDbAlignedDimension
13
25
23
0
33
0
14
23
24
6
34
0
50
90
100
AcDbRotatedDimension
1001
ACAD
1000
DSTYLE
1002
{
1070
   371
1070
    13
1070
   372
1070
    13
1070
   170
1070
     0
1070
   144
1040
1.0
1070
   277
1070
     2
1070
   284
1070
     8
1070
   278
1070
    46
1070
   146
1040
1.166667
1070
   345
1005
16
1070
   347
1005
16
1070
   346
1005
16
1070
   344
1005
0
1070
   343
1005
0
1070
   172
1070
     1
1070
    76
1070
     0
1070
    75
1070
     0
1070
   282
1070
     0
1070
   281
1070
     0
1070
    71
1070
     0
1070
    74
1070
     0
1070
   279
1070
     0
1070
   173
1070
     1
1070
   340
1005
12A
1070
   271
1070
     2
1070
   272
1070
     2
1070
    77
1070
     1
1070
    73
1070
     0
1070
   171
1070
     3
1070
   274
1070
     4
1070
   177
1070
     7
1070
   176
1070
     7
1070
   178
1070
     7
1070
    78
1070
     8
1070
    48
1040
-0.1
1070
    41
1040
3.175
1070
   147
1040
1.5
1070
    42
1040
1.5875
1070
    44
1040
2.0
1070
   140
1040
3.0
1002
}
1001
ACAD_DSTYLE_DIM_LINETYPE
1070
   380
1005
16
1001
ACAD_DSTYLE_DIM_EXT1_LINETYPE
1070
   381
1005
16
1001
ACAD_DSTYLE_DIM_EXT2_LINETYPE
1070
   382
1005
16
0
DIMENSION
5
161
100
AcDbEntity
8
SK2
62
256
6
ByLayer
370
18
48
1
60
0
100
AcDbDimension
2
_U2
10
-25.484389
20
-10
30
0
11
-25.484389
21
-2.0125
31
0
70
32
71
1
72
1
41
1
210
0
220
0
230
1
3
Standard
100
AcDbAlignedDimension
13
0
23
5.975
33
0
14
0
24
-10
34
0
50
90
100
AcDbRotatedDimension
1001
ACAD
1000
DSTYLE
1002
{
1070
   371
1070
    13
1070
   372
1070
    13
1070
   170
1070
     0
1070
   144
1040
1.0
1070
   277
1070
     2
1070
   284
1070
     8
1070
   278
1070
    46
1070
   146
1040
1.166667
1070
   345
1005
16
1070
   347
1005
16
1070
   346
1005
16
1070
   344
1005
0
1070
   343
1005
0
1070
   172
1070
     1
1070
    76
1070
     0
1070
    75
1070
     0
1070
   282
1070
     0
1070
   281
1070
     0
1070
    71
1070
     0
1070
    74
1070
     0
1070
   279
1070
     0
1070
   173
1070
     1
1070
   340
1005
12A
1070
   271
1070
     0
1070
   272
1070
     2
1070
    77
1070
     1
1070
    73
1070
     0
1070
   171
1070
     3
1070
   274
1070
     4
1070
   177
1070
     7
1070
   176
1070
     7
1070
   178
1070
     7
1070
    78
1070
     8
1070
    48
1040
-0.1
1070
    41
1040
3.175
1070
   147
1040
1.5
1070
    42
1040
1.5875
1070
    44
1040
2.0
1070
   140
1040
3.0
1002
}
1001
ACAD_DSTYLE_DIM_LINETYPE
1070
   380
1005
16
1001
ACAD_DSTYLE_DIM_EXT1_LINETYPE
1070
   381
1005
16
1001
ACAD_DSTYLE_DIM_EXT2_LINETYPE
1070
   382
1005
16
0
DIMENSION
5
17A
100
AcDbEntity
8
SK2
62
256
6
ByLayer
370
18
48
1
60
0
100
AcDbDimension
2
_U3
10
23
20
-30.898859
30
0
11
3.25
21
-30.898859
31
0
70
32
71
1
72
1
41
1
210
0
220
0
230
1
3
Standard
100
AcDbAlignedDimension
13
-16.5
23
-2.910024
33
0
14
23
24
6
34
0
50
0
100
AcDbRotatedDimension
1001
ACAD
1000
DSTYLE
1002
{
1070
   371
1070
    13
1070
   372
1070
    13
1070
   170
1070
     0
1070
   144
1040
1.0
1070
   277
1070
     2
1070
   284
1070
     8
1070
   278
1070
    46
1070
   146
1040
1.166667
1070
   345
1005
16
1070
   347
1005
16
1070
   346
1005
16
1070
   344
1005
0
1070
   343
1005
0
1070
   172
1070
     1
1070
    76
1070
     0
1070
    75
1070
     0
1070
   282
1070
     0
1070
   281
1070
     0
1070
    71
1070
     0
1070
    74
1070
     0
1070
   279
1070
     0
1070
   173
1070
     1
1070
   340
1005
12A
1070
   271
1070
     2
1070
   272
1070
     2
1070
    77
1070
     1
1070
    73
1070
     1
1070
   171
1070
     3
1070
   274
1070
     4
1070
   177
1070
     7
1070
   176
1070
     7
1070
   178
1070
     7
1070
    78
1070
     8
1070
    48
1040
-0.1
1070
    41
1040
3.175
1070
   147
1040
1.5
1070
    42
1040
1.5875
1070
    44
1040
2.0
1070
   140
1040
3.0
1002
}
1001
ACAD_DSTYLE_DIM_LINETYPE
1070
   380
1005
16
1001
ACAD_DSTYLE_DIM_EXT1_LINETYPE
1070
   381
1005
16
1001
ACAD_DSTYLE_DIM_EXT2_LINETYPE
1070
   382
1005
16
0
ENDSEC
0
SECTION
2
OBJECTS
0
DICTIONARY
5
20b
330
0
100
AcDbDictionary
280
0
281
1
3
ACAD_GROUP
350
20c
3
ACAD_MLINESTYLE
350
20d
0
DICTIONARY
5
20c
330
0
100
AcDbDictionary
280
0
281
1
0
DICTIONARY
5
20d
330
0
100
AcDbDictionary
280
0
281
1
3
Standard
350
18
0
MLINESTYLE
5
18
330
20d
100
AcDbMlineStyle
2
Standard
70
0
3

62
256
51
90
52
90
71
2
49
-0.5
62
256
6
ByLayer
49
0.5
62
256
6
ByLayer
0
RASTERVARIABLES
5
1f9
330

100
AcDbRasterVariables
90
0
70
1
71
1
72
1
0
ENDSEC
0
EOF
