0
SECTION
2
HEADER
9
$ACADVER
1
AC1015
9
$DWGCODEPAGE
3
ANSI_1252
9
$HANDSEED
5
2aa
9
$ANGBASE
50
0
9
$ANGDIR
70
0
9
$ATTMODE
70
1
9
$AUNITS
70
0
9
$AUPREC
70
0
9
$CECOLOR
62
256
9
$CELTSCALE
40
1
9
$CELTYPE
6
ByLayer
9
$CELWEIGHT
370
18
9
$CLAYER
8
0
9
$CMLJUST
70
0
9
$CMLSCALE
40
1
9
$CMLSTYLE
2
Standard
9
$DIMSTYLE
2
Standard
9
$TEXTSIZE
40
0.2
9
$TEXTSTYLE
7
Standard
9
$LUNITS
70
2
9
$LUPREC
70
4
9
$EXTNAMES
290
1
9
$INSUNITS
70
4
9
$LTSCALE
40
1
9
$LWDISPLAY
290
1
9
$PDMODE
70
0
9
$PDSIZE
40
0
9
$PLINEGEN
70
0
0
ENDSEC
0
SECTION
2
CLASSES
0
CLASS
1
RASTERVARIABLES
2
AcDbRasterVariables
3
ISM
90
0
280
0
281
0
0
ENDSEC
0
SECTION
2
TABLES
0
TABLE
2
VPORT
5
2a0
100
AcDbSymbolTable
0
VPORT
5
1
100
AcDbSymbolTableRecord
100
AcDbViewportTableRecord
2
*Active
70
0
10
0
20
0
11
1
21
1
12
-1
22
1
13
0
23
0
14
0.5
24
0.5
15
10
25
10
16
0
26
0
36
1
17
0
27
0
37
0
0
ENDTAB
0
TABLE
2
LTYPE
5
2a1
100
AcDbSymbolTable
0
LTYPE
5
14
100
AcDbSymbolTableRecord
100
AcDbLinetypeTableRecord
70
0
2
ByBlock
3

72
65
73
0
40
0
0
LTYPE
5
15
100
AcDbSymbolTableRecord
100
AcDbLinetypeTableRecord
70
0
2
ByLayer
3

72
65
73
0
40
0
0
LTYPE
5
16
100
AcDbSymbolTableRecord
100
AcDbLinetypeTableRecord
70
0
2
Continuous
3
Solid line
72
65
73
0
40
0
0
LTYPE
5
6E
100
AcDbSymbolTableRecord
100
AcDbLinetypeTableRecord
70
0
2
CENTER
3
____ _ ____ _ ____ _ ____
72
65
73
4
40
47.5
49
22
74
0
49
-8.5
74
0
49
8.5
74
0
49
-8.5
74
0
0
LTYPE
5
6F
100
AcDbSymbolTableRecord
100
AcDbLinetypeTableRecord
70
0
2
DASHED
3
__ __ __ __ __ __ __ __ __
72
65
73
2
40
25.72
49
12.86
74
0
49
-12.86
74
0
0
ENDTAB
0
TABLE
2
LAYER
5
2a2
100
AcDbSymbolTable
0
LAYER
5
10
100
AcDbSymbolTableRecord
100
AcDbLayerTableRecord
2
0
70
0
62
7
6
Continuous
290
1
370
-3
390
0
0
LAYER
5
71
100
AcDbSymbolTableRecord
100
AcDbLayerTableRecord
2
80
70
0
62
-6
6
Continuous
290
1
370
-3
390
0
0
LAYER
5
73
100
AcDbSymbolTableRecord
100
AcDbLayerTableRecord
2
81
70
0
62
-3
6
Continuous
290
1
370
-3
390
0
0
LAYER
5
75
100
AcDbSymbolTableRecord
100
AcDbLayerTableRecord
2
1
70
0
62
4
6
Continuous
290
1
370
-3
390
0
0
LAYER
5
8D
100
AcDbSymbolTableRecord
100
AcDbLayerTableRecord
2
4
70
0
62
-2
6
CENTER
290
1
370
-3
390
0
0
LAYER
5
1D9
100
AcDbSymbolTableRecord
100
AcDbLayerTableRecord
2
Defpoints
70
0
62
7
6
Continuous
290
0
370
-3
390
0
0
LAYER
5
1E7
100
AcDbSymbolTableRecord
100
AcDbLayerTableRecord
2
2
70
0
62
7
6
Continuous
290
1
370
-3
390
0
0
LAYER
5
28c
100
AcDbSymbolTableRecord
100
AcDbLayerTableRecord
2
SK1
70
0
62
4
6
Continuous
290
1
370
-3
390
0
0
LAYER
5
28d
100
AcDbSymbolTableRecord
100
AcDbLayerTableRecord
2
SK4
70
0
62
2
6
CENTER
290
1
370
-3
390
0
0
LAYER
5
28e
100
AcDbSymbolTableRecord
100
AcDbLayerTableRecord
2
SK6
70
0
62
5
6
Continuous
290
1
370
-3
390
0
0
LAYER
5
28f
100
AcDbSymbolTableRecord
100
AcDbLayerTableRecord
2
SK2
70
0
62
7
6
Continuous
290
1
370
-3
390
0
0
ENDTAB
0
TABLE
2
STYLE
5
2a3
100
AcDbSymbolTable
0
STYLE
5
11
100
AcDbSymbolTableRecord
100
AcDbTextStyleTableRecord
2
Standard
3
txt
70
0
71
0
40
0
41
1
42
0
50
0
0
STYLE
5
1D2
100
AcDbSymbolTableRecord
100
AcDbTextStyleTableRecord
2
iso_b_vert
3
simplex.shx
70
0
71
0
40
0
41
1
42
0
50
0
0
STYLE
5
1D3
100
AcDbSymbolTableRecord
100
AcDbTextStyleTableRecord
2
DWGDirectTextStyle
3
simplex
70
0
71
0
40
0
41
1
42
0
50
0
0
ENDTAB
0
TABLE
2
DIMSTYLE
5
2a4
100
AcDbSymbolTable
100
AcDbDimStyleTable
0
DIMSTYLE
105
27
100
AcDbSymbolTableRecord
100
AcDbDimStyleTableRecord
2
Standard
70
0
3
<>
41
0.18
42
0.0625
44
0.18
140
0.18
147
0.09
73
0
74
0
77
1
271
2
275
0
278
52
280
0
340
11
0
ENDTAB
0
TABLE
2
VIEW
5
2a5
100
AcDbSymbolTable
0
ENDTAB
0
TABLE
2
UCS
5
2a6
100
AcDbSymbolTable
0
ENDTAB
0
TABLE
2
APPID
5
2a7
100
AcDbSymbolTable
0
APPID
5
12
100
AcDbSymbolTableRecord
100
AcDbRegAppTableRecord
2
ACAD
70
0
0
APPID
5
1D5
100
AcDbSymbolTableRecord
100
AcDbRegAppTableRecord
2
ACAD_DSTYLE_DIMBREAK
70
0
0
APPID
5
24B
100
AcDbSymbolTableRecord
100
AcDbRegAppTableRecord
2
ACAD_DSTYLE_DIM_LINETYPE
70
0
0
APPID
5
24C
100
AcDbSymbolTableRecord
100
AcDbRegAppTableRecord
2
ACAD_DSTYLE_DIM_EXT1_LINETYPE
70
0
0
APPID
5
24D
100
AcDbSymbolTableRecord
100
AcDbRegAppTableRecord
2
ACAD_DSTYLE_DIM_EXT2_LINETYPE
70
0
0
APPID
5
288
100
AcDbSymbolTableRecord
100
AcDbRegAppTableRecord
2
ACAD_MLEADERVER
70
0
0
ENDTAB
0
TABLE
2
BLOCK_RECORD
5
2a8
100
AcDbSymbolTable
0
BLOCK_RECORD
5
1F
100
AcDbSymbolTableRecord
100
AcDbBlockTableRecord
2
*Model_Space
340
0
70
0
0
BLOCK_RECORD
5
1B
100
AcDbSymbolTableRecord
100
AcDbBlockTableRecord
2
*Paper_Space
340
0
70
0
0
BLOCK_RECORD
5
23
100
AcDbSymbolTableRecord
100
AcDbBlockTableRecord
2
*Paper_Space0
340
0
70
0
0
BLOCK_RECORD
5
1DA
100
AcDbSymbolTableRecord
100
AcDbBlockTableRecord
2
*D1
340
0
70
0
0
BLOCK_RECORD
5
1E8
100
AcDbSymbolTableRecord
100
AcDbBlockTableRecord
2
_U0
340
0
70
0
0
BLOCK_RECORD
5
1F4
100
AcDbSymbolTableRecord
100
AcDbBlockTableRecord
2
*D3
340
0
70
0
0
BLOCK_RECORD
5
200
100
AcDbSymbolTableRecord
100
AcDbBlockTableRecord
2
_U1
340
0
70
0
0
BLOCK_RECORD
5
20C
100
AcDbSymbolTableRecord
100
AcDbBlockTableRecord
2
*D5
340
0
70
0
0
BLOCK_RECORD
5
219
100
AcDbSymbolTableRecord
100
AcDbBlockTableRecord
2
_U2
340
0
70
0
0
BLOCK_RECORD
5
223
100
AcDbSymbolTableRecord
100
AcDbBlockTableRecord
2
_U3
340
0
70
0
0
ENDTAB
0
ENDSEC
0
SECTION
2
BLOCKS
0
BLOCK
5
20
100
AcDbEntity
8
0
100
AcDbBlockBegin
2
*Model_Space
70
0
10
0
20
0
30
0
3
*Model_Space
0
ENDBLK
5
21
100
AcDbEntity
8
0
100
AcDbBlockEnd
0
BLOCK
5
1C
100
AcDbEntity
8
0
100
AcDbBlockBegin
2
*Paper_Space
70
0
10
0
20
0
30
0
3
*Paper_Space
0
ENDBLK
5
1D
100
AcDbEntity
8
0
100
AcDbBlockEnd
0
BLOCK
5
24
100
AcDbEntity
8
0
100
AcDbBlockBegin
2
*Paper_Space0
70
0
10
0
20
0
30
0
3
*Paper_Space0
0
ENDBLK
5
25
100
AcDbEntity
8
0
100
AcDbBlockEnd
0
BLOCK
5
1DB
100
AcDbEntity
8
0
100
AcDbBlockBegin
2
*D1
70
1
10
0
20
0
30
0
3
*D1
0
LINE
5
1DD
100
AcDbEntity
8
0
62
256
6
ByLayer
370
-2
48
1
60
0
100
AcDbLine
10
21.5875
20
14.9
30
0
11
39
21
14.9
31
0
39
0
210
0
220
0
230
1
0
LINE
5
1DE
100
AcDbEntity
8
0
62
256
6
ByLayer
370
-2
48
1
60
0
100
AcDbLine
10
1.5875
20
0
30
0
11
39
21
0
31
0
39
0
210
0
220
0
230
1
0
LINE
5
1DF
100
AcDbEntity
8
0
62
256
6
ByLayer
370
-2
48
1
60
0
100
AcDbLine
10
37
20
18.075
30
0
11
37
21
21.25
31
0
39
0
210
0
220
0
230
1
0
LINE
5
1E0
100
AcDbEntity
8
0
62
256
6
ByLayer
370
-2
48
1
60
0
100
AcDbLine
10
37
20
-3.175
30
0
11
37
21
-6.35
31
0
39
0
210
0
220
0
230
1
0
SOLID
5
1E1
100
AcDbEntity
8
0
62
256
6
ByLayer
370
-1
48
1
60
0
100
AcDbTrace
10
36.470833
20
18.075
30
0
11
37.529167
21
18.075
31
0
12
37
22
14.9
32
0
13
37
23
14.9
33
0
39
0
210
0
220
0
230
1
0
SOLID
5
1E2
100
AcDbEntity
8
0
62
256
6
ByLayer
370
-1
48
1
60
0
100
AcDbTrace
10
37.529167
20
-3.175
30
0
11
36.470833
21
-3.175
31
0
12
37
22
0
32
0
13
37
23
0
33
0
39
0
210
0
220
0
230
1
0
MTEXT
5
1E3
100
AcDbEntity
8
0
62
256
6
ByLayer
370
18
48
1
60
0
100
AcDbMText
10
31
20
7.45
30
0
210
0
220
0
230
1
1
\A1;15
40
3
41
0
44
1
50
90
71
5
72
5
7
iso_b_vert
0
POINT
5
1E4
100
AcDbEntity
8
Defpoints
62
0
6
ByLayer
370
-1
48
1
60
0
100
AcDbPoint
10
20
20
14.9
30
0
39
0
210
0
220
0
230
1
50
360
0
POINT
5
1E5
100
AcDbEntity
8
Defpoints
62
0
6
ByLayer
370
-1
48
1
60
0
100
AcDbPoint
10
0
20
0
30
0
39
0
210
0
220
0
230
1
50
360
0
POINT
5
1E6
100
AcDbEntity
8
Defpoints
62
0
6
ByLayer
370
-1
48
1
60
0
100
AcDbPoint
10
37
20
0
30
0
39
0
210
0
220
0
230
1
50
360
0
ENDBLK
5
1DC
100
AcDbEntity
8
0
100
AcDbBlockEnd
0
BLOCK
5
1EF
100
AcDbEntity
8
0
100
AcDbBlockBegin
2
_U0
70
0
10
0
20
0
30
0
3
_U0
0
MTEXT
5
1E9
100
AcDbEntity
8
2
62
256
6
ByLayer
370
18
48
1
60
0
100
AcDbMText
10
36.408886
20
6.168115
30
0
210
0
220
0
230
1
1
\W0.6563;15
40
3
41
0
44
1.084337
50
90
71
7
72
5
7
iso_b_vert
0
LINE
5
1EA
100
AcDbEntity
8
2
62
256
6
ByLayer
370
13
48
1
60
0
100
AcDbLine
10
21.5875
20
14.9
30
0
11
39
21
14.9
31
0
39
0
210
0
220
0
230
1
0
LINE
5
1EB
100
AcDbEntity
8
2
62
256
6
ByLayer
370
13
48
1
60
0
100
AcDbLine
10
1.5875
20
0
30
0
11
39
21
0
31
0
39
0
210
0
220
0
230
1
0
LINE
5
1EC
100
AcDbEntity
8
2
62
256
6
ByLayer
370
13
48
1
60
0
100
AcDbLine
10
37
20
14.9
30
0
11
37
21
0
31
0
39
0
210
0
220
0
230
1
0
SOLID
5
1ED
100
AcDbEntity
8
2
62
256
6
ByLayer
370
18
48
1
60
0
100
AcDbTrace
10
37
20
14.9
30
0
11
37.417997
21
11.725002
31
0
12
36.582003
22
11.724998
32
0
13
36.582003
23
11.724998
33
0
39
0
210
0
220
0
230
1
0
SOLID
5
1EE
100
AcDbEntity
8
2
62
256
6
ByLayer
370
18
48
1
60
0
100
AcDbTrace
10
37
20
0
30
0
11
36.582003
21
3.174998
31
0
12
37.417997
22
3.175002
32
0
13
37.417997
23
3.175002
33
0
39
0
210
0
220
0
230
1
0
ENDBLK
5
1F0
100
AcDbEntity
8
0
100
AcDbBlockEnd
0
BLOCK
5
1F5
100
AcDbEntity
8
0
100
AcDbBlockBegin
2
*D3
70
1
10
0
20
0
30
0
3
*D3
0
LINE
5
1F7
100
AcDbEntity
8
0
62
256
6
ByLayer
370
-2
48
1
60
0
100
AcDbLine
10
0
20
1.5875
30
0
11
0
21
23.467455
31
0
39
0
210
0
220
0
230
1
0
LINE
5
1F8
100
AcDbEntity
8
0
62
256
6
ByLayer
370
-2
48
1
60
0
100
AcDbLine
10
20
20
16.4875
30
0
11
20
21
23.467455
31
0
39
0
210
0
220
0
230
1
0
LINE
5
1F9
100
AcDbEntity
8
0
62
256
6
ByLayer
370
-2
48
1
60
0
100
AcDbLine
10
3.175
20
21.467455
30
0
11
16.825
21
21.467455
31
0
39
0
210
0
220
0
230
1
0
SOLID
5
1FA
100
AcDbEntity
8
0
62
256
6
ByLayer
370
-1
48
1
60
0
100
AcDbTrace
10
3.175
20
21.996621
30
0
11
3.175
21
20.938288
31
0
12
0
22
21.467455
32
0
13
0
23
21.467455
33
0
39
0
210
0
220
0
230
1
0
SOLID
5
1FB
100
AcDbEntity
8
0
62
256
6
ByLayer
370
-1
48
1
60
0
100
AcDbTrace
10
16.825
20
20.938288
30
0
11
16.825
21
21.996621
31
0
12
20
22
21.467455
32
0
13
20
23
21.467455
33
0
39
0
210
0
220
0
230
1
0
MTEXT
5
1FC
100
AcDbEntity
8
0
62
256
6
ByLayer
370
18
48
1
60
0
100
AcDbMText
10
10
20
27.467455
30
0
210
0
220
0
230
1
1
\A1;20
40
3
41
0
44
1
50
0
71
5
72
5
7
iso_b_vert
0
POINT
5
1FD
100
AcDbEntity
8
Defpoints
62
0
6
ByLayer
370
-1
48
1
60
0
100
AcDbPoint
10
0
20
0
30
0
39
0
210
0
220
0
230
1
50
360
0
POINT
5
1FE
100
AcDbEntity
8
Defpoints
62
0
6
ByLayer
370
-1
48
1
60
0
100
AcDbPoint
10
20
20
14.9
30
0
39
0
210
0
220
0
230
1
50
360
0
POINT
5
1FF
100
AcDbEntity
8
Defpoints
62
0
6
ByLayer
370
-1
48
1
60
0
100
AcDbPoint
10
20
20
21.467455
30
0
39
0
210
0
220
0
230
1
50
360
0
ENDBLK
5
1F6
100
AcDbEntity
8
0
100
AcDbBlockEnd
0
BLOCK
5
207
100
AcDbEntity
8
0
100
AcDbBlockBegin
2
_U1
70
0
10
0
20
0
30
0
3
_U1
0
MTEXT
5
201
100
AcDbEntity
8
2
62
256
6
ByLayer
370
18
48
1
60
0
100
AcDbMText
10
8.367172
20
22.352569
30
0
210
0
220
0
230
1
1
\W0.7335;20
40
3
41
0
44
1.084337
50
0
71
7
72
5
7
iso_b_vert
0
LINE
5
202
100
AcDbEntity
8
2
62
256
6
ByLayer
370
13
48
1
60
0
100
AcDbLine
10
0
20
1.5875
30
0
11
0
21
23.467455
31
0
39
0
210
0
220
0
230
1
0
LINE
5
203
100
AcDbEntity
8
2
62
256
6
ByLayer
370
13
48
1
60
0
100
AcDbLine
10
20
20
16.4875
30
0
11
20
21
23.467455
31
0
39
0
210
0
220
0
230
1
0
LINE
5
204
100
AcDbEntity
8
2
62
256
6
ByLayer
370
13
48
1
60
0
100
AcDbLine
10
0
20
21.467455
30
0
11
20
21
21.467455
31
0
39
0
210
0
220
0
230
1
0
SOLID
5
205
100
AcDbEntity
8
2
62
256
6
ByLayer
370
18
48
1
60
0
100
AcDbTrace
10
0
20
21.467455
30
0
11
3.174998
21
21.885451
31
0
12
3.175002
22
21.049458
32
0
13
3.175002
23
21.049458
33
0
39
0
210
0
220
0
230
1
0
SOLID
5
206
100
AcDbEntity
8
2
62
256
6
ByLayer
370
18
48
1
60
0
100
AcDbTrace
10
20
20
21.467455
30
0
11
16.825002
21
21.049458
31
0
12
16.824998
22
21.885451
32
0
13
16.824998
23
21.885451
33
0
39
0
210
0
220
0
230
1
0
ENDBLK
5
208
100
AcDbEntity
8
0
100
AcDbBlockEnd
0
BLOCK
5
20D
100
AcDbEntity
8
0
100
AcDbBlockBegin
2
*D5
70
1
10
0
20
0
30
0
3
*D5
0
LINE
5
20F
100
AcDbEntity
8
0
62
256
6
ByLayer
370
-2
48
1
60
0
100
AcDbLine
10
1.161438
20
9.921567
30
0
11
-13.136385
21
9.921567
31
0
39
0
210
0
220
0
230
1
0
LINE
5
210
100
AcDbEntity
8
0
62
256
6
ByLayer
370
-2
48
1
60
0
100
AcDbLine
10
1.179971
20
-9.921567
30
0
11
-13.136385
21
-9.921567
31
0
39
0
210
0
220
0
230
1
0
LINE
5
211
100
AcDbEntity
8
0
62
256
6
ByLayer
370
-2
48
1
60
0
100
AcDbLine
10
-11.136385
20
6.746567
30
0
11
-11.136385
21
-6.746567
31
0
39
0
210
0
220
0
230
1
0
SOLID
5
212
100
AcDbEntity
8
0
62
256
6
ByLayer
370
-1
48
1
60
0
100
AcDbTrace
10
-10.607218
20
6.746567
30
0
11
-11.665551
21
6.746567
31
0
12
-11.136385
22
9.921567
32
0
13
-11.136385
23
9.921567
33
0
39
0
210
0
220
0
230
1
0
SOLID
5
213
100
AcDbEntity
8
0
62
256
6
ByLayer
370
-1
48
1
60
0
100
AcDbTrace
10
-11.665551
20
-6.746567
30
0
11
-10.607218
21
-6.746567
31
0
12
-11.136385
22
-9.921567
32
0
13
-11.136385
23
-9.921567
33
0
39
0
210
0
220
0
230
1
0
MTEXT
5
214
100
AcDbEntity
8
0
62
256
6
ByLayer
370
18
48
1
60
0
100
AcDbMText
10
-17.136385
20
0
30
0
210
0
220
0
230
1
1
\A1;19.84
40
3
41
0
44
1
50
90
71
5
72
5
7
iso_b_vert
0
POINT
5
215
100
AcDbEntity
8
Defpoints
62
0
6
ByLayer
370
-1
48
1
60
0
100
AcDbPoint
10
2.748938
20
9.921567
30
0
39
0
210
0
220
0
230
1
50
360
0
POINT
5
216
100
AcDbEntity
8
Defpoints
62
0
6
ByLayer
370
-1
48
1
60
0
100
AcDbPoint
10
2.767471
20
-9.921567
30
0
39
0
210
0
220
0
230
1
50
360
0
POINT
5
217
100
AcDbEntity
8
Defpoints
62
0
6
ByLayer
370
-1
48
1
60
0
100
AcDbPoint
10
-11.136385
20
-9.921567
30
0
39
0
210
0
220
0
230
1
50
360
0
ENDBLK
5
20E
100
AcDbEntity
8
0
100
AcDbBlockEnd
0
BLOCK
5
221
100
AcDbEntity
8
0
100
AcDbBlockBegin
2
_U2
70
0
10
0
20
0
30
0
3
_U2
0
MTEXT
5
21A
100
AcDbEntity
8
SK2
62
256
6
ByLayer
370
18
48
1
60
0
100
AcDbMText
10
-12.477499
20
2.843172
30
0
210
0
220
0
230
1
1
\W0.7335;20
40
3
41
0
44
1.084337
50
90
71
7
72
5
7
iso_b_vert
0
MTEXT
5
21B
100
AcDbEntity
8
SK2
62
256
6
ByLayer
370
18
48
1
60
0
100
AcDbMText
10
-12.477499
20
-6.156828
30
0
210
0
220
0
230
1
1
%%c
40
3
41
0
44
1.084337
50
90
71
7
72
5
7
iso_b_vert
0
LINE
5
21C
100
AcDbEntity
8
SK2
62
256
6
ByLayer
370
13
48
1
60
0
100
AcDbLine
10
-1.136734
20
9.921567
30
0
11
-13.136385
21
9.921567
31
0
39
0
210
0
220
0
230
1
0
LINE
5
21D
100
AcDbEntity
8
SK2
62
256
6
ByLayer
370
13
48
1
60
0
100
AcDbLine
10
-1.136734
20
-9.921567
30
0
11
-13.136385
21
-9.921567
31
0
39
0
210
0
220
0
230
1
0
LINE
5
21E
100
AcDbEntity
8
SK2
62
256
6
ByLayer
370
13
48
1
60
0
100
AcDbLine
10
-11.136385
20
9.921567
30
0
11
-11.136385
21
-9.921567
31
0
39
0
210
0
220
0
230
1
0
SOLID
5
21F
100
AcDbEntity
8
SK2
62
256
6
ByLayer
370
18
48
1
60
0
100
AcDbTrace
10
-11.136385
20
9.921567
30
0
11
-10.718388
21
6.746569
31
0
12
-11.554381
22
6.746565
32
0
13
-11.554381
23
6.746565
33
0
39
0
210
0
220
0
230
1
0
SOLID
5
220
100
AcDbEntity
8
SK2
62
256
6
ByLayer
370
18
48
1
60
0
100
AcDbTrace
10
-11.136385
20
-9.921567
30
0
11
-11.554381
21
-6.746569
31
0
12
-10.718388
22
-6.746565
32
0
13
-10.718388
23
-6.746565
33
0
39
0
210
0
220
0
230
1
0
ENDBLK
5
222
100
AcDbEntity
8
0
100
AcDbBlockEnd
0
BLOCK
5
22B
100
AcDbEntity
8
0
100
AcDbBlockBegin
2
_U3
70
0
10
0
20
0
30
0
3
_U3
0
MTEXT
5
224
100
AcDbEntity
8
SK2
62
256
6
ByLayer
370
18
48
1
60
0
100
AcDbMText
10
21.713945
20
4.283414
30
0
210
0
220
0
230
1
1
\W0.8094;107.5%%d
40
3
41
0
44
1.084337
50
36.2500005525077
71
7
72
5
7
iso_b_vert
0
LINE
5
225
100
AcDbEntity
8
SK2
62
256
6
ByLayer
370
13
48
1
60
0
100
AcDbLine
10
21.5875
20
14.9
30
0
11
32.39898
21
14.9
31
0
39
0
210
0
220
0
230
1
0
LINE
5
226
100
AcDbEntity
8
SK2
62
256
6
ByLayer
370
13
48
1
60
0
100
AcDbLine
10
16.594878
20
3.643609
30
0
11
16.458861
21
3.212221
31
0
39
0
210
0
220
0
230
1
0
ARC
5
227
100
AcDbEntity
8
SK2
62
256
6
ByLayer
370
13
48
1
60
0
100
AcDbCircle
39
0
10
20.144004
20
14.9
30
0
40
10.2549765328583
210
0
220
0
230
1
100
AcDbArc
50
252.500001
51
359.999943
0
SOLID
5
228
100
AcDbEntity
8
SK2
62
256
6
ByLayer
370
18
48
1
60
0
100
AcDbTrace
10
30.39898
20
14.9
30
0
11
30.57217
21
11.702291
31
0
12
29.738641
22
11.766423
32
0
13
30.39898
23
14.9
33
0
39
0
210
0
220
0
230
1
0
SOLID
5
229
100
AcDbEntity
8
SK2
62
256
6
ByLayer
370
18
48
1
60
0
100
AcDbTrace
10
17.060273
20
5.119655
30
0
11
20.247384
21
4.807148
31
0
12
20.057906
22
3.99291
32
0
13
17.060273
23
5.119655
33
0
39
0
210
0
220
0
230
1
0
ENDBLK
5
22C
100
AcDbEntity
8
0
100
AcDbBlockEnd
0
ENDSEC
0
SECTION
2
ENTITIES
0
ARC
5
11C
100
AcDbEntity
8
1
62
256
6
ByLayer
370
13
48
1
60
0
100
AcDbCircle
39
0
10
7.658312
20
12.5
30
0
40
2.99999999999997
210
0
220
0
230
1
100
AcDbArc
50
239.25797
51
247.824388
0
ARC
5
11D
100
AcDbEntity
8
1
62
256
6
ByLayer
370
13
48
1
60
0
100
AcDbCircle
39
0
10
12.401024
20
-13.156334
30
0
40
8.00000000000101
210
0
220
0
230
1
100
AcDbArc
50
105.257262
51
136.479497
0
ARC
5
11E
100
AcDbEntity
8
1
62
256
6
ByLayer
370
13
48
1
60
0
100
AcDbCircle
39
0
10
7.658312
20
12.5
30
0
40
3.00000000000587
210
0
220
0
230
1
100
AcDbArc
50
249.343117
51
270
0
ARC
5
11F
100
AcDbEntity
8
1
62
256
6
ByLayer
370
13
48
1
60
0
100
AcDbCircle
39
0
10
8.453677
20
1.315137
30
0
40
7.0001677300003
210
0
220
0
230
1
100
AcDbArc
50
285.257262
51
342.5
0
ELLIPSE
5
120
100
AcDbEntity
8
1
62
256
6
ByLayer
370
13
48
1
60
0
100
AcDbEllipse
10
14.326203
20
6.88292
30
0
11
0.753082757414706
21
0.242617138542129
31
0
210
0
220
0
230
1
40
0.998188
41
0.64912195627561
42
1.69631950747957
0
ELLIPSE
5
121
100
AcDbEntity
8
1
62
256
6
ByLayer
370
13
48
1
60
0
100
AcDbEllipse
10
14.326203
20
6.88292
30
0
11
0.752740723129416
21
0.243673165765416
31
0
210
0
220
0
230
1
40
0.998192
41
-2.39457043986781
42
-1.65012755132365
0
ELLIPSE
5
122
100
AcDbEntity
8
1
62
256
6
ByLayer
370
13
48
1
60
0
100
AcDbEllipse
10
13.940133
20
7.70853
30
0
11
0.218999199502668
21
0.10224976191368
31
0
210
0
220
0
230
1
40
0.503258
41
-2.80214458178192
42
-1.57049432002043
0
ELLIPSE
5
123
100
AcDbEntity
8
1
62
256
6
ByLayer
370
13
48
1
60
0
100
AcDbEllipse
10
13.940133
20
7.70853
30
0
11
0.218999526154391
21
0.102248188465459
31
0
210
0
220
0
230
1
40
0.503253
41
-1.57048834357045
42
-0.338838081837292
0
ELLIPSE
5
124
100
AcDbEntity
8
1
62
256
6
ByLayer
370
13
48
1
60
0
100
AcDbEllipse
10
14.849573
20
7.63034
30
0
11
-0.198084633367652
21
0.138011084164633
31
0
210
0
220
0
230
1
40
0.504379
41
0.337957910290667
42
1.56960817201543
0
ELLIPSE
5
125
100
AcDbEntity
8
1
62
256
6
ByLayer
370
13
48
1
60
0
100
AcDbEllipse
10
14.849573
20
7.63034
30
0
11
-0.198082037423392
21
0.138013904632995
31
0
210
0
220
0
230
1
40
0.504382
41
1.56961461834883
42
2.80126488010189
0
ELLIPSE
5
126
100
AcDbEntity
8
1
62
256
6
ByLayer
370
13
48
1
60
0
100
AcDbEllipse
10
13.416763
20
6.9611
30
0
11
0.0210897252039658
21
0.240403539260154
31
0
210
0
220
0
230
1
40
0.504776
41
-1.56992035262397
42
-0.779181122685053
0
ELLIPSE
5
127
100
AcDbEntity
8
1
62
256
6
ByLayer
370
13
48
1
60
0
100
AcDbEllipse
10
13.416763
20
6.9611
30
0
11
0.0210891834227377
21
0.240403936533128
31
0
210
0
220
0
230
1
40
0.504777
41
-2.80156602559869
42
-1.56991576380276
0
ELLIPSE
5
128
100
AcDbEntity
8
1
62
256
6
ByLayer
370
13
48
1
60
0
100
AcDbEllipse
10
15.235653
20
6.80473
30
0
11
0.0210890363907635
21
0.240403489858944
31
0
210
0
220
0
230
1
40
0.504774
41
2.36241343477948
42
2.80332280475448
0
ELLIPSE
5
129
100
AcDbEntity
8
1
62
256
6
ByLayer
370
13
48
1
60
0
100
AcDbEllipse
10
14.324353
20
6.88865
30
0
11
1.64286678659084
21
0.525953979169499
31
0
210
0
220
0
230
1
40
0.998185
41
-3.13957324576756
42
0.00192102363610398
0
ELLIPSE
5
12A
100
AcDbEntity
8
1
62
256
6
ByLayer
370
13
48
1
60
0
100
AcDbEllipse
10
14.405483
20
7.79126
30
0
11
-0.240755015915013
21
0.0205929428252421
31
0
210
0
220
0
230
1
40
0.503497
41
-2.8586325345674
42
0.194173706378899
0
ELLIPSE
5
12B
100
AcDbEntity
8
1
62
256
6
ByLayer
370
13
48
1
60
0
100
AcDbEllipse
10
13.578113
20
7.40481
30
0
11
0.138663865414429
21
0.197771338695704
31
0
210
0
220
0
230
1
40
0.503889
41
-0.193854654966476
42
2.89514917165888
0
ELLIPSE
5
12C
100
AcDbEntity
8
1
62
256
6
ByLayer
370
13
48
1
60
0
100
AcDbEllipse
10
14.321933
20
6.89616
30
0
11
1.71737028466723
21
0.554758026550965
31
0
210
0
220
0
230
1
40
0.998182
41
0
42
6.28318530717959
0
ELLIPSE
5
12D
100
AcDbEntity
8
1
62
256
6
ByLayer
370
13
48
1
60
0
100
AcDbEllipse
10
14.317543
20
6.90979
30
0
11
1.79324194005771
21
0.579266666437529
31
0
210
0
220
0
230
1
40
0.998182
41
0
42
6.28318530717959
0
ELLIPSE
5
12E
100
AcDbEntity
8
1
62
256
6
ByLayer
370
13
48
1
60
0
100
AcDbEllipse
10
9.011773
20
-0.62178
30
0
11
0.377857754742436
21
0.121375193783048
31
0
210
0
220
0
230
1
40
0.998186
41
2.52620854159217
42
-1.22624935019689
0
ELLIPSE
5
12F
100
AcDbEntity
8
1
62
256
6
ByLayer
370
13
48
1
60
0
100
AcDbEllipse
10
14.307483
20
6.941
30
0
11
1.82946719327595
21
0.590968423599342
31
0
210
0
220
0
230
1
40
0.998182
41
0
42
6.28318530717959
0
ELLIPSE
5
130
100
AcDbEntity
8
1
62
256
6
ByLayer
370
13
48
1
60
0
100
AcDbEllipse
10
16.693763
20
5.27626
30
0
11
0.377812662818749
21
0.121524547165538
31
0
210
0
220
0
230
1
40
0.998179
41
-1.22663978686615
42
-0.615774548476317
0
ELLIPSE
5
131
100
AcDbEntity
8
1
62
256
6
ByLayer
370
13
48
1
60
0
100
AcDbEllipse
10
19.603193
20
14.50378
30
0
11
0.37785775474861
21
0.121375193763253
31
0
210
0
220
0
230
1
40
0.998186
41
-0.615384111945615
42
1.91534330344539
0
ELLIPSE
5
132
100
AcDbEntity
8
1
62
256
6
ByLayer
370
13
48
1
60
0
100
AcDbEllipse
10
11.921203
20
8.60574
30
0
11
0.377812662819269
21
0.121524547163946
31
0
210
0
220
0
230
1
40
0.998179
41
1.91495286672787
42
2.52581810511769
0
ELLIPSE
5
133
100
AcDbEntity
8
1
62
256
6
ByLayer
370
13
48
1
60
0
100
AcDbEllipse
10
14.326203
20
6.88292
30
0
11
0.752764252309131
21
0.243593520050426
31
0
210
0
220
0
230
1
40
0.998188
41
1.69502250349263
42
2.74222005466913
0
ELLIPSE
5
134
100
AcDbEntity
8
1
62
256
6
ByLayer
370
13
48
1
60
0
100
AcDbEllipse
10
14.326203
20
6.88292
30
0
11
0.752418238110424
21
0.244671781790562
31
0
210
0
220
0
230
1
40
0.998185
41
2.74078665740284
42
-2.68489154541413
0
ELLIPSE
5
135
100
AcDbEntity
8
1
62
256
6
ByLayer
370
13
48
1
60
0
100
AcDbEllipse
10
14.326203
20
6.88292
30
0
11
0.753325077066968
21
0.241861331119604
31
0
210
0
220
0
230
1
40
0.99819
41
-1.25460880181566
42
-0.470700229790041
0
ELLIPSE
5
136
100
AcDbEntity
8
1
62
256
6
ByLayer
370
13
48
1
60
0
100
AcDbEllipse
10
14.326203
20
6.88292
30
0
11
0.752863136493381
21
0.243291987385939
31
0
210
0
220
0
230
1
40
0.998186
41
-0.284613794184929
42
0.648226824415358
0
ELLIPSE
5
137
100
AcDbEntity
8
1
62
256
6
ByLayer
370
13
48
1
60
0
100
AcDbEllipse
10
9.077103
20
-0.79425
30
0
11
1.50661577455085
21
0.486218098990593
31
0
210
0
220
0
230
1
40
0.998184
41
2.96056716892395
42
-2.62136117212246
0
ELLIPSE
5
138
100
AcDbEntity
8
1
62
256
6
ByLayer
370
13
48
1
60
0
100
AcDbEllipse
10
9.077103
20
-0.79425
30
0
11
1.50738816723212
21
0.483818318171714
31
0
210
0
220
0
230
1
40
0.998187
41
-0.529453506440578
42
0.221790229038914
0
ELLIPSE
5
139
100
AcDbEntity
8
1
62
256
6
ByLayer
370
13
48
1
60
0
100
AcDbEllipse
10
9.282223
20
7.67076
30
0
11
2.74774618972424
21
1.78775766942408
31
0
210
0
220
0
230
1
40
0.274079
41
-1.11299254669535
42
-0.91664890651581
0
ELLIPSE
5
13A
100
AcDbEntity
8
1
62
256
6
ByLayer
370
13
48
1
60
0
100
AcDbEllipse
10
10.704663
20
10.11401
30
0
11
-2.67280009527357
21
1.43570943507614
31
0
210
0
220
0
230
1
40
0.599115
41
1.41530088615192
42
1.7323094892379
0
ELLIPSE
5
13B
100
AcDbEntity
8
1
62
256
6
ByLayer
370
13
48
1
60
0
100
AcDbEllipse
10
8.458483
20
0.01288
30
0
11
1.41582158597097
21
0.458346983350824
31
0
210
0
220
0
230
1
40
0.998184
41
1.40299380282575
42
3.07939712859937
0
ELLIPSE
5
13C
100
AcDbEntity
8
1
62
256
6
ByLayer
370
13
48
1
60
0
100
AcDbEllipse
10
8.484628
20
-0.068082
30
0
11
-0.734557781306807
21
1.39923824876369
31
0
210
0
220
0
230
1
40
0.939785
41
-0.348887046400985
42
-0.33778401631106
0
ELLIPSE
5
13D
100
AcDbEntity
8
1
62
256
6
ByLayer
370
13
48
1
60
0
100
AcDbEllipse
10
8.182363
20
0.86948
30
0
11
1.29189851578289
21
0.824759485948922
31
0
210
0
220
0
230
1
40
0.329999
41
1.19805744137539
42
1.32906498022332
0
ELLIPSE
5
13E
100
AcDbEntity
8
1
62
256
6
ByLayer
370
13
48
1
60
0
100
AcDbEllipse
10
8.636493
20
-0.53934
30
0
11
-0.984789827956138
21
2.05012187730168
31
0
210
0
220
0
230
1
40
0.646088
41
-0.495139547127329
42
-0.207091886527033
0
ELLIPSE
5
13F
100
AcDbEntity
8
1
62
256
6
ByLayer
370
13
48
1
60
0
100
AcDbEllipse
10
9.022593
20
-0.62516
30
0
11
1.60273497559214
21
0.513960967139453
31
0
210
0
220
0
230
1
40
0.998193
41
-0.0516917353855914
42
0.121728782095926
0
ELLIPSE
5
140
100
AcDbEntity
8
1
62
256
6
ByLayer
370
13
48
1
60
0
100
AcDbEllipse
10
9.012956
20
-0.595541
30
0
11
-1.19927052398757
21
2.54509784224706
31
0
210
0
220
0
230
1
40
0.589236
41
-1.61864979651144
42
-1.59380717107502
0
ELLIPSE
5
141
100
AcDbEntity
8
1
62
256
6
ByLayer
370
13
48
1
60
0
100
AcDbEllipse
10
9.075253
20
-0.78852
30
0
11
1.60126844767495
21
0.518538371238747
31
0
210
0
220
0
230
1
40
0.998188
41
0.0507971793570388
42
0.17152363502284
0
ELLIPSE
5
142
100
AcDbEntity
8
1
62
256
6
ByLayer
370
13
48
1
60
0
100
AcDbEllipse
10
9.075253
20
-0.78852
30
0
11
1.60272229032903
21
0.514026562821127
31
0
210
0
220
0
230
1
40
0.998184
41
2.9833898330303
42
3.08945928801107
0
ELLIPSE
5
143
100
AcDbEntity
8
1
62
256
6
ByLayer
370
13
48
1
60
0
100
AcDbEllipse
10
9.020473
20
-0.61858
30
0
11
-1.68233222898238
21
0.0606714672115159
31
0
210
0
220
0
230
1
40
0.998513
41
0.187726382943112
42
-2.84739669944338
0
ELLIPSE
5
144
100
AcDbEntity
8
1
62
256
6
ByLayer
370
13
48
1
60
0
100
AcDbEllipse
10
8.403413
20
0.18374
30
0
11
-1.48744449496745
21
0.0539741084673261
31
0
210
0
220
0
230
1
40
0.998511
41
-1.22157301531092
42
0.826787818825644
0
ELLIPSE
5
145
100
AcDbEntity
8
1
62
256
6
ByLayer
370
13
48
1
60
0
100
AcDbEllipse
10
9.988463
20
9.57182
30
0
11
0.900355361218284
21
0.453090182496667
31
0
210
0
220
0
230
1
40
0.991113
41
-2.93480314909226
42
-2.64851857609046
0
ELLIPSE
5
146
100
AcDbEntity
8
1
62
256
6
ByLayer
370
13
48
1
60
0
100
AcDbEllipse
10
11.073743
20
11.28459
30
0
11
-2.99943358044771
21
0.0731694766608014
31
0
210
0
220
0
230
1
40
0.99857
41
0.810452916172342
42
0.920425005841434
0
ELLIPSE
5
147
100
AcDbEntity
8
1
62
256
6
ByLayer
370
13
48
1
60
0
100
AcDbEllipse
10
6.599961
20
17.402195
30
0
11
-4.65454132971157E-05
21
31.0569989669544
31
0
210
0
220
0
230
1
40
0.051516
41
1.81405424209934
42
1.83510098038622
0
ELLIPSE
5
148
100
AcDbEntity
8
1
62
256
6
ByLayer
370
13
48
1
60
0
100
AcDbEllipse
10
15.153583
20
7.26937
30
0
11
-0.102234492576456
21
0.218536701370186
31
0
210
0
220
0
230
1
40
0.505026
41
-1.84773760216016
42
0.194732743811137
0
ELLIPSE
5
149
100
AcDbEntity
8
1
62
256
6
ByLayer
370
13
48
1
60
0
100
AcDbEllipse
10
13.498833
20
6.49647
30
0
11
-0.102234907926399
21
0.218538233952292
31
0
210
0
220
0
230
1
40
0.505019
41
-0.195343032466306
42
1.29386827811209
0
ELLIPSE
5
14A
100
AcDbEntity
8
1
62
256
6
ByLayer
370
13
48
1
60
0
100
AcDbEllipse
10
8.460333
20
0.00715
30
0
11
1.32101871689524
21
0.42654281016792
31
0
210
0
220
0
230
1
40
0.998179
41
1.39736096017439
42
-2.63905471504419
0
ELLIPSE
5
14B
100
AcDbEntity
8
1
62
256
6
ByLayer
370
13
48
1
60
0
100
AcDbEllipse
10
19.635613
20
5.13653
30
0
11
2.95677981431349
21
0.515258478499294
31
0
210
0
220
0
230
1
40
0.997901
41
3.09803884211843
42
-3.04219135015899
0
ELLIPSE
5
14C
100
AcDbEntity
8
1
62
256
6
ByLayer
370
13
48
1
60
0
100
AcDbEllipse
10
14.307733
20
6.94024
30
0
11
0.984315593678739
21
0.320080291393687
31
0
210
0
220
0
230
1
40
0.998185
41
1.16999033212283
42
2.21718788331454
0
ELLIPSE
5
14D
100
AcDbEntity
8
1
62
256
6
ByLayer
370
13
48
1
60
0
100
AcDbEllipse
10
14.307733
20
6.94024
30
0
11
0.984768248503528
21
0.318669712284454
31
0
210
0
220
0
230
1
40
0.998188
41
0.124226172271944
42
1.17142372347235
0
ELLIPSE
5
14E
100
AcDbEntity
8
1
62
256
6
ByLayer
370
13
48
1
60
0
100
AcDbEllipse
10
14.307733
20
6.94024
30
0
11
0.985184919412641
21
0.317392402377169
31
0
210
0
220
0
230
1
40
0.998188
41
-0.921674369877254
42
0.125523181309964
0
ELLIPSE
5
14F
100
AcDbEntity
8
1
62
256
6
ByLayer
370
13
48
1
60
0
100
AcDbEllipse
10
14.307733
20
6.94024
30
0
11
0.984315593678767
21
0.320080291393602
31
0
210
0
220
0
230
1
40
0.998185
41
-1.97160232146688
42
-0.924404770275167
0
ELLIPSE
5
150
100
AcDbEntity
8
1
62
256
6
ByLayer
370
13
48
1
60
0
100
AcDbEllipse
10
14.307733
20
6.94024
30
0
11
0.984768248503427
21
0.318669712284774
31
0
210
0
220
0
230
1
40
0.998188
41
-3.01736648131817
42
-1.97016893011777
0
ELLIPSE
5
151
100
AcDbEntity
8
1
62
256
6
ByLayer
370
13
48
1
60
0
100
AcDbEllipse
10
14.307733
20
6.94024
30
0
11
0.985184919412667
21
0.317392402377091
31
0
210
0
220
0
230
1
40
0.998188
41
2.21991828371262
42
-3.01606947227975
0
ELLIPSE
5
152
100
AcDbEntity
8
1
62
256
6
ByLayer
370
13
48
1
60
0
100
AcDbEllipse
10
14.307733
20
6.94024
30
0
11
1.23705862740981
21
0.399604097617051
31
0
210
0
220
0
230
1
40
0.998182
41
0
42
6.28318530717959
0
ELLIPSE
5
153
100
AcDbEntity
8
1
62
256
6
ByLayer
370
13
48
1
60
0
100
AcDbEllipse
10
14.310943
20
6.93027
30
0
11
1.6414816402024
21
0.530243898806305
31
0
210
0
220
0
230
1
40
0.998182
41
0
42
6.28318530717959
0
POINT
5
70
100
AcDbEntity
8
80
62
256
6
ByLayer
370
18
48
1
60
0
100
AcDbPoint
10
0
20
0
30
0
39
0
210
0
220
0
230
1
50
360
0
POINT
5
72
100
AcDbEntity
8
81
62
256
6
ByLayer
370
18
48
1
60
0
100
AcDbPoint
10
20
20
14.9
30
0
39
0
210
0
220
0
230
1
50
360
0
POINT
5
74
100
AcDbEntity
8
1
62
256
6
ByLayer
370
13
48
1
60
1
100
AcDbPoint
10
584.485341
20
412.611639
30
0
39
0
210
0
220
0
230
1
50
360
0
POINT
5
76
100
AcDbEntity
8
1
62
256
6
ByLayer
370
13
48
1
60
1
100
AcDbPoint
10
606.876413
20
412.611639
30
0
39
0
210
0
220
0
230
1
50
360
0
POINT
5
77
100
AcDbEntity
8
1
62
256
6
ByLayer
370
13
48
1
60
1
100
AcDbPoint
10
582.141294
20
417.207833
30
0
39
0
210
0
220
0
230
1
50
360
0
POINT
5
78
100
AcDbEntity
8
1
62
256
6
ByLayer
370
13
48
1
60
1
100
AcDbPoint
10
590.958794
20
417.207833
30
0
39
0
210
0
220
0
230
1
50
360
0
POINT
5
79
100
AcDbEntity
8
1
62
256
6
ByLayer
370
13
48
1
60
1
100
AcDbPoint
10
584.485341
20
421.804027
30
0
39
0
210
0
220
0
230
1
50
360
0
POINT
5
7A
100
AcDbEntity
8
1
62
256
6
ByLayer
370
13
48
1
60
1
100
AcDbPoint
10
595.749578
20
421.804027
30
0
39
0
210
0
220
0
230
1
50
360
0
POINT
5
7B
100
AcDbEntity
8
1
62
256
6
ByLayer
370
13
48
1
60
1
100
AcDbPoint
10
603.28505
20
427.849203
30
0
39
0
210
0
220
0
230
1
50
360
0
POINT
5
7C
100
AcDbEntity
8
1
62
256
6
ByLayer
370
13
48
1
60
1
100
AcDbPoint
10
603.294165
20
428.371404
30
0
39
0
210
0
220
0
230
1
50
360
0
POINT
5
7D
100
AcDbEntity
8
1
62
256
6
ByLayer
370
13
48
1
60
1
100
AcDbPoint
10
603.286332
20
427.922666
30
0
39
0
210
0
220
0
230
1
50
360
0
POINT
5
7E
100
AcDbEntity
8
1
62
256
6
ByLayer
370
13
48
1
60
1
100
AcDbPoint
10
603.294294
20
428.378794
30
0
39
0
210
0
220
0
230
1
50
360
0
SPLINE
5
154
100
AcDbEntity
8
1
62
256
6
ByLayer
370
13
48
1
60
0
100
AcDbSpline
70
4
71
3
72
18
73
14
40
0
40
0
40
0
40
0
40
0.125
40
0.125
40
0.25
40
0.25
40
0.375
40
0.375
40
0.5
40
0.5
40
0.75
40
0.75
40
1
40
1
40
1
40
1
41
1
10
-0.298765877365327
20
-6.12081833033238
30
0
41
1
10
-0.298765877364758
20
-6.11026697780932
30
0
41
1
10
-0.29809761614888
20
-6.09936367937519
30
0
41
1
10
-0.295924575473691
20
-6.0770838829859
30
0
41
1
10
-0.294410617299945
20
-6.06570316100419
30
0
41
1
10
-0.290762556009668
20
-6.0425683046056
30
0
41
1
10
-0.288631738627828
20
-6.0308578058283
30
0
41
1
10
-0.283948507578998
20
-6.00743160137432
30
0
41
1
10
-0.281388732064556
20
-5.99567700567599
30
0
41
1
10
-0.273185581458733
20
-5.96030230653332
30
0
41
1
10
-0.267026676672913
20
-5.93657206089983
30
0
41
1
10
-0.253664882689463
20
-5.88885570832383
30
0
41
1
10
-0.246457722900914
20
-5.86486911728582
30
0
41
1
10
-0.238765877365381
20
-5.84076208671041
30
0
0
SPLINE
5
155
100
AcDbEntity
8
1
62
256
6
ByLayer
370
13
48
1
60
0
100
AcDbSpline
70
4
71
3
72
16
73
12
40
0
40
0
40
0
40
0
40
0.323736264807101
40
0.323736264807101
40
0.492802198605326
40
0.492802198605326
40
0.661868132403551
40
0.661868132403551
40
0.830934066201775
40
0.830934066201775
40
1
40
1
40
1
40
1
41
1
10
-0.261804729700884
20
-7.00833344337252
30
0
41
1
10
-0.268306033938188
20
-7.01796667094828
30
0
41
1
10
-0.274270872327293
20
-7.02732357273743
30
0
41
1
10
-0.282325585279409
20
-7.0410240146706
30
0
41
1
10
-0.284906194308746
20
-7.04563601231604
30
0
41
1
10
-0.28949614403075
20
-7.05439166091281
30
0
41
1
10
-0.291523284465598
20
-7.05856340319099
30
0
41
1
10
-0.294937203229551
20
-7.066414369494
30
0
41
1
10
-0.296334294626149
20
-7.07012845289233
30
0
41
1
10
-0.298245673806832
20
-7.07673222072071
30
0
41
1
10
-0.298765877366122
20
-7.07961770072052
30
0
41
1
10
-0.298765877366236
20
-7.08200940189533
30
0
0
SPLINE
5
156
100
AcDbEntity
8
1
62
256
6
ByLayer
370
13
48
1
60
0
100
AcDbSpline
70
4
71
3
72
20
73
16
40
0
40
0
40
0
40
0
40
0.125000000000001
40
0.125000000000001
40
0.250000000000002
40
0.250000000000002
40
0.375000000000003
40
0.375000000000003
40
0.500000000000005
40
0.500000000000005
40
0.625000000000006
40
0.625000000000006
40
0.750000000000007
40
0.750000000000007
40
1
40
1
40
1
40
1
41
1
10
-0.29876587736544
20
-7.12970301028651
30
0
41
1
10
-0.29876587736544
20
-7.13135999945553
30
0
41
1
10
-0.29839101035725
20
-7.13265600982788
30
0
41
1
10
-0.296859197918025
20
-7.13435637591533
30
0
41
1
10
-0.295708776505194
20
-7.13477709756972
30
0
41
1
10
-0.292598847638828
20
-7.13472247289724
30
0
41
1
10
-0.290647521419146
20
-7.1342369057449
30
0
41
1
10
-0.286134558954131
20
-7.13244555903719
30
0
41
1
10
-0.283538016664693
20
-7.13112904986582
30
0
41
1
10
-0.277814481518476
20
-7.1277715761247
30
0
41
1
10
-0.274738559392858
20
-7.125764087113
30
0
41
1
10
-0.268221762361804
20
-7.12119682081709
30
0
41
1
10
-0.264760749033144
20
-7.11862078810674
30
0
41
1
10
-0.254015443373191
20
-7.11025503359804
30
0
41
1
10
-0.246517923880219
20
-7.1039591271454
30
0
41
1
10
-0.238765877365381
20
-7.09713426540753
30
0
0
SPLINE
5
157
100
AcDbEntity
8
1
62
256
6
ByLayer
370
13
48
1
60
0
100
AcDbSpline
70
4
71
3
72
20
73
16
40
0
40
0
40
0
40
0
40
0.25
40
0.25
40
0.375
40
0.375
40
0.5
40
0.5
40
0.625
40
0.625
40
0.75
40
0.75
40
0.875
40
0.875
40
1
40
1
40
1
40
1
41
1
10
-0.238765877365381
20
-7.12029111935624
30
0
41
1
10
-0.246546867234997
20
-7.12930334997702
30
0
41
1
10
-0.253926243770024
20
-7.13808934663689
30
0
41
1
10
-0.264299233000088
20
-7.15085457313972
30
0
41
1
10
-0.267645390688927
20
-7.15504814378431
30
0
41
1
10
-0.273945102070684
20
-7.16311220112868
30
0
41
1
10
-0.276914961871739
20
-7.1670022579944
30
0
41
1
10
-0.282448768221457
20
-7.17445841880209
30
0
41
1
10
-0.285013453957845
20
-7.17802511972383
30
0
41
1
10
-0.289654558691154
20
-7.18476547092104
30
0
41
1
10
-0.291694450334717
20
-7.18788755786153
30
0
41
1
10
-0.295076223667138
20
-7.19347882176993
30
0
41
1
10
-0.296435693701028
20
-7.19597962709372
30
0
41
1
10
-0.298282805600934
20
-7.20012457844052
30
0
41
1
10
-0.29876587736544
20
-7.20174965556743
30
0
41
1
10
-0.29876587736544
20
-7.20288531101471
30
0
0
SPLINE
5
158
100
AcDbEntity
8
1
62
256
6
ByLayer
370
13
48
1
60
0
100
AcDbSpline
70
4
71
3
72
16
73
12
40
0
40
0
40
0
40
0
40
0.125000000000004
40
0.125000000000004
40
0.250000000000007
40
0.250000000000007
40
0.500000000000005
40
0.500000000000005
40
0.750000000000002
40
0.750000000000002
40
1
40
1
40
1
40
1
41
1
10
-0.298765877388746
20
-6.60766390353183
30
0
41
1
10
-0.298765877387837
20
-6.60172818357029
30
0
41
1
10
-0.298178305731767
20
-6.59535073640609
30
0
41
1
10
-0.296159435029494
20
-6.5819443283022
30
0
41
1
10
-0.294717573183334
20
-6.57490335005662
30
0
41
1
10
-0.289502955452804
20
-6.55345779414199
30
0
41
1
10
-0.284839493602817
20
-6.5385695660903
30
0
41
1
10
-0.273874024392967
20
-6.50794547082893
30
0
41
1
10
-0.267650927117757
20
-6.49246427143049
30
0
41
1
10
-0.25406829769895
20
-6.4613280576441
30
0
41
1
10
-0.246697522576142
20
-6.44565433727701
30
0
41
1
10
-0.238765877365381
20
-6.42988705333329
30
0
0
SPLINE
5
159
100
AcDbEntity
8
1
62
256
6
ByLayer
370
13
48
1
60
0
100
AcDbSpline
70
4
71
3
72
8
73
4
40
0
40
0
40
0
40
0
40
1
40
1
40
1
40
1
41
1
10
-0.238765877365381
20
-6.42988705333329
30
0
41
1
10
-0.177719234042229
20
-6.30853268945151
30
0
41
1
10
-0.120725640474802
20
-6.1852747826988
30
0
41
1
10
-0.0686910066872315
20
-6.05968786616194
30
0
0
SPLINE
5
15A
100
AcDbEntity
8
1
62
256
6
ByLayer
370
13
48
1
60
0
100
AcDbSpline
70
4
71
3
72
16
73
12
40
0
40
0
40
0
40
0
40
0.25
40
0.25
40
0.5
40
0.5
40
0.75
40
0.75
40
0.875
40
0.875
40
1
40
1
40
1
40
1
41
1
10
-0.238765877365381
20
6.42988705333306
30
0
41
1
10
-0.24670744379489
20
6.4456740596255
30
0
41
1
10
-0.254105446418862
20
6.46140415939237
30
0
41
1
10
-0.267762082659033
20
6.49272823460677
30
0
41
1
10
-0.274013781983058
20
6.50831684074421
30
0
41
1
10
-0.284862941660435
20
6.5386542797533
30
0
41
1
10
-0.289513838277003
20
6.55348640133269
30
0
41
1
10
-0.294740528971488
20
6.57500589832489
30
0
41
1
10
-0.296174193538377
20
6.5820294567219
30
0
41
1
10
-0.298179058635469
20
6.5953687121692
30
0
41
1
10
-0.298765877365327
20
6.60172888676397
30
0
41
1
10
-0.298765877365327
20
6.6076639035154
30
0
0
SPLINE
5
15B
100
AcDbEntity
8
1
62
256
6
ByLayer
370
13
48
1
60
0
100
AcDbSpline
70
4
71
3
72
20
73
16
40
0
40
0
40
0
40
0
40
0.125
40
0.125
40
0.25
40
0.25
40
0.375
40
0.375
40
0.5
40
0.5
40
0.625
40
0.625
40
0.75
40
0.75
40
1
40
1
40
1
40
1
41
1
10
-0.29876587736544
20
7.20288531101437
30
0
41
1
10
-0.29876587736544
20
7.20174747864309
30
0
41
1
10
-0.298280852381708
20
7.20011608460118
30
0
41
1
10
-0.296416707812682
20
7.19594117973077
30
0
41
1
10
-0.29506731578158
20
7.19346351575439
30
0
41
1
10
-0.291691605562505
20
7.18788343460517
30
0
41
1
10
-0.289652801961324
20
7.18476288786121
30
0
41
1
10
-0.285013824821704
20
7.17802569007716
30
0
41
1
10
-0.282447799074021
20
7.174456963441
30
0
41
1
10
-0.27690486895267
20
7.16698880880608
30
0
41
1
10
-0.27392725298273
20
7.16308880125757
30
0
41
1
10
-0.26760453884151
20
7.1549964076292
30
0
41
1
10
-0.264257721014815
20
7.15080301113687
30
0
41
1
10
-0.253909701832185
20
7.13806994957656
30
0
41
1
10
-0.246541990073979
20
7.12929770106831
30
0
41
1
10
-0.238765877365381
20
7.12029111935601
30
0
0
SPLINE
5
15C
100
AcDbEntity
8
1
62
256
6
ByLayer
370
13
48
1
60
0
100
AcDbSpline
70
4
71
3
72
22
73
18
40
0
40
0
40
0
40
0
40
0.125
40
0.125
40
0.25
40
0.25
40
0.375
40
0.375
40
0.5
40
0.5
40
0.625
40
0.625
40
0.75
40
0.75
40
0.875
40
0.875
40
1
40
1
40
1
40
1
41
1
10
-0.238765877365381
20
7.09713426540731
30
0
41
1
10
-0.242651477075128
20
7.1005551273355
30
0
41
1
10
-0.246479580015375
20
7.10384689335427
30
0
41
1
10
-0.254006090853295
20
7.11013431982826
30
0
41
1
10
-0.257721791900394
20
7.11314279008627
30
0
41
1
10
-0.264838727625602
20
7.1186792554625
30
0
41
1
10
-0.268255800197949
20
7.1212216292551
30
0
41
1
10
-0.274767096327992
20
7.12578312470498
30
0
41
1
10
-0.277888967988815
20
7.12781806281151
30
0
41
1
10
-0.283582123505084
20
7.1311520722777
30
0
41
1
10
-0.286153279858581
20
7.13245546620118
30
0
41
1
10
-0.290687898851502
20
7.13425042423882
30
0
41
1
10
-0.292634217583782
20
7.1347264266094
30
0
41
1
10
-0.295708990756793
20
7.13477373012591
30
0
41
1
10
-0.296866820619925
20
7.13435683932261
30
0
41
1
10
-0.298407080607262
20
7.1326291084161
30
0
41
1
10
-0.29876587736544
20
7.13134889164337
30
0
41
1
10
-0.29876587736544
20
7.12970301028628
30
0
0
SPLINE
5
15D
100
AcDbEntity
8
1
62
256
6
ByLayer
370
13
48
1
60
0
100
AcDbSpline
70
4
71
3
72
16
73
12
40
0
40
0
40
0
40
0
40
0.170144526918163
40
0.170144526918163
40
0.340289053836325
40
0.340289053836325
40
0.680578107672638
40
0.680578107672638
40
0.850722634590798
40
0.850722634590798
40
1
40
1
40
1
40
1
41
1
10
-0.29876587736544
20
7.08200940189477
30
0
41
1
10
-0.29876587736544
20
7.0795891844864
30
0
41
1
10
-0.298224486586037
20
7.07664006019166
30
0
41
1
10
-0.296304982645893
20
7.07004664752247
30
0
41
1
10
-0.294924342592026
20
7.06637727195806
30
0
41
1
10
-0.289725070376903
20
7.05444336342316
30
0
41
1
10
-0.285027030186939
20
7.0456089225346
30
0
41
1
10
-0.276687320670476
20
7.03143891407558
30
0
41
1
10
-0.273695186384657
20
7.02657728285948
30
0
41
1
10
-0.26782547213611
20
7.01737549120548
30
0
41
1
10
-0.264967716677802
20
7.01302573110297
30
0
41
1
10
-0.262006042436951
20
7.00863197799657
30
0
0
SPLINE
5
15E
100
AcDbEntity
8
1
62
256
6
ByLayer
370
13
48
1
60
0
100
AcDbSpline
70
4
71
3
72
16
73
12
40
0
40
0
40
0
40
0
40
0.250000000000002
40
0.250000000000002
40
0.500000000000004
40
0.500000000000004
40
0.750000000000006
40
0.750000000000006
40
0.875000000000003
40
0.875000000000003
40
1
40
1
40
1
40
1
41
1
10
-0.238765877365381
20
5.84076208671007
30
0
41
1
10
-0.24646437221088
20
5.86488995690297
30
0
41
1
10
-0.253712752803153
20
5.88901592790177
30
0
41
1
10
-0.267099722499779
20
5.93684374200961
30
0
41
1
10
-0.273257447214746
20
5.96059111892026
30
0
41
1
10
-0.284171526849036
20
6.0076986675171
30
0
41
1
10
-0.288949127279352
20
6.03106193712171
30
0
41
1
10
-0.294412311486212
20
6.06571699757581
30
0
41
1
10
-0.295930022134257
20
6.0771291843742
30
0
41
1
10
-0.298100343177339
20
6.09940222110981
30
0
41
1
10
-0.298765877364758
20
6.11029241381851
30
0
41
1
10
-0.298765877365327
20
6.1208183303321
30
0
0
SPLINE
5
15F
100
AcDbEntity
8
1
62
256
6
ByLayer
370
13
48
1
60
0
100
AcDbSpline
70
4
71
3
72
8
73
4
40
0
40
0
40
0
40
0
40
1
40
1
40
1
40
1
41
1
10
-0.0644086931193897
20
6.04931934716581
30
0
41
1
10
-0.117515773168748
20
6.17830173044308
30
0
41
1
10
-0.175953431620201
20
6.3050224582903
30
0
41
1
10
-0.238765877365381
20
6.42988705333306
30
0
0
SPLINE
5
160
100
AcDbEntity
8
1
62
256
6
ByLayer
370
13
48
1
60
0
100
AcDbSpline
70
4
71
3
72
45
73
41
40
0
40
0
40
0
40
0
40
0.0625000000000007
40
0.0625000000000007
40
0.125000000000001
40
0.125000000000001
40
0.156250000000002
40
0.171875000000002
40
0.171875000000002
40
0.187500000000002
40
0.187500000000002
40
0.250000000000003
40
0.250000000000003
40
0.312500000000004
40
0.375000000000006
40
0.375000000000006
40
0.390625000000006
40
0.390625000000006
40
0.406250000000006
40
0.437500000000005
40
0.437500000000005
40
0.500000000000004
40
0.562500000000003
40
0.562500000000003
40
0.593750000000003
40
0.593750000000003
40
0.625000000000003
40
0.625000000000003
40
0.687500000000002
40
0.750000000000002
40
0.750000000000002
40
0.781250000000002
40
0.781250000000002
40
0.812500000000001
40
0.812500000000001
40
0.875000000000001
40
0.875000000000001
40
0.937500000000001
40
0.937500000000001
40
1
40
1
40
1
40
1
41
1
10
4.99999999999989
20
-2.68219344999443
30
0
41
1
10
4.99999999999989
20
-2.75487874249194
30
0
41
1
10
5.00379630997463
20
-2.82968467375559
30
0
41
1
10
5.01656127079639
20
-2.98350514118329
30
0
41
1
10
5.02554219149101
20
-3.0625196258901
30
0
41
1
10
5.04144737499246
20
-3.18426829866871
30
0
41
1
10
5.05001215969912
20
-3.2459508558506
30
0
41
1
10
5.05924345773951
20
-3.30887312007553
30
0
41
1
10
5.06551855234193
20
-3.35110087988738
30
0
41
1
10
5.06872000165936
20
-3.37237735087064
30
0
41
1
10
5.0848987034118
20
-3.4790598298448
30
0
41
1
10
5.09840310741458
20
-3.56551610309202
30
0
41
1
10
5.12483000745431
20
-3.740794954178
30
0
41
1
10
5.15068067338768
20
-3.91843999067902
30
0
41
1
10
5.17228435919276
20
-4.10123142369213
30
0
41
1
10
5.18357482160582
20
-4.21725371798084
30
0
41
1
10
5.18572391979399
20
-4.24056552492152
30
0
41
1
10
5.1897593583559
20
-4.28710393820222
30
0
41
1
10
5.19542835417383
20
-4.35687530197754
30
0
41
1
10
5.19988512090652
20
-4.42653930505924
30
0
41
1
10
5.20706447923317
20
-4.5657268006787
30
0
41
1
10
5.21198136633313
20
-4.75093615696363
30
0
41
1
10
5.20706400261281
20
-4.93540756193192
30
0
41
1
10
5.19986797604975
20
-5.0734793407554
30
0
41
1
10
5.19688856505161
20
-5.1194562132365
30
0
41
1
10
5.18984458979173
20
-5.21131386678729
30
0
41
1
10
5.18576794496778
20
-5.25729503929369
30
0
41
1
10
5.17223140500073
20
-5.39359167770732
30
0
41
1
10
5.15064518136808
20
-5.57176174359404
30
0
41
1
10
5.12478731968542
20
-5.7433667965791
30
0
41
1
10
5.10494896900593
20
-5.8697506320305
30
0
41
1
10
5.09826304818921
20
-5.91149124326802
30
0
41
1
10
5.08495253669037
20
-5.99421331825744
30
0
41
1
10
5.07831929909764
20
-6.03524816324801
30
0
41
1
10
5.05889955424652
20
-6.15687478495323
30
0
41
1
10
5.04669304647041
20
-6.23536013536074
30
0
41
1
10
5.02552362216613
20
-6.38736105845283
30
0
41
1
10
5.01655344449682
20
-6.4608761024885
30
0
41
1
10
5.00379786500025
20
-6.60300509922462
30
0
41
1
10
4.99999999999989
20
-6.67161923267241
30
0
41
1
10
4.99999999999989
20
-6.73774119947529
30
0
0
SPLINE
5
161
100
AcDbEntity
8
1
62
256
6
ByLayer
370
13
48
1
60
0
100
AcDbSpline
70
4
71
3
72
28
73
24
40
0
40
0
40
0
40
0
40
0.124999999999998
40
0.124999999999998
40
0.249999999999997
40
0.249999999999997
40
0.312499999999996
40
0.312499999999996
40
0.343749999999996
40
0.343749999999996
40
0.374999999999995
40
0.374999999999995
40
0.499999999999997
40
0.499999999999997
40
0.624999999999998
40
0.624999999999998
40
0.687499999999998
40
0.687499999999998
40
0.749999999999999
40
0.749999999999999
40
0.874999999999999
40
0.874999999999999
40
1
40
1
40
1
40
1
41
1
10
4.99999999999989
20
5.8004282215087
30
0
41
1
10
4.99999999999989
20
5.69306780821267
30
0
41
1
10
5.00253586911697
20
5.58408074526386
30
0
41
1
10
5.00936234260632
20
5.36290328829267
30
0
41
1
10
5.01366460175961
20
5.2507126470868
30
0
41
1
10
5.01966405129554
20
5.07997193388832
30
0
41
1
10
5.02159436328611
20
5.02264833713429
30
0
41
1
10
5.02421514226819
20
4.93603300078018
30
0
41
1
10
5.02504331123907
20
4.90705617152861
30
0
41
1
10
5.02658476422573
20
4.8488891735895
30
0
41
1
10
5.02729873784551
20
4.81966003079958
30
0
41
1
10
5.03051051845603
20
4.67387850672088
30
0
41
1
10
5.03191204380971
20
4.55787098123568
30
0
41
1
10
5.0319248862844
20
4.3270536824723
30
0
41
1
10
5.03053760010926
20
4.21224399721336
30
0
41
1
10
5.0267483252029
20
4.04093135331027
30
0
41
1
10
5.02520785929357
20
3.98397777129628
30
0
41
1
10
5.02172667298976
20
3.8703764735144
30
0
41
1
10
5.0197803822166
20
3.81358886686718
30
0
41
1
10
5.01373639011172
20
3.64548239136229
30
0
41
1
10
5.00940160133962
20
3.53599003829606
30
0
41
1
10
5.00253860930161
20
3.32202462116078
30
0
41
1
10
4.99999999999989
20
3.21755144105237
30
0
41
1
10
4.99999999999989
20
3.11561916169819
30
0
0
SPLINE
5
162
100
AcDbEntity
8
1
62
256
6
ByLayer
370
13
48
1
60
0
100
AcDbSpline
70
4
71
3
72
34
73
30
40
0
40
0
40
0
40
0
40
0.0312499999999988
40
0.0312499999999988
40
0.0468749999999981
40
0.0468749999999981
40
0.0624999999999975
40
0.0624999999999975
40
0.124999999999993
40
0.124999999999993
40
0.187499999999989
40
0.187499999999989
40
0.218749999999989
40
0.218749999999989
40
0.249999999999988
40
0.249999999999988
40
0.312499999999989
40
0.312499999999989
40
0.37499999999999
40
0.37499999999999
40
0.499999999999993
40
0.499999999999993
40
0.624999999999995
40
0.624999999999995
40
0.749999999999998
40
0.749999999999998
40
0.874999999999999
40
0.874999999999999
40
1
40
1
40
1
40
1
41
1
10
3.49999999999989
20
4.35889894354057
30
0
41
1
10
3.49081667101211
20
4.35889894354057
30
0
41
1
10
3.48180748723462
20
4.35803148050718
30
0
41
1
10
3.46853086560464
20
4.35554846982256
30
0
41
1
10
3.46414496629211
20
4.35452324472101
30
0
41
1
10
3.45544962908104
20
4.35209154910331
30
0
41
1
10
3.45112344152324
20
4.35067739474528
30
0
41
1
10
3.43007713026225
20
4.34284288495707
30
0
41
1
10
3.41476154627765
20
4.33410679970598
30
0
41
1
10
3.38643341958868
20
4.31336016364116
30
0
41
1
10
3.37386932402114
20
4.30168928595151
30
0
41
1
10
3.35659164438846
20
4.28289830752738
30
0
41
1
10
3.3511013426189
20
4.27641451469322
30
0
41
1
10
3.34058074885672
20
4.26306827957382
30
0
41
1
10
3.33554815392279
20
4.25619867098607
30
0
41
1
10
3.32121933954409
20
4.23534512782066
30
0
41
1
10
3.31261265185401
20
4.22103428643038
30
0
41
1
10
3.29680344149267
20
4.19179425895351
30
0
41
1
10
3.28960599960453
20
4.17686298050808
30
0
41
1
10
3.26970786930576
20
4.13130833129361
30
0
41
1
10
3.25864874344632
20
4.099789542667
30
0
41
1
10
3.24007011784352
20
4.03636288379477
30
0
41
1
10
3.23250534206591
20
4.00434355552278
30
0
41
1
10
3.219983726333
20
3.93980228319077
30
0
41
1
10
3.21503654096739
20
3.9072790549522
30
0
41
1
10
3.20730707380415
20
3.84178640205619
30
0
41
1
10
3.20452844114516
20
3.8088164949441
30
0
41
1
10
3.20087328777743
20
3.74246287510476
30
0
41
1
10
3.19999999999993
20
3.70905326341347
30
0
41
1
10
3.19999999999993
20
3.67559518989776
30
0
0
SPLINE
5
163
100
AcDbEntity
8
1
62
256
6
ByLayer
370
13
48
1
60
0
100
AcDbSpline
70
4
71
3
72
9
73
5
40
0
40
0
40
0
40
0
40
0.5
40
1
40
1
40
1
40
1
41
1
10
4.99999999999989
20
9.86479688169561
30
0
41
1
10
4.99999999999989
20
9.87568647071527
30
0
41
1
10
5.00786945307209
20
9.89600048127829
30
0
41
1
10
5.03133735379947
20
9.91349791483947
30
0
41
1
10
5.04710884728013
20
9.92156741649211
30
0
0
SPLINE
5
164
100
AcDbEntity
8
1
62
256
6
ByLayer
370
13
48
1
60
0
100
AcDbSpline
70
4
71
3
72
8
73
4
40
0
40
0
40
0
40
0
40
1
40
1
40
1
40
1
41
1
10
5.08417472587507
20
-9.92156741649234
30
0
41
1
10
5.09823873275502
20
-9.88975547451849
30
0
41
1
10
5.11667617887702
20
-9.84856521378509
30
0
41
1
10
5.13989323368878
20
-9.79836168712382
30
0
0
SPLINE
5
165
100
AcDbEntity
8
1
62
256
6
ByLayer
370
13
48
1
60
0
100
AcDbSpline
70
4
71
3
72
17
73
13
40
0
40
0
40
0
40
0
40
0.124999999999999
40
0.124999999999999
40
0.249999999999997
40
0.249999999999997
40
0.499999999999998
40
0.749999999999998
40
0.749999999999998
40
0.874999999999999
40
0.874999999999999
40
1
40
1
40
1
40
1
41
1
10
5.13989323368878
20
-9.79836168712382
30
0
41
1
10
5.1282710641608
20
-9.79312103406949
30
0
41
1
10
5.11731847700628
20
-9.78770071980273
30
0
41
1
10
5.0969675209426
20
-9.77660726424773
30
0
41
1
10
5.08753399664749
20
-9.77091890248329
30
0
41
1
10
5.06141414089382
20
-9.7534187665276
30
0
41
1
10
5.03239156961922
20
-9.72892568431604
30
0
41
1
10
5.01478483880783
20
-9.70199077734122
30
0
41
1
10
5.00592705867234
20
-9.68081813648672
30
0
41
1
10
5.00369961944398
20
-9.67358642670189
30
0
41
1
10
5.00073876401075
20
-9.65888309414339
30
0
41
1
10
4.99999999999989
20
-9.65140505478723
30
0
41
1
10
4.99999999999989
20
-9.64379997736739
30
0
0
SPLINE
5
166
100
AcDbEntity
8
1
62
256
6
ByLayer
370
13
48
1
60
0
100
AcDbSpline
70
4
71
3
72
34
73
30
40
0
40
0
40
0
40
0
40
0.249999999999991
40
0.249999999999991
40
0.374999999999988
40
0.374999999999988
40
0.437499999999986
40
0.437499999999986
40
0.499999999999984
40
0.499999999999984
40
0.624999999999982
40
0.624999999999982
40
0.687499999999984
40
0.687499999999984
40
0.749999999999985
40
0.749999999999985
40
0.812499999999987
40
0.812499999999987
40
0.843749999999989
40
0.843749999999989
40
0.874999999999991
40
0.874999999999991
40
0.906249999999993
40
0.906249999999993
40
0.937499999999996
40
0.937499999999996
40
0.968749999999998
40
0.968749999999998
40
1
40
1
40
1
40
1
41
1
10
3.19999999999993
20
-3.67559518989799
30
0
41
1
10
3.19999999999993
20
-3.74251406554458
30
0
41
1
10
3.20342167717479
20
-3.8087791584307
30
0
41
1
10
3.21500761443883
20
-3.90707665796282
30
0
41
1
10
3.21995690435062
20
-3.93965795535439
30
0
41
1
10
3.22937631090554
20
-3.98821834588364
30
0
41
1
10
3.23285053410552
20
-4.00435303426053
30
0
41
1
10
3.24056162828003
20
-4.03650912854459
30
0
41
1
10
3.24480591051179
20
-4.05255652422613
30
0
41
1
10
3.25881340162175
20
-4.1002990257486
30
0
41
1
10
3.26979641610967
20
-4.13156325555212
30
0
41
1
10
3.28981172556132
20
-4.1773073729251
30
0
41
1
10
3.29706342079464
20
-4.19230970392653
30
0
41
1
10
3.31286443458794
20
-4.22146423462323
30
0
41
1
10
3.32142491153991
20
-4.23565268309659
30
0
41
1
10
3.34025393462537
20
-4.26303882791649
30
0
41
1
10
3.35051276461297
20
-4.27624194269413
30
0
41
1
10
3.36770997693861
20
-4.29501190576741
30
0
41
1
10
3.37374692185097
20
-4.30109441304279
30
0
41
1
10
3.386591570061
20
-4.3128214493118
30
0
41
1
10
3.39332240904264
20
-4.31839152012401
30
0
41
1
10
3.40741132018979
20
-4.32873719947941
30
0
41
1
10
3.41478353115713
20
-4.33352798574174
30
0
41
1
10
3.43034285965336
20
-4.34216270499019
30
0
41
1
10
3.43848811655596
20
-4.3459688770194
30
0
41
1
10
3.45517620922681
20
-4.352190998244
30
0
41
1
10
3.46377428780431
20
-4.35464068048952
30
0
41
1
10
3.48156152581385
20
-4.35800310739199
30
0
41
1
10
3.49078877962563
20
-4.35889894354079
30
0
41
1
10
3.49999999999989
20
-4.35889894354079
30
0
0
SPLINE
5
167
100
AcDbEntity
8
1
62
256
6
ByLayer
370
13
48
1
60
0
100
AcDbSpline
70
4
71
3
72
8
73
4
40
0
40
0
40
0
40
0
40
1
40
1
40
1
40
1
41
1
10
0.450765999999931
20
-9.92156741649234
30
0
41
1
10
0.200840732761549
20
-9.66966642469652
30
0
41
1
10
-0.0490105579756346
20
-9.41769109859854
30
0
41
1
10
-0.29876587736544
20
-9.16562384608289
30
0
0
SPLINE
5
168
100
AcDbEntity
8
1
62
256
6
ByLayer
370
13
48
1
60
0
100
AcDbSpline
70
4
71
3
72
8
73
4
40
0
40
0
40
0
40
0
40
1
40
1
40
1
40
1
41
1
10
-0.298765877365327
20
9.16562384608267
30
0
41
1
10
-0.0490099744738473
20
9.41769168750136
30
0
41
1
10
0.200840928102366
20
9.66966662158131
30
0
41
1
10
0.450765999999931
20
9.92156741649211
30
0
0
SPLINE
5
169
100
AcDbEntity
8
1
62
256
6
ByLayer
370
13
48
1
60
0
100
AcDbSpline
70
4
71
3
72
20
73
16
40
0
40
0
40
0
40
0
40
0.125
40
0.125
40
0.250000000000001
40
0.250000000000001
40
0.375000000000001
40
0.375000000000001
40
0.500000000000001
40
0.500000000000001
40
0.625000000000002
40
0.625000000000002
40
0.750000000000002
40
0.750000000000002
40
1
40
1
40
1
40
1
41
1
10
-0.298765877365327
20
9.15570013077138
30
0
41
1
10
-0.298765877365327
20
9.15487415843427
30
0
41
1
10
-0.29835813918703
20
9.15445992591481
30
0
41
1
10
-0.296733411437231
20
9.15444963178197
30
0
41
1
10
-0.295494997978381
20
9.15486570094276
30
0
41
1
10
-0.292281398152454
20
9.15649800774338
30
0
41
1
10
-0.290321842147023
20
9.15769994808551
30
0
41
1
10
-0.285760153402066
20
9.16080846145707
30
0
41
1
10
-0.283136582257612
20
9.16273330525451
30
0
41
1
10
-0.277489331796914
20
9.16708959501221
30
0
41
1
10
-0.274448835749126
20
9.16953119160206
30
0
41
1
10
-0.267989310743019
20
9.17487605210158
30
0
41
1
10
-0.264546342372455
20
9.17780068395871
30
0
41
1
10
-0.253957093734471
20
9.18698493671332
30
0
41
1
10
-0.246511994975208
20
9.19367974382709
30
0
41
1
10
-0.238765877365381
20
9.2008256932836
30
0
0
SPLINE
5
16A
100
AcDbEntity
8
1
62
256
6
ByLayer
370
13
48
1
60
0
100
AcDbSpline
70
4
71
3
72
8
73
4
40
0
40
0
40
0
40
0
40
1
40
1
40
1
40
1
41
1
10
0.346265877365113
20
-8.93043793549583
30
0
41
1
10
0.151181989686393
20
-8.76803053634438
30
0
41
1
10
-0.0438327685197919
20
-8.60551254082679
30
0
41
1
10
-0.238765877365267
20
-8.4428639190765
30
0
0
SPLINE
5
16B
100
AcDbEntity
8
1
62
256
6
ByLayer
370
13
48
1
60
0
100
AcDbSpline
70
4
71
3
72
20
73
16
40
0
40
0
40
0
40
0
40
0.250000000000012
40
0.250000000000012
40
0.37500000000001
40
0.37500000000001
40
0.500000000000008
40
0.500000000000008
40
0.625000000000006
40
0.625000000000006
40
0.750000000000004
40
0.750000000000004
40
0.875000000000002
40
0.875000000000002
40
1
40
1
40
1
40
1
41
1
10
-0.238765877365267
20
-8.4428639190765
30
0
41
1
10
-0.246592497585993
20
-8.4363335302707
30
0
41
1
10
-0.254275734422208
20
-8.4304596424484
30
0
41
1
10
-0.265277702903973
20
-8.42320112188241
30
0
41
1
10
-0.268788587365293
20
-8.42108856397539
30
0
41
1
10
-0.275451746705812
20
-8.41756427429624
30
0
41
1
10
-0.27862191034319
20
-8.41615145392433
30
0
41
1
10
-0.284298928753969
20
-8.41423241202449
30
0
41
1
10
-0.286837546894276
20
-8.41370543733478
30
0
41
1
10
-0.291269245213471
20
-8.41357901622013
30
0
41
1
10
-0.293103730330358
20
-8.41398807293263
30
0
41
1
10
-0.295984931678845
20
-8.41565975473469
30
0
41
1
10
-0.297051066930749
20
-8.41693004788664
30
0
41
1
10
-0.29844691038204
20
-8.42025096446423
30
0
41
1
10
-0.29876587736544
20
-8.4222595669774
30
0
41
1
10
-0.29876587736544
20
-8.42456039474649
30
0
0
SPLINE
5
16C
100
AcDbEntity
8
1
62
256
6
ByLayer
370
13
48
1
60
0
100
AcDbSpline
70
4
71
3
72
18
73
14
40
0
40
0
40
0
40
0
40
0.125000000000006
40
0.125000000000006
40
0.250000000000011
40
0.250000000000011
40
0.499999999999999
40
0.499999999999999
40
0.624999999999992
40
0.624999999999992
40
0.749999999999986
40
0.749999999999986
40
1
40
1
40
1
40
1
41
1
10
-0.29876587736544
20
-8.48729043713894
30
0
41
1
10
-0.298765877365554
20
-8.49011182497651
30
0
41
1
10
-0.298242593310079
20
-8.49336032331604
30
0
41
1
10
-0.296374172279911
20
-8.50051223730651
30
0
41
1
10
-0.295017693514183
20
-8.50444136070882
30
0
41
1
10
-0.289936132421644
20
-8.51694644743202
30
0
41
1
10
-0.28531021138474
20
-8.52604280963124
30
0
41
1
10
-0.277022733507124
20
-8.540516222816
30
0
41
1
10
-0.274035633558356
20
-8.5454686471121
30
0
41
1
10
-0.267770688040628
20
-8.55543017238153
30
0
41
1
10
-0.264478392598448
20
-8.56046446829743
30
0
41
1
10
-0.254170911990514
20
-8.57571276123753
30
0
41
1
10
-0.246730217782101
20
-8.58607041174162
30
0
41
1
10
-0.238765877365381
20
-8.59660851746139
30
0
0
SPLINE
5
16D
100
AcDbEntity
8
1
62
256
6
ByLayer
370
13
48
1
60
0
100
AcDbSpline
70
4
71
3
72
8
73
4
40
0
40
0
40
0
40
0
40
1
40
1
40
1
40
1
41
1
10
-0.238765877365381
20
-8.59660851746139
30
0
41
1
10
-0.0465577583049708
20
-8.8509308307834
30
0
41
1
10
0.148605803079249
20
-9.10219673005679
30
0
41
1
10
0.346265877365113
20
-9.35088082387773
30
0
0
SPLINE
5
16E
100
AcDbEntity
8
1
62
256
6
ByLayer
370
13
48
1
60
0
100
AcDbSpline
70
4
71
3
72
34
73
30
40
0
40
0
40
0
40
0
40
0.125000000000008
40
0.125000000000008
40
0.250000000000016
40
0.250000000000016
40
0.312500000000015
40
0.312500000000015
40
0.375000000000013
40
0.375000000000013
40
0.437500000000012
40
0.437500000000012
40
0.500000000000011
40
0.500000000000011
40
0.56250000000001
40
0.56250000000001
40
0.625000000000008
40
0.625000000000008
40
0.687500000000007
40
0.687500000000007
40
0.750000000000005
40
0.750000000000005
40
0.812500000000004
40
0.812500000000004
40
0.875000000000003
40
0.875000000000003
40
0.937500000000001
40
0.937500000000001
40
1
40
1
40
1
40
1
41
1
10
0.346265877365113
20
-9.35088082387773
30
0
41
1
10
0.354100803065421
20
-9.3607382591992
30
0
41
1
10
0.361574398806738
20
-9.37050850487134
30
0
41
1
10
0.375488561497036
20
-9.38954797225483
30
0
41
1
10
0.381879065772637
20
-9.39874269080309
30
0
41
1
10
0.390457240278238
20
-9.41195170327222
30
0
41
1
10
0.393147136395328
20
-9.41625663263824
30
0
41
1
10
0.398129642046229
20
-9.4246359852271
30
0
41
1
10
0.400400861796356
20
-9.42867687877072
30
0
41
1
10
0.40437156194082
20
-9.43629128607671
30
0
41
1
10
0.406083204156289
20
-9.4398843073372
30
0
41
1
10
0.408857721521031
20
-9.4465627159729
30
0
41
1
10
0.409922790362316
20
-9.44966675629934
30
0
41
1
10
0.411198672473347
20
-9.45506192434499
30
0
41
1
10
0.411422908424811
20
-9.45737553917434
30
0
41
1
10
0.410889132526563
20
-9.46109282980109
30
0
41
1
10
0.410134472580239
20
-9.46244184772803
30
0
41
1
10
0.407599131600819
20
-9.4640371297001
30
0
41
1
10
0.40577967315653
20
-9.46427415885898
30
0
41
1
10
0.401253587155225
20
-9.4635882733636
30
0
41
1
10
0.398548724059197
20
-9.46268704751969
30
0
41
1
10
0.392305318592548
20
-9.45983496837232
30
0
41
1
10
0.388753798260495
20
-9.45786767823472
30
0
41
1
10
0.381229528622384
20
-9.4531714637784
30
0
41
1
10
0.377217240801542
20
-9.4504262545359
30
0
41
1
10
0.36875400634824
20
-9.44424252254743
30
0
41
1
10
0.364363808319467
20
-9.44084688320902
30
0
41
1
10
0.355445221233254
20
-9.4336514984297
30
0
41
1
10
0.350895129511741
20
-9.42983533607884
30
0
41
1
10
0.346265877365113
20
-9.4258295902012
30
0
0
SPLINE
5
16F
100
AcDbEntity
8
1
62
256
6
ByLayer
370
13
48
1
60
0
100
AcDbSpline
70
4
71
3
72
8
73
4
40
0
40
0
40
0
40
0
40
1
40
1
40
1
40
1
41
1
10
-0.238765877365381
20
-8.91801952773812
30
0
41
1
10
-0.0439858700524383
20
-9.08764373665213
30
0
41
1
10
0.151036633918011
20
-9.25689544871591
30
0
41
1
10
0.346265877365113
20
-9.4258295902012
30
0
0
SPLINE
5
170
100
AcDbEntity
8
1
62
256
6
ByLayer
370
13
48
1
60
0
100
AcDbSpline
70
4
71
3
72
16
73
12
40
0
40
0
40
0
40
0
40
0.249999999999994
40
0.249999999999994
40
0.374999999999992
40
0.374999999999992
40
0.499999999999989
40
0.499999999999989
40
0.749999999999994
40
0.749999999999994
40
1
40
1
40
1
40
1
41
1
10
-0.29876587736544
20
-8.88608639192029
30
0
41
1
10
-0.29876587736544
20
-8.88293252983482
30
0
41
1
10
-0.297262842172813
20
-8.88124480740748
30
0
41
1
10
-0.292592523857707
20
-8.88131926847609
30
0
41
1
10
-0.290681739328875
20
-8.88177110977369
30
0
41
1
10
-0.28620868697692
20
-8.88346309092839
30
0
41
1
10
-0.283629045064799
20
-8.8847134044338
30
0
41
1
10
-0.275046307546973
20
-8.88956005829664
30
0
41
1
10
-0.268435693208062
20
-8.89409925958279
30
0
41
1
10
-0.254055605685949
20
-8.90504296701539
30
0
41
1
10
-0.246533382778921
20
-8.9112551940716
30
0
41
1
10
-0.238765877365381
20
-8.91801952773812
30
0
0
SPLINE
5
171
100
AcDbEntity
8
1
62
256
6
ByLayer
370
13
48
1
60
0
100
AcDbSpline
70
4
71
3
72
16
73
12
40
0
40
0
40
0
40
0
40
0.250000000000002
40
0.250000000000002
40
0.500000000000004
40
0.500000000000004
40
0.750000000000005
40
0.750000000000005
40
0.875000000000003
40
0.875000000000003
40
1
40
1
40
1
40
1
41
1
10
-0.238765877365381
20
-9.01540663871663
30
0
41
1
10
-0.24665114493132
20
-9.00608905147459
30
0
41
1
10
-0.254128104997335
20
-8.99694187751999
30
0
41
1
10
-0.268044614760811
20
-8.9791418490982
30
0
41
1
10
-0.274348654244136
20
-8.97066557199003
30
0
41
1
10
-0.285357592383093
20
-8.95473944300824
30
0
41
1
10
-0.290087633062967
20
-8.94723332518123
30
0
41
1
10
-0.295104927817988
20
-8.93768513018199
30
0
41
1
10
-0.296453048930971
20
-8.93474243200683
30
0
41
1
10
-0.298280433180821
20
-8.92964786907243
30
0
41
1
10
-0.298765877365554
20
-8.9274961146819
30
0
41
1
10
-0.298765877365554
20
-8.9257932669554
30
0
0
SPLINE
5
172
100
AcDbEntity
8
1
62
256
6
ByLayer
370
13
48
1
60
0
100
AcDbSpline
70
4
71
3
72
8
73
4
40
0
40
0
40
0
40
0
40
1
40
1
40
1
40
1
41
1
10
0.346265877365113
20
-9.69383466119541
30
0
41
1
10
0.149511996534102
20
-9.46969639128542
30
0
41
1
10
-0.0455956335433712
20
-9.24366529757719
30
0
41
1
10
-0.238765877365381
20
-9.01540663871663
30
0
0
SPLINE
5
173
100
AcDbEntity
8
1
62
256
6
ByLayer
370
13
48
1
60
0
100
AcDbSpline
70
4
71
3
72
34
73
30
40
0
40
0
40
0
40
0
40
0.0625000000000016
40
0.0625000000000016
40
0.125000000000003
40
0.125000000000003
40
0.187500000000005
40
0.187500000000005
40
0.250000000000006
40
0.250000000000006
40
0.312500000000008
40
0.312500000000008
40
0.375000000000009
40
0.375000000000009
40
0.437500000000011
40
0.437500000000011
40
0.500000000000013
40
0.500000000000013
40
0.562500000000014
40
0.562500000000014
40
0.625000000000016
40
0.625000000000016
40
0.687500000000017
40
0.687500000000017
40
0.750000000000019
40
0.750000000000019
40
0.87500000000001
40
0.87500000000001
40
1
40
1
40
1
40
1
41
1
10
0.346265877365113
20
-9.7372894178659
30
0
41
1
10
0.350705885793104
20
-9.74133759304033
30
0
41
1
10
0.355066057202748
20
-9.74524948539943
30
0
41
1
10
0.363606404952065
20
-9.7527643616578
30
0
41
1
10
0.367808035595772
20
-9.7563849310979
30
0
41
1
10
0.375822305361794
20
-9.7631113868166
30
0
41
1
10
0.379650227620573
20
-9.76623172903163
30
0
41
1
10
0.386895862844199
20
-9.77191396300333
30
0
41
1
10
0.390342836622381
20
-9.77449628740231
30
0
41
1
10
0.396578524612892
20
-9.77886621883579
30
0
41
1
10
0.399360081513805
20
-9.78065206424549
30
0
41
1
10
0.404170378369031
20
-9.78332726720231
30
0
41
1
10
0.406178012773012
20
-9.7841976664547
30
0
41
1
10
0.409199636522544
20
-9.78489451354932
30
0
41
1
10
0.410246282820367
20
-9.78473579090991
30
0
41
1
10
0.411353760782617
20
-9.78337762721588
30
0
41
1
10
0.411404451125691
20
-9.78220296619503
30
0
41
1
10
0.410606551893693
20
-9.77896665796561
30
0
41
1
10
0.409740995996231
20
-9.7768773041891
30
0
41
1
10
0.4072544117696
20
-9.77203742421511
30
0
41
1
10
0.405638805689023
20
-9.7692849342078
30
0
41
1
10
0.401767759541599
20
-9.76320876912519
30
0
41
1
10
0.399493122302033
20
-9.75985970719472
30
0
41
1
10
0.394489924346544
20
-9.75282095451064
30
0
41
1
10
0.391756733117518
20
-9.7491215345654
30
0
41
1
10
0.382959762556311
20
-9.73756014120983
30
0
41
1
10
0.37623789170118
20
-9.72916138893254
30
0
41
1
10
0.361916643068184
20
-9.71188887510169
30
0
41
1
10
0.354293322580361
20
-9.7029793737405
30
0
41
1
10
0.346265877365113
20
-9.69383466119541
30
0
0
SPLINE
5
174
100
AcDbEntity
8
1
62
256
6
ByLayer
370
13
48
1
60
0
100
AcDbSpline
70
4
71
3
72
8
73
4
40
0
40
0
40
0
40
0
40
1
40
1
40
1
40
1
41
1
10
0.346265877365113
20
-9.7372894178659
30
0
41
1
10
0.150823956972317
20
-9.5590953574233
30
0
41
1
10
-0.0442097085918931
20
-9.38030767619949
30
0
41
1
10
-0.238765877365381
20
-9.20082569328383
30
0
0
SPLINE
5
175
100
AcDbEntity
8
1
62
256
6
ByLayer
370
13
48
1
60
0
100
AcDbSpline
70
4
71
3
72
20
73
16
40
0
40
0
40
0
40
0
40
0.25
40
0.25
40
0.375
40
0.375
40
0.5
40
0.5
40
0.625
40
0.625
40
0.75
40
0.75
40
0.875
40
0.875
40
1
40
1
40
1
40
1
41
1
10
-0.238765877365381
20
-9.20082569328383
30
0
41
1
10
-0.246540535575605
20
-9.19365341454869
30
0
41
1
10
-0.254112646347608
20
-9.18684767971479
30
0
41
1
10
-0.264624223249598
20
-9.17773433428613
30
0
41
1
10
-0.267999428898861
20
-9.1748675853031
30
0
41
1
10
-0.274451017550973
20
-9.16952948112151
30
0
41
1
10
-0.277542930294544
20
-9.16704707279769
30
0
41
1
10
-0.283186769641361
20
-9.16269578884533
30
0
41
1
10
-0.285760494254078
20
-9.16080785818991
30
0
41
1
10
-0.290340370592958
20
-9.15768769460578
30
0
41
1
10
-0.292317343459672
20
-9.1564780400542
30
0
41
1
10
-0.295499229258667
20
-9.15486528315358
30
0
41
1
10
-0.296728084138408
20
-9.15444870096559
30
0
41
1
10
-0.298368698818194
20
-9.15446089274724
30
0
41
1
10
-0.298765877365327
20
-9.15488469943944
30
0
41
1
10
-0.298765877365327
20
-9.15570013077161
30
0
0
SPLINE
5
176
100
AcDbEntity
8
1
62
256
6
ByLayer
370
13
48
1
60
0
100
AcDbSpline
70
4
71
3
72
8
73
4
40
0
40
0
40
0
40
0
40
1
40
1
40
1
40
1
41
1
10
7.41171381288564
20
-1.04409132460023
30
0
41
1
10
7.44367261196146
20
-1.03003433159353
30
0
41
1
10
7.47567122440717
20
-1.01592771055692
30
0
41
1
10
7.50771884540598
20
-1.00175999954092
30
0
0
SPLINE
5
177
100
AcDbEntity
8
1
62
256
6
ByLayer
370
13
48
1
60
0
100
AcDbSpline
70
4
71
3
72
19
73
15
40
0
40
0
40
0
40
0
40
0.0436503941138828
40
0.0436503941138828
40
0.180271766383327
40
0.180271766383327
40
0.453514510922211
40
0.453514510922211
40
0.521825197056934
40
0.521825197056934
40
0.590135883191657
40
0.726757255461105
40
0.726757255461105
40
1
40
1
40
1
40
1
41
1
10
10.4669651346453
20
8.16925486733118
30
0
41
1
10
10.4810337611906
20
8.16689642995976
30
0
41
1
10
10.4950389898938
20
8.16466063631862
30
0
41
1
10
10.5526337978246
20
8.15591224332991
30
0
41
1
10
10.5956994432253
20
8.150434477251
30
0
41
1
10
10.7233842509346
20
8.13711488235538
30
0
41
1
10
10.8065111996011
20
8.13237110750856
30
0
41
1
10
10.9083167525669
20
8.130840602403
30
0
41
1
10
10.9285989930498
20
8.13075633004149
30
0
41
1
10
10.9687458979063
20
8.13101303344217
30
0
41
1
10
11.028382809142
20
8.13203364677128
30
0
41
1
10
11.0863386845866
20
8.13485043332071
30
0
41
1
10
11.2000913170672
20
8.14262401105361
30
0
41
1
10
11.2730947957641
20
8.1506622468346
30
0
41
1
10
11.343000739493
20
8.16093861201648
30
0
0
SPLINE
5
178
100
AcDbEntity
8
1
62
256
6
ByLayer
370
13
48
1
60
0
100
AcDbSpline
70
4
71
3
72
20
73
16
40
0
40
0
40
0
40
0
40
0.249999999999994
40
0.249999999999994
40
0.499999999999987
40
0.499999999999987
40
0.624999999999987
40
0.624999999999987
40
0.749999999999986
40
0.749999999999986
40
0.812499999999986
40
0.812499999999986
40
0.874999999999986
40
0.874999999999986
40
1
40
1
40
1
40
1
41
1
10
9.19948589254511
20
8.94516689597776
30
0
41
1
10
9.21383813297325
20
8.93190022801519
30
0
41
1
10
9.22903896144749
20
8.91821466389291
30
0
41
1
10
9.26188469812519
20
8.88962536798761
30
0
41
1
10
9.27940332539492
20
8.87482905653826
30
0
41
1
10
9.30800132644504
20
8.8516223661324
30
0
41
1
10
9.3179319934585
20
8.84371004417017
30
0
41
1
10
9.33883510840508
20
8.82741662101938
30
0
41
1
10
9.34980340204493
20
8.81903753202221
30
0
41
1
10
9.36734250893971
20
8.80597267798026
30
0
41
1
10
9.37337156629815
20
8.80153426393997
30
0
41
1
10
9.38587824345643
20
8.79245080091562
30
0
41
1
10
9.39237459777598
20
8.78779312692359
30
0
41
1
10
9.4122622063843
20
8.77374039573931
30
0
41
1
10
9.42615374254149
20
8.76418656768561
30
0
41
1
10
9.44094362318685
20
8.75435716350279
30
0
0
SPLINE
5
179
100
AcDbEntity
8
1
62
256
6
ByLayer
370
13
48
1
60
0
100
AcDbSpline
70
4
71
3
72
30
73
26
40
0
40
0
40
0
40
0
40
0.125
40
0.125
40
0.249999999999999
40
0.249999999999999
40
0.374999999999999
40
0.374999999999999
40
0.437499999999999
40
0.437499999999999
40
0.5
40
0.5
40
0.624999999999999
40
0.624999999999999
40
0.749999999999999
40
0.749999999999999
40
0.812499999999999
40
0.812499999999999
40
0.843749999999999
40
0.843749999999999
40
0.874999999999998
40
0.874999999999998
40
0.937499999999999
40
0.937499999999999
40
1
40
1
40
1
40
1
41
1
10
6.59999999999991
20
-7.64742149377054
30
0
41
1
10
6.5168604623791
20
-7.73496952054938
30
0
41
1
10
6.4367005788007
20
-7.82334183624982
30
0
41
1
10
6.28179501685941
20
-8.0018217942943
30
0
41
1
10
6.20705235117271
20
-8.0919284934601
30
0
41
1
10
6.0626347813826
20
-8.27388480191479
30
0
41
1
10
5.99296124478769
20
-8.36573452799553
30
0
41
1
10
5.89208640309414
20
-8.50477435790822
30
0
41
1
10
5.85900666867394
20
-8.5514226809122
30
0
41
1
10
5.79452200831315
20
-8.64442414678382
30
0
41
1
10
5.76307673735255
20
-8.6908286222029
30
0
41
1
10
5.67103255451741
20
-8.8297242307255
30
0
41
1
10
5.61271816030114
20
-8.9219080966725
30
0
41
1
10
5.50183671042828
20
-9.10507817202028
30
0
41
1
10
5.44926808902642
20
-9.19607375741572
30
0
41
1
10
5.37464761144315
20
-9.33106590271689
30
0
41
1
10
5.35048150146031
20
-9.37580899695229
30
0
41
1
10
5.31530798918584
20
-9.44240660708704
30
0
41
1
10
5.30375006637621
20
-9.46454417144304
30
0
41
1
10
5.28106067942963
20
-9.50849467057139
30
0
41
1
10
5.2699450180229
20
-9.53027636112483
30
0
41
1
10
5.23729168138721
20
-9.59497589956499
30
0
41
1
10
5.2164452452613
20
-9.63725490178564
30
0
41
1
10
5.17668034911458
20
-9.7196279524718
30
0
41
1
10
5.15776002020505
20
-9.75972734265162
30
0
41
1
10
5.13989323368878
20
-9.79836168712382
30
0
0
SPLINE
5
17A
100
AcDbEntity
8
1
62
256
6
ByLayer
370
13
48
1
60
0
100
AcDbSpline
70
4
71
3
72
8
73
4
40
0
40
0
40
0
40
0
40
1
40
1
40
1
40
1
41
1
10
6.59999999999991
20
9.6928707036638
30
0
41
1
10
6.57510946577895
20
9.70225465358737
30
0
41
1
10
6.55043566668814
20
9.71193489299611
30
0
41
1
10
6.52597241966646
20
9.72190601439689
30
0
0
SPLINE
5
17B
100
AcDbEntity
8
1
62
256
6
ByLayer
370
13
48
1
60
0
100
AcDbSpline
70
4
71
3
72
8
73
4
40
0
40
0
40
0
40
0
40
1
40
1
40
1
40
1
41
1
10
14.1499968243861
20
7.8416048518564
30
0
41
1
10
14.1489065615466
20
7.83481734662706
30
0
41
1
10
14.1478158749626
20
7.82802804423358
30
0
41
1
10
14.1467247377836
20
7.82123683306958
30
0
0
SPLINE
5
17C
100
AcDbEntity
8
1
62
256
6
ByLayer
370
13
48
1
60
0
100
AcDbSpline
70
4
71
3
72
26
73
22
40
0
40
0
40
0
40
0
40
0.249999999999999
40
0.249999999999999
40
0.374999999999998
40
0.374999999999998
40
0.499999999999997
40
0.499999999999997
40
0.624999999999997
40
0.624999999999997
40
0.687499999999997
40
0.687499999999997
40
0.749999999999998
40
0.749999999999998
40
0.812499999999998
40
0.812499999999998
40
0.874999999999999
40
0.874999999999999
40
0.937499999999999
40
0.937499999999999
40
1
40
1
40
1
40
1
41
1
10
14.3975863391756
20
7.96977727599028
30
0
41
1
10
14.3702243396581
20
7.97212961886441
30
0
41
1
10
14.3426734062402
20
7.9721412420667
30
0
41
1
10
14.3017831780167
20
7.96816188040339
30
0
41
1
10
14.2882230546261
20
7.96615947648388
30
0
41
1
10
14.2614977140139
20
7.96058056323631
30
0
41
1
10
14.2483027555673
20
7.95700073011096
30
0
41
1
10
14.2227338006862
20
7.947886770764
30
0
41
1
10
14.2103220677062
20
7.94234775712602
30
0
41
1
10
14.1929770075439
20
7.93210144463671
30
0
41
1
10
14.187428835122
20
7.92837063690598
30
0
41
1
10
14.1769937969372
20
7.92018167860948
30
0
41
1
10
14.1721126931781
20
7.91571910616807
30
0
41
1
10
14.1634414107767
20
7.90615795415897
30
0
41
1
10
14.1596129955914
20
7.9010350871809
30
0
41
1
10
14.1532402431749
20
7.88993542917177
30
0
41
1
10
14.1507956211693
20
7.88409865162117
30
0
41
1
10
14.1476299947848
20
7.87209777800518
30
0
41
1
10
14.1469103628875
20
7.8658451597517
30
0
41
1
10
14.1472264397812
20
7.85362623481507
30
0
41
1
10
14.1482399799487
20
7.84753867187078
30
0
41
1
10
14.1499968243861
20
7.8416048518564
30
0
0
SPLINE
5
17D
100
AcDbEntity
8
1
62
256
6
ByLayer
370
13
48
1
60
0
100
AcDbSpline
70
4
71
3
72
26
73
22
40
0
40
0
40
0
40
0
40
0.249999999999999
40
0.249999999999999
40
0.374999999999999
40
0.374999999999999
40
0.499999999999999
40
0.499999999999999
40
0.624999999999998
40
0.624999999999998
40
0.687499999999999
40
0.687499999999999
40
0.749999999999999
40
0.749999999999999
40
0.812499999999999
40
0.812499999999999
40
0.874999999999999
40
0.874999999999999
40
0.9375
40
0.9375
40
1
40
1
40
1
40
1
41
1
10
13.4598157161703
20
7.53176583169437
30
0
41
1
10
13.4755620531662
20
7.554253103382
30
0
41
1
10
13.4932167474108
20
7.57537925264961
30
0
41
1
10
13.5224688415736
20
7.60416178305348
30
0
41
1
10
13.5326904310971
20
7.6132672792599
30
0
41
1
10
13.5540805024347
20
7.63016198649461
30
0
41
1
10
13.5652706056752
20
7.63797186405861
30
0
41
1
10
13.5886128426562
20
7.6517032159893
30
0
41
1
10
13.6007929367444
20
7.6576504884726
30
0
41
1
10
13.6197210590345
20
7.6643465589558
30
0
41
1
10
13.6261205578628
20
7.66619623819258
30
0
41
1
10
13.6390482504901
20
7.66891948296001
30
0
41
1
10
13.6455761074711
20
7.66978577799341
30
0
41
1
10
13.658414806202
20
7.6702714515846
30
0
41
1
10
13.6647686716456
20
7.66990449755036
30
0
41
1
10
13.6773005693487
20
7.66763477396216
30
0
41
1
10
13.6833080966818
20
7.6657458041679
30
0
41
1
10
13.694464227565
20
7.6604342993931
30
0
41
1
10
13.6996792274672
20
7.65695361340318
30
0
41
1
10
13.708763291266
20
7.64883001680568
30
0
41
1
10
13.712738767328
20
7.64412590711459
30
0
41
1
10
13.7161195909496
20
7.63895061104051
30
0
0
SPLINE
5
17E
100
AcDbEntity
8
1
62
256
6
ByLayer
370
13
48
1
60
0
100
AcDbSpline
70
4
71
3
72
8
73
4
40
0
40
0
40
0
40
0
40
1
40
1
40
1
40
1
41
1
10
13.7161195909496
20
7.63895061104051
30
0
41
1
10
13.7219793918677
20
7.63540932337202
30
0
41
1
10
13.7278408956038
20
7.6318672318086
30
0
41
1
10
13.7337042085047
20
7.62832428695731
30
0
0
SPLINE
5
17F
100
AcDbEntity
8
1
62
256
6
ByLayer
370
13
48
1
60
0
100
AcDbSpline
70
4
71
3
72
30
73
26
40
0
40
0
40
0
40
0
40
0.0625000000000004
40
0.0625000000000004
40
0.125000000000001
40
0.125000000000001
40
0.250000000000001
40
0.250000000000001
40
0.375000000000001
40
0.375000000000001
40
0.500000000000001
40
0.500000000000001
40
0.625000000000001
40
0.625000000000001
40
0.687500000000001
40
0.687500000000001
40
0.750000000000001
40
0.750000000000001
40
0.812500000000001
40
0.812500000000001
40
0.875
40
0.875
40
0.9375
40
0.9375
40
1
40
1
40
1
40
1
41
1
10
13.7337042085047
20
7.62832428695731
30
0
41
1
10
13.7421417271872
20
7.62322586156569
30
0
41
1
10
13.7512135894257
20
7.6194449982616
30
0
41
1
10
13.770252309279
20
7.6136872835238
30
0
41
1
10
13.7802627030877
20
7.61173178905267
30
0
41
1
10
13.8106714743593
20
7.60813937334336
30
0
41
1
10
13.8317112676013
20
7.60867067809971
30
0
41
1
10
13.8737158398292
20
7.61375921010097
30
0
41
1
10
13.8947395126148
20
7.6183398388128
30
0
41
1
10
13.9361756347357
20
7.6307543783729
30
0
41
1
10
13.9563968458498
20
7.63852258923811
30
0
41
1
10
13.9958742507505
20
7.6570034770798
30
0
41
1
10
14.0146843964789
20
7.66750718900909
30
0
41
1
10
14.0414863388091
20
7.6852024267186
30
0
41
1
10
14.0501820905604
20
7.69142809198411
30
0
41
1
10
14.0670518933728
20
7.7046031619717
30
0
41
1
10
14.0752251015224
20
7.71155966729276
30
0
41
1
10
14.090634611954
20
7.72598832743591
30
0
41
1
10
14.0979176947125
20
7.73349290021071
30
0
41
1
10
14.1115153067094
20
7.74919212549668
30
0
41
1
10
14.1178605375239
20
7.75742577352241
30
0
41
1
10
14.1291961016779
20
7.77461292146029
30
0
41
1
10
14.1341263733813
20
7.7834570645702
30
0
41
1
10
14.1420917674909
20
7.80182513976519
30
0
41
1
10
14.1451502931031
20
7.81143752782219
30
0
41
1
10
14.1467247377836
20
7.82123683306941
30
0
0
SPLINE
5
180
100
AcDbEntity
8
1
62
256
6
ByLayer
370
13
48
1
60
0
100
AcDbSpline
70
4
71
3
72
34
73
30
40
0
40
0
40
0
40
0
40
0.0625000000000001
40
0.0625000000000001
40
0.125
40
0.125
40
0.25
40
0.25
40
0.3125
40
0.3125
40
0.375
40
0.375
40
0.500000000000001
40
0.500000000000001
40
0.562500000000001
40
0.562500000000001
40
0.625000000000001
40
0.625000000000001
40
0.687500000000001
40
0.687500000000001
40
0.750000000000001
40
0.750000000000001
40
0.875000000000001
40
0.875000000000001
40
0.937500000000001
40
0.937500000000001
40
0.96875
40
0.96875
40
1
40
1
40
1
40
1
41
1
10
14.996005743502
20
7.5198027580754
30
0
41
1
10
14.9870671057795
20
7.51620477368397
30
0
41
1
10
14.9777166869395
20
7.51401024545908
30
0
41
1
10
14.9584233112379
20
7.5115483508161
30
0
41
1
10
14.94844092898
20
7.51130923718898
30
0
41
1
10
14.9184662918899
20
7.5128957030027
30
0
41
1
10
14.8981629214298
20
7.51696922303518
30
0
41
1
10
14.8682325552567
20
7.52603314535656
30
0
41
1
10
14.8583481002161
20
7.529552221394
30
0
41
1
10
14.8387306403288
20
7.53748377478911
30
0
41
1
10
14.8289986104418
20
7.54189968511429
30
0
41
1
10
14.8002766071443
20
7.55628282795379
30
0
41
1
10
14.7816635409033
20
7.5674175165405
30
0
41
1
10
14.7549215651777
20
7.586075422335
30
0
41
1
10
14.7462442798883
20
7.59259416979091
30
0
41
1
10
14.7293657833631
20
7.60623395058332
30
0
41
1
10
14.7211451267393
20
7.61337387468177
30
0
41
1
10
14.7053313815861
20
7.62817571289037
30
0
41
1
10
14.6977339221518
20
7.63583751086259
30
0
41
1
10
14.6832038656922
20
7.65172792691351
30
0
41
1
10
14.6762774899441
20
7.65995340555116
30
0
41
1
10
14.6568519327748
20
7.68530908166036
30
0
41
1
10
14.6455412162383
20
7.7032434370106
30
0
41
1
10
14.6327622189202
20
7.73154719764489
30
0
41
1
10
14.6292652047501
20
7.7410893168306
30
0
41
1
10
14.6254814487576
20
7.75563359698117
30
0
41
1
10
14.6244660467731
20
7.76052057471207
30
0
41
1
10
14.6230283550948
20
7.77039211844317
30
0
41
1
10
14.6226094101738
20
7.7753773592998
30
0
41
1
10
14.6225611639261
20
7.78032862292247
30
0
0
SPLINE
5
181
100
AcDbEntity
8
1
62
256
6
ByLayer
370
13
48
1
60
0
100
AcDbSpline
70
4
71
3
72
8
73
4
40
0
40
0
40
0
40
0
40
1
40
1
40
1
40
1
41
1
10
15.0146622876521
20
7.52731338739972
30
0
41
1
10
15.0084454736555
20
7.52481034033997
30
0
41
1
10
15.0022266673055
20
7.52230680706362
30
0
41
1
10
14.996005743502
20
7.5198027580754
30
0
0
SPLINE
5
182
100
AcDbEntity
8
1
62
256
6
ByLayer
370
13
48
1
60
0
100
AcDbSpline
70
4
71
3
72
28
73
24
40
0
40
0
40
0
40
0
40
0.0625000000000001
40
0.0625000000000001
40
0.125
40
0.125
40
0.1875
40
0.1875
40
0.25
40
0.25
40
0.312500000000001
40
0.312500000000001
40
0.375000000000001
40
0.375000000000001
40
0.437500000000001
40
0.437500000000001
40
0.500000000000001
40
0.500000000000001
40
0.625000000000001
40
0.625000000000001
40
0.75
40
0.75
40
1
40
1
40
1
40
1
41
1
10
14.622359509601
20
7.80099528325087
30
0
41
1
10
14.6249599473561
20
7.8065587237856
30
0
41
1
10
14.6268317879835
20
7.8123270675656
30
0
41
1
10
14.6289561137247
20
7.82431875388886
30
0
41
1
10
14.6291818466344
20
7.8306313948645
30
0
41
1
10
14.6278609178221
20
7.84301733539587
30
0
41
1
10
14.6263371353822
20
7.84918174172577
30
0
41
1
10
14.6217165789846
20
7.86127133917228
30
0
41
1
10
14.6186950543843
20
7.86703105981331
30
0
41
1
10
14.6114967738074
20
7.87807848668501
30
0
41
1
10
14.6073308274798
20
7.88332936551757
30
0
41
1
10
14.5983423726768
20
7.89311584185197
30
0
41
1
10
14.593485949363
20
7.89770107038771
30
0
41
1
10
14.5831886594592
20
7.90636853827522
30
0
41
1
10
14.5777292473102
20
7.9104591848353
30
0
41
1
10
14.5664888206081
20
7.91809138858491
30
0
41
1
10
14.56068951898
20
7.92164990233607
30
0
41
1
10
14.5428401522119
20
7.93167105369798
30
0
41
1
10
14.5303948053438
20
7.93745385381709
30
0
41
1
10
14.5048938831095
20
7.94752995474028
30
0
41
1
10
14.4918466212833
20
7.95181753859231
30
0
41
1
10
14.45211877462
20
7.96273387128991
30
0
41
1
10
14.4249520480797
20
7.96742461421587
30
0
41
1
10
14.3975863391756
20
7.96977727599028
30
0
0
SPLINE
5
183
100
AcDbEntity
8
1
62
256
6
ByLayer
370
13
48
1
60
0
100
AcDbSpline
70
4
71
3
72
8
73
4
40
0
40
0
40
0
40
0
40
1
40
1
40
1
40
1
41
1
10
14.6225611639261
20
7.78032862292247
30
0
41
1
10
14.6224940184882
20
7.78721941298818
30
0
41
1
10
14.6224267988244
20
7.79410826192651
30
0
41
1
10
14.622359509601
20
7.80099528325087
30
0
0
SPLINE
5
184
100
AcDbEntity
8
1
62
256
6
ByLayer
370
13
48
1
60
0
100
AcDbSpline
70
4
71
3
72
32
73
28
40
0
40
0
40
0
40
0
40
0.0624999999999997
40
0.0624999999999997
40
0.124999999999999
40
0.124999999999999
40
0.187499999999999
40
0.187499999999999
40
0.249999999999999
40
0.249999999999999
40
0.374999999999999
40
0.374999999999999
40
0.499999999999999
40
0.499999999999999
40
0.562499999999999
40
0.562499999999999
40
0.624999999999999
40
0.624999999999999
40
0.687499999999999
40
0.687499999999999
40
0.749999999999999
40
0.749999999999999
40
0.874999999999999
40
0.874999999999999
40
0.9375
40
0.9375
40
1
40
1
40
1
40
1
41
1
10
13.4202929816628
20
6.78382297189188
30
0
41
1
10
13.4287624045505
20
6.78835897412068
30
0
41
1
10
13.4364150298928
20
6.79412593158838
30
0
41
1
10
13.450618787894
20
6.80736905198881
30
0
41
1
10
13.457175207148
20
6.81490260300171
30
0
41
1
10
13.4690314312788
20
6.83083863043277
30
0
41
1
10
13.4743968537607
20
6.839302596582
30
0
41
1
10
13.4842369272009
20
6.8570501682326
30
0
41
1
10
13.4887305178736
20
6.8663905400428
30
0
41
1
10
13.5008603733428
20
6.89511606324982
30
0
41
1
10
13.5071577594264
20
6.91507223712358
30
0
41
1
10
13.5168870792561
20
6.9563624883387
30
0
41
1
10
13.52030424754
20
6.97782593033406
30
0
41
1
10
13.5231711651591
20
7.0103341935822
30
0
41
1
10
13.5237489744625
20
7.02118623068679
30
0
41
1
10
13.5241442368612
20
7.04291296056351
30
0
41
1
10
13.5239599103054
20
7.05381639431209
30
0
41
1
10
13.5227953719726
20
7.075484443476
30
0
41
1
10
13.521818085809
20
7.08625054948976
30
0
41
1
10
13.5190097989073
20
7.10764063239679
30
0
41
1
10
13.5171769246418
20
7.11825964279569
30
0
41
1
10
13.5102995764215
20
7.14951905075611
30
0
41
1
10
13.5038892751317
20
7.16976598683061
30
0
41
1
10
13.4905253221751
20
7.19785491383396
30
0
41
1
10
13.4854461274788
20
7.20680244287837
30
0
41
1
10
13.4738232905534
20
7.22329745253808
30
0
41
1
10
13.4673354427714
20
7.23080329658256
30
0
41
1
10
13.4598689313658
20
7.23726138285139
30
0
0
SPLINE
5
185
100
AcDbEntity
8
1
62
256
6
ByLayer
370
13
48
1
60
0
100
AcDbSpline
70
4
71
3
72
8
73
4
40
0
40
0
40
0
40
0
40
1
40
1
40
1
40
1
41
1
10
13.4598689313658
20
7.23726138285139
30
0
41
1
10
13.4546721892104
20
7.24175625432906
30
0
41
1
10
13.4494770396263
20
7.24624996320267
30
0
41
1
10
13.4442833890333
20
7.25074257709701
30
0
0
SPLINE
5
186
100
AcDbEntity
8
1
62
256
6
ByLayer
370
13
48
1
60
0
100
AcDbSpline
70
4
71
3
72
28
73
24
40
0
40
0
40
0
40
0
40
0.0624999999999999
40
0.0624999999999999
40
0.125
40
0.125
40
0.1875
40
0.1875
40
0.25
40
0.25
40
0.3125
40
0.3125
40
0.375
40
0.375
40
0.4375
40
0.4375
40
0.5
40
0.5
40
0.625
40
0.625
40
0.75
40
0.75
40
1
40
1
40
1
40
1
41
1
10
13.4442833890333
20
7.25074257709701
30
0
41
1
10
13.4383918223071
20
7.25233959443977
30
0
41
1
10
13.4328099281577
20
7.25462646731961
30
0
41
1
10
13.4223347346452
20
7.26073320321859
30
0
41
1
10
13.4173906281773
20
7.26463112917008
30
0
41
1
10
13.4088169447496
20
7.27362947208832
30
0
41
1
10
13.4051034798169
20
7.27877112725946
30
0
41
1
10
13.3988639318193
20
7.29010453035357
30
0
41
1
10
13.3964155807671
20
7.29613196739291
30
0
41
1
10
13.3926166437739
20
7.30876715075448
30
0
41
1
10
13.3912871568234
20
7.31534287559737
30
0
41
1
10
13.3895924251896
20
7.32853608502961
30
0
41
1
10
13.3892111188567
20
7.33521153947356
30
0
41
1
10
13.3892054034408
20
7.3486859689944
30
0
41
1
10
13.3895864650361
20
7.35550456872056
30
0
41
1
10
13.3909725952177
20
7.36903435155978
30
0
41
1
10
13.3919764615647
20
7.37577047117492
30
0
41
1
10
13.3957757167224
20
7.3959032041156
30
0
41
1
10
13.3993421850171
20
7.40916476088711
30
0
41
1
10
13.4080018658617
20
7.43519650674676
30
0
41
1
10
13.4130940924861
20
7.44795663531301
30
0
41
1
10
13.4302315585087
20
7.48543346919166
30
0
41
1
10
13.4440672444893
20
7.50927551147299
30
0
41
1
10
13.4598157161703
20
7.53176583169437
30
0
0
SPLINE
5
187
100
AcDbEntity
8
1
62
256
6
ByLayer
370
13
48
1
60
0
100
AcDbSpline
70
4
71
3
72
8
73
4
40
0
40
0
40
0
40
0
40
1
40
1
40
1
40
1
41
1
10
13.4202929816628
20
6.78382297189188
30
0
41
1
10
13.4144298586691
20
6.78068283597946
30
0
41
1
10
13.4085685447785
20
6.7775440183612
30
0
41
1
10
13.4027089336479
20
6.77440644042991
30
0
0
SPLINE
5
188
100
AcDbEntity
8
1
62
256
6
ByLayer
370
13
48
1
60
0
100
AcDbSpline
70
4
71
3
72
26
73
22
40
0
40
0
40
0
40
0
40
0.250000000000001
40
0.250000000000001
40
0.375000000000001
40
0.375000000000001
40
0.500000000000002
40
0.500000000000002
40
0.625000000000003
40
0.625000000000003
40
0.687500000000002
40
0.687500000000002
40
0.750000000000002
40
0.750000000000002
40
0.812500000000001
40
0.812500000000001
40
0.875000000000001
40
0.875000000000001
40
0.937500000000001
40
0.937500000000001
40
1
40
1
40
1
40
1
41
1
10
15.2454990486455
20
7.378248561877
30
0
41
1
10
15.2338833861237
20
7.4030881764387
30
0
41
1
10
15.2201845871326
20
7.42690982193068
30
0
41
1
10
15.1964656414456
20
7.46024633414606
30
0
41
1
10
15.1880213259575
20
7.47095655988306
30
0
41
1
10
15.1699993451974
20
7.49123956700606
30
0
41
1
10
15.1604039888592
20
7.50083639466828
30
0
41
1
10
15.1399774457904
20
7.5183305994488
30
0
41
1
10
15.1291231787942
20
7.52625816270449
30
0
41
1
10
15.11185300382
20
7.53606624284078
30
0
41
1
10
15.1059486146097
20
7.53897370162088
30
0
41
1
10
15.0938623524522
20
7.54384742512997
30
0
41
1
10
15.0876796705075
20
7.54580645995571
30
0
41
1
10
15.0753305073624
20
7.54845756328331
30
0
41
1
10
15.0691245124167
20
7.54917039503266
30
0
41
1
10
15.0566455607391
20
7.54905088321101
30
0
41
1
10
15.0505397767574
20
7.54820330885758
30
0
41
1
10
15.0389240404114
20
7.54484952795372
30
0
41
1
10
15.0333408988721
20
7.5422971707236
30
0
41
1
10
15.0232996846136
20
7.53581779649079
30
0
41
1
10
15.0187291968376
20
7.53184839323541
30
0
41
1
10
15.0146622876521
20
7.52731338739972
30
0
0
SPLINE
5
189
100
AcDbEntity
8
1
62
256
6
ByLayer
370
13
48
1
60
0
100
AcDbSpline
70
4
71
3
72
28
73
24
40
0
40
0
40
0
40
0
40
0.0624999999999999
40
0.0624999999999999
40
0.125
40
0.125
40
0.1875
40
0.1875
40
0.25
40
0.25
40
0.3125
40
0.3125
40
0.374999999999999
40
0.374999999999999
40
0.437499999999999
40
0.437499999999999
40
0.499999999999999
40
0.499999999999999
40
0.625
40
0.625
40
0.75
40
0.75
40
1
40
1
40
1
40
1
41
1
10
13.4027089336479
20
6.77440644042991
30
0
41
1
10
13.39666164238
20
6.77421925576897
30
0
41
1
10
13.3907995905326
20
6.77329624329468
30
0
41
1
10
13.3794875681466
20
6.76981507650197
30
0
41
1
10
13.3739744299335
20
6.76719336483797
30
0
41
1
10
13.3640304284765
20
6.76049139394746
30
0
41
1
10
13.3595102917246
20
6.75639066856451
30
0
41
1
10
13.3514540520759
20
6.74690946628209
30
0
41
1
10
13.3480222767689
20
6.741669395283
30
0
41
1
10
13.3421356388597
20
6.73038490538249
30
0
41
1
10
13.3397069426352
20
6.72436652420356
30
0
41
1
10
13.3357879756979
20
6.71207572809357
30
0
41
1
10
13.3342720362074
20
6.7057512100813
30
0
41
1
10
13.3319614827739
20
6.69281813463937
30
0
41
1
10
13.3311688773273
20
6.68618953417166
30
0
41
1
10
13.3302143254222
20
6.67290113137278
30
0
41
1
10
13.3300469327073
20
6.66621764004231
30
0
41
1
10
13.3303307775764
20
6.64607282899146
30
0
41
1
10
13.3315619544612
20
6.63257796339161
30
0
41
1
10
13.3356077689086
20
6.60574668857288
30
0
41
1
10
13.3384231491171
20
6.59242002380677
30
0
41
1
10
13.3488350681938
20
6.55283941894106
30
0
41
1
10
13.3583405654096
20
6.52706865527841
30
0
41
1
10
13.3699578026328
20
6.50222567328251
30
0
0
SPLINE
5
18A
100
AcDbEntity
8
1
62
256
6
ByLayer
370
13
48
1
60
0
100
AcDbSpline
70
4
71
3
72
34
73
30
40
0
40
0
40
0
40
0
40
0.0624999999999997
40
0.0624999999999997
40
0.125
40
0.125
40
0.249999999999999
40
0.249999999999999
40
0.312499999999999
40
0.312499999999999
40
0.374999999999999
40
0.374999999999999
40
0.499999999999999
40
0.499999999999999
40
0.562499999999999
40
0.562499999999999
40
0.624999999999999
40
0.624999999999999
40
0.687499999999999
40
0.687499999999999
40
0.749999999999999
40
0.749999999999999
40
0.874999999999998
40
0.874999999999998
40
0.937499999999999
40
0.937499999999999
40
0.968749999999999
40
0.968749999999999
40
1
40
1
40
1
40
1
41
1
10
15.1584309428024
20
6.63439323286286
30
0
41
1
10
15.1511563298303
20
6.64025486250097
30
0
41
1
10
15.1448727620725
20
6.64718002321479
30
0
41
1
10
15.1336498096989
20
6.66251484540101
30
0
41
1
10
15.1287155659373
20
6.67097268517381
30
0
41
1
10
15.1158356954741
20
6.69753717226138
30
0
41
1
10
15.1096309036559
20
6.71705035905489
30
0
41
1
10
15.1030299422412
20
6.7473710796209
30
0
41
1
10
15.1012877766899
20
6.75765168960248
30
0
41
1
10
15.0986155692939
20
6.77853766981588
30
0
41
1
10
15.0976888413373
20
6.78914394874027
30
0
41
1
10
15.0960696603082
20
6.8211344938739
30
0
41
1
10
15.096518460831
20
6.84279035029022
30
0
41
1
10
15.0993540360041
20
6.87526158079129
30
0
41
1
10
15.1006568625532
20
6.88603495874418
30
0
41
1
10
15.1039823931716
20
6.90748031128578
30
0
41
1
10
15.1060115456961
20
6.91817861342571
30
0
41
1
10
15.110796303257
20
6.93930245796628
30
0
41
1
10
15.1135497519058
20
6.9497316949936
30
0
41
1
10
15.1198404709554
20
6.97030764206261
30
0
41
1
10
15.1233780774974
20
6.9804474094887
30
0
41
1
10
15.1351991886777
20
7.01004852637999
30
0
41
1
10
15.1447152059228
20
7.02889740703552
30
0
41
1
10
15.1621790977687
20
7.054277195552
30
0
41
1
10
15.1684581160265
20
7.06213494970172
30
0
41
1
10
15.178779205831
20
7.07277915356241
30
0
41
1
10
15.1823713846772
20
7.07613508757231
30
0
41
1
10
15.18992581594
20
7.08238521076646
30
0
41
1
10
15.1938902617044
20
7.08527685872969
30
0
41
1
10
15.1980068925053
20
7.08783164382237
30
0
0
SPLINE
5
18B
100
AcDbEntity
8
1
62
256
6
ByLayer
370
13
48
1
60
0
100
AcDbSpline
70
4
71
3
72
8
73
4
40
0
40
0
40
0
40
0
40
1
40
1
40
1
40
1
41
1
10
15.1736143155654
20
6.6221596481837
30
0
41
1
10
15.1685548638442
20
6.62623595062871
30
0
41
1
10
15.1634937738963
20
6.63031377998931
30
0
41
1
10
15.1584309428024
20
6.63439323286286
30
0
0
SPLINE
5
18C
100
AcDbEntity
8
1
62
256
6
ByLayer
370
13
48
1
60
0
100
AcDbSpline
70
4
71
3
72
28
73
24
40
0
40
0
40
0
40
0
40
0.0625000000000003
40
0.0625000000000003
40
0.125000000000001
40
0.125000000000001
40
0.187500000000001
40
0.187500000000001
40
0.250000000000001
40
0.250000000000001
40
0.312500000000001
40
0.312500000000001
40
0.375000000000002
40
0.375000000000002
40
0.437500000000002
40
0.437500000000002
40
0.500000000000002
40
0.500000000000002
40
0.625000000000002
40
0.625000000000002
40
0.750000000000001
40
0.750000000000001
40
1
40
1
40
1
40
1
41
1
10
15.2151887709508
20
7.0984957848508
30
0
41
1
10
15.2211089380873
20
7.09907733371631
30
0
41
1
10
15.2268450010355
20
7.10039118868082
30
0
41
1
10
15.2379075405622
20
7.1046463006586
30
0
41
1
10
15.2432956242423
20
7.10765595622416
30
0
41
1
10
15.2530060937963
20
7.11508238927706
30
0
41
1
10
15.2574158020143
20
7.1195256858191
30
0
41
1
10
15.2652654340654
20
7.1296478257425
30
0
41
1
10
15.2686037665451
20
7.1351777748784
30
0
41
1
10
15.274318662276
20
7.14699504299227
30
0
41
1
10
15.2766696958052
20
7.15325434921527
30
0
41
1
10
15.2804494831706
20
7.1659769078916
30
0
41
1
10
15.2819031501514
20
7.17249460754891
30
0
41
1
10
15.2841002433602
20
7.18577965905399
30
0
41
1
10
15.2848415866264
20
7.19256728494656
30
0
41
1
10
15.2857038101503
20
7.2061421086496
30
0
41
1
10
15.2858299125684
20
7.21295369064887
30
0
41
1
10
15.2854336919472
20
7.23344711351461
30
0
41
1
10
15.2841431195595
20
7.24712623571406
30
0
41
1
10
15.2800002377303
20
7.27425863275448
30
0
41
1
10
15.2771472973663
20
7.28770181655347
30
0
41
1
10
15.2666476257192
20
7.3275546472529
30
0
41
1
10
15.2571162858686
20
7.3534055798811
30
0
41
1
10
15.2454990486455
20
7.378248561877
30
0
0
SPLINE
5
18D
100
AcDbEntity
8
1
62
256
6
ByLayer
370
13
48
1
60
0
100
AcDbSpline
70
4
71
3
72
8
73
4
40
0
40
0
40
0
40
0
40
1
40
1
40
1
40
1
41
1
10
15.1980068925054
20
7.08783164382237
30
0
41
1
10
15.2037361044378
20
7.09138719833891
30
0
41
1
10
15.209463358692
20
7.09494189547007
30
0
41
1
10
15.2151887709508
20
7.0984957848508
30
0
0
SPLINE
5
18E
100
AcDbEntity
8
1
62
256
6
ByLayer
370
13
48
1
60
0
100
AcDbSpline
70
4
71
3
72
26
73
22
40
0
40
0
40
0
40
0
40
0.249999999999999
40
0.249999999999999
40
0.374999999999998
40
0.374999999999998
40
0.499999999999997
40
0.499999999999997
40
0.624999999999996
40
0.624999999999996
40
0.687499999999997
40
0.687499999999997
40
0.749999999999997
40
0.749999999999997
40
0.812499999999998
40
0.812499999999998
40
0.874999999999999
40
0.874999999999999
40
0.937499999999999
40
0.937499999999999
40
1
40
1
40
1
40
1
41
1
10
15.1556411351089
20
6.3487084034665
30
0
41
1
10
15.1713874721048
20
6.37119567515401
30
0
41
1
10
15.1852525385973
20
6.39496557961718
30
0
41
1
10
15.2024676609429
20
6.43214545373496
30
0
41
1
10
15.2076022625736
20
6.44479978152918
30
0
41
1
10
15.2163541101338
20
6.47051128343628
30
0
41
1
10
15.2199834171772
20
6.4835957936391
30
0
41
1
10
15.2252007204589
20
6.50997162961249
30
0
41
1
10
15.2268033705361
20
6.5232980365098
30
0
41
1
10
15.2269638229814
20
6.54308698257591
30
0
41
1
10
15.2266390473437
20
6.54962771241696
30
0
41
1
10
15.2250580057206
20
6.5624726746899
30
0
41
1
10
15.2237952158611
20
6.56877395289638
30
0
41
1
10
15.2202022287936
20
6.58072285125411
30
0
41
1
10
15.2178709530259
20
6.58641490583591
30
0
41
1
10
15.2118676362643
20
6.5970758901563
30
0
41
1
10
15.2082617908414
20
6.60189349046186
30
0
41
1
10
15.1999284212561
20
6.61017843143219
30
0
41
1
10
15.1951272445759
20
6.6136853232768
30
0
41
1
10
15.1848948362326
20
6.61903746280132
30
0
41
1
10
15.1793745534858
20
6.62095787227946
30
0
41
1
10
15.1736143155654
20
6.6221596481837
30
0
0
SPLINE
5
18F
100
AcDbEntity
8
1
62
256
6
ByLayer
370
13
48
1
60
0
100
AcDbSpline
70
4
71
3
72
34
73
30
40
0
40
0
40
0
40
0
40
0.0625
40
0.0625
40
0.125
40
0.125
40
0.25
40
0.25
40
0.3125
40
0.3125
40
0.375
40
0.375
40
0.5
40
0.5
40
0.5625
40
0.5625
40
0.624999999999999
40
0.624999999999999
40
0.687499999999999
40
0.687499999999999
40
0.749999999999999
40
0.749999999999999
40
0.874999999999999
40
0.874999999999999
40
0.9375
40
0.9375
40
0.96875
40
0.96875
40
1
40
1
40
1
40
1
41
1
10
13.6222941306662
20
6.35185185763891
30
0
41
1
10
13.6314251807219
20
6.35485294090716
30
0
41
1
10
13.6409550613383
20
6.35649074319861
30
0
41
1
10
13.6605876033435
20
6.35790047686987
30
0
41
1
10
13.6707298866342
20
6.35764354586007
30
0
41
1
10
13.70114567409
20
6.3546885443381
30
0
41
1
10
13.7216967413625
20
6.34984661979081
30
0
41
1
10
13.7519251179801
20
6.33985821011481
30
0
41
1
10
13.7618965996697
20
6.33606916019568
30
0
41
1
10
13.7816641033874
20
6.32767214115501
30
0
41
1
10
13.7914590563789
20
6.3230610309115
30
0
41
1
10
13.8203320081949
20
6.30820961590547
30
0
41
1
10
13.8389958800274
20
6.29691731832287
30
0
41
1
10
13.865737803499
20
6.27825957463057
30
0
41
1
10
13.8744024055511
20
6.2717801730858
30
0
41
1
10
13.8912304142472
20
6.25829701552738
30
0
41
1
10
13.8994131216747
20
6.25127481734307
30
0
41
1
10
13.9151262281542
20
6.23678518021001
30
0
41
1
10
13.922661076931
20
6.22931761288379
30
0
41
1
10
13.9370410934804
20
6.21389265031678
30
0
41
1
10
13.9438800111919
20
6.2059384838106
30
0
41
1
10
13.9630078766539
20
6.18150630627088
30
0
41
1
10
13.9740719642645
20
6.16433704264017
30
0
41
1
10
13.98640833496
20
6.1374063973546
30
0
41
1
10
13.9897476753616
20
6.12835341339127
30
0
41
1
10
13.9932777422515
20
6.1145961270251
30
0
41
1
10
13.9942056934505
20
6.1099804389313
30
0
41
1
10
13.9954618556995
20
6.10067203540189
30
0
41
1
10
13.9957866835803
20
6.0959787642239
30
0
41
1
10
13.9957387102421
20
6.09132599279178
30
0
0
SPLINE
5
190
100
AcDbEntity
8
1
62
256
6
ByLayer
370
13
48
1
60
0
100
AcDbSpline
70
4
71
3
72
8
73
4
40
0
40
0
40
0
40
0
40
1
40
1
40
1
40
1
41
1
10
13.6032354169466
20
6.345588837881
30
0
41
1
10
13.6095864298151
20
6.3476755734913
30
0
41
1
10
13.6159392958012
20
6.34976322725481
30
0
41
1
10
13.6222941306662
20
6.35185185763891
30
0
0
SPLINE
5
191
100
AcDbEntity
8
1
62
256
6
ByLayer
370
13
48
1
60
0
100
AcDbSpline
70
4
71
3
72
26
73
22
40
0
40
0
40
0
40
0
40
0.249999999999999
40
0.249999999999999
40
0.374999999999999
40
0.374999999999999
40
0.499999999999999
40
0.499999999999999
40
0.624999999999998
40
0.624999999999998
40
0.687499999999999
40
0.687499999999999
40
0.749999999999999
40
0.749999999999999
40
0.812499999999999
40
0.812499999999999
40
0.874999999999999
40
0.874999999999999
40
0.9375
40
0.9375
40
1
40
1
40
1
40
1
41
1
10
13.3699578026328
20
6.50222567328251
30
0
41
1
10
13.3815734651545
20
6.47738605872087
30
0
41
1
10
13.3952981282773
20
6.45348417757577
30
0
41
1
10
13.4191047535826
20
6.41987566583867
30
0
41
1
10
13.4275866565267
20
6.40904883637688
30
0
41
1
10
13.4457056127034
20
6.38846499232699
30
0
41
1
10
13.4553603789113
20
6.3786838634955
30
0
41
1
10
13.4759367049191
20
6.36072500240647
30
0
41
1
10
13.4868813401021
20
6.35251709915786
30
0
41
1
10
13.5043226495904
20
6.34217812590271
30
0
41
1
10
13.5102899211022
20
6.33907559378326
30
0
41
1
10
13.522516547959
20
6.33376643120857
30
0
41
1
10
13.5287768065557
20
6.33156673826079
30
0
41
1
10
13.5412957570537
20
6.32838892097521
30
0
41
1
10
13.5475943599845
20
6.32738880093541
30
0
41
1
10
13.560279076661
20
6.32686998902358
30
0
41
1
10
13.5664954937494
20
6.32737435759321
30
0
41
1
10
13.5783447108475
20
6.33000383501377
30
0
41
1
10
13.5840525183105
20
6.33216945388619
30
0
41
1
10
13.594343498187
20
6.3378740057604
30
0
41
1
10
13.5990414763561
20
6.3414479085946
30
0
41
1
10
13.6032354169466
20
6.345588837881
30
0
0
SPLINE
5
192
100
AcDbEntity
8
1
62
256
6
ByLayer
370
13
48
1
60
0
100
AcDbSpline
70
4
71
3
72
8
73
4
40
0
40
0
40
0
40
0
40
1
40
1
40
1
40
1
41
1
10
-0.238765877365381
20
9.2008256932836
30
0
41
1
10
-0.0442097085918931
20
9.38030767619927
30
0
41
1
10
0.150823956972317
20
9.55909535742308
30
0
41
1
10
0.346265877365113
20
9.73728941786567
30
0
0
SPLINE
5
193
100
AcDbEntity
8
1
62
256
6
ByLayer
370
13
48
1
60
0
100
AcDbSpline
70
4
71
3
72
30
73
26
40
0
40
0
40
0
40
0
40
0.124999999999998
40
0.124999999999998
40
0.249999999999996
40
0.249999999999996
40
0.312499999999995
40
0.312499999999995
40
0.374999999999995
40
0.374999999999995
40
0.499999999999994
40
0.499999999999994
40
0.562499999999995
40
0.562499999999995
40
0.624999999999995
40
0.624999999999995
40
0.687499999999996
40
0.687499999999996
40
0.749999999999996
40
0.749999999999996
40
0.812499999999997
40
0.812499999999997
40
0.874999999999998
40
0.874999999999998
40
1
40
1
40
1
40
1
41
1
10
0.346265877365113
20
9.69383466119518
30
0
41
1
10
0.354314230416549
20
9.7030031915487
30
0
41
1
10
0.362024570734207
20
9.7120155486387
30
0
41
1
10
0.376390917772824
20
9.72934950946211
30
0
41
1
10
0.382982943486013
20
9.73758938873488
30
0
41
1
10
0.391782350843073
20
9.74915581542888
30
0
41
1
10
0.394547491002527
20
9.75289955189459
30
0
41
1
10
0.399558714142586
20
9.75995443484646
30
0
41
1
10
0.401793305012006
20
9.76324752432339
30
0
41
1
10
0.407577150988232
20
9.77233014968141
30
0
41
1
10
0.410221528660827
20
9.77737570104017
30
0
41
1
10
0.411406898436212
20
9.7822277109521
30
0
41
1
10
0.411341225986234
20
9.78341456460277
30
0
41
1
10
0.410225737707833
20
9.78473876642778
30
0
41
1
10
0.409188181875607
20
9.78489777647428
30
0
41
1
10
0.406122075411758
20
9.78417873004901
30
0
41
1
10
0.40410741346102
20
9.78329571403862
30
0
41
1
10
0.399317129612655
20
9.78062463517881
30
0
41
1
10
0.396499574489326
20
9.77881398857227
30
0
41
1
10
0.390243223547827
20
9.77442329189228
30
0
41
1
10
0.386844375396549
20
9.77187483098641
30
0
41
1
10
0.379587254480498
20
9.7661810779714
30
0
41
1
10
0.375700131371559
20
9.763010980118
30
0
41
1
10
0.363625553071074
20
9.75287014858048
30
0
41
1
10
0.355119709571454
20
9.74536189437498
30
0
41
1
10
0.346265877365113
20
9.73728941786567
30
0
0
SPLINE
5
194
100
AcDbEntity
8
1
62
256
6
ByLayer
370
13
48
1
60
0
100
AcDbSpline
70
4
71
3
72
8
73
4
40
0
40
0
40
0
40
0
40
1
40
1
40
1
40
1
41
1
10
-0.238765877365381
20
9.0154066387164
30
0
41
1
10
-0.0455956335433712
20
9.24366529757697
30
0
41
1
10
0.149511996534102
20
9.4696963912852
30
0
41
1
10
0.346265877365113
20
9.69383466119518
30
0
0
SPLINE
5
195
100
AcDbEntity
8
1
62
256
6
ByLayer
370
13
48
1
60
0
100
AcDbSpline
70
4
71
3
72
20
73
16
40
0
40
0
40
0
40
0
40
0.124999999999997
40
0.124999999999997
40
0.249999999999993
40
0.249999999999993
40
0.37499999999999
40
0.37499999999999
40
0.499999999999987
40
0.499999999999987
40
0.624999999999983
40
0.624999999999983
40
0.74999999999998
40
0.74999999999998
40
1
40
1
40
1
40
1
41
1
10
-0.298765877365327
20
8.92579326695551
30
0
41
1
10
-0.298765877365327
20
8.92751534710231
30
0
41
1
10
-0.298257330061119
20
8.92973006155779
30
0
41
1
10
-0.296414066035481
20
8.93483271643981
30
0
41
1
10
-0.29508199061263
20
8.93773417862349
30
0
41
1
10
-0.291709533635299
20
8.94414124015361
30
0
41
1
10
-0.289670250406061
20
8.9476384471177
30
0
41
1
10
-0.285099650799339
20
8.95495349946128
30
0
41
1
10
-0.28255500406749
20
8.95879650906846
30
0
41
1
10
-0.277014814373615
20
8.9668058032583
30
0
41
1
10
-0.274000002053185
20
8.97099709251978
30
0
41
1
10
-0.267676690248209
20
8.97951670891018
30
0
41
1
10
-0.264365430641988
20
8.9838509223714
30
0
41
1
10
-0.254037741571324
20
8.99705086122168
30
0
41
1
10
-0.246632124699545
20
9.00611152663691
30
0
41
1
10
-0.238765877365381
20
9.0154066387164
30
0
0
SPLINE
5
196
100
AcDbEntity
8
1
62
256
6
ByLayer
370
13
48
1
60
0
100
AcDbSpline
70
4
71
3
72
22
73
18
40
0
40
0
40
0
40
0
40
0.125
40
0.125
40
0.25
40
0.25
40
0.375
40
0.375
40
0.5
40
0.5
40
0.625
40
0.625
40
0.75
40
0.75
40
0.875
40
0.875
40
1
40
1
40
1
40
1
41
1
10
-0.238765877365381
20
8.9180195277379
30
0
41
1
10
-0.242657775424732
20
8.91463026752268
30
0
41
1
10
-0.246496286971251
20
8.91137419390969
30
0
41
1
10
-0.254050530868085
20
8.90516689655288
30
0
41
1
10
-0.257767576760557
20
8.9022162053156
30
0
41
1
10
-0.264885247389884
20
8.89680313743639
30
0
41
1
10
-0.268307349783754
20
8.8943224601843
30
0
41
1
10
-0.274834614821316
20
8.8898823732772
30
0
41
1
10
-0.277963024104452
20
8.88791151595507
30
0
41
1
10
-0.283636005090329
20
8.88471096918801
30
0
41
1
10
-0.286201052172487
20
8.88346442550079
30
0
41
1
10
-0.290727280558826
20
8.88175544973751
30
0
41
1
10
-0.292655503818651
20
8.88131186438682
30
0
41
1
10
-0.295715292012119
20
8.88127603322101
30
0
41
1
10
-0.296872595927539
20
8.88167800490947
30
0
41
1
10
-0.29840581111182
20
8.88331692566391
30
0
41
1
10
-0.29876587736544
20
8.88452839534517
30
0
41
1
10
-0.29876587736544
20
8.88608639192012
30
0
0
SPLINE
5
197
100
AcDbEntity
8
1
62
256
6
ByLayer
370
13
48
1
60
0
100
AcDbSpline
70
4
71
3
72
8
73
4
40
0
40
0
40
0
40
0
40
1
40
1
40
1
40
1
41
1
10
0.346265877365113
20
9.42582959020098
30
0
41
1
10
0.151036633918011
20
9.25689544871568
30
0
41
1
10
-0.0439858700524383
20
9.0876437366519
30
0
41
1
10
-0.238765877365381
20
8.9180195277379
30
0
0
SPLINE
5
198
100
AcDbEntity
8
1
62
256
6
ByLayer
370
13
48
1
60
0
100
AcDbSpline
70
4
71
3
72
28
73
24
40
0
40
0
40
0
40
0
40
0.124999999999996
40
0.124999999999996
40
0.249999999999991
40
0.249999999999991
40
0.312499999999989
40
0.312499999999989
40
0.374999999999987
40
0.374999999999987
40
0.437499999999984
40
0.437499999999984
40
0.499999999999982
40
0.499999999999982
40
0.56249999999998
40
0.56249999999998
40
0.624999999999977
40
0.624999999999977
40
0.749999999999985
40
0.749999999999985
40
0.874999999999992
40
0.874999999999992
40
1
40
1
40
1
40
1
41
1
10
0.346265877365113
20
9.42582959020098
30
0
41
1
10
0.355576456921881
20
9.43388614328887
30
0
41
1
10
0.36470497297546
20
9.4412897513954
30
0
41
1
10
0.381461251336759
20
9.45352142081612
30
0
41
1
10
0.389268762373376
20
9.45846082509871
30
0
41
1
10
0.398642139176332
20
9.46272307855878
30
0
41
1
10
0.401412031115001
20
9.46363217188201
30
0
41
1
10
0.405901617268
20
9.46427147428159
30
0
41
1
10
0.407664810107008
20
9.46402576623677
30
0
41
1
10
0.410199721073013
20
9.46236925217801
30
0
41
1
10
0.410921962450061
20
9.46099303643018
30
0
41
1
10
0.411416625158267
20
9.45728358760238
30
0
41
1
10
0.411176794184257
20
9.4549189964365
30
0
41
1
10
0.409871536904007
20
9.44950338457409
30
0
41
1
10
0.408815691918562
20
9.4464488757755
30
0
41
1
10
0.406023753639829
20
9.43975435028841
30
0
41
1
10
0.404272282956299
20
9.43608875420239
30
0
41
1
10
0.398257103375613
20
9.4245913212078
30
0
41
1
10
0.393235964374867
20
9.41621836100256
30
0
41
1
10
0.381641144732043
20
9.39838880063496
30
0
41
1
10
0.375208663627973
20
9.38915596506416
30
0
41
1
10
0.361431891378402
20
9.37032279385897
30
0
41
1
10
0.354067764768047
20
9.36069669238748
30
0
41
1
10
0.346265877365113
20
9.3508808238775
30
0
0
SPLINE
5
199
100
AcDbEntity
8
1
62
256
6
ByLayer
370
13
48
1
60
0
100
AcDbSpline
70
4
71
3
72
8
73
4
40
0
40
0
40
0
40
0
40
1
40
1
40
1
40
1
41
1
10
0.346265877365113
20
9.3508808238775
30
0
41
1
10
0.148605803079249
20
9.10219673005656
30
0
41
1
10
-0.0465577583049708
20
8.85093083078317
30
0
41
1
10
-0.238765877365381
20
8.59660851746116
30
0
0
SPLINE
5
19A
100
AcDbEntity
8
1
62
256
6
ByLayer
370
13
48
1
60
0
100
AcDbSpline
70
4
71
3
72
16
73
12
40
0
40
0
40
0
40
0
40
0.249999999999995
40
0.249999999999995
40
0.499999999999991
40
0.499999999999991
40
0.749999999999986
40
0.749999999999986
40
0.874999999999993
40
0.874999999999993
40
1
40
1
40
1
40
1
41
1
10
-0.238765877365381
20
8.59660851746116
30
0
41
1
10
-0.246772229439671
20
8.58601482354879
30
0
41
1
10
-0.254283759985697
20
8.57555355665829
30
0
41
1
10
-0.268044794774141
20
8.55518066417636
30
0
41
1
10
-0.274330351784897
20
8.54522722694327
30
0
41
1
10
-0.285382100587981
20
8.52590816882957
30
0
41
1
10
-0.289995073189402
20
8.516813173169
30
0
41
1
10
-0.295026656647224
20
8.50441335014847
30
0
41
1
10
-0.296393599959174
20
8.50045289950538
30
0
41
1
10
-0.298256670251703
20
8.4932911407239
30
0
41
1
10
-0.298765877366918
20
8.49007210552242
30
0
41
1
10
-0.298765877367032
20
8.48729043713928
30
0
0
SPLINE
5
19B
100
AcDbEntity
8
1
62
256
6
ByLayer
370
13
48
1
60
0
100
AcDbSpline
70
4
71
3
72
20
73
16
40
0
40
0
40
0
40
0
40
0.249999999999993
40
0.249999999999993
40
0.374999999999994
40
0.374999999999994
40
0.499999999999995
40
0.499999999999995
40
0.624999999999996
40
0.624999999999996
40
0.749999999999998
40
0.749999999999998
40
0.874999999999999
40
0.874999999999999
40
1
40
1
40
1
40
1
41
1
10
-0.29876587736544
20
8.42456039474627
30
0
41
1
10
-0.29876587736544
20
8.41994724155307
30
0
41
1
10
-0.297431051138915
20
8.41648685673238
30
0
41
1
10
-0.293071197970107
20
8.41397522945528
30
0
41
1
10
-0.291197061015282
20
8.41357394735081
30
0
41
1
10
-0.286803461957902
20
8.41371371244492
30
0
41
1
10
-0.284277760879149
20
8.4142376060102
30
0
41
1
10
-0.278592712715295
20
8.4161633027993
30
0
41
1
10
-0.27541901515076
20
8.41758052507771
30
0
41
1
10
-0.2687797677238
20
8.42109429718977
30
0
41
1
10
-0.265279921479987
20
8.42320009609961
30
0
41
1
10
-0.257964350645693
20
8.42802565081701
30
0
41
1
10
-0.254177101134474
20
8.43072930174037
30
0
41
1
10
-0.246547891776459
20
8.4365068286117
30
0
41
1
10
-0.242679803790679
20
8.43959821043137
30
0
41
1
10
-0.238765877365267
20
8.44286391907627
30
0
0
SPLINE
5
19C
100
AcDbEntity
8
1
62
256
6
ByLayer
370
13
48
1
60
0
100
AcDbSpline
70
4
71
3
72
8
73
4
40
0
40
0
40
0
40
0
40
1
40
1
40
1
40
1
41
1
10
-0.238765877365267
20
8.44286391907627
30
0
41
1
10
-0.0438327685197919
20
8.60551254082657
30
0
41
1
10
0.151181989686393
20
8.76803053634421
30
0
41
1
10
0.346265877365113
20
8.9304379354956
30
0
0
SPLINE
5
19D
100
AcDbEntity
8
1
62
256
6
ByLayer
370
13
48
1
60
0
100
AcDbSpline
70
4
71
3
72
34
73
30
40
0
40
0
40
0
40
0
40
0.125000000000013
40
0.125000000000013
40
0.250000000000026
40
0.250000000000026
40
0.312500000000024
40
0.312500000000024
40
0.375000000000023
40
0.375000000000023
40
0.500000000000015
40
0.500000000000015
40
0.562500000000008
40
0.562500000000008
40
0.625
40
0.625
40
0.687499999999993
40
0.687499999999993
40
0.71874999999999
40
0.71874999999999
40
0.749999999999988
40
0.749999999999988
40
0.812499999999991
40
0.812499999999991
40
0.874999999999994
40
0.874999999999994
40
0.937499999999997
40
0.937499999999997
40
1
40
1
40
1
40
1
41
1
10
0.346265877365113
20
8.81943954716678
30
0
41
1
10
0.353889031863787
20
8.83023227515258
30
0
41
1
10
0.361124470057689
20
8.8409857943418
30
0
41
1
10
0.374604047870662
20
8.8621704982196
30
0
41
1
10
0.380796566799177
20
8.87251476902219
30
0
41
1
10
0.389146208535067
20
8.88760176028586
30
0
41
1
10
0.391771581106127
20
8.89255859970046
30
0
41
1
10
0.396662564244707
20
8.90230746749756
30
0
41
1
10
0.398939332799841
20
8.90712538286658
30
0
41
1
10
0.405024904011498
20
8.92105407979841
30
0
41
1
10
0.408125787256154
20
8.92965763060266
30
0
41
1
10
0.410713706703064
20
8.94109520373138
30
0
41
1
10
0.411211860853427
20
8.94462567257267
30
0
41
1
10
0.411311541643727
20
8.95081855116081
30
0
41
1
10
0.410919955962072
20
8.95351772424107
30
0
41
1
10
0.409042597490838
20
8.95787833728167
30
0
41
1
10
0.407586190641723
20
8.9594732401261
30
0
41
1
10
0.404542161800237
20
8.96089749684467
30
0
41
1
10
0.403372531103855
20
8.9612100142366
30
0
41
1
10
0.400790410293666
20
8.9614810619334
30
0
41
1
10
0.399378512096632
20
8.961443580462
30
0
41
1
10
0.394793292899976
20
8.96083180769716
30
0
41
1
10
0.391242736385152
20
8.95974792136627
30
0
41
1
10
0.383357164416111
20
8.95633715592777
30
0
41
1
10
0.379134660872296
20
8.95406786495511
30
0
41
1
10
0.370224480585421
20
8.94859618325171
30
0
41
1
10
0.365506963276289
20
8.94536637626896
30
0
41
1
10
0.355994860864826
20
8.93833589705866
30
0
41
1
10
0.351162300892611
20
8.93451420965488
30
0
41
1
10
0.346265877365227
20
8.93043793549566
30
0
0
SPLINE
5
19E
100
AcDbEntity
8
1
62
256
6
ByLayer
370
13
48
1
60
0
100
AcDbSpline
70
4
71
3
72
8
73
4
40
0
40
0
40
0
40
0
40
1
40
1
40
1
40
1
41
1
10
-0.238765877365381
20
7.96246187705538
30
0
41
1
10
-0.0481169873773979
20
8.25209121847769
30
0
41
1
10
0.147142375851445
20
8.5375239979287
30
0
41
1
10
0.346265877365113
20
8.81943954716678
30
0
0
SPLINE
5
19F
100
AcDbEntity
8
1
62
256
6
ByLayer
370
13
48
1
60
0
100
AcDbSpline
70
4
71
3
72
18
73
14
40
0
40
0
40
0
40
0
40
0.125
40
0.125
40
0.25
40
0.25
40
0.375
40
0.375
40
0.5
40
0.5
40
0.75
40
0.75
40
1
40
1
40
1
40
1
41
1
10
-0.298765877371238
20
7.82773354709411
30
0
41
1
10
-0.298765877370556
20
7.83185476134202
30
0
41
1
10
-0.298237772401649
20
7.83638595986247
30
0
41
1
10
-0.296350115759879
20
7.84609103606937
30
0
41
1
10
-0.294979890132708
20
7.85127941592009
30
0
41
1
10
-0.291623824588441
20
7.86192119743441
30
0
41
1
10
-0.289631461307977
20
7.86740990255578
30
0
41
1
10
-0.285119345876524
20
7.87866843438042
30
0
41
1
10
-0.282587530767842
20
7.88446223524619
30
0
41
1
10
-0.274360985890667
20
7.90205329357866
30
0
41
1
10
-0.268105334896404
20
7.91394612243801
30
0
41
1
10
-0.254357664340659
20
7.93800122598549
30
0
41
1
10
-0.246860587684182
20
7.95016458217577
30
0
41
1
10
-0.238765877365381
20
7.96246187705538
30
0
0
SPLINE
5
1A0
100
AcDbEntity
8
1
62
256
6
ByLayer
370
13
48
1
60
0
100
AcDbSpline
70
4
71
3
72
20
73
16
40
0
40
0
40
0
40
0
40
0.250000000000015
40
0.250000000000015
40
0.375000000000013
40
0.375000000000013
40
0.50000000000001
40
0.50000000000001
40
0.625000000000008
40
0.625000000000008
40
0.750000000000005
40
0.750000000000005
40
0.875000000000003
40
0.875000000000003
40
1
40
1
40
1
40
1
41
1
10
-0.238765877365381
20
7.7400148588336
30
0
41
1
10
-0.246777986844904
20
7.73346969899876
30
0
41
1
10
-0.254636225684749
20
7.7278490661061
30
0
41
1
10
-0.265993522329268
20
7.7215298822062
30
0
41
1
10
-0.269624874001352
20
7.71983191860551
30
0
41
1
10
-0.2764288550419
20
7.71741160369317
30
0
41
1
10
-0.279644980779267
20
7.71668778733766
30
0
41
1
10
-0.28528388017628
20
7.71635494380308
30
0
41
1
10
-0.287747523773078
20
7.71672249402059
30
0
41
1
10
-0.291970211939315
20
7.71851066904242
30
0
41
1
10
-0.293683916237796
20
7.719924789836
30
0
41
1
10
-0.296321552665745
20
7.72355587986448
30
0
41
1
10
-0.29727121172391
20
7.72580238231427
30
0
41
1
10
-0.298492669163011
20
7.7309252762854
30
0
41
1
10
-0.298765877365895
20
7.73377374075
30
0
41
1
10
-0.298765877365781
20
7.73685364504087
30
0
0
SPLINE
5
1A1
100
AcDbEntity
8
1
62
256
6
ByLayer
370
13
48
1
60
0
100
AcDbSpline
70
4
71
3
72
8
73
4
40
0
40
0
40
0
40
0
40
1
40
1
40
1
40
1
41
1
10
0.346265877365113
20
8.21791822641046
30
0
41
1
10
0.151253496653794
20
8.05862003506371
30
0
41
1
10
-0.0437571991371897
20
7.89931909343358
30
0
41
1
10
-0.238765877365381
20
7.7400148588336
30
0
0
SPLINE
5
1A2
100
AcDbEntity
8
1
62
256
6
ByLayer
370
13
48
1
60
0
100
AcDbSpline
70
4
71
3
72
35
73
31
40
0
40
0
40
0
40
0
40
0.0625000000000082
40
0.0625000000000082
40
0.125000000000016
40
0.125000000000016
40
0.187500000000025
40
0.187500000000025
40
0.218750000000032
40
0.218750000000032
40
0.250000000000039
40
0.281250000000047
40
0.281250000000047
40
0.312500000000054
40
0.312500000000054
40
0.375000000000057
40
0.375000000000057
40
0.500000000000056
40
0.500000000000056
40
0.562500000000051
40
0.562500000000051
40
0.625000000000046
40
0.625000000000046
40
0.687500000000041
40
0.687500000000041
40
0.750000000000036
40
0.750000000000036
40
0.875000000000018
40
0.875000000000018
40
1
40
1
40
1
40
1
41
1
10
0.346265877365113
20
8.21791822641046
30
0
41
1
10
0.351559120565753
20
8.22224207531247
30
0
41
1
10
0.356877535971989
20
8.22624943338741
30
0
41
1
10
0.367199509601278
20
8.23318736387228
30
0
41
1
10
0.372219603705617
20
8.23613929309488
30
0
41
1
10
0.381898738450332
20
8.24071058892412
30
0
41
1
10
0.386398896526544
20
8.24224501119397
30
0
41
1
10
0.392458697932739
20
8.24323591947507
30
0
41
1
10
0.394380572209457
20
8.24334571687871
30
0
41
1
10
0.397870549233289
20
8.24311245036756
30
0
41
1
10
0.401038188441362
20
8.24243734782351
30
0
41
1
10
0.403596374177596
20
8.24092484486721
30
0
41
1
10
0.405859980075434
20
8.23900656376259
30
0
41
1
10
0.40684006018796
20
8.23784229226391
30
0
41
1
10
0.409288265801706
20
8.23389316835886
30
0
41
1
10
0.410308303980287
20
8.23062901171227
30
0
41
1
10
0.411890502352321
20
8.21930455064921
30
0
41
1
10
0.410976311783315
20
8.2101906460781
30
0
41
1
10
0.407806778579925
20
8.19514097128319
30
0
41
1
10
0.406439893232232
20
8.18990704833368
30
0
41
1
10
0.403235067029641
20
8.17921957417468
30
0
41
1
10
0.401391699512146
20
8.17374330169349
30
0
41
1
10
0.397292803559139
20
8.16256352951478
30
0
41
1
10
0.395027198721436
20
8.15683758009561
30
0
41
1
10
0.39017698021587
20
8.14530295769697
30
0
41
1
10
0.387596363889315
20
8.1395004910114
30
0
41
1
10
0.379444571452495
20
8.1220005745796
30
0
41
1
10
0.373467770035745
20
8.11021152583692
30
0
41
1
10
0.36057246563621
20
8.08642349979158
30
0
41
1
10
0.353652384603265
20
8.0744241580054
30
0
41
1
10
0.346265877365113
20
8.0623232179006
30
0
0
SPLINE
5
1A3
100
AcDbEntity
8
1
62
256
6
ByLayer
370
13
48
1
60
0
100
AcDbSpline
70
4
71
3
72
8
73
4
40
0
40
0
40
0
40
0
40
1
40
1
40
1
40
1
41
1
10
0.346265877365113
20
8.0623232179006
30
0
41
1
10
0.144518634633869
20
7.7318109443882
30
0
41
1
10
-0.0509230994258587
20
7.39641522535157
30
0
41
1
10
-0.238765877365381
20
7.0551343208075
30
0
0
SPLINE
5
1A4
100
AcDbEntity
8
1
62
256
6
ByLayer
370
13
48
1
60
0
100
AcDbSpline
70
4
71
3
72
16
73
12
40
0
40
0
40
0
40
0
40
0.250000000000002
40
0.250000000000002
40
0.500000000000004
40
0.500000000000004
40
0.750000000000006
40
0.750000000000006
40
0.875000000000003
40
0.875000000000003
40
1
40
1
40
1
40
1
41
1
10
-0.238765877365381
20
7.0551343208075
30
0
41
1
10
-0.247032030976811
20
7.04011601447399
30
0
41
1
10
-0.254652091412481
20
7.02511670269757
30
0
41
1
10
-0.268563055792811
20
6.99514998062358
30
0
41
1
10
-0.274814359311449
20
6.98025744886411
30
0
41
1
10
-0.285523924612903
20
6.95114879840492
30
0
41
1
10
-0.290028233954445
20
6.936862681989
30
0
41
1
10
-0.295008606595388
20
6.91599803173398
30
0
41
1
10
-0.296356186770026
20
6.90916940388411
30
0
41
1
10
-0.298228559791255
20
6.89609483055762
30
0
41
1
10
-0.298765877364758
20
6.88981192257961
30
0
41
1
10
-0.29876587736544
20
6.88387434548116
30
0
0
SPLINE
5
1A5
100
AcDbEntity
8
1
62
256
6
ByLayer
370
13
48
1
60
0
100
AcDbSpline
70
4
71
3
72
20
73
16
40
0
40
0
40
0
40
0
40
0.249999999999981
40
0.249999999999981
40
0.499999999999962
40
0.499999999999962
40
0.624999999999952
40
0.624999999999952
40
0.687499999999954
40
0.687499999999954
40
0.749999999999957
40
0.749999999999957
40
0.874999999999978
40
0.874999999999978
40
1
40
1
40
1
40
1
41
1
10
-0.298765877365668
20
6.75422762459527
30
0
41
1
10
-0.298765877365668
20
6.74624072956931
30
0
41
1
10
-0.297866796027165
20
6.73884506042111
30
0
41
1
10
-0.293321330895196
20
6.72682384379777
30
0
41
1
10
-0.289552668558485
20
6.72212118175491
30
0
41
1
10
-0.28119750565827
20
6.7191800209672
30
0
41
1
10
-0.278056184268735
20
6.71889345998221
30
0
41
1
10
-0.272803826782592
20
6.71952073905277
30
0
41
1
10
-0.270944631805492
20
6.71991323315626
30
0
41
1
10
-0.267159993159112
20
6.72102286987149
30
0
41
1
10
-0.265230723316336
20
6.72173689482537
30
0
41
1
10
-0.259344371391649
20
6.72430467751059
30
0
41
1
10
-0.255270140513972
20
6.72659419295087
30
0
41
1
10
-0.246984275803811
20
6.73207088082796
30
0
41
1
10
-0.242865833676206
20
6.73519050757318
30
0
41
1
10
-0.238765877364131
20
6.73859843542397
30
0
0
SPLINE
5
1A6
100
AcDbEntity
8
1
62
256
6
ByLayer
370
13
48
1
60
0
100
AcDbSpline
70
4
71
3
72
8
73
4
40
0
40
0
40
0
40
0
40
1
40
1
40
1
40
1
41
1
10
-0.238765877364244
20
6.73859843542431
30
0
41
1
10
-0.0438338378252183
20
6.90062804647266
30
0
41
1
10
0.151181970829953
20
7.06252312580261
30
0
41
1
10
0.346265877365113
20
7.22430884114181
30
0
0
SPLINE
5
1A7
100
AcDbEntity
8
1
62
256
6
ByLayer
370
13
48
1
60
0
100
AcDbSpline
70
4
71
3
72
34
73
30
40
0
40
0
40
0
40
0
40
0.125000000000005
40
0.125000000000005
40
0.250000000000009
40
0.250000000000009
40
0.375000000000013
40
0.375000000000013
40
0.500000000000018
40
0.500000000000018
40
0.625000000000022
40
0.625000000000022
40
0.68750000000002
40
0.68750000000002
40
0.750000000000017
40
0.750000000000017
40
0.781250000000018
40
0.781250000000018
40
0.812500000000018
40
0.812500000000018
40
0.843750000000018
40
0.843750000000018
40
0.875000000000018
40
0.875000000000018
40
0.937500000000012
40
0.937500000000012
40
0.968750000000006
40
0.968750000000006
40
1
40
1
40
1
40
1
41
1
10
0.346265877365113
20
7.00675370008611
30
0
41
1
10
0.353418926117229
20
7.02097432507338
30
0
41
1
10
0.360126216703293
20
7.03517086760678
30
0
41
1
10
0.37264676553923
20
7.06351183392371
30
0
41
1
10
0.378481809986738
20
7.07771387141787
30
0
41
1
10
0.389029637065733
20
7.10574442488598
30
0
41
1
10
0.393741753994505
20
7.11955332215848
30
0
41
1
10
0.401818220863561
20
7.1466778906069
30
0
41
1
10
0.405194558186963
20
7.15999771055516
30
0
41
1
10
0.410032479721508
20
7.1859453654244
30
0
41
1
10
0.411456399043345
20
7.19826874363127
30
0
41
1
10
0.411141041805763
20
7.2150922508963
30
0
41
1
10
0.410605339344556
20
7.220452725771
30
0
41
1
10
0.40839782123021
20
7.22999031864998
30
0
41
1
10
0.406723958128055
20
7.23423809236186
30
0
41
1
10
0.40303119379098
20
7.23934624811028
30
0
41
1
10
0.401620901557976
20
7.24080999722707
30
0
41
1
10
0.398393832055604
20
7.24319766905131
30
0
41
1
10
0.396554455671208
20
7.24412633237927
30
0
41
1
10
0.392531659420229
20
7.24532171076658
30
0
41
1
10
0.390354358242462
20
7.24559608126668
30
0
41
1
10
0.385666192390431
20
7.24549670735411
30
0
41
1
10
0.383131441315413
20
7.24511618959787
30
0
41
1
10
0.375175818321281
20
7.24301963512841
30
0
41
1
10
0.369590367365845
20
7.24043737387422
30
0
41
1
10
0.360888287302941
20
7.23520980893392
30
0
41
1
10
0.357934495820018
20
7.23323589782296
30
0
41
1
10
0.352087716686697
20
7.2289971921449
30
0
41
1
10
0.349173084688573
20
7.22671982739331
30
0
41
1
10
0.346265877365113
20
7.2243088411422
30
0
0
SPLINE
5
1A8
100
AcDbEntity
8
1
62
256
6
ByLayer
370
13
48
1
60
0
100
AcDbSpline
70
4
71
3
72
8
73
4
40
0
40
0
40
0
40
0
40
1
40
1
40
1
40
1
41
1
10
-0.238765877365381
20
5.7466548030755
30
0
41
1
10
-0.057009721709619
20
6.1748926456271
30
0
41
1
10
0.138849843461003
20
6.59440006784467
30
0
41
1
10
0.346265877365113
20
7.00675370008611
30
0
0
SPLINE
5
1A9
100
AcDbEntity
8
1
62
256
6
ByLayer
370
13
48
1
60
0
100
AcDbSpline
70
4
71
3
72
18
73
14
40
0
40
0
40
0
40
0
40
0.124999999999998
40
0.124999999999998
40
0.249999999999996
40
0.249999999999996
40
0.374999999999994
40
0.374999999999994
40
0.499999999999991
40
0.499999999999991
40
0.749999999999996
40
0.749999999999996
40
1
40
1
40
1
40
1
41
1
10
-0.298765877365327
20
5.5115369475572
30
0
41
1
10
-0.298765877364986
20
5.52053505662786
30
0
41
1
10
-0.298220586049183
20
5.5297923520273
30
0
41
1
10
-0.296353998257587
20
5.54867003181806
30
0
41
1
10
-0.295027779173552
20
5.55829285121388
30
0
41
1
10
-0.291741643431124
20
5.57783152194446
30
0
41
1
10
-0.289789054669882
20
5.58768925131858
30
0
41
1
10
-0.28540314314364
20
5.60739168872539
30
0
41
1
10
-0.282964342166451
20
5.61726381038017
30
0
41
1
10
-0.275000635421407
20
5.64693429670507
30
0
41
1
10
-0.268836519202978
20
5.66678588708237
30
0
41
1
10
-0.254975740215173
20
5.70661864818328
30
0
41
1
10
-0.247277737891181
20
5.72659990713839
30
0
41
1
10
-0.238765877365609
20
5.7466548030755
30
0
0
SPLINE
5
1AA
100
AcDbEntity
8
1
62
256
6
ByLayer
370
13
48
1
60
0
100
AcDbSpline
70
4
71
3
72
22
73
18
40
0
40
0
40
0
40
0
40
0.124999999999997
40
0.124999999999997
40
0.187499999999996
40
0.187499999999996
40
0.249999999999994
40
0.249999999999994
40
0.374999999999993
40
0.374999999999993
40
0.499999999999993
40
0.499999999999993
40
0.624999999999992
40
0.624999999999992
40
0.749999999999991
40
0.749999999999991
40
1
40
1
40
1
40
1
41
1
10
-0.238765877365381
20
5.2711087764165
30
0
41
1
10
-0.243144574182452
20
5.26705538157131
30
0
41
1
10
-0.247596197834582
20
5.26345550482677
30
0
41
1
10
-0.254437711893729
20
5.25907096211608
30
0
41
1
10
-0.256757310451008
20
5.25777941401986
30
0
41
1
10
-0.261306871231113
20
5.25570422909897
30
0
41
1
10
-0.263553348527466
20
5.25490793451541
30
0
41
1
10
-0.270194204772451
20
5.25335709562307
30
0
41
1
10
-0.274260054765932
20
5.25351102424116
30
0
41
1
10
-0.281472966859269
20
5.25613964050427
30
0
41
1
10
-0.284448277680212
20
5.25852851360259
30
0
41
1
10
-0.289387323544474
20
5.26471844885998
30
0
41
1
10
-0.29128259396964
20
5.26840395339747
30
0
41
1
10
-0.294342285062044
20
5.27652146565117
30
0
41
1
10
-0.295503404065812
20
5.28098623421778
30
0
41
1
10
-0.298132446500972
20
5.29504236562781
30
0
41
1
10
-0.298765877397727
20
5.30511179615098
30
0
41
1
10
-0.298765877396249
20
5.31556932836941
30
0
0
SPLINE
5
1AB
100
AcDbEntity
8
1
62
256
6
ByLayer
370
13
48
1
60
0
100
AcDbSpline
70
4
71
3
72
8
73
4
40
0
40
0
40
0
40
0
40
1
40
1
40
1
40
1
41
1
10
0.346265877365113
20
5.80707297082012
30
0
41
1
10
0.150537630447275
20
5.62946272436187
30
0
41
1
10
-0.044539857877794
20
5.45090536409828
30
0
41
1
10
-0.238765877365381
20
5.2711087764165
30
0
0
SPLINE
5
1AC
100
AcDbEntity
8
1
62
256
6
ByLayer
370
13
48
1
60
0
100
AcDbSpline
70
4
71
3
72
36
73
32
40
0
40
0
40
0
40
0
40
0.0312499999999984
40
0.0312499999999984
40
0.0624999999999968
40
0.0624999999999968
40
0.0937499999999952
40
0.0937499999999952
40
0.124999999999994
40
0.124999999999994
40
0.156249999999992
40
0.156249999999992
40
0.18749999999999
40
0.18749999999999
40
0.218749999999989
40
0.218749999999989
40
0.249999999999987
40
0.249999999999987
40
0.312499999999988
40
0.312499999999988
40
0.374999999999989
40
0.374999999999989
40
0.437499999999989
40
0.437499999999989
40
0.49999999999999
40
0.49999999999999
40
0.624999999999991
40
0.624999999999991
40
0.749999999999992
40
0.749999999999992
40
1
40
1
40
1
40
1
41
1
10
0.346265877365113
20
5.80707297082029
30
0
41
1
10
0.349678857792469
20
5.81017002147297
30
0
41
1
10
0.353131400173993
20
5.81302053335531
30
0
41
1
10
0.36013885271484
20
5.81808116000587
30
0
41
1
10
0.363735971464507
20
5.82031099908397
30
0
41
1
10
0.370802214378614
20
5.82375127098038
30
0
41
1
10
0.374312733091074
20
5.8249815919541
30
0
41
1
10
0.381015147862058
20
5.82618199423359
30
0
41
1
10
0.384133274180385
20
5.82614977688877
30
0
41
1
10
0.389910950104991
20
5.82483691467291
30
0
41
1
10
0.392534135702249
20
5.82354395375768
30
0
41
1
10
0.397084453905336
20
5.82001526291151
30
0
41
1
10
0.39907193155841
20
5.81774279094032
30
0
41
1
10
0.402452230586732
20
5.81257141616328
30
0
41
1
10
0.403857995135013
20
5.80967572346657
30
0
41
1
10
0.406242180037339
20
5.80341627700381
30
0
41
1
10
0.407221046146219
20
5.8000365585105
30
0
41
1
10
0.409603916586093
20
5.78952751234857
30
0
41
1
10
0.410492073873684
20
5.78198854631518
30
0
41
1
10
0.411373957527644
20
5.76622186865279
30
0
41
1
10
0.411354427631636
20
5.75801999238792
30
0
41
1
10
0.410670240734248
20
5.74136150539607
30
0
41
1
10
0.4100039122103
20
5.73286830802141
30
0
41
1
10
0.408173601714111
20
5.71562689760611
30
0
41
1
10
0.407003504118507
20
5.70685048208941
30
0
41
1
10
0.402914221957076
20
5.68044531587776
30
0
41
1
10
0.399433120646904
20
5.66273749153908
30
0
41
1
10
0.391389942966157
20
5.62716542405548
30
0
41
1
10
0.38682042024061
20
5.6093003009845
30
0
41
1
10
0.371735183581904
20
5.55550204342478
30
0
41
1
10
0.359881758625988
20
5.51937028318349
30
0
41
1
10
0.346265877365227
20
5.48298633569698
30
0
0
SPLINE
5
1AD
100
AcDbEntity
8
1
62
256
6
ByLayer
370
13
48
1
60
0
100
AcDbSpline
70
4
71
3
72
8
73
4
40
0
40
0
40
0
40
0
40
1
40
1
40
1
40
1
41
1
10
8.26891998632209
20
1.37959109840131
30
0
41
1
10
8.26058286851571
20
1.41401505856027
30
0
41
1
10
8.2522274057103
20
1.44843038790987
30
0
41
1
10
8.24385653570346
20
1.48283845125979
30
0
0
SPLINE
5
1AE
100
AcDbEntity
8
1
62
256
6
ByLayer
370
13
48
1
60
0
100
AcDbSpline
70
4
71
3
72
8
73
4
40
0
40
0
40
0
40
0
40
1
40
1
40
1
40
1
41
1
10
10.5646767833094
20
-0.0047773367325021
30
0
41
1
10
10.5360619131885
20
-0.0013500211713335
30
0
41
1
10
10.5073382988406
20
0.0018894725665746
30
0
41
1
10
10.478495810483
20
0.0049236484323956
30
0
0
SPLINE
5
1AF
100
AcDbEntity
8
1
62
256
6
ByLayer
370
13
48
1
60
0
100
AcDbSpline
70
4
71
3
72
9
73
5
40
0
40
0
40
0
40
0
40
0.5
40
1
40
1
40
1
40
1
41
1
10
0.346265877365113
20
5.48298633569698
30
0
41
1
10
0.232933655255465
20
5.1801433879088
30
0
41
1
10
0.0209676303300057
20
4.56828334038391
30
0
41
1
10
-0.158260695107288
20
3.94267164194798
30
0
41
1
10
-0.238765877365722
20
3.6260395153372
30
0
0
SPLINE
5
1B0
100
AcDbEntity
8
1
62
256
6
ByLayer
370
13
48
1
60
0
100
AcDbSpline
70
4
71
3
72
16
73
12
40
0
40
0
40
0
40
0
40
0.25
40
0.25
40
0.5
40
0.5
40
0.75
40
0.75
40
0.875
40
0.875
40
1
40
1
40
1
40
1
41
1
10
-0.238765877365722
20
3.62603951533697
30
0
41
1
10
-0.247808394707931
20
3.59047470552429
30
0
41
1
10
-0.25580194004317
20
3.5548766158484
30
0
41
1
10
-0.269947172332536
20
3.4836076216518
30
0
41
1
10
-0.27609711315597
20
3.4479367684566
30
0
41
1
10
-0.286494809766396
20
3.37651757297851
30
0
41
1
10
-0.290728450758024
20
3.34090920151931
30
0
41
1
10
-0.295306753647424
20
3.28785605266978
30
0
41
1
10
-0.296535443024709
20
3.27022490915851
30
0
41
1
10
-0.298262678483638
20
3.23510015504257
30
0
41
1
10
-0.29876587736544
20
3.21760546653758
30
0
41
1
10
-0.29876587736544
20
3.20021140615751
30
0
0
SPLINE
5
1B1
100
AcDbEntity
8
1
62
256
6
ByLayer
370
13
48
1
60
0
100
AcDbSpline
70
4
71
3
72
30
73
26
40
0
40
0
40
0
40
0
40
0.250000000000003
40
0.250000000000003
40
0.375000000000005
40
0.375000000000005
40
0.500000000000006
40
0.500000000000006
40
0.625000000000007
40
0.625000000000007
40
0.687500000000002
40
0.687500000000002
40
0.749999999999997
40
0.749999999999997
40
0.781250000000001
40
0.781250000000001
40
0.812500000000004
40
0.812500000000004
40
0.843750000000008
40
0.843750000000008
40
0.875000000000011
40
0.875000000000011
40
0.937500000000006
40
0.937500000000006
40
1
40
1
40
1
40
1
41
1
10
-0.298765877366122
20
2.7867478832809
30
0
41
1
10
-0.298765877366122
20
2.76837985267309
30
0
41
1
10
-0.298361593348886
20
2.75016173229471
30
0
41
1
10
-0.296801444068024
20
2.72320753550036
30
0
41
1
10
-0.296120398983817
20
2.71428583714407
30
0
41
1
10
-0.294303320916811
20
2.69662518160209
30
0
41
1
10
-0.293173053291184
20
2.68788377070911
30
0
41
1
10
-0.290176611192237
20
2.6707033346853
30
0
41
1
10
-0.288318296953548
20
2.66222516209638
30
0
41
1
10
-0.284517717018389
20
2.65043762248916
30
0
41
1
10
-0.283078796066548
20
2.6466521548428
30
0
41
1
10
-0.279596976371408
20
2.6395892199061
30
0
41
1
10
-0.277564145441488
20
2.63632719569159
30
0
41
1
10
-0.27383353231096
20
2.63251703452607
30
0
41
1
10
-0.272458113266794
20
2.6314238460115
30
0
41
1
10
-0.269498684787209
20
2.62984199346641
30
0
41
1
10
-0.267878665319586
20
2.62934383160217
30
0
41
1
10
-0.264545117371995
20
2.6291021459358
30
0
41
1
10
-0.262786907264626
20
2.6293579787864
30
0
41
1
10
-0.259345937124635
20
2.63052661178068
30
0
41
1
10
-0.257658211945682
20
2.63142200178066
30
0
41
1
10
-0.252670895421488
20
2.63483001890927
30
0
41
1
10
-0.249573839961613
20
2.63796346183278
30
0
41
1
10
-0.243865931844994
20
2.64482269137818
30
0
41
1
10
-0.241250148680479
20
2.64855119847516
30
0
41
1
10
-0.238765877365381
20
2.65244539844667
30
0
0
SPLINE
5
1B2
100
AcDbEntity
8
1
62
256
6
ByLayer
370
13
48
1
60
0
100
AcDbSpline
70
4
71
3
72
10
73
6
40
0
40
0
40
0
40
0
40
0.5
40
0.5
40
1
40
1
40
1
40
1
41
1
10
-0.238765877365381
20
2.65244539844667
30
0
41
1
10
-0.147037362822743
20
2.79623371035507
30
0
41
1
10
-0.0519334435612109
20
2.93685042934607
30
0
41
1
10
0.143506324767145
20
3.21316784898437
30
0
41
1
10
0.24384813143331
20
3.34886295176091
30
0
41
1
10
0.346265877365113
20
3.4826074634762
30
0
0
SPLINE
5
1B3
100
AcDbEntity
8
1
62
256
6
ByLayer
370
13
48
1
60
0
100
AcDbSpline
70
4
71
3
72
40
73
36
40
0
40
0
40
0
40
0
40
0.249999999999997
40
0.249999999999997
40
0.374999999999996
40
0.374999999999996
40
0.499999999999994
40
0.499999999999994
40
0.624999999999993
40
0.624999999999993
40
0.68749999999999
40
0.68749999999999
40
0.749999999999988
40
0.749999999999988
40
0.812499999999985
40
0.812499999999985
40
0.843749999999984
40
0.843749999999984
40
0.874999999999983
40
0.874999999999983
40
0.906249999999982
40
0.906249999999982
40
0.921874999999984
40
0.921874999999984
40
0.937499999999986
40
0.937499999999986
40
0.945312499999989
40
0.945312499999989
40
0.953124999999993
40
0.953124999999993
40
0.968749999999995
40
0.968749999999995
40
0.984374999999998
40
0.984374999999998
40
1
40
1
40
1
40
1
41
1
10
0.346265877365113
20
2.81188209233801
30
0
41
1
10
0.358075755359778
20
2.87644921218811
30
0
41
1
10
0.368780707607357
20
2.94095225680229
30
0
41
1
10
0.382937614675029
20
3.03761056561558
30
0
41
1
10
0.387337134325662
20
3.0698449806149
30
0
41
1
10
0.395314840551691
20
3.13404868838819
30
0
41
1
10
0.398898926201468
20
3.16603326081946
30
0
41
1
10
0.404983078313194
20
3.22971510666798
30
0
41
1
10
0.40749400185166
20
3.26141445702712
30
0
41
1
10
0.410014928944861
20
3.30866502803497
30
0
41
1
10
0.410644977021889
20
3.32436496120601
30
0
41
1
10
0.411328150288796
20
3.35563434858148
30
0
41
1
10
0.411386036595786
20
3.37120471176718
30
0
41
1
10
0.410626873544288
20
3.40215793012896
30
0
41
1
10
0.409820165052338
20
3.41750411661241
30
0
41
1
10
0.407487306462031
20
3.43978885031061
30
0
41
1
10
0.40651975026924
20
3.44710611416991
30
0
41
1
10
0.404011408106726
20
3.46141076137167
30
0
41
1
10
0.402474830500864
20
3.46842477868779
30
0
41
1
10
0.398417958990308
20
3.48179143362302
30
0
41
1
10
0.395966429399209
20
3.48804098418867
30
0
41
1
10
0.390900005055755
20
3.49600644901182
30
0
41
1
10
0.38899269423473
20
3.4983712656944
30
0
41
1
10
0.384614446844239
20
3.50211514802078
30
0
41
1
10
0.382105773422723
20
3.50349093258257
30
0
41
1
10
0.378014523152046
20
3.5043759690962
30
0
41
1
10
0.376570847037783
20
3.50447945629907
30
0
41
1
10
0.373670290313385
20
3.5042837707735
30
0
41
1
10
0.372205108170874
20
3.50399105219691
30
0
41
1
10
0.367768406607183
20
3.5025755907285
30
0
41
1
10
0.364771223197295
20
3.50090164133337
30
0
41
1
10
0.359061807604917
20
3.49669803792
30
0
41
1
10
0.356301307689932
20
3.49414768538378
30
0
41
1
10
0.351112121011056
20
3.48867230946098
30
0
41
1
10
0.348645350095808
20
3.48571475133531
30
0
41
1
10
0.346265877365113
20
3.4826074634762
30
0
0
SPLINE
5
1B4
100
AcDbEntity
8
1
62
256
6
ByLayer
370
13
48
1
60
0
100
AcDbSpline
70
4
71
3
72
17
73
13
40
0
40
0
40
0
40
0
40
0.125
40
0.1875
40
0.1875
40
0.25
40
0.25
40
0.5
40
0.5
40
0.75
40
0.75
40
1
40
1
40
1
40
1
41
1
10
0.346265877365113
20
-2.81188209233824
30
0
41
1
10
0.303675753799894
20
-2.57903281024443
30
0
41
1
10
0.247278020532917
20
-2.2282724933284
30
0
41
1
10
0.202577183722838
20
-1.87519013229172
30
0
41
1
10
0.175425784414074
20
-1.63927598602442
30
0
41
1
10
0.163209281734567
20
-1.52135258351069
30
0
41
1
10
0.108958898239621
20
-0.932123703101013
30
0
41
1
10
0.0874240504483623
20
-0.4617528293345
30
0
41
1
10
0.0878940226507439
20
0.476973310734877
30
0
41
1
10
0.109897258509022
20
0.945328650373199
30
0
41
1
10
0.19651905302419
20
1.88006651343267
30
0
41
1
10
0.261134222741589
20
2.34644919374011
30
0
41
1
10
0.346265877365113
20
2.81188209233801
30
0
0
SPLINE
5
1B5
100
AcDbEntity
8
1
62
256
6
ByLayer
370
13
48
1
60
0
100
AcDbSpline
70
4
71
3
72
38
73
34
40
0
40
0
40
0
40
0
40
0.0156250000000023
40
0.0156250000000023
40
0.0312500000000046
40
0.0312500000000046
40
0.0468750000000069
40
0.0468750000000069
40
0.0625000000000091
40
0.0625000000000091
40
0.0781250000000114
40
0.0781250000000114
40
0.0937500000000137
40
0.0937500000000137
40
0.125000000000014
40
0.125000000000014
40
0.156250000000014
40
0.156250000000014
40
0.187500000000014
40
0.187500000000014
40
0.250000000000011
40
0.250000000000011
40
0.312500000000009
40
0.312500000000009
40
0.375000000000006
40
0.375000000000006
40
0.500000000000004
40
0.500000000000004
40
0.625000000000003
40
0.625000000000003
40
0.750000000000001
40
0.750000000000001
40
1
40
1
40
1
40
1
41
1
10
0.34626587736625
20
-3.48260746351423
30
0
41
1
10
0.348646805885892
20
-3.48571665244839
30
0
41
1
10
0.351114642070797
20
-3.48867523191319
30
0
41
1
10
0.356304433051946
20
-3.49415072057019
30
0
41
1
10
0.359053517155303
20
-3.49668705450642
30
0
41
1
10
0.364698331696104
20
-3.50085278419869
30
0
41
1
10
0.367668716947037
20
-3.50252602935978
30
0
41
1
10
0.373561569503067
20
-3.5044409099408
30
0
41
1
10
0.376527718519014
20
-3.50466816095962
30
0
41
1
10
0.381934803343256
20
-3.50355579751511
30
0
41
1
10
0.384429991760499
20
-3.5022313682548
30
0
41
1
10
0.388823164518612
20
-3.4985545211469
30
0
41
1
10
0.390746644089518
20
-3.4962061840464
30
0
41
1
10
0.395801179560635
20
-3.48837800350503
30
0
41
1
10
0.398254153341782
20
-3.48222152929463
30
0
41
1
10
0.402319108146116
20
-3.46903915100353
30
0
41
1
10
0.403876725583132
20
-3.46205591677409
30
0
41
1
10
0.406413685896041
20
-3.44782270939669
30
0
41
1
10
0.407394979335436
20
-3.44052910747382
30
0
41
1
10
0.409765451607313
20
-3.41828961426899
30
0
41
1
10
0.410587785064763
20
-3.40299498981119
30
0
41
1
10
0.411378524461043
20
-3.37222346951012
30
0
41
1
10
0.411337776521691
20
-3.3566774001718
30
0
41
1
10
0.410679131469806
20
-3.32536377837863
30
0
41
1
10
0.410056385378653
20
-3.30958525948694
30
0
41
1
10
0.407542773035289
20
-3.262053101172
30
0
41
1
10
0.405026771355779
20
-3.23022145859784
30
0
41
1
10
0.398933992981256
20
-3.1663519043376
30
0
41
1
10
0.395345629575559
20
-3.13431249233173
30
0
41
1
10
0.387365980632921
20
-3.07006123451532
30
0
41
1
10
0.38296826401438
20
-3.03782818056072
30
0
41
1
10
0.368799139745875
20
-2.94106147076519
30
0
41
1
10
0.35808474383191
20
-2.87649835408092
30
0
41
1
10
0.346265877365113
20
-2.81188209233824
30
0
0
SPLINE
5
1B6
100
AcDbEntity
8
1
62
256
6
ByLayer
370
13
48
1
60
0
100
AcDbSpline
70
4
71
3
72
10
73
6
40
0
40
0
40
0
40
0
40
0.5
40
0.5
40
1
40
1
40
1
40
1
41
1
10
0.346265877378301
20
-3.48260746349354
30
0
41
1
10
0.243848131443997
20
-3.34886295177563
30
0
41
1
10
0.143506324775672
20
-3.21316784899631
30
0
41
1
10
-0.0519334435571182
20
-2.93685042935243
30
0
41
1
10
-0.147037362820697
20
-2.79623371035842
30
0
41
1
10
-0.238765877365381
20
-2.6524453984469
30
0
0
SPLINE
5
1B7
100
AcDbEntity
8
1
62
256
6
ByLayer
370
13
48
1
60
0
100
AcDbSpline
70
4
71
3
72
30
73
26
40
0
40
0
40
0
40
0
40
0.062500000000007
40
0.062500000000007
40
0.125000000000014
40
0.125000000000014
40
0.156250000000016
40
0.156250000000016
40
0.187500000000019
40
0.187500000000019
40
0.218750000000021
40
0.218750000000021
40
0.250000000000023
40
0.250000000000023
40
0.312500000000016
40
0.312500000000016
40
0.375000000000009
40
0.375000000000009
40
0.500000000000005
40
0.500000000000005
40
0.625000000000002
40
0.625000000000002
40
0.749999999999999
40
0.749999999999999
40
1
40
1
40
1
40
1
41
1
10
-0.238765877365381
20
-2.6524453984469
30
0
41
1
10
-0.24123880320883
20
-2.64856898298024
30
0
41
1
10
-0.243843543637809
20
-2.64485419171729
30
0
41
1
10
-0.249531814919237
20
-2.63800941914212
30
0
41
1
10
-0.25255580409771
20
-2.63493729225451
30
0
41
1
10
-0.257512804471617
20
-2.6315079124177
30
0
41
1
10
-0.259211065400791
20
-2.63059011480152
30
0
41
1
10
-0.262650813113737
20
-2.62938784427064
30
0
41
1
10
-0.26438334454815
20
-2.62911731602873
30
0
41
1
10
-0.267687210611143
20
-2.62930578498009
30
0
41
1
10
-0.269305394022581
20
-2.62977174665804
30
0
41
1
10
-0.272258164465597
20
-2.63128803617332
30
0
41
1
10
-0.273623108922948
20
-2.63233768884402
30
0
41
1
10
-0.277384011216895
20
-2.63607999865423
30
0
41
1
10
-0.27941698779739
20
-2.63928438529803
30
0
41
1
10
-0.282925555895986
20
-2.6462865053478
30
0
41
1
10
-0.284382362984275
20
-2.65006455067419
30
0
41
1
10
-0.288234490337913
20
-2.66187795403772
30
0
41
1
10
-0.290095059020928
20
-2.67030800700144
30
0
41
1
10
-0.293119139686041
20
-2.6875055630087
30
0
41
1
10
-0.294269392204001
20
-2.6963378151043
30
0
41
1
10
-0.296105947853221
20
-2.7141040914259
30
0
41
1
10
-0.296791965990337
20
-2.72306718945168
30
0
41
1
10
-0.298361862075467
20
-2.75011998355359
30
0
41
1
10
-0.298765877365327
20
-2.76837014177971
30
0
41
1
10
-0.298765877365327
20
-2.78674788328141
30
0
0
SPLINE
5
1B8
100
AcDbEntity
8
1
62
256
6
ByLayer
370
13
48
1
60
0
100
AcDbSpline
70
4
71
3
72
16
73
12
40
0
40
0
40
0
40
0
40
0.125
40
0.125
40
0.25
40
0.25
40
0.5
40
0.5
40
0.75
40
0.75
40
1
40
1
40
1
40
1
41
1
10
-0.29876587736544
20
-3.20021140615773
30
0
41
1
10
-0.29876587736544
20
-3.21760853442589
30
0
41
1
10
-0.298262544833392
20
-3.23510274916913
30
0
41
1
10
-0.296535619784208
20
-3.27022143836609
30
0
41
1
10
-0.295307350255143
20
-3.287846961203
30
0
41
1
10
-0.290731613213211
20
-3.34087690804841
30
0
41
1
10
-0.286505783449797
20
-3.37643187576879
30
0
41
1
10
-0.276110265635225
20
-3.44785672512444
30
0
41
1
10
-0.269954668271225
20
-3.48356755562179
30
0
41
1
10
-0.255804707422499
20
-3.55486496976039
30
0
41
1
10
-0.247809095447792
20
-3.5904719494684
30
0
41
1
10
-0.238765877365609
20
-3.6260395153372
30
0
0
SPLINE
5
1B9
100
AcDbEntity
8
1
62
256
6
ByLayer
370
13
48
1
60
0
100
AcDbSpline
70
4
71
3
72
9
73
5
40
0
40
0
40
0
40
0
40
0.5
40
1
40
1
40
1
40
1
41
1
10
-0.238765877365722
20
-3.62603951533743
30
0
41
1
10
-0.158260695107288
20
-3.94267164194821
30
0
41
1
10
0.0209678329800909
20
-4.56828325525993
30
0
41
1
10
0.232933655255465
20
-5.18014338790903
30
0
41
1
10
0.346265877365113
20
-5.48298633569732
30
0
0
SPLINE
5
1BA
100
AcDbEntity
8
1
62
256
6
ByLayer
370
13
48
1
60
0
100
AcDbSpline
70
4
71
3
72
32
73
28
40
0
40
0
40
0
40
0
40
0.125000000000004
40
0.125000000000004
40
0.250000000000009
40
0.250000000000009
40
0.375000000000013
40
0.375000000000013
40
0.500000000000018
40
0.500000000000018
40
0.625000000000022
40
0.625000000000022
40
0.687500000000025
40
0.687500000000025
40
0.750000000000027
40
0.750000000000027
40
0.781250000000026
40
0.781250000000026
40
0.812500000000025
40
0.812500000000025
40
0.875000000000024
40
0.875000000000024
40
0.906250000000018
40
0.906250000000018
40
0.937500000000013
40
0.937500000000013
40
1
40
1
40
1
40
1
41
1
10
0.346265877365113
20
-5.48298633569721
30
0
41
1
10
0.353086262490592
20
-5.50121156324513
30
0
41
1
10
0.359480473468807
20
-5.5194514898933
30
0
41
1
10
0.371365219637482
20
-5.55572175678049
30
0
41
1
10
0.376868607980555
20
-5.57378550649639
30
0
41
1
10
0.386942698266125
20
-5.60976071461801
30
0
41
1
10
0.391515405513701
20
-5.6276724480241
30
0
41
1
10
0.399553320380505
20
-5.66331842546191
30
0
41
1
10
0.403032257246309
20
-5.68109519063273
30
0
41
1
10
0.408439125629229
20
-5.71623683607163
30
0
41
1
10
0.41035593160268
20
-5.73340193841642
30
0
41
1
10
0.411355673651883
20
-5.75820721141559
30
0
41
1
10
0.411372421595047
20
-5.76631669214783
30
0
41
1
10
0.410483208863866
20
-5.78207887946058
30
0
41
1
10
0.409585855631121
20
-5.78962296964789
30
0
41
1
10
0.407214774664794
20
-5.80005623842771
30
0
41
1
10
0.406251231346687
20
-5.803390092271
30
0
41
1
10
0.403859618964702
20
-5.80967387086929
30
0
41
1
10
0.402438609713727
20
-5.81259386361529
30
0
41
1
10
0.397392686885837
20
-5.82030856873894
30
0
41
1
10
0.392847041006235
20
-5.82416349218283
30
0
41
1
10
0.384139388473045
20
-5.82615149859191
30
0
41
1
10
0.380962844928945
20
-5.82617676493351
30
0
41
1
10
0.374294067272558
20
-5.82497406646974
30
0
41
1
10
0.370753736967003
20
-5.82372942213271
30
0
41
1
10
0.360239967511916
20
-5.81860541342382
30
0
41
1
10
0.353082010717685
20
-5.81325815432842
30
0
41
1
10
0.346265877364886
20
-5.80707297082142
30
0
0
SPLINE
5
1BB
100
AcDbEntity
8
1
62
256
6
ByLayer
370
13
48
1
60
0
100
AcDbSpline
70
4
71
3
72
8
73
4
40
0
40
0
40
0
40
0
40
1
40
1
40
1
40
1
41
1
10
-0.238765877359811
20
-5.2711087764219
30
0
41
1
10
-0.0445398578740424
20
-5.45090536410203
30
0
41
1
10
0.150537630449207
20
-5.6294627243638
30
0
41
1
10
0.346265877365113
20
-5.80707297082029
30
0
0
SPLINE
5
1BC
100
AcDbEntity
8
1
62
256
6
ByLayer
370
13
48
1
60
0
100
AcDbSpline
70
4
71
3
72
24
73
20
40
0
40
0
40
0
40
0
40
0.250000000000002
40
0.250000000000002
40
0.375000000000003
40
0.375000000000003
40
0.500000000000004
40
0.500000000000004
40
0.625000000000005
40
0.625000000000005
40
0.687500000000005
40
0.687500000000005
40
0.750000000000006
40
0.750000000000006
40
0.812500000000006
40
0.812500000000006
40
0.875000000000007
40
0.875000000000007
40
1
40
1
40
1
40
1
41
1
10
-0.298765877367373
20
-5.31556932838822
30
0
41
1
10
-0.298765877367487
20
-5.30506027572409
30
0
41
1
10
-0.298106333802821
20
-5.29483924206323
30
0
41
1
10
-0.295480205618219
20
-5.28089462389352
30
0
41
1
10
-0.294330740934583
20
-5.2764722993831
30
0
41
1
10
-0.291232945686488
20
-5.26829114346174
30
0
41
1
10
-0.289282440491434
20
-5.2645553484798
30
0
41
1
10
-0.284374075059986
20
-5.25846835060412
30
0
41
1
10
-0.281341042098006
20
-5.25607069221434
30
0
41
1
10
-0.275996687098313
20
-5.25415473754339
30
0
41
1
10
-0.274052636222109
20
-5.25378526163303
30
0
41
1
10
-0.269990084573351
20
-5.25365798451423
30
0
41
1
10
-0.267875358426863
20
-5.2538917302731
30
0
41
1
10
-0.263485873079958
20
-5.25493085399432
30
0
41
1
10
-0.261204534827584
20
-5.25574529658473
30
0
41
1
10
-0.256688041707889
20
-5.25781683797163
30
0
41
1
10
-0.254427651384731
20
-5.25907786899774
30
0
41
1
10
-0.247641117135913
20
-5.26342580102551
30
0
41
1
10
-0.243115287044361
20
-5.26708249290914
30
0
41
1
10
-0.238765877359583
20
-5.27110877642099
30
0
0
SPLINE
5
1BD
100
AcDbEntity
8
1
62
256
6
ByLayer
370
13
48
1
60
0
100
AcDbSpline
70
4
71
3
72
18
73
14
40
0
40
0
40
0
40
0
40
0.250000000000002
40
0.250000000000002
40
0.500000000000004
40
0.500000000000004
40
0.625000000000003
40
0.625000000000003
40
0.750000000000002
40
0.750000000000002
40
0.875000000000001
40
0.875000000000001
40
1
40
1
40
1
40
1
41
1
10
-0.238765877365381
20
-5.74665480307573
30
0
41
1
10
-0.247292246339612
20
-5.72656572361024
30
0
41
1
10
-0.255027439839523
20
-5.70648305949851
30
0
41
1
10
-0.268909398776259
20
-5.66656334616482
30
0
41
1
10
-0.275074170076209
20
-5.64668700660962
30
0
41
1
10
-0.283028815980742
20
-5.61701000390514
30
0
41
1
10
-0.285462905006398
20
-5.60714086234503
30
0
41
1
10
-0.289836953969825
20
-5.5874560021075
30
0
41
1
10
-0.291783133175386
20
-5.57760711996309
30
0
41
1
10
-0.295049475768337
20
-5.55814112581839
30
0
41
1
10
-0.296367907589797
20
-5.54855247438889
30
0
41
1
10
-0.298223661417637
20
-5.5297379229753
30
0
41
1
10
-0.298765877364986
20
-5.52050962164049
30
0
41
1
10
-0.298765877365327
20
-5.51153694755743
30
0
0
SPLINE
5
1BE
100
AcDbEntity
8
1
62
256
6
ByLayer
370
13
48
1
60
0
100
AcDbSpline
70
4
71
3
72
8
73
4
40
0
40
0
40
0
40
0
40
1
40
1
40
1
40
1
41
1
10
0.346265877365113
20
-7.00675370008634
30
0
41
1
10
0.138849843461003
20
-6.5944000678449
30
0
41
1
10
-0.057009721709619
20
-6.17489264562732
30
0
41
1
10
-0.238765877365381
20
-5.74665480307573
30
0
0
SPLINE
5
1BF
100
AcDbEntity
8
1
62
256
6
ByLayer
370
13
48
1
60
0
100
AcDbSpline
70
4
71
3
72
36
73
32
40
0
40
0
40
0
40
0
40
0.0312500000000034
40
0.0312500000000034
40
0.0625000000000069
40
0.0625000000000069
40
0.0937500000000102
40
0.0937500000000102
40
0.125000000000014
40
0.125000000000014
40
0.156250000000017
40
0.156250000000017
40
0.187500000000021
40
0.187500000000021
40
0.218750000000024
40
0.218750000000024
40
0.250000000000027
40
0.250000000000027
40
0.312500000000028
40
0.312500000000028
40
0.37500000000003
40
0.37500000000003
40
0.437500000000031
40
0.437500000000031
40
0.500000000000032
40
0.500000000000032
40
0.625000000000026
40
0.625000000000026
40
0.750000000000019
40
0.750000000000019
40
1
40
1
40
1
40
1
41
1
10
0.346265877365113
20
-7.22430884114243
30
0
41
1
10
0.349186412590029
20
-7.22673088040199
30
0
41
1
10
0.352114397197283
20
-7.22901804165923
30
0
41
1
10
0.357987953033558
20
-7.23327312459082
30
0
41
1
10
0.360952043608108
20
-7.23525184827054
30
0
41
1
10
0.366792139579388
20
-7.23875255875004
30
0
41
1
10
0.369666845911979
20
-7.24027660647948
30
0
41
1
10
0.375312122641731
20
-7.2428035898385
30
0
41
1
10
0.378101975107029
20
-7.243808028822
30
0
41
1
10
0.383368628395033
20
-7.24515967714854
30
0
41
1
10
0.38586554705978
20
-7.24551950282483
30
0
41
1
10
0.390575849541051
20
-7.24558047340014
30
0
41
1
10
0.392805709293612
20
-7.24527009967181
30
0
41
1
10
0.396794131003958
20
-7.24402119960644
30
0
41
1
10
0.398576859322816
20
-7.24308921012454
30
0
41
1
10
0.401764372529669
20
-7.24067398390099
30
0
41
1
10
0.403176950968486
20
-7.23917817864424
30
0
41
1
10
0.406832733569559
20
-7.23401471394152
30
0
41
1
10
0.408484496866663
20
-7.2297501456008
30
0
41
1
10
0.410667610282189
20
-7.22003999249154
30
0
41
1
10
0.41116333172431
20
-7.2147442426301
30
0
41
1
10
0.411340051283901
20
-7.20358474378253
30
0
41
1
10
0.41101645084234
20
-7.19770962825959
30
0
41
1
10
0.409735668067242
20
-7.1855019453854
30
0
41
1
10
0.408771333494656
20
-7.17914288353711
30
0
41
1
10
0.405122749315638
20
-7.1596923489991
30
0
41
1
10
0.401702571168244
20
-7.1462293481967
30
0
41
1
10
0.393495791241662
20
-7.11879011835282
30
0
41
1
10
0.388752930100964
20
-7.10496938974541
30
0
41
1
10
0.373014401593423
20
-7.06326667613342
30
0
41
1
10
0.360549118554218
20
-7.03514951054342
30
0
41
1
10
0.346265877365113
20
-7.00675370008634
30
0
0
SPLINE
5
1C0
100
AcDbEntity
8
1
62
256
6
ByLayer
370
13
48
1
60
0
100
AcDbSpline
70
4
71
3
72
8
73
4
40
0
40
0
40
0
40
0
40
1
40
1
40
1
40
1
41
1
10
0.346265877365113
20
-7.22430884114203
30
0
41
1
10
0.151181970829953
20
-7.06252312580278
30
0
41
1
10
-0.0438338378252183
20
-6.90062804647289
30
0
41
1
10
-0.238765877364244
20
-6.73859843542454
30
0
0
SPLINE
5
1C1
100
AcDbEntity
8
1
62
256
6
ByLayer
370
13
48
1
60
0
100
AcDbSpline
70
4
71
3
72
22
73
18
40
0
40
0
40
0
40
0
40
0.125
40
0.125
40
0.25
40
0.25
40
0.375
40
0.375
40
0.5
40
0.5
40
0.625
40
0.625
40
0.75
40
0.75
40
0.875
40
0.875
40
1
40
1
40
1
40
1
41
1
10
-0.238765877364131
20
-6.73859843542419
30
0
41
1
10
-0.242866483248576
20
-6.73518996764193
30
0
41
1
10
-0.246984603827855
20
-6.7320707494373
30
0
41
1
10
-0.255267176956067
20
-6.7265960663716
30
0
41
1
10
-0.259366193719757
20
-6.7242898393435
30
0
41
1
10
-0.267292945846066
20
-6.7208426998194
30
0
41
1
10
-0.271134333324881
20
-6.71971204676692
30
0
41
1
10
-0.278104030298437
20
-6.71889597349769
30
0
41
1
10
-0.281328907454394
20
-6.71920737724429
30
0
41
1
10
-0.286832875326922
20
-6.72118335374921
30
0
41
1
10
-0.289164553189835
20
-6.72283892603843
30
0
41
1
10
-0.292998044087881
20
-6.72720311740073
30
0
41
1
10
-0.294473193325871
20
-6.72985862414629
30
0
41
1
10
-0.29674590790944
20
-6.735892354371
30
0
41
1
10
-0.297538664994704
20
-6.73928862150859
30
0
41
1
10
-0.298543679887757
20
-6.7464607897092
30
0
41
1
10
-0.298765877369306
20
-6.75026013767899
30
0
41
1
10
-0.298765877369306
20
-6.75422762459283
30
0
0
SPLINE
5
1C2
100
AcDbEntity
8
1
62
256
6
ByLayer
370
13
48
1
60
0
100
AcDbSpline
70
4
71
3
72
14
73
10
40
0
40
0
40
0
40
0
40
0.25
40
0.25
40
0.5
40
0.5
40
0.75
40
0.75
40
1
40
1
40
1
40
1
41
1
10
-0.298765877370215
20
-6.8838743454782
30
0
41
1
10
-0.298765877368623
20
-6.89577639281572
30
0
41
1
10
-0.296628472901602
20
-6.90923934164442
30
0
41
1
10
-0.290009801771134
20
-6.93691211787302
30
0
41
1
10
-0.285482580645862
20
-6.95128970257269
30
0
41
1
10
-0.274638431513267
20
-6.9807065121862
30
0
41
1
10
-0.268409183914287
20
-6.9954952140734
30
0
41
1
10
-0.254602441960856
20
-7.02520968629989
30
0
41
1
10
-0.247021118650991
20
-7.04013584046123
30
0
41
1
10
-0.238765877365381
20
-7.05513432080772
30
0
0
SPLINE
5
1C3
100
AcDbEntity
8
1
62
256
6
ByLayer
370
13
48
1
60
0
100
AcDbSpline
70
4
71
3
72
8
73
4
40
0
40
0
40
0
40
0
40
1
40
1
40
1
40
1
41
1
10
-0.238765877365381
20
-7.05513432080772
30
0
41
1
10
-0.0509230994258587
20
-7.3964152253518
30
0
41
1
10
0.144518634633869
20
-7.73181094438843
30
0
41
1
10
0.346265877365113
20
-8.06232321790083
30
0
0
SPLINE
5
1C4
100
AcDbEntity
8
1
62
256
6
ByLayer
370
13
48
1
60
0
100
AcDbSpline
70
4
71
3
72
32
73
28
40
0
40
0
40
0
40
0
40
0.124999999999997
40
0.124999999999997
40
0.249999999999993
40
0.249999999999993
40
0.37499999999999
40
0.37499999999999
40
0.499999999999987
40
0.499999999999987
40
0.562499999999993
40
0.562499999999993
40
0.624999999999999
40
0.624999999999999
40
0.687500000000004
40
0.687500000000004
40
0.75000000000001
40
0.75000000000001
40
0.781250000000009
40
0.781250000000009
40
0.812500000000008
40
0.812500000000008
40
0.875000000000005
40
0.875000000000005
40
0.937500000000003
40
0.937500000000003
40
1
40
1
40
1
40
1
41
1
10
0.346265877365113
20
-8.06232321790083
30
0
41
1
10
0.353665628563363
20
-8.07444585491362
30
0
41
1
10
0.360630446420032
20
-8.08652064146179
30
0
41
1
10
0.373654568971347
20
-8.1105661165472
30
0
41
1
10
0.379714705637866
20
-8.12254789335969
30
0
41
1
10
0.39055700206734
20
-8.14589043262464
30
0
41
1
10
0.395378047172585
20
-8.15731275461559
30
0
41
1
10
0.403501802705591
20
-8.17952757309064
30
0
41
1
10
0.406817495254245
20
-8.19038965606234
30
0
41
1
10
0.409937917511456
20
-8.20528776958793
30
0
41
1
10
0.410676770514328
20
-8.21004376811129
30
0
41
1
10
0.411387584937074
20
-8.21902344574943
30
0
41
1
10
0.411350725626107
20
-8.22324851475332
30
0
41
1
10
0.410288365632823
20
-8.23068865300701
30
0
41
1
10
0.40926807982089
20
-8.23395478955189
30
0
41
1
10
0.405956632117864
20
-8.23923748173462
30
0
41
1
10
0.403721520091835
20
-8.24116411169422
30
0
41
1
10
0.399350696396823
20
-8.2428043145099
30
0
41
1
10
0.39772701225661
20
-8.24313405318742
30
0
41
1
10
0.394239792809458
20
-8.24334209442139
30
0
41
1
10
0.392364747680404
20
-8.24322555258243
30
0
41
1
10
0.386351969969041
20
-8.2422270469217
30
0
41
1
10
0.381765020655848
20
-8.24065358570903
30
0
41
1
10
0.372198645702383
20
-8.2361231451921
30
0
41
1
10
0.367119984574515
20
-8.233139453413
30
0
41
1
10
0.356755724805907
20
-8.22616190664843
30
0
41
1
10
0.351528427799053
20
-8.22221700355993
30
0
41
1
10
0.346265877365113
20
-8.2179182264108
30
0
0
SPLINE
5
1C5
100
AcDbEntity
8
1
62
256
6
ByLayer
370
13
48
1
60
0
100
AcDbSpline
70
4
71
3
72
8
73
4
40
0
40
0
40
0
40
0
40
1
40
1
40
1
40
1
41
1
10
-0.23876587736504
20
-7.740014858834
30
0
41
1
10
-0.0437571991368486
20
-7.89931909343403
30
0
41
1
10
0.151253496654021
20
-8.058620035064
30
0
41
1
10
0.346265877365113
20
-8.21791822641069
30
0
0
SPLINE
5
1C6
100
AcDbEntity
8
1
62
256
6
ByLayer
370
13
48
1
60
0
100
AcDbSpline
70
4
71
3
72
22
73
18
40
0
40
0
40
0
40
0
40
0.125
40
0.125
40
0.25
40
0.25
40
0.375
40
0.375
40
0.5
40
0.5
40
0.625
40
0.625
40
0.75
40
0.75
40
0.875
40
0.875
40
1
40
1
40
1
40
1
41
1
10
-0.29876587736544
20
-7.73685364504149
30
0
41
1
10
-0.29876587736544
20
-7.73375639525733
30
0
41
1
10
-0.298488905991121
20
-7.73091362347714
30
0
41
1
10
-0.297279403915582
20
-7.72583262587563
30
0
41
1
10
-0.296336156056896
20
-7.72357747536012
30
0
41
1
10
-0.293675588115661
20
-7.7199118366749
30
0
41
1
10
-0.29198000497604
20
-7.71851730263649
30
0
41
1
10
-0.287760859786431
20
-7.71672566843853
30
0
41
1
10
-0.285242130047095
20
-7.71635297700362
30
0
41
1
10
-0.279613297470405
20
-7.71669414686249
30
0
41
1
10
-0.276453177985786
20
-7.71740268056578
30
0
41
1
10
-0.269593777746309
20
-7.71984325140602
30
0
41
1
10
-0.265989568895975
20
-7.72153389228873
30
0
41
1
10
-0.25849019033717
20
-7.72570293063023
30
0
41
1
10
-0.254564611095589
20
-7.72820647896742
30
0
41
1
10
-0.246703641686508
20
-7.73373240784599
30
0
41
1
10
-0.242745902689762
20
-7.73676354256531
30
0
41
1
10
-0.23876587736504
20
-7.740014858834
30
0
0
SPLINE
5
1C7
100
AcDbEntity
8
1
62
256
6
ByLayer
370
13
48
1
60
0
100
AcDbSpline
70
4
71
3
72
18
73
14
40
0
40
0
40
0
40
0
40
0.249999999999991
40
0.249999999999991
40
0.37499999999999
40
0.37499999999999
40
0.499999999999989
40
0.499999999999989
40
0.749999999999994
40
0.749999999999994
40
0.874999999999997
40
0.874999999999997
40
1
40
1
40
1
40
1
41
1
10
-0.238765877365381
20
-7.9624618770556
30
0
41
1
10
-0.246864012429455
20
-7.95015937938314
30
0
41
1
10
-0.254381084772717
20
-7.93796518614369
30
0
41
1
10
-0.264735571294295
20
-7.919839896528
30
0
41
1
10
-0.268032157229186
20
-7.91382606915329
30
0
41
1
10
-0.27428551395235
20
-7.9018589841283
30
0
41
1
10
-0.277247212406223
20
-7.89589269020109
30
0
41
1
10
-0.285412690826775
20
-7.87839814489752
30
0
41
1
10
-0.289972521197797
20
-7.8671701409433
30
0
41
1
10
-0.294995517991083
20
-7.85122340122564
30
0
41
1
10
-0.296362296189159
20
-7.84603730650053
30
0
41
1
10
-0.298239337565405
20
-7.8363689534379
30
0
41
1
10
-0.298765877374422
20
-7.83184934782508
30
0
41
1
10
-0.298765877375217
20
-7.8277335470911
30
0
0
SPLINE
5
1C8
100
AcDbEntity
8
1
62
256
6
ByLayer
370
13
48
1
60
0
100
AcDbSpline
70
4
71
3
72
8
73
4
40
0
40
0
40
0
40
0
40
1
40
1
40
1
40
1
41
1
10
0.346265877365113
20
-8.81943954716701
30
0
41
1
10
0.147142375851445
20
-8.53752399792893
30
0
41
1
10
-0.0481169873773979
20
-8.25209121847791
30
0
41
1
10
-0.238765877365381
20
-7.9624618770556
30
0
0
SPLINE
5
1C9
100
AcDbEntity
8
1
62
256
6
ByLayer
370
13
48
1
60
0
100
AcDbSpline
70
4
71
3
72
37
73
33
40
0
40
0
40
0
40
0
40
0.0625000000000011
40
0.0625000000000011
40
0.125000000000002
40
0.125000000000002
40
0.187500000000003
40
0.187500000000003
40
0.218750000000006
40
0.218750000000006
40
0.250000000000008
40
0.250000000000008
40
0.312500000000007
40
0.312500000000007
40
0.343750000000008
40
0.343750000000008
40
0.375000000000008
40
0.375000000000008
40
0.437500000000004
40
0.437500000000004
40
0.5
40
0.5
40
0.562499999999996
40
0.562499999999996
40
0.624999999999992
40
0.687499999999988
40
0.687499999999988
40
0.749999999999984
40
0.749999999999984
40
0.874999999999992
40
0.874999999999992
40
1
40
1
40
1
40
1
41
1
10
0.346265877365113
20
-8.93043793549583
30
0
41
1
10
0.351189675726573
20
-8.93453699921309
30
0
41
1
10
0.356099778067687
20
-8.93841763111419
30
0
41
1
10
0.365640962272778
20
-8.9454611211217
30
0
41
1
10
0.370267752069708
20
-8.94862485415553
30
0
41
1
10
0.379177406726399
20
-8.95409199637101
30
0
41
1
10
0.38349150689271
20
-8.95640269075324
30
0
41
1
10
0.389354151481143
20
-8.95892718929969
30
0
41
1
10
0.391217761340386
20
-8.9596193160761
30
0
41
1
10
0.394752064276645
20
-8.96068478786651
30
0
41
1
10
0.396433827068563
20
-8.96105869080662
30
0
41
1
10
0.401056308809075
20
-8.96165043157004
30
0
41
1
10
0.403594098212011
20
-8.96135660971208
30
0
41
1
10
0.406616292531339
20
-8.95991897330703
30
0
41
1
10
0.407497004554443
20
-8.95926624917558
30
0
41
1
10
0.408964584473551
20
-8.95765985959542
30
0
41
1
10
0.409553820039719
20
-8.9567097509389
30
0
41
1
10
0.410928196148689
20
-8.95345893819604
30
0
41
1
10
0.411321519027069
20
-8.95073728156632
30
0
41
1
10
0.411197534577354
20
-8.94446445536363
30
0
41
1
10
0.410689637653945
20
-8.94096393357211
30
0
41
1
10
0.408962274852001
20
-8.93338020484913
30
0
41
1
10
0.407735453715986
20
-8.9292801367618
30
0
41
1
10
0.404689377194586
20
-8.92064193519673
30
0
41
1
10
0.401088325035175
20
-8.91166120074661
30
0
41
1
10
0.396569227857526
20
-8.90211328042699
30
0
41
1
10
0.391645253221554
20
-8.89231531701563
30
0
41
1
10
0.388970525705304
20
-8.8872742008366
30
0
41
1
10
0.38053700602461
20
-8.87206714607913
30
0
41
1
10
0.374342164106793
20
-8.86174757713962
30
0
41
1
10
0.361006633126408
20
-8.84081226862622
30
0
41
1
10
0.353863148964479
20
-8.83019563059929
30
0
41
1
10
0.346265877365113
20
-8.81943954716701
30
0
0
SPLINE
5
1CA
100
AcDbEntity
8
1
62
256
6
ByLayer
370
13
48
1
60
0
100
AcDbSpline
70
4
71
3
72
8
73
4
40
0
40
0
40
0
40
0
40
1
40
1
40
1
40
1
41
1
10
13.9957387102421
20
6.09132599279178
30
0
41
1
10
13.9956719446187
20
6.08485062133019
30
0
41
1
10
13.9956051046462
20
6.07837765190487
30
0
41
1
10
13.9955381949977
20
6.07190694202967
30
0
0
SPLINE
5
1CB
100
AcDbEntity
8
1
62
256
6
ByLayer
370
13
48
1
60
0
100
AcDbSpline
70
4
71
3
72
28
73
24
40
0
40
0
40
0
40
0
40
0.0624999999999999
40
0.0624999999999999
40
0.125
40
0.125
40
0.1875
40
0.1875
40
0.249999999999999
40
0.249999999999999
40
0.312499999999999
40
0.312499999999999
40
0.374999999999999
40
0.374999999999999
40
0.437499999999999
40
0.437499999999999
40
0.499999999999999
40
0.499999999999999
40
0.624999999999999
40
0.624999999999999
40
0.749999999999999
40
0.749999999999999
40
1
40
1
40
1
40
1
41
1
10
13.9955381949977
20
6.07190694202967
30
0
41
1
10
13.9928106331114
20
6.06673786569979
30
0
41
1
10
13.9908128035846
20
6.06136036441001
30
0
41
1
10
13.9884389949841
20
6.05014262327171
30
0
41
1
10
13.9880882075413
20
6.04421792619758
30
0
41
1
10
13.9891756044509
20
6.03255644782871
30
0
41
1
10
13.9905889583567
20
6.02673461265766
30
0
41
1
10
13.9950029071569
20
6.01528595285231
30
0
41
1
10
13.9979309889297
20
6.00981611034808
30
0
41
1
10
14.0049575273282
20
5.99930146168981
30
0
41
1
10
14.0090458109607
20
5.99429150790138
30
0
41
1
10
14.0178950861917
20
5.9849367941332
30
0
41
1
10
14.0226892369958
20
5.9805447472425
30
0
41
1
10
14.0328730666748
20
5.9722292554182
30
0
41
1
10
14.0382812166434
20
5.96829763428286
30
0
41
1
10
14.0494293149643
20
5.96095185143747
30
0
41
1
10
14.0551873262957
20
5.95752142835511
30
0
41
1
10
14.0729243173117
20
5.9478488888081
30
0
41
1
10
14.0853102686771
20
5.94225034528847
30
0
41
1
10
14.1107141235294
20
5.93247536658708
30
0
41
1
10
14.1237238252002
20
5.92830430176798
30
0
41
1
10
14.1633639192932
20
5.91766019490399
30
0
41
1
10
14.1905048031985
20
5.9130496209437
30
0
41
1
10
14.2178705121026
20
5.91069695916917
30
0
0
SPLINE
5
1CC
100
AcDbEntity
8
1
62
256
6
ByLayer
370
13
48
1
60
0
100
AcDbSpline
70
4
71
3
72
34
73
30
40
0
40
0
40
0
40
0
40
0.0625
40
0.0625
40
0.125
40
0.125
40
0.250000000000001
40
0.250000000000001
40
0.312500000000001
40
0.312500000000001
40
0.375
40
0.375
40
0.5
40
0.5
40
0.5625
40
0.5625
40
0.625
40
0.625
40
0.6875
40
0.6875
40
0.75
40
0.75
40
0.875
40
0.875
40
0.9375
40
0.9375
40
0.96875
40
0.96875
40
1
40
1
40
1
40
1
41
1
10
14.4715751363844
20
6.05041778264467
30
0
41
1
10
14.4733353673015
20
6.05957894611271
30
0
41
1
10
14.4764919492719
20
6.0684202720845
30
0
41
1
10
14.4847319557518
20
6.08569090842786
30
0
41
1
10
14.4898600447644
20
6.0941398395093
30
0
41
1
10
14.5071753865741
20
6.11843359292908
30
0
41
1
10
14.5213978136222
20
6.13348905743277
30
0
41
1
10
14.544876223603
20
6.15428361199997
30
0
41
1
10
14.5530620264168
20
6.16091015900338
30
0
41
1
10
14.5700823008232
20
6.17363185299877
30
0
41
1
10
14.5789190643059
20
6.17972462163891
30
0
41
1
10
14.6060973608336
20
6.19709788784968
30
0
41
1
10
14.6251846303931
20
6.20754025118151
30
0
41
1
10
14.6547621551648
20
6.22135365693907
30
0
41
1
10
14.6647359253847
20
6.22562796039159
30
0
41
1
10
14.6849147086136
20
6.23351184375787
30
0
41
1
10
14.6951455431638
20
6.2371290847563
30
0
41
1
10
14.715693726541
20
6.2436071916261
30
0
41
1
10
14.7260133292955
20
6.2464717460042
30
0
41
1
10
14.7467590848495
20
6.2513900037643
30
0
41
1
10
14.7571793381212
20
6.25343994861828
30
0
41
1
10
14.7882771606173
20
6.25814713868516
30
0
41
1
10
14.8089805799359
20
6.25944420985041
30
0
41
1
10
14.8390021557885
20
6.25720679540677
30
0
41
1
10
14.8486993513322
20
6.25576699798211
30
0
41
1
10
14.862677352578
20
6.2522604185844
30
0
41
1
10
14.8672412080159
20
6.25086501968201
30
0
41
1
10
14.8761425662424
20
6.24752516924588
30
0
41
1
10
14.8804788984075
20
6.24557756119168
30
0
41
1
10
14.8845956656634
20
6.243330328757
30
0
0
SPLINE
5
1CD
100
AcDbEntity
8
1
62
256
6
ByLayer
370
13
48
1
60
0
100
AcDbSpline
70
4
71
3
72
8
73
4
40
0
40
0
40
0
40
0
40
1
40
1
40
1
40
1
41
1
10
14.4679008802127
20
6.03129737342431
30
0
41
1
10
14.469125341924
20
6.03766856720426
30
0
41
1
10
14.4703500881442
20
6.04404199008479
30
0
41
1
10
14.4715751363844
20
6.05041778264467
30
0
0
SPLINE
5
1CE
100
AcDbEntity
8
1
62
256
6
ByLayer
370
13
48
1
60
0
100
AcDbSpline
70
4
71
3
72
26
73
22
40
0
40
0
40
0
40
0
40
0.25
40
0.25
40
0.375
40
0.375
40
0.5
40
0.5
40
0.625000000000001
40
0.625000000000001
40
0.687500000000001
40
0.687500000000001
40
0.75
40
0.75
40
0.8125
40
0.8125
40
0.875
40
0.875
40
0.9375
40
0.9375
40
1
40
1
40
1
40
1
41
1
10
14.2178705121026
20
5.91069695916917
30
0
41
1
10
14.2452325116202
20
5.9083446162951
30
0
41
1
10
14.2728093091696
20
5.90825275743981
30
0
41
1
10
14.3137872170115
20
5.91196011958141
30
0
41
1
10
14.3273849278581
20
5.91384591977607
30
0
41
1
10
14.3542072438869
20
5.9191239960968
30
0
41
1
10
14.3674616122032
20
5.9225195280527
30
0
41
1
10
14.3931803500233
20
5.93116883109127
30
0
41
1
10
14.40568245119
20
5.93642750473651
30
0
41
1
10
14.4231986458666
20
5.94614292410677
30
0
41
1
10
14.42880970059
20
5.94967865849821
30
0
41
1
10
14.4393851034739
20
5.95743217772906
30
0
41
1
10
14.4443437838852
20
5.96165409204826
30
0
41
1
10
14.4531848536394
20
5.97068853009949
30
0
41
1
10
14.4571058768098
20
5.97552410878717
30
0
41
1
10
14.4636843942252
20
5.9859854430627
30
0
41
1
10
14.4662396493375
20
5.99147901482957
30
0
41
1
10
14.4696387564742
20
6.0027555849623
30
0
41
1
10
14.4704830542951
20
6.00862146485809
30
0
41
1
10
14.4704167430193
20
6.02006556743606
30
0
41
1
10
14.469530693245
20
6.02575762995912
30
0
41
1
10
14.4679008802127
20
6.03129737342431
30
0
0
SPLINE
5
1CF
100
AcDbEntity
8
1
62
256
6
ByLayer
370
13
48
1
60
0
100
AcDbSpline
70
4
71
3
72
28
73
24
40
0
40
0
40
0
40
0
40
0.0624999999999998
40
0.0624999999999998
40
0.125
40
0.125
40
0.187499999999999
40
0.187499999999999
40
0.249999999999999
40
0.249999999999999
40
0.312499999999999
40
0.312499999999999
40
0.374999999999999
40
0.374999999999999
40
0.4375
40
0.4375
40
0.5
40
0.5
40
0.625
40
0.625
40
0.75
40
0.75
40
1
40
1
40
1
40
1
41
1
10
14.9017781136491
20
6.2339516142402
30
0
41
1
10
14.9050342809651
20
6.22916690467338
30
0
41
1
10
14.908835508836
20
6.22490783710288
30
0
41
1
10
14.917648981192
20
6.21755823535
30
0
41
1
10
14.9227488046957
20
6.21444922189079
30
0
41
1
10
14.9336634371108
20
6.20985194549337
30
0
41
1
10
14.9395417135015
20
6.20830212128499
30
0
41
1
10
14.9519085981516
20
6.20665513258251
30
0
41
1
10
14.9582217338178
20
6.20657030014587
30
0
41
1
10
14.9710490390363
20
6.20760653049467
30
0
41
1
10
14.9775271875458
20
6.20873542040727
30
0
41
1
10
14.990225839928
20
6.2118873840322
30
0
41
1
10
14.9965047939678
20
6.21391644597628
30
0
41
1
10
15.0089424469679
20
6.21871001762548
30
0
41
1
10
15.015117571293
20
6.2214865096704
30
0
41
1
10
15.0271740573284
20
6.22757234007577
30
0
41
1
10
15.0330788162263
20
6.23088945365839
30
0
41
1
10
15.0504757744972
20
6.24153603106959
30
0
41
1
10
15.0616008512262
20
6.24952448144978
30
0
41
1
10
15.0829103579402
20
6.26673133867791
30
0
41
1
10
15.0930858993247
20
6.2759451981413
30
0
41
1
10
15.1222701980557
20
6.3050178090599
30
0
41
1
10
15.139892663428
20
6.32621808324501
30
0
41
1
10
15.1556411351089
20
6.3487084034665
30
0
0
SPLINE
5
1D0
100
AcDbEntity
8
1
62
256
6
ByLayer
370
13
48
1
60
0
100
AcDbSpline
70
4
71
3
72
8
73
4
40
0
40
0
40
0
40
0
40
1
40
1
40
1
40
1
41
1
10
14.8845956656634
20
6.243330328757
30
0
41
1
10
14.8903250675031
20
6.24020280250977
30
0
41
1
10
14.8960525116029
20
6.23707659045937
30
0
41
1
10
14.9017781136491
20
6.2339516142402
30
0
0
INSERT
5
22A
100
AcDbEntity
8
SK2
62
256
6
ByLayer
370
18
48
1
60
0
100
AcDbBlockReference
2
_U3
10
0
20
0
30
0
41
1
42
1
43
1
50
0
210
0
220
0
230
1
0
LINE
5
7F
100
AcDbEntity
8
1
62
256
6
ByLayer
370
18
48
1
60
1
100
AcDbLine
10
0
20
0
30
0
11
0
21
297
31
0
39
0
210
0
220
0
230
1
0
LINE
5
80
100
AcDbEntity
8
1
62
256
6
ByLayer
370
18
48
1
60
1
100
AcDbLine
10
420
20
297
30
0
11
0
21
297
31
0
39
0
210
0
220
0
230
1
0
LINE
5
81
100
AcDbEntity
8
1
62
256
6
ByLayer
370
18
48
1
60
1
100
AcDbLine
10
420
20
297
30
0
11
420
21
0
31
0
39
0
210
0
220
0
230
1
0
LINE
5
82
100
AcDbEntity
8
1
62
256
6
ByLayer
370
18
48
1
60
1
100
AcDbLine
10
0
20
0
30
0
11
420
21
0
31
0
39
0
210
0
220
0
230
1
0
LINE
5
83
100
AcDbEntity
8
SK1
62
256
6
ByLayer
370
18
48
1
60
0
100
AcDbLine
10
-4.099268
20
2.821025
30
0
11
-4.099268
21
-2.821025
31
0
39
0
210
0
220
0
230
1
0
LINE
5
85
100
AcDbEntity
8
SK1
62
256
6
ByLayer
370
18
48
1
60
0
100
AcDbLine
10
-4.099268
20
-2.821025
30
0
11
-3.599268
21
-2.955
31
0
39
0
210
0
220
0
230
1
0
LINE
5
86
100
AcDbEntity
8
SK1
62
256
6
ByLayer
370
18
48
1
60
0
100
AcDbLine
10
-3.599268
20
2.955
30
0
11
-4.099268
21
2.821025
31
0
39
0
210
0
220
0
230
1
0
LINE
5
87
100
AcDbEntity
8
SK1
62
256
6
ByLayer
370
18
48
1
60
0
100
AcDbLine
10
-3.599268
20
2.955
30
0
11
-3.599268
21
-2.955
31
0
39
0
210
0
220
0
230
1
0
LINE
5
88
100
AcDbEntity
8
SK1
62
256
6
ByLayer
370
18
48
1
60
0
100
AcDbLine
10
-3.599268
20
-2.955
30
0
11
-0.298893
21
-2.955
31
0
39
0
210
0
220
0
230
1
0
LINE
5
89
100
AcDbEntity
8
SK1
62
256
6
ByLayer
370
18
48
1
60
0
100
AcDbLine
10
-0.298893
20
2.955
30
0
11
-3.599268
21
2.955
31
0
39
0
210
0
220
0
230
1
0
LINE
5
8A
100
AcDbEntity
8
81
62
256
6
ByLayer
370
18
48
1
60
0
100
AcDbLine
10
20
20
14.9
30
0
11
25
21
14.9
31
0
39
0
210
0
220
0
230
1
0
LINE
5
8B
100
AcDbEntity
8
80
62
256
6
ByLayer
370
18
48
1
60
0
100
AcDbLine
10
0
20
0
30
0
11
-5
21
0
31
0
39
0
210
0
220
0
230
1
0
LINE
5
8C
100
AcDbEntity
8
4
62
256
6
ByLayer
370
18
48
0.05
60
0
100
AcDbLine
10
0
20
0
30
0
11
22
21
0
31
0
39
0
210
0
220
0
230
1
0
LINE
5
8E
100
AcDbEntity
8
SK4
62
256
6
ByLayer
370
18
48
0.05
60
0
100
AcDbLine
10
-5.5
20
0
30
0
11
25
21
0
31
0
39
0
210
0
220
0
230
1
0
LINE
5
90
100
AcDbEntity
8
1
62
256
6
ByLayer
370
18
48
1
60
1
100
AcDbLine
10
0
20
0
30
0
11
0
21
841
31
0
39
0
210
0
220
0
230
1
0
LINE
5
91
100
AcDbEntity
8
1
62
256
6
ByLayer
370
18
48
1
60
1
100
AcDbLine
10
1189
20
841
30
0
11
0
21
841
31
0
39
0
210
0
220
0
230
1
0
LINE
5
92
100
AcDbEntity
8
1
62
256
6
ByLayer
370
18
48
1
60
1
100
AcDbLine
10
1189
20
841
30
0
11
1189
21
0
31
0
39
0
210
0
220
0
230
1
0
LINE
5
93
100
AcDbEntity
8
1
62
256
6
ByLayer
370
18
48
1
60
1
100
AcDbLine
10
0
20
0
30
0
11
1189
21
0
31
0
39
0
210
0
220
0
230
1
0
LINE
5
94
100
AcDbEntity
8
1
62
256
6
ByLayer
370
18
48
1
60
1
100
AcDbLine
10
0
20
0
30
0
11
0
21
841
31
0
39
0
210
0
220
0
230
1
0
LINE
5
95
100
AcDbEntity
8
1
62
256
6
ByLayer
370
18
48
1
60
1
100
AcDbLine
10
1189
20
841
30
0
11
0
21
841
31
0
39
0
210
0
220
0
230
1
0
LINE
5
96
100
AcDbEntity
8
1
62
256
6
ByLayer
370
18
48
1
60
1
100
AcDbLine
10
1189
20
841
30
0
11
1189
21
0
31
0
39
0
210
0
220
0
230
1
0
LINE
5
97
100
AcDbEntity
8
1
62
256
6
ByLayer
370
18
48
1
60
1
100
AcDbLine
10
0
20
0
30
0
11
1189
21
0
31
0
39
0
210
0
220
0
230
1
0
LINE
5
98
100
AcDbEntity
8
1
62
256
6
ByLayer
370
13
48
1
60
0
100
AcDbLine
10
14.16378
20
7.768328
30
0
11
14.167253
21
7.788073
31
0
39
0
210
0
220
0
230
1
0
LINE
5
99
100
AcDbEntity
8
1
62
256
6
ByLayer
370
13
48
1
60
0
100
AcDbLine
10
13.733376
20
7.585418
30
0
11
13.750759
21
7.575416
31
0
39
0
210
0
220
0
230
1
0
LINE
5
9A
100
AcDbEntity
8
1
62
256
6
ByLayer
370
13
48
1
60
0
100
AcDbLine
10
13.750759
20
7.575416
30
0
11
13.733704
21
7.628324
31
0
39
0
210
0
220
0
230
1
0
LINE
5
9B
100
AcDbEntity
8
1
62
256
6
ByLayer
370
13
48
1
60
0
100
AcDbLine
10
14.16378
20
7.768328
30
0
11
14.146725
21
7.821237
31
0
39
0
210
0
220
0
230
1
0
LINE
5
9C
100
AcDbEntity
8
1
62
256
6
ByLayer
370
13
48
1
60
0
100
AcDbLine
10
15.013061
20
7.466894
30
0
11
15.031918
21
7.473781
31
0
39
0
210
0
220
0
230
1
0
LINE
5
9D
100
AcDbEntity
8
1
62
256
6
ByLayer
370
13
48
1
60
0
100
AcDbLine
10
15.013061
20
7.466894
30
0
11
14.996006
21
7.519803
31
0
39
0
210
0
220
0
230
1
0
LINE
5
9E
100
AcDbEntity
8
1
62
256
6
ByLayer
370
13
48
1
60
0
100
AcDbLine
10
14.629289
20
7.742047
30
0
11
14.646011
21
7.690172
31
0
39
0
210
0
220
0
230
1
0
LINE
5
9F
100
AcDbEntity
8
1
62
256
6
ByLayer
370
13
48
1
60
0
100
AcDbLine
10
13.419965
20
6.720874
30
0
11
13.437348
21
6.730915
31
0
39
0
210
0
220
0
230
1
0
LINE
5
A0
100
AcDbEntity
8
1
62
256
6
ByLayer
370
13
48
1
60
0
100
AcDbLine
10
13.437348
20
6.730915
30
0
11
13.420293
21
6.783823
31
0
39
0
210
0
220
0
230
1
0
LINE
5
A1
100
AcDbEntity
8
1
62
256
6
ByLayer
370
13
48
1
60
0
100
AcDbLine
10
13.523386
20
7.107135
30
0
11
13.507051
21
7.15781
31
0
39
0
210
0
220
0
230
1
0
LINE
5
A2
100
AcDbEntity
8
1
62
256
6
ByLayer
370
13
48
1
60
0
100
AcDbLine
10
15.112686
20
6.709387
30
0
11
15.129024
21
6.658703
31
0
39
0
210
0
220
0
230
1
0
LINE
5
A3
100
AcDbEntity
8
1
62
256
6
ByLayer
370
13
48
1
60
0
100
AcDbLine
10
15.175486
20
6.581485
30
0
11
15.158431
21
6.634393
31
0
39
0
210
0
220
0
230
1
0
LINE
5
A4
100
AcDbEntity
8
1
62
256
6
ByLayer
370
13
48
1
60
0
100
AcDbLine
10
15.175486
20
6.581485
30
0
11
15.190871
21
6.568627
31
0
39
0
210
0
220
0
230
1
0
LINE
5
A5
100
AcDbEntity
8
1
62
256
6
ByLayer
370
13
48
1
60
0
100
AcDbLine
10
15.966164
20
7.417891
30
0
11
15.952749
21
7.459508
31
0
39
0
210
0
220
0
230
1
0
LINE
5
A6
100
AcDbEntity
8
1
62
256
6
ByLayer
370
13
48
1
60
0
100
AcDbLine
10
12.669135
20
6.401028
30
0
11
12.68255
21
6.359411
31
0
39
0
210
0
220
0
230
1
0
LINE
5
A7
100
AcDbEntity
8
1
62
256
6
ByLayer
370
13
48
1
60
0
100
AcDbLine
10
14.167253
20
7.788073
30
0
11
14.149997
21
7.841605
31
0
39
0
210
0
220
0
230
1
0
LINE
5
A8
100
AcDbEntity
8
1
62
256
6
ByLayer
370
13
48
1
60
0
100
AcDbLine
10
13.733376
20
7.585418
30
0
11
13.71612
21
7.638951
31
0
39
0
210
0
220
0
230
1
0
LINE
5
A9
100
AcDbEntity
8
1
62
256
6
ByLayer
370
13
48
1
60
0
100
AcDbLine
10
-0.238766
20
8.596597
30
0
11
-0.238766
21
8.91802
31
0
39
0
210
0
220
0
230
1
0
LINE
5
AA
100
AcDbEntity
8
1
62
256
6
ByLayer
370
13
48
1
60
0
100
AcDbLine
10
-0.238766
20
-8.91802
30
0
11
-0.238766
21
-8.596597
31
0
39
0
210
0
220
0
230
1
0
LINE
5
AB
100
AcDbEntity
8
1
62
256
6
ByLayer
370
13
48
1
60
0
100
AcDbLine
10
0.346266
20
-9.42583
30
0
11
0.346266
21
-9.350829
31
0
39
0
210
0
220
0
230
1
0
LINE
5
AC
100
AcDbEntity
8
1
62
256
6
ByLayer
370
13
48
1
60
0
100
AcDbLine
10
0.346266
20
9.350829
30
0
11
0.346266
21
9.42583
31
0
39
0
210
0
220
0
230
1
0
LINE
5
AD
100
AcDbEntity
8
1
62
256
6
ByLayer
370
13
48
1
60
0
100
AcDbLine
10
-0.298766
20
-8.42456
30
0
11
-0.298766
21
-7.827732
31
0
39
0
210
0
220
0
230
1
0
LINE
5
AE
100
AcDbEntity
8
1
62
256
6
ByLayer
370
13
48
1
60
0
100
AcDbLine
10
-0.298766
20
-7.202903
30
0
11
-0.298766
21
-7.129703
31
0
39
0
210
0
220
0
230
1
0
LINE
5
AF
100
AcDbEntity
8
1
62
256
6
ByLayer
370
13
48
1
60
0
100
AcDbLine
10
-0.298766
20
7.129703
30
0
11
-0.298766
21
7.202903
31
0
39
0
210
0
220
0
230
1
0
LINE
5
B0
100
AcDbEntity
8
1
62
256
6
ByLayer
370
13
48
1
60
0
100
AcDbLine
10
-0.298766
20
7.827732
30
0
11
-0.298766
21
8.42456
31
0
39
0
210
0
220
0
230
1
0
LINE
5
B1
100
AcDbEntity
8
1
62
256
6
ByLayer
370
13
48
1
60
0
100
AcDbLine
10
-0.238766
20
7.962459
30
0
11
-0.238766
21
8.442864
31
0
39
0
210
0
220
0
230
1
0
LINE
5
B2
100
AcDbEntity
8
1
62
256
6
ByLayer
370
13
48
1
60
0
100
AcDbLine
10
-0.238766
20
-8.442864
30
0
11
-0.238766
21
-7.962459
31
0
39
0
210
0
220
0
230
1
0
LINE
5
B3
100
AcDbEntity
8
1
62
256
6
ByLayer
370
13
48
1
60
0
100
AcDbLine
10
0.346266
20
8.819404
30
0
11
0.346266
21
8.930438
31
0
39
0
210
0
220
0
230
1
0
LINE
5
B4
100
AcDbEntity
8
1
62
256
6
ByLayer
370
13
48
1
60
0
100
AcDbLine
10
0.346266
20
-8.930438
30
0
11
0.346266
21
-8.819404
31
0
39
0
210
0
220
0
230
1
0
LINE
5
B5
100
AcDbEntity
8
1
62
256
6
ByLayer
370
13
48
1
60
0
100
AcDbLine
10
-0.298766
20
-7.736854
30
0
11
-0.298766
21
-7.202885
31
0
39
0
210
0
220
0
230
1
0
LINE
5
B6
100
AcDbEntity
8
1
62
256
6
ByLayer
370
13
48
1
60
0
100
AcDbLine
10
-0.298766
20
7.202885
30
0
11
-0.298766
21
7.736854
31
0
39
0
210
0
220
0
230
1
0
LINE
5
B7
100
AcDbEntity
8
1
62
256
6
ByLayer
370
13
48
1
60
0
100
AcDbLine
10
-0.238766
20
7.120291
30
0
11
-0.238766
21
7.740015
31
0
39
0
210
0
220
0
230
1
0
LINE
5
B8
100
AcDbEntity
8
1
62
256
6
ByLayer
370
13
48
1
60
0
100
AcDbLine
10
-0.238766
20
-7.740015
30
0
11
-0.238766
21
-7.120291
31
0
39
0
210
0
220
0
230
1
0
LINE
5
B9
100
AcDbEntity
8
1
62
256
6
ByLayer
370
13
48
1
60
0
100
AcDbLine
10
0.346266
20
-8.217918
30
0
11
0.346266
21
-8.062304
31
0
39
0
210
0
220
0
230
1
0
LINE
5
BA
100
AcDbEntity
8
1
62
256
6
ByLayer
370
13
48
1
60
0
100
AcDbLine
10
0.346266
20
8.062304
30
0
11
0.346266
21
8.217918
31
0
39
0
210
0
220
0
230
1
0
LINE
5
BB
100
AcDbEntity
8
1
62
256
6
ByLayer
370
13
48
1
60
0
100
AcDbLine
10
-0.298766
20
-6.754228
30
0
11
-0.298766
21
-6.607664
31
0
39
0
210
0
220
0
230
1
0
LINE
5
BC
100
AcDbEntity
8
1
62
256
6
ByLayer
370
13
48
1
60
0
100
AcDbLine
10
-0.298766
20
6.607664
30
0
11
-0.298766
21
6.754228
31
0
39
0
210
0
220
0
230
1
0
LINE
5
BD
100
AcDbEntity
8
1
62
256
6
ByLayer
370
13
48
1
60
0
100
AcDbLine
10
-0.298766
20
-6.304262
30
0
11
-0.298766
21
-6.120818
31
0
39
0
210
0
220
0
230
1
0
LINE
5
BE
100
AcDbEntity
8
1
62
256
6
ByLayer
370
13
48
1
60
0
100
AcDbLine
10
-0.298766
20
-7.082009
30
0
11
-0.298766
21
-7.129703
31
0
39
0
210
0
220
0
230
1
0
LINE
5
BF
100
AcDbEntity
8
1
62
256
6
ByLayer
370
13
48
1
60
0
100
AcDbLine
10
-0.238766
20
6.429887
30
0
11
-0.238766
21
6.738598
31
0
39
0
210
0
220
0
230
1
0
LINE
5
C0
100
AcDbEntity
8
1
62
256
6
ByLayer
370
13
48
1
60
0
100
AcDbLine
10
-0.238766
20
-6.738598
30
0
11
-0.238766
21
-6.429887
31
0
39
0
210
0
220
0
230
1
0
LINE
5
C1
100
AcDbEntity
8
1
62
256
6
ByLayer
370
13
48
1
60
0
100
AcDbLine
10
0.346266
20
-7.224309
30
0
11
0.346266
21
-7.006677
31
0
39
0
210
0
220
0
230
1
0
LINE
5
C2
100
AcDbEntity
8
1
62
256
6
ByLayer
370
13
48
1
60
0
100
AcDbLine
10
0.346266
20
7.006677
30
0
11
0.346266
21
7.224309
31
0
39
0
210
0
220
0
230
1
0
LINE
5
C3
100
AcDbEntity
8
1
62
256
6
ByLayer
370
13
48
1
60
0
100
AcDbLine
10
-0.298766
20
7.129703
30
0
11
-0.298766
21
7.082009
31
0
39
0
210
0
220
0
230
1
0
LINE
5
C4
100
AcDbEntity
8
1
62
256
6
ByLayer
370
13
48
1
60
0
100
AcDbLine
10
-0.298766
20
6.120818
30
0
11
-0.298766
21
6.304262
31
0
39
0
210
0
220
0
230
1
0
LINE
5
C5
100
AcDbEntity
8
1
62
256
6
ByLayer
370
13
48
1
60
0
100
AcDbLine
10
-0.298766
20
-5.315569
30
0
11
-0.298766
21
-3.200139
31
0
39
0
210
0
220
0
230
1
0
LINE
5
C6
100
AcDbEntity
8
1
62
256
6
ByLayer
370
13
48
1
60
0
100
AcDbLine
10
-0.298766
20
3.200139
30
0
11
-0.298766
21
5.315569
31
0
39
0
210
0
220
0
230
1
0
LINE
5
C7
100
AcDbEntity
8
1
62
256
6
ByLayer
370
13
48
1
60
0
100
AcDbLine
10
-0.238766
20
-5.271109
30
0
11
-0.238766
21
-3.626029
31
0
39
0
210
0
220
0
230
1
0
LINE
5
C8
100
AcDbEntity
8
1
62
256
6
ByLayer
370
13
48
1
60
0
100
AcDbLine
10
-0.238766
20
3.626029
30
0
11
-0.238766
21
5.271109
31
0
39
0
210
0
220
0
230
1
0
LINE
5
C9
100
AcDbEntity
8
1
62
256
6
ByLayer
370
13
48
1
60
0
100
AcDbLine
10
0.346266
20
-5.807073
30
0
11
0.346266
21
-5.482966
31
0
39
0
210
0
220
0
230
1
0
LINE
5
CA
100
AcDbEntity
8
1
62
256
6
ByLayer
370
13
48
1
60
0
100
AcDbLine
10
0.346266
20
5.482966
30
0
11
0.346266
21
5.807073
31
0
39
0
210
0
220
0
230
1
0
LINE
5
CB
100
AcDbEntity
8
1
62
256
6
ByLayer
370
13
48
1
60
0
100
AcDbLine
10
-0.298766
20
-2.786748
30
0
11
-0.298766
21
2.786748
31
0
39
0
210
0
220
0
230
1
0
LINE
5
CC
100
AcDbEntity
8
1
62
256
6
ByLayer
370
13
48
1
60
0
100
AcDbLine
10
5
20
4.358899
30
0
11
5
21
-4.358899
31
0
39
0
210
0
220
0
230
1
0
LINE
5
CD
100
AcDbEntity
8
1
62
256
6
ByLayer
370
13
48
1
60
0
100
AcDbLine
10
-0.238766
20
-2.652445
30
0
11
-0.238766
21
2.652445
31
0
39
0
210
0
220
0
230
1
0
LINE
5
CE
100
AcDbEntity
8
1
62
256
6
ByLayer
370
13
48
1
60
0
100
AcDbLine
10
3.5
20
4.358899
30
0
11
3.5
21
-4.358899
31
0
39
0
210
0
220
0
230
1
0
LINE
5
CF
100
AcDbEntity
8
1
62
256
6
ByLayer
370
13
48
1
60
0
100
AcDbLine
10
0.346266
20
-3.482607
30
0
11
0.346266
21
-2.811879
31
0
39
0
210
0
220
0
230
1
0
LINE
5
D0
100
AcDbEntity
8
1
62
256
6
ByLayer
370
13
48
1
60
0
100
AcDbLine
10
0.346266
20
2.811879
30
0
11
0.346266
21
3.482607
31
0
39
0
210
0
220
0
230
1
0
LINE
5
D1
100
AcDbEntity
8
1
62
256
6
ByLayer
370
13
48
1
60
0
100
AcDbLine
10
3.5
20
4.358899
30
0
11
5
21
4.358899
31
0
39
0
210
0
220
0
230
1
0
LINE
5
D2
100
AcDbEntity
8
1
62
256
6
ByLayer
370
13
48
1
60
0
100
AcDbLine
10
5
20
4.358899
30
0
11
5
21
9.864797
31
0
39
0
210
0
220
0
230
1
0
LINE
5
D3
100
AcDbEntity
8
1
62
256
6
ByLayer
370
13
48
1
60
0
100
AcDbLine
10
0.450766
20
9.921567
30
0
11
5.047109
21
9.921567
31
0
39
0
210
0
220
0
230
1
0
LINE
5
D4
100
AcDbEntity
8
1
62
256
6
ByLayer
370
13
48
1
60
0
100
AcDbLine
10
5.084175
20
-9.921567
30
0
11
0.450766
21
-9.921567
31
0
39
0
210
0
220
0
230
1
0
LINE
5
D5
100
AcDbEntity
8
1
62
256
6
ByLayer
370
13
48
1
60
0
100
AcDbLine
10
5
20
-9.6438
30
0
11
5
21
-4.358899
31
0
39
0
210
0
220
0
230
1
0
LINE
5
D6
100
AcDbEntity
8
1
62
256
6
ByLayer
370
13
48
1
60
0
100
AcDbLine
10
5
20
-4.358899
30
0
11
3.5
21
-4.358899
31
0
39
0
210
0
220
0
230
1
0
LINE
5
D7
100
AcDbEntity
8
1
62
256
6
ByLayer
370
13
48
1
60
0
100
AcDbLine
10
3.2
20
-3.675595
30
0
11
3.2
21
3.675595
31
0
39
0
210
0
220
0
230
1
0
LINE
5
D8
100
AcDbEntity
8
1
62
256
6
ByLayer
370
13
48
1
60
0
100
AcDbLine
10
0.450766
20
-9.921567
30
0
11
0.450766
21
9.921567
31
0
39
0
210
0
220
0
230
1
0
LINE
5
D9
100
AcDbEntity
8
1
62
256
6
ByLayer
370
13
48
1
60
0
100
AcDbLine
10
-0.298766
20
9.165624
30
0
11
-0.298766
21
9.1557
31
0
39
0
210
0
220
0
230
1
0
LINE
5
DA
100
AcDbEntity
8
1
62
256
6
ByLayer
370
13
48
1
60
0
100
AcDbLine
10
-0.298766
20
-8.42456
30
0
11
-0.298766
21
-8.48729
31
0
39
0
210
0
220
0
230
1
0
LINE
5
DB
100
AcDbEntity
8
1
62
256
6
ByLayer
370
13
48
1
60
0
100
AcDbLine
10
-0.298766
20
-8.925793
30
0
11
-0.298766
21
-8.886086
31
0
39
0
210
0
220
0
230
1
0
LINE
5
DC
100
AcDbEntity
8
1
62
256
6
ByLayer
370
13
48
1
60
0
100
AcDbLine
10
-0.298766
20
-9.1557
30
0
11
-0.298766
21
-9.165624
31
0
39
0
210
0
220
0
230
1
0
LINE
5
DD
100
AcDbEntity
8
1
62
256
6
ByLayer
370
13
48
1
60
0
100
AcDbLine
10
11.542718
20
8.724362
30
0
11
8.633292
21
-0.503159
31
0
39
0
210
0
220
0
230
1
0
LINE
5
DE
100
AcDbEntity
8
1
62
256
6
ByLayer
370
13
48
1
60
0
100
AcDbLine
10
9.253437
20
-0.93579
30
0
11
16.935431
21
4.962248
31
0
39
0
210
0
220
0
230
1
0
LINE
5
DF
100
AcDbEntity
8
1
62
256
6
ByLayer
370
13
48
1
60
0
100
AcDbLine
10
17.072248
20
5.157635
30
0
11
19.981674
21
14.385156
31
0
39
0
210
0
220
0
230
1
0
LINE
5
E0
100
AcDbEntity
8
1
62
256
6
ByLayer
370
13
48
1
60
0
100
AcDbLine
10
19.361529
20
14.817787
30
0
11
11.679535
21
8.919749
31
0
39
0
210
0
220
0
230
1
0
LINE
5
E1
100
AcDbEntity
8
1
62
256
6
ByLayer
370
13
48
1
60
0
100
AcDbLine
10
6.124792
20
9.921567
30
0
11
5.047082
21
9.921567
31
0
39
0
210
0
220
0
230
1
0
LINE
5
E2
100
AcDbEntity
8
1
62
256
6
ByLayer
370
13
48
1
60
0
100
AcDbLine
10
11.20704
20
7.659767
30
0
11
10.28551
21
8.302653
31
0
39
0
210
0
220
0
230
1
0
LINE
5
E3
100
AcDbEntity
8
1
62
256
6
ByLayer
370
13
48
1
60
0
100
AcDbLine
10
9.440944
20
8.754357
30
0
11
9.40791
21
8.75032
31
0
39
0
210
0
220
0
230
1
0
LINE
5
E4
100
AcDbEntity
8
1
62
256
6
ByLayer
370
13
48
1
60
0
100
AcDbLine
10
10.955986
20
7.68507
30
0
11
11.168324
21
7.536937
31
0
39
0
210
0
220
0
230
1
0
LINE
5
E5
100
AcDbEntity
8
1
62
256
6
ByLayer
370
13
48
1
60
0
100
AcDbLine
10
16.606366
20
3.893039
30
0
11
16.567618
21
3.770145
31
0
39
0
210
0
220
0
230
1
0
LINE
5
E6
100
AcDbEntity
8
1
62
256
6
ByLayer
370
13
48
1
60
0
100
AcDbLine
10
16.172606
20
4.045803
30
0
11
16.171513
21
4.04567
31
0
39
0
210
0
220
0
230
1
0
LINE
5
E7
100
AcDbEntity
8
1
62
256
6
ByLayer
370
13
48
1
60
0
100
AcDbLine
10
16.606366
20
3.893039
30
0
11
16.049144
21
4.281773
31
0
39
0
210
0
220
0
230
1
0
LINE
5
E8
100
AcDbEntity
8
1
62
256
6
ByLayer
370
13
48
1
60
0
100
AcDbLine
10
9.340347
20
2.637859
30
0
11
10.955986
21
7.68507
31
0
39
0
210
0
220
0
230
1
0
LINE
5
E9
100
AcDbEntity
8
1
62
256
6
ByLayer
370
13
48
1
60
0
100
AcDbLine
10
10.949117
20
7.678281
30
0
11
10.955986
21
7.68507
31
0
39
0
210
0
220
0
230
1
0
LINE
5
EA
100
AcDbEntity
8
1
62
256
6
ByLayer
370
13
48
1
60
0
100
AcDbLine
10
9.714134
20
2.924844
30
0
11
9.340347
21
2.637859
31
0
39
0
210
0
220
0
230
1
0
LINE
5
EB
100
AcDbEntity
8
1
62
256
6
ByLayer
370
13
48
1
60
0
100
AcDbLine
10
9.340347
20
2.637859
30
0
11
9.34557
21
2.668898
31
0
39
0
210
0
220
0
230
1
0
LINE
5
EC
100
AcDbEntity
8
1
62
256
6
ByLayer
370
13
48
1
60
0
100
AcDbLine
10
8.399346
20
1.566888
30
0
11
9.569154
21
2.465037
31
0
39
0
210
0
220
0
230
1
0
LINE
5
ED
100
AcDbEntity
8
1
62
256
6
ByLayer
370
13
48
1
60
0
100
AcDbLine
10
15.946892
20
4.203268
30
0
11
16.172606
21
4.045803
31
0
39
0
210
0
220
0
230
1
0
LINE
5
EE
100
AcDbEntity
8
1
62
256
6
ByLayer
370
13
48
1
60
0
100
AcDbLine
10
7.356393
20
-0.872475
30
0
11
7.411714
21
-1.044091
31
0
39
0
210
0
220
0
230
1
0
LINE
5
EF
100
AcDbEntity
8
1
62
256
6
ByLayer
370
13
48
1
60
0
100
AcDbLine
10
16.171513
20
4.04567
30
0
11
10.648088
21
-0.189541
31
0
39
0
210
0
220
0
230
1
0
LINE
5
F0
100
AcDbEntity
8
1
62
256
6
ByLayer
370
13
48
1
60
0
100
AcDbLine
10
9.34557
20
2.668898
30
0
11
7.945098
21
1.597799
31
0
39
0
210
0
220
0
230
1
0
LINE
5
F1
100
AcDbEntity
8
1
62
256
6
ByLayer
370
13
48
1
60
0
100
AcDbLine
10
9.34557
20
2.668898
30
0
11
10.949117
21
7.678281
31
0
39
0
210
0
220
0
230
1
0
LINE
5
F2
100
AcDbEntity
8
1
62
256
6
ByLayer
370
13
48
1
60
0
100
AcDbLine
10
9.40791
20
8.75032
30
0
11
10.949117
21
7.678281
31
0
39
0
210
0
220
0
230
1
0
LINE
5
F3
100
AcDbEntity
8
1
62
256
6
ByLayer
370
13
48
1
60
0
100
AcDbLine
10
8.617471
20
9.5
30
0
11
8.953674
21
9.164724
31
0
39
0
210
0
220
0
230
1
0
LINE
5
F4
100
AcDbEntity
8
1
62
256
6
ByLayer
370
13
48
1
60
0
100
AcDbLine
10
7.658312
20
9.5
30
0
11
8.617471
21
9.5
31
0
39
0
210
0
220
0
230
1
0
LINE
5
F5
100
AcDbEntity
8
1
62
256
6
ByLayer
370
13
48
1
60
0
100
AcDbLine
10
15.129856
20
-0.789854
30
0
11
16.567618
21
3.770145
31
0
39
0
210
0
220
0
230
1
0
LINE
5
F6
100
AcDbEntity
8
1
62
256
6
ByLayer
370
13
48
1
60
0
100
AcDbLine
10
16.171513
20
4.04567
30
0
11
16.567618
21
3.770145
31
0
39
0
210
0
220
0
230
1
0
LINE
5
F7
100
AcDbEntity
8
1
62
256
6
ByLayer
370
13
48
1
60
0
100
AcDbLine
10
-0.298766
20
5.739694
30
0
11
-0.298766
21
6.120825
31
0
39
0
210
0
220
0
230
1
0
LINE
5
F8
100
AcDbEntity
8
1
62
256
6
ByLayer
370
13
48
1
60
0
100
AcDbLine
10
-0.298766
20
8.925727
30
0
11
-0.298766
21
9.1557
31
0
39
0
210
0
220
0
230
1
0
LINE
5
F9
100
AcDbEntity
8
1
62
256
6
ByLayer
370
13
48
1
60
0
100
AcDbLine
10
-0.298766
20
-9.1557
30
0
11
-0.298766
21
-8.925727
31
0
39
0
210
0
220
0
230
1
0
LINE
5
FA
100
AcDbEntity
8
1
62
256
6
ByLayer
370
13
48
1
60
0
100
AcDbLine
10
-0.298766
20
-6.120825
30
0
11
-0.298766
21
-5.511558
31
0
39
0
210
0
220
0
230
1
0
LINE
5
FB
100
AcDbEntity
8
1
62
256
6
ByLayer
370
13
48
1
60
0
100
AcDbLine
10
-0.238766
20
9.01534
30
0
11
-0.238766
21
9.200826
31
0
39
0
210
0
220
0
230
1
0
LINE
5
FC
100
AcDbEntity
8
1
62
256
6
ByLayer
370
13
48
1
60
0
100
AcDbLine
10
-0.238766
20
-9.200826
30
0
11
-0.238766
21
-9.01534
31
0
39
0
210
0
220
0
230
1
0
LINE
5
FD
100
AcDbEntity
8
1
62
256
6
ByLayer
370
13
48
1
60
0
100
AcDbLine
10
0.346266
20
9.693747
30
0
11
0.346266
21
9.737289
31
0
39
0
210
0
220
0
230
1
0
LINE
5
FE
100
AcDbEntity
8
1
62
256
6
ByLayer
370
13
48
1
60
0
100
AcDbLine
10
0.346266
20
-9.737289
30
0
11
0.346266
21
-9.693747
31
0
39
0
210
0
220
0
230
1
0
LINE
5
FF
100
AcDbEntity
8
1
62
256
6
ByLayer
370
13
48
1
60
0
100
AcDbLine
10
-0.298766
20
6.304262
30
0
11
-0.298766
21
6.607667
31
0
39
0
210
0
220
0
230
1
0
LINE
5
100
100
AcDbEntity
8
1
62
256
6
ByLayer
370
13
48
1
60
0
100
AcDbLine
10
-0.298766
20
6.883882
30
0
11
-0.298766
21
7.082037
31
0
39
0
210
0
220
0
230
1
0
LINE
5
101
100
AcDbEntity
8
1
62
256
6
ByLayer
370
13
48
1
60
0
100
AcDbLine
10
-0.298766
20
8.487275
30
0
11
-0.298766
21
8.886086
31
0
39
0
210
0
220
0
230
1
0
LINE
5
102
100
AcDbEntity
8
1
62
256
6
ByLayer
370
13
48
1
60
0
100
AcDbLine
10
-0.298766
20
-8.886086
30
0
11
-0.298766
21
-8.487275
31
0
39
0
210
0
220
0
230
1
0
LINE
5
103
100
AcDbEntity
8
1
62
256
6
ByLayer
370
13
48
1
60
0
100
AcDbLine
10
-0.298766
20
-7.082037
30
0
11
-0.298766
21
-6.883882
31
0
39
0
210
0
220
0
230
1
0
LINE
5
104
100
AcDbEntity
8
1
62
256
6
ByLayer
370
13
48
1
60
0
100
AcDbLine
10
-0.298766
20
-6.607667
30
0
11
-0.298766
21
-6.304262
31
0
39
0
210
0
220
0
230
1
0
LINE
5
105
100
AcDbEntity
8
1
62
256
6
ByLayer
370
13
48
1
60
0
100
AcDbLine
10
6.6
20
9.692871
30
0
11
6.6
21
-7.647421
31
0
39
0
210
0
220
0
230
1
0
LINE
5
106
100
AcDbEntity
8
1
62
256
6
ByLayer
370
13
48
1
60
0
100
AcDbLine
10
6.525972
20
9.721906
30
0
11
5.055563
21
9.288869
31
0
39
0
210
0
220
0
230
1
0
LINE
5
107
100
AcDbEntity
8
1
62
256
6
ByLayer
370
13
48
1
60
0
100
AcDbLine
10
14.006399
20
6.075666
30
0
11
13.989677
21
6.127541
31
0
39
0
210
0
220
0
230
1
0
LINE
5
108
100
AcDbEntity
8
1
62
256
6
ByLayer
370
13
48
1
60
0
100
AcDbLine
10
14.012794
20
6.018375
30
0
11
14.012794
21
6.038418
31
0
39
0
210
0
220
0
230
1
0
LINE
5
109
100
AcDbEntity
8
1
62
256
6
ByLayer
370
13
48
1
60
0
100
AcDbLine
10
14.012794
20
6.038418
30
0
11
13.995739
21
6.091326
31
0
39
0
210
0
220
0
230
1
0
LINE
5
10A
100
AcDbEntity
8
1
62
256
6
ByLayer
370
13
48
1
60
0
100
AcDbLine
10
15.031918
20
7.473781
30
0
11
15.014662
21
7.527313
31
0
39
0
210
0
220
0
230
1
0
LINE
5
10B
100
AcDbEntity
8
1
62
256
6
ByLayer
370
13
48
1
60
0
100
AcDbLine
10
13.419965
20
6.720874
30
0
11
13.402709
21
6.774406
31
0
39
0
210
0
220
0
230
1
0
LINE
5
10C
100
AcDbEntity
8
1
62
256
6
ByLayer
370
13
48
1
60
0
100
AcDbLine
10
15.190871
20
6.568627
30
0
11
15.173614
21
6.62216
31
0
39
0
210
0
220
0
230
1
0
LINE
5
10D
100
AcDbEntity
8
1
62
256
6
ByLayer
370
13
48
1
60
0
100
AcDbLine
10
-0.298766
20
8.886086
30
0
11
-0.298766
21
8.925793
31
0
39
0
210
0
220
0
230
1
0
LINE
5
10E
100
AcDbEntity
8
1
62
256
6
ByLayer
370
13
48
1
60
0
100
AcDbLine
10
-0.298766
20
8.48729
30
0
11
-0.298766
21
8.42456
31
0
39
0
210
0
220
0
230
1
0
LINE
5
10F
100
AcDbEntity
8
1
62
256
6
ByLayer
370
13
48
1
60
0
100
AcDbLine
10
-0.298766
20
7.736854
30
0
11
-0.298766
21
7.827734
31
0
39
0
210
0
220
0
230
1
0
LINE
5
110
100
AcDbEntity
8
1
62
256
6
ByLayer
370
13
48
1
60
0
100
AcDbLine
10
-0.298766
20
6.883874
30
0
11
-0.298766
21
6.754228
31
0
39
0
210
0
220
0
230
1
0
LINE
5
111
100
AcDbEntity
8
1
62
256
6
ByLayer
370
13
48
1
60
0
100
AcDbLine
10
-0.298766
20
5.315569
30
0
11
-0.298766
21
5.511537
31
0
39
0
210
0
220
0
230
1
0
LINE
5
112
100
AcDbEntity
8
1
62
256
6
ByLayer
370
13
48
1
60
0
100
AcDbLine
10
16.606368
20
3.893044
30
0
11
16.744461
21
4.331017
31
0
39
0
210
0
220
0
230
1
0
LINE
5
113
100
AcDbEntity
8
1
62
256
6
ByLayer
370
13
48
1
60
0
100
AcDbLine
10
9.532892
20
2.350036
30
0
11
8.26892
21
1.379591
31
0
39
0
210
0
220
0
230
1
0
LINE
5
114
100
AcDbEntity
8
1
62
256
6
ByLayer
370
13
48
1
60
0
100
AcDbLine
10
-0.298766
20
3.200211
30
0
11
-0.298766
21
2.786748
31
0
39
0
210
0
220
0
230
1
0
LINE
5
115
100
AcDbEntity
8
1
62
256
6
ByLayer
370
13
48
1
60
0
100
AcDbLine
10
-0.298766
20
-2.786748
30
0
11
-0.298766
21
-3.200211
31
0
39
0
210
0
220
0
230
1
0
LINE
5
116
100
AcDbEntity
8
1
62
256
6
ByLayer
370
13
48
1
60
0
100
AcDbLine
10
-0.298766
20
-5.511537
30
0
11
-0.298766
21
-5.315569
31
0
39
0
210
0
220
0
230
1
0
LINE
5
117
100
AcDbEntity
8
1
62
256
6
ByLayer
370
13
48
1
60
0
100
AcDbLine
10
-0.298766
20
-6.754228
30
0
11
-0.298766
21
-6.883874
31
0
39
0
210
0
220
0
230
1
0
LINE
5
118
100
AcDbEntity
8
1
62
256
6
ByLayer
370
13
48
1
60
0
100
AcDbLine
10
-0.298766
20
-7.827734
30
0
11
-0.298766
21
-7.736854
31
0
39
0
210
0
220
0
230
1
0
LINE
5
119
100
AcDbEntity
8
1
62
256
6
ByLayer
370
13
48
1
60
0
100
AcDbLine
10
14.012794
20
6.018375
30
0
11
13.995538
21
6.071907
31
0
39
0
210
0
220
0
230
1
0
LINE
5
11A
100
AcDbEntity
8
1
62
256
6
ByLayer
370
13
48
1
60
0
100
AcDbLine
10
13.991467
20
6.024765
30
0
11
14.009224
21
5.969679
31
0
39
0
210
0
220
0
230
1
0
LINE
5
11B
100
AcDbEntity
8
1
62
256
6
ByLayer
370
13
48
1
60
0
100
AcDbLine
10
10.568272
20
-0.011447
30
0
11
10.564677
21
-0.004777
31
0
39
0
210
0
220
0
230
1
0
MTEXT
5
1D1
100
AcDbEntity
8
SK6
62
256
6
ByLayer
370
18
48
1
60
0
100
AcDbMText
10
-10.692751
20
-18.565435
30
0
210
0
220
0
230
1
1
\W0.7582;SL-SVQCR-20-11-15D
40
3.5
41
0
44
1.084337
50
0
71
7
72
5
7
iso_b_vert
0
DIMENSION
5
1D6
100
AcDbEntity
8
2
62
256
6
ByLayer
370
18
48
1
60
0
100
AcDbDimension
2
_U0
10
37
20
0
30
0
11
37
21
7.45
31
0
70
32
71
1
72
1
41
1
210
0
220
0
230
1
3
Standard
100
AcDbAlignedDimension
13
20
23
14.9
33
0
14
0
24
0
34
0
50
90
100
AcDbRotatedDimension
1001
ACAD
1000
DSTYLE
1002
{
1070
   371
1070
    13
1070
   372
1070
    13
1070
   170
1070
     0
1070
   144
1040
1.0
1070
   277
1070
     2
1070
   284
1070
     8
1070
   278
1070
    46
1070
   146
1040
1.166667
1070
   345
1005
16
1070
   347
1005
16
1070
   346
1005
16
1070
   344
1005
0
1070
   343
1005
0
1070
   172
1070
     1
1070
    76
1070
     0
1070
    75
1070
     0
1070
   282
1070
     0
1070
   281
1070
     0
1070
    71
1070
     0
1070
    74
1070
     0
1070
   279
1070
     0
1070
   173
1070
     1
1070
   340
1005
1D2
1070
   271
1070
     0
1070
   272
1070
     2
1070
    77
1070
     1
1070
    73
1070
     0
1070
   171
1070
     3
1070
   274
1070
     4
1070
   177
1070
     7
1070
   176
1070
     7
1070
   178
1070
     7
1070
    78
1070
     8
1070
    48
1040
-0.1
1070
    41
1040
3.175
1070
   147
1040
1.5
1070
    42
1040
1.5875
1070
    44
1040
2.0
1070
   140
1040
3.0
1002
}
1001
ACAD_DSTYLE_DIM_LINETYPE
1070
   380
1005
16
1001
ACAD_DSTYLE_DIM_EXT1_LINETYPE
1070
   381
1005
16
1001
ACAD_DSTYLE_DIM_EXT2_LINETYPE
1070
   382
1005
16
0
DIMENSION
5
1F1
100
AcDbEntity
8
2
62
256
6
ByLayer
370
18
48
1
60
0
100
AcDbDimension
2
_U1
10
20
20
21.467455
30
0
11
10
21
21.467455
31
0
70
32
71
1
72
1
41
1
210
0
220
0
230
1
3
Standard
100
AcDbAlignedDimension
13
0
23
0
33
0
14
20
24
14.9
34
0
50
0
100
AcDbRotatedDimension
1001
ACAD
1000
DSTYLE
1002
{
1070
   371
1070
    13
1070
   372
1070
    13
1070
   170
1070
     0
1070
   144
1040
1.0
1070
   277
1070
     2
1070
   284
1070
     8
1070
   278
1070
    46
1070
   146
1040
1.166667
1070
   345
1005
16
1070
   347
1005
16
1070
   346
1005
16
1070
   344
1005
0
1070
   343
1005
0
1070
   172
1070
     1
1070
    76
1070
     0
1070
    75
1070
     0
1070
   282
1070
     0
1070
   281
1070
     0
1070
    71
1070
     0
1070
    74
1070
     0
1070
   279
1070
     0
1070
   173
1070
     1
1070
   340
1005
1D2
1070
   271
1070
     2
1070
   272
1070
     2
1070
    77
1070
     1
1070
    73
1070
     1
1070
   171
1070
     3
1070
   274
1070
     4
1070
   177
1070
     7
1070
   176
1070
     7
1070
   178
1070
     7
1070
    78
1070
     8
1070
    48
1040
-0.1
1070
    41
1040
3.175
1070
   147
1040
1.5
1070
    42
1040
1.5875
1070
    44
1040
2.0
1070
   140
1040
3.0
1002
}
1001
ACAD_DSTYLE_DIM_LINETYPE
1070
   380
1005
16
1001
ACAD_DSTYLE_DIM_EXT1_LINETYPE
1070
   381
1005
16
1001
ACAD_DSTYLE_DIM_EXT2_LINETYPE
1070
   382
1005
16
0
DIMENSION
5
209
100
AcDbEntity
8
SK2
62
256
6
ByLayer
370
18
48
1
60
0
100
AcDbDimension
2
_U2
10
-11.136385
20
-9.921567
30
0
11
-11.136385
21
0
31
0
70
32
71
1
72
1
41
1
210
0
220
0
230
1
3
Standard
100
AcDbAlignedDimension
13
2.748938
23
9.921567
33
0
14
2.767471
24
-9.921567
34
0
50
90
100
AcDbRotatedDimension
1001
ACAD
1000
DSTYLE
1002
{
1070
   371
1070
    13
1070
   372
1070
    13
1070
     3
1000

1070
   170
1070
     0
1070
   144
1040
1.0
1070
   277
1070
     2
1070
   284
1070
     8
1070
   278
1070
    46
1070
   146
1040
1.166667
1070
   345
1005
16
1070
   347
1005
16
1070
   346
1005
16
1070
   344
1005
0
1070
   343
1005
0
1070
   172
1070
     1
1070
    76
1070
     0
1070
    75
1070
     0
1070
   282
1070
     0
1070
   281
1070
     0
1070
    71
1070
     0
1070
    74
1070
     0
1070
   279
1070
     0
1070
   173
1070
     1
1070
   340
1005
1D2
1070
   271
1070
     2
1070
   272
1070
     2
1070
    77
1070
     1
1070
    73
1070
     0
1070
   171
1070
     3
1070
   274
1070
     4
1070
   177
1070
     7
1070
   176
1070
     7
1070
   178
1070
     7
1070
    78
1070
     8
1070
    48
1040
-0.1
1070
    41
1040
3.175
1070
   147
1040
1.5
1070
    42
1040
1.5875
1070
    44
1040
2.0
1070
   140
1040
3.0
1002
}
1001
ACAD_DSTYLE_DIM_LINETYPE
1070
   380
1005
16
1001
ACAD_DSTYLE_DIM_EXT1_LINETYPE
1070
   381
1005
16
1001
ACAD_DSTYLE_DIM_EXT2_LINETYPE
1070
   382
1005
16
0
ENDSEC
0
SECTION
2
OBJECTS
0
DICTIONARY
5
29d
330
0
100
AcDbDictionary
280
0
281
1
3
ACAD_GROUP
350
29e
3
ACAD_MLINESTYLE
350
29f
0
DICTIONARY
5
29e
330
0
100
AcDbDictionary
280
0
281
1
0
DICTIONARY
5
29f
330
0
100
AcDbDictionary
280
0
281
1
3
Standard
350
18
0
MLINESTYLE
5
18
330
29f
100
AcDbMlineStyle
2
Standard
70
0
3

62
256
51
90
52
90
71
2
49
-0.5
62
256
6
ByLayer
49
0.5
62
256
6
ByLayer
0
RASTERVARIABLES
5
28b
330

100
AcDbRasterVariables
90
0
70
1
71
1
72
1
0
ENDSEC
0
EOF
