0
SECTION
2
HEADER
9
$ACADVER
1
AC1015
9
$DWGCODEPAGE
3
ANSI_1252
9
$HANDSEED
5
2b7
9
$ANGBASE
50
0
9
$ANGDIR
70
0
9
$ATTMODE
70
1
9
$AUNITS
70
0
9
$AUPREC
70
0
9
$CECOLOR
62
256
9
$CELTSCALE
40
1
9
$CELTYPE
6
ByLayer
9
$CELWEIGHT
370
18
9
$CLAYER
8
0
9
$CMLJUST
70
0
9
$CMLSCALE
40
1
9
$CMLSTYLE
2
Standard
9
$DIMSTYLE
2
Standard
9
$TEXTSIZE
40
0.2
9
$TEXTSTYLE
7
Standard
9
$LUNITS
70
2
9
$LUPREC
70
4
9
$EXTNAMES
290
1
9
$INSUNITS
70
4
9
$LTSCALE
40
1
9
$LWDISPLAY
290
1
9
$PDMODE
70
0
9
$PDSIZE
40
0
9
$PLINEGEN
70
0
0
ENDSEC
0
SECTION
2
CLASSES
0
CLASS
1
RASTERVARIABLES
2
AcDbRasterVariables
3
ISM
90
0
280
0
281
0
0
ENDSEC
0
SECTION
2
TABLES
0
TABLE
2
VPORT
5
2ad
100
AcDbSymbolTable
0
VPORT
5
1
100
AcDbSymbolTableRecord
100
AcDbViewportTableRecord
2
*Active
70
0
10
0
20
0
11
1
21
1
12
-1
22
1
13
0
23
0
14
0.5
24
0.5
15
10
25
10
16
0
26
0
36
1
17
0
27
0
37
0
0
ENDTAB
0
TABLE
2
LTYPE
5
2ae
100
AcDbSymbolTable
0
LTYPE
5
14
100
AcDbSymbolTableRecord
100
AcDbLinetypeTableRecord
70
0
2
ByBlock
3

72
65
73
0
40
0
0
LTYPE
5
15
100
AcDbSymbolTableRecord
100
AcDbLinetypeTableRecord
70
0
2
ByLayer
3

72
65
73
0
40
0
0
LTYPE
5
16
100
AcDbSymbolTableRecord
100
AcDbLinetypeTableRecord
70
0
2
Continuous
3
Solid line
72
65
73
0
40
0
0
LTYPE
5
6E
100
AcDbSymbolTableRecord
100
AcDbLinetypeTableRecord
70
0
2
CENTER
3
____ _ ____ _ ____ _ ____
72
65
73
4
40
47.5
49
22
74
0
49
-8.5
74
0
49
8.5
74
0
49
-8.5
74
0
0
LTYPE
5
6F
100
AcDbSymbolTableRecord
100
AcDbLinetypeTableRecord
70
0
2
DASHED
3
__ __ __ __ __ __ __ __ __
72
65
73
2
40
25.72
49
12.86
74
0
49
-12.86
74
0
0
ENDTAB
0
TABLE
2
LAYER
5
2af
100
AcDbSymbolTable
0
LAYER
5
10
100
AcDbSymbolTableRecord
100
AcDbLayerTableRecord
2
0
70
0
62
7
6
Continuous
290
1
370
-3
390
0
0
LAYER
5
71
100
AcDbSymbolTableRecord
100
AcDbLayerTableRecord
2
80
70
0
62
-6
6
Continuous
290
1
370
-3
390
0
0
LAYER
5
73
100
AcDbSymbolTableRecord
100
AcDbLayerTableRecord
2
81
70
0
62
-3
6
Continuous
290
1
370
-3
390
0
0
LAYER
5
7E
100
AcDbSymbolTableRecord
100
AcDbLayerTableRecord
2
4
70
0
62
-2
6
CENTER
290
1
370
-3
390
0
0
LAYER
5
82
100
AcDbSymbolTableRecord
100
AcDbLayerTableRecord
2
1
70
0
62
4
6
Continuous
290
1
370
-3
390
0
0
LAYER
5
1D5
100
AcDbSymbolTableRecord
100
AcDbLayerTableRecord
2
Defpoints
70
0
62
7
6
Continuous
290
0
370
-3
390
0
0
LAYER
5
1E3
100
AcDbSymbolTableRecord
100
AcDbLayerTableRecord
2
2
70
0
62
7
6
Continuous
290
1
370
-3
390
0
0
LAYER
5
299
100
AcDbSymbolTableRecord
100
AcDbLayerTableRecord
2
SK1
70
0
62
4
6
Continuous
290
1
370
-3
390
0
0
LAYER
5
29a
100
AcDbSymbolTableRecord
100
AcDbLayerTableRecord
2
SK4
70
0
62
2
6
CENTER
290
1
370
-3
390
0
0
LAYER
5
29b
100
AcDbSymbolTableRecord
100
AcDbLayerTableRecord
2
SK6
70
0
62
5
6
Continuous
290
1
370
-3
390
0
0
LAYER
5
29c
100
AcDbSymbolTableRecord
100
AcDbLayerTableRecord
2
SK2
70
0
62
7
6
Continuous
290
1
370
-3
390
0
0
ENDTAB
0
TABLE
2
STYLE
5
2b0
100
AcDbSymbolTable
0
STYLE
5
11
100
AcDbSymbolTableRecord
100
AcDbTextStyleTableRecord
2
Standard
3
txt
70
0
71
0
40
0
41
1
42
0
50
0
0
STYLE
5
1CE
100
AcDbSymbolTableRecord
100
AcDbTextStyleTableRecord
2
iso_b_vert
3
simplex.shx
70
0
71
0
40
0
41
1
42
0
50
0
0
STYLE
5
1CF
100
AcDbSymbolTableRecord
100
AcDbTextStyleTableRecord
2
DWGDirectTextStyle
3
simplex
70
0
71
0
40
0
41
1
42
0
50
0
0
ENDTAB
0
TABLE
2
DIMSTYLE
5
2b1
100
AcDbSymbolTable
100
AcDbDimStyleTable
0
DIMSTYLE
105
27
100
AcDbSymbolTableRecord
100
AcDbDimStyleTableRecord
2
Standard
70
0
3
<>
41
0.18
42
0.0625
44
0.18
140
0.18
147
0.09
73
0
74
0
77
1
271
2
275
0
278
52
280
0
340
11
0
ENDTAB
0
TABLE
2
VIEW
5
2b2
100
AcDbSymbolTable
0
ENDTAB
0
TABLE
2
UCS
5
2b3
100
AcDbSymbolTable
0
ENDTAB
0
TABLE
2
APPID
5
2b4
100
AcDbSymbolTable
0
APPID
5
12
100
AcDbSymbolTableRecord
100
AcDbRegAppTableRecord
2
ACAD
70
0
0
APPID
5
1D1
100
AcDbSymbolTableRecord
100
AcDbRegAppTableRecord
2
ACAD_DSTYLE_DIMBREAK
70
0
0
APPID
5
220
100
AcDbSymbolTableRecord
100
AcDbRegAppTableRecord
2
ACAD_DSTYLE_DIMANGULAR_EXTENSION
70
0
0
APPID
5
258
100
AcDbSymbolTableRecord
100
AcDbRegAppTableRecord
2
ACAD_DSTYLE_DIM_LINETYPE
70
0
0
APPID
5
259
100
AcDbSymbolTableRecord
100
AcDbRegAppTableRecord
2
ACAD_DSTYLE_DIM_EXT1_LINETYPE
70
0
0
APPID
5
25A
100
AcDbSymbolTableRecord
100
AcDbRegAppTableRecord
2
ACAD_DSTYLE_DIM_EXT2_LINETYPE
70
0
0
APPID
5
295
100
AcDbSymbolTableRecord
100
AcDbRegAppTableRecord
2
ACAD_MLEADERVER
70
0
0
ENDTAB
0
TABLE
2
BLOCK_RECORD
5
2b5
100
AcDbSymbolTable
0
BLOCK_RECORD
5
1F
100
AcDbSymbolTableRecord
100
AcDbBlockTableRecord
2
*Model_Space
340
0
70
0
0
BLOCK_RECORD
5
1B
100
AcDbSymbolTableRecord
100
AcDbBlockTableRecord
2
*Paper_Space
340
0
70
0
0
BLOCK_RECORD
5
23
100
AcDbSymbolTableRecord
100
AcDbBlockTableRecord
2
*Paper_Space0
340
0
70
0
0
BLOCK_RECORD
5
1D6
100
AcDbSymbolTableRecord
100
AcDbBlockTableRecord
2
*D1
340
0
70
0
0
BLOCK_RECORD
5
1E4
100
AcDbSymbolTableRecord
100
AcDbBlockTableRecord
2
_U0
340
0
70
0
0
BLOCK_RECORD
5
1F0
100
AcDbSymbolTableRecord
100
AcDbBlockTableRecord
2
*D3
340
0
70
0
0
BLOCK_RECORD
5
1FC
100
AcDbSymbolTableRecord
100
AcDbBlockTableRecord
2
_U1
340
0
70
0
0
BLOCK_RECORD
5
208
100
AcDbSymbolTableRecord
100
AcDbBlockTableRecord
2
*D5
340
0
70
0
0
BLOCK_RECORD
5
215
100
AcDbSymbolTableRecord
100
AcDbBlockTableRecord
2
_U2
340
0
70
0
0
BLOCK_RECORD
5
223
100
AcDbSymbolTableRecord
100
AcDbBlockTableRecord
2
*D7
340
0
70
0
0
BLOCK_RECORD
5
231
100
AcDbSymbolTableRecord
100
AcDbBlockTableRecord
2
_U3
340
0
70
0
0
ENDTAB
0
ENDSEC
0
SECTION
2
BLOCKS
0
BLOCK
5
20
100
AcDbEntity
8
0
100
AcDbBlockBegin
2
*Model_Space
70
0
10
0
20
0
30
0
3
*Model_Space
0
ENDBLK
5
21
100
AcDbEntity
8
0
100
AcDbBlockEnd
0
BLOCK
5
1C
100
AcDbEntity
8
0
100
AcDbBlockBegin
2
*Paper_Space
70
0
10
0
20
0
30
0
3
*Paper_Space
0
ENDBLK
5
1D
100
AcDbEntity
8
0
100
AcDbBlockEnd
0
BLOCK
5
24
100
AcDbEntity
8
0
100
AcDbBlockBegin
2
*Paper_Space0
70
0
10
0
20
0
30
0
3
*Paper_Space0
0
ENDBLK
5
25
100
AcDbEntity
8
0
100
AcDbBlockEnd
0
BLOCK
5
1D7
100
AcDbEntity
8
0
100
AcDbBlockBegin
2
*D1
70
1
10
0
20
0
30
0
3
*D1
0
LINE
5
1D9
100
AcDbEntity
8
0
62
256
6
ByLayer
370
-2
48
1
60
0
100
AcDbLine
10
23.988232
20
0
30
0
11
30.924644
21
0
31
0
39
0
210
0
220
0
230
1
0
LINE
5
1DA
100
AcDbEntity
8
0
62
256
6
ByLayer
370
-2
48
1
60
0
100
AcDbLine
10
21.5875
20
12.875
30
0
11
30.924644
21
12.875
31
0
39
0
210
0
220
0
230
1
0
LINE
5
1DB
100
AcDbEntity
8
0
62
256
6
ByLayer
370
-2
48
1
60
0
100
AcDbLine
10
28.924644
20
-3.175
30
0
11
28.924644
21
-6.35
31
0
39
0
210
0
220
0
230
1
0
LINE
5
1DC
100
AcDbEntity
8
0
62
256
6
ByLayer
370
-2
48
1
60
0
100
AcDbLine
10
28.924644
20
16.05
30
0
11
28.924644
21
19.225
31
0
39
0
210
0
220
0
230
1
0
SOLID
5
1DD
100
AcDbEntity
8
0
62
256
6
ByLayer
370
-1
48
1
60
0
100
AcDbTrace
10
29.453811
20
-3.175
30
0
11
28.395477
21
-3.175
31
0
12
28.924644
22
0
32
0
13
28.924644
23
0
33
0
39
0
210
0
220
0
230
1
0
SOLID
5
1DE
100
AcDbEntity
8
0
62
256
6
ByLayer
370
-1
48
1
60
0
100
AcDbTrace
10
28.395477
20
16.05
30
0
11
29.453811
21
16.05
31
0
12
28.924644
22
12.875
32
0
13
28.924644
23
12.875
33
0
39
0
210
0
220
0
230
1
0
MTEXT
5
1DF
100
AcDbEntity
8
0
62
256
6
ByLayer
370
18
48
1
60
0
100
AcDbMText
10
22.924644
20
6.4375
30
0
210
0
220
0
230
1
1
\A1;13
40
3
41
0
44
1
50
90
71
5
72
5
7
iso_b_vert
0
POINT
5
1E0
100
AcDbEntity
8
Defpoints
62
0
6
ByLayer
370
-1
48
1
60
0
100
AcDbPoint
10
22.400732
20
0
30
0
39
0
210
0
220
0
230
1
50
360
0
POINT
5
1E1
100
AcDbEntity
8
Defpoints
62
0
6
ByLayer
370
-1
48
1
60
0
100
AcDbPoint
10
20
20
12.875
30
0
39
0
210
0
220
0
230
1
50
360
0
POINT
5
1E2
100
AcDbEntity
8
Defpoints
62
0
6
ByLayer
370
-1
48
1
60
0
100
AcDbPoint
10
28.924644
20
12.875
30
0
39
0
210
0
220
0
230
1
50
360
0
ENDBLK
5
1D8
100
AcDbEntity
8
0
100
AcDbBlockEnd
0
BLOCK
5
1EB
100
AcDbEntity
8
0
100
AcDbBlockBegin
2
_U0
70
0
10
0
20
0
30
0
3
_U0
0
MTEXT
5
1E5
100
AcDbEntity
8
2
62
256
6
ByLayer
370
18
48
1
60
0
100
AcDbMText
10
28.33353
20
5.155615
30
0
210
0
220
0
230
1
1
\W0.6563;13
40
3
41
0
44
1.084337
50
90
71
7
72
5
7
iso_b_vert
0
LINE
5
1E6
100
AcDbEntity
8
2
62
256
6
ByLayer
370
13
48
1
60
0
100
AcDbLine
10
23.988232
20
0
30
0
11
30.924644
21
0
31
0
39
0
210
0
220
0
230
1
0
LINE
5
1E7
100
AcDbEntity
8
2
62
256
6
ByLayer
370
13
48
1
60
0
100
AcDbLine
10
21.5875
20
12.875
30
0
11
30.924644
21
12.875
31
0
39
0
210
0
220
0
230
1
0
LINE
5
1E8
100
AcDbEntity
8
2
62
256
6
ByLayer
370
13
48
1
60
0
100
AcDbLine
10
28.924644
20
0
30
0
11
28.924644
21
12.875
31
0
39
0
210
0
220
0
230
1
0
SOLID
5
1E9
100
AcDbEntity
8
2
62
256
6
ByLayer
370
18
48
1
60
0
100
AcDbTrace
10
28.924644
20
0
30
0
11
28.506647
21
3.174998
31
0
12
29.342641
22
3.175002
32
0
13
29.342641
23
3.175002
33
0
39
0
210
0
220
0
230
1
0
SOLID
5
1EA
100
AcDbEntity
8
2
62
256
6
ByLayer
370
18
48
1
60
0
100
AcDbTrace
10
28.924644
20
12.875
30
0
11
29.342641
21
9.700002
31
0
12
28.506647
22
9.699998
32
0
13
28.506647
23
9.699998
33
0
39
0
210
0
220
0
230
1
0
ENDBLK
5
1EC
100
AcDbEntity
8
0
100
AcDbBlockEnd
0
BLOCK
5
1F1
100
AcDbEntity
8
0
100
AcDbBlockBegin
2
*D3
70
1
10
0
20
0
30
0
3
*D3
0
LINE
5
1F3
100
AcDbEntity
8
0
62
256
6
ByLayer
370
-2
48
1
60
0
100
AcDbLine
10
0
20
1.5875
30
0
11
0
21
24.341525
31
0
39
0
210
0
220
0
230
1
0
LINE
5
1F4
100
AcDbEntity
8
0
62
256
6
ByLayer
370
-2
48
1
60
0
100
AcDbLine
10
20
20
14.4625
30
0
11
20
21
24.341525
31
0
39
0
210
0
220
0
230
1
0
LINE
5
1F5
100
AcDbEntity
8
0
62
256
6
ByLayer
370
-2
48
1
60
0
100
AcDbLine
10
3.175
20
22.341525
30
0
11
16.825
21
22.341525
31
0
39
0
210
0
220
0
230
1
0
SOLID
5
1F6
100
AcDbEntity
8
0
62
256
6
ByLayer
370
-1
48
1
60
0
100
AcDbTrace
10
3.175
20
22.870691
30
0
11
3.175
21
21.812358
31
0
12
0
22
22.341525
32
0
13
0
23
22.341525
33
0
39
0
210
0
220
0
230
1
0
SOLID
5
1F7
100
AcDbEntity
8
0
62
256
6
ByLayer
370
-1
48
1
60
0
100
AcDbTrace
10
16.825
20
21.812358
30
0
11
16.825
21
22.870691
31
0
12
20
22
22.341525
32
0
13
20
23
22.341525
33
0
39
0
210
0
220
0
230
1
0
MTEXT
5
1F8
100
AcDbEntity
8
0
62
256
6
ByLayer
370
18
48
1
60
0
100
AcDbMText
10
10
20
28.341525
30
0
210
0
220
0
230
1
1
\A1;20
40
3
41
0
44
1
50
0
71
5
72
5
7
iso_b_vert
0
POINT
5
1F9
100
AcDbEntity
8
Defpoints
62
0
6
ByLayer
370
-1
48
1
60
0
100
AcDbPoint
10
0
20
0
30
0
39
0
210
0
220
0
230
1
50
360
0
POINT
5
1FA
100
AcDbEntity
8
Defpoints
62
0
6
ByLayer
370
-1
48
1
60
0
100
AcDbPoint
10
20
20
12.875
30
0
39
0
210
0
220
0
230
1
50
360
0
POINT
5
1FB
100
AcDbEntity
8
Defpoints
62
0
6
ByLayer
370
-1
48
1
60
0
100
AcDbPoint
10
20
20
22.341525
30
0
39
0
210
0
220
0
230
1
50
360
0
ENDBLK
5
1F2
100
AcDbEntity
8
0
100
AcDbBlockEnd
0
BLOCK
5
203
100
AcDbEntity
8
0
100
AcDbBlockBegin
2
_U1
70
0
10
0
20
0
30
0
3
_U1
0
MTEXT
5
1FD
100
AcDbEntity
8
2
62
256
6
ByLayer
370
18
48
1
60
0
100
AcDbMText
10
8.367172
20
23.226639
30
0
210
0
220
0
230
1
1
\W0.7335;20
40
3
41
0
44
1.084337
50
0
71
7
72
5
7
iso_b_vert
0
LINE
5
1FE
100
AcDbEntity
8
2
62
256
6
ByLayer
370
13
48
1
60
0
100
AcDbLine
10
0
20
1.5875
30
0
11
0
21
24.341525
31
0
39
0
210
0
220
0
230
1
0
LINE
5
1FF
100
AcDbEntity
8
2
62
256
6
ByLayer
370
13
48
1
60
0
100
AcDbLine
10
20
20
14.4625
30
0
11
20
21
24.341525
31
0
39
0
210
0
220
0
230
1
0
LINE
5
200
100
AcDbEntity
8
2
62
256
6
ByLayer
370
13
48
1
60
0
100
AcDbLine
10
0
20
22.341525
30
0
11
20
21
22.341525
31
0
39
0
210
0
220
0
230
1
0
SOLID
5
201
100
AcDbEntity
8
2
62
256
6
ByLayer
370
18
48
1
60
0
100
AcDbTrace
10
0
20
22.341525
30
0
11
3.174998
21
22.759521
31
0
12
3.175002
22
21.923528
32
0
13
3.175002
23
21.923528
33
0
39
0
210
0
220
0
230
1
0
SOLID
5
202
100
AcDbEntity
8
2
62
256
6
ByLayer
370
18
48
1
60
0
100
AcDbTrace
10
20
20
22.341525
30
0
11
16.825002
21
21.923528
31
0
12
16.824998
22
22.759521
32
0
13
16.824998
23
22.759521
33
0
39
0
210
0
220
0
230
1
0
ENDBLK
5
204
100
AcDbEntity
8
0
100
AcDbBlockEnd
0
BLOCK
5
209
100
AcDbEntity
8
0
100
AcDbBlockBegin
2
*D5
70
1
10
0
20
0
30
0
3
*D5
0
LINE
5
20B
100
AcDbEntity
8
0
62
256
6
ByLayer
370
-2
48
1
60
0
100
AcDbLine
10
2.823222
20
10
30
0
11
-10.802326
21
10
31
0
39
0
210
0
220
0
230
1
0
LINE
5
20C
100
AcDbEntity
8
0
62
256
6
ByLayer
370
-2
48
1
60
0
100
AcDbLine
10
2.823222
20
-10
30
0
11
-10.802326
21
-10
31
0
39
0
210
0
220
0
230
1
0
LINE
5
20D
100
AcDbEntity
8
0
62
256
6
ByLayer
370
-2
48
1
60
0
100
AcDbLine
10
-8.802326
20
6.825
30
0
11
-8.802326
21
-6.825
31
0
39
0
210
0
220
0
230
1
0
SOLID
5
20E
100
AcDbEntity
8
0
62
256
6
ByLayer
370
-1
48
1
60
0
100
AcDbTrace
10
-8.273159
20
6.825
30
0
11
-9.331493
21
6.825
31
0
12
-8.802326
22
10
32
0
13
-8.802326
23
10
33
0
39
0
210
0
220
0
230
1
0
SOLID
5
20F
100
AcDbEntity
8
0
62
256
6
ByLayer
370
-1
48
1
60
0
100
AcDbTrace
10
-9.331493
20
-6.825
30
0
11
-8.273159
21
-6.825
31
0
12
-8.802326
22
-10
32
0
13
-8.802326
23
-10
33
0
39
0
210
0
220
0
230
1
0
MTEXT
5
210
100
AcDbEntity
8
0
62
256
6
ByLayer
370
18
48
1
60
0
100
AcDbMText
10
-14.802326
20
0
30
0
210
0
220
0
230
1
1
\A1;20
40
3
41
0
44
1
50
90
71
5
72
5
7
iso_b_vert
0
POINT
5
211
100
AcDbEntity
8
Defpoints
62
0
6
ByLayer
370
-1
48
1
60
0
100
AcDbPoint
10
4.410722
20
10
30
0
39
0
210
0
220
0
230
1
50
360
0
POINT
5
212
100
AcDbEntity
8
Defpoints
62
0
6
ByLayer
370
-1
48
1
60
0
100
AcDbPoint
10
4.410722
20
-10
30
0
39
0
210
0
220
0
230
1
50
360
0
POINT
5
213
100
AcDbEntity
8
Defpoints
62
0
6
ByLayer
370
-1
48
1
60
0
100
AcDbPoint
10
-8.802326
20
-10
30
0
39
0
210
0
220
0
230
1
50
360
0
ENDBLK
5
20A
100
AcDbEntity
8
0
100
AcDbBlockEnd
0
BLOCK
5
21D
100
AcDbEntity
8
0
100
AcDbBlockBegin
2
_U2
70
0
10
0
20
0
30
0
3
_U2
0
MTEXT
5
216
100
AcDbEntity
8
SK2
62
256
6
ByLayer
370
18
48
1
60
0
100
AcDbMText
10
-10.14344
20
2.843172
30
0
210
0
220
0
230
1
1
\W0.7335;20
40
3
41
0
44
1.084337
50
90
71
7
72
5
7
iso_b_vert
0
MTEXT
5
217
100
AcDbEntity
8
SK2
62
256
6
ByLayer
370
18
48
1
60
0
100
AcDbMText
10
-10.14344
20
-6.156828
30
0
210
0
220
0
230
1
1
%%c
40
3
41
0
44
1.084337
50
90
71
7
72
5
7
iso_b_vert
0
LINE
5
218
100
AcDbEntity
8
SK2
62
256
6
ByLayer
370
13
48
1
60
0
100
AcDbLine
10
2.823222
20
10
30
0
11
-10.802326
21
10
31
0
39
0
210
0
220
0
230
1
0
LINE
5
219
100
AcDbEntity
8
SK2
62
256
6
ByLayer
370
13
48
1
60
0
100
AcDbLine
10
2.823222
20
-10
30
0
11
-10.802326
21
-10
31
0
39
0
210
0
220
0
230
1
0
LINE
5
21A
100
AcDbEntity
8
SK2
62
256
6
ByLayer
370
13
48
1
60
0
100
AcDbLine
10
-8.802326
20
10
30
0
11
-8.802326
21
-10
31
0
39
0
210
0
220
0
230
1
0
SOLID
5
21B
100
AcDbEntity
8
SK2
62
256
6
ByLayer
370
18
48
1
60
0
100
AcDbTrace
10
-8.802326
20
10
30
0
11
-8.384329
21
6.825002
31
0
12
-9.220323
22
6.824998
32
0
13
-9.220323
23
6.824998
33
0
39
0
210
0
220
0
230
1
0
SOLID
5
21C
100
AcDbEntity
8
SK2
62
256
6
ByLayer
370
18
48
1
60
0
100
AcDbTrace
10
-8.802326
20
-10
30
0
11
-9.220323
21
-6.825002
31
0
12
-8.384329
22
-6.824998
32
0
13
-8.384329
23
-6.824998
33
0
39
0
210
0
220
0
230
1
0
ENDBLK
5
21E
100
AcDbEntity
8
0
100
AcDbBlockEnd
0
BLOCK
5
224
100
AcDbEntity
8
0
100
AcDbBlockBegin
2
*D7
70
1
10
0
20
0
30
0
3
*D7
0
LINE
5
226
100
AcDbEntity
8
0
62
256
6
ByLayer
370
-2
48
1
60
0
100
AcDbLine
10
19.163043
20
2.487139
30
0
11
17.940172
21
-11.490328
31
0
39
0
210
0
220
0
230
1
0
LINE
5
227
100
AcDbEntity
8
0
62
256
6
ByLayer
370
-2
48
1
60
0
100
AcDbLine
10
26.5875
20
12.875
30
0
11
44.530264
21
12.875
31
0
39
0
210
0
220
0
230
1
0
ARC
5
228
100
AcDbEntity
8
0
62
256
6
ByLayer
370
-2
48
1
60
0
100
AcDbCircle
39
0
10
20.071864
20
12.875
30
0
40
22.458399763753
210
0
220
0
230
1
100
AcDbArc
50
273.106804
51
351.893192
0
SOLID
5
229
100
AcDbEntity
8
0
62
256
6
ByLayer
370
-1
48
1
60
0
100
AcDbTrace
10
21.297793
20
-9.021297
30
0
11
21.280308
21
-10.079486
31
0
12
18.114484
22
-9.497939
32
0
13
18.114484
23
-9.497939
33
0
39
0
210
0
220
0
230
1
0
SOLID
5
22A
100
AcDbEntity
8
0
62
256
6
ByLayer
370
-1
48
1
60
0
100
AcDbTrace
10
42.833678
20
9.670537
30
0
11
41.777992
21
9.745347
31
0
12
42.530264
22
12.875
32
0
13
42.530264
23
12.875
33
0
39
0
210
0
220
0
230
1
0
MTEXT
5
22B
100
AcDbEntity
8
0
62
256
6
ByLayer
370
18
48
1
60
0
100
AcDbMText
10
31.190997
20
0.740594
30
0
210
0
220
0
230
1
1
\A1;95%%d
40
3
41
0
44
1
50
42.4999979873894
71
5
72
5
7
iso_b_vert
0
POINT
5
22C
100
AcDbEntity
8
Defpoints
62
0
6
ByLayer
370
-1
48
1
60
0
100
AcDbPoint
10
30.151174
20
-7.19456
30
0
39
0
210
0
220
0
230
1
50
360
0
POINT
5
22D
100
AcDbEntity
8
Defpoints
62
0
6
ByLayer
370
-1
48
1
60
0
100
AcDbPoint
10
19.301403
20
4.068598
30
0
39
0
210
0
220
0
230
1
50
360
0
POINT
5
22E
100
AcDbEntity
8
Defpoints
62
0
6
ByLayer
370
-1
48
1
60
0
100
AcDbPoint
10
20
20
12.875
30
0
39
0
210
0
220
0
230
1
50
360
0
POINT
5
22F
100
AcDbEntity
8
Defpoints
62
0
6
ByLayer
370
-1
48
1
60
0
100
AcDbPoint
10
25
20
12.875
30
0
39
0
210
0
220
0
230
1
50
360
0
POINT
5
230
100
AcDbEntity
8
Defpoints
62
0
6
ByLayer
370
-1
48
1
60
0
100
AcDbPoint
10
19.997038
20
12.019736
30
0
39
0
210
0
220
0
230
1
50
360
0
ENDBLK
5
225
100
AcDbEntity
8
0
100
AcDbBlockEnd
0
BLOCK
5
238
100
AcDbEntity
8
0
100
AcDbBlockBegin
2
_U3
70
0
10
0
20
0
30
0
3
_U3
0
MTEXT
5
232
100
AcDbEntity
8
SK2
62
256
6
ByLayer
370
18
48
1
60
0
100
AcDbMText
10
34.89966
20
-7.061402
30
0
210
0
220
0
230
1
1
\W0.8725;95%%d
40
3
41
0
44
1.084337
50
42.4999979873894
71
7
72
5
7
iso_b_vert
0
LINE
5
233
100
AcDbEntity
8
SK2
62
256
6
ByLayer
370
13
48
1
60
0
100
AcDbLine
10
26.5875
20
12.875
30
0
11
47.530264
21
12.875
31
0
39
0
210
0
220
0
230
1
0
LINE
5
234
100
AcDbEntity
8
SK2
62
256
6
ByLayer
370
13
48
1
60
0
100
AcDbLine
10
19.163043
20
2.487139
30
0
11
17.678705
21
-14.478912
31
0
39
0
210
0
220
0
230
1
0
ARC
5
235
100
AcDbEntity
8
SK2
62
256
6
ByLayer
370
13
48
1
60
0
100
AcDbCircle
39
0
10
20.071864
20
12.875
30
0
40
25.458399763753
210
0
220
0
230
1
100
AcDbArc
50
264.999996
51
359.999943
0
SOLID
5
236
100
AcDbEntity
8
SK2
62
256
6
ByLayer
370
18
48
1
60
0
100
AcDbTrace
10
45.530264
20
12.875
30
0
11
45.849211
21
9.688527
31
0
12
45.013622
22
9.714551
32
0
13
45.013622
23
9.714551
33
0
39
0
210
0
220
0
230
1
0
SOLID
5
237
100
AcDbEntity
8
SK2
62
256
6
ByLayer
370
18
48
1
60
0
100
AcDbTrace
10
17.853016
20
-12.486523
30
0
11
21.046464
21
-12.247299
31
0
12
20.999569
22
-13.081976
32
0
13
20.999569
23
-13.081976
33
0
39
0
210
0
220
0
230
1
0
ENDBLK
5
239
100
AcDbEntity
8
0
100
AcDbBlockEnd
0
ENDSEC
0
SECTION
2
ENTITIES
0
ARC
5
112
100
AcDbEntity
8
1
62
256
6
ByLayer
370
13
48
1
60
0
100
AcDbCircle
39
0
10
14.55
20
-0.1
30
0
40
4.00000000000233
210
0
220
0
230
1
100
AcDbArc
50
306.428069
51
351.107382
0
ELLIPSE
5
113
100
AcDbEntity
8
1
62
256
6
ByLayer
370
13
48
1
60
0
100
AcDbEllipse
10
9.93631
20
3.783063
30
0
11
-1.56892040109597
21
0.137364477527806
31
0
210
0
220
0
230
1
40
0.990268
41
-1.39620094329839
42
-0.00405610240961848
0
ELLIPSE
5
114
100
AcDbEntity
8
1
62
256
6
ByLayer
370
13
48
1
60
0
100
AcDbEllipse
10
9.63829
20
3.134793
30
0
11
-1.49428726859
21
0.130791157994309
31
0
210
0
220
0
230
1
40
0.990271
41
-0.47411016328036
42
0.0408707174281298
0
ELLIPSE
5
115
100
AcDbEntity
8
1
62
256
6
ByLayer
370
13
48
1
60
0
100
AcDbEllipse
10
9.93752
20
3.796923
30
0
11
-1.66853956838559
21
0.146086484597483
31
0
210
0
220
0
230
1
40
0.990268
41
-1.39620094331242
42
-0.0183165476928115
0
ELLIPSE
5
116
100
AcDbEntity
8
1
62
256
6
ByLayer
370
13
48
1
60
0
100
AcDbEllipse
10
9.63951
20
3.148653
30
0
11
-1.59394570156587
21
0.13900429014527
31
0
210
0
220
0
230
1
40
0.990273
41
-0.459475808111205
42
-0.152368062771919
0
ELLIPSE
5
117
100
AcDbEntity
8
1
62
256
6
ByLayer
370
13
48
1
60
0
100
AcDbEllipse
10
9.68135
20
3.626963
30
0
11
-1.59394570176792
21
0.139004282474676
31
0
210
0
220
0
230
1
40
0.990273
41
-0.4594758129189
42
2.60118431608823
0
ELLIPSE
5
118
100
AcDbEntity
8
1
62
256
6
ByLayer
370
13
48
1
60
0
100
AcDbEllipse
10
9.97937
20
4.275243
30
0
11
-1.66853956838559
21
0.146086484597504
31
0
210
0
220
0
230
1
40
0.990268
41
-1.39620094331241
42
-0.0183165476928005
0
ELLIPSE
5
119
100
AcDbEntity
8
1
62
256
6
ByLayer
370
13
48
1
60
0
100
AcDbEllipse
10
12.750408
20
-12.100369
30
0
11
-5.38724059075455
21
5.91496222712568
31
0
210
0
220
0
230
1
40
0.999962
41
0.09535826736055
42
0.104589704361622
0
ELLIPSE
5
11A
100
AcDbEntity
8
1
62
256
6
ByLayer
370
13
48
1
60
0
100
AcDbEllipse
10
-190.062021
20
-4.596197
30
0
11
-247.307701671132
21
0.414638145429443
31
0
210
0
220
0
230
1
40
0.012011
41
-2.56248408379147
42
-2.49257048317461
0
ELLIPSE
5
11B
100
AcDbEntity
8
1
62
256
6
ByLayer
370
13
48
1
60
0
100
AcDbEllipse
10
5.51839
20
3E-06
30
0
11
0.527483229980479
21
9.99997437227537
31
0
210
0
220
0
230
1
40
0.004849
41
-1.11951778424245
42
-0.179599198149768
0
ELLIPSE
5
11C
100
AcDbEntity
8
1
62
256
6
ByLayer
370
13
48
1
60
0
100
AcDbEllipse
10
5.51839
20
3E-06
30
0
11
0.527490304958052
21
10.0000331196046
31
0
210
0
220
0
230
1
40
0.004855
41
-2.6820329385968
42
-2.02156890156025
0
ELLIPSE
5
11D
100
AcDbEntity
8
1
62
256
6
ByLayer
370
13
48
1
60
0
100
AcDbEllipse
10
14.82398
20
7.534993
30
0
11
-1.2853597497319
21
0.112886998044157
31
0
210
0
220
0
230
1
40
0.990265
41
-1.221397268578
42
-0.174199717386216
0
ELLIPSE
5
11E
100
AcDbEntity
8
1
62
256
6
ByLayer
370
13
48
1
60
0
100
AcDbEllipse
10
14.82398
20
7.534993
30
0
11
-1.2853408695442
21
0.112968155005656
31
0
210
0
220
0
230
1
40
0.990274
41
-0.174135523477351
42
0.526619975164792
0
ELLIPSE
5
11F
100
AcDbEntity
8
1
62
256
6
ByLayer
370
13
48
1
60
0
100
AcDbEllipse
10
14.82398
20
7.534993
30
0
11
-1.28538264010893
21
0.112588501624312
31
0
210
0
220
0
230
1
40
0.990263
41
2.25793322805887
42
2.92010537085192
0
ELLIPSE
5
120
100
AcDbEntity
8
1
62
256
6
ByLayer
370
13
48
1
60
0
100
AcDbEllipse
10
14.82398
20
7.534993
30
0
11
-1.28543517471556
21
0.111959140604839
31
0
210
0
220
0
230
1
40
0.990268
41
-3.11520464849421
42
-2.26931441839293
0
ELLIPSE
5
121
100
AcDbEntity
8
1
62
256
6
ByLayer
370
13
48
1
60
0
100
AcDbEllipse
10
14.82398
20
7.534993
30
0
11
-1.28543420930014
21
0.111951625268293
31
0
210
0
220
0
230
1
40
0.990265
41
-2.26932123670185
42
-1.22212368550778
0
ELLIPSE
5
122
100
AcDbEntity
8
1
62
256
6
ByLayer
370
13
48
1
60
0
100
AcDbEllipse
10
14.82398
20
7.534993
30
0
11
-1.28539314482101
21
0.112322035659077
31
0
210
0
220
0
230
1
40
0.990273
41
1.06321792653105
42
1.67188543118589
0
ELLIPSE
5
123
100
AcDbEntity
8
1
62
256
6
ByLayer
370
13
48
1
60
0
100
AcDbEllipse
10
14.43889
20
8.954243
30
0
11
0.380756377704508
21
0.0999530461056343
31
0
210
0
220
0
230
1
40
0.486055
41
-2.84865540015393
42
-1.56679197429006
0
ELLIPSE
5
124
100
AcDbEntity
8
1
62
256
6
ByLayer
370
13
48
1
60
0
100
AcDbEllipse
10
14.43889
20
8.954243
30
0
11
0.380756087217384
21
0.0999539032989943
31
0
210
0
220
0
230
1
40
0.486046
41
-1.56679727131297
42
-0.284933845446848
0
ELLIPSE
5
125
100
AcDbEntity
8
1
62
256
6
ByLayer
370
13
48
1
60
0
100
AcDbEllipse
10
15.87187
20
8.572833
30
0
11
-0.279724016761359
21
0.275373933917697
31
0
210
0
220
0
230
1
40
0.488857
41
0.377823058669808
42
1.56460753009713
0
ELLIPSE
5
126
100
AcDbEntity
8
1
62
256
6
ByLayer
370
13
48
1
60
0
100
AcDbEllipse
10
15.87187
20
8.572833
30
0
11
-0.279724455365912
21
0.275374851427991
31
0
210
0
220
0
230
1
40
0.488854
41
1.5646040318163
42
2.84646745768138
0
ELLIPSE
5
127
100
AcDbEntity
8
1
62
256
6
ByLayer
370
13
48
1
60
0
100
AcDbEllipse
10
15.20668
20
8.953683
30
0
11
-0.38083339339235
21
0.100945821076854
31
0
210
0
220
0
230
1
40
0.485236
41
-2.73495736249897
42
-0.0257909829683602
0
ELLIPSE
5
128
100
AcDbEntity
8
1
62
256
6
ByLayer
370
13
48
1
60
0
100
AcDbEllipse
10
13.77425
20
8.574673
30
0
11
0.27926039157065
21
0.274896472216823
31
0
210
0
220
0
230
1
40
0.490513
41
-0.189673424469348
42
2.20010721454317
0
ELLIPSE
5
129
100
AcDbEntity
8
1
62
256
6
ByLayer
370
13
48
1
60
0
100
AcDbEllipse
10
13.39101
20
7.916403
30
0
11
0.102079857018429
21
0.376799686509536
31
0
210
0
220
0
230
1
40
0.494243
41
-1.56860205639055
42
-1.22093694636434
0
ELLIPSE
5
12A
100
AcDbEntity
8
1
62
256
6
ByLayer
370
13
48
1
60
0
100
AcDbEllipse
10
13.39101
20
7.916403
30
0
11
0.10207834292666
21
0.376799831899836
31
0
210
0
220
0
230
1
40
0.494235
41
-2.85047559812621
42
-1.5686121722604
0
ELLIPSE
5
12B
100
AcDbEntity
8
1
62
256
6
ByLayer
370
13
48
1
60
0
100
AcDbEllipse
10
16.25696
20
7.153583
30
0
11
0.102076833771041
21
0.376801508642517
31
0
210
0
220
0
230
1
40
0.494236
41
1.92064711039386
42
2.85484418312627
0
ELLIPSE
5
12C
100
AcDbEntity
8
1
62
256
6
ByLayer
370
13
48
1
60
0
100
AcDbEllipse
10
16.25641
20
7.914003
30
0
11
-0.103079417631582
21
0.376875294856798
31
0
210
0
220
0
230
1
40
0.493392
41
-1.89147295315963
42
0.191788230551173
0
ELLIPSE
5
12D
100
AcDbEntity
8
1
62
256
6
ByLayer
370
13
48
1
60
0
100
AcDbEllipse
10
13.39156
20
7.155983
30
0
11
-0.103078273862719
21
0.376877476629364
31
0
210
0
220
0
230
1
40
0.493392
41
-0.199998826765084
42
0.589658781067691
0
ELLIPSE
5
12E
100
AcDbEntity
8
1
62
256
6
ByLayer
370
13
48
1
60
0
100
AcDbEllipse
10
15.87371
20
6.495313
30
0
11
0.279256978581291
21
0.274898424191132
31
0
210
0
220
0
230
1
40
0.490523
41
-0.0854714996696087
42
0.202115131897788
0
ELLIPSE
5
12F
100
AcDbEntity
8
1
62
256
6
ByLayer
370
13
48
1
60
0
100
AcDbEllipse
10
14.82489
20
7.545393
30
0
11
-2.61498917413702
21
0.22896828450504
31
0
210
0
220
0
230
1
40
0.990273
41
0.000158147646007168
42
-3.1415324899828
0
ELLIPSE
5
130
100
AcDbEntity
8
1
62
256
6
ByLayer
370
13
48
1
60
0
100
AcDbEllipse
10
14.84309
20
7.753353
30
0
11
-1.66995693538749
21
0.14677192508599
31
0
210
0
220
0
230
1
40
0.990274
41
-1.74493185032319
42
-0.697734299128081
0
ELLIPSE
5
131
100
AcDbEntity
8
1
62
256
6
ByLayer
370
13
48
1
60
0
100
AcDbEllipse
10
14.84309
20
7.753353
30
0
11
-1.66998146513606
21
0.146666483096915
31
0
210
0
220
0
230
1
40
0.990265
41
-2.79219359555219
42
-1.74499604435415
0
ELLIPSE
5
132
100
AcDbEntity
8
1
62
256
6
ByLayer
370
13
48
1
60
0
100
AcDbEllipse
10
14.84309
20
7.753353
30
0
11
-1.67007820541885
21
0.145451216560764
31
0
210
0
220
0
230
1
40
0.990265
41
2.44306774374139
42
-2.79292001224099
0
ELLIPSE
5
133
100
AcDbEntity
8
1
62
256
6
ByLayer
370
13
48
1
60
0
100
AcDbEllipse
10
14.84309
20
7.753353
30
0
11
-1.66995693538749
21
0.14677192508599
31
0
210
0
220
0
230
1
40
0.990274
41
1.3966608032666
42
2.44385835446171
0
ELLIPSE
5
134
100
AcDbEntity
8
1
62
256
6
ByLayer
370
13
48
1
60
0
100
AcDbEllipse
10
14.84309
20
7.753353
30
0
11
-1.66998146514655
21
0.146666483004677
31
0
210
0
220
0
230
1
40
0.990265
41
0.349399057982716
42
1.39659660917971
0
ELLIPSE
5
135
100
AcDbEntity
8
1
62
256
6
ByLayer
370
13
48
1
60
0
100
AcDbEllipse
10
14.84309
20
7.753353
30
0
11
-1.67007820541885
21
0.145451216560764
31
0
210
0
220
0
230
1
40
0.990265
41
-0.698524909848407
42
0.348672641348807
0
ELLIPSE
5
136
100
AcDbEntity
8
1
62
256
6
ByLayer
370
13
48
1
60
0
100
AcDbEllipse
10
14.84309
20
7.753353
30
0
11
-1.79312448571165
21
0.157088052522973
31
0
210
0
220
0
230
1
40
0.990273
41
0
42
6.28318530717959
0
ELLIPSE
5
137
100
AcDbEntity
8
1
62
256
6
ByLayer
370
13
48
1
60
0
100
AcDbEllipse
10
14.83974
20
7.715173
30
0
11
-2.61497320832967
21
0.22908674326073
31
0
210
0
220
0
230
1
40
0.990273
41
0
42
6.28318530717959
0
ELLIPSE
5
138
100
AcDbEntity
8
1
62
256
6
ByLayer
370
13
48
1
60
0
100
AcDbEllipse
10
14.83075
20
7.612363
30
0
11
-2.90997596415128
21
0.254199778849124
31
0
210
0
220
0
230
1
40
0.990264
41
-1.4845070198447
42
-0.000132290305929347
0
ELLIPSE
5
139
100
AcDbEntity
8
1
62
256
6
ByLayer
370
13
48
1
60
0
100
AcDbEllipse
10
14.83075
20
7.612363
30
0
11
-2.90989015017697
21
0.254923169192209
31
0
210
0
220
0
230
1
40
0.990273
41
0.000112661760354367
42
1.23547331619833
0
ELLIPSE
5
13A
100
AcDbEntity
8
1
62
256
6
ByLayer
370
13
48
1
60
0
100
AcDbEllipse
10
14.83075
20
7.612363
30
0
11
-2.90999284511218
21
0.254051013703673
31
0
210
0
220
0
230
1
40
0.990265
41
1.9060060432518
42
-1.48455787190948
0
ELLIPSE
5
13B
100
AcDbEntity
8
1
62
256
6
ByLayer
370
13
48
1
60
0
100
AcDbEllipse
10
14.8338
20
7.647233
30
0
11
-2.99846496128803
21
0.263003681147444
31
0
210
0
220
0
230
1
40
0.990262
41
2.63869458811958
42
-3.14137264091517
0
ELLIPSE
5
13C
100
AcDbEntity
8
1
62
256
6
ByLayer
370
13
48
1
60
0
100
AcDbEllipse
10
14.8338
20
7.647233
30
0
11
-2.99846352220286
21
0.262682707752804
31
0
210
0
220
0
230
1
40
0.990273
41
-3.14147999181543
42
-1.48426217627328
0
ELLIPSE
5
13D
100
AcDbEntity
8
1
62
256
6
ByLayer
370
13
48
1
60
0
100
AcDbEllipse
10
14.8338
20
7.647233
30
0
11
-2.99855194825056
21
0.261937298287062
31
0
210
0
220
0
230
1
40
0.990264
41
-1.48450701984272
42
0.503041144515406
0
ELLIPSE
5
13E
100
AcDbEntity
8
1
62
256
6
ByLayer
370
13
48
1
60
0
100
AcDbEllipse
10
10.43444
20
2.898633
30
0
11
-0.305275068573214
21
0.0267784297559599
31
0
210
0
220
0
230
1
40
0.990273
41
1.0628848704106
42
1.74555547598009
0
ELLIPSE
5
13F
100
AcDbEntity
8
1
62
256
6
ByLayer
370
13
48
1
60
0
100
AcDbEllipse
10
14.84445
20
7.768893
30
0
11
-3.05959371411876
21
0.268038065336658
31
0
210
0
220
0
230
1
40
0.990273
41
0
42
6.28318530717959
0
ELLIPSE
5
140
100
AcDbEntity
8
1
62
256
6
ByLayer
370
13
48
1
60
0
100
AcDbEllipse
10
10.48258
20
3.448873
30
0
11
-0.790718089184383
21
0.0692714676142736
31
0
210
0
220
0
230
1
40
0.990273
41
0.0001126617887211
42
1.74544191378341
0
ELLIPSE
5
141
100
AcDbEntity
8
1
62
256
6
ByLayer
370
13
48
1
60
0
100
AcDbEllipse
10
18.51067
20
4.137773
30
0
11
-0.790727140349132
21
0.0692309313301098
31
0
210
0
220
0
230
1
40
0.990268
41
1.74539171033162
42
-3.14153019525418
0
ELLIPSE
5
142
100
AcDbEntity
8
1
62
256
6
ByLayer
370
13
48
1
60
0
100
AcDbEllipse
10
19.20631
20
12.088913
30
0
11
-0.790718089184383
21
0.0692714676142736
31
0
210
0
220
0
230
1
40
0.990273
41
-3.14147999180107
42
-1.39615073980638
0
ELLIPSE
5
143
100
AcDbEntity
8
1
62
256
6
ByLayer
370
13
48
1
60
0
100
AcDbEllipse
10
11.17822
20
11.400013
30
0
11
-0.790727140349036
21
0.0692309313316441
31
0
210
0
220
0
230
1
40
0.990268
41
-1.39620094325622
42
6.24583374770601E-05
0
POINT
5
70
100
AcDbEntity
8
80
62
256
6
ByLayer
370
18
48
1
60
0
100
AcDbPoint
10
0
20
0
30
0
39
0
210
0
220
0
230
1
50
360
0
POINT
5
72
100
AcDbEntity
8
81
62
256
6
ByLayer
370
18
48
1
60
0
100
AcDbPoint
10
20
20
12.875
30
0
39
0
210
0
220
0
230
1
50
360
0
SPLINE
5
144
100
AcDbEntity
8
1
62
256
6
ByLayer
370
13
48
1
60
0
100
AcDbSpline
70
4
71
3
72
8
73
4
40
0
40
0
40
0
40
0
40
1
40
1
40
1
40
1
41
1
10
8.3679565523023
20
3.9267232605136
30
0
41
1
10
8.3359168580989
20
3.94224197602591
30
0
41
1
10
8.30390474886062
20
3.95774919707489
30
0
41
1
10
8.2719154096194
20
3.9732469256964
30
0
0
SPLINE
5
145
100
AcDbEntity
8
1
62
256
6
ByLayer
370
13
48
1
60
0
100
AcDbSpline
70
4
71
3
72
8
73
4
40
0
40
0
40
0
40
0
40
1
40
1
40
1
40
1
41
1
10
10.3799828154761
20
11.3835219811938
30
0
41
1
10
9.48945337219601
20
11.3043841133981
30
0
41
1
10
8.59892939567982
20
11.225186946456
30
0
41
1
10
7.70841125655681
20
11.1459264600743
30
0
0
SPLINE
5
146
100
AcDbEntity
8
1
62
256
6
ByLayer
370
13
48
1
60
0
100
AcDbSpline
70
4
71
3
72
24
73
20
40
0
40
0
40
0
40
0
40
0.125000000000001
40
0.125000000000001
40
0.187500000000001
40
0.187500000000001
40
0.250000000000001
40
0.250000000000001
40
0.375000000000003
40
0.500000000000005
40
0.500000000000005
40
0.562500000000006
40
0.593750000000006
40
0.593750000000006
40
0.625000000000005
40
0.625000000000005
40
0.750000000000004
40
0.875000000000002
40
1
40
1
40
1
40
1
41
1
10
7.7084112565567
20
11.1459264600743
30
0
41
1
10
7.64937809371321
20
11.1406722187579
30
0
41
1
10
7.5904736470965
20
11.1354394177008
30
0
41
1
10
7.50231307631989
20
11.1276041400399
30
0
41
1
10
7.4729589994507
20
11.1249944490333
30
0
41
1
10
7.414318124115
20
11.1197729392483
30
0
41
1
10
7.38498853927422
20
11.1171572482585
30
0
41
1
10
7.29819278290881
20
11.1093916638086
30
0
41
1
10
7.1849384217181
20
11.0991936090105
30
0
41
1
10
7.07648660383012
20
11.0891243649026
30
0
41
1
10
6.9969613207474
20
11.0815364723904
30
0
41
1
10
6.95765302176741
20
11.077733235977
30
0
41
1
10
6.91903776382802
20
11.0738973768402
30
0
41
1
10
6.8934502225938
20
11.0713305789808
30
0
41
1
10
6.88072480880311
20
11.0700413863707
30
0
41
1
10
6.81787195235512
20
11.0636047890624
30
0
41
1
10
6.72166412176742
20
11.0533082978388
30
0
41
1
10
6.58997691843641
20
11.0374304189682
30
0
41
1
10
6.51059509426491
20
11.0262514539629
30
0
41
1
10
6.47307564350172
20
11.0204291308142
30
0
0
SPLINE
5
147
100
AcDbEntity
8
1
62
256
6
ByLayer
370
13
48
1
60
0
100
AcDbSpline
70
4
71
3
72
8
73
4
40
0
40
0
40
0
40
0
40
1
40
1
40
1
40
1
41
1
10
6.4730756435016
20
11.0204291308141
30
0
41
1
10
6.4178079680801
20
10.6659404050198
30
0
41
1
10
6.36302022490869
20
10.3125601395446
30
0
41
1
10
6.3089998392748
20
9.9607793393871
30
0
0
SPLINE
5
148
100
AcDbEntity
8
1
62
256
6
ByLayer
370
13
48
1
60
0
100
AcDbSpline
70
4
71
3
72
26
73
22
40
0
40
0
40
0
40
0
40
0.125
40
0.125
40
0.249999999999999
40
0.249999999999999
40
0.374999999999999
40
0.374999999999999
40
0.406249999999999
40
0.406249999999999
40
0.437499999999999
40
0.437499999999999
40
0.499999999999999
40
0.499999999999999
40
0.625
40
0.625
40
0.75
40
0.75
40
0.875
40
0.875
40
1
40
1
40
1
40
1
41
1
10
6.7751058002745
20
-6.78016502424501
30
0
41
1
10
6.68552155565402
20
-6.8807802499945
30
0
41
1
10
6.59981532457439
20
-6.98214356412208
30
0
41
1
10
6.43526575178811
20
-7.1866144712431
30
0
41
1
10
6.3564281091387
20
-7.2897196352063
30
0
41
1
10
6.20504929093372
20
-7.49780716822619
30
0
41
1
10
6.1325108392933
20
-7.60278865118289
30
0
41
1
10
6.04553657574689
20
-7.73523436812741
30
0
41
1
10
6.02832703717812
20
-7.76178433007451
30
0
41
1
10
5.9942739880012
20
-7.81500657524549
30
0
41
1
10
5.97741563365992
20
-7.8417028954411
30
0
41
1
10
5.92751935726531
20
-7.92175668924529
30
0
41
1
10
5.8951545724297
20
-7.97508399389579
30
0
41
1
10
5.80061995491042
20
-8.13497099136399
30
0
41
1
10
5.74100361878831
20
-8.2414407059166
30
0
41
1
10
5.62802555950151
20
-8.45418183597059
30
0
41
1
10
5.57466537451842
20
-8.56045509767259
30
0
41
1
10
5.473827933433
20
-8.77266997792378
30
0
41
1
10
5.42635069465152
20
-8.8786177675419
30
0
41
1
10
5.337064610075
20
-9.08976222668718
30
0
41
1
10
5.29525278302421
20
-9.1949783476783
30
0
41
1
10
5.25626417382369
20
-9.29929877930599
30
0
0
SPLINE
5
149
100
AcDbEntity
8
1
62
256
6
ByLayer
370
13
48
1
60
0
100
AcDbSpline
70
4
71
3
72
8
73
4
40
0
40
0
40
0
40
0
40
1
40
1
40
1
40
1
41
1
10
-0.238766038090489
20
-5.84076180977058
30
0
41
1
10
-0.232849681233603
20
-5.82221934229841
30
0
41
1
10
-0.227048472069299
20
-5.80365155277619
30
0
41
1
10
-0.221364424666007
20
-5.78505799829151
30
0
0
SPLINE
5
14A
100
AcDbEntity
8
1
62
256
6
ByLayer
370
13
48
1
60
0
100
AcDbSpline
70
4
71
3
72
18
73
14
40
0
40
0
40
0
40
0
40
0.125
40
0.125
40
0.25
40
0.25
40
0.375
40
0.375
40
0.5
40
0.5
40
0.75
40
0.75
40
1
40
1
40
1
40
1
41
1
10
-0.298766038090491
20
-6.12081805339258
30
0
41
1
10
-0.298766038089894
20
-6.11026670086949
30
0
41
1
10
-0.298097776873988
20
-6.09936340243539
30
0
41
1
10
-0.295924736198799
20
-6.0770836060461
30
0
41
1
10
-0.294410778025082
20
-6.06570288406439
30
0
41
1
10
-0.290762716734804
20
-6.04256802766579
30
0
41
1
10
-0.288631899352907
20
-6.0308575288885
30
0
41
1
10
-0.283948668304106
20
-6.00743132443449
30
0
41
1
10
-0.281388892789693
20
-5.99567672873619
30
0
41
1
10
-0.273185742183784
20
-5.96030202959349
30
0
41
1
10
-0.267026837398106
20
-5.93657178396001
30
0
41
1
10
-0.253665043414486
20
-5.88885543138389
30
0
41
1
10
-0.246457883625993
20
-5.86486884034591
30
0
41
1
10
-0.238766038090489
20
-5.84076180977058
30
0
0
SPLINE
5
14B
100
AcDbEntity
8
1
62
256
6
ByLayer
370
13
48
1
60
0
100
AcDbSpline
70
4
71
3
72
22
73
18
40
0
40
0
40
0
40
0
40
0.124999999999995
40
0.124999999999995
40
0.24999999999999
40
0.24999999999999
40
0.374999999999984
40
0.374999999999984
40
0.437499999999981
40
0.437499999999981
40
0.499999999999978
40
0.499999999999978
40
0.624999999999985
40
0.624999999999985
40
0.749999999999992
40
0.749999999999992
40
1
40
1
40
1
40
1
41
1
10
-0.2387660380883
20
-6.3320906206385
30
0
41
1
10
-0.242995390316992
20
-6.33569681332028
30
0
41
1
10
-0.247265857019499
20
-6.33896392155279
30
0
41
1
10
-0.255919563005392
20
-6.34455880916229
30
0
41
1
10
-0.260197294615693
20
-6.3468126635253
30
0
41
1
10
-0.268505104542783
20
-6.34984634449378
30
0
41
1
10
-0.272429129399399
20
-6.35057299907689
30
0
41
1
10
-0.27775801092838
20
-6.3503451488327
30
0
41
1
10
-0.279467277601583
20
-6.3500451202982
30
0
41
1
10
-0.282605658494106
20
-6.3490325294897
30
0
41
1
10
-0.284042646100204
20
-6.34832532682378
30
0
41
1
10
-0.288003627742597
20
-6.34566755645261
30
0
41
1
10
-0.290199918021386
20
-6.3431427069888
30
0
41
1
10
-0.293708329034786
20
-6.33711471113321
30
0
41
1
10
-0.295031292289394
20
-6.3336384305945
30
0
41
1
10
-0.298054404391081
20
-6.3221747685939
30
0
41
1
10
-0.298766038114905
20
-6.31347814351
30
0
41
1
10
-0.298766038113797
20
-6.30426166744141
30
0
0
SPLINE
5
14C
100
AcDbEntity
8
1
62
256
6
ByLayer
370
13
48
1
60
0
100
AcDbSpline
70
4
71
3
72
8
73
4
40
0
40
0
40
0
40
0
40
1
40
1
40
1
40
1
41
1
10
-0.16075702833399
20
-6.26546716693159
30
0
41
1
10
-0.186744168871286
20
-6.28769938014599
30
0
41
1
10
-0.212747917510484
20
-6.30990605171391
30
0
41
1
10
-0.238766038088585
20
-6.33209062063699
30
0
0
SPLINE
5
14D
100
AcDbEntity
8
1
62
256
6
ByLayer
370
13
48
1
60
0
100
AcDbSpline
70
4
71
3
72
16
73
12
40
0
40
0
40
0
40
0
40
0.319479929606816
40
0.319479929606816
40
0.489609947205112
40
0.489609947205112
40
0.659739964803408
40
0.659739964803408
40
0.829869982401704
40
0.829869982401704
40
1
40
1
40
1
40
1
41
1
10
-0.262181101199786
20
-7.00889119368819
30
0
41
1
10
-0.268536422740596
20
-7.01832780857319
30
0
41
1
10
-0.274373261629393
20
-7.02749717867729
30
0
41
1
10
-0.282325746004602
20
-7.0410237377308
30
0
41
1
10
-0.284906355033883
20
-7.04563573537621
30
0
41
1
10
-0.289496304755886
20
-7.05439138397298
30
0
41
1
10
-0.291523445190705
20
-7.05856312625119
30
0
41
1
10
-0.294937363954603
20
-7.0664140925542
30
0
41
1
10
-0.296334455351285
20
-7.07012817595239
30
0
41
1
10
-0.298245834531883
20
-7.07673194378089
30
0
41
1
10
-0.298766038091202
20
-7.07961742378069
30
0
41
1
10
-0.298766038091287
20
-7.08200912495539
30
0
0
SPLINE
5
14E
100
AcDbEntity
8
1
62
256
6
ByLayer
370
13
48
1
60
0
100
AcDbSpline
70
4
71
3
72
20
73
16
40
0
40
0
40
0
40
0
40
0.125000000000001
40
0.125000000000001
40
0.250000000000002
40
0.250000000000002
40
0.375000000000003
40
0.375000000000003
40
0.500000000000005
40
0.500000000000005
40
0.625000000000006
40
0.625000000000006
40
0.750000000000007
40
0.750000000000007
40
1
40
1
40
1
40
1
41
1
10
-0.298766038090491
20
-7.1297027333467
30
0
41
1
10
-0.298766038090491
20
-7.1313597225157
30
0
41
1
10
-0.298391171082301
20
-7.13265573288811
30
0
41
1
10
-0.296859358643189
20
-7.13435609897539
30
0
41
1
10
-0.295708937230302
20
-7.1347768206299
30
0
41
1
10
-0.292599008363879
20
-7.13472219595741
30
0
41
1
10
-0.290647682144282
20
-7.13423662880499
30
0
41
1
10
-0.286134719679183
20
-7.13244528209739
30
0
41
1
10
-0.283538177389801
20
-7.13112877292599
30
0
41
1
10
-0.277814642243584
20
-7.1277712991849
30
0
41
1
10
-0.274738720117881
20
-7.1257638101732
30
0
41
1
10
-0.268221923086997
20
-7.12119654387729
30
0
41
1
10
-0.264760909758195
20
-7.11862051116691
30
0
41
1
10
-0.254015604098299
20
-7.11025475665821
30
0
41
1
10
-0.246518084605299
20
-7.1039588502056
30
0
41
1
10
-0.238766038090489
20
-7.0971339884677
30
0
0
SPLINE
5
14F
100
AcDbEntity
8
1
62
256
6
ByLayer
370
13
48
1
60
0
100
AcDbSpline
70
4
71
3
72
8
73
4
40
0
40
0
40
0
40
0
40
1
40
1
40
1
40
1
41
1
10
-0.238766038090404
20
-7.09713398846759
30
0
41
1
10
-0.23347117510059
20
-7.09247241842189
30
0
41
1
10
-0.228177072822689
20
-7.08780971687631
30
0
41
1
10
-0.222883746357383
20
-7.0831458613695
30
0
0
SPLINE
5
150
100
AcDbEntity
8
1
62
256
6
ByLayer
370
13
48
1
60
0
100
AcDbSpline
70
4
71
3
72
20
73
16
40
0
40
0
40
0
40
0
40
0.25
40
0.25
40
0.375
40
0.375
40
0.5
40
0.5
40
0.625
40
0.625
40
0.75
40
0.75
40
0.875
40
0.875
40
1
40
1
40
1
40
1
41
1
10
-0.238766038090489
20
-7.12029084241641
30
0
41
1
10
-0.246547027960105
20
-7.12930307303711
30
0
41
1
10
-0.253926404495104
20
-7.13808906969709
30
0
41
1
10
-0.264299393725196
20
-7.15085429619981
30
0
41
1
10
-0.267645551414091
20
-7.15504786684448
30
0
41
1
10
-0.273945262795792
20
-7.16311192418888
30
0
41
1
10
-0.276915122596904
20
-7.1670019810546
30
0
41
1
10
-0.282448928946479
20
-7.17445814186229
30
0
41
1
10
-0.285013614682896
20
-7.178024842784
30
0
41
1
10
-0.289654719416291
20
-7.18476519398121
30
0
41
1
10
-0.291694611059881
20
-7.18788728092159
30
0
41
1
10
-0.295076384392303
20
-7.19347854482999
30
0
41
1
10
-0.296435854426107
20
-7.19597935015389
30
0
41
1
10
-0.298282966326099
20
-7.20012430150069
30
0
41
1
10
-0.298766038090491
20
-7.20174937862748
30
0
41
1
10
-0.298766038090491
20
-7.20288503407491
30
0
0
SPLINE
5
151
100
AcDbEntity
8
1
62
256
6
ByLayer
370
13
48
1
60
0
100
AcDbSpline
70
4
71
3
72
8
73
4
40
0
40
0
40
0
40
0
40
1
40
1
40
1
40
1
41
1
10
-0.216420257023401
20
-7.09434249051588
30
0
41
1
10
-0.223858706341986
20
-7.10300261633529
30
0
41
1
10
-0.23130739556899
20
-7.11165196643179
30
0
41
1
10
-0.238766038090489
20
-7.12029084241641
30
0
0
SPLINE
5
152
100
AcDbEntity
8
1
62
256
6
ByLayer
370
13
48
1
60
0
100
AcDbSpline
70
4
71
3
72
16
73
12
40
0
40
0
40
0
40
0
40
0.125000000000004
40
0.125000000000004
40
0.250000000000007
40
0.250000000000007
40
0.500000000000005
40
0.500000000000005
40
0.750000000000002
40
0.750000000000002
40
1
40
1
40
1
40
1
41
1
10
-0.298766038113882
20
-6.607663626592
30
0
41
1
10
-0.298766038112888
20
-6.60172790663049
30
0
41
1
10
-0.298178466456903
20
-6.59535045946629
30
0
41
1
10
-0.296159595754602
20
-6.5819440513624
30
0
41
1
10
-0.294717733908385
20
-6.57490307311679
30
0
41
1
10
-0.289503116177883
20
-6.55345751720219
30
0
41
1
10
-0.284839654327897
20
-6.5385692891505
30
0
41
1
10
-0.273874185118103
20
-6.50794519388899
30
0
41
1
10
-0.267651087842893
20
-6.49246399449069
30
0
41
1
10
-0.254068458424086
20
-6.46132778070429
30
0
41
1
10
-0.246697683301306
20
-6.4456540603372
30
0
41
1
10
-0.238766038090489
20
-6.42988677639349
30
0
0
SPLINE
5
153
100
AcDbEntity
8
1
62
256
6
ByLayer
370
13
48
1
60
0
100
AcDbSpline
70
4
71
3
72
16
73
12
40
0
40
0
40
0
40
0
40
0.25
40
0.25
40
0.5
40
0.5
40
0.75
40
0.75
40
0.875
40
0.875
40
1
40
1
40
1
40
1
41
1
10
-0.238766038090489
20
6.42988733027289
30
0
41
1
10
-0.246707604519884
20
6.4456743365653
30
0
41
1
10
-0.254105607143998
20
6.4614044363322
30
0
41
1
10
-0.267762243384084
20
6.4927285115466
30
0
41
1
10
-0.274013942708194
20
6.50831711768402
30
0
41
1
10
-0.284863102385486
20
6.5386545566931
30
0
41
1
10
-0.289513999002082
20
6.55348667827249
30
0
41
1
10
-0.294740689696596
20
6.57500617526469
30
0
41
1
10
-0.296174354263485
20
6.5820297336617
30
0
41
1
10
-0.298179219360605
20
6.59536898910889
30
0
41
1
10
-0.298766038090491
20
6.60172916370379
30
0
41
1
10
-0.298766038090491
20
6.6076641804552
30
0
0
SPLINE
5
154
100
AcDbEntity
8
1
62
256
6
ByLayer
370
13
48
1
60
0
100
AcDbSpline
70
4
71
3
72
8
73
4
40
0
40
0
40
0
40
0
40
1
40
1
40
1
40
1
41
1
10
-0.238766038090489
20
7.12029139629581
30
0
41
1
10
-0.231307395568791
20
7.111652520311
30
0
41
1
10
-0.223858706341588
20
7.10300317021429
30
0
41
1
10
-0.216420257022804
20
7.09434304439461
30
0
0
SPLINE
5
155
100
AcDbEntity
8
1
62
256
6
ByLayer
370
13
48
1
60
0
100
AcDbSpline
70
4
71
3
72
20
73
16
40
0
40
0
40
0
40
0
40
0.125
40
0.125
40
0.25
40
0.25
40
0.375
40
0.375
40
0.5
40
0.5
40
0.625
40
0.625
40
0.75
40
0.75
40
1
40
1
40
1
40
1
41
1
10
-0.298766038090491
20
7.20288558795431
30
0
41
1
10
-0.298766038090491
20
7.20174775558291
30
0
41
1
10
-0.298281013106788
20
7.20011636154109
30
0
41
1
10
-0.296416868537705
20
7.1959414566706
30
0
41
1
10
-0.295067476506688
20
7.19346379269422
30
0
41
1
10
-0.291691766287585
20
7.187883711545
30
0
41
1
10
-0.289652962686489
20
7.18476316480101
30
0
41
1
10
-0.285013985546783
20
7.17802596701699
30
0
41
1
10
-0.282447959799185
20
7.1744572403808
30
0
41
1
10
-0.276905029677806
20
7.16698908574591
30
0
41
1
10
-0.273927413707781
20
7.16308907819752
30
0
41
1
10
-0.26760469956659
20
7.154996684569
30
0
41
1
10
-0.264257881739894
20
7.1508032880767
30
0
41
1
10
-0.253909862557293
20
7.13807022651639
30
0
41
1
10
-0.246542150799087
20
7.12929797800811
30
0
41
1
10
-0.238766038090489
20
7.12029139629581
30
0
0
SPLINE
5
156
100
AcDbEntity
8
1
62
256
6
ByLayer
370
13
48
1
60
0
100
AcDbSpline
70
4
71
3
72
8
73
4
40
0
40
0
40
0
40
0
40
1
40
1
40
1
40
1
41
1
10
-0.222883746357695
20
7.0831464152491
30
0
41
1
10
-0.228177072822888
20
7.0878102707558
30
0
41
1
10
-0.233471175100704
20
7.09247297230141
30
0
41
1
10
-0.238766038090404
20
7.09713454234699
30
0
0
SPLINE
5
157
100
AcDbEntity
8
1
62
256
6
ByLayer
370
13
48
1
60
0
100
AcDbSpline
70
4
71
3
72
22
73
18
40
0
40
0
40
0
40
0
40
0.125
40
0.125
40
0.25
40
0.25
40
0.375
40
0.375
40
0.5
40
0.5
40
0.625
40
0.625
40
0.75
40
0.75
40
0.875
40
0.875
40
1
40
1
40
1
40
1
41
1
10
-0.238766038090404
20
7.09713454234699
30
0
41
1
10
-0.242651637800293
20
7.1005554042753
30
0
41
1
10
-0.246479740740483
20
7.10384717029422
30
0
41
1
10
-0.254006251578403
20
7.11013459676809
30
0
41
1
10
-0.257721952625502
20
7.1131430670261
30
0
41
1
10
-0.264838888350681
20
7.1186795324023
30
0
41
1
10
-0.268255960923
20
7.1212219061949
30
0
41
1
10
-0.2747672570531
20
7.12578340164481
30
0
41
1
10
-0.277889128713895
20
7.12781833975131
30
0
41
1
10
-0.283582284230192
20
7.1311523492175
30
0
41
1
10
-0.286153440583604
20
7.13245574314101
30
0
41
1
10
-0.290688059576581
20
7.13425070117862
30
0
41
1
10
-0.292634378308804
20
7.13472670354921
30
0
41
1
10
-0.295709151481901
20
7.13477400706572
30
0
41
1
10
-0.29686698134509
20
7.13435711626241
30
0
41
1
10
-0.298407241332399
20
7.1326293853559
30
0
41
1
10
-0.298766038090491
20
7.1313491685832
30
0
41
1
10
-0.298766038090491
20
7.12970328722611
30
0
0
SPLINE
5
158
100
AcDbEntity
8
1
62
256
6
ByLayer
370
13
48
1
60
0
100
AcDbSpline
70
4
71
3
72
16
73
12
40
0
40
0
40
0
40
0
40
0.171023571988754
40
0.171023571988754
40
0.342047143977508
40
0.342047143977508
40
0.684094287955003
40
0.684094287955003
40
0.855117859943755
40
0.855117859943755
40
1
40
1
40
1
40
1
41
1
10
-0.298766038090491
20
7.0820096788346
30
0
41
1
10
-0.298766038090491
20
7.0795894614262
30
0
41
1
10
-0.298224647311201
20
7.07664033713161
30
0
41
1
10
-0.296305143371001
20
7.07004692446242
30
0
41
1
10
-0.294924503317105
20
7.06637754889789
30
0
41
1
10
-0.289725231102096
20
7.05444364036299
30
0
41
1
10
-0.285027190912103
20
7.0456091994744
30
0
41
1
10
-0.276687481395584
20
7.03143919101549
30
0
41
1
10
-0.273695347109793
20
7.02657755979931
30
0
41
1
10
-0.267920084054993
20
7.0175238367172
30
0
41
1
10
-0.26516453750699
20
7.01332549060089
30
0
41
1
10
-0.262311761489201
20
7.00908595427859
30
0
0
SPLINE
5
159
100
AcDbEntity
8
1
62
256
6
ByLayer
370
13
48
1
60
0
100
AcDbSpline
70
4
71
3
72
8
73
4
40
0
40
0
40
0
40
0
40
1
40
1
40
1
40
1
41
1
10
-0.238766038088585
20
6.33209117451639
30
0
41
1
10
-0.212257471747193
20
6.3094884228961
30
0
41
1
10
-0.185763824278098
20
6.28686272750039
30
0
41
1
10
-0.159287460699289
20
6.26421045116172
30
0
0
SPLINE
5
15A
100
AcDbEntity
8
1
62
256
6
ByLayer
370
13
48
1
60
0
100
AcDbSpline
70
4
71
3
72
20
73
16
40
0
40
0
40
0
40
0
40
0.250000000000007
40
0.250000000000007
40
0.375000000000006
40
0.375000000000006
40
0.500000000000004
40
0.500000000000004
40
0.625000000000002
40
0.625000000000002
40
0.687500000000001
40
0.687500000000001
40
0.75
40
0.75
40
1
40
1
40
1
40
1
41
1
10
-0.298766038093703
20
6.30426222130671
30
0
41
1
10
-0.298766038093902
20
6.3135094709892
30
0
41
1
10
-0.298055320369002
20
6.32217566309299
30
0
41
1
10
-0.295028077617388
20
6.3336492649189
30
0
41
1
10
-0.293700917298708
20
6.33712697166811
30
0
41
1
10
-0.29021177717118
20
6.34312391157209
30
0
41
1
10
-0.288007003584994
20
6.34567188565751
30
0
41
1
10
-0.282672757397705
20
6.34923896628851
30
0
41
1
10
-0.279474365770199
20
6.350283133819
30
0
41
1
10
-0.274136456380006
20
6.35049499066929
30
0
41
1
10
-0.272268231873681
20
6.3503490010603
30
0
41
1
10
-0.268354719408194
20
6.3496289179287
30
0
41
1
10
-0.266306252341479
20
6.34904945150461
30
0
41
1
10
-0.256021774884886
20
6.34526584211591
30
0
41
1
10
-0.247221851454782
20
6.33930109476771
30
0
41
1
10
-0.238766038088386
20
6.33209117451722
30
0
0
SPLINE
5
15B
100
AcDbEntity
8
1
62
256
6
ByLayer
370
13
48
1
60
0
100
AcDbSpline
70
4
71
3
72
16
73
12
40
0
40
0
40
0
40
0
40
0.250000000000002
40
0.250000000000002
40
0.500000000000004
40
0.500000000000004
40
0.750000000000006
40
0.750000000000006
40
0.875000000000003
40
0.875000000000003
40
1
40
1
40
1
40
1
41
1
10
-0.238766038090489
20
5.84076236365001
30
0
41
1
10
-0.246464532935988
20
5.86489023384291
30
0
41
1
10
-0.25371291352829
20
5.8890162048416
30
0
41
1
10
-0.267099883224887
20
5.93684401894942
30
0
41
1
10
-0.273257607939883
20
5.96059139586009
30
0
41
1
10
-0.284171687574087
20
6.00769894445691
30
0
41
1
10
-0.288949288004488
20
6.03106221406151
30
0
41
1
10
-0.294412472211405
20
6.06571727451561
30
0
41
1
10
-0.295930182859394
20
6.077129461314
30
0
41
1
10
-0.298100503902503
20
6.09940249804961
30
0
41
1
10
-0.298766038089894
20
6.11029269075831
30
0
41
1
10
-0.298766038090491
20
6.1208186072719
30
0
0
SPLINE
5
15C
100
AcDbEntity
8
1
62
256
6
ByLayer
370
13
48
1
60
0
100
AcDbSpline
70
4
71
3
72
8
73
4
40
0
40
0
40
0
40
0
40
1
40
1
40
1
40
1
41
1
10
-0.221334061193403
20
5.7849590830985
30
0
41
1
10
-0.227027575854493
20
5.80358515191909
30
0
41
1
10
-0.232838899082907
20
5.82218610381472
30
0
41
1
10
-0.238766038090489
20
5.84076236365001
30
0
0
SPLINE
5
15D
100
AcDbEntity
8
1
62
256
6
ByLayer
370
13
48
1
60
0
100
AcDbSpline
70
4
71
3
72
8
73
4
40
0
40
0
40
0
40
0
40
1
40
1
40
1
40
1
41
1
10
-0.0845205344300837
20
6.09746131930859
30
0
41
1
10
-0.13215650960808
20
6.20987342382921
30
0
41
1
10
-0.183785343429804
20
6.320591440063
30
0
41
1
10
-0.238766038090489
20
6.42988733027289
30
0
0
SPLINE
5
15E
100
AcDbEntity
8
1
62
256
6
ByLayer
370
13
48
1
60
0
100
AcDbSpline
70
4
71
3
72
8
73
4
40
0
40
0
40
0
40
0
40
1
40
1
40
1
40
1
41
1
10
-0.238766038090489
20
-6.42988677639349
30
0
41
1
10
-0.183884274494488
20
-6.3207875508283
30
0
41
1
10
-0.132278288994286
20
-6.2101498334072
30
0
41
1
10
-0.0846063209901899
20
-6.09766447743959
30
0
0
SPLINE
5
15F
100
AcDbEntity
8
1
62
256
6
ByLayer
370
13
48
1
60
0
100
AcDbSpline
70
4
71
3
72
36
73
32
40
0
40
0
40
0
40
0
40
0.0624999999999998
40
0.0624999999999998
40
0.125
40
0.125
40
0.187499999999999
40
0.187499999999999
40
0.249999999999999
40
0.249999999999999
40
0.312499999999999
40
0.312499999999999
40
0.343749999999999
40
0.343749999999999
40
0.374999999999999
40
0.374999999999999
40
0.437499999999999
40
0.437499999999999
40
0.499999999999999
40
0.499999999999999
40
0.624999999999999
40
0.624999999999999
40
0.656249999999999
40
0.656249999999999
40
0.687499999999999
40
0.687499999999999
40
0.749999999999999
40
0.749999999999999
40
0.874999999999999
40
0.874999999999999
40
1
40
1
40
1
40
1
41
1
10
6.82447112035152
20
-6.7252337373437
30
0
41
1
10
6.90197441133492
20
-6.63978853326338
30
0
41
1
10
6.98458560477081
20
-6.55243322961368
30
0
41
1
10
7.15997531949401
20
-6.3757424644387
30
0
41
1
10
7.2527570950044
20
-6.2864005512514
30
0
41
1
10
7.44861605586772
20
-6.10725885590111
30
0
41
1
10
7.55001874961729
20
-6.01899350097921
30
0
41
1
10
7.75939592653501
20
-5.8460159853191
30
0
41
1
10
7.86739039699071
20
-5.76128358781199
30
0
41
1
10
8.08981642739931
20
-5.59600958032328
30
0
41
1
10
8.204248618772
20
-5.51546614649209
30
0
41
1
10
8.38063950056642
20
-5.3982332115026
30
0
41
1
10
8.44023772281619
20
-5.35974554984941
30
0
41
1
10
8.5609637563083
20
-5.28405866436898
30
0
41
1
10
8.62175032556212
20
-5.2470728054308
30
0
41
1
10
8.80536037625342
20
-5.13867621024059
30
0
41
1
10
8.9294331895355
20
-5.0698251427398
30
0
41
1
10
9.18082878274842
20
-4.9389172543172
30
0
41
1
10
9.3081516708005
20
-4.87686034034951
30
0
41
1
10
9.69491902164469
20
-4.70089662705351
30
0
41
1
10
9.95914809084351
20
-4.5971717272611
30
0
41
1
10
10.297375409193
20
-4.48490198938129
30
0
41
1
10
10.3654190377919
20
-4.4633193247906
30
0
41
1
10
10.5023061854567
20
-4.4219149135063
30
0
41
1
10
10.5712262803511
20
-4.40207387680348
30
0
41
1
10
10.778219819558
20
-4.34548169961249
30
0
41
1
10
10.9167467658867
20
-4.31158348479821
30
0
41
1
10
11.3339129527316
20
-4.2211879309302
30
0
41
1
10
11.6141342232155
20
-4.17595724189991
30
0
41
1
10
12.1788360830621
20
-4.11536373232349
30
0
41
1
10
12.4633165500722
20
-4.09999972306031
30
0
41
1
10
12.7499998392748
20
-4.09999972306031
30
0
0
SPLINE
5
160
100
AcDbEntity
8
1
62
256
6
ByLayer
370
13
48
1
60
0
100
AcDbSpline
70
4
71
3
72
24
73
20
40
0
40
0
40
0
40
0
40
0.124999999999999
40
0.124999999999999
40
0.249999999999997
40
0.374999999999996
40
0.374999999999996
40
0.499999999999995
40
0.499999999999995
40
0.562499999999994
40
0.593749999999994
40
0.593749999999994
40
0.624999999999993
40
0.624999999999993
40
0.749999999999995
40
0.749999999999995
40
0.874999999999998
40
0.874999999999998
40
1
40
1
40
1
40
1
41
1
10
14.5499998392748
20
-4.09999972306031
30
0
41
1
10
14.6581408847005
20
-4.09999972306031
30
0
41
1
10
14.7653991288716
20
-4.09562223624471
30
0
41
1
10
14.9782122969286
20
-4.07844542621311
30
0
41
1
10
15.1893217963855
20
-4.05284530681681
30
0
41
1
10
15.3970604208698
20
-4.01072025518809
30
0
41
1
10
15.6030917077741
20
-3.96034222416029
30
0
41
1
10
15.7052537673765
20
-3.93102679186978
30
0
41
1
10
15.8571695196506
20
-3.88076055082931
30
0
41
1
10
15.9327950747885
20
-3.85405242370911
30
0
41
1
10
16.0079086395197
20
-3.8249460792677
30
0
41
1
10
16.0578687184195
20
-3.80500375406498
30
0
41
1
10
16.0827645083616
20
-3.7947732555599
30
0
41
1
10
16.2062538568425
20
-3.74257112599301
30
0
41
1
10
16.3024025745357
20
-3.69724835764231
30
0
41
1
10
16.489446828785
20
-3.59995093135339
30
0
41
1
10
16.5803419363662
20
-3.54797488521061
30
0
41
1
10
16.7568184536211
20
-3.43777942720519
30
0
41
1
10
16.8423997314628
20
-3.37955856969069
30
0
41
1
10
16.9252523321332
20
-3.31841169096771
30
0
0
SPLINE
5
161
100
AcDbEntity
8
1
62
256
6
ByLayer
370
13
48
1
60
0
100
AcDbSpline
70
4
71
3
72
43
73
39
40
0
40
0
40
0
40
0
40
0.0351561862683912
40
0.0351561862683912
40
0.0703123725367825
40
0.0703123725367825
40
0.140624745073566
40
0.140624745073566
40
0.175780931341957
40
0.175780931341957
40
0.210937117610348
40
0.210937117610348
40
0.281249490147131
40
0.281249490147131
40
0.351561862683913
40
0.351561862683913
40
0.386718048952304
40
0.386718048952304
40
0.421874235220695
40
0.421874235220695
40
0.492186607757478
40
0.492186607757478
40
0.56249898029426
40
0.56249898029426
40
0.632811352831043
40
0.632811352831043
40
0.667967539099434
40
0.667967539099434
40
0.703123725367826
40
0.703123725367826
40
0.843748470441392
40
0.843748470441392
40
0.878904656709784
40
0.878904656709784
40
0.914060842978175
40
0.914060842978175
40
0.984373215514959
40
1
40
1
40
1
40
1
41
1
10
6.96504814920741
20
-3.1319232821686
30
0
41
1
10
6.93625921522542
20
-3.13141896735721
30
0
41
1
10
6.907573342039
20
-3.1297950535043
30
0
41
1
10
6.8504053691228
20
-3.12434046382711
30
0
41
1
10
6.8219167402211
20
-3.12049949904449
30
0
41
1
10
6.73786963403151
20
-3.1059805612729
30
0
41
1
10
6.68333147334951
20
-3.0922857212833
30
0
41
1
10
6.60347849631699
20
-3.0666445446501
30
0
41
1
10
6.5771872802259
20
-3.05724631661059
30
0
41
1
10
6.52521872498372
20
-3.0368845714313
30
0
41
1
10
6.4994656945282
20
-3.02588262337179
30
0
41
1
10
6.4240167931259
20
-2.99117046230521
30
0
41
1
10
6.37588134244851
20
-2.9656972780318
30
0
41
1
10
6.2831607308141
20
-2.9112653519212
30
0
41
1
10
6.23857954200682
20
-2.88230152354589
30
0
41
1
10
6.1740120448128
20
-2.83685124651029
30
0
41
1
10
6.152875489439
20
-2.82136477856579
30
0
41
1
10
6.11133340323201
20
-2.78979862081849
30
0
41
1
10
6.09099271579112
20
-2.77376645885721
30
0
41
1
10
6.03149211632382
20
-2.72529475061609
30
0
41
1
10
5.99370873240622
20
-2.69238049203219
30
0
41
1
10
5.9215173852391
20
-2.62581602201081
30
0
41
1
10
5.8871114902629
20
-2.59216381876919
30
0
41
1
10
5.82148889660081
20
-2.5244576002726
30
0
41
1
10
5.79027296460131
20
-2.49040238827879
30
0
41
1
10
5.74581946772972
20
-2.43921100267019
30
0
41
1
10
5.73136923315681
20
-2.4220931486106
30
0
41
1
10
5.7034337615425
20
-2.3880476032659
30
0
41
1
10
5.68995252805172
20
-2.37112740261401
30
0
41
1
10
5.62495281406461
20
-2.28710106437049
30
0
41
1
10
5.5805592034142
20
-2.22172603461058
30
0
41
1
10
5.53511425738711
20
-2.14318273387679
30
0
41
1
10
5.52653361782052
20
-2.12763257566499
30
0
41
1
10
5.5104280081851
20
-2.09687091075111
30
0
41
1
10
5.5029079661154
20
-2.08166283048539
30
0
41
1
10
5.48220578509691
20
-2.037050151204
30
0
41
1
10
5.46825099535641
20
-2.0021461788792
30
0
41
1
10
5.45794201741199
20
-1.9690582356065
30
0
41
1
10
5.45618954311692
20
-1.96310217806169
30
0
0
SPLINE
5
162
100
AcDbEntity
8
1
62
256
6
ByLayer
370
13
48
1
60
0
100
AcDbSpline
70
4
71
3
72
41
73
37
40
0
40
0
40
0
40
0
40
0.0595978208917863
40
0.0595978208917863
40
0.093183613002794
40
0.093183613002794
40
0.126769405113802
40
0.126769405113802
40
0.193940989335817
40
0.193940989335817
40
0.328284157779847
40
0.328284157779847
40
0.361869949890855
40
0.361869949890855
40
0.395455742001863
40
0.395455742001863
40
0.462627326223878
40
0.462627326223878
40
0.529798910445893
40
0.529798910445893
40
0.596970494667909
40
0.596970494667909
40
0.664142078889924
40
0.664142078889924
40
0.73131366311194
40
0.73131366311194
40
0.798485247333955
40
0.798485247333955
40
0.832071039444963
40
0.848863935500467
40
0.848863935500467
40
0.865656831555971
40
0.865656831555971
40
0.932828415777985
40
0.932828415777985
40
1
40
1
40
1
40
1
41
1
10
5.15096040327322
20
-7.5452300722649
30
0
41
1
10
5.15690945714729
20
-7.53581540203459
30
0
41
1
10
5.16509650895949
20
-7.5251644318914
30
0
41
1
10
5.18123309678981
20
-7.50663780009779
30
0
41
1
10
5.1877282250334
20
-7.4995795091865
30
0
41
1
10
5.2020565253188
20
-7.4847117934718
30
0
41
1
10
5.20986197614332
20
-7.47693250942891
30
0
41
1
10
5.2349438105413
20
-7.45277584776059
30
0
41
1
10
5.25394048141089
20
-7.4355173248313
30
0
41
1
10
5.31715893930701
20
-7.38068805106741
30
0
41
1
10
5.36753824114521
20
-7.34006744454459
30
0
41
1
10
5.44010237303021
20
-7.2853484728204
30
0
41
1
10
5.4551005905449
20
-7.27420711874771
30
0
41
1
10
5.48607380033161
20
-7.25155768297731
30
0
41
1
10
5.5020876755558
20
-7.2400223853204
30
0
41
1
10
5.5512243819463
20
-7.2051879361141
30
0
41
1
10
5.58547591822901
20
-7.1816278027122
30
0
41
1
10
5.6569384942625
20
-7.13415044489409
30
0
41
1
10
5.6941491861013
20
-7.1102320240102
30
0
41
1
10
5.7716469038503
20
-7.062394874624
30
0
41
1
10
5.8119325101147
20
-7.03847447945779
30
0
41
1
10
5.89586609275619
20
-6.99107331848441
30
0
41
1
10
5.93953537339601
20
-6.9675775395466
30
0
41
1
10
6.0306574429745
20
-6.9216616397631
30
0
41
1
10
6.0775146200734
20
-6.899542983949
30
0
41
1
10
6.17417589730201
20
-6.85772990734338
30
0
41
1
10
6.22397734030329
20
-6.8380319473093
30
0
41
1
10
6.30131653946822
20
-6.81104747818509
30
0
41
1
10
6.34064829561001
20
-6.79819928517881
30
0
41
1
10
6.3810867456682
20
-6.78649625502101
30
0
41
1
10
6.40830712060492
20
-6.77897197539539
30
0
41
1
10
6.42206773804162
20
-6.77534419448941
30
0
41
1
10
6.4910301766937
20
-6.7580887792594
30
0
41
1
10
6.54704734887289
20
-6.7470077659714
30
0
41
1
10
6.66099099290579
20
-6.73132398767439
30
0
41
1
10
6.718917485958
20
-6.72672361921479
30
0
41
1
10
6.77793153923091
20
-6.7258907727643
30
0
0
SPLINE
5
163
100
AcDbEntity
8
1
62
256
6
ByLayer
370
13
48
1
60
0
100
AcDbSpline
70
4
71
2
72
6
73
3
40
0
40
0
40
0
40
1
40
1
40
1
41
0.499999676897102
10
6.82447112035199
20
-6.72523373734399
30
0
41
0.500000323102898
10
6.80120608736463
20
-6.7255623065139
30
0
41
0.499999676897102
10
6.77793153923081
20
-6.72589077276429
30
0
0
SPLINE
5
164
100
AcDbEntity
8
1
62
256
6
ByLayer
370
13
48
1
60
0
100
AcDbSpline
70
4
71
3
72
53
73
49
40
0
40
0
40
0
40
0
40
0.0376565327954486
40
0.0376565327954486
40
0.0567908955212632
40
0.0567908955212632
40
0.0759252582470777
40
0.0759252582470777
40
0.114193983698707
40
0.114193983698707
40
0.190731434601965
40
0.190731434601965
40
0.267268885505223
40
0.267268885505223
40
0.286403248231037
40
0.286403248231037
40
0.305537610956852
40
0.305537610956852
40
0.343806336408482
40
0.343806336408482
40
0.42034378731174
40
0.42034378731174
40
0.45861251276337
40
0.477746875489185
40
0.477746875489185
40
0.496881238215
40
0.496881238215
40
0.573418689118259
40
0.573418689118259
40
0.649956140021518
40
0.649956140021518
40
0.688224865473147
40
0.688224865473147
40
0.707359228198961
40
0.707359228198961
40
0.726493590924775
40
0.726493590924775
40
0.803031041828033
40
0.803031041828033
40
0.879568492731291
40
0.879568492731291
40
0.898702855457105
40
0.898702855457105
40
0.917837218182919
40
0.917837218182919
40
0.956105943634548
40
0.956105943634548
40
1
40
1
40
1
40
1
41
1
10
5.69029650349961
20
2.4378446630366
30
0
41
1
10
5.6981465689299
20
2.47276487691911
30
0
41
1
10
5.70679386980171
20
2.50857018159201
30
0
41
1
10
5.7208064572566
20
2.56391657354601
30
0
41
1
10
5.7257003685749
20
2.58281530367449
30
0
41
1
10
5.73573856300951
20
2.62090274462162
30
0
41
1
10
5.74088669949901
20
2.6401074946418
30
0
41
1
10
5.7566578705063
20
2.6982065833696
30
0
41
1
10
5.76760700950751
20
2.73758527902359
30
0
41
1
10
5.8013077319105
20
2.857690628077
30
0
41
1
10
5.8249104540873
20
2.94037827242531
30
0
41
1
10
5.87214179896961
20
3.11134630198589
30
0
41
1
10
5.89577716824462
20
3.19962491412781
30
0
41
1
10
5.9239410141827
20
3.31386987957819
30
0
41
1
10
5.9294985918612
20
3.3368919925814
30
0
41
1
10
5.94038682882601
20
3.38310938169332
30
0
41
1
10
5.94572375961459
20
3.40632993009891
30
0
41
1
10
5.96136525361251
20
3.47633277184479
30
0
41
1
10
5.9712999512069
20
3.5234560898123
30
0
41
1
10
5.9992621419625
20
3.66624204315662
30
0
41
1
10
6.0154337388158
20
3.7633187827789
30
0
41
1
10
6.03473585007612
20
3.9120127765062
30
0
41
1
10
6.0431527881079
20
3.98713028759062
30
0
41
1
10
6.04954020276512
20
4.06345574310791
30
0
41
1
10
6.05333270090929
20
4.11461383312241
30
0
41
1
10
6.05499473645491
20
4.14033127489071
30
0
41
1
10
6.0620680735795
20
4.2686829447849
30
0
41
1
10
6.06379439427201
20
4.3713477982291
30
0
41
1
10
6.0601381032715
20
4.57666068319671
30
0
41
1
10
6.0547629594565
20
4.67930893446291
30
0
41
1
10
6.0425077477685
20
4.83330202450131
30
0
41
1
10
6.0377290212208
20
4.88463670190632
30
0
41
1
10
6.02970083422622
20
4.96164990553672
30
0
41
1
10
6.0268788432621
20
4.98734475134771
30
0
41
1
10
6.0210140308298
20
5.0384654445073
30
0
41
1
10
6.0179682399401
20
5.06392226405941
30
0
41
1
10
6.00226862618931
20
5.19070679279551
30
0
41
1
10
5.9882049573873
20
5.29054092377501
30
0
41
1
10
5.95949423977402
20
5.48739970292991
30
0
41
1
10
5.9448414478307
20
5.5844236094261
30
0
41
1
10
5.92768483440642
20
5.7041084805164
30
0
41
1
10
5.92431182430562
20
5.7279654450075
30
0
41
1
10
5.91772270781121
20
5.77552240591891
30
0
41
1
10
5.91450397415991
20
5.79924358213199
30
0
41
1
10
5.90518991454999
20
5.86983226735731
30
0
41
1
10
5.8994226610825
20
5.91622200779099
30
0
41
1
10
5.8883148942119
20
6.01441687862311
30
0
41
1
10
5.8831573541907
20
6.0660175306943
30
0
41
1
10
5.87902181004341
20
6.11676976847551
30
0
0
SPLINE
5
165
100
AcDbEntity
8
1
62
256
6
ByLayer
370
13
48
1
60
0
100
AcDbSpline
70
4
71
3
72
34
73
30
40
0
40
0
40
0
40
0
40
0.0312499999999992
40
0.0312499999999992
40
0.0468749999999981
40
0.0468749999999981
40
0.0624999999999969
40
0.0624999999999969
40
0.124999999999997
40
0.124999999999997
40
0.187499999999997
40
0.187499999999997
40
0.218749999999997
40
0.218749999999997
40
0.249999999999996
40
0.249999999999996
40
0.312499999999996
40
0.312499999999996
40
0.374999999999995
40
0.374999999999995
40
0.499999999999995
40
0.499999999999995
40
0.624999999999996
40
0.624999999999996
40
0.749999999999996
40
0.749999999999996
40
0.874999999999998
40
0.874999999999998
40
1
40
1
40
1
40
1
41
1
10
3.49999983927481
20
4.3588992204804
30
0
41
1
10
3.49081651028692
20
4.3588992204804
30
0
41
1
10
3.4818073265094
20
4.35803175744701
30
0
41
1
10
3.4685307048795
20
4.35554874676239
30
0
41
1
10
3.464144805567
20
4.35452352166069
30
0
41
1
10
3.45544946835591
20
4.35209182604311
30
0
41
1
10
3.45112328079821
20
4.35067767168511
30
0
41
1
10
3.4300769695372
20
4.34284316189689
30
0
41
1
10
3.4147613855526
20
4.33410707664581
30
0
41
1
10
3.38643325886361
20
4.31336044058099
30
0
41
1
10
3.37386916329601
20
4.3016895628912
30
0
41
1
10
3.35659148366329
20
4.28289858446709
30
0
41
1
10
3.3511011818938
20
4.2764147916329
30
0
41
1
10
3.34058058813162
20
4.2630685565135
30
0
41
1
10
3.33554799319771
20
4.25619894792589
30
0
41
1
10
3.32121917881901
20
4.23534540476049
30
0
41
1
10
3.3126124911289
20
4.22103456337021
30
0
41
1
10
3.29680328076762
20
4.1917945358932
30
0
41
1
10
3.2896058388794
20
4.17686325744779
30
0
41
1
10
3.26970770858071
20
4.13130860823341
30
0
41
1
10
3.25864858272121
20
4.09978981960671
30
0
41
1
10
3.24006995711841
20
4.03636316073451
30
0
41
1
10
3.2325051813408
20
4.0043438324625
30
0
41
1
10
3.21998356560792
20
3.93980256013052
30
0
41
1
10
3.2150363802422
20
3.90727933189191
30
0
41
1
10
3.20730691307901
20
3.84178667899602
30
0
41
1
10
3.20452828042011
20
3.80881677188381
30
0
41
1
10
3.20087312705232
20
3.74246315204459
30
0
41
1
10
3.1999998392748
20
3.70905354035321
30
0
41
1
10
3.1999998392748
20
3.67559546683751
30
0
0
SPLINE
5
166
100
AcDbEntity
8
1
62
256
6
ByLayer
370
13
48
1
60
0
100
AcDbSpline
70
4
71
3
72
17
73
13
40
0
40
0
40
0
40
0
40
0.261617646890429
40
0.261617646890429
40
0.392426470335644
40
0.392426470335644
40
0.457830882058252
40
0.457830882058252
40
0.52323529378086
40
0.52323529378086
40
0.784852940671291
40
1
40
1
40
1
40
1
41
1
10
6.3089998392748
20
9.9607793393871
30
0
41
1
10
6.26583068807912
20
9.95473672074749
30
0
41
1
10
6.2279927119439
20
9.9477716864198
30
0
41
1
10
6.17894134526
20
9.93571541217099
30
0
41
1
10
6.1638802032152
20
9.93142825237589
30
0
41
1
10
6.14323001165522
20
9.92456327856581
30
0
41
1
10
6.13666817724291
20
9.9222008912414
30
0
41
1
10
6.12427617244552
20
9.91735950124871
30
0
41
1
10
6.11843405618191
20
9.91487681597602
30
0
41
1
10
6.09095944316752
20
9.90214918877811
30
0
41
1
10
6.0609800732874
20
9.88176236919492
30
0
41
1
10
6.04866978245082
20
9.85784493750739
30
0
41
1
10
6.046776218985
20
9.8462946981596
30
0
0
SPLINE
5
167
100
AcDbEntity
8
1
62
256
6
ByLayer
370
13
48
1
60
0
100
AcDbSpline
70
4
71
3
72
19
73
15
40
0
40
0
40
0
40
0
40
0.0575353418853991
40
0.246028273508319
40
0.246028273508319
40
0.43452120513124
40
0.43452120513124
40
0.5287676709427
40
0.5287676709427
40
0.62301413675416
40
0.62301413675416
40
0.81150706837708
40
0.81150706837708
40
1
40
1
40
1
40
1
41
1
10
5.03054121424123
20
-10.0000019586925
30
0
41
1
10
5.03054465469847
20
-9.99999256734716
30
0
41
1
10
5.03147008550812
20
-9.9966085661533
30
0
41
1
10
5.03626222930572
20
-9.9789700931282
30
0
41
1
10
5.0484150371459
20
-9.93525813522149
30
0
41
1
10
5.0568951622229
20
-9.90506014857309
30
0
41
1
10
5.07374778399222
20
-9.8470995453556
30
0
41
1
10
5.08005752067112
20
-9.82566678045339
30
0
41
1
10
5.09419364636361
20
-9.7785266904543
30
0
41
1
10
5.1020351006878
20
-9.75277212382849
30
0
41
1
10
5.1278785907077
20
-9.66964257786441
30
0
41
1
10
5.1482194063712
20
-9.6062962571927
30
0
41
1
10
5.196298379475
20
-9.4642423400725
30
0
41
1
10
5.22403492685589
20
-9.3855334263902
30
0
41
1
10
5.25626417382369
20
-9.29929877930599
30
0
0
SPLINE
5
168
100
AcDbEntity
8
1
62
256
6
ByLayer
370
13
48
1
60
0
100
AcDbSpline
70
4
71
3
72
18
73
14
40
0
40
0
40
0
40
0
40
0.256619714842467
40
0.256619714842467
40
0.384929572263699
40
0.384929572263699
40
0.513239429684931
40
0.513239429684931
40
0.769859144527397
40
0.769859144527397
40
0.898169001948629
40
0.898169001948629
40
1
40
1
40
1
40
1
41
1
10
5.25626417382369
20
-9.29929877930599
30
0
41
1
10
5.22308246295381
20
-9.27617050689651
30
0
41
1
10
5.19400741507511
20
-9.251638395577
30
0
41
1
10
5.1566751337233
20
-9.2125162488401
30
0
41
1
10
5.14539718328442
20
-9.19920645757651
30
0
41
1
10
5.12515500141541
20
-9.17211582415331
30
0
41
1
10
5.11617954740771
20
-9.15832312892439
30
0
41
1
10
5.0926040115713
20
-9.11619127794691
30
0
41
1
10
5.08134200504679
20
-9.08709946453681
30
0
41
1
10
5.07103141838832
20
-9.04189031566278
30
0
41
1
10
5.06869485289479
20
-9.0265584278184
30
0
41
1
10
5.0664976201071
20
-8.9985753860532
30
0
41
1
10
5.066230088476
20
-8.9860745390373
30
0
41
1
10
5.06666033895752
20
-8.97346459934889
30
0
0
SPLINE
5
169
100
AcDbEntity
8
1
62
256
6
ByLayer
370
13
48
1
60
0
100
AcDbSpline
70
4
71
3
72
34
73
30
40
0
40
0
40
0
40
0
40
0.249999999999999
40
0.249999999999999
40
0.375
40
0.375
40
0.437500000000002
40
0.437500000000002
40
0.500000000000003
40
0.500000000000003
40
0.625000000000004
40
0.625000000000004
40
0.687500000000003
40
0.687500000000003
40
0.750000000000001
40
0.750000000000001
40
0.8125
40
0.8125
40
0.84375
40
0.84375
40
0.875
40
0.875
40
0.90625
40
0.90625
40
0.9375
40
0.9375
40
0.96875
40
0.96875
40
1
40
1
40
1
40
1
41
1
10
3.1999998392748
20
-3.6755949129581
30
0
41
1
10
3.1999998392748
20
-3.7425137886047
30
0
41
1
10
3.20342151644971
20
-3.8087788814909
30
0
41
1
10
3.21500745371381
20
-3.9070763810229
30
0
41
1
10
3.21995674362552
20
-3.93965767841459
30
0
41
1
10
3.22937615018051
20
-3.9882180689437
30
0
41
1
10
3.23285037338042
20
-4.00435275732059
30
0
41
1
10
3.2405614675549
20
-4.03650885160479
30
0
41
1
10
3.24480574978659
20
-4.05255624728619
30
0
41
1
10
3.2588132408967
20
-4.1002987488088
30
0
41
1
10
3.26979625538451
20
-4.13156297861221
30
0
41
1
10
3.28981156483621
20
-4.1773070959853
30
0
41
1
10
3.29706326006962
20
-4.19230942698658
30
0
41
1
10
3.3128642738628
20
-4.22146395768328
30
0
41
1
10
3.3214247508148
20
-4.23565240615679
30
0
41
1
10
3.3402537739002
20
-4.2630385509766
30
0
41
1
10
3.35051260388781
20
-4.27624166575418
30
0
41
1
10
3.36770981621342
20
-4.2950116288275
30
0
41
1
10
3.3737467611258
20
-4.3010941361029
30
0
41
1
10
3.38659140933592
20
-4.31282117237188
30
0
41
1
10
3.39332224831762
20
-4.31839124318421
30
0
41
1
10
3.40741115946472
20
-4.32873692253949
30
0
41
1
10
3.41478337043202
20
-4.33352770880191
30
0
41
1
10
3.43034269892831
20
-4.34216242805039
30
0
41
1
10
3.43848795583079
20
-4.34596860007949
30
0
41
1
10
3.4551760485017
20
-4.3521907213042
30
0
41
1
10
3.46377412707912
20
-4.35464040354961
30
0
41
1
10
3.48156136508871
20
-4.35800283045211
30
0
41
1
10
3.4907886189005
20
-4.35889866660099
30
0
41
1
10
3.49999983927481
20
-4.35889866660099
30
0
0
SPLINE
5
16A
100
AcDbEntity
8
1
62
256
6
ByLayer
370
13
48
1
60
0
100
AcDbSpline
70
4
71
3
72
8
73
4
40
0
40
0
40
0
40
0
40
1
40
1
40
1
40
1
41
1
10
-0.298766038090491
20
9.1656241230225
30
0
41
1
10
-0.0490098442639919
20
9.41769225806931
30
0
41
1
10
0.200840747037319
20
9.66966687802039
30
0
41
1
10
0.450765839274794
20
9.92156769343191
30
0
0
SPLINE
5
16B
100
AcDbEntity
8
1
62
256
6
ByLayer
370
13
48
1
60
0
100
AcDbSpline
70
4
71
3
72
20
73
16
40
0
40
0
40
0
40
0
40
0.125
40
0.125
40
0.250000000000001
40
0.250000000000001
40
0.375000000000001
40
0.375000000000001
40
0.500000000000001
40
0.500000000000001
40
0.625000000000002
40
0.625000000000002
40
0.750000000000002
40
0.750000000000002
40
1
40
1
40
1
40
1
41
1
10
-0.298766038090491
20
9.15570040771121
30
0
41
1
10
-0.298766038090491
20
9.1548744353741
30
0
41
1
10
-0.298358299912195
20
9.15446020285461
30
0
41
1
10
-0.296733572162282
20
9.1544499087218
30
0
41
1
10
-0.295495158703488
20
9.15486597788259
30
0
41
1
10
-0.292281558877505
20
9.15649828468329
30
0
41
1
10
-0.290322002872102
20
9.15770022502531
30
0
41
1
10
-0.285760314127202
20
9.1608087383969
30
0
41
1
10
-0.283136742982805
20
9.16273358219419
30
0
41
1
10
-0.277489492521994
20
9.16708987195202
30
0
41
1
10
-0.274448996474206
20
9.16953146854189
30
0
41
1
10
-0.267989471468184
20
9.1748763290415
30
0
41
1
10
-0.264546503097591
20
9.17780096089851
30
0
41
1
10
-0.253957254459607
20
9.18698521365312
30
0
41
1
10
-0.246512155700287
20
9.19368002076689
30
0
41
1
10
-0.238766038090489
20
9.20082597022341
30
0
0
SPLINE
5
16C
100
AcDbEntity
8
1
62
256
6
ByLayer
370
13
48
1
60
0
100
AcDbSpline
70
4
71
3
72
8
73
4
40
0
40
0
40
0
40
0
40
1
40
1
40
1
40
1
41
1
10
-0.238766038090489
20
9.20082597022341
30
0
41
1
10
-0.044209869317001
20
9.38030795313909
30
0
41
1
10
0.150823796247295
20
9.55909563436299
30
0
41
1
10
0.346265716640119
20
9.7372896948055
30
0
0
SPLINE
5
16D
100
AcDbEntity
8
1
62
256
6
ByLayer
370
13
48
1
60
0
100
AcDbSpline
70
4
71
3
72
30
73
26
40
0
40
0
40
0
40
0
40
0.124999999999998
40
0.124999999999998
40
0.249999999999996
40
0.249999999999996
40
0.312499999999995
40
0.312499999999995
40
0.374999999999995
40
0.374999999999995
40
0.499999999999994
40
0.499999999999994
40
0.562499999999995
40
0.562499999999995
40
0.624999999999995
40
0.624999999999995
40
0.687499999999996
40
0.687499999999996
40
0.749999999999996
40
0.749999999999996
40
0.812499999999997
40
0.812499999999997
40
0.874999999999998
40
0.874999999999998
40
1
40
1
40
1
40
1
41
1
10
0.346265716640005
20
9.69383493813501
30
0
41
1
10
0.354314069691412
20
9.7030034684885
30
0
41
1
10
0.362024410009099
20
9.7120158255785
30
0
41
1
10
0.376390757047716
20
9.72934978640191
30
0
41
1
10
0.382982782760905
20
9.73758966567479
30
0
41
1
10
0.391782190117908
20
9.74915609236871
30
0
41
1
10
0.394547330277419
20
9.75289982883442
30
0
41
1
10
0.399558553417506
20
9.75995471178629
30
0
41
1
10
0.401793144286899
20
9.76324780126319
30
0
41
1
10
0.407576990263095
20
9.77233042662121
30
0
41
1
10
0.410221367935719
20
9.77737597798011
30
0
41
1
10
0.411406737711104
20
9.78222798789182
30
0
41
1
10
0.411341065261098
20
9.78341484154259
30
0
41
1
10
0.410225576982697
20
9.78473904336761
30
0
41
1
10
0.409188021150499
20
9.78489805341411
30
0
41
1
10
0.406121914686594
20
9.78417900698881
30
0
41
1
10
0.404107252735912
20
9.78329599097842
30
0
41
1
10
0.399316968887518
20
9.78062491211861
30
0
41
1
10
0.396499413764218
20
9.7788142655121
30
0
41
1
10
0.390243062822719
20
9.77442356883219
30
0
41
1
10
0.386844214671413
20
9.77187510792621
30
0
41
1
10
0.379587093755418
20
9.7661813549112
30
0
41
1
10
0.375699970646394
20
9.7630112570578
30
0
41
1
10
0.363625392345995
20
9.75287042552031
30
0
41
1
10
0.355119548846318
20
9.74536217131489
30
0
41
1
10
0.346265716640119
20
9.7372896948055
30
0
0
SPLINE
5
16E
100
AcDbEntity
8
1
62
256
6
ByLayer
370
13
48
1
60
0
100
AcDbSpline
70
4
71
3
72
8
73
4
40
0
40
0
40
0
40
0
40
1
40
1
40
1
40
1
41
1
10
-0.238766038090489
20
9.0154069156562
30
0
41
1
10
-0.0455957942685075
20
9.2436655745168
30
0
41
1
10
0.149511835808994
20
9.46969666822491
30
0
41
1
10
0.346265716640119
20
9.69383493813501
30
0
0
SPLINE
5
16F
100
AcDbEntity
8
1
62
256
6
ByLayer
370
13
48
1
60
0
100
AcDbSpline
70
4
71
3
72
20
73
16
40
0
40
0
40
0
40
0
40
0.124999999999997
40
0.124999999999997
40
0.249999999999993
40
0.249999999999993
40
0.37499999999999
40
0.37499999999999
40
0.499999999999987
40
0.499999999999987
40
0.624999999999983
40
0.624999999999983
40
0.74999999999998
40
0.74999999999998
40
1
40
1
40
1
40
1
41
1
10
-0.298766038090491
20
8.92579354389531
30
0
41
1
10
-0.298766038090491
20
8.92751562404212
30
0
41
1
10
-0.298257490786199
20
8.92973033849759
30
0
41
1
10
-0.296414226760703
20
8.93483299337962
30
0
41
1
10
-0.295082151337681
20
8.93773445556332
30
0
41
1
10
-0.291709694360407
20
8.9441415170935
30
0
41
1
10
-0.289670411131198
20
8.9476387240575
30
0
41
1
10
-0.285099811524503
20
8.95495377640111
30
0
41
1
10
-0.282555164792598
20
8.95879678600841
30
0
41
1
10
-0.277014975098694
20
8.96680608019821
30
0
41
1
10
-0.274000162778293
20
8.97099736945961
30
0
41
1
10
-0.267676850973288
20
8.97951698585001
30
0
41
1
10
-0.264365591366982
20
8.9838511993112
30
0
41
1
10
-0.254037902296403
20
8.99705113816151
30
0
41
1
10
-0.246632285424596
20
9.00611180357672
30
0
41
1
10
-0.238766038090489
20
9.0154069156562
30
0
0
SPLINE
5
170
100
AcDbEntity
8
1
62
256
6
ByLayer
370
13
48
1
60
0
100
AcDbSpline
70
4
71
3
72
22
73
18
40
0
40
0
40
0
40
0
40
0.125
40
0.125
40
0.25
40
0.25
40
0.375
40
0.375
40
0.5
40
0.5
40
0.625
40
0.625
40
0.75
40
0.75
40
0.875
40
0.875
40
1
40
1
40
1
40
1
41
1
10
-0.238766038090404
20
8.9180198046777
30
0
41
1
10
-0.242657936149783
20
8.91463054446251
30
0
41
1
10
-0.246496447696302
20
8.91137447084949
30
0
41
1
10
-0.254050691593193
20
8.90516717349271
30
0
41
1
10
-0.257767737485693
20
8.9022164822554
30
0
41
1
10
-0.264885408114992
20
8.89680341437619
30
0
41
1
10
-0.26830751050889
20
8.8943227371241
30
0
41
1
10
-0.274834775546481
20
8.889882650217
30
0
41
1
10
-0.277963184829588
20
8.88791179289501
30
0
41
1
10
-0.28363616581538
20
8.88471124612781
30
0
41
1
10
-0.286201212897595
20
8.88346470244059
30
0
41
1
10
-0.290727441283906
20
8.88175572667731
30
0
41
1
10
-0.292655664543787
20
8.88131214132662
30
0
41
1
10
-0.295715452737284
20
8.88127631016081
30
0
41
1
10
-0.296872756652704
20
8.88167828184942
30
0
41
1
10
-0.2984059718369
20
8.88331720260371
30
0
41
1
10
-0.298766038090491
20
8.88452867228511
30
0
41
1
10
-0.298766038090491
20
8.88608666885992
30
0
0
SPLINE
5
171
100
AcDbEntity
8
1
62
256
6
ByLayer
370
13
48
1
60
0
100
AcDbSpline
70
4
71
3
72
8
73
4
40
0
40
0
40
0
40
0
40
1
40
1
40
1
40
1
41
1
10
0.346265716640005
20
9.42582986714081
30
0
41
1
10
0.151036473192903
20
9.25689572565551
30
0
41
1
10
-0.043986030777603
20
9.0876440135917
30
0
41
1
10
-0.238766038090404
20
8.9180198046777
30
0
0
SPLINE
5
172
100
AcDbEntity
8
1
62
256
6
ByLayer
370
13
48
1
60
0
100
AcDbSpline
70
4
71
3
72
28
73
24
40
0
40
0
40
0
40
0
40
0.124999999999996
40
0.124999999999996
40
0.249999999999991
40
0.249999999999991
40
0.312499999999989
40
0.312499999999989
40
0.374999999999987
40
0.374999999999987
40
0.437499999999984
40
0.437499999999984
40
0.499999999999982
40
0.499999999999982
40
0.56249999999998
40
0.56249999999998
40
0.624999999999977
40
0.624999999999977
40
0.749999999999985
40
0.749999999999985
40
0.874999999999992
40
0.874999999999992
40
1
40
1
40
1
40
1
41
1
10
0.346265716640005
20
9.42582986714081
30
0
41
1
10
0.355576296196716
20
9.4338864202287
30
0
41
1
10
0.364704812250409
20
9.4412900283352
30
0
41
1
10
0.381461090611595
20
9.45352169775592
30
0
41
1
10
0.389268601648212
20
9.45846110203851
30
0
41
1
10
0.398641978451309
20
9.4627233554987
30
0
41
1
10
0.401411870389808
20
9.46363244882181
30
0
41
1
10
0.405901456542892
20
9.46427175122139
30
0
41
1
10
0.4076646493819
20
9.4640260431766
30
0
41
1
10
0.410199560347905
20
9.46236952911781
30
0
41
1
10
0.410921801724896
20
9.4609933133701
30
0
41
1
10
0.411416464433103
20
9.45728386454221
30
0
41
1
10
0.411176633459093
20
9.45491927337631
30
0
41
1
10
0.409871376178899
20
9.44950366151392
30
0
41
1
10
0.408815531193511
20
9.44644915271519
30
0
41
1
10
0.406023592914693
20
9.43975462722821
30
0
41
1
10
0.40427212223122
20
9.43608903114222
30
0
41
1
10
0.39825694265042
20
9.4245915981476
30
0
41
1
10
0.393235803649702
20
9.41621863794251
30
0
41
1
10
0.381640984006907
20
9.39838907757479
30
0
41
1
10
0.375208502902893
20
9.38915624200399
30
0
41
1
10
0.361431730653209
20
9.3703230707988
30
0
41
1
10
0.35406760404291
20
9.36069696932731
30
0
41
1
10
0.346265716640119
20
9.3508811008173
30
0
0
SPLINE
5
173
100
AcDbEntity
8
1
62
256
6
ByLayer
370
13
48
1
60
0
100
AcDbSpline
70
4
71
3
72
8
73
4
40
0
40
0
40
0
40
0
40
1
40
1
40
1
40
1
41
1
10
0.346265716640005
20
9.3508811008173
30
0
41
1
10
0.148605642354113
20
9.10219700699639
30
0
41
1
10
-0.0465579190301071
20
8.85093110772311
30
0
41
1
10
-0.238766038090489
20
8.59660879440099
30
0
0
SPLINE
5
174
100
AcDbEntity
8
1
62
256
6
ByLayer
370
13
48
1
60
0
100
AcDbSpline
70
4
71
3
72
16
73
12
40
0
40
0
40
0
40
0
40
0.249999999999995
40
0.249999999999995
40
0.499999999999991
40
0.499999999999991
40
0.749999999999986
40
0.749999999999986
40
0.874999999999993
40
0.874999999999993
40
1
40
1
40
1
40
1
41
1
10
-0.238766038090489
20
8.59660879440099
30
0
41
1
10
-0.246772390164807
20
8.5860151004886
30
0
41
1
10
-0.254283920710805
20
8.57555383359809
30
0
41
1
10
-0.268044955499192
20
8.55518094111619
30
0
41
1
10
-0.274330512510005
20
8.5452275038831
30
0
41
1
10
-0.285382261313089
20
8.5259084457694
30
0
41
1
10
-0.289995233914482
20
8.5168134501088
30
0
41
1
10
-0.295026817372303
20
8.50441362708841
30
0
41
1
10
-0.296393760684197
20
8.50045317644529
30
0
41
1
10
-0.298256830976896
20
8.4932914176637
30
0
41
1
10
-0.298766038091998
20
8.49007238246222
30
0
41
1
10
-0.298766038092197
20
8.48729071407919
30
0
0
SPLINE
5
175
100
AcDbEntity
8
1
62
256
6
ByLayer
370
13
48
1
60
0
100
AcDbSpline
70
4
71
3
72
20
73
16
40
0
40
0
40
0
40
0
40
0.249999999999993
40
0.249999999999993
40
0.374999999999994
40
0.374999999999994
40
0.499999999999995
40
0.499999999999995
40
0.624999999999996
40
0.624999999999996
40
0.749999999999998
40
0.749999999999998
40
0.874999999999999
40
0.874999999999999
40
1
40
1
40
1
40
1
41
1
10
-0.298766038090491
20
8.42456067168609
30
0
41
1
10
-0.298766038090491
20
8.41994751849299
30
0
41
1
10
-0.29743121186408
20
8.41648713367221
30
0
41
1
10
-0.293071358695187
20
8.4139755063951
30
0
41
1
10
-0.291197221740504
20
8.41357422429061
30
0
41
1
10
-0.286803622682981
20
8.4137139893848
30
0
41
1
10
-0.284277921604286
20
8.41423788295
30
0
41
1
10
-0.278592873440402
20
8.41616357973911
30
0
41
1
10
-0.275419175875896
20
8.41758080201751
30
0
41
1
10
-0.268779928448907
20
8.42109457412971
30
0
41
1
10
-0.265280082205095
20
8.42320037303949
30
0
41
1
10
-0.257964511370801
20
8.42802592775681
30
0
41
1
10
-0.254177261859581
20
8.4307295786802
30
0
41
1
10
-0.246548052501595
20
8.4365071055515
30
0
41
1
10
-0.242679964515901
20
8.4395984873712
30
0
41
1
10
-0.238766038090404
20
8.4428641960161
30
0
0
SPLINE
5
176
100
AcDbEntity
8
1
62
256
6
ByLayer
370
13
48
1
60
0
100
AcDbSpline
70
4
71
3
72
8
73
4
40
0
40
0
40
0
40
0
40
1
40
1
40
1
40
1
41
1
10
-0.238766038090404
20
8.4428641960161
30
0
41
1
10
-0.0438329292448998
20
8.6055128177664
30
0
41
1
10
0.151181828961199
20
8.76803081328401
30
0
41
1
10
0.346265716640119
20
8.9304382124354
30
0
0
SPLINE
5
177
100
AcDbEntity
8
1
62
256
6
ByLayer
370
13
48
1
60
0
100
AcDbSpline
70
4
71
3
72
34
73
30
40
0
40
0
40
0
40
0
40
0.125000000000013
40
0.125000000000013
40
0.250000000000026
40
0.250000000000026
40
0.312500000000024
40
0.312500000000024
40
0.375000000000023
40
0.375000000000023
40
0.500000000000015
40
0.500000000000015
40
0.562500000000008
40
0.562500000000008
40
0.625
40
0.625
40
0.687499999999993
40
0.687499999999993
40
0.71874999999999
40
0.71874999999999
40
0.749999999999988
40
0.749999999999988
40
0.812499999999991
40
0.812499999999991
40
0.874999999999994
40
0.874999999999994
40
0.937499999999997
40
0.937499999999997
40
1
40
1
40
1
40
1
41
1
10
0.346265716640005
20
8.81943982410661
30
0
41
1
10
0.353888871138707
20
8.83023255209241
30
0
41
1
10
0.36112430933261
20
8.84098607128169
30
0
41
1
10
0.374603887145497
20
8.8621707751594
30
0
41
1
10
0.380796406074097
20
8.87251504596199
30
0
41
1
10
0.389146047810016
20
8.88760203722569
30
0
41
1
10
0.391771420381019
20
8.89255887664029
30
0
41
1
10
0.396662403519599
20
8.90230774443739
30
0
41
1
10
0.398939172074705
20
8.9071256598065
30
0
41
1
10
0.405024743286418
20
8.9210543567383
30
0
41
1
10
0.408125626531103
20
8.92965790754249
30
0
41
1
10
0.410713545978013
20
8.94109548067129
30
0
41
1
10
0.411211700128319
20
8.9446259495125
30
0
41
1
10
0.411311380918704
20
8.95081882810061
30
0
41
1
10
0.410919795236907
20
8.9535180011809
30
0
41
1
10
0.409042436765816
20
8.9578786142215
30
0
41
1
10
0.407586029916615
20
8.9594735170659
30
0
41
1
10
0.404542001075214
20
8.9608977737845
30
0
41
1
10
0.403372370378719
20
8.9612102911764
30
0
41
1
10
0.400790249568615
20
8.9614813388732
30
0
41
1
10
0.399378351371496
20
8.9614438574018
30
0
41
1
10
0.394793132174897
20
8.96083208463699
30
0
41
1
10
0.391242575660016
20
8.9597481983061
30
0
41
1
10
0.383357003691003
20
8.95633743286771
30
0
41
1
10
0.379134500147217
20
8.95406814189491
30
0
41
1
10
0.370224319860199
20
8.94859646019151
30
0
41
1
10
0.365506802551209
20
8.94536665320879
30
0
41
1
10
0.355994700139718
20
8.93833617399849
30
0
41
1
10
0.351162140167503
20
8.93451448659479
30
0
41
1
10
0.346265716640119
20
8.93043821243549
30
0
0
SPLINE
5
178
100
AcDbEntity
8
1
62
256
6
ByLayer
370
13
48
1
60
0
100
AcDbSpline
70
4
71
3
72
8
73
4
40
0
40
0
40
0
40
0
40
1
40
1
40
1
40
1
41
1
10
-0.238766038090489
20
7.96246215399529
30
0
41
1
10
-0.0481171481025058
20
8.25209149541752
30
0
41
1
10
0.147142215126308
20
8.5375242748685
30
0
41
1
10
0.346265716640119
20
8.81943982410661
30
0
0
SPLINE
5
179
100
AcDbEntity
8
1
62
256
6
ByLayer
370
13
48
1
60
0
100
AcDbSpline
70
4
71
3
72
18
73
14
40
0
40
0
40
0
40
0
40
0.125
40
0.125
40
0.25
40
0.25
40
0.375
40
0.375
40
0.5
40
0.5
40
0.75
40
0.75
40
1
40
1
40
1
40
1
41
1
10
-0.298766038096289
20
7.82773382403391
30
0
41
1
10
-0.298766038095693
20
7.83185503828182
30
0
41
1
10
-0.298237933126785
20
7.83638623680241
30
0
41
1
10
-0.296350276484986
20
7.8460913130092
30
0
41
1
10
-0.294980050857788
20
7.85127969285989
30
0
41
1
10
-0.291623985313606
20
7.86192147437421
30
0
41
1
10
-0.289631622033085
20
7.86741017949561
30
0
41
1
10
-0.285119506601689
20
7.87866871132022
30
0
41
1
10
-0.282587691493006
20
7.88446251218599
30
0
41
1
10
-0.274361146615803
20
7.9020535705186
30
0
41
1
10
-0.268105495621484
20
7.91394639937781
30
0
41
1
10
-0.254357825065682
20
7.93800150292532
30
0
41
1
10
-0.24686074840929
20
7.95016485911572
30
0
41
1
10
-0.238766038090489
20
7.96246215399529
30
0
0
SPLINE
5
17A
100
AcDbEntity
8
1
62
256
6
ByLayer
370
13
48
1
60
0
100
AcDbSpline
70
4
71
3
72
20
73
16
40
0
40
0
40
0
40
0
40
0.250000000000015
40
0.250000000000015
40
0.375000000000013
40
0.375000000000013
40
0.50000000000001
40
0.50000000000001
40
0.625000000000008
40
0.625000000000008
40
0.750000000000005
40
0.750000000000005
40
0.875000000000003
40
0.875000000000003
40
1
40
1
40
1
40
1
41
1
10
-0.238766038090489
20
7.74001513577329
30
0
41
1
10
-0.246778147569984
20
7.73346997593859
30
0
41
1
10
-0.254636386409885
20
7.7278493430459
30
0
41
1
10
-0.265993683054404
20
7.721530159146
30
0
41
1
10
-0.269625034726403
20
7.71983219554531
30
0
41
1
10
-0.276429015767008
20
7.71741188063311
30
0
41
1
10
-0.279645141504289
20
7.71668806427749
30
0
41
1
10
-0.285284040901502
20
7.71635522074291
30
0
41
1
10
-0.287747684498186
20
7.71672277096042
30
0
41
1
10
-0.29197037266448
20
7.7185109459823
30
0
41
1
10
-0.293684076962904
20
7.7199250667758
30
0
41
1
10
-0.296321713390881
20
7.72355615680431
30
0
41
1
10
-0.297271372448989
20
7.72580265925421
30
0
41
1
10
-0.29849282988809
20
7.73092555322521
30
0
41
1
10
-0.298766038091003
20
7.7337740176898
30
0
41
1
10
-0.298766038091003
20
7.7368539219807
30
0
0
SPLINE
5
17B
100
AcDbEntity
8
1
62
256
6
ByLayer
370
13
48
1
60
0
100
AcDbSpline
70
4
71
3
72
8
73
4
40
0
40
0
40
0
40
0
40
1
40
1
40
1
40
1
41
1
10
0.346265716640005
20
8.21791850335029
30
0
41
1
10
0.151253335928715
20
8.05862031200351
30
0
41
1
10
-0.0437573598621839
20
7.89931937037341
30
0
41
1
10
-0.238766038090489
20
7.74001513577329
30
0
0
SPLINE
5
17C
100
AcDbEntity
8
1
62
256
6
ByLayer
370
13
48
1
60
0
100
AcDbSpline
70
4
71
3
72
35
73
31
40
0
40
0
40
0
40
0
40
0.0625000000000082
40
0.0625000000000082
40
0.125000000000016
40
0.125000000000016
40
0.187500000000025
40
0.187500000000025
40
0.218750000000032
40
0.218750000000032
40
0.250000000000039
40
0.281250000000047
40
0.281250000000047
40
0.312500000000054
40
0.312500000000054
40
0.375000000000057
40
0.375000000000057
40
0.500000000000056
40
0.500000000000056
40
0.562500000000051
40
0.562500000000051
40
0.625000000000046
40
0.625000000000046
40
0.687500000000041
40
0.687500000000041
40
0.750000000000036
40
0.750000000000036
40
0.875000000000018
40
0.875000000000018
40
1
40
1
40
1
40
1
41
1
10
0.346265716640005
20
8.21791850335029
30
0
41
1
10
0.351558959840702
20
8.22224235225229
30
0
41
1
10
0.35687737524691
20
8.22624971032721
30
0
41
1
10
0.367199348876198
20
8.2331876408121
30
0
41
1
10
0.372219442980509
20
8.23613957003479
30
0
41
1
10
0.381898577725195
20
8.24071086586392
30
0
41
1
10
0.386398735801521
20
8.2422452881338
30
0
41
1
10
0.392458537207602
20
8.24323619641501
30
0
41
1
10
0.394380411484406
20
8.24334599381851
30
0
41
1
10
0.39787038850821
20
8.24311272730739
30
0
41
1
10
0.401038027716311
20
8.2424376247634
30
0
41
1
10
0.403596213452516
20
8.24092512180701
30
0
41
1
10
0.405859819350297
20
8.23900684070242
30
0
41
1
10
0.406839899462795
20
8.23784256920371
30
0
41
1
10
0.409288105076598
20
8.23389344529869
30
0
41
1
10
0.410308143255094
20
8.2306292886521
30
0
41
1
10
0.411890341627213
20
8.21930482758901
30
0
41
1
10
0.410976151058293
20
8.2101909230179
30
0
41
1
10
0.407806617854817
20
8.195141248223
30
0
41
1
10
0.406439732507096
20
8.18990732527359
30
0
41
1
10
0.403234906304505
20
8.17921985111451
30
0
41
1
10
0.40139153878701
20
8.17374357863329
30
0
41
1
10
0.397292642834003
20
8.16256380645461
30
0
41
1
10
0.395027037996414
20
8.15683785703541
30
0
41
1
10
0.390176819490705
20
8.14530323463691
30
0
41
1
10
0.387596203164208
20
8.1395007679512
30
0
41
1
10
0.379444410727416
20
8.1220008515194
30
0
41
1
10
0.373467609310609
20
8.11021180277669
30
0
41
1
10
0.360572304911102
20
8.08642377673141
30
0
41
1
10
0.353652223878214
20
8.0744244349452
30
0
41
1
10
0.346265716640119
20
8.06232349484051
30
0
0
SPLINE
5
17D
100
AcDbEntity
8
1
62
256
6
ByLayer
370
13
48
1
60
0
100
AcDbSpline
70
4
71
3
72
8
73
4
40
0
40
0
40
0
40
0
40
1
40
1
40
1
40
1
41
1
10
0.346265716640005
20
8.06232349484051
30
0
41
1
10
0.144518473908818
20
7.731811221328
30
0
41
1
10
-0.0509232601508813
20
7.39641550229149
30
0
41
1
10
-0.238766038090489
20
7.0551345977473
30
0
0
SPLINE
5
17E
100
AcDbEntity
8
1
62
256
6
ByLayer
370
13
48
1
60
0
100
AcDbSpline
70
4
71
3
72
16
73
12
40
0
40
0
40
0
40
0
40
0.250000000000002
40
0.250000000000002
40
0.500000000000004
40
0.500000000000004
40
0.750000000000006
40
0.750000000000006
40
0.875000000000003
40
0.875000000000003
40
1
40
1
40
1
40
1
41
1
10
-0.238766038090489
20
7.0551345977473
30
0
41
1
10
-0.247032191702004
20
7.0401162914138
30
0
41
1
10
-0.254652252137589
20
7.0251169796374
30
0
41
1
10
-0.26856321651789
20
6.99515025756341
30
0
41
1
10
-0.2748145200365
20
6.98025772580391
30
0
41
1
10
-0.285524085337983
20
6.95114907534472
30
0
41
1
10
-0.290028394679581
20
6.9368629589288
30
0
41
1
10
-0.295008767320496
20
6.91599830867381
30
0
41
1
10
-0.296356347495191
20
6.90916968082391
30
0
41
1
10
-0.298228720516391
20
6.89609510749742
30
0
41
1
10
-0.298766038089894
20
6.88981219951941
30
0
41
1
10
-0.298766038090491
20
6.88387462242099
30
0
0
SPLINE
5
17F
100
AcDbEntity
8
1
62
256
6
ByLayer
370
13
48
1
60
0
100
AcDbSpline
70
4
71
3
72
20
73
16
40
0
40
0
40
0
40
0
40
0.249999999999981
40
0.249999999999981
40
0.499999999999962
40
0.499999999999962
40
0.624999999999952
40
0.624999999999952
40
0.687499999999954
40
0.687499999999954
40
0.749999999999957
40
0.749999999999957
40
0.874999999999978
40
0.874999999999978
40
1
40
1
40
1
40
1
41
1
10
-0.298766038090804
20
6.75422790153522
30
0
41
1
10
-0.298766038090804
20
6.74624100650911
30
0
41
1
10
-0.297866956752301
20
6.73884533736091
30
0
41
1
10
-0.293321491620304
20
6.72682412073772
30
0
41
1
10
-0.289552829283593
20
6.72212145869472
30
0
41
1
10
-0.281197666383292
20
6.71918029790712
30
0
41
1
10
-0.278056344993786
20
6.71889373692201
30
0
41
1
10
-0.272803987507587
20
6.7195210159926
30
0
41
1
10
-0.270944792530599
20
6.71991351009609
30
0
41
1
10
-0.267160153884191
20
6.72102314681129
30
0
41
1
10
-0.2652308840415
20
6.7217371717652
30
0
41
1
10
-0.259344532116785
20
6.72430495445042
30
0
41
1
10
-0.255270301239079
20
6.7265944698907
30
0
41
1
10
-0.246984436529004
20
6.7320711577679
30
0
41
1
10
-0.242865994401285
20
6.73519078451301
30
0
41
1
10
-0.238766038089295
20
6.73859871236391
30
0
0
SPLINE
5
180
100
AcDbEntity
8
1
62
256
6
ByLayer
370
13
48
1
60
0
100
AcDbSpline
70
4
71
3
72
8
73
4
40
0
40
0
40
0
40
0
40
1
40
1
40
1
40
1
41
1
10
-0.238766038089295
20
6.73859871236411
30
0
41
1
10
-0.0438339985502978
20
6.90062832341249
30
0
41
1
10
0.151181810104816
20
7.06252340274241
30
0
41
1
10
0.346265716640119
20
7.22430911808161
30
0
0
SPLINE
5
181
100
AcDbEntity
8
1
62
256
6
ByLayer
370
13
48
1
60
0
100
AcDbSpline
70
4
71
3
72
34
73
30
40
0
40
0
40
0
40
0
40
0.125000000000005
40
0.125000000000005
40
0.250000000000009
40
0.250000000000009
40
0.375000000000013
40
0.375000000000013
40
0.500000000000018
40
0.500000000000018
40
0.625000000000022
40
0.625000000000022
40
0.68750000000002
40
0.68750000000002
40
0.750000000000017
40
0.750000000000017
40
0.781250000000018
40
0.781250000000018
40
0.812500000000018
40
0.812500000000018
40
0.843750000000018
40
0.843750000000018
40
0.875000000000018
40
0.875000000000018
40
0.937500000000012
40
0.937500000000012
40
0.968750000000006
40
0.968750000000006
40
1
40
1
40
1
40
1
41
1
10
0.346265716640005
20
7.00675397702591
30
0
41
1
10
0.353418765392121
20
7.02097460201321
30
0
41
1
10
0.360126055978213
20
7.03517114454661
30
0
41
1
10
0.372646604814094
20
7.0635121108636
30
0
41
1
10
0.378481649261602
20
7.0777141483577
30
0
41
1
10
0.389029476340596
20
7.10574470182581
30
0
41
1
10
0.393741593269397
20
7.11955359909831
30
0
41
1
10
0.401818060138396
20
7.1466781675467
30
0
41
1
10
0.405194397461798
20
7.15999798749499
30
0
41
1
10
0.4100323189964
20
7.1859456423642
30
0
41
1
10
0.411456238318294
20
7.1982690205711
30
0
41
1
10
0.411140881080598
20
7.21509252783611
30
0
41
1
10
0.41060517861942
20
7.2204530027108
30
0
41
1
10
0.408397660505102
20
7.22999059558981
30
0
41
1
10
0.406723797402918
20
7.23423836930169
30
0
41
1
10
0.403031033065901
20
7.23934652505011
30
0
41
1
10
0.401620740832897
20
7.2408102741669
30
0
41
1
10
0.398393671330496
20
7.24319794599111
30
0
41
1
10
0.3965542949461
20
7.2441266093191
30
0
41
1
10
0.392531498695121
20
7.24532198770649
30
0
41
1
10
0.390354197517297
20
7.24559635820651
30
0
41
1
10
0.385666031665409
20
7.24549698429391
30
0
41
1
10
0.38313128059022
20
7.2451164665377
30
0
41
1
10
0.375175657596117
20
7.24301991206809
30
0
41
1
10
0.369590206640709
20
7.24043765081402
30
0
41
1
10
0.360888126577805
20
7.23521008587372
30
0
41
1
10
0.35793433509491
20
7.23323617476279
30
0
41
1
10
0.352087555961617
20
7.22899746908482
30
0
41
1
10
0.349172923963408
20
7.22672010433311
30
0
41
1
10
0.346265716640005
20
7.224309118082
30
0
0
SPLINE
5
182
100
AcDbEntity
8
1
62
256
6
ByLayer
370
13
48
1
60
0
100
AcDbSpline
70
4
71
3
72
8
73
4
40
0
40
0
40
0
40
0
40
1
40
1
40
1
40
1
41
1
10
-0.238766038090489
20
5.7466550800153
30
0
41
1
10
-0.0570098824346985
20
6.17489292256701
30
0
41
1
10
0.138849682735895
20
6.59440034478462
30
0
41
1
10
0.346265716640005
20
7.00675397702591
30
0
0
SPLINE
5
183
100
AcDbEntity
8
1
62
256
6
ByLayer
370
13
48
1
60
0
100
AcDbSpline
70
4
71
3
72
18
73
14
40
0
40
0
40
0
40
0
40
0.124999999999998
40
0.124999999999998
40
0.249999999999996
40
0.249999999999996
40
0.374999999999994
40
0.374999999999994
40
0.499999999999991
40
0.499999999999991
40
0.749999999999996
40
0.749999999999996
40
1
40
1
40
1
40
1
41
1
10
-0.298766038090491
20
5.511537224497
30
0
41
1
10
-0.298766038090093
20
5.52053533356769
30
0
41
1
10
-0.298220746774405
20
5.52979262896702
30
0
41
1
10
-0.296354158982695
20
5.54867030875801
30
0
41
1
10
-0.295027939898688
20
5.55829312815371
30
0
41
1
10
-0.291741804156203
20
5.5778317988844
30
0
41
1
10
-0.28978921539499
20
5.58768952825841
30
0
41
1
10
-0.285403303868804
20
5.60739196566522
30
0
41
1
10
-0.282964502891588
20
5.61726408732
30
0
41
1
10
-0.275000796146486
20
5.6469345736449
30
0
41
1
10
-0.268836679928086
20
5.6667861640222
30
0
41
1
10
-0.254975900940281
20
5.70661892512311
30
0
41
1
10
-0.247277898616289
20
5.72660018407819
30
0
41
1
10
-0.238766038090688
20
5.7466550800153
30
0
0
SPLINE
5
184
100
AcDbEntity
8
1
62
256
6
ByLayer
370
13
48
1
60
0
100
AcDbSpline
70
4
71
3
72
22
73
18
40
0
40
0
40
0
40
0
40
0.124999999999997
40
0.124999999999997
40
0.187499999999996
40
0.187499999999996
40
0.249999999999994
40
0.249999999999994
40
0.374999999999993
40
0.374999999999993
40
0.499999999999993
40
0.499999999999993
40
0.624999999999992
40
0.624999999999992
40
0.749999999999991
40
0.749999999999991
40
1
40
1
40
1
40
1
41
1
10
-0.238766038090489
20
5.2711090533563
30
0
41
1
10
-0.243144734907503
20
5.26705565851111
30
0
41
1
10
-0.24759635855969
20
5.2634557817666
30
0
41
1
10
-0.254437872618894
20
5.25907123905591
30
0
41
1
10
-0.256757471176087
20
5.25777969095969
30
0
41
1
10
-0.261307031956193
20
5.2557045060388
30
0
41
1
10
-0.263553509252603
20
5.25490821145522
30
0
41
1
10
-0.270194365497588
20
5.25335737256302
30
0
41
1
10
-0.274260215490983
20
5.25351130118099
30
0
41
1
10
-0.281473127584405
20
5.2561399174441
30
0
41
1
10
-0.284448438405292
20
5.25852879054241
30
0
41
1
10
-0.289387484269582
20
5.26471872579981
30
0
41
1
10
-0.291282754694691
20
5.2684042303373
30
0
41
1
10
-0.29434244578718
20
5.27652174259111
30
0
41
1
10
-0.295503564791005
20
5.28098651115761
30
0
41
1
10
-0.29813260722608
20
5.29504264256749
30
0
41
1
10
-0.298766038122807
20
5.3051120730909
30
0
41
1
10
-0.298766038121386
20
5.31556960530929
30
0
0
SPLINE
5
185
100
AcDbEntity
8
1
62
256
6
ByLayer
370
13
48
1
60
0
100
AcDbSpline
70
4
71
3
72
8
73
4
40
0
40
0
40
0
40
0
40
1
40
1
40
1
40
1
41
1
10
0.346265716640005
20
5.80707324775992
30
0
41
1
10
0.150537469722195
20
5.6294630013017
30
0
41
1
10
-0.0445400186029019
20
5.45090564103819
30
0
41
1
10
-0.238766038090489
20
5.2711090533563
30
0
0
SPLINE
5
186
100
AcDbEntity
8
1
62
256
6
ByLayer
370
13
48
1
60
0
100
AcDbSpline
70
4
71
3
72
36
73
32
40
0
40
0
40
0
40
0
40
0.0312499999999984
40
0.0312499999999984
40
0.0624999999999968
40
0.0624999999999968
40
0.0937499999999952
40
0.0937499999999952
40
0.124999999999994
40
0.124999999999994
40
0.156249999999992
40
0.156249999999992
40
0.18749999999999
40
0.18749999999999
40
0.218749999999989
40
0.218749999999989
40
0.249999999999987
40
0.249999999999987
40
0.312499999999988
40
0.312499999999988
40
0.374999999999989
40
0.374999999999989
40
0.437499999999989
40
0.437499999999989
40
0.49999999999999
40
0.49999999999999
40
0.624999999999991
40
0.624999999999991
40
0.749999999999992
40
0.749999999999992
40
1
40
1
40
1
40
1
41
1
10
0.346265716640005
20
5.80707324776011
30
0
41
1
10
0.349678697067418
20
5.8101702984128
30
0
41
1
10
0.353131239448913
20
5.81302081029511
30
0
41
1
10
0.360138691989704
20
5.81808143694579
30
0
41
1
10
0.363735810739399
20
5.8203112760238
30
0
41
1
10
0.370802053653506
20
5.82375154792029
30
0
41
1
10
0.374312572365909
20
5.8249818688939
30
0
41
1
10
0.381014987136894
20
5.82618227117339
30
0
41
1
10
0.384133113455306
20
5.82615005382871
30
0
41
1
10
0.389910789379798
20
5.82483719161272
30
0
41
1
10
0.392533974977113
20
5.82354423069759
30
0
41
1
10
0.3970842931802
20
5.82001553985131
30
0
41
1
10
0.399071770833217
20
5.81774306788012
30
0
41
1
10
0.402452069861596
20
5.8125716931032
30
0
41
1
10
0.403857834409905
20
5.80967600040651
30
0
41
1
10
0.406242019312316
20
5.80341655394361
30
0
41
1
10
0.407220885421111
20
5.8000368354503
30
0
41
1
10
0.409603755861014
20
5.78952778928851
30
0
41
1
10
0.410491913148519
20
5.78198882325501
30
0
41
1
10
0.411373796802508
20
5.76622214559259
30
0
41
1
10
0.4113542669065
20
5.75802026932772
30
0
41
1
10
0.410670080009112
20
5.74136178233601
30
0
41
1
10
0.41000375148522
20
5.73286858496121
30
0
41
1
10
0.408173440989003
20
5.71562717454592
30
0
41
1
10
0.407003343393399
20
5.70685075902921
30
0
41
1
10
0.402914061231996
20
5.68044559281759
30
0
41
1
10
0.399432959921796
20
5.66273776847899
30
0
41
1
10
0.391389782241106
20
5.62716570099531
30
0
41
1
10
0.386820259515503
20
5.6093005779243
30
0
41
1
10
0.371735022856797
20
5.55550232036461
30
0
41
1
10
0.359881597900909
20
5.51937056012329
30
0
41
1
10
0.346265716640119
20
5.48298661263681
30
0
0
SPLINE
5
187
100
AcDbEntity
8
1
62
256
6
ByLayer
370
13
48
1
60
0
100
AcDbSpline
70
4
71
3
72
9
73
5
40
0
40
0
40
0
40
0
40
0.5
40
1
40
1
40
1
40
1
41
1
10
0.34626571663992
20
5.48298661263689
30
0
41
1
10
0.2329334945303
20
5.1801436648486
30
0
41
1
10
0.0209674696048978
20
4.56828361732371
30
0
41
1
10
-0.158260855832395
20
3.94267191888781
30
0
41
1
10
-0.238766038090802
20
3.626039792277
30
0
0
SPLINE
5
188
100
AcDbEntity
8
1
62
256
6
ByLayer
370
13
48
1
60
0
100
AcDbSpline
70
4
71
3
72
16
73
12
40
0
40
0
40
0
40
0
40
0.25
40
0.25
40
0.5
40
0.5
40
0.75
40
0.75
40
0.875
40
0.875
40
1
40
1
40
1
40
1
41
1
10
-0.238766038090802
20
3.62603979227691
30
0
41
1
10
-0.247808555432982
20
3.59047498246412
30
0
41
1
10
-0.255802100768307
20
3.55487689278812
30
0
41
1
10
-0.269947333057701
20
3.48360789859171
30
0
41
1
10
-0.276097273881106
20
3.4479370453964
30
0
41
1
10
-0.286494970491503
20
3.37651784991832
30
0
41
1
10
-0.290728611483189
20
3.3409094784592
30
0
41
1
10
-0.295306914372588
20
3.2878563296097
30
0
41
1
10
-0.296535603749788
20
3.27022518609831
30
0
41
1
10
-0.29826283920869
20
3.2351004319824
30
0
41
1
10
-0.298766038090605
20
3.21760574347741
30
0
41
1
10
-0.298766038090491
20
3.20021168309731
30
0
0
SPLINE
5
189
100
AcDbEntity
8
1
62
256
6
ByLayer
370
13
48
1
60
0
100
AcDbSpline
70
4
71
3
72
30
73
26
40
0
40
0
40
0
40
0
40
0.250000000000003
40
0.250000000000003
40
0.375000000000005
40
0.375000000000005
40
0.500000000000006
40
0.500000000000006
40
0.625000000000007
40
0.625000000000007
40
0.687500000000002
40
0.687500000000002
40
0.749999999999997
40
0.749999999999997
40
0.781250000000001
40
0.781250000000001
40
0.812500000000004
40
0.812500000000004
40
0.843750000000008
40
0.843750000000008
40
0.875000000000011
40
0.875000000000011
40
0.937500000000006
40
0.937500000000006
40
1
40
1
40
1
40
1
41
1
10
-0.298766038091202
20
2.7867481602207
30
0
41
1
10
-0.298766038091287
20
2.76838012961289
30
0
41
1
10
-0.298361754073994
20
2.75016200923451
30
0
41
1
10
-0.296801604793103
20
2.72320781244019
30
0
41
1
10
-0.296120559708896
20
2.71428611408391
30
0
41
1
10
-0.29430348164189
20
2.69662545854192
30
0
41
1
10
-0.293173214016292
20
2.68788404764899
30
0
41
1
10
-0.290176771917402
20
2.6707036116251
30
0
41
1
10
-0.288318457678685
20
2.66222543903621
30
0
41
1
10
-0.284517877743497
20
2.65043789942899
30
0
41
1
10
-0.283078956791684
20
2.6466524317826
30
0
41
1
10
-0.279597137096602
20
2.6395894968459
30
0
41
1
10
-0.277564306166482
20
2.63632747263139
30
0
41
1
10
-0.273833693036096
20
2.6325173114659
30
0
41
1
10
-0.272458273991901
20
2.6314241229513
30
0
41
1
10
-0.269498845512288
20
2.6298422704063
30
0
41
1
10
-0.267878826044694
20
2.62934410854211
30
0
41
1
10
-0.264545278097103
20
2.6291024228756
30
0
41
1
10
-0.262787067989706
20
2.6293582557262
30
0
41
1
10
-0.2593460978498
20
2.63052688872051
30
0
41
1
10
-0.25765837267079
20
2.63142227872049
30
0
41
1
10
-0.252671056146596
20
2.6348302958491
30
0
41
1
10
-0.249574000686806
20
2.63796373877261
30
0
41
1
10
-0.243866092570102
20
2.6448229683181
30
0
41
1
10
-0.241250309405586
20
2.64855147541499
30
0
41
1
10
-0.238766038090489
20
2.6524456753865
30
0
0
SPLINE
5
18A
100
AcDbEntity
8
1
62
256
6
ByLayer
370
13
48
1
60
0
100
AcDbSpline
70
4
71
3
72
10
73
6
40
0
40
0
40
0
40
0
40
0.5
40
0.5
40
1
40
1
40
1
40
1
41
1
10
-0.238766038090489
20
2.6524456753865
30
0
41
1
10
-0.147037523547795
20
2.79623398729501
30
0
41
1
10
-0.0519336042862903
20
2.93685070628589
30
0
41
1
10
0.143506164042094
20
3.21316812592431
30
0
41
1
10
0.243847970708202
20
3.34886322870071
30
0
41
1
10
0.346265716640119
20
3.482607740416
30
0
0
SPLINE
5
18B
100
AcDbEntity
8
1
62
256
6
ByLayer
370
13
48
1
60
0
100
AcDbSpline
70
4
71
3
72
40
73
36
40
0
40
0
40
0
40
0
40
0.249999999999997
40
0.249999999999997
40
0.374999999999996
40
0.374999999999996
40
0.499999999999994
40
0.499999999999994
40
0.624999999999993
40
0.624999999999993
40
0.68749999999999
40
0.68749999999999
40
0.749999999999988
40
0.749999999999988
40
0.812499999999985
40
0.812499999999985
40
0.843749999999984
40
0.843749999999984
40
0.874999999999983
40
0.874999999999983
40
0.906249999999982
40
0.906249999999982
40
0.921874999999984
40
0.921874999999984
40
0.937499999999986
40
0.937499999999986
40
0.945312499999989
40
0.945312499999989
40
0.953124999999993
40
0.953124999999993
40
0.968749999999995
40
0.968749999999995
40
0.984374999999998
40
0.984374999999998
40
1
40
1
40
1
40
1
41
1
10
0.346265716640005
20
2.81188236927781
30
0
41
1
10
0.358075594634698
20
2.87644948912791
30
0
41
1
10
0.368780546882221
20
2.94095253374209
30
0
41
1
10
0.382937453949893
20
3.0376108425555
30
0
41
1
10
0.387336973600498
20
3.06984525755482
30
0
41
1
10
0.395314679826612
20
3.13404896532799
30
0
41
1
10
0.398898765476304
20
3.16603353775929
30
0
41
1
10
0.404982917588114
20
3.22971538360781
30
0
41
1
10
0.407493841126495
20
3.26141473396692
30
0
41
1
10
0.41001476821981
20
3.3086653049748
30
0
41
1
10
0.410644816296696
20
3.32436523814582
30
0
41
1
10
0.411327989563716
20
3.3556346255213
30
0
41
1
10
0.411385875870593
20
3.37120498870701
30
0
41
1
10
0.410626712819209
20
3.40215820706879
30
0
41
1
10
0.409820004327202
20
3.41750439355221
30
0
41
1
10
0.407487145736894
20
3.43978912725041
30
0
41
1
10
0.406519589544104
20
3.44710639110971
30
0
41
1
10
0.404011247381618
20
3.4614110383115
30
0
41
1
10
0.4024746697757
20
3.46842505562759
30
0
41
1
10
0.3984177982652
20
3.48179171056282
30
0
41
1
10
0.395966268674101
20
3.48804126112862
30
0
41
1
10
0.390899844330704
20
3.49600672595162
30
0
41
1
10
0.388992533509708
20
3.4983715426342
30
0
41
1
10
0.384614286119216
20
3.50211542496069
30
0
41
1
10
0.3821056126977
20
3.50349120952239
30
0
41
1
10
0.37801436242691
20
3.50437624603612
30
0
41
1
10
0.376570686312618
20
3.50447973323901
30
0
41
1
10
0.37367012958822
20
3.5042840477133
30
0
41
1
10
0.372204947445795
20
3.50399132913671
30
0
41
1
10
0.367768245882019
20
3.5025758676683
30
0
41
1
10
0.364771062472215
20
3.50090191827331
30
0
41
1
10
0.359061646879809
20
3.4966983148598
30
0
41
1
10
0.356301146964796
20
3.49414796232369
30
0
41
1
10
0.35111196028592
20
3.48867258640081
30
0
41
1
10
0.348645189370615
20
3.48571502827511
30
0
41
1
10
0.346265716640119
20
3.482607740416
30
0
0
SPLINE
5
18C
100
AcDbEntity
8
1
62
256
6
ByLayer
370
13
48
1
60
0
100
AcDbSpline
70
4
71
3
72
17
73
13
40
0
40
0
40
0
40
0
40
0.125
40
0.1875
40
0.1875
40
0.25
40
0.25
40
0.5
40
0.5
40
0.75
40
0.75
40
1
40
1
40
1
40
1
41
1
10
0.346265716640005
20
-2.81188181539841
30
0
41
1
10
0.303675593074814
20
-2.5790325333046
30
0
41
1
10
0.247277859807809
20
-2.2282722163886
30
0
41
1
10
0.202577022997701
20
-1.87518985535189
30
0
41
1
10
0.175425623688994
20
-1.63927570908459
30
0
41
1
10
0.163209121009402
20
-1.521352306571
30
0
41
1
10
0.108958737514513
20
-0.932123426161183
30
0
41
1
10
0.0874238897233113
20
-0.461752552394785
30
0
41
1
10
0.0878938619256928
20
0.476973587674706
30
0
41
1
10
0.109897097784
20
0.945328927313
30
0
41
1
10
0.19651889229911
20
1.8800667903725
30
0
41
1
10
0.261134062016396
20
2.34644947067991
30
0
41
1
10
0.346265716640119
20
2.81188236927781
30
0
0
SPLINE
5
18D
100
AcDbEntity
8
1
62
256
6
ByLayer
370
13
48
1
60
0
100
AcDbSpline
70
4
71
3
72
38
73
34
40
0
40
0
40
0
40
0
40
0.0156250000000023
40
0.0156250000000023
40
0.0312500000000046
40
0.0312500000000046
40
0.0468750000000069
40
0.0468750000000069
40
0.0625000000000091
40
0.0625000000000091
40
0.0781250000000114
40
0.0781250000000114
40
0.0937500000000137
40
0.0937500000000137
40
0.125000000000014
40
0.125000000000014
40
0.156250000000014
40
0.156250000000014
40
0.187500000000014
40
0.187500000000014
40
0.250000000000011
40
0.250000000000011
40
0.312500000000009
40
0.312500000000009
40
0.375000000000006
40
0.375000000000006
40
0.500000000000004
40
0.500000000000004
40
0.625000000000003
40
0.625000000000003
40
0.750000000000001
40
0.750000000000001
40
1
40
1
40
1
40
1
41
1
10
0.346265716641113
20
-3.4826071865744
30
0
41
1
10
0.348646645160699
20
-3.48571637550859
30
0
41
1
10
0.351114481345718
20
-3.48867495497339
30
0
41
1
10
0.356304272326895
20
-3.49415044363039
30
0
41
1
10
0.359053356430195
20
-3.4966867775666
30
0
41
1
10
0.364698170970996
20
-3.50085250725888
30
0
41
1
10
0.367668556221901
20
-3.50252575241998
30
0
41
1
10
0.373561408778016
20
-3.504440633001
30
0
41
1
10
0.376527557793793
20
-3.5046678840198
30
0
41
1
10
0.38193464261812
20
-3.5035555205753
30
0
41
1
10
0.384429831035419
20
-3.502231091315
30
0
41
1
10
0.388823003793504
20
-3.4985542442071
30
0
41
1
10
0.39074648336441
20
-3.4962059071066
30
0
41
1
10
0.395801018835499
20
-3.48837772656509
30
0
41
1
10
0.398253992616702
20
-3.48222125235481
30
0
41
1
10
0.402318947421008
20
-3.46903887406358
30
0
41
1
10
0.403876564858109
20
-3.46205563983421
30
0
41
1
10
0.406413525171018
20
-3.44782243245689
30
0
41
1
10
0.4073948186103
20
-3.44052883053391
30
0
41
1
10
0.409765290882206
20
-3.41828933732919
30
0
41
1
10
0.410587624339598
20
-3.4029947128715
30
0
41
1
10
0.411378363735906
20
-3.37222319257029
30
0
41
1
10
0.411337615796611
20
-3.356677123232
30
0
41
1
10
0.410678970744698
20
-3.3253635014388
30
0
41
1
10
0.410056224653516
20
-3.30958498254699
30
0
41
1
10
0.407542612310095
20
-3.26205282423209
30
0
41
1
10
0.405026610630614
20
-3.23022118165801
30
0
41
1
10
0.39893383225612
20
-3.16635162739769
30
0
41
1
10
0.395345468850508
20
-3.1343122153919
30
0
41
1
10
0.387365819907814
20
-3.07006095757541
30
0
41
1
10
0.382968103289301
20
-3.03782790362089
30
0
41
1
10
0.368798979020795
20
-2.94106119382539
30
0
41
1
10
0.358084583106802
20
-2.87649807714109
30
0
41
1
10
0.346265716640005
20
-2.81188181539841
30
0
0
SPLINE
5
18E
100
AcDbEntity
8
1
62
256
6
ByLayer
370
13
48
1
60
0
100
AcDbSpline
70
4
71
3
72
10
73
6
40
0
40
0
40
0
40
0
40
0.5
40
0.5
40
1
40
1
40
1
40
1
41
1
10
0.346265716653107
20
-3.48260718655371
30
0
41
1
10
0.243847970718917
20
-3.34886267483569
30
0
41
1
10
0.143506164050507
20
-3.21316757205651
30
0
41
1
10
-0.0519336042821976
20
-2.93685015241249
30
0
41
1
10
-0.14703752354589
20
-2.79623343341859
30
0
41
1
10
-0.238766038090489
20
-2.6524451215071
30
0
0
SPLINE
5
18F
100
AcDbEntity
8
1
62
256
6
ByLayer
370
13
48
1
60
0
100
AcDbSpline
70
4
71
3
72
30
73
26
40
0
40
0
40
0
40
0
40
0.062500000000007
40
0.062500000000007
40
0.125000000000014
40
0.125000000000014
40
0.156250000000016
40
0.156250000000016
40
0.187500000000019
40
0.187500000000019
40
0.218750000000021
40
0.218750000000021
40
0.250000000000023
40
0.250000000000023
40
0.312500000000016
40
0.312500000000016
40
0.375000000000009
40
0.375000000000009
40
0.500000000000005
40
0.500000000000005
40
0.625000000000002
40
0.625000000000002
40
0.749999999999999
40
0.749999999999999
40
1
40
1
40
1
40
1
41
1
10
-0.238766038090489
20
-2.6524451215071
30
0
41
1
10
-0.241238963933995
20
-2.64856870604041
30
0
41
1
10
-0.243843704362888
20
-2.64485391477749
30
0
41
1
10
-0.249531975644402
20
-2.63800914220229
30
0
41
1
10
-0.25255596482279
20
-2.6349370153147
30
0
41
1
10
-0.257512965196696
20
-2.6315076354779
30
0
41
1
10
-0.259211226125984
20
-2.63058983786161
30
0
41
1
10
-0.262650973838788
20
-2.62938756733081
30
0
41
1
10
-0.264383505273287
20
-2.62911703908878
30
0
41
1
10
-0.26768737133628
20
-2.62930550804029
30
0
41
1
10
-0.269305554747689
20
-2.62977146971821
30
0
41
1
10
-0.272258325190705
20
-2.63128775923349
30
0
41
1
10
-0.273623269648084
20
-2.63233741190419
30
0
41
1
10
-0.277384171942089
20
-2.63607972171431
30
0
41
1
10
-0.279417148522583
20
-2.6392841083582
30
0
41
1
10
-0.282925716621094
20
-2.64628622840789
30
0
41
1
10
-0.284382523709382
20
-2.65006427373439
30
0
41
1
10
-0.288234651062993
20
-2.66187767709781
30
0
41
1
10
-0.290095219746007
20
-2.6703077300615
30
0
41
1
10
-0.293119300411206
20
-2.6875052860689
30
0
41
1
10
-0.29426955292908
20
-2.6963375381645
30
0
41
1
10
-0.296106108578385
20
-2.71410381448609
30
0
41
1
10
-0.296792126715502
20
-2.7230669125118
30
0
41
1
10
-0.298362022800603
20
-2.75011970661379
30
0
41
1
10
-0.298766038090491
20
-2.76836986483988
30
0
41
1
10
-0.298766038090491
20
-2.78674760634161
30
0
0
SPLINE
5
190
100
AcDbEntity
8
1
62
256
6
ByLayer
370
13
48
1
60
0
100
AcDbSpline
70
4
71
3
72
16
73
12
40
0
40
0
40
0
40
0
40
0.125
40
0.125
40
0.25
40
0.25
40
0.5
40
0.5
40
0.75
40
0.75
40
1
40
1
40
1
40
1
41
1
10
-0.298766038090491
20
-3.20021112921791
30
0
41
1
10
-0.298766038090605
20
-3.21760825748621
30
0
41
1
10
-0.2982627055585
20
-3.23510247222919
30
0
41
1
10
-0.296535780509401
20
-3.27022116142629
30
0
41
1
10
-0.29530751098028
20
-3.2878466842632
30
0
41
1
10
-0.29073177393829
20
-3.34087663110859
30
0
41
1
10
-0.286505944174905
20
-3.37643159882899
30
0
41
1
10
-0.276110426360304
20
-3.44785644818461
30
0
41
1
10
-0.269954828996305
20
-3.48356727868199
30
0
41
1
10
-0.255804868147607
20
-3.55486469282059
30
0
41
1
10
-0.2478092561729
20
-3.59047167252859
30
0
41
1
10
-0.238766038090802
20
-3.62603923839751
30
0
0
SPLINE
5
191
100
AcDbEntity
8
1
62
256
6
ByLayer
370
13
48
1
60
0
100
AcDbSpline
70
4
71
3
72
9
73
5
40
0
40
0
40
0
40
0
40
0.5
40
1
40
1
40
1
40
1
41
1
10
-0.238766038090802
20
-3.6260392383976
30
0
41
1
10
-0.158260855832395
20
-3.94267136500841
30
0
41
1
10
0.0209676722550114
20
-4.56828297831999
30
0
41
1
10
0.2329334945303
20
-5.18014311096908
30
0
41
1
10
0.34626571663992
20
-5.4829860587574
30
0
0
SPLINE
5
192
100
AcDbEntity
8
1
62
256
6
ByLayer
370
13
48
1
60
0
100
AcDbSpline
70
4
71
3
72
32
73
28
40
0
40
0
40
0
40
0
40
0.125000000000004
40
0.125000000000004
40
0.250000000000009
40
0.250000000000009
40
0.375000000000013
40
0.375000000000013
40
0.500000000000018
40
0.500000000000018
40
0.625000000000022
40
0.625000000000022
40
0.687500000000025
40
0.687500000000025
40
0.750000000000027
40
0.750000000000027
40
0.781250000000026
40
0.781250000000026
40
0.812500000000025
40
0.812500000000025
40
0.875000000000024
40
0.875000000000024
40
0.906250000000018
40
0.906250000000018
40
0.937500000000013
40
0.937500000000013
40
1
40
1
40
1
40
1
41
1
10
0.346265716640119
20
-5.4829860587574
30
0
41
1
10
0.353086101765513
20
-5.50121128630531
30
0
41
1
10
0.359480312743699
20
-5.5194512129535
30
0
41
1
10
0.371365058912318
20
-5.55572147984068
30
0
41
1
10
0.376868447255504
20
-5.57378522955659
30
0
41
1
10
0.386942537541103
20
-5.6097604376782
30
0
41
1
10
0.391515244788593
20
-5.62767217108418
30
0
41
1
10
0.399553159655397
20
-5.66331814852211
30
0
41
1
10
0.403032096521201
20
-5.68109491369279
30
0
41
1
10
0.408438964904093
20
-5.7162365591318
30
0
41
1
10
0.410355770877601
20
-5.73340166147651
30
0
41
1
10
0.411355512926718
20
-5.75820693447571
30
0
41
1
10
0.411372260869911
20
-5.766316415208
30
0
41
1
10
0.410483048138815
20
-5.78207860252078
30
0
41
1
10
0.409585694906013
20
-5.78962269270809
30
0
41
1
10
0.407214613939715
20
-5.80005596148789
30
0
41
1
10
0.406251070621607
20
-5.8033898153312
30
0
41
1
10
0.403859458239595
20
-5.80967359392949
30
0
41
1
10
0.402438448988619
20
-5.81259358667549
30
0
41
1
10
0.397392526160814
20
-5.82030829179911
30
0
41
1
10
0.392846880281098
20
-5.824163215243
30
0
41
1
10
0.384139227747909
20
-5.82615122165208
30
0
41
1
10
0.380962684203809
20
-5.82617648799371
30
0
41
1
10
0.374293906547507
20
-5.82497378952991
30
0
41
1
10
0.370753576241896
20
-5.82372914519289
30
0
41
1
10
0.360239806786808
20
-5.81860513648399
30
0
41
1
10
0.353081849992606
20
-5.81325787738859
30
0
41
1
10
0.346265716639806
20
-5.80707269388151
30
0
0
SPLINE
5
193
100
AcDbEntity
8
1
62
256
6
ByLayer
370
13
48
1
60
0
100
AcDbSpline
70
4
71
3
72
8
73
4
40
0
40
0
40
0
40
0
40
1
40
1
40
1
40
1
41
1
10
-0.23876603808489
20
-5.2711084994821
30
0
41
1
10
-0.0445400185992071
20
-5.4509050871622
30
0
41
1
10
0.1505374697241
20
-5.629462447424
30
0
41
1
10
0.346265716640005
20
-5.80707269388049
30
0
0
SPLINE
5
194
100
AcDbEntity
8
1
62
256
6
ByLayer
370
13
48
1
60
0
100
AcDbSpline
70
4
71
3
72
24
73
20
40
0
40
0
40
0
40
0
40
0.250000000000002
40
0.250000000000002
40
0.375000000000003
40
0.375000000000003
40
0.500000000000004
40
0.500000000000004
40
0.625000000000005
40
0.625000000000005
40
0.687500000000005
40
0.687500000000005
40
0.750000000000006
40
0.750000000000006
40
0.812500000000006
40
0.812500000000006
40
0.875000000000007
40
0.875000000000007
40
1
40
1
40
1
40
1
41
1
10
-0.298766038092481
20
-5.31556905144831
30
0
41
1
10
-0.29876603809268
20
-5.30505999878429
30
0
41
1
10
-0.298106494527985
20
-5.2948389651234
30
0
41
1
10
-0.295480366343298
20
-5.28089434695369
30
0
41
1
10
-0.294330901659691
20
-5.27647202244319
30
0
41
1
10
-0.291233106411681
20
-5.26829086652191
30
0
41
1
10
-0.289282601216598
20
-5.26455507154
30
0
41
1
10
-0.284374235785094
20
-5.25846807366429
30
0
41
1
10
-0.281341202823086
20
-5.25607041527451
30
0
41
1
10
-0.275996847823393
20
-5.25415446060359
30
0
41
1
10
-0.274052796947302
20
-5.2537849846932
30
0
41
1
10
-0.269990245298487
20
-5.25365770757429
30
0
41
1
10
-0.267875519152
20
-5.2538914533333
30
0
41
1
10
-0.263486033805094
20
-5.25493057705449
30
0
41
1
10
-0.261204695552692
20
-5.25574501964491
30
0
41
1
10
-0.256688202432997
20
-5.2578165610318
30
0
41
1
10
-0.254427812109782
20
-5.25907759205779
30
0
41
1
10
-0.247641277860993
20
-5.2634255240857
30
0
41
1
10
-0.243115447769384
20
-5.26708221596931
30
0
41
1
10
-0.238766038084691
20
-5.27110849948119
30
0
0
SPLINE
5
195
100
AcDbEntity
8
1
62
256
6
ByLayer
370
13
48
1
60
0
100
AcDbSpline
70
4
71
3
72
18
73
14
40
0
40
0
40
0
40
0
40
0.250000000000002
40
0.250000000000002
40
0.500000000000004
40
0.500000000000004
40
0.625000000000003
40
0.625000000000003
40
0.750000000000002
40
0.750000000000002
40
0.875000000000001
40
0.875000000000001
40
1
40
1
40
1
40
1
41
1
10
-0.238766038090489
20
-5.7466545261359
30
0
41
1
10
-0.247292407064691
20
-5.72656544667041
30
0
41
1
10
-0.255027600564603
20
-5.70648278255871
30
0
41
1
10
-0.268909559501395
20
-5.66656306922491
30
0
41
1
10
-0.275074330801402
20
-5.6466867296698
30
0
41
1
10
-0.283028976705907
20
-5.61700972696531
30
0
41
1
10
-0.285463065731506
20
-5.60714058540521
30
0
41
1
10
-0.289837114694905
20
-5.5874557251677
30
0
41
1
10
-0.291783293900494
20
-5.57760684302329
30
0
41
1
10
-0.295049636493502
20
-5.55814084887859
30
0
41
1
10
-0.29636806831499
20
-5.54855219744908
30
0
41
1
10
-0.298223822142802
20
-5.5297376460355
30
0
41
1
10
-0.298766038090093
20
-5.5205093447006
30
0
41
1
10
-0.298766038090491
20
-5.5115366706176
30
0
0
SPLINE
5
196
100
AcDbEntity
8
1
62
256
6
ByLayer
370
13
48
1
60
0
100
AcDbSpline
70
4
71
3
72
8
73
4
40
0
40
0
40
0
40
0
40
1
40
1
40
1
40
1
41
1
10
0.346265716640005
20
-7.00675342314651
30
0
41
1
10
0.138849682735895
20
-6.59439979090519
30
0
41
1
10
-0.0570098824346985
20
-6.17489236868749
30
0
41
1
10
-0.238766038090489
20
-5.7466545261359
30
0
0
SPLINE
5
197
100
AcDbEntity
8
1
62
256
6
ByLayer
370
13
48
1
60
0
100
AcDbSpline
70
4
71
3
72
36
73
32
40
0
40
0
40
0
40
0
40
0.0312500000000034
40
0.0312500000000034
40
0.0625000000000069
40
0.0625000000000069
40
0.0937500000000102
40
0.0937500000000102
40
0.125000000000014
40
0.125000000000014
40
0.156250000000017
40
0.156250000000017
40
0.187500000000021
40
0.187500000000021
40
0.218750000000024
40
0.218750000000024
40
0.250000000000027
40
0.250000000000027
40
0.312500000000028
40
0.312500000000028
40
0.37500000000003
40
0.37500000000003
40
0.437500000000031
40
0.437500000000031
40
0.500000000000032
40
0.500000000000032
40
0.625000000000026
40
0.625000000000026
40
0.750000000000019
40
0.750000000000019
40
1
40
1
40
1
40
1
41
1
10
0.346265716640005
20
-7.2243085642026
30
0
41
1
10
0.349186251864893
20
-7.22673060346219
30
0
41
1
10
0.352114236472204
20
-7.2290177647194
30
0
41
1
10
0.357987792308506
20
-7.23327284765099
30
0
41
1
10
0.360951882883114
20
-7.23525157133071
30
0
41
1
10
0.366791978854309
20
-7.23875228181021
30
0
41
1
10
0.369666685186814
20
-7.24027632953971
30
0
41
1
10
0.375311961916594
20
-7.2428033128987
30
0
41
1
10
0.378101814381893
20
-7.2438077518822
30
0
41
1
10
0.383368467669897
20
-7.24515940020871
30
0
41
1
10
0.3858653863347
20
-7.245519225885
30
0
41
1
10
0.390575688815915
20
-7.24558019646031
30
0
41
1
10
0.392805548568504
20
-7.24526982273198
30
0
41
1
10
0.396793970278907
20
-7.24402092266661
30
0
41
1
10
0.398576698597708
20
-7.24308893318459
30
0
41
1
10
0.401764211804505
20
-7.2406737069611
30
0
41
1
10
0.403176790243293
20
-7.23917790170441
30
0
41
1
10
0.406832572844508
20
-7.2340144370016
30
0
41
1
10
0.408484336141498
20
-7.229749868661
30
0
41
1
10
0.41066744955711
20
-7.22003971555171
30
0
41
1
10
0.411163170999203
20
-7.21474396569039
30
0
41
1
10
0.411339890558793
20
-7.20358446684259
30
0
41
1
10
0.411016290117203
20
-7.19770935131979
30
0
41
1
10
0.409735507342106
20
-7.1855016684456
30
0
41
1
10
0.408771172769519
20
-7.17914260659731
30
0
41
1
10
0.405122588590615
20
-7.15969207205939
30
0
41
1
10
0.401702410443192
20
-7.1462290712569
30
0
41
1
10
0.393495630516497
20
-7.11878984141299
30
0
41
1
10
0.388752769375799
20
-7.10496911280561
30
0
41
1
10
0.373014240868315
20
-7.06326639919351
30
0
41
1
10
0.36054895782911
20
-7.03514923360351
30
0
41
1
10
0.346265716640005
20
-7.00675342314651
30
0
0
SPLINE
5
198
100
AcDbEntity
8
1
62
256
6
ByLayer
370
13
48
1
60
0
100
AcDbSpline
70
4
71
3
72
8
73
4
40
0
40
0
40
0
40
0
40
1
40
1
40
1
40
1
41
1
10
0.346265716640119
20
-7.2243085642022
30
0
41
1
10
0.151181810104816
20
-7.06252284886298
30
0
41
1
10
-0.0438339985502978
20
-6.90062776953309
30
0
41
1
10
-0.238766038089295
20
-6.73859815848471
30
0
0
SPLINE
5
199
100
AcDbEntity
8
1
62
256
6
ByLayer
370
13
48
1
60
0
100
AcDbSpline
70
4
71
3
72
22
73
18
40
0
40
0
40
0
40
0
40
0.125
40
0.125
40
0.25
40
0.25
40
0.375
40
0.375
40
0.5
40
0.5
40
0.625
40
0.625
40
0.75
40
0.75
40
0.875
40
0.875
40
1
40
1
40
1
40
1
41
1
10
-0.238766038089295
20
-6.73859815848439
30
0
41
1
10
-0.242866643973684
20
-6.73518969070199
30
0
41
1
10
-0.246984764552991
20
-6.7320704724975
30
0
41
1
10
-0.255267337681204
20
-6.7265957894318
30
0
41
1
10
-0.259366354444893
20
-6.7242895624037
30
0
41
1
10
-0.267293106571202
20
-6.72084242287949
30
0
41
1
10
-0.271134494049989
20
-6.71971176982709
30
0
41
1
10
-0.278104191023601
20
-6.71889569655789
30
0
41
1
10
-0.281329068179502
20
-6.71920710030449
30
0
41
1
10
-0.286833036052087
20
-6.72118307680941
30
0
41
1
10
-0.289164713914886
20
-6.72283864909861
30
0
41
1
10
-0.292998204812989
20
-6.72720284046091
30
0
41
1
10
-0.294473354051007
20
-6.72985834720649
30
0
41
1
10
-0.296746068634604
20
-6.7358920774312
30
0
41
1
10
-0.297538825719784
20
-6.73928834456871
30
0
41
1
10
-0.29854384061278
20
-6.7464605127694
30
0
41
1
10
-0.298766038094385
20
-6.75025986073919
30
0
41
1
10
-0.298766038094385
20
-6.754227347653
30
0
0
SPLINE
5
19A
100
AcDbEntity
8
1
62
256
6
ByLayer
370
13
48
1
60
0
100
AcDbSpline
70
4
71
3
72
14
73
10
40
0
40
0
40
0
40
0
40
0.25
40
0.25
40
0.5
40
0.5
40
0.75
40
0.75
40
1
40
1
40
1
40
1
41
1
10
-0.298766038095295
20
-6.8838740685384
30
0
41
1
10
-0.298766038093703
20
-6.89577611587589
30
0
41
1
10
-0.296628633626682
20
-6.90923906470451
30
0
41
1
10
-0.290009962496299
20
-6.93691184093319
30
0
41
1
10
-0.285482741370885
20
-6.95128942563289
30
0
41
1
10
-0.274638592238404
20
-6.98070623524649
30
0
41
1
10
-0.268409344639394
20
-6.9954949371336
30
0
41
1
10
-0.254602602685907
20
-7.02520940936009
30
0
41
1
10
-0.247021279375986
20
-7.0401355635214
30
0
41
1
10
-0.238766038090489
20
-7.05513404386789
30
0
0
SPLINE
5
19B
100
AcDbEntity
8
1
62
256
6
ByLayer
370
13
48
1
60
0
100
AcDbSpline
70
4
71
3
72
8
73
4
40
0
40
0
40
0
40
0
40
1
40
1
40
1
40
1
41
1
10
-0.238766038090489
20
-7.05513404386789
30
0
41
1
10
-0.0509232601508813
20
-7.39641494841209
30
0
41
1
10
0.144518473908818
20
-7.73181066744849
30
0
41
1
10
0.346265716640005
20
-8.062322940961
30
0
0
SPLINE
5
19C
100
AcDbEntity
8
1
62
256
6
ByLayer
370
13
48
1
60
0
100
AcDbSpline
70
4
71
3
72
32
73
28
40
0
40
0
40
0
40
0
40
0.124999999999997
40
0.124999999999997
40
0.249999999999993
40
0.249999999999993
40
0.37499999999999
40
0.37499999999999
40
0.499999999999987
40
0.499999999999987
40
0.562499999999993
40
0.562499999999993
40
0.624999999999999
40
0.624999999999999
40
0.687500000000004
40
0.687500000000004
40
0.75000000000001
40
0.75000000000001
40
0.781250000000009
40
0.781250000000009
40
0.812500000000008
40
0.812500000000008
40
0.875000000000005
40
0.875000000000005
40
0.937500000000003
40
0.937500000000003
40
1
40
1
40
1
40
1
41
1
10
0.346265716640005
20
-8.062322940961
30
0
41
1
10
0.353665467838198
20
-8.07444557797371
30
0
41
1
10
0.360630285694896
20
-8.08652036452199
30
0
41
1
10
0.37365440824621
20
-8.1105658396074
30
0
41
1
10
0.379714544912815
20
-8.12254761641989
30
0
41
1
10
0.390556841342203
20
-8.1458901556847
30
0
41
1
10
0.395377886447505
20
-8.15731247767579
30
0
41
1
10
0.403501641980512
20
-8.17952729615081
30
0
41
1
10
0.406817334529109
20
-8.19038937912251
30
0
41
1
10
0.40993775678632
20
-8.2052874926481
30
0
41
1
10
0.41067660978922
20
-8.2100434911716
30
0
41
1
10
0.411387424211995
20
-8.21902316880949
30
0
41
1
10
0.411350564900999
20
-8.22324823781349
30
0
41
1
10
0.4102882049078
20
-8.23068837606721
30
0
41
1
10
0.409267919095811
20
-8.233954512612
30
0
41
1
10
0.405956471392812
20
-8.23923720479479
30
0
41
1
10
0.403721359366813
20
-8.24116383475439
30
0
41
1
10
0.3993505356718
20
-8.2428040375701
30
0
41
1
10
0.397726851531417
20
-8.2431337762475
30
0
41
1
10
0.394239632084293
20
-8.24334181748159
30
0
41
1
10
0.392364586955296
20
-8.24322527564249
30
0
41
1
10
0.386351809244019
20
-8.24222676998178
30
0
41
1
10
0.381764859930797
20
-8.2406533087692
30
0
41
1
10
0.372198484977304
20
-8.23612286825229
30
0
41
1
10
0.367119823849407
20
-8.2331391764732
30
0
41
1
10
0.356755564080714
20
-8.22616162970849
30
0
41
1
10
0.351528267073917
20
-8.2222167266201
30
0
41
1
10
0.346265716640119
20
-8.217917949471
30
0
0
SPLINE
5
19D
100
AcDbEntity
8
1
62
256
6
ByLayer
370
13
48
1
60
0
100
AcDbSpline
70
4
71
3
72
8
73
4
40
0
40
0
40
0
40
0
40
1
40
1
40
1
40
1
41
1
10
-0.238766038090091
20
-7.7400145818942
30
0
41
1
10
-0.0437573598619849
20
-7.8993188164942
30
0
41
1
10
0.151253335928914
20
-8.05861975812419
30
0
41
1
10
0.346265716640119
20
-8.2179179494708
30
0
0
SPLINE
5
19E
100
AcDbEntity
8
1
62
256
6
ByLayer
370
13
48
1
60
0
100
AcDbSpline
70
4
71
3
72
22
73
18
40
0
40
0
40
0
40
0
40
0.125
40
0.125
40
0.25
40
0.25
40
0.375
40
0.375
40
0.5
40
0.5
40
0.625
40
0.625
40
0.75
40
0.75
40
0.875
40
0.875
40
1
40
1
40
1
40
1
41
1
10
-0.298766038090491
20
-7.73685336810169
30
0
41
1
10
-0.298766038090491
20
-7.73375611831739
30
0
41
1
10
-0.298489066716286
20
-7.73091334653731
30
0
41
1
10
-0.297279564640604
20
-7.7258323489358
30
0
41
1
10
-0.296336316782004
20
-7.72357719842029
30
0
41
1
10
-0.293675748840684
20
-7.7199115597351
30
0
41
1
10
-0.291980165701091
20
-7.71851702569668
30
0
41
1
10
-0.287761020511482
20
-7.71672539149858
30
0
41
1
10
-0.285242290772203
20
-7.71635270006379
30
0
41
1
10
-0.279613458195485
20
-7.71669386992269
30
0
41
1
10
-0.276453338710894
20
-7.71740240362601
30
0
41
1
10
-0.269593938471388
20
-7.71984297446619
30
0
41
1
10
-0.265989729621083
20
-7.72153361534879
30
0
41
1
10
-0.258490351062306
20
-7.72570265369029
30
0
41
1
10
-0.254564771820696
20
-7.72820620202751
30
0
41
1
10
-0.246703802411702
20
-7.73373213090619
30
0
41
1
10
-0.242746063414899
20
-7.73676326562548
30
0
41
1
10
-0.238766038090091
20
-7.74001458189409
30
0
0
SPLINE
5
19F
100
AcDbEntity
8
1
62
256
6
ByLayer
370
13
48
1
60
0
100
AcDbSpline
70
4
71
3
72
18
73
14
40
0
40
0
40
0
40
0
40
0.249999999999991
40
0.249999999999991
40
0.37499999999999
40
0.37499999999999
40
0.499999999999989
40
0.499999999999989
40
0.749999999999994
40
0.749999999999994
40
0.874999999999997
40
0.874999999999997
40
1
40
1
40
1
40
1
41
1
10
-0.238766038090489
20
-7.9624616001158
30
0
41
1
10
-0.246864173154506
20
-7.95015910244331
30
0
41
1
10
-0.254381245497797
20
-7.93796490920388
30
0
41
1
10
-0.264735732019403
20
-7.91983961958829
30
0
41
1
10
-0.26803231795418
20
-7.91382579221349
30
0
41
1
10
-0.274285674677486
20
-7.9018587071885
30
0
41
1
10
-0.277247373131388
20
-7.89589241326129
30
0
41
1
10
-0.285412851551882
20
-7.87839786795769
30
0
41
1
10
-0.289972681922904
20
-7.8671698640035
30
0
41
1
10
-0.294995678716191
20
-7.85122312428581
30
0
41
1
10
-0.296362456914181
20
-7.8460370295607
30
0
41
1
10
-0.298239498290485
20
-7.8363686764981
30
0
41
1
10
-0.298766038099586
20
-7.83184907088528
30
0
41
1
10
-0.298766038100297
20
-7.8277332701513
30
0
0
SPLINE
5
1A0
100
AcDbEntity
8
1
62
256
6
ByLayer
370
13
48
1
60
0
100
AcDbSpline
70
4
71
3
72
8
73
4
40
0
40
0
40
0
40
0
40
1
40
1
40
1
40
1
41
1
10
0.346265716640119
20
-8.81943927022721
30
0
41
1
10
0.147142215126308
20
-8.53752372098899
30
0
41
1
10
-0.0481171481025058
20
-8.25209094153809
30
0
41
1
10
-0.238766038090489
20
-7.9624616001158
30
0
0
SPLINE
5
1A1
100
AcDbEntity
8
1
62
256
6
ByLayer
370
13
48
1
60
0
100
AcDbSpline
70
4
71
3
72
37
73
33
40
0
40
0
40
0
40
0
40
0.0625000000000011
40
0.0625000000000011
40
0.125000000000002
40
0.125000000000002
40
0.187500000000003
40
0.187500000000003
40
0.218750000000006
40
0.218750000000006
40
0.250000000000008
40
0.250000000000008
40
0.312500000000007
40
0.312500000000007
40
0.343750000000008
40
0.343750000000008
40
0.375000000000008
40
0.375000000000008
40
0.437500000000004
40
0.437500000000004
40
0.5
40
0.5
40
0.562499999999996
40
0.562499999999996
40
0.624999999999992
40
0.687499999999988
40
0.687499999999988
40
0.749999999999984
40
0.749999999999984
40
0.874999999999992
40
0.874999999999992
40
1
40
1
40
1
40
1
41
1
10
0.346265716640119
20
-8.930437658556
30
0
41
1
10
0.351189515001408
20
-8.93453672227329
30
0
41
1
10
0.356099617342494
20
-8.93841735417439
30
0
41
1
10
0.365640801547698
20
-8.94546084418189
30
0
41
1
10
0.370267591344515
20
-8.94862457721558
30
0
41
1
10
0.379177246001319
20
-8.9540917194312
30
0
41
1
10
0.383491346167602
20
-8.95640241381341
30
0
41
1
10
0.389353990756007
20
-8.95892691235989
30
0
41
1
10
0.391217600615221
20
-8.9596190391363
30
0
41
1
10
0.394751903551594
20
-8.96068451092668
30
0
41
1
10
0.396433666343398
20
-8.96105841386671
30
0
41
1
10
0.40105614808391
20
-8.96165015463009
30
0
41
1
10
0.403593937486818
20
-8.9613563327722
30
0
41
1
10
0.406616131806317
20
-8.9599186963672
30
0
41
1
10
0.407496843829421
20
-8.95926597223578
30
0
41
1
10
0.408964423748415
20
-8.95765958265559
30
0
41
1
10
0.409553659314497
20
-8.9567094739991
30
0
41
1
10
0.410928035423609
20
-8.95345866125621
30
0
41
1
10
0.411321358302018
20
-8.9507370046264
30
0
41
1
10
0.411197373852218
20
-8.94446417842369
30
0
41
1
10
0.410689476928894
20
-8.94096365663231
30
0
41
1
10
0.408962114126893
20
-8.9333799279093
30
0
41
1
10
0.407735292990907
20
-8.92927985982189
30
0
41
1
10
0.404689216469393
20
-8.9206416582569
30
0
41
1
10
0.401088164310096
20
-8.91166092380681
30
0
41
1
10
0.396569067132418
20
-8.90211300348719
30
0
41
1
10
0.391645092496418
20
-8.89231504007569
30
0
41
1
10
0.388970364980196
20
-8.8872739238968
30
0
41
1
10
0.380536845299417
20
-8.87206686913919
30
0
41
1
10
0.374342003381599
20
-8.8617473001998
30
0
41
1
10
0.3610064724013
20
-8.84081199168639
30
0
41
1
10
0.353862988239314
20
-8.83019535365949
30
0
41
1
10
0.346265716640119
20
-8.81943927022721
30
0
0
SPLINE
5
1A2
100
AcDbEntity
8
1
62
256
6
ByLayer
370
13
48
1
60
0
100
AcDbSpline
70
4
71
3
72
8
73
4
40
0
40
0
40
0
40
0
40
1
40
1
40
1
40
1
41
1
10
0.346265716640119
20
-8.930437658556
30
0
41
1
10
0.151181828961199
20
-8.76803025940458
30
0
41
1
10
-0.0438329292448998
20
-8.60551226388699
30
0
41
1
10
-0.238766038090404
20
-8.4428636421367
30
0
0
SPLINE
5
1A3
100
AcDbEntity
8
1
62
256
6
ByLayer
370
13
48
1
60
0
100
AcDbSpline
70
4
71
3
72
20
73
16
40
0
40
0
40
0
40
0
40
0.250000000000012
40
0.250000000000012
40
0.37500000000001
40
0.37500000000001
40
0.500000000000008
40
0.500000000000008
40
0.625000000000006
40
0.625000000000006
40
0.750000000000004
40
0.750000000000004
40
0.875000000000002
40
0.875000000000002
40
1
40
1
40
1
40
1
41
1
10
-0.238766038090404
20
-8.4428636421367
30
0
41
1
10
-0.246592658311101
20
-8.4363332533309
30
0
41
1
10
-0.254275895147288
20
-8.4304593655086
30
0
41
1
10
-0.265277863629081
20
-8.42320084494258
30
0
41
1
10
-0.268788748090486
20
-8.42108828703559
30
0
41
1
10
-0.275451907430892
20
-8.4175639973563
30
0
41
1
10
-0.278622071068185
20
-8.41615117698439
30
0
41
1
10
-0.284299089479106
20
-8.41423213508469
30
0
41
1
10
-0.286837707619384
20
-8.41370516039498
30
0
41
1
10
-0.291269405938607
20
-8.4135787392803
30
0
41
1
10
-0.293103891055495
20
-8.4139877959928
30
0
41
1
10
-0.295985092403981
20
-8.41565947779489
30
0
41
1
10
-0.2970512276558
20
-8.41692977094681
30
0
41
1
10
-0.298447071107205
20
-8.4202506875244
30
0
41
1
10
-0.298766038090605
20
-8.4222592900376
30
0
41
1
10
-0.298766038090605
20
-8.42456011780669
30
0
0
SPLINE
5
1A4
100
AcDbEntity
8
1
62
256
6
ByLayer
370
13
48
1
60
0
100
AcDbSpline
70
4
71
3
72
18
73
14
40
0
40
0
40
0
40
0
40
0.125000000000006
40
0.125000000000006
40
0.250000000000011
40
0.250000000000011
40
0.499999999999999
40
0.499999999999999
40
0.624999999999992
40
0.624999999999992
40
0.749999999999986
40
0.749999999999986
40
1
40
1
40
1
40
1
41
1
10
-0.298766038090491
20
-8.48729016019911
30
0
41
1
10
-0.298766038090605
20
-8.49011154803671
30
0
41
1
10
-0.298242754035186
20
-8.49336004637621
30
0
41
1
10
-0.296374333004991
20
-8.50051196036671
30
0
41
1
10
-0.295017854239291
20
-8.50444108376891
30
0
41
1
10
-0.289936293146781
20
-8.51694617049219
30
0
41
1
10
-0.285310372109905
20
-8.52604253269141
30
0
41
1
10
-0.277022894232204
20
-8.54051594587631
30
0
41
1
10
-0.274035794283407
20
-8.5454683701723
30
0
41
1
10
-0.267770848765707
20
-8.55542989544171
30
0
41
1
10
-0.264478553323585
20
-8.5604641913576
30
0
41
1
10
-0.254171072715593
20
-8.57571248429758
30
0
41
1
10
-0.246730378507181
20
-8.58607013480179
30
0
41
1
10
-0.238766038090489
20
-8.59660824052159
30
0
0
SPLINE
5
1A5
100
AcDbEntity
8
1
62
256
6
ByLayer
370
13
48
1
60
0
100
AcDbSpline
70
4
71
3
72
8
73
4
40
0
40
0
40
0
40
0
40
1
40
1
40
1
40
1
41
1
10
-0.238766038090489
20
-8.59660824052159
30
0
41
1
10
-0.0465579190301071
20
-8.85093055384371
30
0
41
1
10
0.148605642354113
20
-9.10219645311699
30
0
41
1
10
0.346265716640005
20
-9.35088054693779
30
0
0
SPLINE
5
1A6
100
AcDbEntity
8
1
62
256
6
ByLayer
370
13
48
1
60
0
100
AcDbSpline
70
4
71
3
72
34
73
30
40
0
40
0
40
0
40
0
40
0.125000000000008
40
0.125000000000008
40
0.250000000000016
40
0.250000000000016
40
0.312500000000015
40
0.312500000000015
40
0.375000000000013
40
0.375000000000013
40
0.437500000000012
40
0.437500000000012
40
0.500000000000011
40
0.500000000000011
40
0.56250000000001
40
0.56250000000001
40
0.625000000000008
40
0.625000000000008
40
0.687500000000007
40
0.687500000000007
40
0.750000000000005
40
0.750000000000005
40
0.812500000000004
40
0.812500000000004
40
0.875000000000003
40
0.875000000000003
40
0.937500000000001
40
0.937500000000001
40
1
40
1
40
1
40
1
41
1
10
0.346265716640005
20
-9.35088054693779
30
0
41
1
10
0.354100642340313
20
-9.36073798225931
30
0
41
1
10
0.361574238081602
20
-9.37050822793151
30
0
41
1
10
0.3754884007719
20
-9.38954769531489
30
0
41
1
10
0.3818789050475
20
-9.39874241386329
30
0
41
1
10
0.390457079553215
20
-9.41195142633239
30
0
41
1
10
0.39314697567022
20
-9.41625635569841
30
0
41
1
10
0.398129481321121
20
-9.4246357082873
30
0
41
1
10
0.400400701071305
20
-9.42867660183089
30
0
41
1
10
0.404371401215713
20
-9.43629100913691
30
0
41
1
10
0.406083043431096
20
-9.43988403039731
30
0
41
1
10
0.408857560795894
20
-9.4465624390331
30
0
41
1
10
0.409922629637208
20
-9.44966647935939
30
0
41
1
10
0.411198511748296
20
-9.45506164740519
30
0
41
1
10
0.411422747699703
20
-9.45737526223451
30
0
41
1
10
0.410888971801398
20
-9.46109255286129
30
0
41
1
10
0.410134311855103
20
-9.4624415707882
30
0
41
1
10
0.407598970875711
20
-9.4640368527603
30
0
41
1
10
0.405779512431394
20
-9.4642738819191
30
0
41
1
10
0.401253426430117
20
-9.4635879964238
30
0
41
1
10
0.398548563334117
20
-9.46268677057989
30
0
41
1
10
0.392305157867412
20
-9.45983469143241
30
0
41
1
10
0.388753637535416
20
-9.45786740129489
30
0
41
1
10
0.381229367897305
20
-9.45317118683849
30
0
41
1
10
0.37721708007652
20
-9.4504259775961
30
0
41
1
10
0.368753845623218
20
-9.4442422456076
30
0
41
1
10
0.364363647594303
20
-9.4408466062691
30
0
41
1
10
0.355445060508117
20
-9.43365122148981
30
0
41
1
10
0.350894968786719
20
-9.4298350591389
30
0
41
1
10
0.346265716640119
20
-9.4258293132614
30
0
0
SPLINE
5
1A7
100
AcDbEntity
8
1
62
256
6
ByLayer
370
13
48
1
60
0
100
AcDbSpline
70
4
71
3
72
8
73
4
40
0
40
0
40
0
40
0
40
1
40
1
40
1
40
1
41
1
10
-0.238766038090404
20
-8.91801925079821
30
0
41
1
10
-0.043986030777603
20
-9.08764345971218
30
0
41
1
10
0.151036473192903
20
-9.25689517177611
30
0
41
1
10
0.346265716640005
20
-9.4258293132614
30
0
0
SPLINE
5
1A8
100
AcDbEntity
8
1
62
256
6
ByLayer
370
13
48
1
60
0
100
AcDbSpline
70
4
71
3
72
16
73
12
40
0
40
0
40
0
40
0
40
0.249999999999994
40
0.249999999999994
40
0.374999999999992
40
0.374999999999992
40
0.499999999999989
40
0.499999999999989
40
0.749999999999994
40
0.749999999999994
40
1
40
1
40
1
40
1
41
1
10
-0.298766038090491
20
-8.88608611498049
30
0
41
1
10
-0.298766038090491
20
-8.88293225289499
30
0
41
1
10
-0.297263002897893
20
-8.88124453046768
30
0
41
1
10
-0.292592684582786
20
-8.88131899153629
30
0
41
1
10
-0.290681900053897
20
-8.88177083283381
30
0
41
1
10
-0.286208847702085
20
-8.88346281398859
30
0
41
1
10
-0.283629205789907
20
-8.884713127494
30
0
41
1
10
-0.27504646827208
20
-8.88955978135681
30
0
41
1
10
-0.268435853933084
20
-8.8940989826429
30
0
41
1
10
-0.254055766411085
20
-8.90504269007559
30
0
41
1
10
-0.246533543504
20
-8.91125491713188
30
0
41
1
10
-0.238766038090404
20
-8.91801925079821
30
0
0
SPLINE
5
1A9
100
AcDbEntity
8
1
62
256
6
ByLayer
370
13
48
1
60
0
100
AcDbSpline
70
4
71
3
72
16
73
12
40
0
40
0
40
0
40
0
40
0.250000000000002
40
0.250000000000002
40
0.500000000000004
40
0.500000000000004
40
0.750000000000005
40
0.750000000000005
40
0.875000000000003
40
0.875000000000003
40
1
40
1
40
1
40
1
41
1
10
-0.238766038090489
20
-9.0154063617768
30
0
41
1
10
-0.246651305656485
20
-9.00608877453479
30
0
41
1
10
-0.254128265722386
20
-8.99694160058019
30
0
41
1
10
-0.268044775486004
20
-8.9791415721584
30
0
41
1
10
-0.274348814969301
20
-8.97066529505008
30
0
41
1
10
-0.285357753108201
20
-8.95473916606841
30
0
41
1
10
-0.290087793788104
20
-8.9472330482414
30
0
41
1
10
-0.295105088543096
20
-8.93768485324219
30
0
41
1
10
-0.296453209656107
20
-8.934742155067
30
0
41
1
10
-0.298280593905901
20
-8.9296475921326
30
0
41
1
10
-0.298766038090605
20
-8.9274958377421
30
0
41
1
10
-0.29876603809069
20
-8.92579299001559
30
0
0
SPLINE
5
1AA
100
AcDbEntity
8
1
62
256
6
ByLayer
370
13
48
1
60
0
100
AcDbSpline
70
4
71
3
72
8
73
4
40
0
40
0
40
0
40
0
40
1
40
1
40
1
40
1
41
1
10
0.346265716640119
20
-9.69383438425561
30
0
41
1
10
0.149511835808994
20
-9.46969611434551
30
0
41
1
10
-0.0455957942685075
20
-9.24366502063739
30
0
41
1
10
-0.238766038090489
20
-9.0154063617768
30
0
0
SPLINE
5
1AB
100
AcDbEntity
8
1
62
256
6
ByLayer
370
13
48
1
60
0
100
AcDbSpline
70
4
71
3
72
34
73
30
40
0
40
0
40
0
40
0
40
0.0625000000000016
40
0.0625000000000016
40
0.125000000000003
40
0.125000000000003
40
0.187500000000005
40
0.187500000000005
40
0.250000000000006
40
0.250000000000006
40
0.312500000000008
40
0.312500000000008
40
0.375000000000009
40
0.375000000000009
40
0.437500000000011
40
0.437500000000011
40
0.500000000000013
40
0.500000000000013
40
0.562500000000014
40
0.562500000000014
40
0.625000000000016
40
0.625000000000016
40
0.687500000000017
40
0.687500000000017
40
0.750000000000019
40
0.750000000000019
40
0.87500000000001
40
0.87500000000001
40
1
40
1
40
1
40
1
41
1
10
0.346265716640119
20
-9.73728914092609
30
0
41
1
10
0.350705725067996
20
-9.7413373161005
30
0
41
1
10
0.355065896477612
20
-9.7452492084596
30
0
41
1
10
0.363606244227014
20
-9.752764084718
30
0
41
1
10
0.367807874870721
20
-9.7563846541581
30
0
41
1
10
0.375822144636714
20
-9.76311110987669
30
0
41
1
10
0.379650066895493
20
-9.76623145209169
30
0
41
1
10
0.386895702119006
20
-9.7719136860635
30
0
41
1
10
0.390342675897301
20
-9.77449601046249
30
0
41
1
10
0.396578363887812
20
-9.77886594189599
30
0
41
1
10
0.399359920788697
20
-9.78065178730569
30
0
41
1
10
0.404170217643895
20
-9.78332699026251
30
0
41
1
10
0.406177852047904
20
-9.7841973895149
30
0
41
1
10
0.409199475797493
20
-9.78489423660949
30
0
41
1
10
0.410246122095202
20
-9.78473551397011
30
0
41
1
10
0.411353600057509
20
-9.783377350276
30
0
41
1
10
0.411404290400497
20
-9.7822026892552
30
0
41
1
10
0.410606391168614
20
-9.77896638102581
30
0
41
1
10
0.409740835271208
20
-9.7768770272493
30
0
41
1
10
0.40725425104452
20
-9.77203714727528
30
0
41
1
10
0.405638644963915
20
-9.769284657268
30
0
41
1
10
0.40176759881652
20
-9.76320849218538
30
0
41
1
10
0.399492961576897
20
-9.75985943025489
30
0
41
1
10
0.394489763621493
20
-9.75282067757081
30
0
41
1
10
0.39175657239241
20
-9.7491212576256
30
0
41
1
10
0.382959601831203
20
-9.73755986427
30
0
41
1
10
0.376237730976101
20
-9.72916111199271
30
0
41
1
10
0.36191648234302
20
-9.71188859816189
30
0
41
1
10
0.354293161855196
20
-9.7029790968007
30
0
41
1
10
0.346265716640005
20
-9.69383438425561
30
0
0
SPLINE
5
1AC
100
AcDbEntity
8
1
62
256
6
ByLayer
370
13
48
1
60
0
100
AcDbSpline
70
4
71
3
72
8
73
4
40
0
40
0
40
0
40
0
40
1
40
1
40
1
40
1
41
1
10
0.346265716640119
20
-9.73728914092609
30
0
41
1
10
0.150823796247295
20
-9.5590950804835
30
0
41
1
10
-0.044209869317001
20
-9.38030739925961
30
0
41
1
10
-0.238766038090489
20
-9.200825416344
30
0
0
SPLINE
5
1AD
100
AcDbEntity
8
1
62
256
6
ByLayer
370
13
48
1
60
0
100
AcDbSpline
70
4
71
3
72
20
73
16
40
0
40
0
40
0
40
0
40
0.25
40
0.25
40
0.375
40
0.375
40
0.5
40
0.5
40
0.625
40
0.625
40
0.75
40
0.75
40
0.875
40
0.875
40
1
40
1
40
1
40
1
41
1
10
-0.238766038090489
20
-9.200825416344
30
0
41
1
10
-0.246540696300684
20
-9.193653137609
30
0
41
1
10
-0.254112807072801
20
-9.18684740277499
30
0
41
1
10
-0.264624383974706
20
-9.1777340573463
30
0
41
1
10
-0.267999589623884
20
-9.1748673083633
30
0
41
1
10
-0.274451178276081
20
-9.16952920418169
30
0
41
1
10
-0.27754309101968
20
-9.16704679585789
30
0
41
1
10
-0.283186930366384
20
-9.16269551190538
30
0
41
1
10
-0.2857606549791
20
-9.16080758125008
30
0
41
1
10
-0.29034053131798
20
-9.15768741766598
30
0
41
1
10
-0.29231750418478
20
-9.1564777631144
30
0
41
1
10
-0.295499389983803
20
-9.15486500621381
30
0
41
1
10
-0.296728244863601
20
-9.15444842402579
30
0
41
1
10
-0.298368859543302
20
-9.15446061580741
30
0
41
1
10
-0.298766038090491
20
-9.15488442249961
30
0
41
1
10
-0.298766038090491
20
-9.15569985383181
30
0
0
SPLINE
5
1AE
100
AcDbEntity
8
1
62
256
6
ByLayer
370
13
48
1
60
0
100
AcDbSpline
70
4
71
3
72
8
73
4
40
0
40
0
40
0
40
0
40
1
40
1
40
1
40
1
41
1
10
-0.298766038090491
20
-9.16562356914309
30
0
41
1
10
-0.0490096421330009
20
-9.41769190819198
30
0
41
1
10
0.200840934019993
20
-9.66966651260179
30
0
41
1
10
0.450765839274794
20
-9.92156713955251
30
0
0
SPLINE
5
1AF
100
AcDbEntity
8
1
62
256
6
ByLayer
370
13
48
1
60
0
100
AcDbSpline
70
4
71
3
72
8
73
4
40
0
40
0
40
0
40
0
40
1
40
1
40
1
40
1
41
1
10
14.8413809811628
20
9.22112856842782
30
0
41
1
10
14.8394752005797
20
9.2142787010886
30
0
41
1
10
14.8375692009148
20
9.20742823716679
30
0
41
1
10
14.8356629736597
20
9.20057715377359
30
0
0
SPLINE
5
1B0
100
AcDbEntity
8
1
62
256
6
ByLayer
370
13
48
1
60
0
100
AcDbSpline
70
4
71
3
72
31
73
27
40
0
40
0
40
0
40
0
40
0.249999999999995
40
0.249999999999995
40
0.374999999999993
40
0.374999999999993
40
0.499999999999991
40
0.499999999999991
40
0.562499999999991
40
0.562499999999991
40
0.624999999999991
40
0.624999999999991
40
0.68749999999999
40
0.68749999999999
40
0.74999999999999
40
0.74999999999999
40
0.781249999999991
40
0.781249999999991
40
0.812499999999991
40
0.843749999999992
40
0.843749999999992
40
0.874999999999993
40
0.874999999999993
40
0.937499999999996
40
0.937499999999996
40
1
40
1
40
1
40
1
41
1
10
15.2755699075739
20
9.35662923575981
30
0
41
1
10
15.2328456761095
20
9.3680009614929
30
0
41
1
10
15.1890008732513
20
9.37584711507071
30
0
41
1
10
15.1228632406423
20
9.3812567736511
30
0
41
1
10
15.1007201469316
20
9.3819915715921
30
0
41
1
10
15.0565596628788
20
9.38089282867739
30
0
41
1
10
15.0345165809514
20
9.37906591454859
30
0
41
1
10
15.0018987884444
20
9.37383842198881
30
0
41
1
10
14.9910808088857
20
9.3716733690454
30
0
41
1
10
14.9697705331741
20
9.36637411815352
30
0
41
1
10
14.9592115789007
20
9.3632211894537
30
0
41
1
10
14.9387039023802
20
9.35580082099131
30
0
41
1
10
14.928777307335
20
9.3515486186196
30
0
41
1
10
14.9097293812038
20
9.34172673404601
30
0
41
1
10
14.9006053044709
20
9.33616138811971
30
0
41
1
10
14.8877162969086
20
9.32652373247771
30
0
41
1
10
14.8835275765289
20
9.32306866378681
30
0
41
1
10
14.8756279164204
20
9.31579205617541
30
0
41
1
10
14.8682052449278
20
9.30815994245111
30
0
41
1
10
14.8618167442543
20
9.29976166184142
30
0
41
1
10
14.8559996187752
20
9.29094228303521
30
0
41
1
10
14.8533813154293
20
9.2863144340204
30
0
41
1
10
14.8466713119096
20
9.27220161455179
30
0
41
1
10
14.8436207580418
20
9.26235527069221
30
0
41
1
10
14.8403780026676
20
9.24179212926151
30
0
41
1
10
14.8402457443335
20
9.23145800917609
30
0
41
1
10
14.8413809811628
20
9.22112856842782
30
0
0
SPLINE
5
1B1
100
AcDbEntity
8
1
62
256
6
ByLayer
370
13
48
1
60
0
100
AcDbSpline
70
4
71
3
72
31
73
27
40
0
40
0
40
0
40
0
40
0.25
40
0.25
40
0.375
40
0.375
40
0.5
40
0.5
40
0.5625
40
0.5625
40
0.625
40
0.625
40
0.6875
40
0.6875
40
0.749999999999999
40
0.749999999999999
40
0.781249999999999
40
0.781249999999999
40
0.812499999999999
40
0.843749999999999
40
0.843749999999999
40
0.874999999999999
40
0.874999999999999
40
0.937499999999999
40
0.937499999999999
40
1
40
1
40
1
40
1
41
1
10
13.6567781748995
20
8.92830368035089
30
0
41
1
10
13.6880209795299
20
8.9592467760001
30
0
41
1
10
13.7219218731109
20
8.987664117295
30
0
41
1
10
13.7761282652267
20
9.02491630397219
30
0
41
1
10
13.7947904037931
20
9.03644799655132
30
0
41
1
10
13.8332224876401
20
9.05720290337069
30
0
41
1
10
13.8530115380866
20
9.0664445973718
30
0
41
1
10
13.8834767227813
20
9.077908598042
30
0
41
1
10
13.8937828069963
20
9.0813328844595
30
0
41
1
10
13.9145665123512
20
9.08717152577179
30
0
41
1
10
13.9251101571586
20
9.08960225696441
30
0
41
1
10
13.9461888266746
20
9.09318546259001
30
0
41
1
10
13.956697764048
20
9.09434041704802
30
0
41
1
10
13.9776293260001
20
9.09509693863541
30
0
41
1
10
13.9880523549923
20
9.0947036755332
30
0
41
1
10
14.0035912146721
20
9.09258791525289
30
0
41
1
10
14.0087892931019
20
9.09161655446121
30
0
41
1
10
14.0189408915584
20
9.08911623474071
30
0
41
1
10
14.028843584413
20
9.08606834031829
30
0
41
1
10
14.0382032886562
20
9.081836969189
30
0
41
1
10
14.0472614019906
20
9.07695351666541
30
0
41
1
10
14.051639182293
20
9.07417680226771
30
0
41
1
10
14.0638867152049
20
9.06508006804171
30
0
41
1
10
14.0710206539668
20
9.0579284985464
30
0
41
1
10
14.0832105398829
20
9.04144876977381
30
0
41
1
10
14.0880399785019
20
9.03242749405271
30
0
41
1
10
14.091769661895
20
9.02278453306769
30
0
0
SPLINE
5
1B2
100
AcDbEntity
8
1
62
256
6
ByLayer
370
13
48
1
60
0
100
AcDbSpline
70
4
71
3
72
8
73
4
40
0
40
0
40
0
40
0
40
1
40
1
40
1
40
1
41
1
10
14.091769661895
20
9.02278453306769
30
0
41
1
10
14.0965452110975
20
9.01770251778359
30
0
41
1
10
14.1013213946703
20
9.0126201317367
30
0
41
1
10
14.1060982373761
20
9.00753736084161
30
0
0
SPLINE
5
1B3
100
AcDbEntity
8
1
62
256
6
ByLayer
370
13
48
1
60
0
100
AcDbSpline
70
4
71
3
72
40
73
36
40
0
40
0
40
0
40
0
40
0.0625000000000024
40
0.0625000000000024
40
0.0937500000000027
40
0.0937500000000027
40
0.125000000000003
40
0.125000000000003
40
0.187500000000003
40
0.187500000000003
40
0.250000000000003
40
0.250000000000003
40
0.312500000000003
40
0.312500000000003
40
0.375000000000003
40
0.375000000000003
40
0.500000000000003
40
0.500000000000003
40
0.625000000000003
40
0.625000000000003
40
0.687500000000003
40
0.687500000000003
40
0.750000000000002
40
0.750000000000002
40
0.812500000000002
40
0.812500000000002
40
0.843750000000002
40
0.843750000000002
40
0.875000000000001
40
0.875000000000001
40
0.937500000000001
40
0.937500000000001
40
0.96875
40
0.96875
40
1
40
1
40
1
40
1
41
1
10
14.1060982373761
20
9.00753736084161
30
0
41
1
10
14.117559019167
20
8.99534258456151
30
0
41
1
10
14.130790821666
20
8.9853794051493
30
0
41
1
10
14.1524281460548
20
8.97264321934881
30
0
41
1
10
14.159972678773
20
8.96877001186701
30
0
41
1
10
14.1753871735639
20
8.9617850349577
30
0
41
1
10
14.1832785318447
20
8.95865840700131
30
0
41
1
10
14.2074377693297
20
8.95022287061551
30
0
41
1
10
14.224150746456
20
8.9458695113419
30
0
41
1
10
14.2581918614593
20
8.93926216586311
30
0
41
1
10
14.2755557771117
20
8.9370034666585
30
0
41
1
10
14.3106230282547
20
8.93428088727711
30
0
41
1
10
14.3283382847923
20
8.9338184278171
30
0
41
1
10
14.3638327727593
20
8.9344851565412
30
0
41
1
10
14.3816757494052
20
8.93561484381181
30
0
41
1
10
14.435293599793
20
8.94122328129879
30
0
41
1
10
14.4709722827146
20
8.94788391016471
30
0
41
1
10
14.5412141854608
20
8.9665444987088
30
0
41
1
10
14.5752069020778
20
8.97836680398561
30
0
41
1
10
14.6244780824537
20
8.99991541250731
30
0
41
1
10
14.6406121437878
20
9.00774193273531
30
0
41
1
10
14.6722434924233
20
9.02481860157681
30
0
41
1
10
14.6877891260877
20
9.0341082248477
30
0
41
1
10
14.7174898495253
20
9.05391636317302
30
0
41
1
10
14.7317234502815
20
9.06446743712061
30
0
41
1
10
14.751998181136
20
9.08145131690731
30
0
41
1
10
14.7585760384559
20
9.08730674377929
30
0
41
1
10
14.7713255897739
20
9.09946005842201
30
0
41
1
10
14.7775194473818
20
9.10578331928571
30
0
41
1
10
14.7951695471044
20
9.12528358943661
30
0
41
1
10
14.8057483444045
20
9.13898958467701
30
0
41
1
10
14.8192128785143
20
9.16102102774141
30
0
41
1
10
14.8233136083052
20
9.16865577604261
30
0
41
1
10
14.8303912444213
20
9.18432042212771
30
0
41
1
10
14.8333698543559
20
9.1923355595257
30
0
41
1
10
14.8356629736597
20
9.20057715377359
30
0
0
SPLINE
5
1B4
100
AcDbEntity
8
1
62
256
6
ByLayer
370
13
48
1
60
0
100
AcDbSpline
70
4
71
3
72
40
73
36
40
0
40
0
40
0
40
0
40
0.0625000000000002
40
0.0625000000000002
40
0.0937499999999995
40
0.0937499999999995
40
0.124999999999999
40
0.124999999999999
40
0.187499999999999
40
0.187499999999999
40
0.249999999999999
40
0.249999999999999
40
0.312499999999999
40
0.312499999999999
40
0.374999999999999
40
0.374999999999999
40
0.499999999999999
40
0.499999999999999
40
0.562499999999999
40
0.562499999999999
40
0.624999999999999
40
0.624999999999999
40
0.687499999999999
40
0.687499999999999
40
0.749999999999999
40
0.749999999999999
40
0.812499999999999
40
0.812499999999999
40
0.875
40
0.875
40
0.90625
40
0.90625
40
0.9375
40
0.9375
40
1
40
1
40
1
40
1
41
1
10
16.1180565562016
20
8.472023030825
30
0
41
1
10
16.1024287921954
20
8.46704888263619
30
0
41
1
10
16.0863636622728
20
8.4648880325004
30
0
41
1
10
16.0617978774478
20
8.4644511584068
30
0
41
1
10
16.0535041404926
20
8.4647931068078
30
0
41
1
10
16.0370024748794
20
8.46630066547201
30
0
41
1
10
16.0287694999971
20
8.4674638427465
30
0
41
1
10
16.0041069467533
20
8.4720153264777
30
0
41
1
10
15.9877520054423
20
8.4764559413741
30
0
41
1
10
15.9555129061728
20
8.48747138990029
30
0
41
1
10
15.9395945556452
20
8.49406020190071
30
0
41
1
10
15.9083142882789
20
8.50897171827751
30
0
41
1
10
15.8929411150929
20
8.51730238079671
30
0
41
1
10
15.8628864837511
20
8.53538539714341
30
0
41
1
10
15.8481451176329
20
8.54517360361771
30
0
41
1
10
15.8049135218239
20
8.576496610649
30
0
41
1
10
15.7776942966385
20
8.59972946626479
30
0
41
1
10
15.7391163315563
20
8.6379303021221
30
0
41
1
10
15.7267432574422
20
8.65112612450471
30
0
41
1
10
15.7029769163829
20
8.67844486500661
30
0
41
1
10
15.6915559836809
20
8.6926056901433
30
0
41
1
10
15.6699098420833
20
8.72170029325881
30
0
41
1
10
15.6596868373325
20
8.7366224097627
30
0
41
1
10
15.6405369335471
20
8.76728121587669
30
0
41
1
10
15.6316063046532
20
8.78303321480811
30
0
41
1
10
15.6154231787908
20
8.81509481042249
30
0
41
1
10
15.6081219269046
20
8.83149076226272
30
0
41
1
10
15.5955496286071
20
8.86485296437419
30
0
41
1
10
15.5902860964081
20
8.88177126076602
30
0
41
1
10
15.5843748704521
20
8.9075375200724
30
0
41
1
10
15.5827484504645
20
8.9161462290397
30
0
41
1
10
15.5802881488657
20
8.93341499697419
30
0
41
1
10
15.5794529847488
20
8.9421093836759
30
0
41
1
10
15.5783856425866
20
8.96798645769292
30
0
41
1
10
15.5795167512327
20
8.9849631563963
30
0
41
1
10
15.5834057321394
20
9.00155366576919
30
0
0
SPLINE
5
1B5
100
AcDbEntity
8
1
62
256
6
ByLayer
370
13
48
1
60
0
100
AcDbSpline
70
4
71
3
72
8
73
4
40
0
40
0
40
0
40
0
40
1
40
1
40
1
40
1
41
1
10
16.1376176261111
20
8.4782499412614
30
0
41
1
10
16.1310980883978
20
8.47617429089331
30
0
41
1
10
16.1245777422559
20
8.47409865378611
30
0
41
1
10
16.1180565562016
20
8.472023030825
30
0
0
SPLINE
5
1B6
100
AcDbEntity
8
1
62
256
6
ByLayer
370
13
48
1
60
0
100
AcDbSpline
70
4
71
3
72
32
73
28
40
0
40
0
40
0
40
0
40
0.0624999999999977
40
0.0624999999999977
40
0.124999999999995
40
0.124999999999995
40
0.156249999999995
40
0.156249999999995
40
0.187499999999994
40
0.187499999999994
40
0.249999999999995
40
0.249999999999995
40
0.312499999999996
40
0.312499999999996
40
0.374999999999996
40
0.374999999999996
40
0.437499999999997
40
0.437499999999997
40
0.499999999999997
40
0.499999999999997
40
0.624999999999998
40
0.624999999999998
40
0.749999999999999
40
0.749999999999999
40
0.874999999999999
40
0.874999999999999
40
1
40
1
40
1
40
1
41
1
10
15.5882759575232
20
9.02233073095971
30
0
41
1
10
15.5941738550317
20
9.0307509180835
30
0
41
1
10
15.5989356590102
20
9.0397265888457
30
0
41
1
10
15.6058950638582
20
9.05893122843182
30
0
41
1
10
15.6080586253177
20
9.06928597122919
30
0
41
1
10
15.6090294903973
20
9.08483520509301
30
0
41
1
10
15.6089927761197
20
9.090055130065
30
0
41
1
10
15.6082191197952
20
9.10056501115869
30
0
41
1
10
15.6074731972502
20
9.10588853680181
30
0
41
1
10
15.6042837880978
20
9.1216077555674
30
0
41
1
10
15.6009132798473
20
9.13181000877051
30
0
41
1
10
15.5921491088608
20
9.1517524122996
30
0
41
1
10
15.5868521525429
20
9.16126629028909
30
0
41
1
10
15.5749683125445
20
9.17943935121841
30
0
41
1
10
15.5683623149574
20
9.18812807772161
30
0
41
1
10
15.5540759167405
20
9.20485549152301
30
0
41
1
10
15.5464247634201
20
9.21285150307941
30
0
41
1
10
15.5304712284143
20
9.22806578909962
30
0
41
1
10
15.5221405573081
20
9.2353150370628
30
0
41
1
10
15.4962529716936
20
9.25615262674751
30
0
41
1
10
15.4779865281094
20
9.26870224331969
30
0
41
1
10
15.4400513324461
20
9.29167453137131
30
0
41
1
10
15.4204367699895
20
9.302052635309
30
0
41
1
10
15.3802785377105
20
9.32087854981921
30
0
41
1
10
15.3597326392591
20
9.32932123092181
30
0
41
1
10
15.3180585876662
20
9.34435315088589
30
0
41
1
10
15.2969468074444
20
9.35093943786251
30
0
41
1
10
15.2755699075739
20
9.35662923575981
30
0
0
SPLINE
5
1B7
100
AcDbEntity
8
1
62
256
6
ByLayer
370
13
48
1
60
0
100
AcDbSpline
70
4
71
3
72
8
73
4
40
0
40
0
40
0
40
0
40
1
40
1
40
1
40
1
41
1
10
15.5834057321394
20
9.00155366576919
30
0
41
1
10
15.5850293283237
20
9.00847997586439
30
0
41
1
10
15.5866527344179
20
9.01540565650672
30
0
41
1
10
15.5882759575232
20
9.02233073095971
30
0
0
SPLINE
5
1B8
100
AcDbEntity
8
1
62
256
6
ByLayer
370
13
48
1
60
0
100
AcDbSpline
70
4
71
3
72
31
73
27
40
0
40
0
40
0
40
0
40
0.249999999999999
40
0.249999999999999
40
0.374999999999998
40
0.374999999999998
40
0.499999999999998
40
0.499999999999998
40
0.562499999999997
40
0.562499999999997
40
0.624999999999996
40
0.624999999999996
40
0.687499999999995
40
0.687499999999995
40
0.749999999999994
40
0.749999999999994
40
0.781249999999994
40
0.781249999999994
40
0.812499999999995
40
0.843749999999995
40
0.843749999999995
40
0.874999999999995
40
0.874999999999995
40
0.937499999999998
40
0.937499999999998
40
1
40
1
40
1
40
1
41
1
10
16.4618777029154
20
8.18168235111182
30
0
41
1
10
16.4503962760814
20
8.22399717249411
30
0
41
1
10
16.4353909998279
20
8.26543165958552
30
0
41
1
10
16.407366889697
20
8.32457078691419
30
0
41
1
10
16.3970820024312
20
8.34380718540081
30
0
41
1
10
16.3744333708085
20
8.3808196846939
30
0
41
1
10
16.3620622759213
20
8.3986213068608
30
0
41
1
10
16.3416674777765
20
8.42362249136829
30
0
41
1
10
16.3345465004425
20
8.43168526413129
30
0
41
1
10
16.3196664782518
20
8.44701636708339
30
0
41
1
10
16.3118591020373
20
8.45433151095781
30
0
41
1
10
16.2956309611144
20
8.46784451056101
30
0
41
1
10
16.2872336354732
20
8.47403166408421
30
0
41
1
10
16.2697602588694
20
8.48501026370749
30
0
41
1
10
16.2606863471072
20
8.48980641783521
30
0
41
1
10
16.2464199102254
20
8.495623805707
30
0
41
1
10
16.2415201528454
20
8.4973401426314
30
0
41
1
10
16.2316600556061
20
8.5001662502591
30
0
41
1
10
16.2217479228558
20
8.50239238311602
30
0
41
1
10
16.2117282387436
20
8.503319140798
30
0
41
1
10
16.2016516511837
20
8.50352868967181
30
0
41
1
10
16.1965810088075
20
8.50326682147801
30
0
41
1
10
16.1817556058254
20
8.5013759746659
30
0
41
1
10
16.1722282021793
20
8.49865908333129
30
0
41
1
10
16.1538993639192
20
8.49030239268401
30
0
41
1
10
16.1454388317973
20
8.484818451564
30
0
41
1
10
16.1376176261111
20
8.4782499412614
30
0
0
SPLINE
5
1B9
100
AcDbEntity
8
1
62
256
6
ByLayer
370
13
48
1
60
0
100
AcDbSpline
70
4
71
3
72
42
73
38
40
0
40
0
40
0
40
0
40
0.0625000000000006
40
0.0625000000000006
40
0.0937500000000008
40
0.0937500000000008
40
0.125000000000001
40
0.125000000000001
40
0.187500000000003
40
0.187500000000003
40
0.218750000000003
40
0.218750000000003
40
0.250000000000003
40
0.250000000000003
40
0.375000000000003
40
0.375000000000003
40
0.437500000000003
40
0.437500000000003
40
0.500000000000003
40
0.500000000000003
40
0.562500000000002
40
0.562500000000002
40
0.625000000000002
40
0.625000000000002
40
0.687500000000002
40
0.687500000000002
40
0.750000000000002
40
0.750000000000002
40
0.812500000000001
40
0.812500000000001
40
0.875000000000001
40
0.875000000000001
40
0.906250000000001
40
0.906250000000001
40
0.937500000000001
40
0.937500000000001
40
1
40
1
40
1
40
1
41
1
10
13.3643850003627
20
7.74341299732811
30
0
41
1
10
13.3797046955248
20
7.74662253437501
30
0
41
1
10
13.3940222905595
20
7.7525292569523
30
0
41
1
10
13.4145359720429
20
7.76409107468982
30
0
41
1
10
13.4212304087169
20
7.7684307710646
30
0
41
1
10
13.4340914970151
20
7.7777460371515
30
0
41
1
10
13.440289363837
20
7.7827362337888
30
0
41
1
10
13.4583013173181
20
7.79855802317209
30
0
41
1
10
13.4695403340389
20
7.81023177535539
30
0
41
1
10
13.4855057264343
20
7.82912513378599
30
0
41
1
10
13.4906897630377
20
7.83567553483061
30
0
41
1
10
13.5006680561368
20
7.84906042009772
30
0
41
1
10
13.5054741322198
20
7.8559068330178
30
0
41
1
10
13.5286828475532
20
7.89084525622229
30
0
41
1
10
13.5446866119355
20
7.92100712896101
30
0
41
1
10
13.5656056308232
20
7.96912262712161
30
0
41
1
10
13.57205387124
20
7.98567228797071
30
0
41
1
10
13.5837479873634
20
8.0192561589819
30
0
41
1
10
13.5890206714623
20
8.0363474161316
30
0
41
1
10
13.5984273036401
20
8.07112695158591
30
0
41
1
10
13.6025286609018
20
8.08869539641381
30
0
41
1
10
13.6095161645675
20
8.12417616822881
30
0
41
1
10
13.6124082408232
20
8.14213696524081
30
0
41
1
10
13.6168686219414
20
8.17816944978659
30
0
41
1
10
13.618440124331
20
8.19622781605511
30
0
41
1
10
13.6201511192076
20
8.23243793826009
30
0
41
1
10
13.6202867427263
20
8.25060624309901
30
0
41
1
10
13.6189201060356
20
8.28662356201761
30
0
41
1
10
13.6174185922083
20
8.3045714207698
30
0
41
1
10
13.6124687405625
20
8.33998858424872
30
0
41
1
10
13.6090367204375
20
8.3574096013418
30
0
41
1
10
13.6020520102721
20
8.38292146058501
30
0
41
1
10
13.5994273574915
20
8.3912758013056
30
0
41
1
10
13.5934907123419
20
8.4076440043257
30
0
41
1
10
13.5901639038993
20
8.41568867522909
30
0
41
1
10
13.5790712697477
20
8.43894221466209
30
0
41
1
10
13.5702569436368
20
8.45330549368549
30
0
41
1
10
13.559298912584
20
8.4659834252042
30
0
0
SPLINE
5
1BA
100
AcDbEntity
8
1
62
256
6
ByLayer
370
13
48
1
60
0
100
AcDbSpline
70
4
71
3
72
8
73
4
40
0
40
0
40
0
40
0
40
1
40
1
40
1
40
1
41
1
10
13.559298912584
20
8.4659834252042
30
0
41
1
10
13.5547287485481
20
8.47127089212211
30
0
41
1
10
13.5501592162225
20
8.47655794703229
30
0
41
1
10
13.5455902918737
20
8.4818446050393
30
0
0
SPLINE
5
1BB
100
AcDbEntity
8
1
62
256
6
ByLayer
370
13
48
1
60
0
100
AcDbSpline
70
4
71
3
72
32
73
28
40
0
40
0
40
0
40
0
40
0.0624999999999966
40
0.0624999999999966
40
0.124999999999993
40
0.124999999999993
40
0.156249999999992
40
0.156249999999992
40
0.187499999999991
40
0.187499999999991
40
0.249999999999992
40
0.249999999999992
40
0.312499999999992
40
0.312499999999992
40
0.374999999999993
40
0.374999999999993
40
0.437499999999994
40
0.437499999999994
40
0.499999999999994
40
0.499999999999994
40
0.624999999999996
40
0.624999999999996
40
0.749999999999997
40
0.749999999999997
40
0.874999999999999
40
0.874999999999999
40
1
40
1
40
1
40
1
41
1
10
13.5455902918737
20
8.4818446050393
30
0
41
1
10
13.5367344623515
20
8.48636101739251
30
0
41
1
10
13.5285771520484
20
8.49191834428231
30
0
41
1
10
13.5138394263546
20
8.50538201342582
30
0
41
1
10
13.5072294672733
20
8.51341531920161
30
0
41
1
10
13.4992213998945
20
8.5265887649052
30
0
41
1
10
13.4968383791447
20
8.53118786694949
30
0
41
1
10
13.4926299574791
20
8.54078892342869
30
0
41
1
10
13.4907966026285
20
8.54582471900932
30
0
41
1
10
13.4862154397652
20
8.56117568553529
30
0
41
1
10
13.484339016902
20
8.57177326751369
30
0
41
1
10
13.4825106261292
20
8.5935508496222
30
0
41
1
10
13.4825817426356
20
8.6044850973401
30
0
41
1
10
13.4842142267105
20
8.62623452136719
30
0
41
1
10
13.4857780387096
20
8.63708494548609
30
0
41
1
10
13.4901214355029
20
8.65874172551409
30
0
41
1
10
13.492896048691
20
8.66949635149891
30
0
41
1
10
13.4993637359066
20
8.69064319960671
30
0
41
1
10
13.5030663932567
20
8.7010764161993
30
0
41
1
10
13.5153662397154
20
8.73201824148279
30
0
41
1
10
13.5250572059915
20
8.7519652723515
30
0
41
1
10
13.5466482230092
20
8.79068794854339
30
0
41
1
10
13.5585228031514
20
8.80939794856181
30
0
41
1
10
13.5839906270612
20
8.84558824441839
30
0
41
1
10
13.5975881419782
20
8.8630651306008
30
0
41
1
10
13.626172150961
20
8.89668704099461
30
0
41
1
10
13.6411459614373
20
8.91282142508959
30
0
41
1
10
13.6567781748995
20
8.92830368035089
30
0
0
SPLINE
5
1BC
100
AcDbEntity
8
1
62
256
6
ByLayer
370
13
48
1
60
0
100
AcDbSpline
70
4
71
3
72
8
73
4
40
0
40
0
40
0
40
0
40
1
40
1
40
1
40
1
41
1
10
13.3643850003627
20
7.74341299732811
30
0
41
1
10
13.3580293562357
20
7.7420814646137
30
0
41
1
10
13.3516745807203
20
7.74075039811379
30
0
41
1
10
13.3453206411938
20
7.73941977998089
30
0
0
SPLINE
5
1BD
100
AcDbEntity
8
1
62
256
6
ByLayer
370
13
48
1
60
0
100
AcDbSpline
70
4
71
3
72
32
73
28
40
0
40
0
40
0
40
0
40
0.0625000000000015
40
0.0625000000000015
40
0.125000000000003
40
0.125000000000003
40
0.156250000000004
40
0.156250000000004
40
0.187500000000005
40
0.187500000000005
40
0.250000000000004
40
0.250000000000004
40
0.312500000000004
40
0.312500000000004
40
0.375000000000004
40
0.375000000000004
40
0.437500000000003
40
0.437500000000003
40
0.500000000000003
40
0.500000000000003
40
0.625000000000002
40
0.625000000000002
40
0.750000000000001
40
0.750000000000001
40
0.875000000000001
40
0.875000000000001
40
1
40
1
40
1
40
1
41
1
10
13.3453206411938
20
7.73941977998089
30
0
41
1
10
13.3357742438699
20
7.7413761704957
30
0
41
1
10
13.3263056531599
20
7.74207241572159
30
0
41
1
10
13.3075446043365
20
7.74062111916521
30
0
41
1
10
13.2981662359444
20
7.73839158286131
30
0
41
1
10
13.2851428414603
20
7.73297257915399
30
0
41
1
10
13.2809395676085
20
7.7308237736336
30
0
41
1
10
13.2728028882522
20
7.7258622839714
30
0
41
1
10
13.2688465336463
20
7.72302785200361
30
0
41
1
10
13.2576256373417
20
7.7137644901882
30
0
41
1
10
13.2509509744372
20
7.70657439185081
30
0
41
1
10
13.2389276938448
20
7.69055823304501
30
0
41
1
10
13.233716823279
20
7.6819114892609
30
0
41
1
10
13.2245997514041
20
7.66381095515231
30
0
41
1
10
13.2206785782236
20
7.65432784821149
30
0
41
1
10
13.2138775921946
20
7.6346709971472
30
0
41
1
10
13.2110185510824
20
7.6245409569122
30
0
41
1
10
13.2062480611478
20
7.60402646653782
30
0
41
1
10
13.2043248661058
20
7.5936039395674
30
0
41
1
10
13.1997333189517
20
7.56192724074901
30
0
41
1
10
13.1982590150936
20
7.54048320862842
30
0
41
1
10
13.197749869878
20
7.4972777992412
30
0
41
1
10
13.198725162875
20
7.47558276871911
30
0
41
1
10
13.2027344318582
20
7.43222349811231
30
0
41
1
10
13.2057736260743
20
7.41055935931811
30
0
41
1
10
13.2136839994619
20
7.3675414980942
30
0
41
1
10
13.2185495511583
20
7.3462032934527
30
0
41
1
10
13.2242942375666
20
7.32503124029401
30
0
0
SPLINE
5
1BE
100
AcDbEntity
8
1
62
256
6
ByLayer
370
13
48
1
60
0
100
AcDbSpline
70
4
71
3
72
40
73
36
40
0
40
0
40
0
40
0
40
0.0625000000000019
40
0.0625000000000019
40
0.0937500000000019
40
0.0937500000000019
40
0.125000000000002
40
0.125000000000002
40
0.187500000000001
40
0.187500000000001
40
0.250000000000001
40
0.250000000000001
40
0.3125
40
0.3125
40
0.375
40
0.375
40
0.5
40
0.5
40
0.5625
40
0.5625
40
0.625
40
0.625
40
0.6875
40
0.6875
40
0.749999999999999
40
0.749999999999999
40
0.812499999999999
40
0.812499999999999
40
0.874999999999999
40
0.874999999999999
40
0.906249999999999
40
0.906249999999999
40
0.9375
40
0.9375
40
1
40
1
40
1
40
1
41
1
10
16.124086077668
20
7.00887517930721
30
0
41
1
10
16.1129191628779
20
7.01909237777011
30
0
41
1
10
16.1039248710761
20
7.03113442909211
30
0
41
1
10
16.092575565312
20
7.05104934501659
30
0
41
1
10
16.0891542979245
20
7.05802907558172
30
0
41
1
10
16.0830387511012
20
7.07235071724472
30
0
41
1
10
16.0803312389331
20
7.0797118888047
30
0
41
1
10
16.0731096878616
20
7.10232542558771
30
0
41
1
10
16.0695055456195
20
7.1180714646066
30
0
41
1
10
16.0642700856504
20
7.1503135302037
30
0
41
1
10
16.0626351757521
20
7.1668449292211
30
0
41
1
10
16.0610318472948
20
7.2003841456368
30
0
41
1
10
16.0610650138366
20
7.2174053970916
30
0
41
1
10
16.0625905317548
20
7.25165413819809
30
0
41
1
10
16.0640858075382
20
7.26894976420471
30
0
41
1
10
16.0705863003764
20
7.32109730639661
30
0
41
1
10
16.0775152792661
20
7.3558432564393
30
0
41
1
10
16.0915732012685
20
7.4079764410059
30
0
41
1
10
16.096840872372
20
7.42521353654971
30
0
41
1
10
16.1085467534993
20
7.45940073374771
30
0
41
1
10
16.1150034982184
20
7.4763939748666
30
0
41
1
10
16.1290624424976
20
7.50983043315631
30
0
41
1
10
16.1366561719115
20
7.52626551496391
30
0
41
1
10
16.1530756562236
20
7.55852041511861
30
0
41
1
10
16.161912155936
20
7.57435160007719
30
0
41
1
10
16.1807899293611
20
7.6049388463029
30
0
41
1
10
16.1908796869969
20
7.6197815644332
30
0
41
1
10
16.2124478882733
20
7.64809882698501
30
0
41
1
10
16.2238904531439
20
7.66154143470411
30
0
41
1
10
16.2422879129774
20
7.6802677034002
30
0
41
1
10
16.2485954093042
20
7.6862350609205
30
0
41
1
10
16.2616203959779
20
7.6975380375147
30
0
41
1
10
16.2683654531351
20
7.70289312358321
30
0
41
1
10
16.2891026235508
20
7.7176491580374
30
0
41
1
10
16.3035617972779
20
7.72580339621689
30
0
41
1
10
16.3189999898893
20
7.73144560718342
30
0
0
SPLINE
5
1BF
100
AcDbEntity
8
1
62
256
6
ByLayer
370
13
48
1
60
0
100
AcDbSpline
70
4
71
3
72
8
73
4
40
0
40
0
40
0
40
0
40
1
40
1
40
1
40
1
41
1
10
16.1380635817703
20
6.99608735070652
30
0
41
1
10
16.1334049918588
20
7.00034912664159
30
0
41
1
10
16.1287458312302
20
7.00461172536049
30
0
41
1
10
16.124086077668
20
7.00887517930721
30
0
0
SPLINE
5
1C0
100
AcDbEntity
8
1
62
256
6
ByLayer
370
13
48
1
60
0
100
AcDbSpline
70
4
71
3
72
32
73
28
40
0
40
0
40
0
40
0
40
0.0624999999999993
40
0.0624999999999993
40
0.124999999999999
40
0.124999999999999
40
0.156249999999998
40
0.156249999999998
40
0.187499999999997
40
0.187499999999997
40
0.249999999999997
40
0.249999999999997
40
0.312499999999997
40
0.312499999999997
40
0.374999999999998
40
0.374999999999998
40
0.437499999999998
40
0.437499999999998
40
0.499999999999998
40
0.499999999999998
40
0.624999999999999
40
0.624999999999999
40
0.749999999999999
40
0.749999999999999
40
0.875
40
0.875
40
1
40
1
40
1
40
1
41
1
10
16.3383332324502
20
7.73851217576501
30
0
41
1
10
16.3480142682486
20
7.73809471005529
30
0
41
1
10
16.3576164202105
20
7.7389250769244
30
0
41
1
10
16.3766421825694
20
7.7434020630366
30
0
41
1
10
16.3861529206567
20
7.74714459187982
30
0
41
1
10
16.3993606984902
20
7.7546711069148
30
0
41
1
10
16.4036235856882
20
7.7575012961
30
0
41
1
10
16.4118760053753
20
7.76378570379691
30
0
41
1
10
16.4158888176702
20
7.76726545010311
30
0
41
1
10
16.4272705897628
20
7.77836763058912
30
0
41
1
10
16.4340419914386
20
7.7866634581421
30
0
41
1
10
16.4462426441737
20
7.804706989816
30
0
41
1
10
16.4515321279805
20
7.81425228705601
30
0
41
1
10
16.4607908481413
20
7.8339718684816
30
0
41
1
10
16.4647752783888
20
7.8441780070068
30
0
41
1
10
16.4716913275055
20
7.86515003518261
30
0
41
1
10
16.4746018479874
20
7.87586848730501
30
0
41
1
10
16.4794650254441
20
7.8974424009044
30
0
41
1
10
16.4814296288699
20
7.90833822786729
30
0
41
1
10
16.4861337604064
20
7.94130177206489
30
0
41
1
10
16.48766705706
20
7.96342009492381
30
0
41
1
10
16.4882726897336
20
8.00772836100199
30
0
41
1
10
16.4873346023703
20
8.0298486538633
30
0
41
1
10
16.483383199685
20
8.07386933928231
30
0
41
1
10
16.4803645992211
20
8.09576886574129
30
0
41
1
10
16.4724813801364
20
8.13909710206801
30
0
41
1
10
16.4676223893238
20
8.1605102979531
30
0
41
1
10
16.4618777029154
20
8.18168235111182
30
0
0
SPLINE
5
1C1
100
AcDbEntity
8
1
62
256
6
ByLayer
370
13
48
1
60
0
100
AcDbSpline
70
4
71
3
72
8
73
4
40
0
40
0
40
0
40
0
40
1
40
1
40
1
40
1
41
1
10
16.3189999898893
20
7.73144560718342
30
0
41
1
10
16.3254452235426
20
7.73380115286901
30
0
41
1
10
16.331889627361
20
7.7361566755601
30
0
41
1
10
16.3383332324502
20
7.73851217576501
30
0
0
SPLINE
5
1C2
100
AcDbEntity
8
1
62
256
6
ByLayer
370
13
48
1
60
0
100
AcDbSpline
70
4
71
3
72
31
73
27
40
0
40
0
40
0
40
0
40
0.25
40
0.25
40
0.375
40
0.375
40
0.499999999999999
40
0.499999999999999
40
0.562499999999999
40
0.562499999999999
40
0.624999999999998
40
0.624999999999998
40
0.687499999999998
40
0.687499999999998
40
0.749999999999997
40
0.749999999999997
40
0.781249999999997
40
0.781249999999997
40
0.812499999999997
40
0.843749999999997
40
0.843749999999997
40
0.874999999999997
40
0.874999999999997
40
0.937499999999999
40
0.937499999999999
40
1
40
1
40
1
40
1
41
1
10
16.0293937655825
20
6.57840991105491
30
0
41
1
10
16.0606365702129
20
6.60935300670411
30
0
41
1
10
16.0894633681245
20
6.64279585058989
30
0
41
1
10
16.1275335324421
20
6.69602973329572
30
0
41
1
10
16.1393731296927
20
6.71431862977741
30
0
41
1
10
16.1608368242321
20
6.75187942477581
30
0
41
1
10
16.1704792901047
20
6.77117053258149
30
0
41
1
10
16.1826461524778
20
6.80075761807879
30
0
41
1
10
16.1863224026408
20
6.8107482466342
30
0
41
1
10
16.1927063037208
20
6.83084878965431
30
0
41
1
10
16.195432126172
20
6.84102247428461
30
0
41
1
10
16.19965434442
20
6.86130070204649
30
0
41
1
10
16.2011521553644
20
6.87138048610311
30
0
41
1
10
16.2026564719586
20
6.89137820419961
30
0
41
1
10
16.2026678914794
20
6.90129684173621
30
0
41
1
10
16.20122472257
20
6.91600047829729
30
0
41
1
10
16.2004903176411
20
6.92090478726681
30
0
41
1
10
16.198481010186
20
6.93044891214279
30
0
41
1
10
16.195940611845
20
6.9397249451977
30
0
41
1
10
16.1922538804901
20
6.94841506790169
30
0
41
1
10
16.1879362609602
20
6.95677925289721
30
0
41
1
10
16.1854534894502
20
6.96079738888361
30
0
41
1
10
16.1772454378073
20
6.97196034227071
30
0
41
1
10
16.1707041315694
20
6.97835305409271
30
0
41
1
10
16.1554834785991
20
6.98902136177222
30
0
41
1
10
16.1470875947024
20
6.99309875365591
30
0
41
1
10
16.1380635817703
20
6.99608735070652
30
0
0
SPLINE
5
1C3
100
AcDbEntity
8
1
62
256
6
ByLayer
370
13
48
1
60
0
100
AcDbSpline
70
4
71
3
72
40
73
36
40
0
40
0
40
0
40
0
40
0.0625000000000014
40
0.0625000000000014
40
0.0937500000000017
40
0.0937500000000017
40
0.125000000000002
40
0.125000000000002
40
0.187500000000002
40
0.187500000000002
40
0.250000000000002
40
0.250000000000002
40
0.312500000000001
40
0.312500000000001
40
0.375000000000001
40
0.375000000000001
40
0.500000000000001
40
0.500000000000001
40
0.562500000000001
40
0.562500000000001
40
0.625000000000001
40
0.625000000000001
40
0.6875
40
0.6875
40
0.75
40
0.75
40
0.8125
40
0.8125
40
0.875
40
0.875
40
0.90625
40
0.90625
40
0.9375
40
0.9375
40
1
40
1
40
1
40
1
41
1
10
13.5653284340503
20
7.00283557368641
30
0
41
1
10
13.5807415003065
20
7.0053557153615
30
0
41
1
10
13.596606258555
20
7.0052263067833
30
0
41
1
10
13.62088735034
20
7.00240912453961
30
0
41
1
10
13.6290886701298
20
7.0010108431037
30
0
41
1
10
13.6454131380282
20
6.99747790529139
30
0
41
1
10
13.6535610259921
20
6.99534218008981
30
0
41
1
10
13.677977971527
20
6.98798338739891
30
0
41
1
10
13.6941824337943
20
6.9818227891632
30
0
41
1
10
13.7261478363103
20
6.96767897243009
30
0
41
1
10
13.7419426886717
20
6.9596785699307
30
0
41
1
10
13.7730030601039
20
6.94225363152529
30
0
41
1
10
13.7882797784098
20
6.93282048468132
30
0
41
1
10
13.8181690542925
20
6.91284744678961
30
0
41
1
10
13.8328411793374
20
6.90226781122561
30
0
41
1
10
13.8759062218259
20
6.86904109102991
30
0
41
1
10
13.9030699212297
20
6.84517357282581
30
0
41
1
10
13.9416477729472
20
6.80697144120489
30
0
41
1
10
13.9540347735082
20
6.7939347988378
30
0
41
1
10
13.9778566560355
20
6.76725090021989
30
0
41
1
10
13.9893193591766
20
6.75356751338771
30
0
41
1
10
14.0110764303579
20
6.7257408412149
30
0
41
1
10
14.0213684633721
20
6.71160772137262
30
0
41
1
10
14.0406838463035
20
6.68284035055231
30
0
41
1
10
14.0497110885397
20
6.668192647176
30
0
41
1
10
14.0661136263888
20
6.6386389420455
30
0
41
1
10
14.0735382195743
20
6.6236527877079
30
0
41
1
10
14.0863841751879
20
6.5934185030323
30
0
41
1
10
14.091797542293
20
6.57821282745471
30
0
41
1
10
14.0979548610171
20
6.55525942135782
30
0
41
1
10
14.0996664585351
20
6.5476242960184
30
0
41
1
10
14.1023039268235
20
6.53238055261329
30
0
41
1
10
14.1032314605726
20
6.52474195563821
30
0
41
1
10
14.1045841230934
20
6.50212610824352
30
0
41
1
10
14.1036536462773
20
6.4874426418497
30
0
41
1
10
14.0999792581126
20
6.47330493874222
30
0
0
SPLINE
5
1C4
100
AcDbEntity
8
1
62
256
6
ByLayer
370
13
48
1
60
0
100
AcDbSpline
70
4
71
3
72
8
73
4
40
0
40
0
40
0
40
0
40
1
40
1
40
1
40
1
41
1
10
13.5460362475329
20
6.99968201448439
30
0
41
1
10
13.5524661196835
20
7.00073278278072
30
0
41
1
10
13.5588968375224
20
7.0017839636966
30
0
41
1
10
13.5653284340503
20
7.00283557368641
30
0
0
SPLINE
5
1C5
100
AcDbEntity
8
1
62
256
6
ByLayer
370
13
48
1
60
0
100
AcDbSpline
70
4
71
3
72
31
73
27
40
0
40
0
40
0
40
0
40
0.25
40
0.25
40
0.375
40
0.375
40
0.5
40
0.5
40
0.5625
40
0.5625
40
0.624999999999999
40
0.624999999999999
40
0.687499999999999
40
0.687499999999999
40
0.749999999999998
40
0.749999999999998
40
0.781249999999999
40
0.781249999999999
40
0.812499999999999
40
0.843749999999999
40
0.843749999999999
40
0.874999999999999
40
0.874999999999999
40
0.9375
40
0.9375
40
1
40
1
40
1
40
1
41
1
10
13.2242942375666
20
7.32503124029401
30
0
41
1
10
13.2357756644006
20
7.28271641891169
30
0
41
1
10
13.2507554832679
20
7.24099095256452
30
0
41
1
10
13.2786928770778
20
7.18086065315092
30
0
41
1
10
13.2889405459551
20
7.16119884653671
30
0
41
1
10
13.3114928617964
20
7.1230854528248
30
0
41
1
10
13.3238049143483
20
7.10460897367781
30
0
41
1
10
13.3440874485151
20
7.07832460603009
30
0
41
1
10
13.3511669217257
20
7.06978743896531
30
0
41
1
10
13.3659542390345
20
7.05339671436519
30
0
41
1
10
13.3737101040335
20
7.04549279460321
30
0
41
1
10
13.3898236102573
20
7.03066951439271
30
0
41
1
10
13.3981580189792
20
7.02376321719271
30
0
41
1
10
13.4154909297166
20
7.01117908536869
30
0
41
1
10
13.4244873505793
20
7.0054972062062
30
0
41
1
10
13.4386223082809
20
6.9981770044291
30
0
41
1
10
13.4434753298038
20
6.99592647421309
30
0
41
1
10
13.4532376863944
20
6.99198318585891
30
0
41
1
10
13.4630479316335
20
6.98859244644191
30
0
41
1
10
13.4729565332579
20
6.98639603709239
30
0
41
1
10
13.4829168059197
20
6.9848570028494
30
0
41
1
10
13.4879265833365
20
6.98442318137401
30
0
41
1
10
13.5025666819575
20
6.98419598964711
30
0
41
1
10
13.5119651726847
20
6.98543939957599
30
0
41
1
10
13.5300248707758
20
6.99071980401541
30
0
41
1
10
13.5383501826798
20
6.99465817097212
30
0
41
1
10
13.5460362475329
20
6.99968201448439
30
0
0
SPLINE
5
1C6
100
AcDbEntity
8
1
62
256
6
ByLayer
370
13
48
1
60
0
100
AcDbSpline
70
4
71
3
72
8
73
4
40
0
40
0
40
0
40
0
40
1
40
1
40
1
40
1
41
1
10
14.0999792581126
20
6.47330493874222
30
0
41
1
10
14.0984452514546
20
6.46740264161829
30
0
41
1
10
14.0969114736634
20
6.4615014171672
30
0
41
1
10
14.0953779161208
20
6.45560122478611
30
0
0
SPLINE
5
1C7
100
AcDbEntity
8
1
62
256
6
ByLayer
370
13
48
1
60
0
100
AcDbSpline
70
4
71
3
72
32
73
28
40
0
40
0
40
0
40
0
40
0.0624999999999985
40
0.0624999999999985
40
0.124999999999997
40
0.124999999999997
40
0.156249999999996
40
0.156249999999996
40
0.187499999999995
40
0.187499999999995
40
0.249999999999995
40
0.249999999999995
40
0.312499999999995
40
0.312499999999995
40
0.374999999999995
40
0.374999999999995
40
0.437499999999996
40
0.437499999999996
40
0.499999999999996
40
0.499999999999996
40
0.624999999999997
40
0.624999999999997
40
0.749999999999998
40
0.749999999999998
40
0.874999999999999
40
0.874999999999999
40
1
40
1
40
1
40
1
41
1
10
14.0953779161208
20
6.45560122478611
30
0
41
1
10
14.0896146570868
20
6.44871996246749
30
0
41
1
10
14.0849864143603
20
6.44127090380042
30
0
41
1
10
14.0782917230477
20
6.42509195376991
30
0
41
1
10
14.0762605312834
20
6.41625020351199
30
0
41
1
10
14.0754740495533
20
6.40280848097589
30
0
41
1
10
14.075570377177
20
6.39826993966869
30
0
41
1
10
14.0764597738323
20
6.3890829766095
30
0
41
1
10
14.0772621540663
20
6.38440476530491
30
0
41
1
10
14.0806124390067
20
6.3705243652098
30
0
41
1
10
14.0840796860285
20
6.36142784122239
30
0
41
1
10
14.0930212291577
20
6.34351281056141
30
0
41
1
10
14.0983967987165
20
6.33489748602781
30
0
41
1
10
14.1104222870009
20
6.31834347241559
30
0
41
1
10
14.117091541655
20
6.3103777774968
30
0
41
1
10
14.1314930029598
20
6.2949655408068
30
0
41
1
10
14.1391956356497
20
6.28755794113781
30
0
41
1
10
14.1552418581776
20
6.2734030783426
30
0
41
1
10
14.1636139376676
20
6.26662713037192
30
0
41
1
10
14.1896141076644
20
6.2470763860664
30
0
41
1
10
14.2079395440442
20
6.23520106023261
30
0
41
1
10
14.2459712271654
20
6.21333162887191
30
0
41
1
10
14.2656229952558
20
6.20337878727341
30
0
41
1
10
14.3058390938327
20
6.18521428757529
30
0
41
1
10
14.3264055860363
20
6.1770069941376
30
0
41
1
10
14.3681067919322
20
6.16228544927631
30
0
41
1
10
14.3892251330376
20
6.15577415354329
30
0
41
1
10
14.4106020329081
20
6.15008435564602
30
0
0
SPLINE
5
1C8
100
AcDbEntity
8
1
62
256
6
ByLayer
370
13
48
1
60
0
100
AcDbSpline
70
4
71
3
72
40
73
36
40
0
40
0
40
0
40
0
40
0.0625000000000005
40
0.0625000000000005
40
0.09375
40
0.09375
40
0.125
40
0.125
40
0.1875
40
0.1875
40
0.25
40
0.25
40
0.3125
40
0.3125
40
0.375
40
0.375
40
0.500000000000001
40
0.500000000000001
40
0.562500000000001
40
0.562500000000001
40
0.625000000000001
40
0.625000000000001
40
0.687500000000001
40
0.687500000000001
40
0.750000000000001
40
0.750000000000001
40
0.812500000000001
40
0.812500000000001
40
0.875000000000001
40
0.875000000000001
40
0.906250000000001
40
0.906250000000001
40
0.937500000000001
40
0.937500000000001
40
1
40
1
40
1
40
1
41
1
10
14.8477220165923
20
6.2742814507379
30
0
41
1
10
14.8520755169334
20
6.28824579413279
30
0
41
1
10
14.8590461692172
20
6.3013035662336
30
0
41
1
10
14.8721203017581
20
6.320028328083
30
0
41
1
10
14.8769465627431
20
6.32613794372961
30
0
41
1
10
14.8872440826757
20
6.33793933715441
30
0
41
1
10
14.8927270019306
20
6.34365105747639
30
0
41
1
10
14.9100452002485
20
6.36030945604841
30
0
41
1
10
14.9227207597954
20
6.37075488850121
30
0
41
1
10
14.9495875507192
20
6.39041732146859
30
0
41
1
10
14.9638092422654
20
6.3996541132361
30
0
41
1
10
14.9933762332072
20
6.41702510226071
30
0
41
1
10
15.0087343454951
20
6.42516444903401
30
0
41
1
10
15.0402318170255
20
6.44038516302109
30
0
41
1
10
15.0564338383905
20
6.44749686800861
30
0
41
1
10
15.1060826503774
20
6.46736954658701
30
0
41
1
10
15.1402030915617
20
6.47856530971981
30
0
41
1
10
15.192838921964
20
6.49249701054731
30
0
41
1
10
15.210486630405
20
6.4966178737163
30
0
41
1
10
15.2459866233257
20
6.5038037513543
30
0
41
1
10
15.2638851859663
20
6.50687488648882
30
0
41
1
10
15.2996457366349
20
6.51185070713441
30
0
41
1
10
15.3174969849313
20
6.51375817076891
30
0
41
1
10
15.3531491126018
20
6.51629998245642
30
0
41
1
10
15.3709645478792
20
6.51693131626109
30
0
41
1
10
15.4061351531601
20
6.51671091211429
30
0
41
1
10
15.4235878333318
20
6.51586257715582
30
0
41
1
10
15.4578651615637
20
6.5123815963141
30
0
41
1
10
15.4746461760863
20
6.50976221804839
30
0
41
1
10
15.4990779082599
20
6.50412865404292
30
0
41
1
10
15.5070544133395
20
6.5019740944098
30
0
41
1
10
15.5226282849568
20
6.4970208153342
30
0
41
1
10
15.530254691047
20
6.49420940956429
30
0
41
1
10
15.5522018638042
20
6.48471898331272
30
0
41
1
10
15.5656302448002
20
6.47704313894351
30
0
41
1
10
15.5772867528759
20
6.4673212436698
30
0
0
SPLINE
5
1C9
100
AcDbEntity
8
1
62
256
6
ByLayer
370
13
48
1
60
0
100
AcDbSpline
70
4
71
3
72
8
73
4
40
0
40
0
40
0
40
0
40
1
40
1
40
1
40
1
41
1
10
14.8422728924812
20
6.25680338731812
30
0
41
1
10
14.8440890075016
20
6.26262837258531
30
0
41
1
10
14.8459053788634
20
6.2684543803158
30
0
41
1
10
14.8477220165923
20
6.2742814507379
30
0
0
SPLINE
5
1CA
100
AcDbEntity
8
1
62
256
6
ByLayer
370
13
48
1
60
0
100
AcDbSpline
70
4
71
3
72
31
73
27
40
0
40
0
40
0
40
0
40
0.249999999999999
40
0.249999999999999
40
0.374999999999998
40
0.374999999999998
40
0.499999999999996
40
0.499999999999996
40
0.562499999999995
40
0.562499999999995
40
0.624999999999994
40
0.624999999999994
40
0.687499999999993
40
0.687499999999993
40
0.749999999999992
40
0.749999999999992
40
0.781249999999993
40
0.781249999999993
40
0.812499999999994
40
0.843749999999994
40
0.843749999999994
40
0.874999999999995
40
0.874999999999995
40
0.937499999999998
40
0.937499999999998
40
1
40
1
40
1
40
1
41
1
10
14.4106020329081
20
6.15008435564602
30
0
41
1
10
14.4533262643725
20
6.1387126299129
30
0
41
1
10
14.4971456098445
20
6.13057549707941
30
0
41
1
10
14.5631965261325
20
6.12417466641401
30
0
41
1
10
14.5853024014547
20
6.12301446034542
30
0
41
1
10
14.629366569726
20
6.12301230884131
30
0
41
1
10
14.6513506093182
20
6.12416436599
30
0
41
1
10
14.6838561378472
20
6.12810867540969
30
0
41
1
10
14.6946326132825
20
6.1297993340512
30
0
41
1
10
14.7158501841122
20
6.13403896329521
30
0
41
1
10
14.7263576271701
20
6.1366031161073
30
0
41
1
10
14.7467506689915
20
6.14271320396241
30
0
41
1
10
14.7566143471174
20
6.14624626265731
30
0
41
1
10
14.7755218073822
20
6.15446261503021
30
0
41
1
10
14.7845683932155
20
6.15914223592171
30
0
41
1
10
14.7973259215977
20
6.16727707765841
30
0
41
1
10
14.8014679061203
20
6.1701979530576
30
0
41
1
10
14.8092698255801
20
6.17635737994271
30
0
41
1
10
14.8165906229062
20
6.18282506661461
30
0
41
1
10
14.8228680277472
20
6.189953516049
30
0
41
1
10
14.8285688383282
20
6.197443409486
30
0
41
1
10
14.8311262767147
20
6.20137556883159
30
0
41
1
10
14.8376509758733
20
6.21337034976119
30
0
41
1
10
14.8405726168222
20
6.2217432122151
30
0
41
1
10
14.8435462320274
20
6.23923006743792
30
0
41
1
10
14.8435432701436
20
6.24801861336002
30
0
41
1
10
14.8422728924812
20
6.25680338731812
30
0
0
SPLINE
5
1CB
100
AcDbEntity
8
1
62
256
6
ByLayer
370
13
48
1
60
0
100
AcDbSpline
70
4
71
3
72
32
73
28
40
0
40
0
40
0
40
0
40
0.0625000000000007
40
0.0625000000000007
40
0.125000000000001
40
0.125000000000001
40
0.156250000000002
40
0.156250000000002
40
0.187500000000002
40
0.187500000000002
40
0.250000000000002
40
0.250000000000002
40
0.312500000000002
40
0.312500000000002
40
0.375000000000002
40
0.375000000000002
40
0.437500000000002
40
0.437500000000002
40
0.500000000000002
40
0.500000000000002
40
0.625000000000001
40
0.625000000000001
40
0.750000000000001
40
0.750000000000001
40
0.875
40
0.875
40
1
40
1
40
1
40
1
41
1
10
15.591884211749
20
6.45514742267821
30
0
41
1
10
15.5957346692761
20
6.44707923224729
30
0
41
1
10
15.6006417978856
20
6.43969723440179
30
0
41
1
10
15.6128405121641
20
6.42648242570561
30
0
41
1
10
15.6202538736396
20
6.42062670802122
30
0
41
1
10
15.6325829780683
20
6.41365774485629
30
0
41
1
10
15.6369123862169
20
6.41160870090189
30
0
41
1
10
15.6459963323938
20
6.40804468652232
30
0
41
1
10
15.6507832960782
20
6.4065235643547
30
0
41
1
10
15.6654349152173
20
6.40282593541019
30
0
41
1
10
15.6756251945292
20
6.4014723743681
30
0
41
1
10
15.6966787043221
20
6.4005871889469
30
0
41
1
10
15.7073044510673
20
6.4010678849254
30
0
41
1
10
15.7285178353694
20
6.40342392908019
30
0
41
1
10
15.7391398917376
20
6.40530285689439
30
0
41
1
10
15.7603998706152
20
6.41020505982459
30
0
41
1
10
15.7709872841022
20
6.41322170633421
30
0
41
1
10
15.7918503403257
20
6.42011104552591
30
0
41
1
10
15.8021663190496
20
6.4239942745219
30
0
41
1
10
15.8328143283918
20
6.43676365172439
30
0
41
1
10
15.8526435650274
20
6.44666950338029
30
0
41
1
10
15.8912326370932
20
6.46855690975229
30
0
41
1
10
15.9099277150034
20
6.4805117298456
30
0
41
1
10
15.946163477746
20
6.50603720816031
30
0
41
1
10
15.9637010726097
20
6.51961174734922
30
0
41
1
10
15.9975054822694
20
6.5480632512633
30
0
41
1
10
16.0137615521203
20
6.56292765579352
30
0
41
1
10
16.0293937655825
20
6.57840991105491
30
0
0
SPLINE
5
1CC
100
AcDbEntity
8
1
62
256
6
ByLayer
370
13
48
1
60
0
100
AcDbSpline
70
4
71
3
72
8
73
4
40
0
40
0
40
0
40
0
40
1
40
1
40
1
40
1
41
1
10
15.5772867528759
20
6.4673212436698
30
0
41
1
10
15.582153185108
20
6.46326248574601
30
0
41
1
10
15.5870189969838
20
6.45920455589041
30
0
41
1
10
15.591884211749
20
6.45514742267821
30
0
0
LINE
5
74
100
AcDbEntity
8
SK1
62
256
6
ByLayer
370
18
48
1
60
0
100
AcDbLine
10
-4.099268
20
2.821025
30
0
11
-4.099268
21
-2.821025
31
0
39
0
210
0
220
0
230
1
0
LINE
5
76
100
AcDbEntity
8
SK1
62
256
6
ByLayer
370
18
48
1
60
0
100
AcDbLine
10
-4.099268
20
-2.821025
30
0
11
-3.599268
21
-2.955
31
0
39
0
210
0
220
0
230
1
0
LINE
5
77
100
AcDbEntity
8
SK1
62
256
6
ByLayer
370
18
48
1
60
0
100
AcDbLine
10
-3.599268
20
2.955
30
0
11
-4.099268
21
2.821025
31
0
39
0
210
0
220
0
230
1
0
LINE
5
78
100
AcDbEntity
8
SK1
62
256
6
ByLayer
370
18
48
1
60
0
100
AcDbLine
10
-3.599268
20
2.955
30
0
11
-3.599268
21
-2.955
31
0
39
0
210
0
220
0
230
1
0
LINE
5
79
100
AcDbEntity
8
SK1
62
256
6
ByLayer
370
18
48
1
60
0
100
AcDbLine
10
-3.599268
20
-2.955
30
0
11
-0.298893
21
-2.955
31
0
39
0
210
0
220
0
230
1
0
LINE
5
7A
100
AcDbEntity
8
SK1
62
256
6
ByLayer
370
18
48
1
60
0
100
AcDbLine
10
-0.298893
20
2.955
30
0
11
-3.599268
21
2.955
31
0
39
0
210
0
220
0
230
1
0
LINE
5
7B
100
AcDbEntity
8
81
62
256
6
ByLayer
370
18
48
1
60
0
100
AcDbLine
10
20
20
12.875
30
0
11
25
21
12.875
31
0
39
0
210
0
220
0
230
1
0
LINE
5
7C
100
AcDbEntity
8
80
62
256
6
ByLayer
370
18
48
1
60
0
100
AcDbLine
10
0
20
0
30
0
11
-5
21
0
31
0
39
0
210
0
220
0
230
1
0
LINE
5
7D
100
AcDbEntity
8
4
62
256
6
ByLayer
370
18
48
0.05
60
0
100
AcDbLine
10
0
20
0
30
0
11
22
21
0
31
0
39
0
210
0
220
0
230
1
0
LINE
5
7F
100
AcDbEntity
8
SK4
62
256
6
ByLayer
370
18
48
0.05
60
0
100
AcDbLine
10
-6.599268
20
0
30
0
11
22.400732
21
0
31
0
39
0
210
0
220
0
230
1
0
LINE
5
81
100
AcDbEntity
8
1
62
256
6
ByLayer
370
18
48
1
60
1
100
AcDbLine
10
0
20
0
30
0
11
0
21
297
31
0
39
0
210
0
220
0
230
1
0
LINE
5
83
100
AcDbEntity
8
1
62
256
6
ByLayer
370
18
48
1
60
1
100
AcDbLine
10
210
20
297
30
0
11
0
21
297
31
0
39
0
210
0
220
0
230
1
0
LINE
5
84
100
AcDbEntity
8
1
62
256
6
ByLayer
370
18
48
1
60
1
100
AcDbLine
10
210
20
297
30
0
11
210
21
0
31
0
39
0
210
0
220
0
230
1
0
LINE
5
85
100
AcDbEntity
8
1
62
256
6
ByLayer
370
18
48
1
60
1
100
AcDbLine
10
0
20
0
30
0
11
210
21
0
31
0
39
0
210
0
220
0
230
1
0
LINE
5
86
100
AcDbEntity
8
1
62
256
6
ByLayer
370
18
48
1
60
1
100
AcDbLine
10
0
20
0
30
0
11
0
21
297
31
0
39
0
210
0
220
0
230
1
0
LINE
5
87
100
AcDbEntity
8
1
62
256
6
ByLayer
370
18
48
1
60
1
100
AcDbLine
10
420
20
297
30
0
11
0
21
297
31
0
39
0
210
0
220
0
230
1
0
LINE
5
88
100
AcDbEntity
8
1
62
256
6
ByLayer
370
18
48
1
60
1
100
AcDbLine
10
420
20
297
30
0
11
420
21
0
31
0
39
0
210
0
220
0
230
1
0
LINE
5
89
100
AcDbEntity
8
1
62
256
6
ByLayer
370
18
48
1
60
1
100
AcDbLine
10
0
20
0
30
0
11
420
21
0
31
0
39
0
210
0
220
0
230
1
0
LINE
5
8A
100
AcDbEntity
8
1
62
256
6
ByLayer
370
13
48
1
60
0
100
AcDbLine
10
9.79773
20
5.336951
30
0
11
9.790144
21
5.44948
31
0
39
0
210
0
220
0
230
1
0
LINE
5
8B
100
AcDbEntity
8
1
62
256
6
ByLayer
370
13
48
1
60
0
100
AcDbLine
10
9.851392
20
5.341556
30
0
11
9.79773
21
5.336951
31
0
39
0
210
0
220
0
230
1
0
LINE
5
8C
100
AcDbEntity
8
1
62
256
6
ByLayer
370
13
48
1
60
0
100
AcDbLine
10
9.790144
20
5.44948
30
0
11
9.861369
21
5.455592
31
0
39
0
210
0
220
0
230
1
0
LINE
5
8D
100
AcDbEntity
8
1
62
256
6
ByLayer
370
13
48
1
60
0
100
AcDbLine
10
6.473076
20
11.02867
30
0
11
6.490804
21
11.037513
31
0
39
0
210
0
220
0
230
1
0
LINE
5
8E
100
AcDbEntity
8
1
62
256
6
ByLayer
370
13
48
1
60
0
100
AcDbLine
10
7.441624
20
11.122204
30
0
11
6.490804
21
11.037513
31
0
39
0
210
0
220
0
230
1
0
LINE
5
8F
100
AcDbEntity
8
1
62
256
6
ByLayer
370
13
48
1
60
0
100
AcDbLine
10
6.473076
20
11.020429
30
0
11
6.473076
21
11.02867
31
0
39
0
210
0
220
0
230
1
0
LINE
5
90
100
AcDbEntity
8
1
62
256
6
ByLayer
370
13
48
1
60
0
100
AcDbLine
10
6.471825
20
11.028047
30
0
11
6.473076
21
11.02867
31
0
39
0
210
0
220
0
230
1
0
LINE
5
91
100
AcDbEntity
8
1
62
256
6
ByLayer
370
13
48
1
60
0
100
AcDbLine
10
6.472146
20
11.030066
30
0
11
6.309
21
10
31
0
39
0
210
0
220
0
230
1
0
LINE
5
92
100
AcDbEntity
8
1
62
256
6
ByLayer
370
13
48
1
60
0
100
AcDbLine
10
9.790144
20
5.44948
30
0
11
9.831991
21
5.927793
31
0
39
0
210
0
220
0
230
1
0
LINE
5
93
100
AcDbEntity
8
1
62
256
6
ByLayer
370
13
48
1
60
0
100
AcDbLine
10
8.313762
20
4.45156
30
0
11
8.271915
21
3.973247
31
0
39
0
210
0
220
0
230
1
0
LINE
5
94
100
AcDbEntity
8
1
62
256
6
ByLayer
370
13
48
1
60
0
100
AcDbLine
10
-0.298766
20
5.511559
30
0
11
-0.298766
21
6.120825
31
0
39
0
210
0
220
0
230
1
0
LINE
5
95
100
AcDbEntity
8
1
62
256
6
ByLayer
370
13
48
1
60
0
100
AcDbLine
10
-0.298766
20
8.925727
30
0
11
-0.298766
21
9.1557
31
0
39
0
210
0
220
0
230
1
0
LINE
5
96
100
AcDbEntity
8
1
62
256
6
ByLayer
370
13
48
1
60
0
100
AcDbLine
10
-0.298766
20
-9.1557
30
0
11
-0.298766
21
-8.925727
31
0
39
0
210
0
220
0
230
1
0
LINE
5
97
100
AcDbEntity
8
1
62
256
6
ByLayer
370
13
48
1
60
0
100
AcDbLine
10
-0.298766
20
-6.120825
30
0
11
-0.298766
21
-5.511558
31
0
39
0
210
0
220
0
230
1
0
LINE
5
98
100
AcDbEntity
8
1
62
256
6
ByLayer
370
13
48
1
60
0
100
AcDbLine
10
-0.238766
20
5.74666
30
0
11
-0.238766
21
5.840795
31
0
39
0
210
0
220
0
230
1
0
LINE
5
99
100
AcDbEntity
8
1
62
256
6
ByLayer
370
13
48
1
60
0
100
AcDbLine
10
-0.238766
20
9.01534
30
0
11
-0.238766
21
9.200826
31
0
39
0
210
0
220
0
230
1
0
LINE
5
9A
100
AcDbEntity
8
1
62
256
6
ByLayer
370
13
48
1
60
0
100
AcDbLine
10
-0.238766
20
-9.200825
30
0
11
-0.238766
21
-9.01534
31
0
39
0
210
0
220
0
230
1
0
LINE
5
9B
100
AcDbEntity
8
1
62
256
6
ByLayer
370
13
48
1
60
0
100
AcDbLine
10
-0.238766
20
-5.840794
30
0
11
-0.238766
21
-5.746659
31
0
39
0
210
0
220
0
230
1
0
LINE
5
9C
100
AcDbEntity
8
1
62
256
6
ByLayer
370
13
48
1
60
0
100
AcDbLine
10
9.831991
20
5.927793
30
0
11
9.903211
21
5.933905
31
0
39
0
210
0
220
0
230
1
0
LINE
5
9D
100
AcDbEntity
8
1
62
256
6
ByLayer
370
13
48
1
60
0
100
AcDbLine
10
18.501919
20
-0.718332
30
0
11
18.859784
21
3.372087
31
0
39
0
210
0
220
0
230
1
0
LINE
5
9E
100
AcDbEntity
8
1
62
256
6
ByLayer
370
13
48
1
60
0
100
AcDbLine
10
18.859784
20
3.372087
30
0
11
10.977347
21
2.695684
31
0
39
0
210
0
220
0
230
1
0
LINE
5
9F
100
AcDbEntity
8
1
62
256
6
ByLayer
370
13
48
1
60
0
100
AcDbLine
10
0.346266
20
9.693748
30
0
11
0.346266
21
9.73729
31
0
39
0
210
0
220
0
230
1
0
LINE
5
A0
100
AcDbEntity
8
1
62
256
6
ByLayer
370
13
48
1
60
0
100
AcDbLine
10
0.346266
20
-9.737289
30
0
11
0.346266
21
-9.693747
31
0
39
0
210
0
220
0
230
1
0
LINE
5
A1
100
AcDbEntity
8
1
62
256
6
ByLayer
370
13
48
1
60
0
100
AcDbLine
10
-0.298766
20
6.304262
30
0
11
-0.298766
21
6.607667
31
0
39
0
210
0
220
0
230
1
0
LINE
5
A2
100
AcDbEntity
8
1
62
256
6
ByLayer
370
13
48
1
60
0
100
AcDbLine
10
-0.298766
20
6.883882
30
0
11
-0.298766
21
7.082037
31
0
39
0
210
0
220
0
230
1
0
LINE
5
A3
100
AcDbEntity
8
1
62
256
6
ByLayer
370
13
48
1
60
0
100
AcDbLine
10
-0.298766
20
8.487275
30
0
11
-0.298766
21
8.886087
31
0
39
0
210
0
220
0
230
1
0
LINE
5
A4
100
AcDbEntity
8
1
62
256
6
ByLayer
370
13
48
1
60
0
100
AcDbLine
10
-0.298766
20
-8.886086
30
0
11
-0.298766
21
-8.487275
31
0
39
0
210
0
220
0
230
1
0
LINE
5
A5
100
AcDbEntity
8
1
62
256
6
ByLayer
370
13
48
1
60
0
100
AcDbLine
10
-0.298766
20
-7.082036
30
0
11
-0.298766
21
-6.883881
31
0
39
0
210
0
220
0
230
1
0
LINE
5
A6
100
AcDbEntity
8
1
62
256
6
ByLayer
370
13
48
1
60
0
100
AcDbLine
10
-0.298766
20
-6.607666
30
0
11
-0.298766
21
-6.304262
31
0
39
0
210
0
220
0
230
1
0
LINE
5
A7
100
AcDbEntity
8
1
62
256
6
ByLayer
370
13
48
1
60
0
100
AcDbLine
10
-0.238766
20
-8.918019
30
0
11
-0.238766
21
-8.596596
31
0
39
0
210
0
220
0
230
1
0
LINE
5
A8
100
AcDbEntity
8
1
62
256
6
ByLayer
370
13
48
1
60
0
100
AcDbLine
10
-0.238766
20
-6.429911
30
0
11
-0.238766
21
-6.332091
31
0
39
0
210
0
220
0
230
1
0
LINE
5
A9
100
AcDbEntity
8
1
62
256
6
ByLayer
370
13
48
1
60
0
100
AcDbLine
10
-0.238766
20
6.332091
30
0
11
-0.238766
21
6.429912
31
0
39
0
210
0
220
0
230
1
0
LINE
5
AA
100
AcDbEntity
8
1
62
256
6
ByLayer
370
13
48
1
60
0
100
AcDbLine
10
-0.238766
20
8.596597
30
0
11
-0.238766
21
8.91802
31
0
39
0
210
0
220
0
230
1
0
LINE
5
AB
100
AcDbEntity
8
1
62
256
6
ByLayer
370
13
48
1
60
0
100
AcDbLine
10
0.346266
20
9.350829
30
0
11
0.346266
21
9.42583
31
0
39
0
210
0
220
0
230
1
0
LINE
5
AC
100
AcDbEntity
8
1
62
256
6
ByLayer
370
13
48
1
60
0
100
AcDbLine
10
0.346266
20
-9.425829
30
0
11
0.346266
21
-9.350828
31
0
39
0
210
0
220
0
230
1
0
LINE
5
AD
100
AcDbEntity
8
1
62
256
6
ByLayer
370
13
48
1
60
0
100
AcDbLine
10
7.708411
20
11.145926
30
0
11
6.965048
21
-3.131923
31
0
39
0
210
0
220
0
230
1
0
LINE
5
AE
100
AcDbEntity
8
1
62
256
6
ByLayer
370
13
48
1
60
0
100
AcDbLine
10
-0.298766
20
-8.42456
30
0
11
-0.298766
21
-7.827732
31
0
39
0
210
0
220
0
230
1
0
LINE
5
AF
100
AcDbEntity
8
1
62
256
6
ByLayer
370
13
48
1
60
0
100
AcDbLine
10
-0.298766
20
-7.202903
30
0
11
-0.298766
21
-7.129703
31
0
39
0
210
0
220
0
230
1
0
LINE
5
B0
100
AcDbEntity
8
1
62
256
6
ByLayer
370
13
48
1
60
0
100
AcDbLine
10
-0.298766
20
7.129703
30
0
11
-0.298766
21
7.202903
31
0
39
0
210
0
220
0
230
1
0
LINE
5
B1
100
AcDbEntity
8
1
62
256
6
ByLayer
370
13
48
1
60
0
100
AcDbLine
10
-0.298766
20
7.827733
30
0
11
-0.298766
21
8.424561
31
0
39
0
210
0
220
0
230
1
0
LINE
5
B2
100
AcDbEntity
8
1
62
256
6
ByLayer
370
13
48
1
60
0
100
AcDbLine
10
-0.238766
20
7.097135
30
0
11
-0.238766
21
7.120306
31
0
39
0
210
0
220
0
230
1
0
LINE
5
B3
100
AcDbEntity
8
1
62
256
6
ByLayer
370
13
48
1
60
0
100
AcDbLine
10
-0.238766
20
7.96246
30
0
11
-0.238766
21
8.442864
31
0
39
0
210
0
220
0
230
1
0
LINE
5
B4
100
AcDbEntity
8
1
62
256
6
ByLayer
370
13
48
1
60
0
100
AcDbLine
10
-0.238766
20
-8.442864
30
0
11
-0.238766
21
-7.962459
31
0
39
0
210
0
220
0
230
1
0
LINE
5
B5
100
AcDbEntity
8
1
62
256
6
ByLayer
370
13
48
1
60
0
100
AcDbLine
10
-0.238766
20
-7.120306
30
0
11
-0.238766
21
-7.097134
31
0
39
0
210
0
220
0
230
1
0
LINE
5
B6
100
AcDbEntity
8
1
62
256
6
ByLayer
370
13
48
1
60
0
100
AcDbLine
10
6.777932
20
-6.725891
30
0
11
6.775106
21
-6.780165
31
0
39
0
210
0
220
0
230
1
0
LINE
5
B7
100
AcDbEntity
8
1
62
256
6
ByLayer
370
13
48
1
60
0
100
AcDbLine
10
0.346266
20
8.819404
30
0
11
0.346266
21
8.930438
31
0
39
0
210
0
220
0
230
1
0
LINE
5
B8
100
AcDbEntity
8
1
62
256
6
ByLayer
370
13
48
1
60
0
100
AcDbLine
10
0.346266
20
-8.930438
30
0
11
0.346266
21
-8.819403
31
0
39
0
210
0
220
0
230
1
0
LINE
5
B9
100
AcDbEntity
8
1
62
256
6
ByLayer
370
13
48
1
60
0
100
AcDbLine
10
-0.298766
20
-7.736853
30
0
11
-0.298766
21
-7.202885
31
0
39
0
210
0
220
0
230
1
0
LINE
5
BA
100
AcDbEntity
8
1
62
256
6
ByLayer
370
13
48
1
60
0
100
AcDbLine
10
-0.298766
20
7.202886
30
0
11
-0.298766
21
7.736854
31
0
39
0
210
0
220
0
230
1
0
LINE
5
BB
100
AcDbEntity
8
1
62
256
6
ByLayer
370
13
48
1
60
0
100
AcDbLine
10
-0.238766
20
7.120291
30
0
11
-0.238766
21
7.740015
31
0
39
0
210
0
220
0
230
1
0
LINE
5
BC
100
AcDbEntity
8
1
62
256
6
ByLayer
370
13
48
1
60
0
100
AcDbLine
10
-0.238766
20
-7.740015
30
0
11
-0.238766
21
-7.120291
31
0
39
0
210
0
220
0
230
1
0
LINE
5
BD
100
AcDbEntity
8
1
62
256
6
ByLayer
370
13
48
1
60
0
100
AcDbLine
10
0.346266
20
-8.217918
30
0
11
0.346266
21
-8.062303
31
0
39
0
210
0
220
0
230
1
0
LINE
5
BE
100
AcDbEntity
8
1
62
256
6
ByLayer
370
13
48
1
60
0
100
AcDbLine
10
0.346266
20
8.062304
30
0
11
0.346266
21
8.217919
31
0
39
0
210
0
220
0
230
1
0
LINE
5
BF
100
AcDbEntity
8
1
62
256
6
ByLayer
370
13
48
1
60
0
100
AcDbLine
10
-0.298766
20
-6.754227
30
0
11
-0.298766
21
-6.607664
31
0
39
0
210
0
220
0
230
1
0
LINE
5
C0
100
AcDbEntity
8
1
62
256
6
ByLayer
370
13
48
1
60
0
100
AcDbLine
10
-0.298766
20
6.607664
30
0
11
-0.298766
21
6.754228
31
0
39
0
210
0
220
0
230
1
0
LINE
5
C1
100
AcDbEntity
8
1
62
256
6
ByLayer
370
13
48
1
60
0
100
AcDbLine
10
-0.298766
20
-6.304262
30
0
11
-0.298766
21
-6.120818
31
0
39
0
210
0
220
0
230
1
0
LINE
5
C2
100
AcDbEntity
8
1
62
256
6
ByLayer
370
13
48
1
60
0
100
AcDbLine
10
-0.298766
20
-7.082009
30
0
11
-0.298766
21
-7.129703
31
0
39
0
210
0
220
0
230
1
0
LINE
5
C3
100
AcDbEntity
8
1
62
256
6
ByLayer
370
13
48
1
60
0
100
AcDbLine
10
-0.298766
20
7.129703
30
0
11
-0.298766
21
7.08201
31
0
39
0
210
0
220
0
230
1
0
LINE
5
C4
100
AcDbEntity
8
1
62
256
6
ByLayer
370
13
48
1
60
0
100
AcDbLine
10
-0.298766
20
6.120819
30
0
11
-0.298766
21
6.304262
31
0
39
0
210
0
220
0
230
1
0
LINE
5
C5
100
AcDbEntity
8
1
62
256
6
ByLayer
370
13
48
1
60
0
100
AcDbLine
10
-0.238766
20
6.429887
30
0
11
-0.238766
21
6.738599
31
0
39
0
210
0
220
0
230
1
0
LINE
5
C6
100
AcDbEntity
8
1
62
256
6
ByLayer
370
13
48
1
60
0
100
AcDbLine
10
-0.238766
20
-6.738598
30
0
11
-0.238766
21
-6.429887
31
0
39
0
210
0
220
0
230
1
0
LINE
5
C7
100
AcDbEntity
8
1
62
256
6
ByLayer
370
13
48
1
60
0
100
AcDbLine
10
0.346266
20
-7.224309
30
0
11
0.346266
21
-7.006676
31
0
39
0
210
0
220
0
230
1
0
LINE
5
C8
100
AcDbEntity
8
1
62
256
6
ByLayer
370
13
48
1
60
0
100
AcDbLine
10
0.346266
20
7.006677
30
0
11
0.346266
21
7.224309
31
0
39
0
210
0
220
0
230
1
0
LINE
5
C9
100
AcDbEntity
8
1
62
256
6
ByLayer
370
13
48
1
60
0
100
AcDbLine
10
14.55
20
-4.1
30
0
11
12.75
21
-4.1
31
0
39
0
210
0
220
0
230
1
0
LINE
5
CA
100
AcDbEntity
8
1
62
256
6
ByLayer
370
13
48
1
60
0
100
AcDbLine
10
-0.298766
20
-5.315569
30
0
11
-0.298766
21
-3.200139
31
0
39
0
210
0
220
0
230
1
0
LINE
5
CB
100
AcDbEntity
8
1
62
256
6
ByLayer
370
13
48
1
60
0
100
AcDbLine
10
-0.298766
20
3.200139
30
0
11
-0.298766
21
5.31557
31
0
39
0
210
0
220
0
230
1
0
LINE
5
CC
100
AcDbEntity
8
1
62
256
6
ByLayer
370
13
48
1
60
0
100
AcDbLine
10
-0.238766
20
-5.271108
30
0
11
-0.238766
21
-3.626028
31
0
39
0
210
0
220
0
230
1
0
LINE
5
CD
100
AcDbEntity
8
1
62
256
6
ByLayer
370
13
48
1
60
0
100
AcDbLine
10
-0.238766
20
3.626029
30
0
11
-0.238766
21
5.271109
31
0
39
0
210
0
220
0
230
1
0
LINE
5
CE
100
AcDbEntity
8
1
62
256
6
ByLayer
370
13
48
1
60
0
100
AcDbLine
10
0.346266
20
-5.807073
30
0
11
0.346266
21
-5.482965
31
0
39
0
210
0
220
0
230
1
0
LINE
5
CF
100
AcDbEntity
8
1
62
256
6
ByLayer
370
13
48
1
60
0
100
AcDbLine
10
0.346266
20
5.482966
30
0
11
0.346266
21
5.807073
31
0
39
0
210
0
220
0
230
1
0
LINE
5
D0
100
AcDbEntity
8
1
62
256
6
ByLayer
370
13
48
1
60
0
100
AcDbLine
10
-0.298766
20
-2.786748
30
0
11
-0.298766
21
2.786748
31
0
39
0
210
0
220
0
230
1
0
LINE
5
D1
100
AcDbEntity
8
1
62
256
6
ByLayer
370
13
48
1
60
0
100
AcDbLine
10
5.792087
20
4.358899
30
0
11
5.332239
21
-4.358899
31
0
39
0
210
0
220
0
230
1
0
LINE
5
D2
100
AcDbEntity
8
1
62
256
6
ByLayer
370
13
48
1
60
0
100
AcDbLine
10
-0.238766
20
-2.652445
30
0
11
-0.238766
21
2.652446
31
0
39
0
210
0
220
0
230
1
0
LINE
5
D3
100
AcDbEntity
8
1
62
256
6
ByLayer
370
13
48
1
60
0
100
AcDbLine
10
3.5
20
4.358899
30
0
11
3.5
21
-4.358899
31
0
39
0
210
0
220
0
230
1
0
LINE
5
D4
100
AcDbEntity
8
1
62
256
6
ByLayer
370
13
48
1
60
0
100
AcDbLine
10
0.346266
20
-3.482607
30
0
11
0.346266
21
-2.811879
31
0
39
0
210
0
220
0
230
1
0
LINE
5
D5
100
AcDbEntity
8
1
62
256
6
ByLayer
370
13
48
1
60
0
100
AcDbLine
10
0.346266
20
2.811879
30
0
11
0.346266
21
3.482608
31
0
39
0
210
0
220
0
230
1
0
LINE
5
D6
100
AcDbEntity
8
1
62
256
6
ByLayer
370
13
48
1
60
0
100
AcDbLine
10
4.253474
20
-9.921567
30
0
11
0.450766
21
-9.921567
31
0
39
0
210
0
220
0
230
1
0
LINE
5
D7
100
AcDbEntity
8
1
62
256
6
ByLayer
370
13
48
1
60
0
100
AcDbLine
10
4.410722
20
-10
30
0
11
4.253474
21
-9.921567
31
0
39
0
210
0
220
0
230
1
0
LINE
5
D8
100
AcDbEntity
8
1
62
256
6
ByLayer
370
13
48
1
60
0
100
AcDbLine
10
4.410722
20
10
30
0
11
4.253474
21
9.921568
31
0
39
0
210
0
220
0
230
1
0
LINE
5
D9
100
AcDbEntity
8
1
62
256
6
ByLayer
370
13
48
1
60
0
100
AcDbLine
10
0.450766
20
9.921568
30
0
11
4.253474
21
9.921568
31
0
39
0
210
0
220
0
230
1
0
LINE
5
DA
100
AcDbEntity
8
1
62
256
6
ByLayer
370
13
48
1
60
0
100
AcDbLine
10
3.5
20
4.358899
30
0
11
5.792087
21
4.358899
31
0
39
0
210
0
220
0
230
1
0
LINE
5
DB
100
AcDbEntity
8
1
62
256
6
ByLayer
370
13
48
1
60
0
100
AcDbLine
10
6.04612
20
9.840176
30
0
11
6.046062
21
9.838704
31
0
39
0
210
0
220
0
230
1
0
LINE
5
DC
100
AcDbEntity
8
1
62
256
6
ByLayer
370
13
48
1
60
0
100
AcDbLine
10
6.309
20
10
30
0
11
6.309
21
9.960779
31
0
39
0
210
0
220
0
230
1
0
LINE
5
DD
100
AcDbEntity
8
1
62
256
6
ByLayer
370
13
48
1
60
0
100
AcDbLine
10
5.066928
20
-8.96726
30
0
11
5.067137
21
-8.963606
31
0
39
0
210
0
220
0
230
1
0
LINE
5
DE
100
AcDbEntity
8
1
62
256
6
ByLayer
370
13
48
1
60
0
100
AcDbLine
10
5.332239
20
-4.358899
30
0
11
3.5
21
-4.358899
31
0
39
0
210
0
220
0
230
1
0
LINE
5
DF
100
AcDbEntity
8
1
62
256
6
ByLayer
370
13
48
1
60
0
100
AcDbLine
10
3.2
20
-3.675595
30
0
11
3.2
21
3.675595
31
0
39
0
210
0
220
0
230
1
0
LINE
5
E0
100
AcDbEntity
8
1
62
256
6
ByLayer
370
13
48
1
60
0
100
AcDbLine
10
6.309
20
10
30
0
11
4.410722
21
10
31
0
39
0
210
0
220
0
230
1
0
LINE
5
E1
100
AcDbEntity
8
1
62
256
6
ByLayer
370
13
48
1
60
0
100
AcDbLine
10
4.410722
20
-10
30
0
11
5.030611
21
-10
31
0
39
0
210
0
220
0
230
1
0
LINE
5
E2
100
AcDbEntity
8
1
62
256
6
ByLayer
370
13
48
1
60
0
100
AcDbLine
10
-0.298766
20
9.165624
30
0
11
-0.298766
21
9.1557
31
0
39
0
210
0
220
0
230
1
0
LINE
5
E3
100
AcDbEntity
8
1
62
256
6
ByLayer
370
13
48
1
60
0
100
AcDbLine
10
-0.298766
20
8.886087
30
0
11
-0.298766
21
8.925794
31
0
39
0
210
0
220
0
230
1
0
LINE
5
E4
100
AcDbEntity
8
1
62
256
6
ByLayer
370
13
48
1
60
0
100
AcDbLine
10
-0.298766
20
8.487291
30
0
11
-0.298766
21
8.424561
31
0
39
0
210
0
220
0
230
1
0
LINE
5
E5
100
AcDbEntity
8
1
62
256
6
ByLayer
370
13
48
1
60
0
100
AcDbLine
10
-0.298766
20
7.736854
30
0
11
-0.298766
21
7.827734
31
0
39
0
210
0
220
0
230
1
0
LINE
5
E6
100
AcDbEntity
8
1
62
256
6
ByLayer
370
13
48
1
60
0
100
AcDbLine
10
-0.298766
20
6.883875
30
0
11
-0.298766
21
6.754228
31
0
39
0
210
0
220
0
230
1
0
LINE
5
E7
100
AcDbEntity
8
1
62
256
6
ByLayer
370
13
48
1
60
0
100
AcDbLine
10
-0.298766
20
5.31557
30
0
11
-0.298766
21
5.511537
31
0
39
0
210
0
220
0
230
1
0
LINE
5
E8
100
AcDbEntity
8
1
62
256
6
ByLayer
370
13
48
1
60
0
100
AcDbLine
10
-0.298766
20
3.200212
30
0
11
-0.298766
21
2.786748
31
0
39
0
210
0
220
0
230
1
0
LINE
5
E9
100
AcDbEntity
8
1
62
256
6
ByLayer
370
13
48
1
60
0
100
AcDbLine
10
-0.298766
20
-2.786748
30
0
11
-0.298766
21
-3.200211
31
0
39
0
210
0
220
0
230
1
0
LINE
5
EA
100
AcDbEntity
8
1
62
256
6
ByLayer
370
13
48
1
60
0
100
AcDbLine
10
-0.298766
20
-5.511537
30
0
11
-0.298766
21
-5.315569
31
0
39
0
210
0
220
0
230
1
0
LINE
5
EB
100
AcDbEntity
8
1
62
256
6
ByLayer
370
13
48
1
60
0
100
AcDbLine
10
-0.298766
20
-6.754227
30
0
11
-0.298766
21
-6.883874
31
0
39
0
210
0
220
0
230
1
0
LINE
5
EC
100
AcDbEntity
8
1
62
256
6
ByLayer
370
13
48
1
60
0
100
AcDbLine
10
-0.298766
20
-7.827733
30
0
11
-0.298766
21
-7.736853
31
0
39
0
210
0
220
0
230
1
0
LINE
5
ED
100
AcDbEntity
8
1
62
256
6
ByLayer
370
13
48
1
60
0
100
AcDbLine
10
-0.298766
20
-8.42456
30
0
11
-0.298766
21
-8.48729
31
0
39
0
210
0
220
0
230
1
0
LINE
5
EE
100
AcDbEntity
8
1
62
256
6
ByLayer
370
13
48
1
60
0
100
AcDbLine
10
-0.298766
20
-8.925793
30
0
11
-0.298766
21
-8.886086
31
0
39
0
210
0
220
0
230
1
0
LINE
5
EF
100
AcDbEntity
8
1
62
256
6
ByLayer
370
13
48
1
60
0
100
AcDbLine
10
-0.298766
20
-9.1557
30
0
11
-0.298766
21
-9.165624
31
0
39
0
210
0
220
0
230
1
0
LINE
5
F0
100
AcDbEntity
8
1
62
256
6
ByLayer
370
13
48
1
60
0
100
AcDbLine
10
0.450766
20
-9.921567
30
0
11
0.450766
21
9.921568
31
0
39
0
210
0
220
0
230
1
0
LINE
5
F1
100
AcDbEntity
8
1
62
256
6
ByLayer
370
13
48
1
60
0
100
AcDbLine
10
14.817952
20
8.998141
30
0
11
14.823536
21
9.017156
31
0
39
0
210
0
220
0
230
1
0
LINE
5
F2
100
AcDbEntity
8
1
62
256
6
ByLayer
370
13
48
1
60
0
100
AcDbLine
10
14.073924
20
8.818812
30
0
11
14.088387
21
8.805101
31
0
39
0
210
0
220
0
230
1
0
LINE
5
F3
100
AcDbEntity
8
1
62
256
6
ByLayer
370
13
48
1
60
0
100
AcDbLine
10
16.100346
20
8.269587
30
0
11
16.119772
21
8.274277
31
0
39
0
210
0
220
0
230
1
0
LINE
5
F4
100
AcDbEntity
8
1
62
256
6
ByLayer
370
13
48
1
60
0
100
AcDbLine
10
14.088387
20
8.805101
30
0
11
14.106098
21
9.007537
31
0
39
0
210
0
220
0
230
1
0
LINE
5
F5
100
AcDbEntity
8
1
62
256
6
ByLayer
370
13
48
1
60
0
100
AcDbLine
10
14.817952
20
8.998141
30
0
11
14.835663
21
9.200577
31
0
39
0
210
0
220
0
230
1
0
LINE
5
F6
100
AcDbEntity
8
1
62
256
6
ByLayer
370
13
48
1
60
0
100
AcDbLine
10
16.100346
20
8.269587
30
0
11
16.118057
21
8.472023
31
0
39
0
210
0
220
0
230
1
0
LINE
5
F7
100
AcDbEntity
8
1
62
256
6
ByLayer
370
13
48
1
60
0
100
AcDbLine
10
15.579661
20
8.977818
30
0
11
15.56209
21
8.776988
31
0
39
0
210
0
220
0
230
1
0
LINE
5
F8
100
AcDbEntity
8
1
62
256
6
ByLayer
370
13
48
1
60
0
100
AcDbLine
10
14.823536
20
9.017156
30
0
11
14.841381
21
9.221129
31
0
39
0
210
0
220
0
230
1
0
LINE
5
F9
100
AcDbEntity
8
1
62
256
6
ByLayer
370
13
48
1
60
0
100
AcDbLine
10
13.327475
20
7.535447
30
0
11
13.346674
21
7.540977
31
0
39
0
210
0
220
0
230
1
0
LINE
5
FA
100
AcDbEntity
8
1
62
256
6
ByLayer
370
13
48
1
60
0
100
AcDbLine
10
14.073924
20
8.818812
30
0
11
14.09177
21
9.022785
31
0
39
0
210
0
220
0
230
1
0
LINE
5
FB
100
AcDbEntity
8
1
62
256
6
ByLayer
370
13
48
1
60
0
100
AcDbLine
10
13.346674
20
7.540977
30
0
11
13.364385
21
7.743413
31
0
39
0
210
0
220
0
230
1
0
LINE
5
FC
100
AcDbEntity
8
1
62
256
6
ByLayer
370
13
48
1
60
0
100
AcDbLine
10
13.600875
20
7.997393
30
0
11
13.617418
21
8.186479
31
0
39
0
210
0
220
0
230
1
0
LINE
5
FD
100
AcDbEntity
8
1
62
256
6
ByLayer
370
13
48
1
60
0
100
AcDbLine
10
16.106375
20
6.806439
30
0
11
16.120218
21
6.792115
31
0
39
0
210
0
220
0
230
1
0
LINE
5
FE
100
AcDbEntity
8
1
62
256
6
ByLayer
370
13
48
1
60
0
100
AcDbLine
10
16.106375
20
6.806439
30
0
11
16.124086
21
7.008875
31
0
39
0
210
0
220
0
230
1
0
LINE
5
FF
100
AcDbEntity
8
1
62
256
6
ByLayer
370
13
48
1
60
0
100
AcDbLine
10
16.063626
20
7.261626
30
0
11
16.047088
21
7.072594
31
0
39
0
210
0
220
0
230
1
0
LINE
5
100
100
AcDbEntity
8
1
62
256
6
ByLayer
370
13
48
1
60
0
100
AcDbLine
10
16.119772
20
8.274277
30
0
11
16.137618
21
8.47825
31
0
39
0
210
0
220
0
230
1
0
LINE
5
101
100
AcDbEntity
8
1
62
256
6
ByLayer
370
13
48
1
60
0
100
AcDbLine
10
14.090745
20
6.348682
30
0
11
14.103443
21
6.49383
31
0
39
0
210
0
220
0
230
1
0
LINE
5
102
100
AcDbEntity
8
1
62
256
6
ByLayer
370
13
48
1
60
0
100
AcDbLine
10
14.089287
20
6.351091
30
0
11
14.099979
21
6.473305
31
0
39
0
210
0
220
0
230
1
0
LINE
5
103
100
AcDbEntity
8
1
62
256
6
ByLayer
370
13
48
1
60
0
100
AcDbLine
10
13.327475
20
7.535447
30
0
11
13.345321
21
7.73942
31
0
39
0
210
0
220
0
230
1
0
LINE
5
104
100
AcDbEntity
8
1
62
256
6
ByLayer
370
13
48
1
60
0
100
AcDbLine
10
16.120218
20
6.792115
30
0
11
16.138064
21
6.996087
31
0
39
0
210
0
220
0
230
1
0
LINE
5
105
100
AcDbEntity
8
1
62
256
6
ByLayer
370
13
48
1
60
0
100
AcDbLine
10
17.439902
20
7.316608
30
0
11
17.454756
21
7.486385
31
0
39
0
210
0
220
0
230
1
0
LINE
5
106
100
AcDbEntity
8
1
62
256
6
ByLayer
370
13
48
1
60
0
100
AcDbLine
10
12.224734
20
7.943953
30
0
11
12.20988
21
7.774175
31
0
39
0
210
0
220
0
230
1
0
LINE
5
107
100
AcDbEntity
8
1
62
256
6
ByLayer
370
13
48
1
60
0
100
AcDbLine
10
14.839435
20
6.224369
30
0
11
14.842273
21
6.256803
31
0
39
0
210
0
220
0
230
1
0
LINE
5
108
100
AcDbEntity
8
1
62
256
6
ByLayer
370
13
48
1
60
0
100
AcDbLine
10
14.08684
20
6.358013
30
0
11
14.095378
21
6.455601
31
0
39
0
210
0
220
0
230
1
0
LINE
5
109
100
AcDbEntity
8
1
62
256
6
ByLayer
370
13
48
1
60
0
100
AcDbLine
10
18.695396
20
3.35798
30
0
11
18.835545
21
3.420016
31
0
39
0
210
0
220
0
230
1
0
LINE
5
10A
100
AcDbEntity
8
1
62
256
6
ByLayer
370
13
48
1
60
0
100
AcDbLine
10
10.932054
20
2.636665
30
0
11
10.461408
21
2.596278
31
0
39
0
210
0
220
0
230
1
0
LINE
5
10B
100
AcDbEntity
8
1
62
256
6
ByLayer
370
13
48
1
60
0
100
AcDbLine
10
18.57091
20
3.347297
30
0
11
18.580517
21
3.354627
31
0
39
0
210
0
220
0
230
1
0
LINE
5
10C
100
AcDbEntity
8
1
62
256
6
ByLayer
370
13
48
1
60
0
100
AcDbLine
10
10.552426
20
2.665725
30
0
11
10.461408
21
2.596278
31
0
39
0
210
0
220
0
230
1
0
LINE
5
10D
100
AcDbEntity
8
1
62
256
6
ByLayer
370
13
48
1
60
0
100
AcDbLine
10
10.038009
20
2.798431
30
0
11
10.262803
21
2.647513
31
0
39
0
210
0
220
0
230
1
0
LINE
5
10E
100
AcDbEntity
8
1
62
256
6
ByLayer
370
13
48
1
60
0
100
AcDbLine
10
10.387488
20
11.469194
30
0
11
9.691853
21
3.518056
31
0
39
0
210
0
220
0
230
1
0
LINE
5
10F
100
AcDbEntity
8
1
62
256
6
ByLayer
370
13
48
1
60
0
100
AcDbLine
10
10.552426
20
2.665725
30
0
11
18.580517
21
3.354627
31
0
39
0
210
0
220
0
230
1
0
LINE
5
110
100
AcDbEntity
8
1
62
256
6
ByLayer
370
13
48
1
60
0
100
AcDbLine
10
19.301403
20
4.068598
30
0
11
19.997038
21
12.019736
31
0
39
0
210
0
220
0
230
1
0
LINE
5
111
100
AcDbEntity
8
1
62
256
6
ByLayer
370
13
48
1
60
0
100
AcDbLine
10
19.136465
20
12.872067
30
0
11
11.108374
21
12.183165
31
0
39
0
210
0
220
0
230
1
0
MTEXT
5
1CD
100
AcDbEntity
8
SK6
62
256
6
ByLayer
370
18
48
1
60
0
100
AcDbMText
10
-19.333613
20
-23.305014
30
0
210
0
220
0
230
1
1
\W0.7535;SL-SCLCR-20-09-13D
40
3.5
41
0
44
1.084337
50
0
71
7
72
5
7
iso_b_vert
0
DIMENSION
5
1D2
100
AcDbEntity
8
2
62
256
6
ByLayer
370
18
48
1
60
0
100
AcDbDimension
2
_U0
10
28.924644
20
12.875
30
0
11
28.924644
21
6.4375
31
0
70
32
71
1
72
1
41
1
210
0
220
0
230
1
3
Standard
100
AcDbAlignedDimension
13
22.400732
23
0
33
0
14
20
24
12.875
34
0
50
90
100
AcDbRotatedDimension
1001
ACAD
1000
DSTYLE
1002
{
1070
   371
1070
    13
1070
   372
1070
    13
1070
   170
1070
     0
1070
   144
1040
1.0
1070
   277
1070
     2
1070
   284
1070
     8
1070
   278
1070
    46
1070
   146
1040
1.166667
1070
   345
1005
16
1070
   347
1005
16
1070
   346
1005
16
1070
   344
1005
0
1070
   343
1005
0
1070
   172
1070
     1
1070
    76
1070
     0
1070
    75
1070
     0
1070
   282
1070
     0
1070
   281
1070
     0
1070
    71
1070
     0
1070
    74
1070
     0
1070
   279
1070
     0
1070
   173
1070
     1
1070
   340
1005
1CE
1070
   271
1070
     0
1070
   272
1070
     2
1070
    77
1070
     1
1070
    73
1070
     0
1070
   171
1070
     3
1070
   274
1070
     4
1070
   177
1070
     7
1070
   176
1070
     7
1070
   178
1070
     7
1070
    78
1070
     8
1070
    48
1040
-0.1
1070
    41
1040
3.175
1070
   147
1040
1.5
1070
    42
1040
1.5875
1070
    44
1040
2.0
1070
   140
1040
3.0
1002
}
1001
ACAD_DSTYLE_DIM_LINETYPE
1070
   380
1005
16
1001
ACAD_DSTYLE_DIM_EXT1_LINETYPE
1070
   381
1005
16
1001
ACAD_DSTYLE_DIM_EXT2_LINETYPE
1070
   382
1005
16
0
DIMENSION
5
1ED
100
AcDbEntity
8
2
62
256
6
ByLayer
370
18
48
1
60
0
100
AcDbDimension
2
_U1
10
20
20
22.341525
30
0
11
10
21
22.341525
31
0
70
32
71
1
72
1
41
1
210
0
220
0
230
1
3
Standard
100
AcDbAlignedDimension
13
0
23
0
33
0
14
20
24
12.875
34
0
50
0
100
AcDbRotatedDimension
1001
ACAD
1000
DSTYLE
1002
{
1070
   371
1070
    13
1070
   372
1070
    13
1070
   170
1070
     0
1070
   144
1040
1.0
1070
   277
1070
     2
1070
   284
1070
     8
1070
   278
1070
    46
1070
   146
1040
1.166667
1070
   345
1005
16
1070
   347
1005
16
1070
   346
1005
16
1070
   344
1005
0
1070
   343
1005
0
1070
   172
1070
     1
1070
    76
1070
     0
1070
    75
1070
     0
1070
   282
1070
     0
1070
   281
1070
     0
1070
    71
1070
     0
1070
    74
1070
     0
1070
   279
1070
     0
1070
   173
1070
     1
1070
   340
1005
1CE
1070
   271
1070
     2
1070
   272
1070
     2
1070
    77
1070
     1
1070
    73
1070
     1
1070
   171
1070
     3
1070
   274
1070
     4
1070
   177
1070
     7
1070
   176
1070
     7
1070
   178
1070
     7
1070
    78
1070
     8
1070
    48
1040
-0.1
1070
    41
1040
3.175
1070
   147
1040
1.5
1070
    42
1040
1.5875
1070
    44
1040
2.0
1070
   140
1040
3.0
1002
}
1001
ACAD_DSTYLE_DIM_LINETYPE
1070
   380
1005
16
1001
ACAD_DSTYLE_DIM_EXT1_LINETYPE
1070
   381
1005
16
1001
ACAD_DSTYLE_DIM_EXT2_LINETYPE
1070
   382
1005
16
0
DIMENSION
5
205
100
AcDbEntity
8
SK2
62
256
6
ByLayer
370
18
48
1
60
0
100
AcDbDimension
2
_U2
10
-8.802326
20
-10
30
0
11
-8.802326
21
0
31
0
70
32
71
1
72
1
41
1
210
0
220
0
230
1
3
Standard
100
AcDbAlignedDimension
13
4.410722
23
10
33
0
14
4.410722
24
-10
34
0
50
90
100
AcDbRotatedDimension
1001
ACAD
1000
DSTYLE
1002
{
1070
   371
1070
    13
1070
   372
1070
    13
1070
     3
1000

1070
   170
1070
     0
1070
   144
1040
1.0
1070
   277
1070
     2
1070
   284
1070
     8
1070
   278
1070
    46
1070
   146
1040
1.166667
1070
   345
1005
16
1070
   347
1005
16
1070
   346
1005
16
1070
   344
1005
0
1070
   343
1005
0
1070
   172
1070
     1
1070
    76
1070
     0
1070
    75
1070
     0
1070
   282
1070
     0
1070
   281
1070
     0
1070
    71
1070
     0
1070
    74
1070
     0
1070
   279
1070
     0
1070
   173
1070
     1
1070
   340
1005
1CE
1070
   271
1070
     2
1070
   272
1070
     2
1070
    77
1070
     1
1070
    73
1070
     0
1070
   171
1070
     3
1070
   274
1070
     4
1070
   177
1070
     7
1070
   176
1070
     7
1070
   178
1070
     7
1070
    78
1070
     8
1070
    48
1040
-0.1
1070
    41
1040
3.175
1070
   147
1040
1.5
1070
    42
1040
1.5875
1070
    44
1040
2.0
1070
   140
1040
3.0
1002
}
1001
ACAD_DSTYLE_DIM_LINETYPE
1070
   380
1005
16
1001
ACAD_DSTYLE_DIM_EXT1_LINETYPE
1070
   381
1005
16
1001
ACAD_DSTYLE_DIM_EXT2_LINETYPE
1070
   382
1005
16
0
DIMENSION
5
21F
100
AcDbEntity
8
SK2
62
256
6
ByLayer
370
18
48
1
60
0
100
AcDbDimension
2
_U3
10
19.997038
20
12.019736
30
0
11
35.244538
21
-3.68307
31
0
70
34
71
1
72
1
41
1
210
0
220
0
230
1
3
Standard
100
AcDb2LineAngularDimension
13
20
23
12.875
33
0
14
25
24
12.875
34
0
15
19.301403
25
4.068598
35
0
16
30.151174
26
-7.19456
36
0
40
0
0
ENDSEC
0
SECTION
2
OBJECTS
0
DICTIONARY
5
2aa
330
0
100
AcDbDictionary
280
0
281
1
3
ACAD_GROUP
350
2ab
3
ACAD_MLINESTYLE
350
2ac
0
DICTIONARY
5
2ab
330
0
100
AcDbDictionary
280
0
281
1
0
DICTIONARY
5
2ac
330
0
100
AcDbDictionary
280
0
281
1
3
Standard
350
18
0
MLINESTYLE
5
18
330
2ac
100
AcDbMlineStyle
2
Standard
70
0
3

62
256
51
90
52
90
71
2
49
-0.5
62
256
6
ByLayer
49
0.5
62
256
6
ByLayer
0
RASTERVARIABLES
5
298
330

100
AcDbRasterVariables
90
0
70
1
71
1
72
1
0
ENDSEC
0
EOF
