0
SECTION
2
HEADER
9
$ACADVER
1
AC1015
9
$DWGCODEPAGE
3
ANSI_1252
9
$HANDSEED
5
260
9
$ANGBASE
50
0
9
$ANGDIR
70
0
9
$ATTMODE
70
1
9
$AUNITS
70
0
9
$AUPREC
70
0
9
$CECOLOR
62
256
9
$CELTSCALE
40
1
9
$CELTYPE
6
ByLayer
9
$CELWEIGHT
370
18
9
$CLAYER
8
0
9
$CMLJUST
70
0
9
$CMLSCALE
40
1
9
$CMLSTYLE
2
Standard
9
$DIMSTYLE
2
Standard
9
$TEXTSIZE
40
0.2
9
$TEXTSTYLE
7
Standard
9
$LUNITS
70
2
9
$LUPREC
70
4
9
$EXTNAMES
290
1
9
$INSUNITS
70
4
9
$LTSCALE
40
1
9
$LWDISPLAY
290
1
9
$PDMODE
70
0
9
$PDSIZE
40
0
9
$PLINEGEN
70
0
0
ENDSEC
0
SECTION
2
CLASSES
0
CLASS
1
RASTERVARIABLES
2
AcDbRasterVariables
3
ISM
90
0
280
0
281
0
0
ENDSEC
0
SECTION
2
TABLES
0
TABLE
2
VPORT
5
256
100
AcDbSymbolTable
0
VPORT
5
1
100
AcDbSymbolTableRecord
100
AcDbViewportTableRecord
2
*Active
70
0
10
0
20
0
11
1
21
1
12
-1
22
1
13
0
23
0
14
0.5
24
0.5
15
10
25
10
16
0
26
0
36
1
17
0
27
0
37
0
0
ENDTAB
0
TABLE
2
LTYPE
5
257
100
AcDbSymbolTable
0
LTYPE
5
14
100
AcDbSymbolTableRecord
100
AcDbLinetypeTableRecord
70
0
2
ByBlock
3

72
65
73
0
40
0
0
LTYPE
5
15
100
AcDbSymbolTableRecord
100
AcDbLinetypeTableRecord
70
0
2
ByLayer
3

72
65
73
0
40
0
0
LTYPE
5
16
100
AcDbSymbolTableRecord
100
AcDbLinetypeTableRecord
70
0
2
Continuous
3
Solid line
72
65
73
0
40
0
0
LTYPE
5
6E
100
AcDbSymbolTableRecord
100
AcDbLinetypeTableRecord
70
0
2
CENTER
3
____ _ ____ _ ____ _ ____
72
65
73
4
40
47.5
49
22
74
0
49
-8.5
74
0
49
8.5
74
0
49
-8.5
74
0
0
LTYPE
5
6F
100
AcDbSymbolTableRecord
100
AcDbLinetypeTableRecord
70
0
2
DASHED
3
__ __ __ __ __ __ __ __ __
72
65
73
2
40
25.72
49
12.86
74
0
49
-12.86
74
0
0
ENDTAB
0
TABLE
2
LAYER
5
258
100
AcDbSymbolTable
0
LAYER
5
10
100
AcDbSymbolTableRecord
100
AcDbLayerTableRecord
2
0
70
0
62
7
6
Continuous
290
1
370
-3
390
0
0
LAYER
5
71
100
AcDbSymbolTableRecord
100
AcDbLayerTableRecord
2
80
70
0
62
-6
6
Continuous
290
1
370
-3
390
0
0
LAYER
5
73
100
AcDbSymbolTableRecord
100
AcDbLayerTableRecord
2
81
70
0
62
-3
6
Continuous
290
1
370
-3
390
0
0
LAYER
5
77
100
AcDbSymbolTableRecord
100
AcDbLayerTableRecord
2
4
70
0
62
-2
6
CENTER
290
1
370
-3
390
0
0
LAYER
5
7B
100
AcDbSymbolTableRecord
100
AcDbLayerTableRecord
2
1
70
0
62
4
6
Continuous
290
1
370
-3
390
0
0
LAYER
5
17E
100
AcDbSymbolTableRecord
100
AcDbLayerTableRecord
2
Defpoints
70
0
62
7
6
Continuous
290
0
370
-3
390
0
0
LAYER
5
18C
100
AcDbSymbolTableRecord
100
AcDbLayerTableRecord
2
2
70
0
62
7
6
Continuous
290
1
370
-3
390
0
0
LAYER
5
242
100
AcDbSymbolTableRecord
100
AcDbLayerTableRecord
2
SK4
70
0
62
2
6
CENTER
290
1
370
-3
390
0
0
LAYER
5
243
100
AcDbSymbolTableRecord
100
AcDbLayerTableRecord
2
SK1
70
0
62
4
6
Continuous
290
1
370
-3
390
0
0
LAYER
5
244
100
AcDbSymbolTableRecord
100
AcDbLayerTableRecord
2
SK6
70
0
62
5
6
Continuous
290
1
370
-3
390
0
0
LAYER
5
245
100
AcDbSymbolTableRecord
100
AcDbLayerTableRecord
2
SK2
70
0
62
7
6
Continuous
290
1
370
-3
390
0
0
ENDTAB
0
TABLE
2
STYLE
5
259
100
AcDbSymbolTable
0
STYLE
5
11
100
AcDbSymbolTableRecord
100
AcDbTextStyleTableRecord
2
Standard
3
txt
70
0
71
0
40
0
41
1
42
0
50
0
0
STYLE
5
177
100
AcDbSymbolTableRecord
100
AcDbTextStyleTableRecord
2
iso_b_vert
3
simplex.shx
70
0
71
0
40
0
41
1
42
0
50
0
0
STYLE
5
178
100
AcDbSymbolTableRecord
100
AcDbTextStyleTableRecord
2
DWGDirectTextStyle
3
simplex
70
0
71
0
40
0
41
1
42
0
50
0
0
ENDTAB
0
TABLE
2
DIMSTYLE
5
25a
100
AcDbSymbolTable
100
AcDbDimStyleTable
0
DIMSTYLE
105
27
100
AcDbSymbolTableRecord
100
AcDbDimStyleTableRecord
2
Standard
70
0
3
<>
41
0.18
42
0.0625
44
0.18
140
0.18
147
0.09
73
0
74
0
77
1
271
2
275
0
278
52
280
0
340
11
0
ENDTAB
0
TABLE
2
VIEW
5
25b
100
AcDbSymbolTable
0
ENDTAB
0
TABLE
2
UCS
5
25c
100
AcDbSymbolTable
0
ENDTAB
0
TABLE
2
APPID
5
25d
100
AcDbSymbolTable
0
APPID
5
12
100
AcDbSymbolTableRecord
100
AcDbRegAppTableRecord
2
ACAD
70
0
0
APPID
5
17A
100
AcDbSymbolTableRecord
100
AcDbRegAppTableRecord
2
ACAD_DSTYLE_DIMBREAK
70
0
0
APPID
5
1C9
100
AcDbSymbolTableRecord
100
AcDbRegAppTableRecord
2
ACAD_DSTYLE_DIMANGULAR_EXTENSION
70
0
0
APPID
5
201
100
AcDbSymbolTableRecord
100
AcDbRegAppTableRecord
2
ACAD_DSTYLE_DIM_LINETYPE
70
0
0
APPID
5
202
100
AcDbSymbolTableRecord
100
AcDbRegAppTableRecord
2
ACAD_DSTYLE_DIM_EXT1_LINETYPE
70
0
0
APPID
5
203
100
AcDbSymbolTableRecord
100
AcDbRegAppTableRecord
2
ACAD_DSTYLE_DIM_EXT2_LINETYPE
70
0
0
APPID
5
23E
100
AcDbSymbolTableRecord
100
AcDbRegAppTableRecord
2
ACAD_MLEADERVER
70
0
0
ENDTAB
0
TABLE
2
BLOCK_RECORD
5
25e
100
AcDbSymbolTable
0
BLOCK_RECORD
5
1F
100
AcDbSymbolTableRecord
100
AcDbBlockTableRecord
2
*Model_Space
340
0
70
0
0
BLOCK_RECORD
5
1B
100
AcDbSymbolTableRecord
100
AcDbBlockTableRecord
2
*Paper_Space
340
0
70
0
0
BLOCK_RECORD
5
23
100
AcDbSymbolTableRecord
100
AcDbBlockTableRecord
2
*Paper_Space0
340
0
70
0
0
BLOCK_RECORD
5
17F
100
AcDbSymbolTableRecord
100
AcDbBlockTableRecord
2
*D1
340
0
70
0
0
BLOCK_RECORD
5
18D
100
AcDbSymbolTableRecord
100
AcDbBlockTableRecord
2
_U0
340
0
70
0
0
BLOCK_RECORD
5
199
100
AcDbSymbolTableRecord
100
AcDbBlockTableRecord
2
*D3
340
0
70
0
0
BLOCK_RECORD
5
1A5
100
AcDbSymbolTableRecord
100
AcDbBlockTableRecord
2
_U1
340
0
70
0
0
BLOCK_RECORD
5
1B1
100
AcDbSymbolTableRecord
100
AcDbBlockTableRecord
2
*D5
340
0
70
0
0
BLOCK_RECORD
5
1BE
100
AcDbSymbolTableRecord
100
AcDbBlockTableRecord
2
_U2
340
0
70
0
0
BLOCK_RECORD
5
1CC
100
AcDbSymbolTableRecord
100
AcDbBlockTableRecord
2
*D7
340
0
70
0
0
BLOCK_RECORD
5
1DA
100
AcDbSymbolTableRecord
100
AcDbBlockTableRecord
2
_U3
340
0
70
0
0
ENDTAB
0
ENDSEC
0
SECTION
2
BLOCKS
0
BLOCK
5
20
100
AcDbEntity
8
0
100
AcDbBlockBegin
2
*Model_Space
70
0
10
0
20
0
30
0
3
*Model_Space
0
ENDBLK
5
21
100
AcDbEntity
8
0
100
AcDbBlockEnd
0
BLOCK
5
1C
100
AcDbEntity
8
0
100
AcDbBlockBegin
2
*Paper_Space
70
0
10
0
20
0
30
0
3
*Paper_Space
0
ENDBLK
5
1D
100
AcDbEntity
8
0
100
AcDbBlockEnd
0
BLOCK
5
24
100
AcDbEntity
8
0
100
AcDbBlockBegin
2
*Paper_Space0
70
0
10
0
20
0
30
0
3
*Paper_Space0
0
ENDBLK
5
25
100
AcDbEntity
8
0
100
AcDbBlockEnd
0
BLOCK
5
180
100
AcDbEntity
8
0
100
AcDbBlockBegin
2
*D1
70
1
10
0
20
0
30
0
3
*D1
0
LINE
5
182
100
AcDbEntity
8
0
62
256
6
ByLayer
370
-2
48
1
60
0
100
AcDbLine
10
23.988232
20
0
30
0
11
31.136911
21
0
31
0
39
0
210
0
220
0
230
1
0
LINE
5
183
100
AcDbEntity
8
0
62
256
6
ByLayer
370
-2
48
1
60
0
100
AcDbLine
10
21.5875
20
10.875
30
0
11
31.136911
21
10.875
31
0
39
0
210
0
220
0
230
1
0
LINE
5
184
100
AcDbEntity
8
0
62
256
6
ByLayer
370
-2
48
1
60
0
100
AcDbLine
10
29.136911
20
-3.175
30
0
11
29.136911
21
-6.35
31
0
39
0
210
0
220
0
230
1
0
LINE
5
185
100
AcDbEntity
8
0
62
256
6
ByLayer
370
-2
48
1
60
0
100
AcDbLine
10
29.136911
20
14.05
30
0
11
29.136911
21
17.225
31
0
39
0
210
0
220
0
230
1
0
SOLID
5
186
100
AcDbEntity
8
0
62
256
6
ByLayer
370
-1
48
1
60
0
100
AcDbTrace
10
29.666077
20
-3.175
30
0
11
28.607744
21
-3.175
31
0
12
29.136911
22
0
32
0
13
29.136911
23
0
33
0
39
0
210
0
220
0
230
1
0
SOLID
5
187
100
AcDbEntity
8
0
62
256
6
ByLayer
370
-1
48
1
60
0
100
AcDbTrace
10
28.607744
20
14.05
30
0
11
29.666077
21
14.05
31
0
12
29.136911
22
10.875
32
0
13
29.136911
23
10.875
33
0
39
0
210
0
220
0
230
1
0
MTEXT
5
188
100
AcDbEntity
8
0
62
256
6
ByLayer
370
18
48
1
60
0
100
AcDbMText
10
23.136911
20
5.4375
30
0
210
0
220
0
230
1
1
\A1;11
40
3
41
0
44
1
50
90
71
5
72
5
7
iso_b_vert
0
POINT
5
189
100
AcDbEntity
8
Defpoints
62
0
6
ByLayer
370
-1
48
1
60
0
100
AcDbPoint
10
22.400732
20
0
30
0
39
0
210
0
220
0
230
1
50
360
0
POINT
5
18A
100
AcDbEntity
8
Defpoints
62
0
6
ByLayer
370
-1
48
1
60
0
100
AcDbPoint
10
20
20
10.875
30
0
39
0
210
0
220
0
230
1
50
360
0
POINT
5
18B
100
AcDbEntity
8
Defpoints
62
0
6
ByLayer
370
-1
48
1
60
0
100
AcDbPoint
10
29.136911
20
10.875
30
0
39
0
210
0
220
0
230
1
50
360
0
ENDBLK
5
181
100
AcDbEntity
8
0
100
AcDbBlockEnd
0
BLOCK
5
194
100
AcDbEntity
8
0
100
AcDbBlockBegin
2
_U0
70
0
10
0
20
0
30
0
3
_U0
0
MTEXT
5
18E
100
AcDbEntity
8
2
62
256
6
ByLayer
370
18
48
1
60
0
100
AcDbMText
10
28.545796
20
4.530557
30
0
210
0
220
0
230
1
1
\W0.6875;11
40
3
41
0
44
1.084337
50
90
71
7
72
5
7
iso_b_vert
0
LINE
5
18F
100
AcDbEntity
8
2
62
256
6
ByLayer
370
13
48
1
60
0
100
AcDbLine
10
23.988232
20
0
30
0
11
31.136911
21
0
31
0
39
0
210
0
220
0
230
1
0
LINE
5
190
100
AcDbEntity
8
2
62
256
6
ByLayer
370
13
48
1
60
0
100
AcDbLine
10
21.5875
20
10.875
30
0
11
31.136911
21
10.875
31
0
39
0
210
0
220
0
230
1
0
LINE
5
191
100
AcDbEntity
8
2
62
256
6
ByLayer
370
13
48
1
60
0
100
AcDbLine
10
29.136911
20
0
30
0
11
29.136911
21
10.875
31
0
39
0
210
0
220
0
230
1
0
SOLID
5
192
100
AcDbEntity
8
2
62
256
6
ByLayer
370
18
48
1
60
0
100
AcDbTrace
10
29.136911
20
0
30
0
11
28.718914
21
3.174998
31
0
12
29.554907
22
3.175002
32
0
13
29.554907
23
3.175002
33
0
39
0
210
0
220
0
230
1
0
SOLID
5
193
100
AcDbEntity
8
2
62
256
6
ByLayer
370
18
48
1
60
0
100
AcDbTrace
10
29.136911
20
10.875
30
0
11
29.554907
21
7.700002
31
0
12
28.718914
22
7.699998
32
0
13
28.718914
23
7.699998
33
0
39
0
210
0
220
0
230
1
0
ENDBLK
5
195
100
AcDbEntity
8
0
100
AcDbBlockEnd
0
BLOCK
5
19A
100
AcDbEntity
8
0
100
AcDbBlockBegin
2
*D3
70
1
10
0
20
0
30
0
3
*D3
0
LINE
5
19C
100
AcDbEntity
8
0
62
256
6
ByLayer
370
-2
48
1
60
0
100
AcDbLine
10
0
20
1.5875
30
0
11
0
21
24.341525
31
0
39
0
210
0
220
0
230
1
0
LINE
5
19D
100
AcDbEntity
8
0
62
256
6
ByLayer
370
-2
48
1
60
0
100
AcDbLine
10
20
20
12.4625
30
0
11
20
21
24.341525
31
0
39
0
210
0
220
0
230
1
0
LINE
5
19E
100
AcDbEntity
8
0
62
256
6
ByLayer
370
-2
48
1
60
0
100
AcDbLine
10
3.175
20
22.341525
30
0
11
16.825
21
22.341525
31
0
39
0
210
0
220
0
230
1
0
SOLID
5
19F
100
AcDbEntity
8
0
62
256
6
ByLayer
370
-1
48
1
60
0
100
AcDbTrace
10
3.175
20
22.870691
30
0
11
3.175
21
21.812358
31
0
12
0
22
22.341525
32
0
13
0
23
22.341525
33
0
39
0
210
0
220
0
230
1
0
SOLID
5
1A0
100
AcDbEntity
8
0
62
256
6
ByLayer
370
-1
48
1
60
0
100
AcDbTrace
10
16.825
20
21.812358
30
0
11
16.825
21
22.870691
31
0
12
20
22
22.341525
32
0
13
20
23
22.341525
33
0
39
0
210
0
220
0
230
1
0
MTEXT
5
1A1
100
AcDbEntity
8
0
62
256
6
ByLayer
370
18
48
1
60
0
100
AcDbMText
10
10
20
28.341525
30
0
210
0
220
0
230
1
1
\A1;20
40
3
41
0
44
1
50
0
71
5
72
5
7
iso_b_vert
0
POINT
5
1A2
100
AcDbEntity
8
Defpoints
62
0
6
ByLayer
370
-1
48
1
60
0
100
AcDbPoint
10
0
20
0
30
0
39
0
210
0
220
0
230
1
50
360
0
POINT
5
1A3
100
AcDbEntity
8
Defpoints
62
0
6
ByLayer
370
-1
48
1
60
0
100
AcDbPoint
10
20
20
10.875
30
0
39
0
210
0
220
0
230
1
50
360
0
POINT
5
1A4
100
AcDbEntity
8
Defpoints
62
0
6
ByLayer
370
-1
48
1
60
0
100
AcDbPoint
10
20
20
22.341525
30
0
39
0
210
0
220
0
230
1
50
360
0
ENDBLK
5
19B
100
AcDbEntity
8
0
100
AcDbBlockEnd
0
BLOCK
5
1AC
100
AcDbEntity
8
0
100
AcDbBlockBegin
2
_U1
70
0
10
0
20
0
30
0
3
_U1
0
MTEXT
5
1A6
100
AcDbEntity
8
2
62
256
6
ByLayer
370
18
48
1
60
0
100
AcDbMText
10
8.367172
20
23.226639
30
0
210
0
220
0
230
1
1
\W0.7335;20
40
3
41
0
44
1.084337
50
0
71
7
72
5
7
iso_b_vert
0
LINE
5
1A7
100
AcDbEntity
8
2
62
256
6
ByLayer
370
13
48
1
60
0
100
AcDbLine
10
0
20
1.5875
30
0
11
0
21
24.341525
31
0
39
0
210
0
220
0
230
1
0
LINE
5
1A8
100
AcDbEntity
8
2
62
256
6
ByLayer
370
13
48
1
60
0
100
AcDbLine
10
20
20
12.4625
30
0
11
20
21
24.341525
31
0
39
0
210
0
220
0
230
1
0
LINE
5
1A9
100
AcDbEntity
8
2
62
256
6
ByLayer
370
13
48
1
60
0
100
AcDbLine
10
0
20
22.341525
30
0
11
20
21
22.341525
31
0
39
0
210
0
220
0
230
1
0
SOLID
5
1AA
100
AcDbEntity
8
2
62
256
6
ByLayer
370
18
48
1
60
0
100
AcDbTrace
10
0
20
22.341525
30
0
11
3.174998
21
22.759521
31
0
12
3.175002
22
21.923528
32
0
13
3.175002
23
21.923528
33
0
39
0
210
0
220
0
230
1
0
SOLID
5
1AB
100
AcDbEntity
8
2
62
256
6
ByLayer
370
18
48
1
60
0
100
AcDbTrace
10
20
20
22.341525
30
0
11
16.825002
21
21.923528
31
0
12
16.824998
22
22.759521
32
0
13
16.824998
23
22.759521
33
0
39
0
210
0
220
0
230
1
0
ENDBLK
5
1AD
100
AcDbEntity
8
0
100
AcDbBlockEnd
0
BLOCK
5
1B2
100
AcDbEntity
8
0
100
AcDbBlockBegin
2
*D5
70
1
10
0
20
0
30
0
3
*D5
0
LINE
5
1B4
100
AcDbEntity
8
0
62
256
6
ByLayer
370
-2
48
1
60
0
100
AcDbLine
10
1.771503
20
7.901741
30
0
11
-11.937014
21
7.901741
31
0
39
0
210
0
220
0
230
1
0
LINE
5
1B5
100
AcDbEntity
8
0
62
256
6
ByLayer
370
-2
48
1
60
0
100
AcDbLine
10
1.210961
20
-7.90174
30
0
11
-11.937014
21
-7.90174
31
0
39
0
210
0
220
0
230
1
0
LINE
5
1B6
100
AcDbEntity
8
0
62
256
6
ByLayer
370
-2
48
1
60
0
100
AcDbLine
10
-9.937014
20
4.726741
30
0
11
-9.937014
21
-4.72674
31
0
39
0
210
0
220
0
230
1
0
SOLID
5
1B7
100
AcDbEntity
8
0
62
256
6
ByLayer
370
-1
48
1
60
0
100
AcDbTrace
10
-9.407848
20
4.726741
30
0
11
-10.466181
21
4.726741
31
0
12
-9.937014
22
7.901741
32
0
13
-9.937014
23
7.901741
33
0
39
0
210
0
220
0
230
1
0
SOLID
5
1B8
100
AcDbEntity
8
0
62
256
6
ByLayer
370
-1
48
1
60
0
100
AcDbTrace
10
-10.466181
20
-4.72674
30
0
11
-9.407848
21
-4.72674
31
0
12
-9.937014
22
-7.90174
32
0
13
-9.937014
23
-7.90174
33
0
39
0
210
0
220
0
230
1
0
MTEXT
5
1B9
100
AcDbEntity
8
0
62
256
6
ByLayer
370
18
48
1
60
0
100
AcDbMText
10
-15.937014
20
1E-06
30
0
210
0
220
0
230
1
1
\A1;15.8
40
3
41
0
44
1
50
90
71
5
72
5
7
iso_b_vert
0
POINT
5
1BA
100
AcDbEntity
8
Defpoints
62
0
6
ByLayer
370
-1
48
1
60
0
100
AcDbPoint
10
3.359003
20
7.901741
30
0
39
0
210
0
220
0
230
1
50
360
0
POINT
5
1BB
100
AcDbEntity
8
Defpoints
62
0
6
ByLayer
370
-1
48
1
60
0
100
AcDbPoint
10
2.798461
20
-7.90174
30
0
39
0
210
0
220
0
230
1
50
360
0
POINT
5
1BC
100
AcDbEntity
8
Defpoints
62
0
6
ByLayer
370
-1
48
1
60
0
100
AcDbPoint
10
-9.937014
20
-7.90174
30
0
39
0
210
0
220
0
230
1
50
360
0
ENDBLK
5
1B3
100
AcDbEntity
8
0
100
AcDbBlockEnd
0
BLOCK
5
1C6
100
AcDbEntity
8
0
100
AcDbBlockBegin
2
_U2
70
0
10
0
20
0
30
0
3
_U2
0
MTEXT
5
1BF
100
AcDbEntity
8
SK2
62
256
6
ByLayer
370
18
48
1
60
0
100
AcDbMText
10
-11.278129
20
3.218115
30
0
210
0
220
0
230
1
1
\W0.6789;16
40
3
41
0
44
1.084337
50
90
71
7
72
5
7
iso_b_vert
0
MTEXT
5
1C0
100
AcDbEntity
8
SK2
62
256
6
ByLayer
370
18
48
1
60
0
100
AcDbMText
10
-11.278129
20
-5.781885
30
0
210
0
220
0
230
1
1
%%c
40
3
41
0
44
1.084337
50
90
71
7
72
5
7
iso_b_vert
0
LINE
5
1C1
100
AcDbEntity
8
SK2
62
256
6
ByLayer
370
13
48
1
60
0
100
AcDbLine
10
-1.058735
20
7.901741
30
0
11
-11.937014
21
7.901741
31
0
39
0
210
0
220
0
230
1
0
LINE
5
1C2
100
AcDbEntity
8
SK2
62
256
6
ByLayer
370
13
48
1
60
0
100
AcDbLine
10
-1.058735
20
-7.90174
30
0
11
-11.937014
21
-7.90174
31
0
39
0
210
0
220
0
230
1
0
LINE
5
1C3
100
AcDbEntity
8
SK2
62
256
6
ByLayer
370
13
48
1
60
0
100
AcDbLine
10
-9.937014
20
7.901741
30
0
11
-9.937014
21
-7.90174
31
0
39
0
210
0
220
0
230
1
0
SOLID
5
1C4
100
AcDbEntity
8
SK2
62
256
6
ByLayer
370
18
48
1
60
0
100
AcDbTrace
10
-9.937014
20
7.901741
30
0
11
-9.519018
21
4.726743
31
0
12
-10.355011
22
4.726739
32
0
13
-10.355011
23
4.726739
33
0
39
0
210
0
220
0
230
1
0
SOLID
5
1C5
100
AcDbEntity
8
SK2
62
256
6
ByLayer
370
18
48
1
60
0
100
AcDbTrace
10
-9.937014
20
-7.90174
30
0
11
-10.355011
21
-4.726742
31
0
12
-9.519018
22
-4.726738
32
0
13
-9.519018
23
-4.726738
33
0
39
0
210
0
220
0
230
1
0
ENDBLK
5
1C7
100
AcDbEntity
8
0
100
AcDbBlockEnd
0
BLOCK
5
1CD
100
AcDbEntity
8
0
100
AcDbBlockBegin
2
*D7
70
1
10
0
20
0
30
0
3
*D7
0
LINE
5
1CF
100
AcDbEntity
8
0
62
256
6
ByLayer
370
-2
48
1
60
0
100
AcDbLine
10
19.371547
20
3.279848
30
0
11
17.970975
21
-12.728768
31
0
39
0
210
0
220
0
230
1
0
LINE
5
1D0
100
AcDbEntity
8
0
62
256
6
ByLayer
370
-2
48
1
60
0
100
AcDbLine
10
22.5875
20
10.875
30
0
11
43.729967
21
10.875
31
0
39
0
210
0
220
0
230
1
0
ARC
5
1D1
100
AcDbEntity
8
0
62
256
6
ByLayer
370
-2
48
1
60
0
100
AcDbCircle
39
0
10
20.036037
20
10.875
30
0
40
21.693930373635
210
0
220
0
230
1
100
AcDbArc
50
273.392985
51
351.607014
0
SOLID
5
1D2
100
AcDbEntity
8
0
62
256
6
ByLayer
370
-1
48
1
60
0
100
AcDbTrace
10
21.327395
20
-10.251788
30
0
11
21.312553
21
-11.310017
31
0
12
18.145286
22
-10.736378
32
0
13
18.145286
23
-10.736378
33
0
39
0
210
0
220
0
230
1
0
SOLID
5
1D3
100
AcDbEntity
8
0
62
256
6
ByLayer
370
-1
48
1
60
0
100
AcDbTrace
10
42.025378
20
7.669789
30
0
11
40.969882
21
7.747235
31
0
12
41.729967
22
10.875
32
0
13
41.729967
23
10.875
33
0
39
0
210
0
220
0
230
1
0
MTEXT
5
1D4
100
AcDbEntity
8
0
62
256
6
ByLayer
370
18
48
1
60
0
100
AcDbMText
10
30.638703
20
-0.695779
30
0
210
0
220
0
230
1
1
\A1;95%%d
40
3
41
0
44
1
50
42.4999995612201
71
5
72
5
7
iso_b_vert
0
POINT
5
1D5
100
AcDbEntity
8
Defpoints
62
0
6
ByLayer
370
-1
48
1
60
0
100
AcDbPoint
10
29.772255
20
-8.511404
30
0
39
0
210
0
220
0
230
1
50
360
0
POINT
5
1D6
100
AcDbEntity
8
Defpoints
62
0
6
ByLayer
370
-1
48
1
60
0
100
AcDbPoint
10
20
20
10.875
30
0
39
0
210
0
220
0
230
1
50
360
0
POINT
5
1D7
100
AcDbEntity
8
Defpoints
62
0
6
ByLayer
370
-1
48
1
60
0
100
AcDbPoint
10
19.509907
20
4.861307
30
0
39
0
210
0
220
0
230
1
50
360
0
POINT
5
1D8
100
AcDbEntity
8
Defpoints
62
0
6
ByLayer
370
-1
48
1
60
0
100
AcDbPoint
10
19.998508
20
10.446041
30
0
39
0
210
0
220
0
230
1
50
360
0
POINT
5
1D9
100
AcDbEntity
8
Defpoints
62
0
6
ByLayer
370
-1
48
1
60
0
100
AcDbPoint
10
21
20
10.875
30
0
39
0
210
0
220
0
230
1
50
360
0
ENDBLK
5
1CE
100
AcDbEntity
8
0
100
AcDbBlockEnd
0
BLOCK
5
1E1
100
AcDbEntity
8
0
100
AcDbBlockBegin
2
_U3
70
0
10
0
20
0
30
0
3
_U3
0
MTEXT
5
1DB
100
AcDbEntity
8
SK2
62
256
6
ByLayer
370
18
48
1
60
0
100
AcDbMText
10
34.347366
20
-8.497776
30
0
210
0
220
0
230
1
1
\W0.8725;95%%d
40
3
41
0
44
1.084337
50
42.4999995612201
71
7
72
5
7
iso_b_vert
0
LINE
5
1DC
100
AcDbEntity
8
SK2
62
256
6
ByLayer
370
13
48
1
60
0
100
AcDbLine
10
19.371547
20
3.279848
30
0
11
17.709507
21
-15.717352
31
0
39
0
210
0
220
0
230
1
0
LINE
5
1DD
100
AcDbEntity
8
SK2
62
256
6
ByLayer
370
13
48
1
60
0
100
AcDbLine
10
21.5875
20
10.875
30
0
11
46.729967
21
10.875
31
0
39
0
210
0
220
0
230
1
0
ARC
5
1DE
100
AcDbEntity
8
SK2
62
256
6
ByLayer
370
13
48
1
60
0
100
AcDbCircle
39
0
10
20.036037
20
10.875
30
0
40
24.693930373635
210
0
220
0
230
1
100
AcDbArc
50
264.999999
51
359.999943
0
SOLID
5
1DF
100
AcDbEntity
8
SK2
62
256
6
ByLayer
370
18
48
1
60
0
100
AcDbTrace
10
17.883819
20
-13.724962
30
0
11
21.077035
21
-13.482668
31
0
12
21.030942
22
-14.31739
32
0
13
21.030942
23
-14.31739
33
0
39
0
210
0
220
0
230
1
0
SOLID
5
1E0
100
AcDbEntity
8
SK2
62
256
6
ByLayer
370
18
48
1
60
0
100
AcDbTrace
10
44.729967
20
10.875
30
0
11
45.045851
21
7.688222
31
0
12
44.210288
22
7.715049
32
0
13
44.210288
23
7.715049
33
0
39
0
210
0
220
0
230
1
0
ENDBLK
5
1E2
100
AcDbEntity
8
0
100
AcDbBlockEnd
0
ENDSEC
0
SECTION
2
ENTITIES
0
ARC
5
E4
100
AcDbEntity
8
1
62
256
6
ByLayer
370
13
48
1
60
0
100
AcDbCircle
39
0
10
12.925757
20
-9.404439
30
0
40
7.9999999999713
210
0
220
0
230
1
100
AcDbArc
50
90.00005
51
102.078772
0
ARC
5
E5
100
AcDbEntity
8
1
62
256
6
ByLayer
370
13
48
1
60
0
100
AcDbCircle
39
0
10
15.231816
20
2.295561
30
0
40
3.70000000000008
210
0
220
0
230
1
100
AcDbArc
50
269.999892
51
354.057836
0
ELLIPSE
5
E6
100
AcDbEntity
8
1
62
256
6
ByLayer
370
13
48
1
60
0
100
AcDbEllipse
10
13.314944
20
5.056106
30
0
11
-1.19267837908604
21
0.103625652890866
31
0
210
0
220
0
230
1
40
0.993635
41
-1.39686111518196
42
0.0688304890838113
0
ELLIPSE
5
E7
100
AcDbEntity
8
1
62
256
6
ByLayer
370
13
48
1
60
0
100
AcDbEllipse
10
13.087464
20
4.462306
30
0
11
-1.1455978186725
21
0.100543043797243
31
0
210
0
220
0
230
1
40
0.993634
41
-0.480881535949473
42
0.328400809574682
0
ELLIPSE
5
E8
100
AcDbEntity
8
1
62
256
6
ByLayer
370
13
48
1
60
0
100
AcDbEllipse
10
13.087472
20
4.462303
30
0
11
-1.14565008100839
21
0.0998526447894864
31
0
210
0
220
0
230
1
40
0.993639
41
2.81314443490135
42
2.83950479607114
0
ELLIPSE
5
E9
100
AcDbEntity
8
1
62
256
6
ByLayer
370
13
48
1
60
0
100
AcDbEllipse
10
13.315924
20
5.067326
30
0
11
-1.29230313248919
21
0.112281532128983
31
0
210
0
220
0
230
1
40
0.993635
41
-1.39686111524449
42
-0.048345786619715
0
ELLIPSE
5
EA
100
AcDbEntity
8
1
62
256
6
ByLayer
370
13
48
1
60
0
100
AcDbEllipse
10
13.336044
20
5.297316
30
0
11
-1.29230313248838
21
0.112281532141708
31
0
210
0
220
0
230
1
40
0.993635
41
-1.39686111523455
42
0.0471382899448947
0
ELLIPSE
5
EB
100
AcDbEntity
8
1
62
256
6
ByLayer
370
13
48
1
60
0
100
AcDbEllipse
10
13.108574
20
4.703526
30
0
11
-1.24525171396107
21
0.108870976476573
31
0
210
0
220
0
230
1
40
0.993636
41
-0.458667955071677
42
0.910127235726628
0
ELLIPSE
5
EC
100
AcDbEntity
8
1
62
256
6
ByLayer
370
13
48
1
60
0
100
AcDbEllipse
10
13.108574
20
4.703526
30
0
11
-1.24523095875579
21
0.10906362060455
31
0
210
0
220
0
230
1
40
0.993638
41
2.33111253933283
42
2.69828918470295
0
ELLIPSE
5
ED
100
AcDbEntity
8
1
62
256
6
ByLayer
370
13
48
1
60
0
100
AcDbEllipse
10
13.088444
20
4.473526
30
0
11
-1.24525171334084
21
0.108870991724553
31
0
210
0
220
0
230
1
40
0.993636
41
-0.458667942822022
42
-0.0930994035039192
0
ELLIPSE
5
EE
100
AcDbEntity
8
1
62
256
6
ByLayer
370
13
48
1
60
0
100
AcDbEllipse
10
-180.866816
20
-3.358744
30
0
11
-280.142471533409
21
0.309121551404396
31
0
210
0
220
0
230
1
40
0.009751
41
-2.32647248128395
42
-2.30661836235681
0
ELLIPSE
5
EF
100
AcDbEntity
8
1
62
256
6
ByLayer
370
13
48
1
60
0
100
AcDbEllipse
10
-257.649445
20
3.358756
30
0
11
-280.142627019522
21
0.307938163947068
31
0
210
0
220
0
230
1
40
0.009758
41
-2.98459742064104
42
-2.89307497761392
0
ELLIPSE
5
F0
100
AcDbEntity
8
1
62
256
6
ByLayer
370
13
48
1
60
0
100
AcDbEllipse
10
-257.649452
20
3.358756
30
0
11
-280.141876613894
21
0.308724069269317
31
0
210
0
220
0
230
1
40
0.009751
41
-2.8704402140861
42
-2.81458106477286
0
ELLIPSE
5
F1
100
AcDbEntity
8
1
62
256
6
ByLayer
370
13
48
1
60
0
100
AcDbEllipse
10
-257.649446
20
3.358756
30
0
11
-280.144343979355
21
0.307888529368942
31
0
210
0
220
0
230
1
40
0.009757
41
2.81288628861473
42
2.98291555222393
0
ELLIPSE
5
F2
100
AcDbEntity
8
1
62
256
6
ByLayer
370
13
48
1
60
0
100
AcDbEllipse
10
19.373544
20
3.358756
30
0
11
0.283162260754224
21
2.7497851543797
31
0
210
0
220
0
230
1
40
0.121353
41
1.53874658333291
42
1.85442026561201
0
ELLIPSE
5
F3
100
AcDbEntity
8
1
62
256
6
ByLayer
370
13
48
1
60
0
100
AcDbEllipse
10
5.399674
20
-3.358754
30
0
11
0.242122265871317
21
2.75000602446901
31
0
210
0
220
0
230
1
40
5.9E-05
41
-0.19643746122659
42
3.11144007838581
0
ELLIPSE
5
F4
100
AcDbEntity
8
1
62
256
6
ByLayer
370
13
48
1
60
0
100
AcDbEllipse
10
5.991104
20
3.358756
30
0
11
0.242111710717992
21
2.75001612289851
31
0
210
0
220
0
230
1
40
6.2E-05
41
-0.480716241483527
42
-2.88746513068018
0
ELLIPSE
5
F5
100
AcDbEntity
8
1
62
256
6
ByLayer
370
13
48
1
60
0
100
AcDbEllipse
10
5.695604
20
-4E-06
30
0
11
0.704332502416848
21
8.00002661416174
31
0
210
0
220
0
230
1
40
6.5E-05
41
0.23483385360523
42
1.00423410083083
0
ELLIPSE
5
F6
100
AcDbEntity
8
1
62
256
6
ByLayer
370
13
48
1
60
0
100
AcDbEllipse
10
5.695604
20
-4E-06
30
0
11
0.704382826129616
21
8.00001663838037
31
0
210
0
220
0
230
1
40
6.3E-05
41
2.13736711924125
42
2.68017225911249
0
ELLIPSE
5
F7
100
AcDbEntity
8
1
62
256
6
ByLayer
370
13
48
1
60
0
100
AcDbEllipse
10
16.538924
20
7.331816
30
0
11
-0.788195002477975
21
0.0689249486886582
31
0
210
0
220
0
230
1
40
0.993634
41
-1.22177343317161
42
-0.174575881975871
0
ELLIPSE
5
F8
100
AcDbEntity
8
1
62
256
6
ByLayer
370
13
48
1
60
0
100
AcDbEllipse
10
16.538924
20
7.331816
30
0
11
-0.788162052997001
21
0.0692461012149127
31
0
210
0
220
0
230
1
40
0.993636
41
-0.174166825090265
42
0.564385658453107
0
ELLIPSE
5
F9
100
AcDbEntity
8
1
62
256
6
ByLayer
370
13
48
1
60
0
100
AcDbEllipse
10
16.538924
20
7.331816
30
0
11
-0.788216934673334
21
0.0686079829665788
31
0
210
0
220
0
230
1
40
0.993644
41
2.22485730685105
42
2.92068753709232
0
ELLIPSE
5
FA
100
AcDbEntity
8
1
62
256
6
ByLayer
370
13
48
1
60
0
100
AcDbEllipse
10
16.538924
20
7.331816
30
0
11
-0.788159184310776
21
0.0693193299315922
31
0
210
0
220
0
230
1
40
0.993639
41
-3.13011845884837
42
-2.26847099284285
0
ELLIPSE
5
FB
100
AcDbEntity
8
1
62
256
6
ByLayer
370
13
48
1
60
0
100
AcDbEllipse
10
16.538924
20
7.331816
30
0
11
-0.788194738136609
21
0.0688599882806298
31
0
210
0
220
0
230
1
40
0.993639
41
-2.2690515652193
42
-1.22185401402454
0
ELLIPSE
5
FC
100
AcDbEntity
8
1
62
256
6
ByLayer
370
13
48
1
60
0
100
AcDbEllipse
10
16.538924
20
7.331816
30
0
11
-0.78817418971508
21
0.0691602114921552
31
0
210
0
220
0
230
1
40
0.993632
41
1.05755532050542
42
1.68461342402098
0
ELLIPSE
5
FD
100
AcDbEntity
8
1
62
256
6
ByLayer
370
13
48
1
60
0
100
AcDbEllipse
10
16.302134
20
8.208316
30
0
11
0.233504227971665
21
0.0617090537065254
31
0
210
0
220
0
230
1
40
0.501671
41
-2.79968938923413
42
-1.56803912747842
0
ELLIPSE
5
FE
100
AcDbEntity
8
1
62
256
6
ByLayer
370
13
48
1
60
0
100
AcDbEllipse
10
16.302134
20
8.208316
30
0
11
0.233504372636514
21
0.0617100744879696
31
0
210
0
220
0
230
1
40
0.501667
41
-1.56804332709274
42
-0.336393065337798
0
ELLIPSE
5
FF
100
AcDbEntity
8
1
62
256
6
ByLayer
370
13
48
1
60
0
100
AcDbEllipse
10
17.184154
20
7.973006
30
0
11
-0.171356944773637
21
0.169558052567465
31
0
210
0
220
0
230
1
40
0.503564
41
0.389866864302446
42
1.56655641676603
0
ELLIPSE
5
100
100
AcDbEntity
8
1
62
256
6
ByLayer
370
13
48
1
60
0
100
AcDbEllipse
10
17.184154
20
7.973006
30
0
11
-0.171357518796995
21
0.169559256168522
31
0
210
0
220
0
230
1
40
0.503561
41
1.56655622247558
42
2.79820648422912
0
ELLIPSE
5
101
100
AcDbEntity
8
1
62
256
6
ByLayer
370
13
48
1
60
0
100
AcDbEllipse
10
16.774774
20
8.208196
30
0
11
-0.233533200850039
21
0.0621193850867095
31
0
210
0
220
0
230
1
40
0.501125
41
-2.70343953348464
42
-0.0191955885562342
0
ELLIPSE
5
102
100
AcDbEntity
8
1
62
256
6
ByLayer
370
13
48
1
60
0
100
AcDbEllipse
10
15.656894
20
7.567126
30
0
11
0.0626014636921785
21
0.231908105501215
31
0
210
0
220
0
230
1
40
0.507167
41
-1.56930075870487
42
-1.2320221945408
0
ELLIPSE
5
103
100
AcDbEntity
8
1
62
256
6
ByLayer
370
13
48
1
60
0
100
AcDbEllipse
10
15.656894
20
7.567126
30
0
11
0.0626001310800174
21
0.231908890190263
31
0
210
0
220
0
230
1
40
0.507162
41
-2.80095351419481
42
-1.56930325245647
0
ELLIPSE
5
104
100
AcDbEntity
8
1
62
256
6
ByLayer
370
13
48
1
60
0
100
AcDbEllipse
10
15.892864
20
7.973826
30
0
11
0.171169532633963
21
0.169366931414378
31
0
210
0
220
0
230
1
40
0.504679
41
-0.190784260418958
42
2.27162462445612
0
ELLIPSE
5
105
100
AcDbEntity
8
1
62
256
6
ByLayer
370
13
48
1
60
0
100
AcDbEllipse
10
17.420944
20
7.096506
30
0
11
0.0625982923216416
21
0.231909031930237
31
0
210
0
220
0
230
1
40
0.50717
41
1.90955779592076
42
2.80392848054249
0
ELLIPSE
5
106
100
AcDbEntity
8
1
62
256
6
ByLayer
370
13
48
1
60
0
100
AcDbEllipse
10
17.420834
20
7.566196
30
0
11
-0.0630123784442119
21
0.231936289238476
31
0
210
0
220
0
230
1
40
0.506597
41
-1.94050425368119
42
0.192242368803925
0
ELLIPSE
5
107
100
AcDbEntity
8
1
62
256
6
ByLayer
370
13
48
1
60
0
100
AcDbEllipse
10
15.657014
20
7.097446
30
0
11
-0.0630115336865628
21
0.231935816863614
31
0
210
0
220
0
230
1
40
0.506597
41
-0.197838987094885
42
0.684141572307533
0
ELLIPSE
5
108
100
AcDbEntity
8
1
62
256
6
ByLayer
370
13
48
1
60
0
100
AcDbEllipse
10
16.539904
20
7.343036
30
0
11
-1.71837603844702
21
0.150982713761117
31
0
210
0
220
0
230
1
40
0.993635
41
0.00046089360111643
42
-3.14122990768763
0
ELLIPSE
5
109
100
AcDbEntity
8
1
62
256
6
ByLayer
370
13
48
1
60
0
100
AcDbEllipse
10
17.184974
20
6.689806
30
0
11
0.171170837248636
21
0.169369617883113
31
0
210
0
220
0
230
1
40
0.504677
41
-0.19438087518756
42
0.199293587787182
0
ELLIPSE
5
10A
100
AcDbEntity
8
1
62
256
6
ByLayer
370
13
48
1
60
0
100
AcDbEllipse
10
16.548734
20
7.444016
30
0
11
-1.03107574941252
21
0.0905879388232799
31
0
210
0
220
0
230
1
40
0.993636
41
-1.74496315171977
42
-0.697765600524918
0
ELLIPSE
5
10B
100
AcDbEntity
8
1
62
256
6
ByLayer
370
13
48
1
60
0
100
AcDbEllipse
10
16.548734
20
7.444016
30
0
11
-1.03111885403932
21
0.090167806002675
31
0
210
0
220
0
230
1
40
0.993634
41
-2.79256976000488
42
-1.74537220880765
0
ELLIPSE
5
10C
100
AcDbEntity
8
1
62
256
6
ByLayer
370
13
48
1
60
0
100
AcDbEllipse
10
16.548734
20
7.444016
30
0
11
-1.03111850822123
21
0.0900828246751388
31
0
210
0
220
0
230
1
40
0.993639
41
2.44333741518033
42
-2.79265034080184
0
ELLIPSE
5
10D
100
AcDbEntity
8
1
62
256
6
ByLayer
370
13
48
1
60
0
100
AcDbEllipse
10
16.548734
20
7.444016
30
0
11
-1.03107574941253
21
0.090587938823195
31
0
210
0
220
0
230
1
40
0.993636
41
1.39662950186995
42
2.4438270530648
0
ELLIPSE
5
10E
100
AcDbEntity
8
1
62
256
6
ByLayer
370
13
48
1
60
0
100
AcDbEllipse
10
16.548734
20
7.444016
30
0
11
-1.03111885403932
21
0.090167806002675
31
0
210
0
220
0
230
1
40
0.993634
41
0.349022893584912
42
1.39622044478215
0
ELLIPSE
5
10F
100
AcDbEntity
8
1
62
256
6
ByLayer
370
13
48
1
60
0
100
AcDbEllipse
10
16.548734
20
7.444016
30
0
11
-1.03111850822183
21
0.0900828246622599
31
0
210
0
220
0
230
1
40
0.993639
41
-0.69825523842202
42
0.348942312775668
0
ELLIPSE
5
110
100
AcDbEntity
8
1
62
256
6
ByLayer
370
13
48
1
60
0
100
AcDbEllipse
10
16.548734
20
7.444016
30
0
11
-1.29499225414434
21
0.11393200522274
31
0
210
0
220
0
230
1
40
0.993645
41
0
42
6.28318530717959
0
ELLIPSE
5
111
100
AcDbEntity
8
1
62
256
6
ByLayer
370
13
48
1
60
0
100
AcDbEllipse
10
16.547034
20
7.424496
30
0
11
-1.71835510646053
21
0.151179006932525
31
0
210
0
220
0
230
1
40
0.993645
41
0
42
6.28318530717959
0
ELLIPSE
5
112
100
AcDbEntity
8
1
62
256
6
ByLayer
370
13
48
1
60
0
100
AcDbEllipse
10
16.541184
20
7.357736
30
0
11
-1.79779774932417
21
0.158168283951398
31
0
210
0
220
0
230
1
40
0.993645
41
0
42
6.28318530717959
0
ELLIPSE
5
113
100
AcDbEntity
8
1
62
256
6
ByLayer
370
13
48
1
60
0
100
AcDbEllipse
10
16.543524
20
7.384426
30
0
11
-1.87721731235105
21
0.165357938725581
31
0
210
0
220
0
230
1
40
0.993636
41
2.49013675369442
42
-3.14099768676962
0
ELLIPSE
5
114
100
AcDbEntity
8
1
62
256
6
ByLayer
370
13
48
1
60
0
100
AcDbEllipse
10
16.543524
20
7.384426
30
0
11
-1.8772226075114
21
0.165155996278366
31
0
210
0
220
0
230
1
40
0.993645
41
-3.14110772210692
42
-1.48359748411457
0
ELLIPSE
5
115
100
AcDbEntity
8
1
62
256
6
ByLayer
370
13
48
1
60
0
100
AcDbEllipse
10
16.543524
20
7.384426
30
0
11
-1.87731039550201
21
0.16420734087305
31
0
210
0
220
0
230
1
40
0.993644
41
-1.48410066883084
42
0.652083972024341
0
ELLIPSE
5
116
100
AcDbEntity
8
1
62
256
6
ByLayer
370
13
48
1
60
0
100
AcDbEllipse
10
16.548864
20
7.445506
30
0
11
-1.9151443529242
21
0.168492310068296
31
0
210
0
220
0
230
1
40
0.993645
41
0
42
6.28318530717959
0
ELLIPSE
5
117
100
AcDbEntity
8
1
62
256
6
ByLayer
370
13
48
1
60
0
100
AcDbEllipse
10
13.494594
20
4.410376
30
0
11
-0.395346192976556
21
0.0347821265488475
31
0
210
0
220
0
230
1
40
0.993645
41
0.000484931375304253
42
1.74581418336755
0
ELLIPSE
5
118
100
AcDbEntity
8
1
62
256
6
ByLayer
370
13
48
1
60
0
100
AcDbEllipse
10
19.114544
20
4.895896
30
0
11
-0.395385740048111
21
0.0343530210305082
31
0
210
0
220
0
230
1
40
0.993635
41
1.74473153837206
42
3.14099493996855
0
ELLIPSE
5
119
100
AcDbEntity
8
1
62
256
6
ByLayer
370
13
48
1
60
0
100
AcDbEllipse
10
19.603144
20
10.480626
30
0
11
-0.395346192976556
21
0.0347821265488475
31
0
210
0
220
0
230
1
40
0.993645
41
-3.14110772221449
42
-1.39577847022224
0
ELLIPSE
5
11A
100
AcDbEntity
8
1
62
256
6
ByLayer
370
13
48
1
60
0
100
AcDbEllipse
10
13.983194
20
9.995116
30
0
11
-0.395385740047932
21
0.0343530210330464
31
0
210
0
220
0
230
1
40
0.993635
41
-1.39686111521128
42
-0.000597713614980146
0
POINT
5
70
100
AcDbEntity
8
80
62
256
6
ByLayer
370
18
48
1
60
0
100
AcDbPoint
10
0
20
0
30
0
39
0
210
0
220
0
230
1
50
360
0
POINT
5
72
100
AcDbEntity
8
81
62
256
6
ByLayer
370
18
48
1
60
0
100
AcDbPoint
10
20
20
10.875
30
0
39
0
210
0
220
0
230
1
50
360
0
SPLINE
5
11B
100
AcDbEntity
8
1
62
256
6
ByLayer
370
13
48
1
60
0
100
AcDbSpline
70
4
71
3
72
8
73
4
40
0
40
0
40
0
40
0
40
1
40
1
40
1
40
1
41
1
10
12.1180066845548
20
5.07798351752359
30
0
41
1
10
12.0852229273839
20
5.09166493400849
30
0
41
1
10
12.0524910160577
20
5.10532887542681
30
0
41
1
10
12.0197994656377
20
5.1189791970726
30
0
0
SPLINE
5
11C
100
AcDbEntity
8
1
62
256
6
ByLayer
370
13
48
1
60
0
100
AcDbSpline
70
4
71
3
72
8
73
4
40
0
40
0
40
0
40
0
40
1
40
1
40
1
40
1
41
1
10
13.5621399285215
20
9.7362150693331
30
0
41
1
10
12.6896719684539
20
9.65898910092071
30
0
41
1
10
11.8172080175295
20
9.58171892260569
30
0
41
1
10
10.9447483839371
20
9.5044011359046
30
0
0
SPLINE
5
11D
100
AcDbEntity
8
1
62
256
6
ByLayer
370
13
48
1
60
0
100
AcDbSpline
70
4
71
3
72
8
73
4
40
0
40
0
40
0
40
0
40
1
40
1
40
1
40
1
41
1
10
10.9447224749636
20
9.50437934468951
30
0
41
1
10
10.0757920465044
20
9.00262323200221
30
0
41
1
10
9.2071504801105
20
8.50037454477911
30
0
41
1
10
8.3390019822821
20
7.99728506518801
30
0
0
SPLINE
5
11E
100
AcDbEntity
8
1
62
256
6
ByLayer
370
13
48
1
60
0
100
AcDbSpline
70
4
71
3
72
12
73
8
40
0
40
0
40
0
40
0
40
0.5
40
0.5
40
0.75
40
0.75
40
1
40
1
40
1
40
1
41
1
10
5.7662722806574
20
-5.83487529650802
30
0
41
1
10
5.63714799654312
20
-6.09386028994791
30
0
41
1
10
5.52398734171791
20
-6.3557758896504
30
0
41
1
10
5.3759255356658
20
-6.75487595460379
30
0
41
1
10
5.33020467442122
20
-6.88894869572709
30
0
41
1
10
5.24584224518821
20
-7.15966379007261
30
0
41
1
10
5.2072017567493
20
-7.29629045322639
30
0
41
1
10
5.17205132162832
20
-7.43465386167262
30
0
0
SPLINE
5
11F
100
AcDbEntity
8
1
62
256
6
ByLayer
370
13
48
1
60
0
100
AcDbSpline
70
4
71
3
72
8
73
4
40
0
40
0
40
0
40
0
40
1
40
1
40
1
40
1
41
1
10
-0.221234548246997
20
-4.41486109515071
30
0
41
1
10
-0.196339994600379
20
-4.32412824684479
30
0
41
1
10
-0.174326831347202
20
-4.232788168951
30
0
41
1
10
-0.155420559057802
20
-4.1407933390584
30
0
0
SPLINE
5
120
100
AcDbEntity
8
1
62
256
6
ByLayer
370
13
48
1
60
0
100
AcDbSpline
70
4
71
3
72
8
73
4
40
0
40
0
40
0
40
0
40
1
40
1
40
1
40
1
41
1
10
-0.137896909293602
20
-4.9217119209585
30
0
41
1
10
-0.165649698803492
20
-4.94583552319241
30
0
41
1
10
-0.193430323261197
20
-4.9699171848022
30
0
41
1
10
-0.221234548246997
20
-4.99396328604792
30
0
0
SPLINE
5
121
100
AcDbEntity
8
1
62
256
6
ByLayer
370
13
48
1
60
0
100
AcDbSpline
70
4
71
3
72
8
73
4
40
0
40
0
40
0
40
0
40
1
40
1
40
1
40
1
41
1
10
-0.221234548246798
20
-5.6580340082082
30
0
41
1
10
-0.195883151924477
20
-5.62355099178569
30
0
41
1
10
-0.170753741294078
20
-5.58888152258609
30
0
41
1
10
-0.145869637694801
20
-5.5540060122816
30
0
0
SPLINE
5
122
100
AcDbEntity
8
1
62
256
6
ByLayer
370
13
48
1
60
0
100
AcDbSpline
70
4
71
3
72
8
73
4
40
0
40
0
40
0
40
0
40
1
40
1
40
1
40
1
41
1
10
-0.141667052390091
20
-5.72217060849451
30
0
41
1
10
-0.168170072085985
20
-5.74552376156299
30
0
41
1
10
-0.194693375231083
20
-5.7688466247271
30
0
41
1
10
-0.221234548246997
20
-5.79214280225841
30
0
0
SPLINE
5
123
100
AcDbEntity
8
1
62
256
6
ByLayer
370
13
48
1
60
0
100
AcDbSpline
70
4
71
3
72
8
73
4
40
0
40
0
40
0
40
0
40
1
40
1
40
1
40
1
41
1
10
-0.0870700626531971
20
-5.65856500236961
30
0
41
1
10
-0.131367125166378
20
-5.71188114930581
30
0
41
1
10
-0.176111168033202
20
-5.76472847346659
30
0
41
1
10
-0.221234548246997
20
-5.81717792334419
30
0
0
SPLINE
5
124
100
AcDbEntity
8
1
62
256
6
ByLayer
370
13
48
1
60
0
100
AcDbSpline
70
4
71
3
72
8
73
4
40
0
40
0
40
0
40
0
40
1
40
1
40
1
40
1
41
1
10
-0.221234548246997
20
5.81717848560041
30
0
41
1
10
-0.176111168033202
20
5.76472903572289
30
0
41
1
10
-0.131367125166378
20
5.71188171156209
30
0
41
1
10
-0.0870700626532823
20
5.65856556462589
30
0
0
SPLINE
5
125
100
AcDbEntity
8
1
62
256
6
ByLayer
370
13
48
1
60
0
100
AcDbSpline
70
4
71
3
72
8
73
4
40
0
40
0
40
0
40
0
40
1
40
1
40
1
40
1
41
1
10
-0.221234548246997
20
5.79214336451469
30
0
41
1
10
-0.194681603841985
20
5.76883685479609
30
0
41
1
10
-0.1681465451625
20
5.74550363576859
30
0
41
1
10
-0.141631788999575
20
5.72214009836279
30
0
0
SPLINE
5
126
100
AcDbEntity
8
1
62
256
6
ByLayer
370
13
48
1
60
0
100
AcDbSpline
70
4
71
3
72
8
73
4
40
0
40
0
40
0
40
0
40
1
40
1
40
1
40
1
41
1
10
-0.145860344568291
20
5.55399355003149
30
0
41
1
10
-0.170747484797886
20
5.58887345313991
30
0
41
1
10
-0.195879996040588
20
5.62354726140291
30
0
41
1
10
-0.221234548246798
20
5.65803457046439
30
0
0
SPLINE
5
127
100
AcDbEntity
8
1
62
256
6
ByLayer
370
13
48
1
60
0
100
AcDbSpline
70
4
71
3
72
8
73
4
40
0
40
0
40
0
40
0
40
1
40
1
40
1
40
1
41
1
10
-0.221234548246997
20
4.99396384830411
30
0
41
1
10
-0.193655397968087
20
4.97011239982049
30
0
41
1
10
-0.166099467672183
20
4.94622596436349
30
0
41
1
10
-0.138570889776275
20
4.9222983153667
30
0
0
SPLINE
5
128
100
AcDbEntity
8
1
62
256
6
ByLayer
370
13
48
1
60
0
100
AcDbSpline
70
4
71
3
72
8
73
4
40
0
40
0
40
0
40
0
40
1
40
1
40
1
40
1
41
1
10
-0.155398915060601
20
4.14068397039421
30
0
41
1
10
-0.174279769459275
20
4.2325666908805
30
0
41
1
10
-0.196290593643994
20
4.32394875809291
30
0
41
1
10
-0.221234548246997
20
4.41486165740699
30
0
0
SPLINE
5
129
100
AcDbEntity
8
1
62
256
6
ByLayer
370
13
48
1
60
0
100
AcDbSpline
70
4
71
3
72
10
73
6
40
0
40
0
40
0
40
0
40
0.785546421895829
40
0.785546421895829
40
1
40
1
40
1
40
1
41
1
10
-0.209157402711781
20
5.07775248042569
30
0
41
1
10
-0.144697174359294
20
4.9438368923114
30
0
41
1
10
-0.085406736295198
20
4.80749466629919
30
0
41
1
10
-0.0181398216339801
20
4.63007754865541
30
0
41
1
10
-0.0041945111385928
20
4.59180435646121
30
0
41
1
10
0.0092374331842109
20
4.55329019630889
30
0
0
SPLINE
5
12A
100
AcDbEntity
8
1
62
256
6
ByLayer
370
13
48
1
60
0
100
AcDbSpline
70
4
71
3
72
10
73
6
40
0
40
0
40
0
40
0
40
0.221259104393838
40
0.221259104393838
40
1
40
1
40
1
40
1
41
1
10
0.0094461927273244
20
-4.55268774282149
30
0
41
1
10
-0.004374544563575
20
-4.5923366459046
30
0
41
1
10
-0.0187506995764011
20
-4.63176264594651
30
0
41
1
10
-0.0860838669564998
20
-4.80900525054861
30
0
41
1
10
-0.144985825068289
20
-4.94443599950179
30
0
41
1
10
-0.209157402711781
20
-5.0777519181695
30
0
0
SPLINE
5
12B
100
AcDbEntity
8
1
62
256
6
ByLayer
370
13
48
1
60
0
100
AcDbSpline
70
4
71
3
72
40
73
36
40
0
40
0
40
0
40
0
40
0.125000000000002
40
0.125000000000002
40
0.187500000000003
40
0.187500000000003
40
0.218750000000003
40
0.218750000000003
40
0.250000000000003
40
0.250000000000003
40
0.375000000000003
40
0.375000000000003
40
0.437500000000004
40
0.437500000000004
40
0.468750000000004
40
0.468750000000004
40
0.500000000000004
40
0.500000000000004
40
0.562500000000004
40
0.562500000000004
40
0.625000000000004
40
0.625000000000004
40
0.656250000000004
40
0.656250000000004
40
0.687500000000003
40
0.687500000000003
40
0.750000000000003
40
0.750000000000003
40
0.812500000000003
40
0.812500000000003
40
0.843750000000003
40
0.843750000000003
40
0.875000000000002
40
0.875000000000002
40
1
40
1
40
1
40
1
41
1
10
5.63717022145201
20
-0.6616459457654
30
0
41
1
10
5.6353013178682
20
-0.682949317862096
30
0
41
1
10
5.64392349703101
20
-0.710139256335992
30
0
41
1
10
5.6711000505432
20
-0.758876762652307
30
0
41
1
10
5.6825549399328
20
-0.776452868478799
30
0
41
1
10
5.70332676717882
20
-0.804735255172716
30
0
41
1
10
5.71085014195722
20
-0.81448259014121
30
0
41
1
10
5.72710969286402
20
-0.834605743782305
30
0
41
1
10
5.73585598302412
20
-0.844990127299496
30
0
41
1
10
5.78204124809182
20
-0.897756745738207
30
0
41
1
10
5.82713996600472
20
-0.943175135538411
30
0
41
1
10
5.9064206082034
20
-1.0144783101008
30
0
41
1
10
5.93480499944252
20
-1.03877678951051
30
0
41
1
10
5.9804151649316
20
-1.07580404953811
30
0
41
1
10
5.99616332662941
20
-1.08827174883109
30
0
41
1
10
6.0285009113623
20
-1.11320334560909
30
0
41
1
10
6.04507328456862
20
-1.1256558231255
30
0
41
1
10
6.09600563097001
20
-1.1629055100131
30
0
41
1
10
6.13157630878152
20
-1.18759712557721
30
0
41
1
10
6.20607905781631
20
-1.2362954916272
30
0
41
1
10
6.24501014433642
20
-1.26030366217199
30
0
41
1
10
6.3061417718161
20
-1.29543849698359
30
0
41
1
10
6.32700101877901
20
-1.30701631116401
30
0
41
1
10
6.36957987057483
20
-1.32974747069079
30
0
41
1
10
6.3912012755579
20
-1.34084916687109
30
0
41
1
10
6.45709128005052
20
-1.3732625146632
30
0
41
1
10
6.5023819090413
20
-1.39368630506792
30
0
41
1
10
6.5959356158439
20
-1.4315473682959
30
0
41
1
10
6.6441977151606
20
-1.44898598370159
30
0
41
1
10
6.71910157784342
20
-1.4723384572597
30
0
41
1
10
6.74453519625152
20
-1.47966154113681
30
0
41
1
10
6.79558631916521
20
-1.49308753530451
30
0
41
1
10
6.82128205770132
20
-1.49921708398429
30
0
41
1
10
6.95062474046571
20
-1.52682260180799
30
0
41
1
10
7.056851189176
20
-1.53915423646942
30
0
41
1
10
7.16610128684422
20
-1.54023951133161
30
0
0
SPLINE
5
12C
100
AcDbEntity
8
1
62
256
6
ByLayer
370
13
48
1
60
0
100
AcDbSpline
70
4
71
3
72
27
73
23
40
0
40
0
40
0
40
0
40
0.124999999999998
40
0.124999999999998
40
0.249999999999997
40
0.249999999999997
40
0.312499999999997
40
0.312499999999997
40
0.374999999999997
40
0.374999999999997
40
0.499999999999999
40
0.499999999999999
40
0.625
40
0.65625
40
0.65625
40
0.6875
40
0.6875
40
0.750000000000001
40
0.750000000000001
40
0.875
40
0.875
40
1
40
1
40
1
40
1
41
1
10
5.76627228065732
20
-5.83487529650822
30
0
41
1
10
5.7208715180825
20
-5.85358257985251
30
0
41
1
10
5.67765578472572
20
-5.87216198491711
30
0
41
1
10
5.59540243033541
20
-5.90851656079951
30
0
41
1
10
5.55636540763282
20
-5.9262937814317
30
0
41
1
10
5.5009709316582
20
-5.95197346933659
30
0
41
1
10
5.48303465218072
20
-5.96036908543689
30
0
41
1
10
5.44824510331321
20
-5.9767657260939
30
0
41
1
10
5.4313790660305
20
-5.9847730815334
30
0
41
1
10
5.38294838088871
20
-6.00786854585749
30
0
41
1
10
5.35336714867492
20
-6.02211369338181
30
0
41
1
10
5.2997497571036
20
-6.04788178928069
30
0
41
1
10
5.26970263983492
20
-6.0622877515496
30
0
41
1
10
5.2443028576817
20
-6.0741955885637
30
0
41
1
10
5.23452688069992
20
-6.07874954537189
30
0
41
1
10
5.22982977398382
20
-6.08092226219981
30
0
41
1
10
5.21641821988882
20
-6.08707315618722
30
0
41
1
10
5.20834805273552
20
-6.0907005334391
30
0
41
1
10
5.1867553428782
20
-6.10013166854512
30
0
41
1
10
5.17584154688072
20
-6.10448647617659
30
0
41
1
10
5.16121554802012
20
-6.10912210288799
30
0
41
1
10
5.15750100238373
20
-6.10940389016559
30
0
41
1
10
5.15766410022272
20
-6.10750669503031
30
0
0
SPLINE
5
12D
100
AcDbEntity
8
1
62
256
6
ByLayer
370
13
48
1
60
0
100
AcDbSpline
70
4
71
3
72
57
73
53
40
0
40
0
40
0
40
0
40
0.0156250000000003
40
0.0156250000000003
40
0.0312500000000006
40
0.0312500000000006
40
0.062500000000001
40
0.062500000000001
40
0.125000000000002
40
0.125000000000002
40
0.140625000000002
40
0.140625000000002
40
0.156250000000002
40
0.156250000000002
40
0.187500000000003
40
0.187500000000003
40
0.250000000000004
40
0.250000000000004
40
0.265625000000004
40
0.265625000000004
40
0.281250000000004
40
0.281250000000004
40
0.312500000000005
40
0.312500000000005
40
0.375000000000006
40
0.375000000000006
40
0.406250000000006
40
0.406250000000006
40
0.437500000000007
40
0.437500000000007
40
0.500000000000008
40
0.500000000000008
40
0.562500000000009
40
0.562500000000009
40
0.593750000000009
40
0.593750000000009
40
0.609375000000009
40
0.609375000000009
40
0.625000000000009
40
0.625000000000009
40
0.687500000000007
40
0.687500000000007
40
0.750000000000005
40
0.750000000000005
40
0.875000000000002
40
0.875000000000002
40
0.937500000000001
40
0.953125
40
0.953125
40
0.96875
40
0.96875
40
1
40
1
40
1
40
1
41
1
10
5.76627228065732
20
-5.83487529650822
30
0
41
1
10
5.77498987995972
20
-5.8173903794484
30
0
41
1
10
5.7841371625079
20
-5.79920422287211
30
0
41
1
10
5.80325369866961
20
-5.76158319020391
30
0
41
1
10
5.8132306385084
20
-5.74213287768299
30
0
41
1
10
5.84444087222022
20
-5.68193825342291
30
0
41
1
10
5.86695117233401
20
-5.63935310086219
30
0
41
1
10
5.9398716422927
20
-5.5047169370979
30
0
41
1
10
5.9956337334105
20
-5.40581386856582
30
0
41
1
10
6.0757736076022
20
-5.27179944549312
30
0
41
1
10
6.09225279679481
20
-5.2445995524337
30
0
41
1
10
6.1259635330745
20
-5.18972041287191
30
0
41
1
10
6.1432196499704
20
-5.16199998870431
30
0
41
1
10
6.19620472690841
20
-5.07806498749721
30
0
41
1
10
6.23314960327522
20
-5.02107822238909
30
0
41
1
10
6.34899680530742
20
-4.84751172070909
30
0
41
1
10
6.43290102324511
20
-4.72833892138772
30
0
41
1
10
6.5467952113766
20
-4.57636520862701
30
0
41
1
10
6.56994561764492
20
-4.54592701291492
30
0
41
1
10
6.61680153173711
20
-4.48523601651959
30
0
41
1
10
6.64053600615671
20
-4.45494447071371
30
0
41
1
10
6.7126581964049
20
-4.3642626856842
30
0
41
1
10
6.76196440538982
20
-4.3040659062857
30
0
41
1
10
6.91356185200121
20
-4.124470577897
30
0
41
1
10
7.01952840864791
20
-4.00607215759501
30
0
41
1
10
7.18592082568102
20
-3.83122074621321
30
0
41
1
10
7.2426263148383
20
-3.7733931136147
30
0
41
1
10
7.35854533934321
20
-3.65876179521621
30
0
41
1
10
7.41730215988881
20
-3.60241061199361
30
0
41
1
10
7.5957514720331
20
-3.43640329699781
30
0
41
1
10
7.71770875097451
20
-3.3297028139605
30
0
41
1
10
7.96758582581171
20
-3.12409466347179
30
0
41
1
10
8.09550552546281
20
-3.0251874120496
30
0
41
1
10
8.2918920073555
20
-2.88264121224131
30
0
41
1
10
8.3581058508781
20
-2.83609573204151
30
0
41
1
10
8.45856346162532
20
-2.7677357063051
30
0
41
1
10
8.49225122228671
20
-2.745184733538
30
0
41
1
10
8.55974484295112
20
-2.70074011631459
30
0
41
1
10
8.5935825169297
20
-2.6788244654486
30
0
41
1
10
8.7632310515236
20
-2.57075181307331
30
0
41
1
10
8.90042107596892
20
-2.48910267728931
30
0
41
1
10
9.1779117730413
20
-2.33486603300031
30
0
41
1
10
9.3182118191427
20
-2.26228003711739
30
0
41
1
10
9.7440956962495
20
-2.05758429577691
30
0
41
1
10
10.0346193320216
20
-1.93846140132979
30
0
41
1
10
10.4822133595025
20
-1.78512306886611
30
0
41
1
10
10.6711833992228
20
-1.72653626178101
30
0
41
1
10
10.8636096946471
20
-1.67468151465582
30
0
41
1
10
10.9408662623119
20
-1.65448344942831
30
0
41
1
10
10.9796206348
20
-1.64466092755072
30
0
41
1
10
11.0959542135648
20
-1.6161010977599
30
0
41
1
10
11.1737193703746
20
-1.5982406456628
30
0
41
1
10
11.2517065167757
20
-1.58155186967372
30
0
0
SPLINE
5
12E
100
AcDbEntity
8
1
62
256
6
ByLayer
370
13
48
1
60
0
100
AcDbSpline
70
4
71
3
72
34
73
30
40
0
40
0
40
0
40
0
40
0.0624999999999971
40
0.0624999999999971
40
0.124999999999994
40
0.124999999999994
40
0.249999999999991
40
0.249999999999991
40
0.312499999999989
40
0.312499999999989
40
0.34374999999999
40
0.34374999999999
40
0.374999999999991
40
0.374999999999991
40
0.499999999999987
40
0.499999999999987
40
0.562499999999985
40
0.562499999999985
40
0.593749999999986
40
0.593749999999986
40
0.624999999999987
40
0.624999999999987
40
0.749999999999992
40
0.749999999999992
40
0.812499999999995
40
0.812499999999995
40
0.874999999999998
40
0.874999999999998
40
1
40
1
40
1
40
1
41
1
10
13.8881968405805
20
3.73178851187649
30
0
41
1
10
13.8596274224219
20
3.70853289640391
30
0
41
1
10
13.8300067217017
20
3.68653401106499
30
0
41
1
10
13.7686380412596
20
3.64510643510221
30
0
41
1
10
13.7368442732712
20
3.62565219052308
30
0
41
1
10
13.6384512635953
20
3.57147098872929
30
0
41
1
10
13.5705239905739
20
3.54178458109931
30
0
41
1
10
13.4652794602774
20
3.50656751014839
30
0
41
1
10
13.4296355898476
20
3.49638978058209
30
0
41
1
10
13.3753132892465
20
3.48350649324081
30
0
41
1
10
13.3570628892558
20
3.47960987147201
30
0
41
1
10
13.3202712149951
20
3.4726267022082
30
0
41
1
10
13.3017820613764
20
3.46955200309481
30
0
41
1
10
13.2094962758948
20
3.45633916907599
30
0
41
1
10
13.135586516625
20
3.452514158848
30
0
41
1
10
13.024602874931
20
3.45667574050671
30
0
41
1
10
12.9875883684449
20
3.45972303341901
30
0
41
1
10
12.9320358458825
20
3.4668516061918
30
0
41
1
10
12.9134668732172
20
3.46966386442651
30
0
41
1
10
12.8766338847148
20
3.4761030488383
30
0
41
1
10
12.8583547497275
20
3.47972943851531
30
0
41
1
10
12.7676348816072
20
3.49986126145799
30
0
41
1
10
12.6972049953243
20
3.5223185355803
30
0
41
1
10
12.5947746002312
20
3.5654734995293
30
0
41
1
10
12.561170094849
20
3.58144595326979
30
0
41
1
10
12.4950786523562
20
3.61667203441959
30
0
41
1
10
12.4630253253952
20
3.63570050007741
30
0
41
1
10
12.3701808112997
20
3.69662901702151
30
0
41
1
10
12.3124918532502
20
3.7424492757859
30
0
41
1
10
12.2590115932195
20
3.79336378158828
30
0
0
SPLINE
5
12F
100
AcDbEntity
8
1
62
256
6
ByLayer
370
13
48
1
60
0
100
AcDbSpline
70
4
71
3
72
48
73
44
40
0
40
0
40
0
40
0
40
0.0624999999999993
40
0.0624999999999993
40
0.124999999999999
40
0.124999999999999
40
0.156249999999998
40
0.156249999999998
40
0.187499999999998
40
0.187499999999998
40
0.249999999999997
40
0.249999999999997
40
0.312499999999997
40
0.312499999999997
40
0.343749999999997
40
0.343749999999997
40
0.374999999999996
40
0.374999999999996
40
0.499999999999997
40
0.499999999999997
40
0.562499999999997
40
0.562499999999997
40
0.593749999999997
40
0.593749999999997
40
0.624999999999997
40
0.624999999999997
40
0.687499999999997
40
0.687499999999997
40
0.749999999999996
40
0.749999999999996
40
0.812499999999996
40
0.812499999999996
40
0.843749999999996
40
0.843749999999996
40
0.874999999999996
40
0.874999999999996
40
0.906249999999997
40
0.906249999999997
40
0.921874999999997
40
0.921874999999997
40
0.937499999999997
40
0.937499999999997
40
1
40
1
40
1
40
1
41
1
10
6.20585870485962
20
5.79707929930311
30
0
41
1
10
6.20330851700032
20
5.76807435842821
30
0
41
1
10
6.20381898359861
20
5.73732676923899
30
0
41
1
10
6.21036474222922
20
5.6724184842063
30
0
41
1
10
6.21640220846572
20
5.6382576299228
30
0
41
1
10
6.22932057701772
20
5.58447275408301
30
0
41
1
10
6.23427765741192
20
5.56611099659278
30
0
41
1
10
6.24532580891091
20
5.52891744540651
30
0
41
1
10
6.2514266667504
20
5.51004078116839
30
0
41
1
10
6.27135711779403
20
5.45259708675388
30
0
41
1
10
6.28680933246272
20
5.41321728484959
30
0
41
1
10
6.32164618723962
20
5.33240128304629
30
0
41
1
10
6.3410320440469
20
5.29096471793591
30
0
41
1
10
6.37288020284342
20
5.22733151884759
30
0
41
1
10
6.38395891412492
20
5.20587389404321
30
0
41
1
10
6.40702388552162
20
5.16247471701919
30
0
41
1
10
6.4190226534987
20
5.14051325221681
30
0
41
1
10
6.48073563521342
20
5.0304305698082
30
0
41
1
10
6.5358783941773
20
4.94077899386841
30
0
41
1
10
6.6265899464172
20
4.80463797913669
30
0
41
1
10
6.65817592303662
20
4.75898242162739
30
0
41
1
10
6.70765846621222
20
4.69022169326129
30
0
41
1
10
6.724504485545
20
4.667255684444
30
0
41
1
10
6.75893158810931
20
4.62126259272318
30
0
41
1
10
6.77653109901621
20
4.59821298274349
30
0
41
1
10
6.83016691513231
20
4.52945245779631
30
0
41
1
10
6.86712139143143
20
4.48399654073668
30
0
41
1
10
6.9438340932935
20
4.39431529984719
30
0
41
1
10
6.98358330118611
20
4.35008171925139
30
0
41
1
10
7.0667056787498
20
4.2636519488554
30
0
41
1
10
7.11005502778411
20
4.2214345827546
30
0
41
1
10
7.1790577793937
20
4.16080420784141
30
0
41
1
10
7.202788083499
20
4.1410126956811
30
0
41
1
10
7.2513447265072
20
4.10316409332779
30
0
41
1
10
7.27622344251191
20
4.0850538619803
30
0
41
1
10
7.3275034839547
20
4.05096151261739
30
0
41
1
10
7.35390278613872
20
4.0349763937831
30
0
41
1
10
7.3949903152637
20
4.0131281563684
30
0
41
1
10
7.40893555482461
20
4.00620227116889
30
0
41
1
10
7.43740253566511
20
3.99318291706029
30
0
41
1
10
7.45194250002541
20
3.98708839731668
30
0
41
1
10
7.5250307840968
20
3.95948289381849
30
0
41
1
10
7.58564390003542
20
3.94618144914819
30
0
41
1
10
7.64901211301711
20
3.94428925111239
30
0
0
SPLINE
5
130
100
AcDbEntity
8
1
62
256
6
ByLayer
370
13
48
1
60
0
100
AcDbSpline
70
4
71
3
72
47
73
43
40
0
40
0
40
0
40
0
40
0.0312500000000007
40
0.0468750000000006
40
0.0468750000000006
40
0.0625000000000004
40
0.0625000000000004
40
0.0937500000000002
40
0.0937500000000002
40
0.125
40
0.125
40
0.15625
40
0.15625
40
0.1875
40
0.1875
40
0.249999999999999
40
0.249999999999999
40
0.281249999999999
40
0.281249999999999
40
0.312499999999999
40
0.312499999999999
40
0.374999999999999
40
0.374999999999999
40
0.499999999999998
40
0.499999999999998
40
0.562499999999998
40
0.562499999999998
40
0.593749999999998
40
0.593749999999998
40
0.624999999999998
40
0.624999999999998
40
0.687499999999998
40
0.687499999999998
40
0.749999999999998
40
0.749999999999998
40
0.812499999999999
40
0.812499999999999
40
0.874999999999999
40
0.874999999999999
40
0.9375
40
0.9375
40
1
40
1
40
1
40
1
41
1
10
7.4940670660699
20
2.1845428952175
30
0
41
1
10
7.4609156660953
20
2.18363136575479
30
0
41
1
10
7.41202348129511
20
2.1780120233546
30
0
41
1
10
7.36418730776472
20
2.1670498937296
30
0
41
1
10
7.33251033896741
20
2.1586685540494
30
0
41
1
10
7.3167922599053
20
2.15394081829248
30
0
41
1
10
7.27051303084201
20
2.1385327954626
30
0
41
1
10
7.2406011352551
20
2.1265839153551
30
0
41
1
10
7.18218753901482
20
2.10025166474611
30
0
41
1
10
7.15368801229641
20
2.08586438235301
30
0
41
1
10
7.09778212596831
20
2.0552854411348
30
0
41
1
10
7.07038945603452
20
2.03909256417779
30
0
41
1
10
7.0169730706354
20
2.0056850841174
30
0
41
1
10
6.9908724393876
20
1.9884269079736
30
0
41
1
10
6.91402331003022
20
1.9354532899965
30
0
41
1
10
6.86470614297681
20
1.89856394419519
30
0
41
1
10
6.7927514799178
20
1.84198661549121
30
0
41
1
10
6.7691501786982
20
1.82294318882
30
0
41
1
10
6.72280240323832
20
1.7847599042141
30
0
41
1
10
6.70002603588262
20
1.7655959809322
30
0
41
1
10
6.63276518211961
20
1.70801191336759
30
0
41
1
10
6.5893407463918
20
1.66950532056339
30
0
41
1
10
6.46273250078522
20
1.5543181343343
30
0
41
1
10
6.38314981734592
20
1.47799592323528
30
0
41
1
10
6.27052482534302
20
1.3657870458249
30
0
41
1
10
6.23412714986083
20
1.32875297765321
30
0
41
1
10
6.18134082351682
20
1.27390025810351
30
0
41
1
10
6.16402948521031
20
1.25571174192001
30
0
41
1
10
6.1303013474529
20
1.21987062913459
30
0
41
1
10
6.11385310718723
20
1.2021858182369
30
0
41
1
10
6.06578401024981
20
1.1498678180823
30
0
41
1
10
6.03543423772823
20
1.11597022481249
30
0
41
1
10
5.978380346232
20
1.05030603517571
30
0
41
1
10
5.95167479791431
20
1.01853868785579
30
0
41
1
10
5.90232287579761
20
0.957337980505201
30
0
41
1
10
5.8796709008156
20
0.927899932117697
30
0
41
1
10
5.83907476274322
20
0.871636901077011
30
0
41
1
10
5.82149372499742
20
0.845311603776508
30
0
41
1
10
5.79218449558741
20
0.796378143555899
30
0
41
1
10
5.78045372175771
20
0.773769417189385
30
0
41
1
10
5.76350134521172
20
0.732441419509598
30
0
41
1
10
5.75827470459461
20
0.713721184739683
30
0
41
1
10
5.75680530026222
20
0.697077021643793
30
0
0
SPLINE
5
131
100
AcDbEntity
8
1
62
256
6
ByLayer
370
13
48
1
60
0
100
AcDbSpline
70
4
71
3
72
32
73
28
40
0
40
0
40
0
40
0
40
0.0624999999999993
40
0.0624999999999993
40
0.0937499999999992
40
0.0937499999999992
40
0.124999999999999
40
0.124999999999999
40
0.1875
40
0.1875
40
0.250000000000001
40
0.250000000000001
40
0.312500000000001
40
0.312500000000001
40
0.375000000000002
40
0.375000000000002
40
0.5
40
0.5
40
0.562499999999999
40
0.562499999999999
40
0.624999999999999
40
0.624999999999999
40
0.749999999999999
40
0.749999999999999
40
0.875
40
0.875
40
1
40
1
40
1
40
1
41
1
10
3.4999995743878
20
-4.29389072820129
30
0
41
1
10
3.48464845915981
20
-4.29389072820129
30
0
41
1
10
3.46968250022152
20
-4.2920533705306
30
0
41
1
10
3.44775181425891
20
-4.28682125458371
30
0
41
1
10
3.44049254024881
20
-4.28464509454511
30
0
41
1
10
3.4264761470053
20
-4.27961581151069
30
0
41
1
10
3.41968275430651
20
-4.2767585101239
30
0
41
1
10
3.399875518041
20
-4.2672700683332
30
0
41
1
10
3.38736016736402
20
-4.25965805287299
30
0
41
1
10
3.3643568939701
20
-4.2429904238912
30
0
41
1
10
3.35375542699541
20
-4.23389315215181
30
0
41
1
10
3.3339620697912
20
-4.21448924722949
30
0
41
1
10
3.32472847077611
20
-4.20411629183661
30
0
41
1
10
3.3077516788816
20
-4.18274295122731
30
0
41
1
10
3.29998270831771
20
-4.1717309049308
30
0
41
1
10
3.27841181913502
20
-4.13789348182232
30
0
41
1
10
3.26632415224111
20
-4.11427600533341
30
0
41
1
10
3.25074049868832
20
-4.07762329205789
30
0
41
1
10
3.24598820951422
20
-4.0652145985425
30
0
41
1
10
3.23734889578452
20
-4.04031214662962
30
0
41
1
10
3.23344576582812
20
-4.0277806196641
30
0
41
1
10
3.22283682940261
20
-3.9899654079237
30
0
41
1
10
3.21722317013692
20
-3.9644622713769
30
0
41
1
10
3.20841751074801
20
-3.91293574820571
30
0
41
1
10
3.2052298327342
20
-3.88691175714581
30
0
41
1
10
3.2010188959606
20
-3.83437524103991
30
0
41
1
10
3.1999995743877
20
-3.80782148840379
30
0
41
1
10
3.1999995743877
20
-3.78120323098281
30
0
0
SPLINE
5
132
100
AcDbEntity
8
1
62
256
6
ByLayer
370
13
48
1
60
0
100
AcDbSpline
70
4
71
3
72
31
73
27
40
0
40
0
40
0
40
0
40
0.249999999999997
40
0.249999999999997
40
0.374999999999996
40
0.374999999999996
40
0.437499999999996
40
0.437499999999996
40
0.499999999999995
40
0.562499999999995
40
0.562499999999995
40
0.624999999999995
40
0.624999999999995
40
0.749999999999996
40
0.749999999999996
40
0.812499999999995
40
0.812499999999995
40
0.843749999999995
40
0.843749999999995
40
0.874999999999995
40
0.874999999999995
40
0.937499999999997
40
0.937499999999997
40
0.968749999999998
40
0.968749999999998
40
1
40
1
40
1
40
1
41
1
10
3.1999995743877
20
3.78120379323909
30
0
41
1
10
3.1999995743877
20
3.8344498573507
30
0
41
1
10
3.2039822254531
20
3.88691215114329
30
0
41
1
10
3.2171921689293
20
3.96431673096589
30
0
41
1
10
3.22281605208022
20
3.9899018495602
30
0
41
1
10
3.23348457598371
20
4.02791452984141
30
0
41
1
10
3.23742461239121
20
4.04055050350181
30
0
41
1
10
3.24611108210431
20
4.06554933878499
30
0
41
1
10
3.25559187807582
20
4.0902510830324
30
0
41
1
10
3.26686481746762
20
4.11429817563538
30
0
41
1
10
3.27918294306272
20
4.13797290047151
30
0
41
1
10
3.2858791205889
20
4.14964224864158
30
0
41
1
10
3.30757932845611
20
4.18357657368119
30
0
41
1
10
3.32417680121662
20
4.20493488520279
30
0
41
1
10
3.3540210555947
20
4.23413490431591
30
0
41
1
10
3.36473905501131
20
4.24329876463301
30
0
41
1
10
3.3819864655367
20
4.25574874494009
30
0
41
1
10
3.38794286922391
20
4.25969272160319
30
0
41
1
10
3.40033072585052
20
4.2671106545755
30
0
41
1
10
3.4067874244013
20
4.2705931438434
30
0
41
1
10
3.42654161582672
20
4.28002107892641
30
0
41
1
10
3.44032707224253
20
4.28503409786919
30
0
41
1
10
3.4621218265778
20
4.29025815233101
30
0
41
1
10
3.4696273884081
20
4.29161863794909
30
0
41
1
10
3.48473676169431
20
4.29343122945511
30
0
41
1
10
3.49234206527632
20
4.29389129045819
30
0
41
1
10
3.4999995743876
20
4.29389129045819
30
0
0
SPLINE
5
133
100
AcDbEntity
8
1
62
256
6
ByLayer
370
13
48
1
60
0
100
AcDbSpline
70
4
71
3
72
37
73
33
40
0
40
0
40
0
40
0
40
0.125000000000003
40
0.125000000000003
40
0.156250000000003
40
0.156250000000003
40
0.187500000000004
40
0.187500000000004
40
0.250000000000004
40
0.312500000000005
40
0.312500000000005
40
0.343750000000005
40
0.343750000000005
40
0.375000000000005
40
0.375000000000005
40
0.500000000000005
40
0.500000000000005
40
0.562500000000006
40
0.562500000000006
40
0.593750000000006
40
0.593750000000006
40
0.625000000000006
40
0.625000000000006
40
0.750000000000006
40
0.750000000000006
40
0.781250000000005
40
0.781250000000005
40
0.812500000000005
40
0.812500000000005
40
0.875000000000003
40
0.875000000000003
40
1
40
1
40
1
40
1
41
1
10
6.38049188507742
20
7.78042829019671
30
0
41
1
10
6.38271696009772
20
7.805626157749
30
0
41
1
10
6.3943962355971
20
7.82839083865551
30
0
41
1
10
6.42107618942111
20
7.85398031853339
30
0
41
1
10
6.42703238609181
20
7.85896271250161
30
0
41
1
10
6.4401375696074
20
7.8686065976986
30
0
41
1
10
6.44726777742221
20
7.87325650182359
30
0
41
1
10
6.47037432194981
20
7.8867125056463
30
0
41
1
10
6.5057516687969
20
7.903338076171
30
0
41
1
10
6.5502628376434
20
7.9175481414542
30
0
41
1
10
6.58715795238712
20
7.92737244241511
30
0
41
1
10
6.60004256317731
20
7.93050828110779
30
0
41
1
10
6.62701068975832
20
7.93651352499441
30
0
41
1
10
6.64113365572672
20
7.9393899798601
30
0
41
1
10
6.71429745128151
20
7.95303685988569
30
0
41
1
10
6.780651365045
20
7.96159286461071
30
0
41
1
10
6.8917989005252
20
7.97186544928999
30
0
41
1
10
6.9307965104976
20
7.9748596089257
30
0
41
1
10
6.99231921440071
20
7.97880631188349
30
0
41
1
10
7.0133806408937
20
7.9800331377709
30
0
41
1
10
7.0560899706808
20
7.9822982234825
30
0
41
1
10
7.07777728479991
20
7.98333954117419
30
0
41
1
10
7.1878530894883
20
7.98814495211928
30
0
41
1
10
7.28111334831772
20
7.99072449566779
30
0
41
1
10
7.40426776850242
20
7.99303660180789
30
0
41
1
10
7.42923051445112
20
7.99345227889549
30
0
41
1
10
7.47983395326702
20
7.99420259319601
30
0
41
1
10
7.5054375930745
20
7.9945364343676
30
0
41
1
10
7.58240915776992
20
7.99542469498809
30
0
41
1
10
7.63420852971191
20
7.99587127191589
30
0
41
1
10
7.7910308137325
20
7.99690327941388
30
0
41
1
10
7.8974628469372
20
7.9971980792053
30
0
41
1
10
8.0058717993698
20
7.9972263730011
30
0
0
SPLINE
5
134
100
AcDbEntity
8
1
62
256
6
ByLayer
370
13
48
1
60
0
100
AcDbSpline
70
4
71
2
72
6
73
3
40
0
40
0
40
0
40
1
40
1
40
1
41
0.500005121385843
10
8.00587179936979
20
7.99722637300098
30
0
41
0.499994878614157
10
8.17245239045273
20
7.99726984908961
30
0
41
0.500005121385843
10
8.33904257171453
20
7.99731264388219
30
0
0
SPLINE
5
135
100
AcDbEntity
8
1
62
256
6
ByLayer
370
13
48
1
60
0
100
AcDbSpline
70
4
71
3
72
14
73
10
40
0
40
0
40
0
40
0
40
0.499999999999998
40
0.499999999999998
40
0.562499999999998
40
0.562499999999998
40
0.624999999999998
40
0.749999999999998
40
1
40
1
40
1
40
1
41
1
10
5.17205132162832
20
-7.43465386167262
30
0
41
1
10
5.14457292856602
20
-7.5428176471176
30
0
41
1
10
5.1231529090995
20
-7.63644031040289
30
0
41
1
10
5.1040791586486
20
-7.72471835564889
30
0
41
1
10
5.10202934394812
20
-7.7342949255941
30
0
41
1
10
5.09807553432722
20
-7.75292499111299
30
0
41
1
10
5.09236081926312
20
-7.78009820004459
30
0
41
1
10
5.08047378581071
20
-7.83812363998589
30
0
41
1
10
5.07255924116322
20
-7.87871312143329
30
0
41
1
10
5.06815554274132
20
-7.9017400335114
30
0
0
SPLINE
5
136
100
AcDbEntity
8
1
62
256
6
ByLayer
370
13
48
1
60
0
100
AcDbSpline
70
4
71
3
72
14
73
10
40
0
40
0
40
0
40
0
40
0.125
40
0.125
40
0.25
40
0.25
40
0.5
40
0.5
40
1
40
1
40
1
40
1
41
1
10
5.17205132162832
20
-7.43465386167262
30
0
41
1
10
5.16183877418842
20
-7.42481932481789
30
0
41
1
10
5.15235061902632
20
-7.41477075819969
30
0
41
1
10
5.1348050200765
20
-7.39423418532081
30
0
41
1
10
5.1267415547677
20
-7.3837332539251
30
0
41
1
10
5.10483070913511
20
-7.35178725123941
30
0
41
1
10
5.0931927310252
20
-7.3298341321788
30
0
41
1
10
5.06671585646592
20
-7.26197195025199
30
0
41
1
10
5.06023878146951
20
-7.21406493630872
30
0
41
1
10
5.06469792641121
20
-7.1633448054418
30
0
0
SPLINE
5
137
100
AcDbEntity
8
1
62
256
6
ByLayer
370
13
48
1
60
0
100
AcDbSpline
70
4
71
3
72
8
73
4
40
0
40
0
40
0
40
0
40
1
40
1
40
1
40
1
41
1
10
-0.221234548246997
20
-7.1414281474147
30
0
41
1
10
0.028583733524016
20
-7.39504443174241
30
0
41
1
10
0.278601382248411
20
-7.64846512490311
30
0
41
1
10
0.528765451753003
20
-7.9017400335114
30
0
0
SPLINE
5
138
100
AcDbEntity
8
1
62
256
6
ByLayer
370
13
48
1
60
0
100
AcDbSpline
70
4
71
3
72
8
73
4
40
0
40
0
40
0
40
0
40
1
40
1
40
1
40
1
41
1
10
0.528765451753003
20
7.90174059576771
30
0
41
1
10
0.27860109382442
20
7.64846539514869
30
0
41
1
10
0.0285831239269214
20
7.39504437513389
30
0
41
1
10
-0.221234548246997
20
7.141428709671
30
0
0
SPLINE
5
139
100
AcDbEntity
8
1
62
256
6
ByLayer
370
13
48
1
60
0
100
AcDbSpline
70
4
71
3
72
8
73
4
40
0
40
0
40
0
40
0
40
1
40
1
40
1
40
1
41
1
10
-0.221234548246997
20
7.1066122617157
30
0
41
1
10
-0.0337543558514994
20
7.27602201028111
30
0
41
1
10
0.154189499859115
20
7.44474337171141
30
0
41
1
10
0.342515451753002
20
7.61289744630159
30
0
0
SPLINE
5
13A
100
AcDbEntity
8
1
62
256
6
ByLayer
370
13
48
1
60
0
100
AcDbSpline
70
4
71
3
72
30
73
26
40
0
40
0
40
0
40
0
40
0.125000000000002
40
0.125000000000002
40
0.187500000000002
40
0.187500000000002
40
0.250000000000002
40
0.250000000000002
40
0.312500000000002
40
0.312500000000002
40
0.375000000000002
40
0.375000000000002
40
0.437500000000002
40
0.437500000000002
40
0.500000000000002
40
0.500000000000002
40
0.625
40
0.625
40
0.749999999999998
40
0.749999999999998
40
0.812499999999997
40
0.812499999999997
40
0.874999999999996
40
0.874999999999996
40
1
40
1
40
1
40
1
41
1
10
0.342515451753002
20
7.61289744630159
30
0
41
1
10
0.351740206307312
20
7.62113412345511
30
0
41
1
10
0.360761466118419
20
7.62884207761439
30
0
41
1
10
0.373193042516704
20
7.63876376908371
30
0
41
1
10
0.377166643728401
20
7.64180970542878
30
0
41
1
10
0.384709409374125
20
7.64727695412609
30
0
41
1
10
0.388259142795306
20
7.64968016858001
30
0
41
1
10
0.394608318858218
20
7.653565128032
30
0
41
1
10
0.397467060196902
20
7.6550825849466
30
0
41
1
10
0.4022710497633
20
7.657052474034
30
0
41
1
10
0.404200204261997
20
7.65750539179689
30
0
41
1
10
0.407094590069107
20
7.65732274920509
30
0
41
1
10
0.40804722410482
20
7.6566671140653
30
0
41
1
10
0.408912672714621
20
7.6543491665802
30
0
41
1
10
0.408848988429924
20
7.65268913181029
30
0
41
1
10
0.407273783545122
20
7.6463225523863
30
0
41
1
10
0.404475311566699
20
7.64050629783259
30
0
41
1
10
0.396373019896202
20
7.626679275106
30
0
41
1
10
0.391219236850901
20
7.6189239360707
30
0
41
1
10
0.382264766574707
20
7.60636133527669
30
0
41
1
10
0.379064286439899
20
7.60200766111109
30
0
41
1
10
0.372423272466307
20
7.59319892474821
30
0
41
1
10
0.368966358022703
20
7.58872049697729
30
0
41
1
10
0.358230496140607
20
7.57508857596179
30
0
41
1
10
0.350590418685698
20
7.56574059742999
30
0
41
1
10
0.342515451753002
20
7.5561627001405
30
0
0
SPLINE
5
13B
100
AcDbEntity
8
1
62
256
6
ByLayer
370
13
48
1
60
0
100
AcDbSpline
70
4
71
3
72
8
73
4
40
0
40
0
40
0
40
0
40
1
40
1
40
1
40
1
41
1
10
0.342515451753002
20
7.5561627001405
30
0
41
1
10
0.152101279148525
20
7.33030822879869
30
0
41
1
10
-0.0359901037379018
20
7.10190779125858
30
0
41
1
10
-0.221234548246997
20
6.8703868780164
30
0
0
SPLINE
5
13C
100
AcDbEntity
8
1
62
256
6
ByLayer
370
13
48
1
60
0
100
AcDbSpline
70
4
71
3
72
8
73
4
40
0
40
0
40
0
40
0
40
1
40
1
40
1
40
1
41
1
10
-0.221234548246997
20
6.73457582775859
30
0
41
1
10
-0.0334683322718945
20
6.89349564181438
30
0
41
1
10
0.154458049266225
20
7.0521625582212
30
0
41
1
10
0.342515451753002
20
7.21062259563809
30
0
0
SPLINE
5
13D
100
AcDbEntity
8
1
62
256
6
ByLayer
370
13
48
1
60
0
100
AcDbSpline
70
4
71
3
72
32
73
28
40
0
40
0
40
0
40
0
40
0.0624999999999998
40
0.0624999999999998
40
0.125
40
0.125
40
0.187499999999999
40
0.187499999999999
40
0.249999999999999
40
0.249999999999999
40
0.312499999999999
40
0.312499999999999
40
0.374999999999999
40
0.374999999999999
40
0.437499999999998
40
0.437499999999998
40
0.499999999999998
40
0.499999999999998
40
0.625000000000002
40
0.625000000000002
40
0.687500000000003
40
0.687500000000003
40
0.750000000000005
40
0.750000000000005
40
0.875000000000002
40
0.875000000000002
40
1
40
1
40
1
40
1
41
1
10
0.342515451753002
20
7.21062259563809
30
0
41
1
10
0.347434792950821
20
7.21476770760898
30
0
41
1
10
0.352327622903601
20
7.21871345182919
30
0
41
1
10
0.361852616489813
20
7.22597160013498
30
0
41
1
10
0.366466147873325
20
7.22927251155261
30
0
41
1
10
0.375343927082923
20
7.23510032466459
30
0
41
1
10
0.37965330867911
20
7.23764864095548
30
0
41
1
10
0.387543705609801
20
7.24162112337768
30
0
41
1
10
0.39113707587012
20
7.24306185766261
30
0
41
1
10
0.397521095163313
20
7.24469150328488
30
0
41
1
10
0.400186679160015
20
7.24484520787121
30
0
41
1
10
0.404468417275211
20
7.24386644398518
30
0
41
1
10
0.406096031740901
20
7.24270363301039
30
0
41
1
10
0.408207137949603
20
7.2392547634779
30
0
41
1
10
0.408721641090807
20
7.23698051642001
30
0
41
1
10
0.408803933641906
20
7.23146626470108
30
0
41
1
10
0.408367424493718
20
7.22827822945499
30
0
41
1
10
0.405924223967617
20
7.21781141999949
30
0
41
1
10
0.402743473019825
20
7.2094789799142
30
0
41
1
10
0.396552107024519
20
7.19614285502161
30
0
41
1
10
0.394245659165819
20
7.1915402022947
30
0
41
1
10
0.389210770969811
20
7.18206158364589
30
0
41
1
10
0.386467809890405
20
7.17716174886411
30
0
41
1
10
0.377778014992401
20
7.16228794225279
30
0
41
1
10
0.371393682466504
20
7.15215942750748
30
0
41
1
10
0.35766553519781
20
7.1315626205303
30
0
41
1
10
0.350318377451515
20
7.12109310592811
30
0
41
1
10
0.342515451753002
20
7.11046577837169
30
0
0
SPLINE
5
13E
100
AcDbEntity
8
1
62
256
6
ByLayer
370
13
48
1
60
0
100
AcDbSpline
70
4
71
3
72
8
73
4
40
0
40
0
40
0
40
0
40
1
40
1
40
1
40
1
41
1
10
0.342515451753002
20
7.11046577837169
30
0
41
1
10
0.150282075204018
20
6.84865025701319
30
0
41
1
10
-0.0379535925747803
20
6.58306749570201
30
0
41
1
10
-0.221234548246997
20
6.31281566256141
30
0
0
SPLINE
5
13F
100
AcDbEntity
8
1
62
256
6
ByLayer
370
13
48
1
60
0
100
AcDbSpline
70
4
71
3
72
8
73
4
40
0
40
0
40
0
40
0
40
1
40
1
40
1
40
1
41
1
10
-0.221234548246997
20
6.0893419322359
30
0
41
1
10
-0.0333234938021008
20
6.24296608349749
30
0
41
1
10
0.154593567717399
20
6.39658043802189
30
0
41
1
10
0.342515451753002
20
6.55018692560731
30
0
0
SPLINE
5
140
100
AcDbEntity
8
1
62
256
6
ByLayer
370
13
48
1
60
0
100
AcDbSpline
70
4
71
3
72
37
73
33
40
0
40
0
40
0
40
0
40
0.0624999999999938
40
0.0624999999999938
40
0.124999999999988
40
0.124999999999988
40
0.187499999999982
40
0.187499999999982
40
0.218749999999981
40
0.218749999999981
40
0.249999999999981
40
0.281249999999981
40
0.281249999999981
40
0.312499999999981
40
0.312499999999981
40
0.374999999999982
40
0.374999999999982
40
0.437499999999984
40
0.437499999999984
40
0.499999999999986
40
0.499999999999986
40
0.562499999999988
40
0.562499999999988
40
0.62499999999999
40
0.62499999999999
40
0.687499999999991
40
0.687499999999991
40
0.749999999999993
40
0.749999999999993
40
0.874999999999997
40
0.874999999999997
40
1
40
1
40
1
40
1
41
1
10
0.342515451753002
20
6.55018692560731
30
0
41
1
10
0.347883416453101
20
6.55457467537519
30
0
41
1
10
0.353272516316025
20
6.55865001966311
30
0
41
1
10
0.363730749565803
20
6.56574028628481
30
0
41
1
10
0.368814627364202
20
6.5687748853795
30
0
41
1
10
0.378613215589297
20
6.57353701473929
30
0
41
1
10
0.383194855160213
20
6.57518783066661
30
0
41
1
10
0.389357526140799
20
6.57635945104801
30
0
41
1
10
0.391316746241103
20
6.57653344568479
30
0
41
1
10
0.394889838996107
20
6.5764255407471
30
0
41
1
10
0.398136771077702
20
6.57587321591851
30
0
41
1
10
0.400766454190716
20
6.57447728451189
30
0
41
1
10
0.403097563507117
20
6.57267198841959
30
0
41
1
10
0.404114090742411
20
6.571557617655
30
0
41
1
10
0.406658091557205
20
6.5677402076723
30
0
41
1
10
0.407725796959511
20
6.56454618970449
30
0
41
1
10
0.408850495994898
20
6.5571075734095
30
0
41
1
10
0.408892243389118
20
6.55293444589671
30
0
41
1
10
0.408187018913623
20
6.54401186757408
30
0
41
1
10
0.407439862262208
20
6.53924056982729
30
0
41
1
10
0.405300682279517
20
6.52918871777669
30
0
41
1
10
0.403909150758125
20
6.52392566009829
30
0
41
1
10
0.400643330740024
20
6.51317426760269
30
0
41
1
10
0.398762998224015
20
6.50765992338819
30
0
41
1
10
0.39458045549901
20
6.49639414484361
30
0
41
1
10
0.392268270861422
20
6.49062066354489
30
0
41
1
10
0.387313541452414
20
6.47897351290979
30
0
41
1
10
0.384677643754117
20
6.47311236501341
30
0
41
1
10
0.376353281072625
20
6.45543037777199
30
0
41
1
10
0.370252601633098
20
6.44351197436549
30
0
41
1
10
0.357097958849607
20
6.41945310172679
30
0
41
1
10
0.350042313788919
20
6.4073122240525
30
0
41
1
10
0.342515451753002
20
6.3950646805292
30
0
0
SPLINE
5
141
100
AcDbEntity
8
1
62
256
6
ByLayer
370
13
48
1
60
0
100
AcDbSpline
70
4
71
3
72
8
73
4
40
0
40
0
40
0
40
0
40
1
40
1
40
1
40
1
41
1
10
0.342515451753002
20
6.3950646805292
30
0
41
1
10
0.146757558258201
20
6.07653176346571
30
0
41
1
10
-0.0416211087041916
20
5.7523104822711
30
0
41
1
10
-0.22071452956439
20
5.42093155919571
30
0
0
SPLINE
5
142
100
AcDbEntity
8
1
62
256
6
ByLayer
370
13
48
1
60
0
100
AcDbSpline
70
4
71
3
72
8
73
4
40
0
40
0
40
0
40
0
40
1
40
1
40
1
40
1
41
1
10
-0.209157402711781
20
5.07775248042569
30
0
41
1
10
-0.207376680754891
20
5.2003425160726
30
0
41
1
10
-0.211201505855399
20
5.3147756325005
30
0
41
1
10
-0.22071452956439
20
5.42093155919559
30
0
0
SPLINE
5
143
100
AcDbEntity
8
1
62
256
6
ByLayer
370
13
48
1
60
0
100
AcDbSpline
70
4
71
3
72
8
73
4
40
0
40
0
40
0
40
0
40
1
40
1
40
1
40
1
41
1
10
-0.209157402711781
20
5.07775248042569
30
0
41
1
10
-0.0254122140484014
20
5.2320735059979
30
0
41
1
10
0.158490696831109
20
5.38614357526271
30
0
41
1
10
0.342515451753002
20
5.5400197750032
30
0
0
SPLINE
5
144
100
AcDbEntity
8
1
62
256
6
ByLayer
370
13
48
1
60
0
100
AcDbSpline
70
4
71
3
72
34
73
30
40
0
40
0
40
0
40
0
40
0.031249999999998
40
0.031249999999998
40
0.062499999999996
40
0.062499999999996
40
0.0937499999999941
40
0.0937499999999941
40
0.124999999999992
40
0.124999999999992
40
0.187499999999982
40
0.187499999999982
40
0.21874999999998
40
0.21874999999998
40
0.249999999999978
40
0.249999999999978
40
0.312499999999979
40
0.312499999999979
40
0.37499999999998
40
0.37499999999998
40
0.499999999999981
40
0.499999999999981
40
0.562499999999984
40
0.562499999999984
40
0.624999999999987
40
0.624999999999987
40
0.749999999999992
40
0.749999999999992
40
1
40
1
40
1
40
1
41
1
10
0.342515451753002
20
5.54001977500369
30
0
41
1
10
0.345572042996821
20
5.54257560856499
30
0
41
1
10
0.348641935006413
20
5.54498161229171
30
0
41
1
10
0.354813635361921
20
5.54943301867181
30
0
41
1
10
0.357929813350722
20
5.551485145985
30
0
41
1
10
0.364049911299219
20
5.55505453735279
30
0
41
1
10
0.367068199867617
20
5.55658425792208
30
0
41
1
10
0.373006660181602
20
5.55904219431469
30
0
41
1
10
0.375904215132721
20
5.5599546359758
30
0
41
1
10
0.384103346533124
20
5.56158666367659
30
0
41
1
10
0.389065484447713
20
5.56117754666991
30
0
41
1
10
0.395078081998605
20
5.55844792420621
30
0
41
1
10
0.396885961313302
20
5.55718468286739
30
0
41
1
10
0.400046636500008
20
5.55409607065388
30
0
41
1
10
0.401391755278013
20
5.55229042788881
30
0
41
1
10
0.404854671177816
20
5.54623474242371
30
0
41
1
10
0.406413883678425
20
5.5413011171197
30
0
41
1
10
0.408369238972625
20
5.53044098752409
30
0
41
1
10
0.408773579335502
20
5.52454543346181
30
0
41
1
10
0.408748833642108
20
5.50584363287479
30
0
41
1
10
0.407122265668903
20
5.492445512644
30
0
41
1
10
0.40330353075862
20
5.47164623330949
30
0
41
1
10
0.401787253303524
20
5.46458058027301
30
0
41
1
10
0.398341630466604
20
5.45022244967109
30
0
41
1
10
0.39640792300932
20
5.44292022331101
30
0
41
1
10
0.390148785414198
20
5.42101600472139
30
0
41
1
10
0.38534858287602
20
5.40631194790811
30
0
41
1
10
0.369449811517825
20
5.36195492447979
30
0
41
1
10
0.356893975364898
20
5.33206228661189
30
0
41
1
10
0.342515451753002
20
5.3018846402484
30
0
0
SPLINE
5
145
100
AcDbEntity
8
1
62
256
6
ByLayer
370
13
48
1
60
0
100
AcDbSpline
70
4
71
3
72
10
73
6
40
0
40
0
40
0
40
0
40
0.5
40
0.5
40
1
40
1
40
1
40
1
41
1
10
0.342515451753002
20
5.3018846402484
30
0
41
1
10
0.239369665227997
20
5.08540225626689
30
0
41
1
10
0.140441058768005
20
4.86653659445631
30
0
41
1
10
-0.0478736633057792
20
4.4234124712587
30
0
41
1
10
-0.137260717488289
20
4.19915454029021
30
0
41
1
10
-0.221234548246997
20
3.97183740502621
30
0
0
SPLINE
5
146
100
AcDbEntity
8
1
62
256
6
ByLayer
370
13
48
1
60
0
100
AcDbSpline
70
4
71
3
72
8
73
4
40
0
40
0
40
0
40
0
40
1
40
1
40
1
40
1
41
1
10
-0.221234548246997
20
3.34009453806181
30
0
41
1
10
-0.0359107758599748
20
3.53622611609668
30
0
41
1
10
0.152330581542003
20
3.72856535616648
30
0
41
1
10
0.342515451753115
20
3.91837837767778
30
0
0
SPLINE
5
147
100
AcDbEntity
8
1
62
256
6
ByLayer
370
13
48
1
60
0
100
AcDbSpline
70
4
71
3
72
38
73
34
40
0
40
0
40
0
40
0
40
0.0312500000000032
40
0.0312500000000032
40
0.0625000000000064
40
0.0625000000000064
40
0.078125000000008
40
0.078125000000008
40
0.0937500000000097
40
0.0937500000000097
40
0.109375000000011
40
0.109375000000011
40
0.125000000000013
40
0.125000000000013
40
0.140625000000015
40
0.140625000000015
40
0.156250000000016
40
0.156250000000016
40
0.187500000000017
40
0.187500000000017
40
0.250000000000015
40
0.250000000000015
40
0.312500000000014
40
0.312500000000014
40
0.375000000000012
40
0.375000000000012
40
0.50000000000001
40
0.50000000000001
40
0.625000000000007
40
0.625000000000007
40
0.750000000000004
40
0.750000000000004
40
1
40
1
40
1
40
1
41
1
10
0.342515451753115
20
3.91837837767778
30
0
41
1
10
0.346432078091112
20
3.92228734624359
30
0
41
1
10
0.350432954622903
20
3.92582788345621
30
0
41
1
10
0.358676032571424
20
3.93184732303169
30
0
41
1
10
0.36295942831191
20
3.93432839904008
30
0
41
1
10
0.369234548410816
20
3.93663973711799
30
0
41
1
10
0.371335506377107
20
3.93718613961821
30
0
41
1
10
0.375369947577724
20
3.93773854121631
30
0
41
1
10
0.377308480205613
20
3.9377521230858
30
0
41
1
10
0.381029835296204
20
3.93725835515309
30
0
41
1
10
0.382829028354507
20
3.93674092703068
30
0
41
1
10
0.386158851728425
20
3.93524327749299
30
0
41
1
10
0.387698446319206
20
3.93426846250691
30
0
41
1
10
0.390564008334422
20
3.93193247650979
30
0
41
1
10
0.391897029738715
20
3.93056001820909
30
0
41
1
10
0.394320186504501
20
3.9275532348687
30
0
41
1
10
0.39541735950641
20
3.92591670661039
30
0
41
1
10
0.398433748638524
20
3.9206858507878
30
0
41
1
10
0.400085649860102
20
3.91676055523041
30
0
41
1
10
0.40424157343412
20
3.90416756864181
30
0
41
1
10
0.405937744729499
20
3.89481769966031
30
0
41
1
10
0.408140766427721
20
3.8754448443714
30
0
41
1
10
0.408632942100098
20
3.86541890323429
30
0
41
1
10
0.408851912433221
20
3.84493021073149
30
0
41
1
10
0.408570172074604
20
3.8344581637291
30
0
41
1
10
0.4068746240998
20
3.80257492271511
30
0
41
1
10
0.40464589341812
20
3.78095783778969
30
0
41
1
10
0.398831768863715
20
3.73724936063431
30
0
41
1
10
0.395217410482303
20
3.7151055171235
30
0
41
1
10
0.387007372540722
20
3.6708065304955
30
0
41
1
10
0.382404474665719
20
3.64861522697271
30
0
41
1
10
0.367355674284198
20
3.58192884779319
30
0
41
1
10
0.35570355957492
20
3.53732243987531
30
0
41
1
10
0.342515451753002
20
3.49257910521789
30
0
0
SPLINE
5
148
100
AcDbEntity
8
1
62
256
6
ByLayer
370
13
48
1
60
0
100
AcDbSpline
70
4
71
3
72
20
73
16
40
0
40
0
40
0
40
0
40
0.25
40
0.25
40
0.375
40
0.4375
40
0.453125
40
0.453125
40
0.46875
40
0.46875
40
0.5
40
0.5
40
0.75
40
0.75
40
1
40
1
40
1
40
1
41
1
10
0.342515451753002
20
3.49257910521789
30
0
41
1
10
0.175540921827405
20
2.92608409527151
30
0
41
1
10
0.0445687152464984
20
2.35186267563088
30
0
41
1
10
-0.0889174065789859
20
1.4770161704582
30
0
41
1
10
-0.139918985906093
20
1.03621465989781
30
0
41
1
10
-0.167871935001187
20
0.552821139937691
30
0
41
1
10
-0.174120883214499
20
0.365934347306109
30
0
41
1
10
-0.176257836262693
20
0.291101807529401
30
0
41
1
10
-0.177145255875075
20
0.253624735112794
30
0
41
1
10
-0.179255835234784
20
0.1413336325746
30
0
41
1
10
-0.179929662614199
20
0.0666080262277831
30
0
41
1
10
-0.179463620023284
20
-0.604718904396094
30
0
41
1
10
-0.132502464364677
20
-1.19287566481179
30
0
41
1
10
0.0450918604185233
20
-2.35376897971659
30
0
41
1
10
0.175668383799518
20
-2.9265159736465
30
0
41
1
10
0.342515451753002
20
-3.4925785429617
30
0
0
SPLINE
5
149
100
AcDbEntity
8
1
62
256
6
ByLayer
370
13
48
1
60
0
100
AcDbSpline
70
4
71
3
72
38
73
34
40
0
40
0
40
0
40
0
40
0.125000000000002
40
0.125000000000002
40
0.250000000000004
40
0.250000000000004
40
0.375000000000005
40
0.375000000000005
40
0.500000000000007
40
0.500000000000007
40
0.562500000000009
40
0.562500000000009
40
0.625000000000011
40
0.625000000000011
40
0.687500000000013
40
0.687500000000013
40
0.750000000000015
40
0.750000000000015
40
0.812500000000017
40
0.812500000000017
40
0.843750000000016
40
0.843750000000016
40
0.875000000000014
40
0.875000000000014
40
0.890625000000013
40
0.890625000000013
40
0.906250000000013
40
0.906250000000013
40
0.921875000000012
40
0.921875000000012
40
0.937500000000011
40
0.937500000000011
40
1
40
1
40
1
40
1
41
1
10
0.342515451753002
20
-3.4925785429617
30
0
41
1
10
0.349109132165012
20
-3.51494894311929
30
0
41
1
10
0.355331427687219
20
-3.5373665764408
30
0
41
1
10
0.366978837158797
20
-3.58204241309261
30
0
41
1
10
0.372403756191801
20
-3.60429429392761
30
0
41
1
10
0.382403990572101
20
-3.64861629967081
30
0
41
1
10
0.386980762052502
20
-3.67068665325792
30
0
41
1
10
0.395132125063498
20
-3.71462084304619
30
0
41
1
10
0.398711779193803
20
-3.7364854528185
30
0
41
1
10
0.403075670552113
20
-3.7690877081935
30
0
41
1
10
0.404360996551418
20
-3.7799224236613
30
0
41
1
10
0.406509778003425
20
-3.80151359454462
30
0
41
1
10
0.407376141967319
20
-3.81230753833
30
0
41
1
10
0.408538634519204
20
-3.83358612865751
30
0
41
1
10
0.408838160772802
20
-3.84406225944579
30
0
41
1
10
0.408663114085016
20
-3.86457663508531
30
0
41
1
10
0.408196559095217
20
-3.87461913175631
30
0
41
1
10
0.406061207907015
20
-3.89403934571439
30
0
41
1
10
0.404383508870808
20
-3.90352050170071
30
0
41
1
10
0.400312069902412
20
-3.91617075805641
30
0
41
1
10
0.398693031686605
20
-3.92013882150439
30
0
41
1
10
0.394655827286016
20
-3.9273222755285
30
0
41
1
10
0.392282877919797
20
-3.9304484745004
30
0
41
1
10
0.387999865824213
20
-3.93405723613449
30
0
41
1
10
0.386432573684118
20
-3.93508560154359
30
0
41
1
10
0.383104652986816
20
-3.9366452272485
30
0
41
1
10
0.38133894336832
20
-3.93718571167702
30
0
41
1
10
0.377583699313106
20
-3.93774163455112
30
0
41
1
10
0.37558775366611
20
-3.93774923287529
30
0
41
1
10
0.371538181190317
20
-3.93723006565801
30
0
41
1
10
0.369464437358005
20
-3.9367086771924
30
0
41
1
10
0.358866299816412
20
-3.93287744688601
30
0
41
1
10
0.350371926195606
20
-3.92621892891901
30
0
41
1
10
0.342515451752405
20
-3.9183778154231
30
0
0
SPLINE
5
14A
100
AcDbEntity
8
1
62
256
6
ByLayer
370
13
48
1
60
0
100
AcDbSpline
70
4
71
3
72
8
73
4
40
0
40
0
40
0
40
0
40
1
40
1
40
1
40
1
41
1
10
0.342515451753002
20
-3.91837781542151
30
0
41
1
10
0.152330581542003
20
-3.72856479391021
30
0
41
1
10
-0.0359107758599748
20
-3.53622555384041
30
0
41
1
10
-0.221234548246997
20
-3.34009397580562
30
0
0
SPLINE
5
14B
100
AcDbEntity
8
1
62
256
6
ByLayer
370
13
48
1
60
0
100
AcDbSpline
70
4
71
3
72
10
73
6
40
0
40
0
40
0
40
0
40
0.5
40
0.5
40
1
40
1
40
1
40
1
41
1
10
-0.221234548246997
20
-3.9718368427699
30
0
41
1
10
-0.137260717488289
20
-4.19915397803399
30
0
41
1
10
-0.0478736633057792
20
-4.42341190900251
30
0
41
1
10
0.140441058768005
20
-4.86653603220012
30
0
41
1
10
0.239369665227997
20
-5.08540169401061
30
0
41
1
10
0.342515451753002
20
-5.3018840779921
30
0
0
SPLINE
5
14C
100
AcDbEntity
8
1
62
256
6
ByLayer
370
13
48
1
60
0
100
AcDbSpline
70
4
71
3
72
34
73
30
40
0
40
0
40
0
40
0
40
0.249999999999994
40
0.249999999999994
40
0.374999999999993
40
0.374999999999993
40
0.499999999999993
40
0.499999999999993
40
0.562499999999994
40
0.562499999999994
40
0.624999999999995
40
0.624999999999995
40
0.687499999999997
40
0.687499999999997
40
0.749999999999998
40
0.749999999999998
40
0.781250000000001
40
0.781250000000001
40
0.812500000000003
40
0.812500000000003
40
0.875000000000002
40
0.875000000000002
40
0.906250000000002
40
0.906250000000002
40
0.937500000000001
40
0.937500000000001
40
0.968750000000001
40
0.968750000000001
40
1
40
1
40
1
40
1
41
1
10
0.342515451753002
20
-5.3018840779921
30
0
41
1
10
0.356914862668219
20
-5.3321055626291
30
0
41
1
10
0.3695827073376
20
-5.3622447774984
30
0
41
1
10
0.385639398476513
20
-5.4071642844628
30
0
41
1
10
0.390429181285015
20
-5.4219209737029
30
0
41
1
10
0.398672075597006
20
-5.450923239037
30
0
41
1
10
0.402135708234425
20
-5.46517253314121
30
0
41
1
10
0.405931915151825
20
-5.48602079036792
30
0
41
1
10
0.406961217620704
20
-5.49290379245329
30
0
41
1
10
0.408379512822421
20
-5.50618270944111
30
0
41
1
10
0.408776665260319
20
-5.5126060532593
30
0
41
1
10
0.408753762509804
20
-5.5248923220833
30
0
41
1
10
0.408330457424711
20
-5.53080305039961
30
0
41
1
10
0.4063316187883
20
-5.54160093077789
30
0
41
1
10
0.404778987925823
20
-5.54644391387521
30
0
41
1
10
0.401243469686506
20
-5.55250733034529
30
0
41
1
10
0.399855074196921
20
-5.55432152278189
30
0
41
1
10
0.396677156068307
20
-5.55734410014119
30
0
41
1
10
0.394880186416714
20
-5.558569379538
30
0
41
1
10
0.388759390633425
20
-5.5612457007704
30
0
41
1
10
0.383939645908612
20
-5.5615884568895
30
0
41
1
10
0.375656037455315
20
-5.5598861373004
30
0
41
1
10
0.372772136780213
20
-5.5589559200169
30
0
41
1
10
0.366925164292297
20
-5.55651237690461
30
0
41
1
10
0.3639398438564
20
-5.55499420687391
30
0
41
1
10
0.357860780888899
20
-5.5514397640992
30
0
41
1
10
0.354754236431518
20
-5.54939142546411
30
0
41
1
10
0.348613365982601
20
-5.54495860700231
30
0
41
1
10
0.345558080866425
20
-5.54256337157761
30
0
41
1
10
0.342515451753002
20
-5.5400192127475
30
0
0
SPLINE
5
14D
100
AcDbEntity
8
1
62
256
6
ByLayer
370
13
48
1
60
0
100
AcDbSpline
70
4
71
3
72
8
73
4
40
0
40
0
40
0
40
0
40
1
40
1
40
1
40
1
41
1
10
0.342515451753002
20
-5.54001921274701
30
0
41
1
10
0.158490696831109
20
-5.3861430130064
30
0
41
1
10
-0.0254122140484014
20
-5.23207294374171
30
0
41
1
10
-0.209157402711781
20
-5.0777519181695
30
0
0
SPLINE
5
14E
100
AcDbEntity
8
1
62
256
6
ByLayer
370
13
48
1
60
0
100
AcDbSpline
70
4
71
3
72
8
73
4
40
0
40
0
40
0
40
0
40
1
40
1
40
1
40
1
41
1
10
-0.209157402711781
20
-5.0777519181695
30
0
41
1
10
-0.207376680754891
20
-5.20034195381629
30
0
41
1
10
-0.211201505855399
20
-5.3147750702442
30
0
41
1
10
-0.22071452956439
20
-5.4209309969394
30
0
0
SPLINE
5
14F
100
AcDbEntity
8
1
62
256
6
ByLayer
370
13
48
1
60
0
100
AcDbSpline
70
4
71
3
72
8
73
4
40
0
40
0
40
0
40
0
40
1
40
1
40
1
40
1
41
1
10
-0.22071452956439
20
-5.4209309969394
30
0
41
1
10
-0.0416211087041916
20
-5.7523099200148
30
0
41
1
10
0.146757558258201
20
-6.07653120120949
30
0
41
1
10
0.342515451753002
20
-6.39506411827301
30
0
0
SPLINE
5
150
100
AcDbEntity
8
1
62
256
6
ByLayer
370
13
48
1
60
0
100
AcDbSpline
70
4
71
3
72
30
73
26
40
0
40
0
40
0
40
0
40
0.125000000000003
40
0.125000000000003
40
0.250000000000005
40
0.250000000000005
40
0.375000000000008
40
0.375000000000008
40
0.500000000000011
40
0.500000000000011
40
0.562500000000009
40
0.562500000000009
40
0.625000000000008
40
0.625000000000008
40
0.687500000000007
40
0.687500000000007
40
0.750000000000005
40
0.750000000000005
40
0.812500000000004
40
0.812500000000004
40
0.875000000000003
40
0.875000000000003
40
0.937500000000001
40
0.937500000000001
40
1
40
1
40
1
40
1
41
1
10
0.342515451753002
20
-6.39506411827301
30
0
41
1
10
0.350056878990898
20
-6.40733536197109
30
0
41
1
10
0.35716006261822
20
-6.41955590511449
30
0
41
1
10
0.370451322198818
20
-6.443885277341
30
0
41
1
10
0.376632661279501
20
-6.45599063225529
30
0
41
1
10
0.387698772659718
20
-6.47956326401891
30
0
41
1
10
0.392623138557099
20
-6.49109306665821
30
0
41
1
10
0.400920143826909
20
-6.51349881210692
30
0
41
1
10
0.404297744128513
20
-6.52442145861781
30
0
41
1
10
0.407458171949514
20
-6.53935368922029
30
0
41
1
10
0.408202044094622
20
-6.5441138498046
30
0
41
1
10
0.408896733789106
20
-6.5530807193997
30
0
41
1
10
0.408837742164309
20
-6.55726586624439
30
0
41
1
10
0.407705365996407
20
-6.56460401738559
30
0
41
1
10
0.406626773170416
20
-6.56781815442841
30
0
41
1
10
0.403196538171301
20
-6.57290143462069
30
0
41
1
10
0.400890943257224
20
-6.574719214195
30
0
41
1
10
0.394891834481001
20
-6.57666395818509
30
0
41
1
10
0.391310671117907
20
-6.57673972458201
30
0
41
1
10
0.383141939012319
20
-6.575167514735
30
0
41
1
10
0.378487023919519
20
-6.5734807703918
30
0
41
1
10
0.368792799698298
20
-6.56875798065391
30
0
41
1
10
0.363641804497405
20
-6.5656850400236
30
0
41
1
10
0.353149183809222
20
-6.55856011079871
30
0
41
1
10
0.34785224299182
20
-6.5545486320745
30
0
41
1
10
0.342515451753002
20
-6.5501863633512
30
0
0
SPLINE
5
151
100
AcDbEntity
8
1
62
256
6
ByLayer
370
13
48
1
60
0
100
AcDbSpline
70
4
71
3
72
8
73
4
40
0
40
0
40
0
40
0
40
1
40
1
40
1
40
1
41
1
10
0.342515451753002
20
-6.550186363351
30
0
41
1
10
0.154593567717399
20
-6.39657987576561
30
0
41
1
10
-0.0333234938021008
20
-6.2429655212413
30
0
41
1
10
-0.221234548246997
20
-6.08934136997971
30
0
0
SPLINE
5
152
100
AcDbEntity
8
1
62
256
6
ByLayer
370
13
48
1
60
0
100
AcDbSpline
70
4
71
3
72
8
73
4
40
0
40
0
40
0
40
0
40
1
40
1
40
1
40
1
41
1
10
-0.221234548246997
20
-6.3128151003051
30
0
41
1
10
-0.0379535925747803
20
-6.58306693344571
30
0
41
1
10
0.150282075204018
20
-6.84864969475692
30
0
41
1
10
0.342515451753002
20
-7.11046521611541
30
0
0
SPLINE
5
153
100
AcDbEntity
8
1
62
256
6
ByLayer
370
13
48
1
60
0
100
AcDbSpline
70
4
71
3
72
36
73
32
40
0
40
0
40
0
40
0
40
0.124999999999997
40
0.124999999999997
40
0.249999999999994
40
0.249999999999994
40
0.312499999999995
40
0.312499999999995
40
0.374999999999996
40
0.374999999999996
40
0.437499999999997
40
0.437499999999997
40
0.499999999999999
40
0.499999999999999
40
0.5625
40
0.5625
40
0.625000000000001
40
0.625000000000001
40
0.687500000000002
40
0.687500000000002
40
0.750000000000003
40
0.750000000000003
40
0.781250000000004
40
0.781250000000004
40
0.812500000000005
40
0.812500000000005
40
0.875000000000003
40
0.875000000000003
40
0.937500000000002
40
0.937500000000002
40
1
40
1
40
1
40
1
41
1
10
0.342515451753002
20
-7.11046521611541
30
0
41
1
10
0.350349534083421
20
-7.12113497797731
30
0
41
1
10
0.357811192403716
20
-7.13176953474871
30
0
41
1
10
0.371656074714423
20
-7.15256392975701
30
0
41
1
10
0.378027383802504
20
-7.16269731731111
30
0
41
1
10
0.386619975253609
20
-7.17743049946929
30
0
41
1
10
0.389322024715
20
-7.1822630724264
30
0
41
1
10
0.394351300303725
20
-7.1917462380483
30
0
41
1
10
0.396676857194819
20
-7.19639769013389
30
0
41
1
10
0.400784752436607
20
-7.2052734350475
30
0
41
1
10
0.402582083583098
20
-7.20952421988039
30
0
41
1
10
0.405574254142124
20
-7.21758689857839
30
0
41
1
10
0.406774962872305
20
-7.2214197193542
30
0
41
1
10
0.4083975699306
20
-7.22844404898291
30
0
41
1
10
0.408812070686707
20
-7.23159076013769
30
0
41
1
10
0.408710567773397
20
-7.23702978956982
30
0
41
1
10
0.408178585324805
20
-7.23934105633361
30
0
41
1
10
0.406034112408207
20
-7.24276227267461
30
0
41
1
10
0.404436622144004
20
-7.24389108648322
30
0
41
1
10
0.400066968157404
20
-7.2448534389757
30
0
41
1
10
0.397371264078714
20
-7.24466323483492
30
0
41
1
10
0.392659232700112
20
-7.24344433109391
30
0
41
1
10
0.390974292012203
20
-7.24288206813821
30
0
41
1
10
0.387378496838124
20
-7.24144997784839
30
0
41
1
10
0.385460756323113
20
-7.24057532287671
30
0
41
1
10
0.379535205714916
20
-7.23758143696591
30
0
41
1
10
0.3753109229485
20
-7.23508019941269
30
0
41
1
10
0.366396980479919
20
-7.2292244176042
30
0
41
1
10
0.361702661763616
20
-7.22586045390329
30
0
41
1
10
0.352229719868518
20
-7.21863450555909
30
0
41
1
10
0.347408568830616
20
-7.21474504850892
30
0
41
1
10
0.342515451753002
20
-7.2106220333819
30
0
0
SPLINE
5
154
100
AcDbEntity
8
1
62
256
6
ByLayer
370
13
48
1
60
0
100
AcDbSpline
70
4
71
3
72
8
73
4
40
0
40
0
40
0
40
0
40
1
40
1
40
1
40
1
41
1
10
0.342515451753002
20
-7.21062203338181
30
0
41
1
10
0.154458049266225
20
-7.05216199596501
30
0
41
1
10
-0.0334683322718945
20
-6.89349507955819
30
0
41
1
10
-0.221234548246997
20
-6.7345752655024
30
0
0
SPLINE
5
155
100
AcDbEntity
8
1
62
256
6
ByLayer
370
13
48
1
60
0
100
AcDbSpline
70
4
71
3
72
8
73
4
40
0
40
0
40
0
40
0
40
1
40
1
40
1
40
1
41
1
10
-0.221234548246997
20
-6.87038631576021
30
0
41
1
10
-0.0359901037379018
20
-7.10190722900239
30
0
41
1
10
0.152101279148525
20
-7.33030766654241
30
0
41
1
10
0.342515451753002
20
-7.5561621378842
30
0
0
SPLINE
5
156
100
AcDbEntity
8
1
62
256
6
ByLayer
370
13
48
1
60
0
100
AcDbSpline
70
4
71
3
72
30
73
26
40
0
40
0
40
0
40
0
40
0.124999999999995
40
0.124999999999995
40
0.24999999999999
40
0.24999999999999
40
0.31249999999999
40
0.31249999999999
40
0.374999999999991
40
0.374999999999991
40
0.437499999999991
40
0.437499999999991
40
0.499999999999992
40
0.499999999999992
40
0.562499999999992
40
0.562499999999992
40
0.624999999999993
40
0.624999999999993
40
0.687499999999993
40
0.687499999999993
40
0.749999999999994
40
0.749999999999994
40
0.874999999999997
40
0.874999999999997
40
1
40
1
40
1
40
1
41
1
10
0.342515451753002
20
-7.5561621378842
30
0
41
1
10
0.350618922077501
20
-7.5657738436787
30
0
41
1
10
0.358337901605324
20
-7.57521790434632
30
0
41
1
10
0.372826500761818
20
-7.5936280371084
30
0
41
1
10
0.379464214379908
20
-7.60242424782251
30
0
41
1
10
0.388332155076512
20
-7.6148768445839
30
0
41
1
10
0.39110492692231
20
-7.61890289132719
30
0
41
1
10
0.396216759302803
20
-7.6266584116355
30
0
41
1
10
0.398520988594612
20
-7.63033660227489
30
0
41
1
10
0.402508915194005
20
-7.63715806939339
30
0
41
1
10
0.404202165378109
20
-7.64031511335639
30
0
41
1
10
0.406872120998997
20
-7.6460244669577
30
0
41
1
10
0.407838394663713
20
-7.64856634365012
30
0
41
1
10
0.408852365893523
20
-7.65274149007379
30
0
41
1
10
0.408910665978425
20
-7.65441284660702
30
0
41
1
10
0.408006179073197
20
-7.65671469221022
30
0
41
1
10
0.407058480277925
20
-7.6573360761106
30
0
41
1
10
0.404147316671811
20
-7.6574961945845
30
0
41
1
10
0.402156135249498
20
-7.65701505452489
30
0
41
1
10
0.397356985530308
20
-7.65502612825
30
0
41
1
10
0.394537306450104
20
-7.65352634099409
30
0
41
1
10
0.384896020051002
20
-7.64761103816431
30
0
41
1
10
0.377282342396711
20
-7.6420327354416
30
0
41
1
10
0.360529156824413
20
-7.62865016557831
30
0
41
1
10
0.351693169418098
20
-7.62109156250202
30
0
41
1
10
0.342515451753002
20
-7.61289688404531
30
0
0
SPLINE
5
157
100
AcDbEntity
8
1
62
256
6
ByLayer
370
13
48
1
60
0
100
AcDbSpline
70
4
71
3
72
8
73
4
40
0
40
0
40
0
40
0
40
1
40
1
40
1
40
1
41
1
10
0.342515451753002
20
-7.61289688404531
30
0
41
1
10
0.154189499859115
20
-7.44474280945519
30
0
41
1
10
-0.0337543558514994
20
-7.27602144802481
30
0
41
1
10
-0.221234548246997
20
-7.10661169945939
30
0
0
SPLINE
5
158
100
AcDbEntity
8
1
62
256
6
ByLayer
370
13
48
1
60
0
100
AcDbSpline
70
4
71
3
72
8
73
4
40
0
40
0
40
0
40
0
40
1
40
1
40
1
40
1
41
1
10
16.5487838228894
20
8.35143180679029
30
0
41
1
10
16.54646556761
20
8.344778213209
30
0
41
1
10
16.5441466508894
20
8.33812313119299
30
0
41
1
10
16.5418270314625
20
8.33146646939119
30
0
0
SPLINE
5
159
100
AcDbEntity
8
1
62
256
6
ByLayer
370
13
48
1
60
0
100
AcDbSpline
70
4
71
3
72
26
73
22
40
0
40
0
40
0
40
0
40
0.249999999999999
40
0.249999999999999
40
0.374999999999998
40
0.374999999999998
40
0.499999999999997
40
0.499999999999997
40
0.624999999999997
40
0.624999999999997
40
0.687499999999997
40
0.687499999999997
40
0.749999999999998
40
0.749999999999998
40
0.812499999999998
40
0.812499999999998
40
0.874999999999999
40
0.874999999999999
40
0.937499999999999
40
0.937499999999999
40
1
40
1
40
1
40
1
41
1
10
16.8160624877328
20
8.43733413536219
30
0
41
1
10
16.78952545175
20
8.44441376933429
30
0
41
1
10
16.7623831283834
20
8.4491953956576
30
0
41
1
10
16.7213810363449
20
8.45230483122
30
0
41
1
10
16.7076610605671
20
8.45265469424371
30
0
41
1
10
16.6803259268103
20
8.45171166743461
30
0
41
1
10
16.6666808921026
20
8.4504206781746
30
0
41
1
10
16.6398446964843
20
8.44573591304729
30
0
41
1
10
16.6266155266691
20
8.44234393866259
30
0
41
1
10
16.6076709610993
20
8.4350839698559
30
0
41
1
10
16.6015284338698
20
8.4323058171563
30
0
41
1
10
16.5897611477765
20
8.425900432752
30
0
41
1
10
16.5841412490915
20
8.42226772734909
30
0
41
1
10
16.5738581500185
20
8.41416774105039
30
0
41
1
10
16.5691528819928
20
8.4096827613304
30
0
41
1
10
16.5608485150116
20
8.3996225039555
30
0
41
1
10
16.5573731679703
20
8.39417065376199
30
0
41
1
10
16.552057039816
20
8.38262797017751
30
0
41
1
10
16.5502013452841
20
8.37644754333141
30
0
41
1
10
16.548268108224
20
8.36406039080799
30
0
41
1
10
16.5481465036785
20
8.35773528036469
30
0
41
1
10
16.5487838228894
20
8.35143180679029
30
0
0
SPLINE
5
15A
100
AcDbEntity
8
1
62
256
6
ByLayer
370
13
48
1
60
0
100
AcDbSpline
70
4
71
3
72
26
73
22
40
0
40
0
40
0
40
0
40
0.249999999999999
40
0.249999999999999
40
0.374999999999999
40
0.374999999999999
40
0.499999999999999
40
0.499999999999999
40
0.624999999999998
40
0.624999999999998
40
0.687499999999999
40
0.687499999999999
40
0.749999999999999
40
0.749999999999999
40
0.812499999999999
40
0.812499999999999
40
0.874999999999999
40
0.874999999999999
40
0.9375
40
0.9375
40
1
40
1
40
1
40
1
41
1
10
15.8164772672672
20
8.17168727094341
30
0
41
1
10
15.8358901203092
20
8.1909784139394
30
0
41
1
10
15.856933223298
20
8.2085656591934
30
0
41
1
10
15.8906969930456
20
8.231544652991
30
0
41
1
10
15.9023263384803
20
8.23863127798089
30
0
41
1
10
15.926278218287
20
8.2513181389088
30
0
41
1
10
15.9386256242302
20
8.25693482516868
30
0
41
1
10
15.9639246771485
20
8.26610537224079
30
0
41
1
10
15.9769083426244
20
8.2696796448154
30
0
41
1
10
15.9966279622928
20
8.27269495755888
30
0
41
1
10
16.0032206554974
20
8.2733012800463
30
0
41
1
10
16.0163560906629
20
8.27351397050191
30
0
41
1
10
16.0228971919676
20
8.27311313712889
30
0
41
1
10
16.03554193762
20
8.27110638823939
30
0
41
1
10
16.0416901309606
20
8.26950579288319
30
0
41
1
10
16.0535365432789
20
8.26480074807731
30
0
41
1
10
16.0590704820403
20
8.26174317950699
30
0
41
1
10
16.0690201518805
20
8.25425749005061
30
0
41
1
10
16.0734902795594
20
8.24975819533879
30
0
41
1
10
16.0809029847889
20
8.23985479328869
30
0
41
1
10
16.0839385567123
20
8.23436872489239
30
0
41
1
10
16.0863069022009
20
8.22852528383291
30
0
0
SPLINE
5
15B
100
AcDbEntity
8
1
62
256
6
ByLayer
370
13
48
1
60
0
100
AcDbSpline
70
4
71
3
72
8
73
4
40
0
40
0
40
0
40
0
40
1
40
1
40
1
40
1
41
1
10
16.0863069022009
20
8.22852528383291
30
0
41
1
10
16.0913968348547
20
8.22384046875621
30
0
41
1
10
16.0964883728053
20
8.21915476764639
30
0
41
1
10
16.101581616765
20
8.21446812688399
30
0
0
SPLINE
5
15C
100
AcDbEntity
8
1
62
256
6
ByLayer
370
13
48
1
60
0
100
AcDbSpline
70
4
71
3
72
30
73
26
40
0
40
0
40
0
40
0
40
0.0625000000000004
40
0.0625000000000004
40
0.125000000000001
40
0.125000000000001
40
0.250000000000001
40
0.250000000000001
40
0.375000000000001
40
0.375000000000001
40
0.500000000000001
40
0.500000000000001
40
0.625000000000001
40
0.625000000000001
40
0.687500000000001
40
0.687500000000001
40
0.750000000000001
40
0.750000000000001
40
0.812500000000001
40
0.812500000000001
40
0.875
40
0.875
40
0.9375
40
0.9375
40
1
40
1
40
1
40
1
41
1
10
16.101581616765
20
8.21446812688399
30
0
41
1
10
16.1089109784741
20
8.2077238818373
30
0
41
1
10
16.1171002427473
20
8.20217878739788
30
0
41
1
10
16.1346831908999
20
8.19272876179821
30
0
41
1
10
16.1441233673567
20
8.1888368992401
30
0
41
1
10
16.1732296460408
20
8.17937936915149
30
0
41
1
10
16.1939205337286
20
8.17587500621099
30
0
41
1
10
16.2359755458029
20
8.1729647277964
30
0
41
1
10
16.2574015382578
20
8.1735709021352
30
0
41
1
10
16.3002654901597
20
8.17822092986279
30
0
41
1
10
16.3215040036985
20
8.18223462370469
30
0
41
1
10
16.3635915012046
20
8.19346039364379
30
0
41
1
10
16.3839649069408
20
8.20054544498601
30
0
41
1
10
16.4135059156772
20
8.21342511148379
30
0
41
1
10
16.4231811541183
20
8.21809815419971
30
0
41
1
10
16.4421559712986
20
8.22828078923689
30
0
41
1
10
16.4514560490348
20
8.23379776736979
30
0
41
1
10
16.4692340711327
20
8.2455325691034
30
0
41
1
10
16.4777638739661
20
8.25177446557271
30
0
41
1
10
16.4940013329278
20
8.2651380722767
30
0
41
1
10
16.5017463168753
20
8.27229357813829
30
0
41
1
10
16.5160391092946
20
8.28758176704869
30
0
41
1
10
16.5225078162084
20
8.29561495288721
30
0
41
1
10
16.5337086168394
20
8.31271219451051
30
0
41
1
10
16.5384799615097
20
8.32186131070191
30
0
41
1
10
16.5418270314625
20
8.33146646939099
30
0
0
SPLINE
5
15D
100
AcDbEntity
8
1
62
256
6
ByLayer
370
13
48
1
60
0
100
AcDbSpline
70
4
71
3
72
34
73
30
40
0
40
0
40
0
40
0
40
0.0625000000000001
40
0.0625000000000001
40
0.125
40
0.125
40
0.25
40
0.25
40
0.3125
40
0.3125
40
0.375
40
0.375
40
0.500000000000001
40
0.500000000000001
40
0.562500000000001
40
0.562500000000001
40
0.625000000000001
40
0.625000000000001
40
0.687500000000001
40
0.687500000000001
40
0.750000000000001
40
0.750000000000001
40
0.875000000000001
40
0.875000000000001
40
0.937500000000001
40
0.937500000000001
40
0.96875
40
0.96875
40
1
40
1
40
1
40
1
41
1
10
17.3258247951137
20
7.88786067904141
30
0
41
1
10
17.3163031781664
20
7.88561921069208
30
0
41
1
10
17.306626158857
20
7.8848435503958
30
0
41
1
10
17.2870330066931
20
7.885312559315
30
0
41
1
10
17.2770828599581
20
7.88659151596949
30
0
41
1
10
17.2476243637558
20
7.8927461087905
30
0
41
1
10
17.2282165015545
20
7.89992706010361
30
0
41
1
10
17.2001704005475
20
7.91360671574088
30
0
41
1
10
17.1910051077322
20
7.91865591624099
30
0
41
1
10
17.1729905855866
20
7.92963777274738
30
0
41
1
10
17.1641429586644
20
7.93557375752991
30
0
41
1
10
17.1382826543601
20
7.9544657881097
30
0
41
1
10
17.1218621255351
20
7.96855341255429
30
0
41
1
10
17.0987680390746
20
7.99150518357899
30
0
41
1
10
17.0913613182031
20
7.9994260403551
30
0
41
1
10
17.0771335996364
20
8.01581084915819
30
0
41
1
10
17.070296804489
20
8.0242969145643
30
0
41
1
10
17.0573439923365
20
8.0417064690491
30
0
41
1
10
17.0512236122519
20
8.0506304943421
30
0
41
1
10
17.0397481824638
20
8.06895350892191
30
0
41
1
10
17.0343987281028
20
8.07834837701779
30
0
41
1
10
17.0198185808577
20
8.10701295496449
30
0
41
1
10
17.0119157361236
20
8.12691541179478
30
0
41
1
10
17.00446391831
20
8.15751661999741
30
0
41
1
10
17.0027546547127
20
8.1677038151264
30
0
41
1
10
17.0016788180437
20
8.1829805884305
30
0
41
1
10
17.0015704801441
20
8.18807218389341
30
0
41
1
10
17.0019580813036
20
8.1982569973988
30
0
41
1
10
17.0024574502252
20
8.20335034808539
30
0
41
1
10
17.0033170024114
20
8.20834872262139
30
0
0
SPLINE
5
15E
100
AcDbEntity
8
1
62
256
6
ByLayer
370
13
48
1
60
0
100
AcDbSpline
70
4
71
3
72
8
73
4
40
0
40
0
40
0
40
0
40
1
40
1
40
1
40
1
41
1
10
17.3456985722237
20
7.89254081076831
30
0
41
1
10
17.3390759995711
20
7.8909806947168
30
0
41
1
10
17.3324514484534
20
7.88942064871941
30
0
41
1
10
17.3258247951137
20
7.88786067904141
30
0
0
SPLINE
5
15F
100
AcDbEntity
8
1
62
256
6
ByLayer
370
13
48
1
60
0
100
AcDbSpline
70
4
71
3
72
28
73
24
40
0
40
0
40
0
40
0
40
0.0625000000000002
40
0.0625000000000002
40
0.125
40
0.125
40
0.1875
40
0.1875
40
0.250000000000001
40
0.250000000000001
40
0.312500000000001
40
0.312500000000001
40
0.375000000000001
40
0.375000000000001
40
0.437500000000001
40
0.437500000000001
40
0.500000000000001
40
0.500000000000001
40
0.625000000000001
40
0.625000000000001
40
0.750000000000001
40
0.750000000000001
40
1
40
1
40
1
40
1
41
1
10
17.0069047861045
20
8.22921285450599
30
0
41
1
10
17.0104941556782
20
8.2343931958431
30
0
41
1
10
17.013401052564
20
8.23989985867661
30
0
41
1
10
17.0176979476226
20
8.25163809176669
30
0
41
1
10
17.0190778746036
20
8.25796407638128
30
0
41
1
10
17.0200426296053
20
8.27066704820851
30
0
41
1
10
17.019666767664
20
8.27713212023158
30
0
41
1
10
17.0173174729404
20
8.29008192374619
30
0
41
1
10
17.0153880647697
20
8.29638744683788
30
0
41
1
10
17.010302206034
20
8.30871582825009
30
0
41
1
10
17.0071496925175
20
8.31469979817621
30
0
41
1
10
17.0000659582596
20
8.32605821803179
30
0
41
1
10
16.9961103290279
20
8.33148830601451
30
0
41
1
10
16.9875307334955
20
8.34194166615771
30
0
41
1
10
16.9828900005789
20
8.34697652008481
30
0
41
1
10
16.9731914655367
20
8.35654964015771
30
0
41
1
10
16.9681187095077
20
8.3611080355407
30
0
41
1
10
16.9523365628998
20
8.3742042364172
30
0
41
1
10
16.9411141035676
20
8.38212803587959
30
0
41
1
10
16.917798896585
20
8.39659128951931
30
0
41
1
10
16.9057132883296
20
8.403123530599
30
0
41
1
10
16.8685290406741
20
8.42087931012429
30
0
41
1
10
16.8426031212643
20
8.43025354162469
30
0
41
1
10
16.8160624877328
20
8.43733413536219
30
0
0
SPLINE
5
160
100
AcDbEntity
8
1
62
256
6
ByLayer
370
13
48
1
60
0
100
AcDbSpline
70
4
71
3
72
8
73
4
40
0
40
0
40
0
40
0
40
1
40
1
40
1
40
1
41
1
10
17.0033170024114
20
8.20834872262139
30
0
41
1
10
17.0045132614106
20
8.21530507805329
30
0
41
1
10
17.0057091827251
20
8.2222597563179
30
0
41
1
10
17.0069047861045
20
8.22921285450599
30
0
0
SPLINE
5
161
100
AcDbEntity
8
1
62
256
6
ByLayer
370
13
48
1
60
0
100
AcDbSpline
70
4
71
3
72
26
73
22
40
0
40
0
40
0
40
0
40
0.250000000000001
40
0.250000000000001
40
0.375000000000001
40
0.375000000000001
40
0.500000000000002
40
0.500000000000002
40
0.625000000000003
40
0.625000000000003
40
0.687500000000002
40
0.687500000000002
40
0.750000000000002
40
0.750000000000002
40
0.812500000000001
40
0.812500000000001
40
0.875000000000001
40
0.875000000000001
40
0.937500000000001
40
0.937500000000001
40
1
40
1
40
1
40
1
41
1
10
17.548322296259
20
7.70966020395099
30
0
41
1
10
17.5411981133181
20
7.73603098091911
30
0
41
1
10
17.5318330300321
20
7.7617306178027
30
0
41
1
10
17.5142228353279
20
7.7984153195118
30
0
41
1
10
17.5077490522751
20
7.8103315540906
30
0
41
1
10
17.4934771522736
20
7.8332158752869
30
0
41
1
10
17.4856657796741
20
7.84421058392661
30
0
41
1
10
17.4685156800603
20
7.8647058494997
30
0
41
1
10
17.4591594698065
20
7.8742400244256
30
0
41
1
10
17.4437721698799
20
7.886621271661
30
0
41
1
10
17.4384319369328
20
7.89041109774038
30
0
41
1
10
17.4273075873641
20
7.89709588991349
30
0
41
1
10
17.421521372143
20
7.89998377683759
30
0
41
1
10
17.4097376692638
20
7.90449412632441
30
0
41
1
10
17.4037046816614
20
7.9061432647546
30
0
41
1
10
17.3912943210215
20
7.90790951817519
30
0
41
1
10
17.3850801644719
20
7.90798614344351
30
0
41
1
10
17.3729445382552
20
7.9063924387722
30
0
41
1
10
17.3669420881608
20
7.9046870513163
30
0
41
1
10
17.3558061419417
20
7.8997321168726
30
0
41
1
10
17.3505534106024
20
7.89645722810408
30
0
41
1
10
17.3456985722237
20
7.89254081076831
30
0
0
SPLINE
5
162
100
AcDbEntity
8
1
62
256
6
ByLayer
370
13
48
1
60
0
100
AcDbSpline
70
4
71
3
72
32
73
28
40
0
40
0
40
0
40
0
40
0.0624999999999997
40
0.0624999999999997
40
0.124999999999999
40
0.124999999999999
40
0.187499999999999
40
0.187499999999999
40
0.249999999999999
40
0.249999999999999
40
0.374999999999999
40
0.374999999999999
40
0.499999999999999
40
0.499999999999999
40
0.562499999999999
40
0.562499999999999
40
0.624999999999999
40
0.624999999999999
40
0.687499999999999
40
0.687499999999999
40
0.749999999999999
40
0.749999999999999
40
0.874999999999999
40
0.874999999999999
40
0.9375
40
0.9375
40
1
40
1
40
1
40
1
41
1
10
15.6462464954803
20
7.44150082926728
30
0
41
1
10
15.6552804514909
20
7.4441921760988
30
0
41
1
10
15.6637302536922
20
7.44825113369919
30
0
41
1
10
15.6798517677409
20
7.45826484728929
30
0
41
1
10
15.6875385327458
20
7.4642745686406
30
0
41
1
10
15.701839277062
20
7.4774051325596
30
0
41
1
10
15.7085277761621
20
7.48457250693599
30
0
41
1
10
15.721180957065
20
7.49989820913029
30
0
41
1
10
15.7271739148454
20
7.50810817574109
30
0
41
1
10
15.7439633537644
20
7.5337184399755
30
0
41
1
10
15.7535590131107
20
7.55196606540829
30
0
41
1
10
15.7702144289054
20
7.59044797704141
30
0
41
1
10
15.7772824410998
20
7.61081257487879
30
0
41
1
10
15.785752052873
20
7.64217061333031
30
0
41
1
10
15.7882121529565
20
7.6527229983057
30
0
41
1
10
15.7923998077658
20
7.67401862660839
30
0
41
1
10
15.7941306722661
20
7.6847905525224
30
0
41
1
10
15.7967966411444
20
7.7063726897116
30
0
41
1
10
15.7977348434901
20
7.71718372840579
30
0
41
1
10
15.7987579901214
20
7.73885101434809
30
0
41
1
10
15.798840247945
20
7.7497027832444
30
0
41
1
10
15.7976427632458
20
7.7819635371705
30
0
41
1
10
15.7949674192681
20
7.8032772439839
30
0
41
1
10
15.7869023672586
20
7.83377037311061
30
0
41
1
10
15.7835326324156
20
7.84365358580061
30
0
41
1
10
15.7751185453101
20
7.8623348240298
30
0
41
1
10
15.7701212176539
20
7.87108029532871
30
0
41
1
10
15.7639841174755
20
7.8789872153545
30
0
0
SPLINE
5
163
100
AcDbEntity
8
1
62
256
6
ByLayer
370
13
48
1
60
0
100
AcDbSpline
70
4
71
3
72
8
73
4
40
0
40
0
40
0
40
0
40
1
40
1
40
1
40
1
41
1
10
15.7639841174755
20
7.8789872153545
30
0
41
1
10
15.7597126544754
20
7.88449048487141
30
0
41
1
10
15.7554426304572
20
7.88999254938281
30
0
41
1
10
15.751173960448
20
7.89549347814881
30
0
0
SPLINE
5
164
100
AcDbEntity
8
1
62
256
6
ByLayer
370
13
48
1
60
0
100
AcDbSpline
70
4
71
3
72
28
73
24
40
0
40
0
40
0
40
0
40
0.0624999999999999
40
0.0624999999999999
40
0.125
40
0.125
40
0.1875
40
0.1875
40
0.25
40
0.25
40
0.3125
40
0.3125
40
0.375
40
0.375
40
0.4375
40
0.4375
40
0.5
40
0.5
40
0.625
40
0.625
40
0.75
40
0.75
40
1
40
1
40
1
40
1
41
1
10
15.751173960448
20
7.89549347814881
30
0
41
1
10
15.7457115619633
20
7.89826824790191
30
0
41
1
10
15.7406733996479
20
7.90166345488819
30
0
41
1
10
15.7315402587008
20
7.9098325606243
30
0
41
1
10
15.7274095683628
20
7.91469405958151
30
0
41
1
10
15.7206434922386
20
7.92534250818659
30
0
41
1
10
15.7179336115047
20
7.93118729815561
30
0
41
1
10
15.713858606852
20
7.94367848201259
30
0
41
1
10
15.7125401538481
20
7.95014637077469
30
0
41
1
10
15.7110777116731
20
7.9634377008461
30
0
41
1
10
15.7109486271298
20
7.97022516847309
30
0
41
1
10
15.7116393930567
20
7.98364971691311
30
0
41
1
10
15.7124538650464
20
7.9903474931393
30
0
41
1
10
15.7148442290125
20
8.00371619785139
30
0
41
1
10
15.7164289536782
20
8.0104055113008
30
0
41
1
10
15.7201892744976
20
8.0235554178098
30
0
41
1
10
15.7223681277571
20
8.03004097981159
30
0
41
1
10
15.72966160539
20
8.0492696915521
30
0
41
1
10
15.735506404721
20
8.0617292360968
30
0
41
1
10
15.7486035496741
20
8.08586933060991
30
0
41
1
10
15.7558531222371
20
8.09754003317559
30
0
41
1
10
15.7792825520883
20
8.13140432755381
30
0
41
1
10
15.7970617824813
20
8.15239351270338
30
0
41
1
10
15.8164772672672
20
8.17168727094341
30
0
0
SPLINE
5
165
100
AcDbEntity
8
1
62
256
6
ByLayer
370
13
48
1
60
0
100
AcDbSpline
70
4
71
3
72
8
73
4
40
0
40
0
40
0
40
0
40
1
40
1
40
1
40
1
41
1
10
15.6462464954803
20
7.44150082926728
30
0
41
1
10
15.6399925634341
20
7.4396376919909
30
0
41
1
10
15.6337407145478
20
7.4377757433289
30
0
41
1
10
15.6274908258788
20
7.43591491145381
30
0
0
SPLINE
5
166
100
AcDbEntity
8
1
62
256
6
ByLayer
370
13
48
1
60
0
100
AcDbSpline
70
4
71
3
72
28
73
24
40
0
40
0
40
0
40
0
40
0.0624999999999999
40
0.0624999999999999
40
0.125
40
0.125
40
0.1875
40
0.1875
40
0.25
40
0.25
40
0.3125
40
0.3125
40
0.374999999999999
40
0.374999999999999
40
0.437499999999999
40
0.437499999999999
40
0.499999999999999
40
0.499999999999999
40
0.625
40
0.625
40
0.75
40
0.75
40
1
40
1
40
1
40
1
41
1
10
15.6274908258788
20
7.43591491145381
30
0
41
1
10
15.6215651501419
20
7.43696824767198
30
0
41
1
10
15.6156935245394
20
7.43726649350688
30
0
41
1
10
15.6040708352092
20
7.43618500026989
30
0
41
1
10
15.5982472873396
20
7.43475622334819
30
0
41
1
10
15.5874045437613
20
7.43025669731651
30
0
41
1
10
15.5822948312492
20
7.42718425493419
30
0
41
1
10
15.57281520696
20
7.41959309405828
30
0
41
1
10
15.5685710873823
20
7.41518986724489
30
0
41
1
10
15.5608977786801
20
7.40540302140781
30
0
41
1
10
15.5574985695547
20
7.40003944537301
30
0
41
1
10
15.5515722820098
20
7.38887651904639
30
0
41
1
10
15.5490112441045
20
7.3830316636126
30
0
41
1
10
15.5445447632115
20
7.37092188297271
30
0
41
1
10
15.5426378529933
20
7.36463707055711
30
0
41
1
10
15.5394346935982
20
7.35191225884048
30
0
41
1
10
15.5381290756646
20
7.34545031363209
30
0
41
1
10
15.5349642812704
20
7.32581845084829
30
0
41
1
10
15.5338616375375
20
7.31246286759381
30
0
41
1
10
15.5332326265326
20
7.28559966967461
30
0
41
1
10
15.5337086286654
20
7.27210131583999
30
0
41
1
10
15.537129697126
20
7.23161906263269
30
0
41
1
10
15.5420267065798
20
7.2047408270887
30
0
41
1
10
15.5491518553254
20
7.17836647511101
30
0
0
SPLINE
5
167
100
AcDbEntity
8
1
62
256
6
ByLayer
370
13
48
1
60
0
100
AcDbSpline
70
4
71
3
72
34
73
30
40
0
40
0
40
0
40
0
40
0.0624999999999997
40
0.0624999999999997
40
0.125
40
0.125
40
0.249999999999999
40
0.249999999999999
40
0.312499999999999
40
0.312499999999999
40
0.374999999999999
40
0.374999999999999
40
0.499999999999999
40
0.499999999999999
40
0.562499999999999
40
0.562499999999999
40
0.624999999999999
40
0.624999999999999
40
0.687499999999999
40
0.687499999999999
40
0.749999999999999
40
0.749999999999999
40
0.874999999999998
40
0.874999999999998
40
0.937499999999999
40
0.937499999999999
40
0.968749999999999
40
0.968749999999999
40
1
40
1
40
1
40
1
41
1
10
17.3319796447778
20
6.99177563465489
30
0
41
1
10
17.3257399008855
20
6.9985147039277
30
0
41
1
10
17.3206671886856
20
7.00614166774719
30
0
41
1
10
17.312113010026
20
7.02264416919289
30
0
41
1
10
17.3086448789276
20
7.0315657461434
30
0
41
1
10
17.300359799193
20
7.05921725895229
30
0
41
1
10
17.2975179104921
20
7.0790698639079
30
0
41
1
10
17.2961386050891
20
7.10951161676419
30
0
41
1
10
17.2961662075345
20
7.11976675319889
30
0
41
1
10
17.2970893213076
20
7.1404879088399
30
0
41
1
10
17.2979882999065
20
7.15095437480531
30
0
41
1
10
17.3018768774403
20
7.1823735167882
30
0
41
1
10
17.3060557255863
20
7.2034464132349
30
0
41
1
10
17.3144885480636
20
7.23477511484938
30
0
41
1
10
17.3176491215047
20
7.24512434991829
30
0
41
1
10
17.3246738518545
20
7.2656337258129
30
0
41
1
10
17.3285490029382
20
7.27581875037939
30
0
41
1
10
17.3369794121104
20
7.29583007597048
30
0
41
1
10
17.3415331498832
20
7.30566026154699
30
0
41
1
10
17.3513755703739
20
7.32494243867569
30
0
41
1
10
17.3566633922245
20
7.33438760860091
30
0
41
1
10
17.3735918975248
20
7.3617608907106
30
0
41
1
10
17.3863577334576
20
7.37892570105899
30
0
41
1
10
17.408180710242
20
7.40138438244279
30
0
41
1
10
17.4158061420856
20
7.40821505929028
30
0
41
1
10
17.4279430679594
20
7.41720850184979
30
0
41
1
10
17.4321062519723
20
7.419995652023
30
0
41
1
10
17.4407200939341
20
7.4250623178763
30
0
41
1
10
17.4451724891969
20
7.42733901519279
30
0
41
1
10
17.449717266773
20
7.42926202074199
30
0
0
SPLINE
5
168
100
AcDbEntity
8
1
62
256
6
ByLayer
370
13
48
1
60
0
100
AcDbSpline
70
4
71
3
72
8
73
4
40
0
40
0
40
0
40
0
40
1
40
1
40
1
40
1
41
1
10
17.3450034591167
20
6.97771148610499
30
0
41
1
10
17.3406634943793
20
6.98239751239831
30
0
41
1
10
17.3363222496034
20
6.98708551992431
30
0
41
1
10
17.3319796447778
20
6.99177563465489
30
0
0
SPLINE
5
169
100
AcDbEntity
8
1
62
256
6
ByLayer
370
13
48
1
60
0
100
AcDbSpline
70
4
71
3
72
28
73
24
40
0
40
0
40
0
40
0
40
0.0625000000000003
40
0.0625000000000003
40
0.125000000000001
40
0.125000000000001
40
0.187500000000001
40
0.187500000000001
40
0.250000000000001
40
0.250000000000001
40
0.312500000000001
40
0.312500000000001
40
0.375000000000002
40
0.375000000000002
40
0.437500000000002
40
0.437500000000002
40
0.500000000000002
40
0.500000000000002
40
0.625000000000002
40
0.625000000000002
40
0.750000000000001
40
0.750000000000001
40
1
40
1
40
1
40
1
41
1
10
17.4686865936859
20
7.4372900528
30
0
41
1
10
17.474679805612
20
7.4370086587565
30
0
41
1
10
17.4806183642983
20
7.4374754615701
30
0
41
1
10
17.4923735943302
20
7.44007190196021
30
0
41
1
10
17.4982635788906
20
7.4422600537327
30
0
41
1
10
17.5092303890375
20
7.4481776671326
30
0
41
1
10
17.5143987680065
20
7.45192067018499
30
0
41
1
10
17.5239881550106
20
7.4607664246335
30
0
41
1
10
17.5282819171888
20
7.4657370689676
30
0
41
1
10
17.5360464659423
20
7.4765667933616
30
0
41
1
10
17.5394869342873
20
7.4824019644355
30
0
41
1
10
17.5454871626159
20
7.49441003778711
30
0
41
1
10
17.5480812835241
20
7.50063303367409
30
0
41
1
10
17.5526080414953
20
7.51343178447018
30
0
41
1
10
17.5545421853494
20
7.52002787876899
30
0
41
1
10
17.5577943952824
20
7.53331334069921
30
0
41
1
10
17.5591219491715
20
7.54002601502609
30
0
41
1
10
17.5623464445051
20
7.5603402626696
30
0
41
1
10
17.563480642797
20
7.5740565161839
30
0
41
1
10
17.5641612219896
20
7.60150914118589
30
0
41
1
10
17.563705174131
20
7.61523557341741
30
0
41
1
10
17.5603307252549
20
7.65625069091499
30
0
41
1
10
17.5554474450046
20
7.68328585197341
30
0
41
1
10
17.548322296259
20
7.70966020395099
30
0
0
SPLINE
5
16A
100
AcDbEntity
8
1
62
256
6
ByLayer
370
13
48
1
60
0
100
AcDbSpline
70
4
71
3
72
8
73
4
40
0
40
0
40
0
40
0
40
1
40
1
40
1
40
1
41
1
10
17.449717266773
20
7.42926202074199
30
0
41
1
10
17.4560423406446
20
7.43193831280479
30
0
41
1
10
17.4623654102887
20
7.4346143184523
30
0
41
1
10
17.4686865936859
20
7.4372900528
30
0
0
SPLINE
5
16B
100
AcDbEntity
8
1
62
256
6
ByLayer
370
13
48
1
60
0
100
AcDbSpline
70
4
71
3
72
26
73
22
40
0
40
0
40
0
40
0
40
0.249999999999998
40
0.249999999999998
40
0.374999999999997
40
0.374999999999997
40
0.499999999999995
40
0.499999999999995
40
0.624999999999994
40
0.624999999999994
40
0.687499999999995
40
0.687499999999995
40
0.749999999999995
40
0.749999999999995
40
0.812499999999996
40
0.812499999999996
40
0.874999999999998
40
0.874999999999998
40
0.937499999999999
40
0.937499999999999
40
1
40
1
40
1
40
1
41
1
10
17.2809968843184
20
6.71633940811981
30
0
41
1
10
17.3004097373602
20
6.7356305511158
30
0
41
1
10
17.3181801071289
20
6.7564700336508
30
0
41
1
10
17.3415487140493
20
6.7897790891478
30
0
41
1
10
17.3487849223853
20
6.801231338615
30
0
41
1
10
17.3618223964756
20
6.824764252302
30
0
41
1
10
17.367640277488
20
6.83686957145059
30
0
41
1
10
17.3772865865189
20
6.86159483496249
30
0
41
1
10
17.3811355414995
20
6.87424661065958
30
0
41
1
10
17.3846473485315
20
6.89336823239799
30
0
41
1
10
17.385432939333
20
6.89974528951629
30
0
41
1
10
17.3860385906593
20
6.9124092943276
30
0
41
1
10
17.385851667369
20
6.9186943503762
30
0
41
1
10
17.3843059627994
20
6.9307891820753
30
0
41
1
10
17.3829536436822
20
6.9366421261926
30
0
41
1
10
17.3787929924863
20
6.9478438984784
30
0
41
1
10
17.3760247954088
20
6.95303647248679
30
0
41
1
10
17.3691432776491
20
6.96227656301801
30
0
41
1
10
17.364963406968
20
6.9663730948696
30
0
41
1
10
17.3556943523487
20
6.97304698086771
30
0
41
1
10
17.3505293601699
20
6.97571011942028
30
0
41
1
10
17.3450034591167
20
6.97771148610499
30
0
0
SPLINE
5
16C
100
AcDbEntity
8
1
62
256
6
ByLayer
370
13
48
1
60
0
100
AcDbSpline
70
4
71
3
72
34
73
30
40
0
40
0
40
0
40
0
40
0.0625
40
0.0625
40
0.125
40
0.125
40
0.25
40
0.25
40
0.3125
40
0.3125
40
0.375
40
0.375
40
0.5
40
0.5
40
0.5625
40
0.5625
40
0.624999999999999
40
0.624999999999999
40
0.687499999999999
40
0.687499999999999
40
0.749999999999999
40
0.749999999999999
40
0.874999999999999
40
0.874999999999999
40
0.9375
40
0.9375
40
0.96875
40
0.96875
40
1
40
1
40
1
40
1
41
1
10
15.7701389671396
20
6.98290217096789
30
0
41
1
10
15.779558362773
20
6.98397524435251
30
0
41
1
10
15.789140040904
20
6.98366114999399
30
0
41
1
10
15.8085530069821
20
6.98113260468941
30
0
41
1
10
15.8184182044138
20
6.9788826730549
30
0
41
1
10
15.8476423342984
20
6.9700492609642
30
0
41
1
10
15.8669186046562
20
6.96136420799829
30
0
41
1
10
15.8948063841114
20
6.9458749287428
30
0
41
1
10
15.9039254429963
20
6.94029727200109
30
0
41
1
10
15.9218602525932
20
6.92840429689321
30
0
41
1
10
15.9306744508765
20
6.92208622101919
30
0
41
1
10
15.9564545620059
20
6.90227757825659
30
0
41
1
10
15.9728480997631
20
6.8878814444958
30
0
41
1
10
15.9959422139842
20
6.86492999077561
30
0
41
1
10
16.0033556729746
20
6.85708615105091
30
0
41
1
10
16.017610213794
20
6.84100792199931
30
0
41
1
10
16.024467169898
20
6.83275229738149
30
0
41
1
10
16.037473447529
20
6.8159538561122
30
0
41
1
10
16.0436270902614
20
6.80741002462329
30
0
41
1
10
16.0551822305155
20
6.7899981048393
30
0
41
1
10
16.0605781479866
20
6.7811343125214
30
0
41
1
10
16.0753164474508
20
6.7542774227106
30
0
41
1
10
16.083350316701
20
6.73587258295291
30
0
41
1
10
16.091037285111
20
6.7079591583668
30
0
41
1
10
16.0928303147514
20
6.6987294134903
30
0
41
1
10
16.0940409267384
20
6.68499312912039
30
0
41
1
10
16.0941957238958
20
6.68043256540409
30
0
41
1
10
16.0939045623795
20
6.6713500620647
30
0
41
1
10
16.0934551942419
20
6.6668282229551
30
0
41
1
10
16.0926467598419
20
6.6624141273879
30
0
0
SPLINE
5
16D
100
AcDbEntity
8
1
62
256
6
ByLayer
370
13
48
1
60
0
100
AcDbSpline
70
4
71
3
72
8
73
4
40
0
40
0
40
0
40
0
40
1
40
1
40
1
40
1
41
1
10
15.750478847341
20
6.98066415348541
30
0
41
1
10
15.7570301252654
20
6.9814093670644
30
0
41
1
10
15.7635834556254
20
6.98215535607631
30
0
41
1
10
15.7701389671396
20
6.98290217096789
30
0
0
SPLINE
5
16E
100
AcDbEntity
8
1
62
256
6
ByLayer
370
13
48
1
60
0
100
AcDbSpline
70
4
71
3
72
26
73
22
40
0
40
0
40
0
40
0
40
0.249999999999999
40
0.249999999999999
40
0.374999999999999
40
0.374999999999999
40
0.499999999999999
40
0.499999999999999
40
0.624999999999998
40
0.624999999999998
40
0.687499999999999
40
0.687499999999999
40
0.749999999999999
40
0.749999999999999
40
0.812499999999999
40
0.812499999999999
40
0.874999999999999
40
0.874999999999999
40
0.9375
40
0.9375
40
1
40
1
40
1
40
1
41
1
10
15.5491518553254
20
7.17836647511101
30
0
41
1
10
15.5562760382664
20
7.15199569814288
30
0
41
1
10
15.5656273809284
20
7.1261390052087
30
0
41
1
10
15.5831909948047
20
7.08892188220008
30
0
41
1
10
15.5896448090796
20
7.07677740344559
30
0
41
1
10
15.6038651897511
20
7.05330421361251
30
0
41
1
10
15.6116450001588
20
7.0419487474706
30
0
41
1
10
15.6287155258255
20
7.02054394752051
30
0
41
1
10
15.6380237269179
20
7.0104610253677
30
0
41
1
10
15.653320109622
20
6.9970405895248
30
0
41
1
10
15.6586269356072
20
6.99286892012401
30
0
41
1
10
15.6696767147794
20
6.98533178441861
30
0
41
1
10
15.6754217164922
20
6.9819728249378
30
0
41
1
10
15.6871152178442
20
6.9764314672781
30
0
41
1
10
15.6930990063659
20
6.97421998078229
30
0
41
1
10
15.7054000519312
20
6.97120425034231
30
0
41
1
10
15.7115554333424
20
6.9704558221672
30
0
41
1
10
15.7235670201649
20
6.97063175007429
30
0
41
1
10
15.7295032400219
20
6.97158012245299
30
0
41
1
10
15.7405064953203
20
6.97501839273349
30
0
41
1
10
15.7456914958895
20
6.97751911525771
30
0
41
1
10
15.750478847341
20
6.98066415348541
30
0
0
SPLINE
5
16F
100
AcDbEntity
8
1
62
256
6
ByLayer
370
13
48
1
60
0
100
AcDbSpline
70
4
71
3
72
8
73
4
40
0
40
0
40
0
40
0
40
1
40
1
40
1
40
1
41
1
10
16.0926467598419
20
6.6624141273879
30
0
41
1
10
16.0915216426682
20
6.65627092674239
30
0
41
1
10
16.0903969421114
20
6.65013030546331
30
0
41
1
10
16.0892726334602
20
6.64399210974779
30
0
0
SPLINE
5
170
100
AcDbEntity
8
1
62
256
6
ByLayer
370
13
48
1
60
0
100
AcDbSpline
70
4
71
3
72
28
73
24
40
0
40
0
40
0
40
0
40
0.0624999999999999
40
0.0624999999999999
40
0.125
40
0.125
40
0.1875
40
0.1875
40
0.249999999999999
40
0.249999999999999
40
0.312499999999999
40
0.312499999999999
40
0.374999999999999
40
0.374999999999999
40
0.437499999999999
40
0.437499999999999
40
0.499999999999999
40
0.499999999999999
40
0.624999999999999
40
0.624999999999999
40
0.749999999999999
40
0.749999999999999
40
1
40
1
40
1
40
1
41
1
10
16.0892726334602
20
6.64399210974779
30
0
41
1
10
16.0857508000756
20
6.63958371058538
30
0
41
1
10
16.0829108362699
20
6.63484209639338
30
0
41
1
10
16.0787464819143
20
6.62461881045579
30
0
41
1
10
16.0774329916266
20
6.6190522006996
30
0
41
1
10
16.0765923031935
20
6.60776731624048
30
0
41
1
10
16.0770268315917
20
6.60197280488759
30
0
41
1
10
16.0794858890302
20
6.59027759494569
30
0
41
1
10
16.0814649398015
20
6.58453948937461
30
0
41
1
10
16.0866420385883
20
6.57325398651929
30
0
41
1
10
16.0898358113245
20
6.56774161163238
30
0
41
1
10
16.0969934863661
20
6.55722833880159
30
0
41
1
10
16.1009821986007
20
6.5521763912723
30
0
41
1
10
16.1096220712113
20
6.54241200128519
30
0
41
1
10
16.1142900377638
20
6.5376884292412
30
0
41
1
10
16.1240376233439
20
6.52867595938199
30
0
41
1
10
16.1291323153284
20
6.5243682931175
30
0
41
1
10
16.1449741628757
20
6.51195447710069
30
0
41
1
10
16.1562281767669
20
6.50439134789821
30
0
41
1
10
16.1795949519372
20
6.49051752134119
30
0
41
1
10
16.1917005144667
20
6.48421335865851
30
0
41
1
10
16.2289313817069
20
6.46699044342338
30
0
41
1
10
16.2548710303201
20
6.4577731374373
30
0
41
1
10
16.2814116638516
20
6.4506925436998
30
0
0
SPLINE
5
171
100
AcDbEntity
8
1
62
256
6
ByLayer
370
13
48
1
60
0
100
AcDbSpline
70
4
71
3
72
34
73
30
40
0
40
0
40
0
40
0
40
0.0625
40
0.0625
40
0.125
40
0.125
40
0.250000000000001
40
0.250000000000001
40
0.312500000000001
40
0.312500000000001
40
0.375
40
0.375
40
0.5
40
0.5
40
0.5625
40
0.5625
40
0.625
40
0.625
40
0.6875
40
0.6875
40
0.75
40
0.75
40
0.875
40
0.875
40
0.9375
40
0.9375
40
0.96875
40
0.96875
40
1
40
1
40
1
40
1
41
1
10
16.5541367307907
20
6.53929638061808
30
0
41
1
10
16.5573674931888
20
6.54769272075791
30
0
41
1
10
16.5619241297091
20
6.55555046754628
30
0
41
1
10
16.5728730101705
20
6.57055419188009
30
0
41
1
10
16.5793125511554
20
6.57771132468611
30
0
41
1
10
16.6003687844643
20
6.59786883503921
30
0
41
1
10
16.6168689620429
20
6.60978843785529
30
0
41
1
10
16.6434565968711
20
6.62564572326511
30
0
41
1
10
16.6526263751665
20
6.63058743107891
30
0
41
1
10
16.6715241548109
20
6.63987117091278
30
0
41
1
10
16.6812540460126
20
6.64421060654999
30
0
41
1
10
16.7109628312632
20
6.65627941186159
30
0
41
1
10
16.7315487127003
20
6.66311042920569
30
0
41
1
10
16.7630756355184
20
6.67148751844769
30
0
41
1
10
16.7736462988905
20
6.67395440526619
30
0
41
1
10
16.7949121589333
20
6.67823226223351
30
0
41
1
10
16.8056341856427
20
6.68004644178799
30
0
41
1
10
16.8270441397067
20
6.68295376950209
30
0
41
1
10
16.8377348888879
20
6.6840500266876
30
0
41
1
10
16.8590925943999
20
6.68546473663449
30
0
41
1
10
16.8697531021664
20
6.6857805763527
30
0
41
1
10
16.9013408308213
20
6.68539312458358
30
0
41
1
10
16.9220750237462
20
6.68340428663799
30
0
41
1
10
16.9514673936425
20
6.67660565162748
30
0
41
1
10
16.9608439721049
20
6.6737278584722
30
0
41
1
10
16.9741241223067
20
6.6682147721948
30
0
41
1
10
16.9784188738482
20
6.6661758427783
30
0
41
1
10
16.986693334472
20
6.6616088502092
30
0
41
1
10
16.9906713612053
20
6.65907795262768
30
0
41
1
10
16.9943821454882
20
6.65629472312528
30
0
0
SPLINE
5
172
100
AcDbEntity
8
1
62
256
6
ByLayer
370
13
48
1
60
0
100
AcDbSpline
70
4
71
3
72
8
73
4
40
0
40
0
40
0
40
0
40
1
40
1
40
1
40
1
41
1
10
16.5473935966753
20
6.52177315746349
30
0
41
1
10
16.5496405572265
20
6.52761184857221
30
0
41
1
10
16.5518882531893
20
6.53345287360278
30
0
41
1
10
16.5541367307907
20
6.53929638061808
30
0
0
SPLINE
5
173
100
AcDbEntity
8
1
62
256
6
ByLayer
370
13
48
1
60
0
100
AcDbSpline
70
4
71
3
72
26
73
22
40
0
40
0
40
0
40
0
40
0.25
40
0.25
40
0.375
40
0.375
40
0.5
40
0.5
40
0.625000000000001
40
0.625000000000001
40
0.687500000000001
40
0.687500000000001
40
0.75
40
0.75
40
0.8125
40
0.8125
40
0.875
40
0.875
40
0.9375
40
0.9375
40
1
40
1
40
1
40
1
41
1
10
16.2814116638516
20
6.4506925436998
30
0
41
1
10
16.3079486998344
20
6.4436129097277
30
0
41
1
10
16.335077282577
20
6.4386742273538
30
0
41
1
10
16.3760327937877
20
6.43503237049191
30
0
41
1
10
16.3897328007876
20
6.43445426329251
30
0
41
1
10
16.4170164152144
20
6.43480842146479
30
0
41
1
10
16.4306298877303
20
6.43573865322259
30
0
41
1
10
16.4573865094015
20
6.43951388397301
30
0
41
1
10
16.4705676700552
20
6.4423571111306
30
0
41
1
10
16.4894213184026
20
6.4485778913299
30
0
41
1
10
16.4955304386702
20
6.45097420070809
30
0
41
1
10
16.507223154367
20
6.45652724158009
30
0
41
1
10
16.5128018395436
20
6.45968887442629
30
0
41
1
10
16.5229947370895
20
6.46675785255221
30
0
41
1
10
16.5276508060345
20
6.47068048420638
30
0
41
1
10
16.5358458579411
20
6.47949126456189
30
0
41
1
10
16.539262429844
20
6.48427131184869
30
0
41
1
10
16.544454518604
20
6.4943962186691
30
0
41
1
10
16.5462439828986
20
6.49981963043788
30
0
41
1
10
16.548044529038
20
6.5106901187981
30
0
41
1
10
16.5480984028134
20
6.5162410629971
30
0
41
1
10
16.5473935966753
20
6.52177315746349
30
0
0
SPLINE
5
174
100
AcDbEntity
8
1
62
256
6
ByLayer
370
13
48
1
60
0
100
AcDbSpline
70
4
71
3
72
28
73
24
40
0
40
0
40
0
40
0
40
0.0624999999999998
40
0.0624999999999998
40
0.125
40
0.125
40
0.187499999999999
40
0.187499999999999
40
0.249999999999999
40
0.249999999999999
40
0.312499999999999
40
0.312499999999999
40
0.374999999999999
40
0.374999999999999
40
0.4375
40
0.4375
40
0.5
40
0.5
40
0.625
40
0.625
40
0.75
40
0.75
40
1
40
1
40
1
40
1
41
1
10
17.0098705173638
20
6.64467968042081
30
0
41
1
10
17.0123081278107
20
6.6396039161277
30
0
41
1
10
17.0153732561494
20
6.63494658042501
30
0
41
1
10
17.0228978614748
20
6.62656226130099
30
0
41
1
10
17.0274411374021
20
6.62280411589191
30
0
41
1
10
17.0375052258317
20
6.61672780114858
30
0
41
1
10
17.0430787999703
20
6.61434101251299
30
0
41
1
10
17.0550723630555
20
6.61086426023329
30
0
41
1
10
17.0613203547047
20
6.60981309023589
30
0
41
1
10
17.0742163822194
20
6.60883587249609
30
0
41
1
10
17.0808299936908
20
6.6089228711636
30
0
41
1
10
17.0939509266692
20
6.60999509817191
30
0
41
1
10
17.1005172183105
20
6.61097707630299
30
0
41
1
10
17.1136537103532
20
6.61366695203401
30
0
41
1
10
17.1202422039418
20
6.6153838333471
30
0
41
1
10
17.133217474186
20
6.6193765003114
30
0
41
1
10
17.1396287520818
20
6.62165614381451
30
0
41
1
10
17.158665244493
20
6.6292153830114
30
0
41
1
10
17.1710376793967
20
6.63518817219329
30
0
41
1
10
17.1950592496657
20
6.64847225709678
30
0
41
1
10
17.2066987871995
20
6.6557804874472
30
0
41
1
10
17.2405318957713
20
6.67930625756449
30
0
41
1
10
17.2615813995325
20
6.69704564987958
30
0
41
1
10
17.2809968843184
20
6.71633940811981
30
0
0
SPLINE
5
175
100
AcDbEntity
8
1
62
256
6
ByLayer
370
13
48
1
60
0
100
AcDbSpline
70
4
71
3
72
8
73
4
40
0
40
0
40
0
40
0
40
1
40
1
40
1
40
1
41
1
10
16.9943821454882
20
6.65629472312528
30
0
41
1
10
16.9995465312735
20
6.65242123714938
30
0
41
1
10
17.0047092899818
20
6.648549593025
30
0
41
1
10
17.0098705173638
20
6.64467968042081
30
0
0
LINE
5
74
100
AcDbEntity
8
81
62
256
6
ByLayer
370
18
48
1
60
0
100
AcDbLine
10
20
20
10.875
30
0
11
25
21
10.875
31
0
39
0
210
0
220
0
230
1
0
LINE
5
75
100
AcDbEntity
8
80
62
256
6
ByLayer
370
18
48
1
60
0
100
AcDbLine
10
0
20
0
30
0
11
-5
21
0
31
0
39
0
210
0
220
0
230
1
0
LINE
5
76
100
AcDbEntity
8
4
62
256
6
ByLayer
370
18
48
0.05
60
0
100
AcDbLine
10
0
20
0
30
0
11
22
21
0
31
0
39
0
210
0
220
0
230
1
0
LINE
5
78
100
AcDbEntity
8
SK4
62
256
6
ByLayer
370
18
48
0.05
60
0
100
AcDbLine
10
-6.599268
20
0
30
0
11
22.400732
21
0
31
0
39
0
210
0
220
0
230
1
0
LINE
5
7A
100
AcDbEntity
8
1
62
256
6
ByLayer
370
18
48
1
60
1
100
AcDbLine
10
0
20
0
30
0
11
0
21
297
31
0
39
0
210
0
220
0
230
1
0
LINE
5
7C
100
AcDbEntity
8
1
62
256
6
ByLayer
370
18
48
1
60
1
100
AcDbLine
10
210
20
297
30
0
11
0
21
297
31
0
39
0
210
0
220
0
230
1
0
LINE
5
7D
100
AcDbEntity
8
1
62
256
6
ByLayer
370
18
48
1
60
1
100
AcDbLine
10
210
20
297
30
0
11
210
21
0
31
0
39
0
210
0
220
0
230
1
0
LINE
5
7E
100
AcDbEntity
8
1
62
256
6
ByLayer
370
18
48
1
60
1
100
AcDbLine
10
0
20
0
30
0
11
210
21
0
31
0
39
0
210
0
220
0
230
1
0
LINE
5
7F
100
AcDbEntity
8
1
62
256
6
ByLayer
370
18
48
1
60
1
100
AcDbLine
10
0
20
0
30
0
11
0
21
297
31
0
39
0
210
0
220
0
230
1
0
LINE
5
80
100
AcDbEntity
8
1
62
256
6
ByLayer
370
18
48
1
60
1
100
AcDbLine
10
420
20
297
30
0
11
0
21
297
31
0
39
0
210
0
220
0
230
1
0
LINE
5
81
100
AcDbEntity
8
1
62
256
6
ByLayer
370
18
48
1
60
1
100
AcDbLine
10
420
20
297
30
0
11
420
21
0
31
0
39
0
210
0
220
0
230
1
0
LINE
5
82
100
AcDbEntity
8
1
62
256
6
ByLayer
370
18
48
1
60
1
100
AcDbLine
10
0
20
0
30
0
11
420
21
0
31
0
39
0
210
0
220
0
230
1
0
LINE
5
83
100
AcDbEntity
8
1
62
256
6
ByLayer
370
13
48
1
60
0
100
AcDbLine
10
13.209947
20
6.241245
30
0
11
13.202158
21
6.35146
31
0
39
0
210
0
220
0
230
1
0
LINE
5
84
100
AcDbEntity
8
1
62
256
6
ByLayer
370
13
48
1
60
0
100
AcDbLine
10
13.256737
20
6.245288
30
0
11
13.209947
21
6.241245
31
0
39
0
210
0
220
0
230
1
0
LINE
5
85
100
AcDbEntity
8
1
62
256
6
ByLayer
370
13
48
1
60
0
100
AcDbLine
10
14.151724
20
4.02829
30
0
11
14.158872
21
4.028907
31
0
39
0
210
0
220
0
230
1
0
LINE
5
86
100
AcDbEntity
8
1
62
256
6
ByLayer
370
13
48
1
60
0
100
AcDbLine
10
13.202158
20
6.35146
30
0
11
13.266511
21
6.35702
31
0
39
0
210
0
220
0
230
1
0
LINE
5
87
100
AcDbEntity
8
1
62
256
6
ByLayer
370
13
48
1
60
0
100
AcDbLine
10
10.75827
20
9.396738
30
0
11
8.33905
21
8
31
0
39
0
210
0
220
0
230
1
0
LINE
5
88
100
AcDbEntity
8
1
62
256
6
ByLayer
370
13
48
1
60
0
100
AcDbLine
10
13.202158
20
6.35146
30
0
11
13.22228
21
6.581458
31
0
39
0
210
0
220
0
230
1
0
LINE
5
89
100
AcDbEntity
8
1
62
256
6
ByLayer
370
13
48
1
60
0
100
AcDbLine
10
-0.221235
20
-3.971855
30
0
11
-0.221235
21
-4.414853
31
0
39
0
210
0
220
0
230
1
0
LINE
5
8A
100
AcDbEntity
8
1
62
256
6
ByLayer
370
13
48
1
60
0
100
AcDbLine
10
-0.221235
20
4.414854
30
0
11
-0.221235
21
3.971856
31
0
39
0
210
0
220
0
230
1
0
LINE
5
8B
100
AcDbEntity
8
1
62
256
6
ByLayer
370
13
48
1
60
0
100
AcDbLine
10
19.138429
20
4.502053
30
0
11
19.049108
21
3.481215
31
0
39
0
210
0
220
0
230
1
0
LINE
5
8C
100
AcDbEntity
8
1
62
256
6
ByLayer
370
13
48
1
60
0
100
AcDbLine
10
13.22228
20
6.581458
30
0
11
13.286632
21
6.587017
31
0
39
0
210
0
220
0
230
1
0
LINE
5
8D
100
AcDbEntity
8
1
62
256
6
ByLayer
370
13
48
1
60
0
100
AcDbLine
10
12.039922
20
5.348977
30
0
11
12.019799
21
5.118979
31
0
39
0
210
0
220
0
230
1
0
LINE
5
8E
100
AcDbEntity
8
1
62
256
6
ByLayer
370
13
48
1
60
0
100
AcDbLine
10
15.231809
20
-1.404439
30
0
11
12.92575
21
-1.404439
31
0
39
0
210
0
220
0
230
1
0
LINE
5
8F
100
AcDbEntity
8
1
62
256
6
ByLayer
370
13
48
1
60
0
100
AcDbLine
10
18.973951
20
2.622254
30
0
11
18.911852
21
1.912528
31
0
39
0
210
0
220
0
230
1
0
LINE
5
90
100
AcDbEntity
8
1
62
256
6
ByLayer
370
13
48
1
60
0
100
AcDbLine
10
-0.221235
20
-4.993963
30
0
11
-0.221235
21
-5.658061
31
0
39
0
210
0
220
0
230
1
0
LINE
5
91
100
AcDbEntity
8
1
62
256
6
ByLayer
370
13
48
1
60
0
100
AcDbLine
10
-0.221235
20
-6.870358
30
0
11
-0.221235
21
-7.106612
31
0
39
0
210
0
220
0
230
1
0
LINE
5
92
100
AcDbEntity
8
1
62
256
6
ByLayer
370
13
48
1
60
0
100
AcDbLine
10
-0.221235
20
7.106612
30
0
11
-0.221235
21
6.870359
31
0
39
0
210
0
220
0
230
1
0
LINE
5
93
100
AcDbEntity
8
1
62
256
6
ByLayer
370
13
48
1
60
0
100
AcDbLine
10
-0.221235
20
5.658062
30
0
11
-0.221235
21
4.993964
31
0
39
0
210
0
220
0
230
1
0
LINE
5
94
100
AcDbEntity
8
1
62
256
6
ByLayer
370
13
48
1
60
0
100
AcDbLine
10
0.342515
20
7.612897
30
0
11
0.342515
21
7.556144
31
0
39
0
210
0
220
0
230
1
0
LINE
5
95
100
AcDbEntity
8
1
62
256
6
ByLayer
370
13
48
1
60
0
100
AcDbLine
10
0.342515
20
-7.556143
30
0
11
0.342515
21
-7.612897
31
0
39
0
210
0
220
0
230
1
0
LINE
5
96
100
AcDbEntity
8
1
62
256
6
ByLayer
370
13
48
1
60
0
100
AcDbLine
10
8.005872
20
7.997226
30
0
11
7.649012
21
3.944289
31
0
39
0
210
0
220
0
230
1
0
LINE
5
97
100
AcDbEntity
8
1
62
256
6
ByLayer
370
13
48
1
60
0
100
AcDbLine
10
7.494067
20
2.184543
30
0
11
7.166101
21
-1.54024
31
0
39
0
210
0
220
0
230
1
0
LINE
5
98
100
AcDbEntity
8
1
62
256
6
ByLayer
370
13
48
1
60
0
100
AcDbLine
10
-0.221235
20
-5.792143
30
0
11
-0.221235
21
-5.817191
31
0
39
0
210
0
220
0
230
1
0
LINE
5
99
100
AcDbEntity
8
1
62
256
6
ByLayer
370
13
48
1
60
0
100
AcDbLine
10
-0.221235
20
-6.312807
30
0
11
-0.221235
21
-6.734575
31
0
39
0
210
0
220
0
230
1
0
LINE
5
9A
100
AcDbEntity
8
1
62
256
6
ByLayer
370
13
48
1
60
0
100
AcDbLine
10
-0.221235
20
6.734576
30
0
11
-0.221235
21
6.312808
31
0
39
0
210
0
220
0
230
1
0
LINE
5
9B
100
AcDbEntity
8
1
62
256
6
ByLayer
370
13
48
1
60
0
100
AcDbLine
10
-0.221235
20
5.817191
30
0
11
-0.221235
21
5.792143
31
0
39
0
210
0
220
0
230
1
0
LINE
5
9C
100
AcDbEntity
8
1
62
256
6
ByLayer
370
13
48
1
60
0
100
AcDbLine
10
0.342515
20
-7.110447
30
0
11
0.342515
21
-7.210622
31
0
39
0
210
0
220
0
230
1
0
LINE
5
9D
100
AcDbEntity
8
1
62
256
6
ByLayer
370
13
48
1
60
0
100
AcDbLine
10
0.342515
20
7.210623
30
0
11
0.342515
21
7.110447
31
0
39
0
210
0
220
0
230
1
0
LINE
5
9E
100
AcDbEntity
8
1
62
256
6
ByLayer
370
13
48
1
60
0
100
AcDbLine
10
-0.221235
20
-5.817178
30
0
11
-0.221235
21
-6.089341
31
0
39
0
210
0
220
0
230
1
0
LINE
5
9F
100
AcDbEntity
8
1
62
256
6
ByLayer
370
13
48
1
60
0
100
AcDbLine
10
-0.221235
20
6.089342
30
0
11
-0.221235
21
5.817178
31
0
39
0
210
0
220
0
230
1
0
LINE
5
A0
100
AcDbEntity
8
1
62
256
6
ByLayer
370
13
48
1
60
0
100
AcDbLine
10
0.342515
20
-6.395052
30
0
11
0.342515
21
-6.550186
31
0
39
0
210
0
220
0
230
1
0
LINE
5
A1
100
AcDbEntity
8
1
62
256
6
ByLayer
370
13
48
1
60
0
100
AcDbLine
10
0.342515
20
6.550187
30
0
11
0.342515
21
6.395052
31
0
39
0
210
0
220
0
230
1
0
LINE
5
A2
100
AcDbEntity
8
1
62
256
6
ByLayer
370
13
48
1
60
0
100
AcDbLine
10
-0.221235
20
-4.414861
30
0
11
-0.221235
21
-4.993963
31
0
39
0
210
0
220
0
230
1
0
LINE
5
A3
100
AcDbEntity
8
1
62
256
6
ByLayer
370
13
48
1
60
0
100
AcDbLine
10
-0.221235
20
-5.658034
30
0
11
-0.221235
21
-5.792143
31
0
39
0
210
0
220
0
230
1
0
LINE
5
A4
100
AcDbEntity
8
1
62
256
6
ByLayer
370
13
48
1
60
0
100
AcDbLine
10
-0.221235
20
5.792143
30
0
11
-0.221235
21
5.658035
31
0
39
0
210
0
220
0
230
1
0
LINE
5
A5
100
AcDbEntity
8
1
62
256
6
ByLayer
370
13
48
1
60
0
100
AcDbLine
10
-0.221235
20
4.993964
30
0
11
-0.221235
21
4.414862
31
0
39
0
210
0
220
0
230
1
0
LINE
5
A6
100
AcDbEntity
8
1
62
256
6
ByLayer
370
13
48
1
60
0
100
AcDbLine
10
0.342515
20
5.54002
30
0
11
0.342515
21
5.301799
31
0
39
0
210
0
220
0
230
1
0
LINE
5
A7
100
AcDbEntity
8
1
62
256
6
ByLayer
370
13
48
1
60
0
100
AcDbLine
10
0.342515
20
-5.301798
30
0
11
0.342515
21
-5.540019
31
0
39
0
210
0
220
0
230
1
0
LINE
5
A8
100
AcDbEntity
8
1
62
256
6
ByLayer
370
13
48
1
60
0
100
AcDbLine
10
5.064698
20
-7.163345
30
0
11
5.157664
21
-6.107507
31
0
39
0
210
0
220
0
230
1
0
LINE
5
A9
100
AcDbEntity
8
1
62
256
6
ByLayer
370
13
48
1
60
0
100
AcDbLine
10
5.63717
20
-0.661646
30
0
11
5.756805
21
0.697077
31
0
39
0
210
0
220
0
230
1
0
LINE
5
AA
100
AcDbEntity
8
1
62
256
6
ByLayer
370
13
48
1
60
0
100
AcDbLine
10
6.205859
20
5.797079
30
0
11
6.380492
21
7.780428
31
0
39
0
210
0
220
0
230
1
0
LINE
5
AB
100
AcDbEntity
8
1
62
256
6
ByLayer
370
13
48
1
60
0
100
AcDbLine
10
6.073222
20
4.293891
30
0
11
5.317132
21
-4.293891
31
0
39
0
210
0
220
0
230
1
0
LINE
5
AC
100
AcDbEntity
8
1
62
256
6
ByLayer
370
13
48
1
60
0
100
AcDbLine
10
-0.221235
20
3.340095
30
0
11
-0.221235
21
-3.340094
31
0
39
0
210
0
220
0
230
1
0
LINE
5
AD
100
AcDbEntity
8
1
62
256
6
ByLayer
370
13
48
1
60
0
100
AcDbLine
10
0.342515
20
3.918378
30
0
11
0.342515
21
3.4925
31
0
39
0
210
0
220
0
230
1
0
LINE
5
AE
100
AcDbEntity
8
1
62
256
6
ByLayer
370
13
48
1
60
0
100
AcDbLine
10
0.342515
20
-3.492499
30
0
11
0.342515
21
-3.918378
31
0
39
0
210
0
220
0
230
1
0
LINE
5
AF
100
AcDbEntity
8
1
62
256
6
ByLayer
370
13
48
1
60
0
100
AcDbLine
10
3.5
20
4.293891
30
0
11
3.5
21
-4.293891
31
0
39
0
210
0
220
0
230
1
0
LINE
5
B0
100
AcDbEntity
8
1
62
256
6
ByLayer
370
13
48
1
60
0
100
AcDbLine
10
3.5
20
-4.293891
30
0
11
5.317132
21
-4.293891
31
0
39
0
210
0
220
0
230
1
0
LINE
5
B1
100
AcDbEntity
8
1
62
256
6
ByLayer
370
13
48
1
60
0
100
AcDbLine
10
3.2
20
3.781204
30
0
11
3.2
21
-3.781203
31
0
39
0
210
0
220
0
230
1
0
LINE
5
B2
100
AcDbEntity
8
1
62
256
6
ByLayer
370
13
48
1
60
0
100
AcDbLine
10
6.073222
20
4.293891
30
0
11
3.5
21
4.293891
31
0
39
0
210
0
220
0
230
1
0
LINE
5
B3
100
AcDbEntity
8
1
62
256
6
ByLayer
370
13
48
1
60
0
100
AcDbLine
10
8.33905
20
8
30
0
11
8.33905
21
7.997294
31
0
39
0
210
0
220
0
230
1
0
LINE
5
B4
100
AcDbEntity
8
1
62
256
6
ByLayer
370
13
48
1
60
0
100
AcDbLine
10
6.189241
20
7.901741
30
0
11
6.478597
21
8
31
0
39
0
210
0
220
0
230
1
0
LINE
5
B5
100
AcDbEntity
8
1
62
256
6
ByLayer
370
13
48
1
60
0
100
AcDbLine
10
6.189241
20
7.901741
30
0
11
0.528765
21
7.901741
31
0
39
0
210
0
220
0
230
1
0
LINE
5
B6
100
AcDbEntity
8
1
62
256
6
ByLayer
370
13
48
1
60
0
100
AcDbLine
10
0.528765
20
-7.90174
30
0
11
5.068156
21
-7.90174
31
0
39
0
210
0
220
0
230
1
0
LINE
5
B7
100
AcDbEntity
8
1
62
256
6
ByLayer
370
13
48
1
60
0
100
AcDbLine
10
8.33905
20
8
30
0
11
6.478597
21
8
31
0
39
0
210
0
220
0
230
1
0
LINE
5
B8
100
AcDbEntity
8
1
62
256
6
ByLayer
370
13
48
1
60
0
100
AcDbLine
10
0.528765
20
-7.90174
30
0
11
0.528765
21
7.901741
31
0
39
0
210
0
220
0
230
1
0
LINE
5
B9
100
AcDbEntity
8
1
62
256
6
ByLayer
370
13
48
1
60
0
100
AcDbLine
10
-0.221235
20
7.106612
30
0
11
-0.221235
21
7.141429
31
0
39
0
210
0
220
0
230
1
0
LINE
5
BA
100
AcDbEntity
8
1
62
256
6
ByLayer
370
13
48
1
60
0
100
AcDbLine
10
-0.221235
20
6.734576
30
0
11
-0.221235
21
6.870387
31
0
39
0
210
0
220
0
230
1
0
LINE
5
BB
100
AcDbEntity
8
1
62
256
6
ByLayer
370
13
48
1
60
0
100
AcDbLine
10
-0.221235
20
6.089342
30
0
11
-0.221235
21
6.312816
31
0
39
0
210
0
220
0
230
1
0
LINE
5
BC
100
AcDbEntity
8
1
62
256
6
ByLayer
370
13
48
1
60
0
100
AcDbLine
10
-0.221235
20
3.340095
30
0
11
-0.221235
21
3.971837
31
0
39
0
210
0
220
0
230
1
0
LINE
5
BD
100
AcDbEntity
8
1
62
256
6
ByLayer
370
13
48
1
60
0
100
AcDbLine
10
-0.221235
20
-3.971837
30
0
11
-0.221235
21
-3.340094
31
0
39
0
210
0
220
0
230
1
0
LINE
5
BE
100
AcDbEntity
8
1
62
256
6
ByLayer
370
13
48
1
60
0
100
AcDbLine
10
-0.221235
20
-6.312815
30
0
11
-0.221235
21
-6.089341
31
0
39
0
210
0
220
0
230
1
0
LINE
5
BF
100
AcDbEntity
8
1
62
256
6
ByLayer
370
13
48
1
60
0
100
AcDbLine
10
-0.221235
20
-6.870386
30
0
11
-0.221235
21
-6.734575
31
0
39
0
210
0
220
0
230
1
0
LINE
5
C0
100
AcDbEntity
8
1
62
256
6
ByLayer
370
13
48
1
60
0
100
AcDbLine
10
-0.221235
20
-7.141428
30
0
11
-0.221235
21
-7.106612
31
0
39
0
210
0
220
0
230
1
0
LINE
5
C1
100
AcDbEntity
8
SK1
62
256
6
ByLayer
370
18
48
1
60
0
100
AcDbLine
10
-1.621235
20
-1.955
30
0
11
-0.221172
21
-1.955
31
0
39
0
210
0
220
0
230
1
0
LINE
5
C3
100
AcDbEntity
8
SK1
62
256
6
ByLayer
370
18
48
1
60
0
100
AcDbLine
10
-0.221172
20
1.955
30
0
11
-1.621235
21
1.955
31
0
39
0
210
0
220
0
230
1
0
LINE
5
C4
100
AcDbEntity
8
SK1
62
256
6
ByLayer
370
18
48
1
60
0
100
AcDbLine
10
-2.121235
20
-1.821025
30
0
11
-2.121235
21
1.821026
31
0
39
0
210
0
220
0
230
1
0
LINE
5
C5
100
AcDbEntity
8
SK1
62
256
6
ByLayer
370
18
48
1
60
0
100
AcDbLine
10
-1.621235
20
-1.955
30
0
11
-1.621235
21
1.955
31
0
39
0
210
0
220
0
230
1
0
LINE
5
C6
100
AcDbEntity
8
SK1
62
256
6
ByLayer
370
18
48
1
60
0
100
AcDbLine
10
-2.121235
20
-1.821025
30
0
11
-1.621235
21
-1.955
31
0
39
0
210
0
220
0
230
1
0
LINE
5
C7
100
AcDbEntity
8
SK1
62
256
6
ByLayer
370
18
48
1
60
0
100
AcDbLine
10
-1.621235
20
1.955
30
0
11
-2.121235
21
1.821026
31
0
39
0
210
0
220
0
230
1
0
LINE
5
C8
100
AcDbEntity
8
1
62
256
6
ByLayer
370
13
48
1
60
0
100
AcDbLine
10
16.532766
20
8.227902
30
0
11
16.539616
21
8.246646
31
0
39
0
210
0
220
0
230
1
0
LINE
5
C9
100
AcDbEntity
8
1
62
256
6
ByLayer
370
13
48
1
60
0
100
AcDbLine
10
16.077139
20
8.12374
30
0
11
16.092521
21
8.110903
31
0
39
0
210
0
220
0
230
1
0
LINE
5
CA
100
AcDbEntity
8
1
62
256
6
ByLayer
370
13
48
1
60
0
100
AcDbLine
10
17.316764
20
7.784296
30
0
11
17.336531
21
7.787755
31
0
39
0
210
0
220
0
230
1
0
LINE
5
CB
100
AcDbEntity
8
1
62
256
6
ByLayer
370
13
48
1
60
0
100
AcDbLine
10
16.092521
20
8.110903
30
0
11
16.101582
21
8.214468
31
0
39
0
210
0
220
0
230
1
0
LINE
5
CC
100
AcDbEntity
8
1
62
256
6
ByLayer
370
13
48
1
60
0
100
AcDbLine
10
16.532766
20
8.227902
30
0
11
16.541827
21
8.331466
31
0
39
0
210
0
220
0
230
1
0
LINE
5
CD
100
AcDbEntity
8
1
62
256
6
ByLayer
370
13
48
1
60
0
100
AcDbLine
10
17.316764
20
7.784296
30
0
11
17.325825
21
7.887861
31
0
39
0
210
0
220
0
230
1
0
LINE
5
CE
100
AcDbEntity
8
1
62
256
6
ByLayer
370
13
48
1
60
0
100
AcDbLine
10
17.002142
20
8.199211
30
0
11
16.993126
21
8.096166
31
0
39
0
210
0
220
0
230
1
0
LINE
5
CF
100
AcDbEntity
8
1
62
256
6
ByLayer
370
13
48
1
60
0
100
AcDbLine
10
16.539616
20
8.246646
30
0
11
16.548784
21
8.351432
31
0
39
0
210
0
220
0
230
1
0
LINE
5
D0
100
AcDbEntity
8
1
62
256
6
ByLayer
370
13
48
1
60
0
100
AcDbLine
10
15.618323
20
7.331129
30
0
11
15.637186
21
7.337936
31
0
39
0
210
0
220
0
230
1
0
LINE
5
D1
100
AcDbEntity
8
1
62
256
6
ByLayer
370
13
48
1
60
0
100
AcDbLine
10
15.637186
20
7.337936
30
0
11
15.646246
21
7.441501
31
0
39
0
210
0
220
0
230
1
0
LINE
5
D2
100
AcDbEntity
8
1
62
256
6
ByLayer
370
13
48
1
60
0
100
AcDbLine
10
15.788614
20
7.614064
30
0
11
15.797116
21
7.711244
31
0
39
0
210
0
220
0
230
1
0
LINE
5
D3
100
AcDbEntity
8
1
62
256
6
ByLayer
370
13
48
1
60
0
100
AcDbLine
10
16.077139
20
8.12374
30
0
11
16.086307
21
8.228525
31
0
39
0
210
0
220
0
230
1
0
LINE
5
D4
100
AcDbEntity
8
1
62
256
6
ByLayer
370
13
48
1
60
0
100
AcDbLine
10
17.297726
20
7.146696
30
0
11
17.289229
21
7.049569
31
0
39
0
210
0
220
0
230
1
0
LINE
5
D5
100
AcDbEntity
8
1
62
256
6
ByLayer
370
13
48
1
60
0
100
AcDbLine
10
17.322919
20
6.888211
30
0
11
17.33198
21
6.991776
31
0
39
0
210
0
220
0
230
1
0
LINE
5
D6
100
AcDbEntity
8
1
62
256
6
ByLayer
370
13
48
1
60
0
100
AcDbLine
10
17.322919
20
6.888211
30
0
11
17.335836
21
6.872926
31
0
39
0
210
0
220
0
230
1
0
LINE
5
D7
100
AcDbEntity
8
1
62
256
6
ByLayer
370
13
48
1
60
0
100
AcDbLine
10
17.336531
20
7.787755
30
0
11
17.345699
21
7.892541
31
0
39
0
210
0
220
0
230
1
0
LINE
5
D8
100
AcDbEntity
8
1
62
256
6
ByLayer
370
13
48
1
60
0
100
AcDbLine
10
16.085499
20
6.576421
30
0
11
16.093731
21
6.670511
31
0
39
0
210
0
220
0
230
1
0
LINE
5
D9
100
AcDbEntity
8
1
62
256
6
ByLayer
370
13
48
1
60
0
100
AcDbLine
10
16.085197
20
6.577265
30
0
11
16.092647
21
6.662414
31
0
39
0
210
0
220
0
230
1
0
LINE
5
DA
100
AcDbEntity
8
1
62
256
6
ByLayer
370
13
48
1
60
0
100
AcDbLine
10
15.618323
20
7.331129
30
0
11
15.627491
21
7.435915
31
0
39
0
210
0
220
0
230
1
0
LINE
5
DB
100
AcDbEntity
8
1
62
256
6
ByLayer
370
13
48
1
60
0
100
AcDbLine
10
18.258339
20
7.192693
30
0
11
18.265466
21
7.274156
31
0
39
0
210
0
220
0
230
1
0
LINE
5
DC
100
AcDbEntity
8
1
62
256
6
ByLayer
370
13
48
1
60
0
100
AcDbLine
10
14.828594
20
7.574843
30
0
11
14.821467
21
7.49338
31
0
39
0
210
0
220
0
230
1
0
LINE
5
DD
100
AcDbEntity
8
1
62
256
6
ByLayer
370
13
48
1
60
0
100
AcDbLine
10
17.335836
20
6.872926
30
0
11
17.345003
21
6.977711
31
0
39
0
210
0
220
0
230
1
0
LINE
5
DE
100
AcDbEntity
8
1
62
256
6
ByLayer
370
13
48
1
60
0
100
AcDbLine
10
16.545796
20
6.503511
30
0
11
16.547394
21
6.521773
31
0
39
0
210
0
220
0
230
1
0
LINE
5
DF
100
AcDbEntity
8
1
62
256
6
ByLayer
370
13
48
1
60
0
100
AcDbLine
10
16.083781
20
6.581222
30
0
11
16.089273
21
6.643992
31
0
39
0
210
0
220
0
230
1
0
LINE
5
E0
100
AcDbEntity
8
1
62
256
6
ByLayer
370
13
48
1
60
0
100
AcDbLine
10
13.587827
20
10.029701
30
0
11
13.099226
21
4.444967
31
0
39
0
210
0
220
0
230
1
0
LINE
5
E1
100
AcDbEntity
8
1
62
256
6
ByLayer
370
13
48
1
60
0
100
AcDbLine
10
13.529398
20
4.017489
30
0
11
19.149349
21
4.503009
31
0
39
0
210
0
220
0
230
1
0
LINE
5
E2
100
AcDbEntity
8
1
62
256
6
ByLayer
370
13
48
1
60
0
100
AcDbLine
10
19.509907
20
4.861307
30
0
11
19.998508
21
10.446041
31
0
39
0
210
0
220
0
230
1
0
LINE
5
E3
100
AcDbEntity
8
1
62
256
6
ByLayer
370
13
48
1
60
0
100
AcDbLine
10
19.568337
20
10.873519
30
0
11
13.948386
21
10.387999
31
0
39
0
210
0
220
0
230
1
0
MTEXT
5
176
100
AcDbEntity
8
SK6
62
256
6
ByLayer
370
18
48
1
60
0
100
AcDbMText
10
-19.333613
20
-23.305014
30
0
210
0
220
0
230
1
1
\W0.7412;SL-SCLCR-16-06-11D
40
3.5
41
0
44
1.084337
50
0
71
7
72
5
7
iso_b_vert
0
DIMENSION
5
17B
100
AcDbEntity
8
2
62
256
6
ByLayer
370
18
48
1
60
0
100
AcDbDimension
2
_U0
10
29.136911
20
10.875
30
0
11
29.136911
21
5.4375
31
0
70
32
71
1
72
1
41
1
210
0
220
0
230
1
3
Standard
100
AcDbAlignedDimension
13
22.400732
23
0
33
0
14
20
24
10.875
34
0
50
90
100
AcDbRotatedDimension
1001
ACAD
1000
DSTYLE
1002
{
1070
   371
1070
    13
1070
   372
1070
    13
1070
   170
1070
     0
1070
   144
1040
1.0
1070
   277
1070
     2
1070
   284
1070
     8
1070
   278
1070
    46
1070
   146
1040
1.166667
1070
   345
1005
16
1070
   347
1005
16
1070
   346
1005
16
1070
   344
1005
0
1070
   343
1005
0
1070
   172
1070
     1
1070
    76
1070
     0
1070
    75
1070
     0
1070
   282
1070
     0
1070
   281
1070
     0
1070
    71
1070
     0
1070
    74
1070
     0
1070
   279
1070
     0
1070
   173
1070
     1
1070
   340
1005
177
1070
   271
1070
     0
1070
   272
1070
     2
1070
    77
1070
     1
1070
    73
1070
     0
1070
   171
1070
     3
1070
   274
1070
     4
1070
   177
1070
     7
1070
   176
1070
     7
1070
   178
1070
     7
1070
    78
1070
     8
1070
    48
1040
-0.1
1070
    41
1040
3.175
1070
   147
1040
1.5
1070
    42
1040
1.5875
1070
    44
1040
2.0
1070
   140
1040
3.0
1002
}
1001
ACAD_DSTYLE_DIM_LINETYPE
1070
   380
1005
16
1001
ACAD_DSTYLE_DIM_EXT1_LINETYPE
1070
   381
1005
16
1001
ACAD_DSTYLE_DIM_EXT2_LINETYPE
1070
   382
1005
16
0
DIMENSION
5
196
100
AcDbEntity
8
2
62
256
6
ByLayer
370
18
48
1
60
0
100
AcDbDimension
2
_U1
10
20
20
22.341525
30
0
11
10
21
22.341525
31
0
70
32
71
1
72
1
41
1
210
0
220
0
230
1
3
Standard
100
AcDbAlignedDimension
13
0
23
0
33
0
14
20
24
10.875
34
0
50
0
100
AcDbRotatedDimension
1001
ACAD
1000
DSTYLE
1002
{
1070
   371
1070
    13
1070
   372
1070
    13
1070
   170
1070
     0
1070
   144
1040
1.0
1070
   277
1070
     2
1070
   284
1070
     8
1070
   278
1070
    46
1070
   146
1040
1.166667
1070
   345
1005
16
1070
   347
1005
16
1070
   346
1005
16
1070
   344
1005
0
1070
   343
1005
0
1070
   172
1070
     1
1070
    76
1070
     0
1070
    75
1070
     0
1070
   282
1070
     0
1070
   281
1070
     0
1070
    71
1070
     0
1070
    74
1070
     0
1070
   279
1070
     0
1070
   173
1070
     1
1070
   340
1005
177
1070
   271
1070
     2
1070
   272
1070
     2
1070
    77
1070
     1
1070
    73
1070
     1
1070
   171
1070
     3
1070
   274
1070
     4
1070
   177
1070
     7
1070
   176
1070
     7
1070
   178
1070
     7
1070
    78
1070
     8
1070
    48
1040
-0.1
1070
    41
1040
3.175
1070
   147
1040
1.5
1070
    42
1040
1.5875
1070
    44
1040
2.0
1070
   140
1040
3.0
1002
}
1001
ACAD_DSTYLE_DIM_LINETYPE
1070
   380
1005
16
1001
ACAD_DSTYLE_DIM_EXT1_LINETYPE
1070
   381
1005
16
1001
ACAD_DSTYLE_DIM_EXT2_LINETYPE
1070
   382
1005
16
0
DIMENSION
5
1AE
100
AcDbEntity
8
SK2
62
256
6
ByLayer
370
18
48
1
60
0
100
AcDbDimension
2
_U2
10
-9.937014
20
-7.90174
30
0
11
-9.937014
21
1E-06
31
0
70
32
71
1
72
1
41
1
210
0
220
0
230
1
3
Standard
100
AcDbAlignedDimension
13
3.359003
23
7.901741
33
0
14
2.798461
24
-7.90174
34
0
50
90
100
AcDbRotatedDimension
1001
ACAD
1000
DSTYLE
1002
{
1070
   371
1070
    13
1070
   372
1070
    13
1070
     3
1000

1070
   170
1070
     0
1070
   144
1040
1.0
1070
   277
1070
     2
1070
   284
1070
     8
1070
   278
1070
    46
1070
   146
1040
1.166667
1070
   345
1005
16
1070
   347
1005
16
1070
   346
1005
16
1070
   344
1005
0
1070
   343
1005
0
1070
   172
1070
     1
1070
    76
1070
     0
1070
    75
1070
     0
1070
   282
1070
     0
1070
   281
1070
     0
1070
    71
1070
     0
1070
    74
1070
     0
1070
   279
1070
     0
1070
   173
1070
     1
1070
   340
1005
177
1070
   271
1070
     2
1070
   272
1070
     2
1070
    77
1070
     1
1070
    73
1070
     0
1070
   171
1070
     3
1070
   274
1070
     4
1070
   177
1070
     7
1070
   176
1070
     7
1070
   178
1070
     7
1070
    78
1070
     8
1070
    48
1040
-0.1
1070
    41
1040
3.175
1070
   147
1040
1.5
1070
    42
1040
1.5875
1070
    44
1040
2.0
1070
   140
1040
3.0
1002
}
1001
ACAD_DSTYLE_DIM_LINETYPE
1070
   380
1005
16
1001
ACAD_DSTYLE_DIM_EXT1_LINETYPE
1070
   381
1005
16
1001
ACAD_DSTYLE_DIM_EXT2_LINETYPE
1070
   382
1005
16
0
DIMENSION
5
1C8
100
AcDbEntity
8
SK2
62
256
6
ByLayer
370
18
48
1
60
0
100
AcDbDimension
2
_U3
10
21
20
10.875
30
0
11
34.692244
21
-5.119443
31
0
70
34
71
1
72
1
41
1
210
0
220
0
230
1
3
Standard
100
AcDb2LineAngularDimension
13
19.509907
23
4.861307
33
0
14
19.998508
24
10.446041
34
0
15
20
25
10.875
35
0
16
29.772255
26
-8.511404
36
0
40
0
0
ENDSEC
0
SECTION
2
OBJECTS
0
DICTIONARY
5
253
330
0
100
AcDbDictionary
280
0
281
1
3
ACAD_GROUP
350
254
3
ACAD_MLINESTYLE
350
255
0
DICTIONARY
5
254
330
0
100
AcDbDictionary
280
0
281
1
0
DICTIONARY
5
255
330
0
100
AcDbDictionary
280
0
281
1
3
Standard
350
18
0
MLINESTYLE
5
18
330
255
100
AcDbMlineStyle
2
Standard
70
0
3

62
256
51
90
52
90
71
2
49
-0.5
62
256
6
ByLayer
49
0.5
62
256
6
ByLayer
0
RASTERVARIABLES
5
241
330

100
AcDbRasterVariables
90
0
70
1
71
1
72
1
0
ENDSEC
0
EOF
