0
SECTION
2
HEADER
9
$ACADVER
1
AC1015
9
$DWGCODEPAGE
3
ANSI_1252
9
$HANDSEED
5
24a
9
$ANGBASE
50
0
9
$ANGDIR
70
0
9
$ATTMODE
70
1
9
$AUNITS
70
0
9
$AUPREC
70
0
9
$CECOLOR
62
256
9
$CELTSCALE
40
1
9
$CELTYPE
6
ByLayer
9
$CELWEIGHT
370
18
9
$CLAYER
8
0
9
$CMLJUST
70
0
9
$CMLSCALE
40
1
9
$CMLSTYLE
2
Standard
9
$DIMSTYLE
2
Standard
9
$TEXTSIZE
40
0.2
9
$TEXTSTYLE
7
Standard
9
$LUNITS
70
2
9
$LUPREC
70
4
9
$EXTNAMES
290
1
9
$INSUNITS
70
4
9
$LTSCALE
40
1
9
$LWDISPLAY
290
1
9
$PDMODE
70
0
9
$PDSIZE
40
0
9
$PLINEGEN
70
0
0
ENDSEC
0
SECTION
2
CLASSES
0
CLASS
1
RASTERVARIABLES
2
AcDbRasterVariables
3
ISM
90
0
280
0
281
0
0
ENDSEC
0
SECTION
2
TABLES
0
TABLE
2
VPORT
5
240
100
AcDbSymbolTable
0
VPORT
5
1
100
AcDbSymbolTableRecord
100
AcDbViewportTableRecord
2
*Active
70
0
10
0
20
0
11
1
21
1
12
-1
22
1
13
0
23
0
14
0.5
24
0.5
15
10
25
10
16
0
26
0
36
1
17
0
27
0
37
0
0
ENDTAB
0
TABLE
2
LTYPE
5
241
100
AcDbSymbolTable
0
LTYPE
5
14
100
AcDbSymbolTableRecord
100
AcDbLinetypeTableRecord
70
0
2
ByBlock
3

72
65
73
0
40
0
0
LTYPE
5
15
100
AcDbSymbolTableRecord
100
AcDbLinetypeTableRecord
70
0
2
ByLayer
3

72
65
73
0
40
0
0
LTYPE
5
16
100
AcDbSymbolTableRecord
100
AcDbLinetypeTableRecord
70
0
2
Continuous
3
Solid line
72
65
73
0
40
0
0
LTYPE
5
6E
100
AcDbSymbolTableRecord
100
AcDbLinetypeTableRecord
70
0
2
CENTER
3
____ _ ____ _ ____ _ ____
72
65
73
4
40
47.5
49
22
74
0
49
-8.5
74
0
49
8.5
74
0
49
-8.5
74
0
0
LTYPE
5
6F
100
AcDbSymbolTableRecord
100
AcDbLinetypeTableRecord
70
0
2
DASHED
3
__ __ __ __ __ __ __ __ __
72
65
73
2
40
25.72
49
12.86
74
0
49
-12.86
74
0
0
ENDTAB
0
TABLE
2
LAYER
5
242
100
AcDbSymbolTable
0
LAYER
5
10
100
AcDbSymbolTableRecord
100
AcDbLayerTableRecord
2
0
70
0
62
7
6
Continuous
290
1
370
-3
390
0
0
LAYER
5
71
100
AcDbSymbolTableRecord
100
AcDbLayerTableRecord
2
80
70
0
62
-6
6
Continuous
290
1
370
-3
390
0
0
LAYER
5
73
100
AcDbSymbolTableRecord
100
AcDbLayerTableRecord
2
81
70
0
62
-3
6
Continuous
290
1
370
-3
390
0
0
LAYER
5
77
100
AcDbSymbolTableRecord
100
AcDbLayerTableRecord
2
4
70
0
62
-2
6
CENTER
290
1
370
-3
390
0
0
LAYER
5
7B
100
AcDbSymbolTableRecord
100
AcDbLayerTableRecord
2
1
70
0
62
4
6
Continuous
290
1
370
-3
390
0
0
LAYER
5
179
100
AcDbSymbolTableRecord
100
AcDbLayerTableRecord
2
Defpoints
70
0
62
7
6
Continuous
290
0
370
-3
390
0
0
LAYER
5
187
100
AcDbSymbolTableRecord
100
AcDbLayerTableRecord
2
2
70
0
62
7
6
Continuous
290
1
370
-3
390
0
0
LAYER
5
22c
100
AcDbSymbolTableRecord
100
AcDbLayerTableRecord
2
SK4
70
0
62
2
6
CENTER
290
1
370
-3
390
0
0
LAYER
5
22d
100
AcDbSymbolTableRecord
100
AcDbLayerTableRecord
2
SK1
70
0
62
4
6
Continuous
290
1
370
-3
390
0
0
LAYER
5
22e
100
AcDbSymbolTableRecord
100
AcDbLayerTableRecord
2
SK6
70
0
62
5
6
Continuous
290
1
370
-3
390
0
0
LAYER
5
22f
100
AcDbSymbolTableRecord
100
AcDbLayerTableRecord
2
SK2
70
0
62
7
6
Continuous
290
1
370
-3
390
0
0
ENDTAB
0
TABLE
2
STYLE
5
243
100
AcDbSymbolTable
0
STYLE
5
11
100
AcDbSymbolTableRecord
100
AcDbTextStyleTableRecord
2
Standard
3
txt
70
0
71
0
40
0
41
1
42
0
50
0
0
STYLE
5
172
100
AcDbSymbolTableRecord
100
AcDbTextStyleTableRecord
2
iso_b_vert
3
simplex.shx
70
0
71
0
40
0
41
1
42
0
50
0
0
STYLE
5
173
100
AcDbSymbolTableRecord
100
AcDbTextStyleTableRecord
2
DWGDirectTextStyle
3
simplex
70
0
71
0
40
0
41
1
42
0
50
0
0
ENDTAB
0
TABLE
2
DIMSTYLE
5
244
100
AcDbSymbolTable
100
AcDbDimStyleTable
0
DIMSTYLE
105
27
100
AcDbSymbolTableRecord
100
AcDbDimStyleTableRecord
2
Standard
70
0
3
<>
41
0.18
42
0.0625
44
0.18
140
0.18
147
0.09
73
0
74
0
77
1
271
2
275
0
278
52
280
0
340
11
0
ENDTAB
0
TABLE
2
VIEW
5
245
100
AcDbSymbolTable
0
ENDTAB
0
TABLE
2
UCS
5
246
100
AcDbSymbolTable
0
ENDTAB
0
TABLE
2
APPID
5
247
100
AcDbSymbolTable
0
APPID
5
12
100
AcDbSymbolTableRecord
100
AcDbRegAppTableRecord
2
ACAD
70
0
0
APPID
5
175
100
AcDbSymbolTableRecord
100
AcDbRegAppTableRecord
2
ACAD_DSTYLE_DIMBREAK
70
0
0
APPID
5
1EB
100
AcDbSymbolTableRecord
100
AcDbRegAppTableRecord
2
ACAD_DSTYLE_DIM_LINETYPE
70
0
0
APPID
5
1EC
100
AcDbSymbolTableRecord
100
AcDbRegAppTableRecord
2
ACAD_DSTYLE_DIM_EXT1_LINETYPE
70
0
0
APPID
5
1ED
100
AcDbSymbolTableRecord
100
AcDbRegAppTableRecord
2
ACAD_DSTYLE_DIM_EXT2_LINETYPE
70
0
0
APPID
5
228
100
AcDbSymbolTableRecord
100
AcDbRegAppTableRecord
2
ACAD_MLEADERVER
70
0
0
ENDTAB
0
TABLE
2
BLOCK_RECORD
5
248
100
AcDbSymbolTable
0
BLOCK_RECORD
5
1F
100
AcDbSymbolTableRecord
100
AcDbBlockTableRecord
2
*Model_Space
340
0
70
0
0
BLOCK_RECORD
5
1B
100
AcDbSymbolTableRecord
100
AcDbBlockTableRecord
2
*Paper_Space
340
0
70
0
0
BLOCK_RECORD
5
23
100
AcDbSymbolTableRecord
100
AcDbBlockTableRecord
2
*Paper_Space0
340
0
70
0
0
BLOCK_RECORD
5
17A
100
AcDbSymbolTableRecord
100
AcDbBlockTableRecord
2
*D1
340
0
70
0
0
BLOCK_RECORD
5
188
100
AcDbSymbolTableRecord
100
AcDbBlockTableRecord
2
_U0
340
0
70
0
0
BLOCK_RECORD
5
194
100
AcDbSymbolTableRecord
100
AcDbBlockTableRecord
2
*D3
340
0
70
0
0
BLOCK_RECORD
5
1A0
100
AcDbSymbolTableRecord
100
AcDbBlockTableRecord
2
_U1
340
0
70
0
0
BLOCK_RECORD
5
1AC
100
AcDbSymbolTableRecord
100
AcDbBlockTableRecord
2
*D5
340
0
70
0
0
BLOCK_RECORD
5
1B9
100
AcDbSymbolTableRecord
100
AcDbBlockTableRecord
2
_U2
340
0
70
0
0
BLOCK_RECORD
5
1C3
100
AcDbSymbolTableRecord
100
AcDbBlockTableRecord
2
_U3
340
0
70
0
0
ENDTAB
0
ENDSEC
0
SECTION
2
BLOCKS
0
BLOCK
5
20
100
AcDbEntity
8
0
100
AcDbBlockBegin
2
*Model_Space
70
0
10
0
20
0
30
0
3
*Model_Space
0
ENDBLK
5
21
100
AcDbEntity
8
0
100
AcDbBlockEnd
0
BLOCK
5
1C
100
AcDbEntity
8
0
100
AcDbBlockBegin
2
*Paper_Space
70
0
10
0
20
0
30
0
3
*Paper_Space
0
ENDBLK
5
1D
100
AcDbEntity
8
0
100
AcDbBlockEnd
0
BLOCK
5
24
100
AcDbEntity
8
0
100
AcDbBlockBegin
2
*Paper_Space0
70
0
10
0
20
0
30
0
3
*Paper_Space0
0
ENDBLK
5
25
100
AcDbEntity
8
0
100
AcDbBlockEnd
0
BLOCK
5
17B
100
AcDbEntity
8
0
100
AcDbBlockBegin
2
*D1
70
1
10
0
20
0
30
0
3
*D1
0
LINE
5
17D
100
AcDbEntity
8
0
62
256
6
ByLayer
370
-2
48
1
60
0
100
AcDbLine
10
23.988232
20
0
30
0
11
30.479664
21
0
31
0
39
0
210
0
220
0
230
1
0
LINE
5
17E
100
AcDbEntity
8
0
62
256
6
ByLayer
370
-2
48
1
60
0
100
AcDbLine
10
21.5875
20
-10.9
30
0
11
30.479664
21
-10.9
31
0
39
0
210
0
220
0
230
1
0
LINE
5
17F
100
AcDbEntity
8
0
62
256
6
ByLayer
370
-2
48
1
60
0
100
AcDbLine
10
28.479664
20
3.175
30
0
11
28.479664
21
6.35
31
0
39
0
210
0
220
0
230
1
0
LINE
5
180
100
AcDbEntity
8
0
62
256
6
ByLayer
370
-2
48
1
60
0
100
AcDbLine
10
28.479664
20
-14.075
30
0
11
28.479664
21
-17.25
31
0
39
0
210
0
220
0
230
1
0
SOLID
5
181
100
AcDbEntity
8
0
62
256
6
ByLayer
370
-1
48
1
60
0
100
AcDbTrace
10
27.950497
20
3.175
30
0
11
29.008831
21
3.175
31
0
12
28.479664
22
0
32
0
13
28.479664
23
0
33
0
39
0
210
0
220
0
230
1
0
SOLID
5
182
100
AcDbEntity
8
0
62
256
6
ByLayer
370
-1
48
1
60
0
100
AcDbTrace
10
29.008831
20
-14.075
30
0
11
27.950497
21
-14.075
31
0
12
28.479664
22
-10.9
32
0
13
28.479664
23
-10.9
33
0
39
0
210
0
220
0
230
1
0
MTEXT
5
183
100
AcDbEntity
8
0
62
256
6
ByLayer
370
18
48
1
60
0
100
AcDbMText
10
22.479664
20
-5.45
30
0
210
0
220
0
230
1
1
\A1;11
40
3
41
0
44
1
50
90
71
5
72
5
7
iso_b_vert
0
POINT
5
184
100
AcDbEntity
8
Defpoints
62
0
6
ByLayer
370
-1
48
1
60
0
100
AcDbPoint
10
22.400732
20
0
30
0
39
0
210
0
220
0
230
1
50
360
0
POINT
5
185
100
AcDbEntity
8
Defpoints
62
0
6
ByLayer
370
-1
48
1
60
0
100
AcDbPoint
10
20
20
-10.9
30
0
39
0
210
0
220
0
230
1
50
360
0
POINT
5
186
100
AcDbEntity
8
Defpoints
62
0
6
ByLayer
370
-1
48
1
60
0
100
AcDbPoint
10
28.479664
20
-10.9
30
0
39
0
210
0
220
0
230
1
50
360
0
ENDBLK
5
17C
100
AcDbEntity
8
0
100
AcDbBlockEnd
0
BLOCK
5
18F
100
AcDbEntity
8
0
100
AcDbBlockBegin
2
_U0
70
0
10
0
20
0
30
0
3
_U0
0
MTEXT
5
189
100
AcDbEntity
8
2
62
256
6
ByLayer
370
18
48
1
60
0
100
AcDbMText
10
27.888549
20
-6.356943
30
0
210
0
220
0
230
1
1
\W0.6875;11
40
3
41
0
44
1.084337
50
90
71
7
72
5
7
iso_b_vert
0
LINE
5
18A
100
AcDbEntity
8
2
62
256
6
ByLayer
370
13
48
1
60
0
100
AcDbLine
10
23.988232
20
0
30
0
11
30.479664
21
0
31
0
39
0
210
0
220
0
230
1
0
LINE
5
18B
100
AcDbEntity
8
2
62
256
6
ByLayer
370
13
48
1
60
0
100
AcDbLine
10
21.5875
20
-10.9
30
0
11
30.479664
21
-10.9
31
0
39
0
210
0
220
0
230
1
0
LINE
5
18C
100
AcDbEntity
8
2
62
256
6
ByLayer
370
13
48
1
60
0
100
AcDbLine
10
28.479664
20
0
30
0
11
28.479664
21
-10.9
31
0
39
0
210
0
220
0
230
1
0
SOLID
5
18D
100
AcDbEntity
8
2
62
256
6
ByLayer
370
18
48
1
60
0
100
AcDbTrace
10
28.479664
20
0
30
0
11
28.897661
21
-3.174998
31
0
12
28.061667
22
-3.175002
32
0
13
28.061667
23
-3.175002
33
0
39
0
210
0
220
0
230
1
0
SOLID
5
18E
100
AcDbEntity
8
2
62
256
6
ByLayer
370
18
48
1
60
0
100
AcDbTrace
10
28.479664
20
-10.9
30
0
11
28.061667
21
-7.725002
31
0
12
28.897661
22
-7.724998
32
0
13
28.897661
23
-7.724998
33
0
39
0
210
0
220
0
230
1
0
ENDBLK
5
190
100
AcDbEntity
8
0
100
AcDbBlockEnd
0
BLOCK
5
195
100
AcDbEntity
8
0
100
AcDbBlockBegin
2
*D3
70
1
10
0
20
0
30
0
3
*D3
0
LINE
5
197
100
AcDbEntity
8
0
62
256
6
ByLayer
370
-2
48
1
60
0
100
AcDbLine
10
0
20
-1.5875
30
0
11
0
21
-26.07409
31
0
39
0
210
0
220
0
230
1
0
LINE
5
198
100
AcDbEntity
8
0
62
256
6
ByLayer
370
-2
48
1
60
0
100
AcDbLine
10
20
20
-12.4875
30
0
11
20
21
-26.07409
31
0
39
0
210
0
220
0
230
1
0
LINE
5
199
100
AcDbEntity
8
0
62
256
6
ByLayer
370
-2
48
1
60
0
100
AcDbLine
10
3.175
20
-24.07409
30
0
11
16.825
21
-24.07409
31
0
39
0
210
0
220
0
230
1
0
SOLID
5
19A
100
AcDbEntity
8
0
62
256
6
ByLayer
370
-1
48
1
60
0
100
AcDbTrace
10
3.175
20
-23.544923
30
0
11
3.175
21
-24.603257
31
0
12
0
22
-24.07409
32
0
13
0
23
-24.07409
33
0
39
0
210
0
220
0
230
1
0
SOLID
5
19B
100
AcDbEntity
8
0
62
256
6
ByLayer
370
-1
48
1
60
0
100
AcDbTrace
10
16.825
20
-24.603257
30
0
11
16.825
21
-23.544923
31
0
12
20
22
-24.07409
32
0
13
20
23
-24.07409
33
0
39
0
210
0
220
0
230
1
0
MTEXT
5
19C
100
AcDbEntity
8
0
62
256
6
ByLayer
370
18
48
1
60
0
100
AcDbMText
10
10
20
-18.07409
30
0
210
0
220
0
230
1
1
\A1;20
40
3
41
0
44
1
50
0
71
5
72
5
7
iso_b_vert
0
POINT
5
19D
100
AcDbEntity
8
Defpoints
62
0
6
ByLayer
370
-1
48
1
60
0
100
AcDbPoint
10
0
20
0
30
0
39
0
210
0
220
0
230
1
50
360
0
POINT
5
19E
100
AcDbEntity
8
Defpoints
62
0
6
ByLayer
370
-1
48
1
60
0
100
AcDbPoint
10
20
20
-10.9
30
0
39
0
210
0
220
0
230
1
50
360
0
POINT
5
19F
100
AcDbEntity
8
Defpoints
62
0
6
ByLayer
370
-1
48
1
60
0
100
AcDbPoint
10
20
20
-24.07409
30
0
39
0
210
0
220
0
230
1
50
360
0
ENDBLK
5
196
100
AcDbEntity
8
0
100
AcDbBlockEnd
0
BLOCK
5
1A7
100
AcDbEntity
8
0
100
AcDbBlockBegin
2
_U1
70
0
10
0
20
0
30
0
3
_U1
0
MTEXT
5
1A1
100
AcDbEntity
8
2
62
256
6
ByLayer
370
18
48
1
60
0
100
AcDbMText
10
8.367172
20
-23.188976
30
0
210
0
220
0
230
1
1
\W0.7335;20
40
3
41
0
44
1.084337
50
0
71
7
72
5
7
iso_b_vert
0
LINE
5
1A2
100
AcDbEntity
8
2
62
256
6
ByLayer
370
13
48
1
60
0
100
AcDbLine
10
0
20
-1.5875
30
0
11
0
21
-26.07409
31
0
39
0
210
0
220
0
230
1
0
LINE
5
1A3
100
AcDbEntity
8
2
62
256
6
ByLayer
370
13
48
1
60
0
100
AcDbLine
10
20
20
-12.4875
30
0
11
20
21
-26.07409
31
0
39
0
210
0
220
0
230
1
0
LINE
5
1A4
100
AcDbEntity
8
2
62
256
6
ByLayer
370
13
48
1
60
0
100
AcDbLine
10
0
20
-24.07409
30
0
11
20
21
-24.07409
31
0
39
0
210
0
220
0
230
1
0
SOLID
5
1A5
100
AcDbEntity
8
2
62
256
6
ByLayer
370
18
48
1
60
0
100
AcDbTrace
10
0
20
-24.07409
30
0
11
3.174998
21
-23.656093
31
0
12
3.175002
22
-24.492087
32
0
13
3.175002
23
-24.492087
33
0
39
0
210
0
220
0
230
1
0
SOLID
5
1A6
100
AcDbEntity
8
2
62
256
6
ByLayer
370
18
48
1
60
0
100
AcDbTrace
10
20
20
-24.07409
30
0
11
16.825002
21
-24.492087
31
0
12
16.824998
22
-23.656093
32
0
13
16.824998
23
-23.656093
33
0
39
0
210
0
220
0
230
1
0
ENDBLK
5
1A8
100
AcDbEntity
8
0
100
AcDbBlockEnd
0
BLOCK
5
1AD
100
AcDbEntity
8
0
100
AcDbBlockBegin
2
*D5
70
1
10
0
20
0
30
0
3
*D5
0
LINE
5
1AF
100
AcDbEntity
8
0
62
256
6
ByLayer
370
-2
48
1
60
0
100
AcDbLine
10
-1.058735
20
7.90174
30
0
11
-11.963921
21
7.90174
31
0
39
0
210
0
220
0
230
1
0
LINE
5
1B0
100
AcDbEntity
8
0
62
256
6
ByLayer
370
-2
48
1
60
0
100
AcDbLine
10
-1.058735
20
-7.90174
30
0
11
-11.963921
21
-7.90174
31
0
39
0
210
0
220
0
230
1
0
LINE
5
1B1
100
AcDbEntity
8
0
62
256
6
ByLayer
370
-2
48
1
60
0
100
AcDbLine
10
-9.963921
20
4.72674
30
0
11
-9.963921
21
-4.72674
31
0
39
0
210
0
220
0
230
1
0
SOLID
5
1B2
100
AcDbEntity
8
0
62
256
6
ByLayer
370
-1
48
1
60
0
100
AcDbTrace
10
-9.434754
20
4.72674
30
0
11
-10.493087
21
4.72674
31
0
12
-9.963921
22
7.90174
32
0
13
-9.963921
23
7.90174
33
0
39
0
210
0
220
0
230
1
0
SOLID
5
1B3
100
AcDbEntity
8
0
62
256
6
ByLayer
370
-1
48
1
60
0
100
AcDbTrace
10
-10.493087
20
-4.72674
30
0
11
-9.434754
21
-4.72674
31
0
12
-9.963921
22
-7.90174
32
0
13
-9.963921
23
-7.90174
33
0
39
0
210
0
220
0
230
1
0
MTEXT
5
1B4
100
AcDbEntity
8
0
62
256
6
ByLayer
370
18
48
1
60
0
100
AcDbMText
10
-15.963921
20
0
30
0
210
0
220
0
230
1
1
\A1;15.8
40
3
41
0
44
1
50
90
71
5
72
5
7
iso_b_vert
0
POINT
5
1B5
100
AcDbEntity
8
Defpoints
62
0
6
ByLayer
370
-1
48
1
60
0
100
AcDbPoint
10
0.528765
20
7.90174
30
0
39
0
210
0
220
0
230
1
50
360
0
POINT
5
1B6
100
AcDbEntity
8
Defpoints
62
0
6
ByLayer
370
-1
48
1
60
0
100
AcDbPoint
10
0.528765
20
-7.90174
30
0
39
0
210
0
220
0
230
1
50
360
0
POINT
5
1B7
100
AcDbEntity
8
Defpoints
62
0
6
ByLayer
370
-1
48
1
60
0
100
AcDbPoint
10
-9.963921
20
-7.90174
30
0
39
0
210
0
220
0
230
1
50
360
0
ENDBLK
5
1AE
100
AcDbEntity
8
0
100
AcDbBlockEnd
0
BLOCK
5
1C1
100
AcDbEntity
8
0
100
AcDbBlockBegin
2
_U2
70
0
10
0
20
0
30
0
3
_U2
0
MTEXT
5
1BA
100
AcDbEntity
8
SK2
62
256
6
ByLayer
370
18
48
1
60
0
100
AcDbMText
10
-11.305035
20
-5.781885
30
0
210
0
220
0
230
1
1
%%c
40
3
41
0
44
1.084337
50
90
71
7
72
5
7
iso_b_vert
0
MTEXT
5
1BB
100
AcDbEntity
8
SK2
62
256
6
ByLayer
370
18
48
1
60
0
100
AcDbMText
10
-11.305035
20
3.218115
30
0
210
0
220
0
230
1
1
\W0.6789;16
40
3
41
0
44
1.084337
50
90
71
7
72
5
7
iso_b_vert
0
LINE
5
1BC
100
AcDbEntity
8
SK2
62
256
6
ByLayer
370
13
48
1
60
0
100
AcDbLine
10
-1.058735
20
7.90174
30
0
11
-11.963921
21
7.90174
31
0
39
0
210
0
220
0
230
1
0
LINE
5
1BD
100
AcDbEntity
8
SK2
62
256
6
ByLayer
370
13
48
1
60
0
100
AcDbLine
10
-1.058735
20
-7.90174
30
0
11
-11.963921
21
-7.90174
31
0
39
0
210
0
220
0
230
1
0
LINE
5
1BE
100
AcDbEntity
8
SK2
62
256
6
ByLayer
370
13
48
1
60
0
100
AcDbLine
10
-9.963921
20
7.90174
30
0
11
-9.963921
21
-7.90174
31
0
39
0
210
0
220
0
230
1
0
SOLID
5
1BF
100
AcDbEntity
8
SK2
62
256
6
ByLayer
370
18
48
1
60
0
100
AcDbTrace
10
-9.963921
20
7.90174
30
0
11
-9.545924
21
4.726742
31
0
12
-10.381917
22
4.726738
32
0
13
-10.381917
23
4.726738
33
0
39
0
210
0
220
0
230
1
0
SOLID
5
1C0
100
AcDbEntity
8
SK2
62
256
6
ByLayer
370
18
48
1
60
0
100
AcDbTrace
10
-9.963921
20
-7.90174
30
0
11
-10.381917
21
-4.726742
31
0
12
-9.545924
22
-4.726738
32
0
13
-9.545924
23
-4.726738
33
0
39
0
210
0
220
0
230
1
0
ENDBLK
5
1C2
100
AcDbEntity
8
0
100
AcDbBlockEnd
0
BLOCK
5
1CB
100
AcDbEntity
8
0
100
AcDbBlockBegin
2
_U3
70
0
10
0
20
0
30
0
3
_U3
0
MTEXT
5
1C4
100
AcDbEntity
8
SK2
62
256
6
ByLayer
370
18
48
1
60
0
100
AcDbMText
10
31.35414
20
5.473856
30
0
210
0
220
0
230
1
1
\W0.8725;95%%d
40
3
41
0
44
1.084337
50
317.4999999934
71
7
72
5
7
iso_b_vert
0
LINE
5
1C5
100
AcDbEntity
8
SK2
62
256
6
ByLayer
370
13
48
1
60
0
100
AcDbLine
10
21.5875
20
-10.9
30
0
11
40.798153
21
-10.9
31
0
39
0
210
0
220
0
230
1
0
LINE
5
1C6
100
AcDbEntity
8
SK2
62
256
6
ByLayer
370
13
48
1
60
0
100
AcDbLine
10
19.371547
20
-3.279847
30
0
11
18.228877
21
9.780931
31
0
39
0
210
0
220
0
230
1
0
ARC
5
1C7
100
AcDbEntity
8
SK2
62
256
6
ByLayer
370
13
48
1
60
0
100
AcDbCircle
39
0
10
20.038224
20
-10.9
30
0
40
18.7599291755797
210
0
220
0
230
1
100
AcDbArc
50
0
51
94.999943
0
SOLID
5
1C8
100
AcDbEntity
8
SK2
62
256
6
ByLayer
370
18
48
1
60
0
100
AcDbTrace
10
38.798153
20
-10.9
30
0
11
38.246551
21
-7.745468
31
0
12
39.0818
22
-7.710188
32
0
13
38.798153
23
-10.9
33
0
39
0
210
0
220
0
230
1
0
SOLID
5
1C9
100
AcDbEntity
8
SK2
62
256
6
ByLayer
370
18
48
1
60
0
100
AcDbTrace
10
18.403189
20
7.788542
30
0
11
21.556138
21
8.349119
31
0
12
21.593795
22
7.513974
32
0
13
18.403189
23
7.788542
33
0
39
0
210
0
220
0
230
1
0
ENDBLK
5
1CC
100
AcDbEntity
8
0
100
AcDbBlockEnd
0
ENDSEC
0
SECTION
2
ENTITIES
0
ARC
5
E0
100
AcDbEntity
8
1
62
256
6
ByLayer
370
13
48
1
60
0
100
AcDbCircle
39
0
10
12.925757
20
9.404439
30
0
40
7.9999999999757
210
0
220
0
230
1
100
AcDbArc
50
257.921228
51
269.99995
0
ARC
5
E1
100
AcDbEntity
8
1
62
256
6
ByLayer
370
13
48
1
60
0
100
AcDbCircle
39
0
10
15.231816
20
-2.295561
30
0
40
3.69999999999991
210
0
220
0
230
1
100
AcDbArc
50
5.942164
51
90.000108
0
ELLIPSE
5
E2
100
AcDbEntity
8
1
62
256
6
ByLayer
370
13
48
1
60
0
100
AcDbEllipse
10
16.541184
20
-7.35773
30
0
11
1.79779774932386
21
0.158168283950696
31
0
210
0
220
0
230
1
40
0.993645
41
0
42
6.28318530717959
0
ELLIPSE
5
E3
100
AcDbEntity
8
1
62
256
6
ByLayer
370
13
48
1
60
0
100
AcDbEllipse
10
16.543524
20
-7.38442
30
0
11
1.87726720707213
21
0.164759006584806
31
0
210
0
220
0
230
1
40
0.993637
41
2.48931017730155
42
3.14131469136994
0
ELLIPSE
5
E4
100
AcDbEntity
8
1
62
256
6
ByLayer
370
13
48
1
60
0
100
AcDbEllipse
10
16.543524
20
-7.38442
30
0
11
1.87722260750947
21
0.165155996291997
31
0
210
0
220
0
230
1
40
0.993645
41
3.14110772209973
42
0.651468112400641
0
ELLIPSE
5
E5
100
AcDbEntity
8
1
62
256
6
ByLayer
370
13
48
1
60
0
100
AcDbEllipse
10
16.548864
20
-7.4455
30
0
11
1.91514435292345
21
0.16849231007112
31
0
210
0
220
0
230
1
40
0.993645
41
0
42
6.28318530717959
0
ELLIPSE
5
E6
100
AcDbEntity
8
1
62
256
6
ByLayer
370
13
48
1
60
0
100
AcDbEllipse
10
13.494594
20
-4.41038
30
0
11
0.395385740048966
21
0.0343530210293292
31
0
210
0
220
0
230
1
40
0.993635
41
1.39686111522102
42
-3.14099493996556
0
ELLIPSE
5
E7
100
AcDbEntity
8
1
62
256
6
ByLayer
370
13
48
1
60
0
100
AcDbEllipse
10
13.983194
20
-9.99511
30
0
11
0.395346192968704
21
0.0347821266429153
31
0
210
0
220
0
230
1
40
0.993645
41
3.14110772197828
42
-1.74581418360726
0
ELLIPSE
5
E8
100
AcDbEntity
8
1
62
256
6
ByLayer
370
13
48
1
60
0
100
AcDbEllipse
10
19.603144
20
-10.48063
30
0
11
0.395385740048966
21
0.0343530210293292
31
0
210
0
220
0
230
1
40
0.993635
41
-1.74473153836878
42
0.000597713624231381
0
ELLIPSE
5
E9
100
AcDbEntity
8
1
62
256
6
ByLayer
370
13
48
1
60
0
100
AcDbEllipse
10
19.114544
20
-4.8959
30
0
11
0.395346192976772
21
0.0347821265286191
31
0
210
0
220
0
230
1
40
0.993645
41
-0.000484931325245331
42
1.39577847027254
0
ELLIPSE
5
EA
100
AcDbEntity
8
1
62
256
6
ByLayer
370
13
48
1
60
0
100
AcDbEllipse
10
13.314944
20
-5.0561
30
0
11
1.19254931817289
21
0.105064416244971
31
0
210
0
220
0
230
1
40
0.993641
41
3.07155653926402
42
-1.74593716365027
0
ELLIPSE
5
EB
100
AcDbEntity
8
1
62
256
6
ByLayer
370
13
48
1
60
0
100
AcDbEllipse
10
13.087496
20
-4.462296
30
0
11
1.14563628780681
21
0.0996717163436825
31
0
210
0
220
0
230
1
40
0.993657
41
0.302247226769777
42
0.328607891531019
0
ELLIPSE
5
EC
100
AcDbEntity
8
1
62
256
6
ByLayer
370
13
48
1
60
0
100
AcDbEllipse
10
13.087464
20
-4.46231
30
0
11
1.14566759471029
21
0.0996539696483251
31
0
210
0
220
0
230
1
40
0.993642
41
2.81396588103962
42
-2.65993708061464
0
ELLIPSE
5
ED
100
AcDbEntity
8
1
62
256
6
ByLayer
370
13
48
1
60
0
100
AcDbEllipse
10
13.315924
20
-5.06732
30
0
11
1.29225276044679
21
0.112906205520404
31
0
210
0
220
0
230
1
40
0.993635
41
-3.09373030502981
42
-1.74521497640709
0
ELLIPSE
5
EE
100
AcDbEntity
8
1
62
256
6
ByLayer
370
13
48
1
60
0
100
AcDbEllipse
10
13.336044
20
-5.29732
30
0
11
1.29228135769074
21
0.112479793522614
31
0
210
0
220
0
230
1
40
0.993643
41
3.09430277220929
42
-1.74488304263166
0
ELLIPSE
5
EF
100
AcDbEntity
8
1
62
256
6
ByLayer
370
13
48
1
60
0
100
AcDbEllipse
10
13.108574
20
-4.70352
30
0
11
1.24525632821096
21
0.108784709243248
31
0
210
0
220
0
230
1
40
0.993642
41
2.23154009013783
42
-2.68285012967735
0
ELLIPSE
5
F0
100
AcDbEntity
8
1
62
256
6
ByLayer
370
13
48
1
60
0
100
AcDbEllipse
10
13.088444
20
-4.47353
30
0
11
1.24527095312631
21
0.108623102612601
31
0
210
0
220
0
230
1
40
0.99364
41
-3.04829518189678
42
-2.68272664251737
0
ELLIPSE
5
F1
100
AcDbEntity
8
1
62
256
6
ByLayer
370
13
48
1
60
0
100
AcDbEllipse
10
13.108574
20
-4.70352
30
0
11
1.24520963355182
21
0.109320564841829
31
0
210
0
220
0
230
1
40
0.993638
41
0.440636409800441
42
0.810272776118907
0
ELLIPSE
5
F2
100
AcDbEntity
8
1
62
256
6
ByLayer
370
13
48
1
60
0
100
AcDbEllipse
10
-180.864925
20
3.358732
30
0
11
280.140906761305
21
0.30809051093117
31
0
210
0
220
0
230
1
40
0.009751
41
-0.834972921027098
42
-0.815118703728492
0
ELLIPSE
5
F3
100
AcDbEntity
8
1
62
256
6
ByLayer
370
13
48
1
60
0
100
AcDbEllipse
10
-257.649447
20
-3.35876
30
0
11
280.143546621001
21
0.309321474597962
31
0
210
0
220
0
230
1
40
0.009758
41
-0.248520763233868
42
-0.156998320459301
0
ELLIPSE
5
F4
100
AcDbEntity
8
1
62
256
6
ByLayer
370
13
48
1
60
0
100
AcDbEllipse
10
19.373544
20
-3.35876
30
0
11
-0.28317896014524
21
2.74979668606926
31
0
210
0
220
0
230
1
40
0.121344
41
1.28717420094125
42
1.6028478834834
0
ELLIPSE
5
F5
100
AcDbEntity
8
1
62
256
6
ByLayer
370
13
48
1
60
0
100
AcDbEllipse
10
-257.649446
20
-3.35876
30
0
11
280.14190428096
21
0.308769461725906
31
0
210
0
220
0
230
1
40
0.009757
41
0.158675316775142
42
0.328704580483306
0
ELLIPSE
5
F6
100
AcDbEntity
8
1
62
256
6
ByLayer
370
13
48
1
60
0
100
AcDbEllipse
10
-257.649413
20
-3.35876
30
0
11
280.144042379461
21
0.308509719596483
31
0
210
0
220
0
230
1
40
0.009753
41
-0.327017033535691
42
-0.271157880398387
0
ELLIPSE
5
F7
100
AcDbEntity
8
1
62
256
6
ByLayer
370
13
48
1
60
0
100
AcDbEllipse
10
5.991104
20
-3.35876
30
0
11
-0.242115404105249
21
2.74998928865306
31
0
210
0
220
0
230
1
40
6.3E-05
41
-0.25413171608738
42
-2.66088060574323
0
ELLIPSE
5
F8
100
AcDbEntity
8
1
62
256
6
ByLayer
370
13
48
1
60
0
100
AcDbEllipse
10
5.399674
20
3.35876
30
0
11
-0.242129824042746
21
2.74998924704553
31
0
210
0
220
0
230
1
40
6.4E-05
41
0.0301452282497259
42
-2.94516253955665
0
ELLIPSE
5
F9
100
AcDbEntity
8
1
62
256
6
ByLayer
370
13
48
1
60
0
100
AcDbEllipse
10
5.695604
20
-1E-06
30
0
11
-0.704341484777688
21
8.00001463591029
31
0
210
0
220
0
230
1
40
6.4E-05
41
0.461419671874161
42
1.00422478293116
0
ELLIPSE
5
FA
100
AcDbEntity
8
1
62
256
6
ByLayer
370
13
48
1
60
0
100
AcDbEllipse
10
5.695604
20
0
30
0
11
-0.704315222975895
21
8.00001648347428
31
0
210
0
220
0
230
1
40
6.1E-05
41
2.13735614224715
42
2.90675638650433
0
ELLIPSE
5
FB
100
AcDbEntity
8
1
62
256
6
ByLayer
370
13
48
1
60
0
100
AcDbEllipse
10
16.538924
20
-7.33182
30
0
11
0.788162940887619
21
0.069292798635307
31
0
210
0
220
0
230
1
40
0.993634
41
0.220035291539648
42
0.912510776466818
0
ELLIPSE
5
FC
100
AcDbEntity
8
1
62
256
6
ByLayer
370
13
48
1
60
0
100
AcDbEllipse
10
16.538924
20
-7.33182
30
0
11
0.788206292174075
21
0.0687792871960262
31
0
210
0
220
0
230
1
40
0.993636
41
2.57696080649326
42
-2.96683784775796
0
ELLIPSE
5
FD
100
AcDbEntity
8
1
62
256
6
ByLayer
370
13
48
1
60
0
100
AcDbEllipse
10
16.538924
20
-7.33182
30
0
11
0.788162053018021
21
0.0692461007753545
31
0
210
0
220
0
230
1
40
0.993636
41
-2.96742582794667
42
-1.92022827674224
0
ELLIPSE
5
FE
100
AcDbEntity
8
1
62
256
6
ByLayer
370
13
48
1
60
0
100
AcDbEllipse
10
16.538924
20
-7.33182
30
0
11
0.788195002491433
21
0.0689249485553165
31
0
210
0
220
0
230
1
40
0.993634
41
-1.91981922024666
42
-0.872621669054011
0
ELLIPSE
5
FF
100
AcDbEntity
8
1
62
256
6
ByLayer
370
13
48
1
60
0
100
AcDbEllipse
10
16.538924
20
-7.33182
30
0
11
0.788194738139577
21
0.0688599882573395
31
0
210
0
220
0
230
1
40
0.993639
41
-0.872541088339031
42
-0.0107791427913205
0
ELLIPSE
5
100
100
AcDbEntity
8
1
62
256
6
ByLayer
370
13
48
1
60
0
100
AcDbEllipse
10
16.538924
20
-7.33182
30
0
11
0.788186843701337
21
0.0690167410577945
31
0
210
0
220
0
230
1
40
0.993632
41
1.45735419812461
42
2.08483790943985
0
ELLIPSE
5
101
100
AcDbEntity
8
1
62
256
6
ByLayer
370
13
48
1
60
0
100
AcDbEllipse
10
16.302134
20
-8.20832
30
0
11
-0.233504638602088
21
0.0617099094120778
31
0
210
0
220
0
230
1
40
0.501668
41
-2.80520346300861
42
-1.57355320125482
0
ELLIPSE
5
102
100
AcDbEntity
8
1
62
256
6
ByLayer
370
13
48
1
60
0
100
AcDbEllipse
10
16.302134
20
-8.20832
30
0
11
-0.233504372640383
21
0.0617100744875831
31
0
210
0
220
0
230
1
40
0.501667
41
-1.57354932650988
42
-0.341899064770278
0
ELLIPSE
5
103
100
AcDbEntity
8
1
62
256
6
ByLayer
370
13
48
1
60
0
100
AcDbEllipse
10
17.184154
20
-7.97301
30
0
11
0.171356564132032
21
0.169559962514447
31
0
210
0
220
0
230
1
40
0.503561
41
0.343383095577314
42
1.57503335733603
0
ELLIPSE
5
104
100
AcDbEntity
8
1
62
256
6
ByLayer
370
13
48
1
60
0
100
AcDbEllipse
10
17.184154
20
-7.97301
30
0
11
0.171357518801928
21
0.169559256172116
31
0
210
0
220
0
230
1
40
0.503561
41
1.57503643112204
42
2.75056721486814
0
ELLIPSE
5
105
100
AcDbEntity
8
1
62
256
6
ByLayer
370
13
48
1
60
0
100
AcDbEllipse
10
16.774774
20
-8.2082
30
0
11
0.233532424521946
21
0.0621190477581387
31
0
210
0
220
0
230
1
40
0.501117
41
-3.12238845109239
42
-0.401233358450176
0
ELLIPSE
5
106
100
AcDbEntity
8
1
62
256
6
ByLayer
370
13
48
1
60
0
100
AcDbEllipse
10
15.656894
20
-7.56713
30
0
11
-0.0626009017158241
21
0.231907880244712
31
0
210
0
220
0
230
1
40
0.507165
41
-1.91116689976824
42
-1.57228902270116
0
ELLIPSE
5
107
100
AcDbEntity
8
1
62
256
6
ByLayer
370
13
48
1
60
0
100
AcDbEllipse
10
15.656894
20
-7.56713
30
0
11
-0.0626014637310694
21
0.231908105593567
31
0
210
0
220
0
230
1
40
0.507167
41
-1.57229189499419
42
-0.340641633247707
0
ELLIPSE
5
108
100
AcDbEntity
8
1
62
256
6
ByLayer
370
13
48
1
60
0
100
AcDbEllipse
10
15.892864
20
-7.97383
30
0
11
-0.17117083929217
21
0.16936958667602
31
0
210
0
220
0
230
1
40
0.504675
41
0.871023823234162
42
-2.95080211862799
0
ELLIPSE
5
109
100
AcDbEntity
8
1
62
256
6
ByLayer
370
13
48
1
60
0
100
AcDbEllipse
10
17.420944
20
-7.09651
30
0
11
-0.0626004425296544
21
0.231909940181966
31
0
210
0
220
0
230
1
40
0.507164
41
0.337657066315011
42
1.23042843757942
0
ELLIPSE
5
10A
100
AcDbEntity
8
1
62
256
6
ByLayer
370
13
48
1
60
0
100
AcDbEllipse
10
17.420834
20
-7.56619
30
0
11
0.0630115650032857
21
0.23193709869907
31
0
210
0
220
0
230
1
40
0.506597
41
2.94934732733613
42
-1.19767002277771
0
ELLIPSE
5
10B
100
AcDbEntity
8
1
62
256
6
ByLayer
370
13
48
1
60
0
100
AcDbEllipse
10
15.657014
20
-7.09744
30
0
11
0.0630101056617061
21
0.231937215941164
31
0
210
0
220
0
230
1
40
0.506603
41
2.46164332029832
42
-2.94375577716761
0
ELLIPSE
5
10C
100
AcDbEntity
8
1
62
256
6
ByLayer
370
13
48
1
60
0
100
AcDbEllipse
10
16.539904
20
-7.34304
30
0
11
1.71835584878114
21
0.151187725100477
31
0
210
0
220
0
230
1
40
0.993645
41
-0.0004799346238456
42
3.14101457126701
0
ELLIPSE
5
10D
100
AcDbEntity
8
1
62
256
6
ByLayer
370
13
48
1
60
0
100
AcDbEllipse
10
17.184974
20
-6.68981
30
0
11
-0.171170725215466
21
0.169368389028183
31
0
210
0
220
0
230
1
40
0.50468
41
2.94228875277323
42
-2.94959870491627
0
ELLIPSE
5
10E
100
AcDbEntity
8
1
62
256
6
ByLayer
370
13
48
1
60
0
100
AcDbEllipse
10
16.548734
20
-7.44401
30
0
11
1.03111885404265
21
0.090167805999051
31
0
210
0
220
0
230
1
40
0.993634
41
-0.349022893580824
42
0.698174657614501
0
ELLIPSE
5
10F
100
AcDbEntity
8
1
62
256
6
ByLayer
370
13
48
1
60
0
100
AcDbEllipse
10
16.548734
20
-7.44401
30
0
11
1.03107574944167
21
0.0905879385096797
31
0
210
0
220
0
230
1
40
0.993636
41
-1.39662950156337
42
-0.34943195036928
0
ELLIPSE
5
110
100
AcDbEntity
8
1
62
256
6
ByLayer
370
13
48
1
60
0
100
AcDbEllipse
10
16.548734
20
-7.44401
30
0
11
1.031118508213
21
0.0900828248054088
31
0
210
0
220
0
230
1
40
0.993639
41
-2.44333741530637
42
-1.3961398641112
0
ELLIPSE
5
111
100
AcDbEntity
8
1
62
256
6
ByLayer
370
13
48
1
60
0
100
AcDbEllipse
10
16.548734
20
-7.44401
30
0
11
1.03111885404265
21
0.090167805999051
31
0
210
0
220
0
230
1
40
0.993634
41
2.79256976000897
42
-2.44341799597529
0
ELLIPSE
5
112
100
AcDbEntity
8
1
62
256
6
ByLayer
370
13
48
1
60
0
100
AcDbEllipse
10
16.548734
20
-7.44401
30
0
11
1.03107574944167
21
0.0905879385096798
31
0
210
0
220
0
230
1
40
0.993636
41
1.74496315202642
42
2.79216070322051
0
ELLIPSE
5
113
100
AcDbEntity
8
1
62
256
6
ByLayer
370
13
48
1
60
0
100
AcDbEllipse
10
16.548734
20
-7.44401
30
0
11
1.03111850821428
21
0.0900828247871566
31
0
210
0
220
0
230
1
40
0.993639
41
0.698255238300989
42
1.74545278949643
0
ELLIPSE
5
114
100
AcDbEntity
8
1
62
256
6
ByLayer
370
13
48
1
60
0
100
AcDbEllipse
10
16.548734
20
-7.44401
30
0
11
1.29499225414406
21
0.113932005225905
31
0
210
0
220
0
230
1
40
0.993645
41
0
42
6.28318530717959
0
ELLIPSE
5
115
100
AcDbEntity
8
1
62
256
6
ByLayer
370
13
48
1
60
0
100
AcDbEllipse
10
16.547034
20
-7.4245
30
0
11
1.71835510646065
21
0.151179006931187
31
0
210
0
220
0
230
1
40
0.993645
41
0
42
6.28318530717959
0
POINT
5
70
100
AcDbEntity
8
80
62
256
6
ByLayer
370
18
48
1
60
0
100
AcDbPoint
10
0
20
0
30
0
39
0
210
0
220
0
230
1
50
360
0
POINT
5
72
100
AcDbEntity
8
81
62
256
6
ByLayer
370
18
48
1
60
0
100
AcDbPoint
10
20
20
-10.9
30
0
39
0
210
0
220
0
230
1
50
360
0
SPLINE
5
116
100
AcDbEntity
8
1
62
256
6
ByLayer
370
13
48
1
60
0
100
AcDbSpline
70
4
71
3
72
8
73
4
40
0
40
0
40
0
40
0
40
1
40
1
40
1
40
1
41
1
10
12.0197994656375
20
-5.1189789159445
30
0
41
1
10
12.0524910160576
20
-5.1053285942987
30
0
41
1
10
12.0852229273837
20
-5.09166465288038
30
0
41
1
10
12.1180066845546
20
-5.07798323639548
30
0
0
SPLINE
5
117
100
AcDbEntity
8
1
62
256
6
ByLayer
370
13
48
1
60
0
100
AcDbSpline
70
4
71
3
72
8
73
4
40
0
40
0
40
0
40
0
40
1
40
1
40
1
40
1
41
1
10
8.33900198228201
20
-7.9972847840599
30
0
41
1
10
9.20715048011041
20
-8.50037426365088
30
0
41
1
10
10.0757920465043
20
-9.0026229508741
30
0
41
1
10
10.9447224749634
20
-9.50437906356129
30
0
0
SPLINE
5
118
100
AcDbEntity
8
1
62
256
6
ByLayer
370
13
48
1
60
0
100
AcDbSpline
70
4
71
3
72
8
73
4
40
0
40
0
40
0
40
0
40
1
40
1
40
1
40
1
41
1
10
13.5621319596776
20
-9.7362140828476
30
0
41
1
10
12.6896666521699
20
-9.6589883489516
30
0
41
1
10
11.817205354962
20
-9.58171840551958
30
0
41
1
10
10.944748383937
20
-9.50440085477638
30
0
0
SPLINE
5
119
100
AcDbEntity
8
1
62
256
6
ByLayer
370
13
48
1
60
0
100
AcDbSpline
70
4
71
3
72
12
73
8
40
0
40
0
40
0
40
0
40
0.25
40
0.25
40
0.5
40
0.5
40
1
40
1
40
1
40
1
41
1
10
5.17205132162812
20
7.43465414280072
30
0
41
1
10
5.2072017567491
20
7.29629073435461
30
0
41
1
10
5.24584224518802
20
7.15966407120081
30
0
41
1
10
5.33020467442111
20
6.8889489768552
30
0
41
1
10
5.3759255356656
20
6.7548762357319
30
0
41
1
10
5.52398734171771
20
6.35577617077863
30
0
41
1
10
5.63714799654292
20
6.09386057107611
30
0
41
1
10
5.7662722806572
20
5.83487557763621
30
0
0
SPLINE
5
11A
100
AcDbEntity
8
1
62
256
6
ByLayer
370
13
48
1
60
0
100
AcDbSpline
70
4
71
3
72
8
73
4
40
0
40
0
40
0
40
0
40
1
40
1
40
1
40
1
41
1
10
-0.221234548247082
20
5.8171782044723
30
0
41
1
10
-0.176111168033401
20
5.76472875459481
30
0
41
1
10
-0.131367125166577
20
5.71188143043412
30
0
41
1
10
-0.0870700626534813
20
5.65856528349792
30
0
0
SPLINE
5
11B
100
AcDbEntity
8
1
62
256
6
ByLayer
370
13
48
1
60
0
100
AcDbSpline
70
4
71
3
72
8
73
4
40
0
40
0
40
0
40
0
40
1
40
1
40
1
40
1
41
1
10
-0.221234548247082
20
5.79214308338661
30
0
41
1
10
-0.194681603842184
20
5.76883657366801
30
0
41
1
10
-0.168146545162699
20
5.7455033546405
30
0
41
1
10
-0.141631788999689
20
5.72213981723471
30
0
0
SPLINE
5
11C
100
AcDbEntity
8
1
62
256
6
ByLayer
370
13
48
1
60
0
100
AcDbSpline
70
4
71
3
72
8
73
4
40
0
40
0
40
0
40
0
40
1
40
1
40
1
40
1
41
1
10
-0.145860344568888
20
5.55399326890401
30
0
41
1
10
-0.170747484798397
20
5.5888731720122
30
0
41
1
10
-0.195879996040901
20
5.62354698027502
30
0
41
1
10
-0.221234548246997
20
5.65803428933631
30
0
0
SPLINE
5
11D
100
AcDbEntity
8
1
62
256
6
ByLayer
370
13
48
1
60
0
100
AcDbSpline
70
4
71
3
72
8
73
4
40
0
40
0
40
0
40
0
40
1
40
1
40
1
40
1
41
1
10
-0.221234548247082
20
4.99396356717602
30
0
41
1
10
-0.193335555156779
20
4.9698355070397
30
0
41
1
10
-0.165460323749187
20
4.9456716437177
30
0
41
1
10
-0.137613131889481
20
4.92146553148802
30
0
0
SPLINE
5
11E
100
AcDbEntity
8
1
62
256
6
ByLayer
370
13
48
1
60
0
100
AcDbSpline
70
4
71
3
72
8
73
4
40
0
40
0
40
0
40
0
40
1
40
1
40
1
40
1
41
1
10
-0.155426598383883
20
4.14082300602252
30
0
41
1
10
-0.174331519148495
20
4.23280790121302
30
0
41
1
10
-0.196342645285199
20
4.3241381888877
30
0
41
1
10
-0.221234548247082
20
4.41486137627891
30
0
0
SPLINE
5
11F
100
AcDbEntity
8
1
62
256
6
ByLayer
370
13
48
1
60
0
100
AcDbSpline
70
4
71
3
72
10
73
6
40
0
40
0
40
0
40
0
40
0.778664303139887
40
0.778664303139887
40
1
40
1
40
1
40
1
41
1
10
-0.20915740271198
20
5.07775219929772
30
0
41
1
10
-0.144985825068488
20
4.9444362806299
30
0
41
1
10
-0.0860838669566988
20
4.80900553167672
30
0
41
1
10
-0.0187440764228768
20
4.6317454927989
30
0
41
1
10
-0.0043617624146748
20
4.59230187220282
30
0
41
1
10
0.0094646250193193
20
4.55263514435032
30
0
0
SPLINE
5
120
100
AcDbEntity
8
1
62
256
6
ByLayer
370
13
48
1
60
0
100
AcDbSpline
70
4
71
3
72
8
73
4
40
0
40
0
40
0
40
0
40
1
40
1
40
1
40
1
41
1
10
-0.221234548247082
20
-4.41486137627888
30
0
41
1
10
-0.196295912037499
20
-4.32396786084178
30
0
41
1
10
-0.1742891556122
20
-4.23260537755118
30
0
41
1
10
-0.155410992459082
20
-4.14074246116658
30
0
0
SPLINE
5
121
100
AcDbEntity
8
1
62
256
6
ByLayer
370
13
48
1
60
0
100
AcDbSpline
70
4
71
3
72
8
73
4
40
0
40
0
40
0
40
0
40
1
40
1
40
1
40
1
41
1
10
-0.138721839015176
20
-4.92242923761879
30
0
41
1
10
-0.166200200381582
20
-4.946313001655
30
0
41
1
10
-0.193705806725291
20
-4.97015571401198
30
0
41
1
10
-0.221234548247082
20
-4.993963567176
30
0
0
SPLINE
5
122
100
AcDbEntity
8
1
62
256
6
ByLayer
370
13
48
1
60
0
100
AcDbSpline
70
4
71
3
72
8
73
4
40
0
40
0
40
0
40
0
40
1
40
1
40
1
40
1
41
1
10
-0.221234548246997
20
-5.65803428933629
30
0
41
1
10
-0.195883151924676
20
-5.6235512729138
30
0
41
1
10
-0.170753741294277
20
-5.5888818037142
30
0
41
1
10
-0.145869637695
20
-5.5540062934098
30
0
0
SPLINE
5
123
100
AcDbEntity
8
1
62
256
6
ByLayer
370
13
48
1
60
0
100
AcDbSpline
70
4
71
3
72
8
73
4
40
0
40
0
40
0
40
0
40
1
40
1
40
1
40
1
41
1
10
-0.141667052390176
20
-5.72217088962259
30
0
41
1
10
-0.168170072086099
20
-5.7455240426911
30
0
41
1
10
-0.194693375231196
20
-5.76884690585518
30
0
41
1
10
-0.221234548247082
20
-5.79214308338649
30
0
0
SPLINE
5
124
100
AcDbEntity
8
1
62
256
6
ByLayer
370
13
48
1
60
0
100
AcDbSpline
70
4
71
3
72
8
73
4
40
0
40
0
40
0
40
0
40
1
40
1
40
1
40
1
41
1
10
-0.087070062653595
20
-5.65856528349789
30
0
41
1
10
-0.13136712516669
20
-5.71188143043409
30
0
41
1
10
-0.176111168033401
20
-5.76472875459478
30
0
41
1
10
-0.221234548247082
20
-5.8171782044723
30
0
0
SPLINE
5
125
100
AcDbEntity
8
1
62
256
6
ByLayer
370
13
48
1
60
0
100
AcDbSpline
70
4
71
3
72
10
73
6
40
0
40
0
40
0
40
0
40
0.213990733051177
40
0.213990733051177
40
1
40
1
40
1
40
1
41
1
10
0.0091267758067204
20
-4.55360717048308
30
0
41
1
10
-0.0042710978434854
20
-4.59201425748429
30
0
41
1
10
-0.0181794320560869
20
-4.63018174038609
30
0
41
1
10
-0.085406736295397
20
-4.80749438517108
30
0
41
1
10
-0.144697174359379
20
-4.94383661118329
30
0
41
1
10
-0.20915740271198
20
-5.07775219929758
30
0
0
SPLINE
5
126
100
AcDbEntity
8
1
62
256
6
ByLayer
370
13
48
1
60
0
100
AcDbSpline
70
4
71
3
72
57
73
53
40
0
40
0
40
0
40
0
40
0.0312499999999999
40
0.0312499999999999
40
0.0468749999999998
40
0.0468749999999998
40
0.0624999999999998
40
0.124999999999999
40
0.124999999999999
40
0.249999999999998
40
0.249999999999998
40
0.312499999999998
40
0.312499999999998
40
0.374999999999997
40
0.374999999999997
40
0.390624999999998
40
0.390624999999998
40
0.406249999999998
40
0.406249999999998
40
0.437499999999998
40
0.437499999999998
40
0.499999999999998
40
0.499999999999998
40
0.562499999999998
40
0.562499999999998
40
0.593749999999999
40
0.593749999999999
40
0.624999999999999
40
0.624999999999999
40
0.687499999999999
40
0.687499999999999
40
0.718749999999999
40
0.718749999999999
40
0.734374999999999
40
0.734374999999999
40
0.749999999999999
40
0.749999999999999
40
0.812499999999999
40
0.812499999999999
40
0.843749999999999
40
0.843749999999999
40
0.859375
40
0.859375
40
0.875
40
0.875
40
0.9375
40
0.9375
40
0.96875
40
0.96875
40
0.984375
40
0.984375
40
1
40
1
40
1
40
1
41
1
10
11.2517065167756
20
1.5815521508018
30
0
41
1
10
11.1737193703744
20
1.59824092679091
30
0
41
1
10
11.0959542135646
20
1.616101378888
30
0
41
1
10
10.9796206347998
20
1.64466120867891
30
0
41
1
10
10.9408662623117
20
1.65448373055651
30
0
41
1
10
10.863609694647
20
1.67468179578401
30
0
41
1
10
10.6711833992226
20
1.7265365429092
30
0
41
1
10
10.4822133595023
20
1.78512334999431
30
0
41
1
10
10.0346193320214
20
1.9384616824579
30
0
41
1
10
9.7440956962493
20
2.0575845769051
30
0
41
1
10
9.3182118191425
20
2.26228031824561
30
0
41
1
10
9.17791177304122
20
2.3348663141285
30
0
41
1
10
8.90042107596872
20
2.4891029584175
30
0
41
1
10
8.76323105152352
20
2.57075209420142
30
0
41
1
10
8.5935825169295
20
2.67882474657671
30
0
41
1
10
8.55974484295092
20
2.7007403974427
30
0
41
1
10
8.49225122228651
20
2.74518501466611
30
0
41
1
10
8.4585634616252
20
2.7677359874333
30
0
41
1
10
8.35810585087791
20
2.83609601316971
30
0
41
1
10
8.29189200735541
20
2.88264149336942
30
0
41
1
10
8.09550552546261
20
3.0251876931778
30
0
41
1
10
7.96758582581151
20
3.1240949445999
30
0
41
1
10
7.71770875097431
20
3.32970309508872
30
0
41
1
10
7.5957514720329
20
3.43640357812592
30
0
41
1
10
7.41730215988861
20
3.6024108931218
30
0
41
1
10
7.35854533934301
20
3.65876207634432
30
0
41
1
10
7.24262631483822
20
3.77339339474293
30
0
41
1
10
7.18592082568082
20
3.8312210273414
30
0
41
1
10
7.01952840864772
20
4.00607243872312
30
0
41
1
10
6.91356185200112
20
4.12447085902511
30
0
41
1
10
6.76196440538962
20
4.30406618741392
30
0
41
1
10
6.7126581964047
20
4.36426296681231
30
0
41
1
10
6.64053600615651
20
4.45494475184191
30
0
41
1
10
6.61680153173691
20
4.4852362976477
30
0
41
1
10
6.56994561764472
20
4.54592729404311
30
0
41
1
10
6.54679521137641
20
4.5763654897552
30
0
41
1
10
6.43290102324491
20
4.72833920251591
30
0
41
1
10
6.34899680530731
20
4.8475120018372
30
0
41
1
10
6.23314960327502
20
5.02107850351732
30
0
41
1
10
6.19620472690821
20
5.07806526862532
30
0
41
1
10
6.14321964997021
20
5.1620002698325
30
0
41
1
10
6.1259635330743
20
5.1897206940001
30
0
41
1
10
6.09225279679472
20
5.24459983356181
30
0
41
1
10
6.075773607602
20
5.27179972662123
30
0
41
1
10
5.9956337334103
20
5.40581414969401
30
0
41
1
10
5.9398716422925
20
5.50471721822612
30
0
41
1
10
5.8669511723339
20
5.63935338199042
30
0
41
1
10
5.84444087222002
20
5.68193853455111
30
0
41
1
10
5.8132306385082
20
5.74213315881121
30
0
41
1
10
5.80325369866941
20
5.7615834713321
30
0
41
1
10
5.78413716250782
20
5.7992045040003
30
0
41
1
10
5.77498987995952
20
5.81739066057662
30
0
41
1
10
5.76627228065712
20
5.83487557763632
30
0
0
SPLINE
5
127
100
AcDbEntity
8
1
62
256
6
ByLayer
370
13
48
1
60
0
100
AcDbSpline
70
4
71
3
72
27
73
23
40
0
40
0
40
0
40
0
40
0.125000000000002
40
0.125000000000002
40
0.250000000000005
40
0.250000000000005
40
0.312500000000006
40
0.312500000000006
40
0.343750000000007
40
0.343750000000007
40
0.375000000000007
40
0.500000000000007
40
0.500000000000007
40
0.625000000000007
40
0.625000000000007
40
0.687500000000006
40
0.687500000000006
40
0.750000000000006
40
0.750000000000006
40
0.875000000000003
40
0.875000000000003
40
1
40
1
40
1
40
1
41
1
10
5.1576641002226
20
6.1075069761585
30
0
41
1
10
5.1575010023835
20
6.10940417129382
30
0
41
1
10
5.16121554802001
20
6.1091223840161
30
0
41
1
10
5.17584154688052
20
6.10448675730481
30
0
41
1
10
5.186755342878
20
6.1001319496732
30
0
41
1
10
5.20834805273532
20
6.0907008145673
30
0
41
1
10
5.21641821988871
20
6.08707343731532
30
0
41
1
10
5.22982977398362
20
6.080922543328
30
0
41
1
10
5.23452688069972
20
6.07874982650011
30
0
41
1
10
5.24430285768162
20
6.07419586969192
30
0
41
1
10
5.26970263983472
20
6.06228803267771
30
0
41
1
10
5.2997497571034
20
6.0478820704088
30
0
41
1
10
5.35336714867472
20
6.02211397450992
30
0
41
1
10
5.38294838088851
20
6.00786882698571
30
0
41
1
10
5.4313790660303
20
5.9847733626616
30
0
41
1
10
5.4482451033131
20
5.97676600722212
30
0
41
1
10
5.48303465218052
20
5.960369366565
30
0
41
1
10
5.500970931658
20
5.9519737504647
30
0
41
1
10
5.55636540763271
20
5.9262940625598
30
0
41
1
10
5.5954024303353
20
5.90851684192762
30
0
41
1
10
5.6776557847256
20
5.87216226604522
30
0
41
1
10
5.7208715180823
20
5.85358286098071
30
0
41
1
10
5.76627228065712
20
5.83487557763632
30
0
0
SPLINE
5
128
100
AcDbEntity
8
1
62
256
6
ByLayer
370
13
48
1
60
0
100
AcDbSpline
70
4
71
3
72
40
73
36
40
0
40
0
40
0
40
0
40
0.125
40
0.125
40
0.15625
40
0.15625
40
0.1875
40
0.1875
40
0.25
40
0.25
40
0.3125
40
0.3125
40
0.34375
40
0.34375
40
0.374999999999999
40
0.374999999999999
40
0.437499999999999
40
0.437499999999999
40
0.499999999999999
40
0.499999999999999
40
0.531249999999999
40
0.531249999999999
40
0.562499999999999
40
0.562499999999999
40
0.624999999999999
40
0.624999999999999
40
0.75
40
0.75
40
0.781250000000001
40
0.781250000000001
40
0.812500000000001
40
0.812500000000001
40
0.875000000000001
40
0.875000000000001
40
1
40
1
40
1
40
1
41
1
10
7.16610128684403
20
1.5402397924598
30
0
41
1
10
7.0568511891758
20
1.53915451759761
30
0
41
1
10
6.95062474046551
20
1.52682288293622
30
0
41
1
10
6.8212820577011
20
1.4992173651124
30
0
41
1
10
6.79558631916501
20
1.49308781643271
30
0
41
1
10
6.74453519625132
20
1.47966182226492
30
0
41
1
10
6.71910157784322
20
1.47233873838792
30
0
41
1
10
6.6441977151604
20
1.44898626482981
30
0
41
1
10
6.5959356158437
20
1.431547649424
30
0
41
1
10
6.50238190904122
20
1.39368658619611
30
0
41
1
10
6.45709128005032
20
1.37326279579131
30
0
41
1
10
6.39120127555771
20
1.34084944799932
30
0
41
1
10
6.36957987057471
20
1.3297477518189
30
0
41
1
10
6.32700101877882
20
1.30701659229212
30
0
41
1
10
6.3061417718159
20
1.29543877811182
30
0
41
1
10
6.24501014433622
20
1.2603039433001
30
0
41
1
10
6.20607905781611
20
1.2362957727554
30
0
41
1
10
6.1315763087814
20
1.18759740670541
30
0
41
1
10
6.09600563096981
20
1.1629057911413
30
0
41
1
10
6.0450732845685
20
1.12565610425361
30
0
41
1
10
6.02850091136222
20
1.1132036267372
30
0
41
1
10
5.99616332662922
20
1.08827202995931
30
0
41
1
10
5.9804151649314
20
1.0758043306663
30
0
41
1
10
5.93480499944232
20
1.0387770706387
30
0
41
1
10
5.90642060820321
20
1.01447859122902
30
0
41
1
10
5.82713996600452
20
0.94317541666652
30
0
41
1
10
5.7820412480917
20
0.897757026866316
30
0
41
1
10
5.73585598302392
20
0.844990408427606
30
0
41
1
10
5.72710969286382
20
0.834606024910414
30
0
41
1
10
5.71085014195711
20
0.81448287126932
30
0
41
1
10
5.70332676717862
20
0.80473553630091
30
0
41
1
10
5.6825549399326
20
0.776453149607022
30
0
41
1
10
5.671100050543
20
0.758877043780501
30
0
41
1
10
5.64392349703081
20
0.710139537464102
30
0
41
1
10
5.635301317868
20
0.682949598990319
30
0
41
1
10
5.63717022145192
20
0.661646226893509
30
0
0
SPLINE
5
129
100
AcDbEntity
8
1
62
256
6
ByLayer
370
13
48
1
60
0
100
AcDbSpline
70
4
71
3
72
47
73
43
40
0
40
0
40
0
40
0
40
0.0625000000000002
40
0.0625000000000002
40
0.125
40
0.125
40
0.1875
40
0.1875
40
0.250000000000001
40
0.250000000000001
40
0.312500000000001
40
0.312500000000001
40
0.375000000000001
40
0.375000000000001
40
0.406250000000001
40
0.406250000000001
40
0.437500000000001
40
0.437500000000001
40
0.500000000000001
40
0.500000000000001
40
0.625000000000001
40
0.625000000000001
40
0.687500000000001
40
0.687500000000001
40
0.718750000000001
40
0.718750000000001
40
0.750000000000001
40
0.750000000000001
40
0.812500000000001
40
0.812500000000001
40
0.843750000000001
40
0.843750000000001
40
0.875000000000001
40
0.875000000000001
40
0.906250000000001
40
0.906250000000001
40
0.937500000000001
40
0.937500000000001
40
0.953125000000001
40
0.953125000000001
40
0.968750000000001
40
1
40
1
40
1
40
1
41
1
10
5.75680530026202
20
-0.697076740515598
30
0
41
1
10
5.7582747045945
20
-0.713720903611488
30
0
41
1
10
5.76350134521152
20
-0.732441138381375
30
0
41
1
10
5.78045372175751
20
-0.77376913606119
30
0
41
1
10
5.79218449558721
20
-0.796377862427676
30
0
41
1
10
5.82149372499723
20
-0.845311322648399
30
0
41
1
10
5.83907476274302
20
-0.871636619948902
30
0
41
1
10
5.8796709008154
20
-0.927899650989502
30
0
41
1
10
5.90232287579741
20
-0.957337699376978
30
0
41
1
10
5.95167479791411
20
-1.0185384067276
30
0
41
1
10
5.9783803462318
20
-1.05030575404749
30
0
41
1
10
6.035434237728
20
-1.11596994368438
30
0
41
1
10
6.06578401024962
20
-1.14986753695419
30
0
41
1
10
6.11385310718711
20
-1.20218553710868
30
0
41
1
10
6.1303013474527
20
-1.2198703480064
30
0
41
1
10
6.16402948521022
20
-1.2557114607919
30
0
41
1
10
6.18134082351671
20
-1.2738999769754
30
0
41
1
10
6.2341271498606
20
-1.3287526965251
30
0
41
1
10
6.27052482534282
20
-1.36578676469679
30
0
41
1
10
6.38314981734572
20
-1.47799564210709
30
0
41
1
10
6.46273250078502
20
-1.55431785320619
30
0
41
1
10
6.5893407463916
20
-1.66950503943519
30
0
41
1
10
6.6327651821195
20
-1.70801163223948
30
0
41
1
10
6.70002603588242
20
-1.76559569980398
30
0
41
1
10
6.72280240323821
20
-1.78475962308588
30
0
41
1
10
6.769150178698
20
-1.82294290769178
30
0
41
1
10
6.7927514799176
20
-1.8419863343631
30
0
41
1
10
6.86470614297662
20
-1.89856366306699
30
0
41
1
10
6.91402331003002
20
-1.93545300886828
30
0
41
1
10
6.9908724393874
20
-1.98842662684538
30
0
41
1
10
7.01697307063532
20
-2.00568480298918
30
0
41
1
10
7.07038945603432
20
-2.0390922830496
30
0
41
1
10
7.09778212596811
20
-2.05528516000669
30
0
41
1
10
7.15368801229622
20
-2.08586410122479
30
0
41
1
10
7.18218753901462
20
-2.10025138361789
30
0
41
1
10
7.24060113525491
20
-2.12658363422688
30
0
41
1
10
7.27051303084181
20
-2.1385325143344
30
0
41
1
10
7.3167922599051
20
-2.15394053716429
30
0
41
1
10
7.33251033896721
20
-2.15866827292118
30
0
41
1
10
7.36418730776461
20
-2.16704961260138
30
0
41
1
10
7.41202348129491
20
-2.17801174222649
30
0
41
1
10
7.4609156660951
20
-2.1836310846266
30
0
41
1
10
7.49406706606982
20
-2.18454261408928
30
0
0
SPLINE
5
12A
100
AcDbEntity
8
1
62
256
6
ByLayer
370
13
48
1
60
0
100
AcDbSpline
70
4
71
3
72
48
73
44
40
0
40
0
40
0
40
0
40
0.062500000000002
40
0.062500000000002
40
0.078125000000002
40
0.078125000000002
40
0.0937500000000021
40
0.0937500000000021
40
0.125000000000002
40
0.125000000000002
40
0.156250000000001
40
0.156250000000001
40
0.187500000000001
40
0.187500000000001
40
0.250000000000001
40
0.250000000000001
40
0.312500000000001
40
0.312500000000001
40
0.375000000000001
40
0.375000000000001
40
0.406250000000002
40
0.406250000000002
40
0.437500000000002
40
0.437500000000002
40
0.500000000000003
40
0.500000000000003
40
0.625000000000004
40
0.625000000000004
40
0.656250000000004
40
0.656250000000004
40
0.687500000000004
40
0.687500000000004
40
0.750000000000003
40
0.750000000000003
40
0.812500000000003
40
0.812500000000003
40
0.843750000000002
40
0.843750000000002
40
0.875000000000002
40
0.875000000000002
40
0.937500000000001
40
0.937500000000001
40
1
40
1
40
1
40
1
41
1
10
7.64901211301691
20
-3.9442889699842
30
0
41
1
10
7.58564390003522
20
-3.94618116801999
30
0
41
1
10
7.5250307840966
20
-3.95948261269029
30
0
41
1
10
7.45194250002533
20
-3.9870881161886
30
0
41
1
10
7.43740253566492
20
-3.9931826359321
30
0
41
1
10
7.40893555482441
20
-4.00620199004069
30
0
41
1
10
7.39499031526361
20
-4.0131278752402
30
0
41
1
10
7.35390278613852
20
-4.03497611265499
30
0
41
1
10
7.3275034839545
20
-4.0509612314892
30
0
41
1
10
7.27622344251171
20
-4.08505358085208
30
0
41
1
10
7.251344726507
20
-4.10316381219968
30
0
41
1
10
7.2027880834988
20
-4.14101241455287
30
0
41
1
10
7.1790577793935
20
-4.16080392671319
30
0
41
1
10
7.11005502778391
20
-4.2214343016264
30
0
41
1
10
7.0667056787496
20
-4.2636516677272
30
0
41
1
10
6.98358330118592
20
-4.3500814381232
30
0
41
1
10
6.94383409329342
20
-4.394315018719
30
0
41
1
10
6.8671213914312
20
-4.4839962596086
30
0
41
1
10
6.83016691513211
20
-4.5294521766682
30
0
41
1
10
6.7765310990161
20
-4.59821270161538
30
0
41
1
10
6.75893158810911
20
-4.62126231159507
30
0
41
1
10
6.7245044855448
20
-4.66725540331578
30
0
41
1
10
6.70765846621202
20
-4.6902214121331
30
0
41
1
10
6.65817592303642
20
-4.7589821404992
30
0
41
1
10
6.626589946417
20
-4.80463769800858
30
0
41
1
10
6.5358783941771
20
-4.94077871274018
30
0
41
1
10
6.48073563521331
20
-5.03043028867998
30
0
41
1
10
6.4190226534985
20
-5.1405129710887
30
0
41
1
10
6.40702388552151
20
-5.162474435891
30
0
41
1
10
6.38395891412472
20
-5.20587361291499
30
0
41
1
10
6.37288020284322
20
-5.22733123771948
30
0
41
1
10
6.3410320440467
20
-5.2909644368078
30
0
41
1
10
6.32164618723942
20
-5.33240100191819
30
0
41
1
10
6.28680933246252
20
-5.4132170037214
30
0
41
1
10
6.27135711779391
20
-5.45259680562569
30
0
41
1
10
6.25142666675021
20
-5.51004050004028
30
0
41
1
10
6.24532580891071
20
-5.52891716427828
30
0
41
1
10
6.23427765741172
20
-5.5661107154647
30
0
41
1
10
6.22932057701752
20
-5.5844724729549
30
0
41
1
10
6.21640220846552
20
-5.63825734879458
30
0
41
1
10
6.21036474222902
20
-5.67241820307808
30
0
41
1
10
6.20381898359841
20
-5.73732648811088
30
0
41
1
10
6.20330851700012
20
-5.76807407729998
30
0
41
1
10
6.20585870485942
20
-5.797079018175
30
0
0
SPLINE
5
12B
100
AcDbEntity
8
1
62
256
6
ByLayer
370
13
48
1
60
0
100
AcDbSpline
70
4
71
3
72
33
73
29
40
0
40
0
40
0
40
0
40
0.0625000000000023
40
0.0937500000000034
40
0.0937500000000034
40
0.125000000000005
40
0.125000000000005
40
0.250000000000005
40
0.250000000000005
40
0.312500000000005
40
0.312500000000005
40
0.375000000000005
40
0.375000000000005
40
0.500000000000009
40
0.500000000000009
40
0.562500000000009
40
0.562500000000009
40
0.593750000000009
40
0.593750000000009
40
0.625000000000009
40
0.625000000000009
40
0.750000000000006
40
0.750000000000006
40
0.812500000000004
40
0.812500000000004
40
0.875000000000003
40
0.875000000000003
40
1
40
1
40
1
40
1
41
1
10
12.2590115932192
20
-3.79336350046009
30
0
41
1
10
12.2858693235334
20
-3.76779428921958
30
0
41
1
10
12.3278436905791
20
-3.7312942845432
30
0
41
1
10
12.3723550267025
20
-3.69761509589719
30
0
41
1
10
12.4025991368222
20
-3.67579958937839
30
0
41
1
10
12.4180404752544
20
-3.6651886351174
30
0
41
1
10
12.4961063346536
20
-3.61412993288568
30
0
41
1
10
12.561437178084
20
-3.57947510025349
30
0
41
1
10
12.6635847124575
20
-3.5365048738164
30
0
41
1
10
12.6983299115233
20
-3.52369212464288
30
0
41
1
10
12.7692351629205
20
-3.50114820686019
30
0
41
1
10
12.8055647585234
20
-3.49139038400278
30
0
41
1
10
12.9146935570589
20
-3.46733782040369
30
0
41
1
10
12.988052451178
20
-3.45802175551629
30
0
41
1
10
13.0989786550137
20
-3.45389879418909
30
0
41
1
10
13.1361029694588
20
-3.4541765169584
30
0
41
1
10
13.1920187476972
20
-3.45713692455018
30
0
41
1
10
13.2107383684006
20
-3.45855385819948
30
0
41
1
10
13.2479182314194
20
-3.4622182581582
30
0
41
1
10
13.2664044938653
20
-3.4644650685741
30
0
41
1
10
13.3583258264565
20
-3.47773789027278
30
0
41
1
10
13.4302435037127
20
-3.49483119004489
30
0
41
1
10
13.5356954789964
20
-3.5301360883681
30
0
41
1
10
13.5704699677366
20
-3.54353811435388
30
0
41
1
10
13.6390517193295
20
-3.5736396615759
30
0
41
1
10
13.6723887825451
20
-3.5901296542321
30
0
41
1
10
13.769623668547
20
-3.6437615236444
30
0
41
1
10
13.8307642959367
20
-3.68503792010398
30
0
41
1
10
13.8881968405803
20
-3.73178823074829
30
0
0
SPLINE
5
12C
100
AcDbEntity
8
1
62
256
6
ByLayer
370
13
48
1
60
0
100
AcDbSpline
70
4
71
3
72
32
73
28
40
0
40
0
40
0
40
0
40
0.0624999999999988
40
0.0624999999999988
40
0.0937499999999984
40
0.0937499999999984
40
0.124999999999998
40
0.124999999999998
40
0.187499999999998
40
0.187499999999998
40
0.249999999999999
40
0.249999999999999
40
0.312499999999999
40
0.312499999999999
40
0.374999999999999
40
0.374999999999999
40
0.499999999999999
40
0.499999999999999
40
0.562499999999997
40
0.562499999999997
40
0.624999999999995
40
0.624999999999995
40
0.749999999999997
40
0.749999999999997
40
0.874999999999999
40
0.874999999999999
40
1
40
1
40
1
40
1
41
1
10
3.4999995743876
20
-4.2938910093294
30
0
41
1
10
3.4846484591597
20
-4.2938910093294
30
0
41
1
10
3.46968250022133
20
-4.29205365165868
30
0
41
1
10
3.44775181425871
20
-4.28682153571179
30
0
41
1
10
3.4404925402487
20
-4.28464537567328
30
0
41
1
10
3.4264761470051
20
-4.27961609263889
30
0
41
1
10
3.41968275430631
20
-4.27675879125198
30
0
41
1
10
3.3998755180408
20
-4.26727034946128
30
0
41
1
10
3.38736016736382
20
-4.2596583340011
30
0
41
1
10
3.3643568939699
20
-4.24299070501928
30
0
41
1
10
3.35375542699532
20
-4.23389343327989
30
0
41
1
10
3.333962069791
20
-4.21448952835758
30
0
41
1
10
3.32472847077591
20
-4.20411657296469
30
0
41
1
10
3.30775167888152
20
-4.18274323235539
30
0
41
1
10
3.2999827083176
20
-4.17173118605888
30
0
41
1
10
3.27841181913482
20
-4.1378937629504
30
0
41
1
10
3.26632415224091
20
-4.11427628646149
30
0
41
1
10
3.2507404986882
20
-4.077623573186
30
0
41
1
10
3.24598820951402
20
-4.06521487967058
30
0
41
1
10
3.23734889578432
20
-4.0403124277577
30
0
41
1
10
3.23344576582801
20
-4.02778090079218
30
0
41
1
10
3.22283682940241
20
-3.98996568905179
30
0
41
1
10
3.2172231701368
20
-3.96446255250498
30
0
41
1
10
3.20841751074781
20
-3.91293602933388
30
0
41
1
10
3.20522983273401
20
-3.88691203827398
30
0
41
1
10
3.2010188959604
20
-3.83437552216799
30
0
41
1
10
3.19999957438762
20
-3.8078217695319
30
0
41
1
10
3.19999957438762
20
-3.78120351211089
30
0
0
SPLINE
5
12D
100
AcDbEntity
8
1
62
256
6
ByLayer
370
13
48
1
60
0
100
AcDbSpline
70
4
71
3
72
31
73
27
40
0
40
0
40
0
40
0
40
0.250000000000001
40
0.250000000000001
40
0.375000000000002
40
0.375000000000002
40
0.437500000000002
40
0.437500000000002
40
0.500000000000003
40
0.562500000000003
40
0.562500000000003
40
0.625000000000004
40
0.625000000000004
40
0.750000000000001
40
0.750000000000001
40
0.812500000000001
40
0.812500000000001
40
0.843750000000001
40
0.843750000000001
40
0.875
40
0.875
40
0.937499999999999
40
0.937499999999999
40
0.968749999999999
40
0.968749999999999
40
1
40
1
40
1
40
1
41
1
10
3.19999957438762
20
3.78120351211092
30
0
41
1
10
3.19999957438762
20
3.83444957622262
30
0
41
1
10
3.2039822254529
20
3.8869118700151
30
0
41
1
10
3.2171921689291
20
3.96431644983773
30
0
41
1
10
3.22281605208002
20
3.989901568432
30
0
41
1
10
3.23348457598362
20
4.0279142487133
30
0
41
1
10
3.23742461239101
20
4.04055022237372
30
0
41
1
10
3.24611108210411
20
4.06554905765691
30
0
41
1
10
3.25559187807562
20
4.09025080190432
30
0
41
1
10
3.26686481746742
20
4.1142978945073
30
0
41
1
10
3.27918294306252
20
4.13797261934332
30
0
41
1
10
3.2858791205887
20
4.14964196751342
30
0
41
1
10
3.30757932845592
20
4.183576292553
30
0
41
1
10
3.32417680121642
20
4.20493460407471
30
0
41
1
10
3.35402105559462
20
4.2341346231878
30
0
41
1
10
3.36473905501111
20
4.2432984835049
30
0
41
1
10
3.3819864655365
20
4.25574846381201
30
0
41
1
10
3.38794286922371
20
4.25969244047511
30
0
41
1
10
3.40033072585032
20
4.26711037344742
30
0
41
1
10
3.4067874244011
20
4.27059286271532
30
0
41
1
10
3.42654161582652
20
4.28002079779822
30
0
41
1
10
3.4403270722423
20
4.28503381674111
30
0
41
1
10
3.4621218265776
20
4.29025787120293
30
0
41
1
10
3.46962738840801
20
4.29161835682092
30
0
41
1
10
3.48473676169411
20
4.293430948327
30
0
41
1
10
3.49234206527612
20
4.29389100933003
30
0
41
1
10
3.49999957438752
20
4.29389100933011
30
0
0
SPLINE
5
12E
100
AcDbEntity
8
1
62
256
6
ByLayer
370
13
48
1
60
0
100
AcDbSpline
70
4
71
3
72
14
73
10
40
0
40
0
40
0
40
0
40
0.5
40
0.5
40
0.75
40
0.75
40
0.875
40
0.875
40
1
40
1
40
1
40
1
41
1
10
5.0646979264111
20
7.1633450865699
30
0
41
1
10
5.06023878146931
20
7.2140652174368
30
0
41
1
10
5.06671585646572
20
7.2619722313801
30
0
41
1
10
5.093192731025
20
7.329834413307
30
0
41
1
10
5.104830709135
20
7.35178753236752
30
0
41
1
10
5.12674155476762
20
7.38373353505321
30
0
41
1
10
5.1348050200763
20
7.39423446644901
30
0
41
1
10
5.15235061902621
20
7.4147710393278
30
0
41
1
10
5.16183877418831
20
7.424819605946
30
0
41
1
10
5.17205132162812
20
7.43465414280072
30
0
0
SPLINE
5
12F
100
AcDbEntity
8
1
62
256
6
ByLayer
370
13
48
1
60
0
100
AcDbSpline
70
4
71
3
72
14
73
10
40
0
40
0
40
0
40
0
40
0.499999999999998
40
0.499999999999998
40
0.562499999999998
40
0.562499999999998
40
0.624999999999998
40
0.749999999999998
40
1
40
1
40
1
40
1
41
1
10
5.17205132162812
20
7.43465414280072
30
0
41
1
10
5.14457292856582
20
7.54281792824571
30
0
41
1
10
5.1231529090993
20
7.636440591531
30
0
41
1
10
5.10407915864852
20
7.72471863677711
30
0
41
1
10
5.10202934394792
20
7.73429520672221
30
0
41
1
10
5.09807553432711
20
7.7529252722411
30
0
41
1
10
5.09236081926292
20
7.78009848117281
30
0
41
1
10
5.08047378581051
20
7.83812392111412
30
0
41
1
10
5.07255924116302
20
7.8787134025614
30
0
41
1
10
5.06815554274112
20
7.90174031463962
30
0
0
SPLINE
5
130
100
AcDbEntity
8
1
62
256
6
ByLayer
370
13
48
1
60
0
100
AcDbSpline
70
4
71
2
72
6
73
3
40
0
40
0
40
0
40
1
40
1
40
1
41
0.500000996774951
10
8.33904257171451
20
-7.99731236275408
30
0
41
0.499999003225049
10
8.172452390626
20
-7.99726956796151
30
0
41
0.500000996774951
10
8.0058717993698
20
-7.99722609187287
30
0
0
SPLINE
5
131
100
AcDbEntity
8
1
62
256
6
ByLayer
370
13
48
1
60
0
100
AcDbSpline
70
4
71
3
72
37
73
33
40
0
40
0
40
0
40
0
40
0.124999999999995
40
0.124999999999995
40
0.187499999999993
40
0.187499999999993
40
0.218749999999993
40
0.218749999999993
40
0.249999999999992
40
0.249999999999992
40
0.374999999999992
40
0.374999999999992
40
0.406249999999992
40
0.406249999999992
40
0.437499999999992
40
0.437499999999992
40
0.499999999999992
40
0.499999999999992
40
0.624999999999993
40
0.624999999999993
40
0.656249999999993
40
0.656249999999993
40
0.687499999999993
40
0.687499999999993
40
0.749999999999994
40
0.812499999999995
40
0.812499999999995
40
0.843749999999996
40
0.843749999999996
40
0.874999999999996
40
0.874999999999996
40
1
40
1
40
1
40
1
41
1
10
8.0058717993696
20
-7.99722609187288
30
0
41
1
10
7.897462846937
20
-7.9971977980772
30
0
41
1
10
7.79103081373242
20
-7.99690299828578
30
0
41
1
10
7.63420852971171
20
-7.99587099078778
30
0
41
1
10
7.58240915776972
20
-7.99542441385998
30
0
41
1
10
7.5054375930743
20
-7.99453615323949
30
0
41
1
10
7.47983395326682
20
-7.99420231206779
30
0
41
1
10
7.42923051445101
20
-7.99345199776738
30
0
41
1
10
7.40426776850222
20
-7.99303632067978
30
0
41
1
10
7.28111334831752
20
-7.9907242145396
30
0
41
1
10
7.1878530894881
20
-7.98814467099109
30
0
41
1
10
7.07777728479971
20
-7.98333926004608
30
0
41
1
10
7.0560899706806
20
-7.98229794235439
30
0
41
1
10
7.01338064089362
20
-7.98003285664279
30
0
41
1
10
6.99231921440051
20
-7.97880603075538
30
0
41
1
10
6.9307965104974
20
-7.97485932779747
30
0
41
1
10
6.89179890052512
20
-7.9718651681618
30
0
41
1
10
6.7806513650448
20
-7.96159258348249
30
0
41
1
10
6.71429745128131
20
-7.95303657875758
30
0
41
1
10
6.64113365572652
20
-7.9393896987319
30
0
41
1
10
6.62701068975812
20
-7.9365132438663
30
0
41
1
10
6.6000425631772
20
-7.9305079999796
30
0
41
1
10
6.587157952387
20
-7.92737216128688
30
0
41
1
10
6.5502628376432
20
-7.91754786032598
30
0
41
1
10
6.5057518439319
20
-7.90333794077549
30
0
41
1
10
6.47037432194961
20
-7.88671222451808
30
0
41
1
10
6.4472677774221
20
-7.8732562206954
30
0
41
1
10
6.4401375696072
20
-7.86860631657038
30
0
41
1
10
6.42703238609172
20
-7.85896243137339
30
0
41
1
10
6.42107618942092
20
-7.85398003740519
30
0
41
1
10
6.3943962355969
20
-7.8283905575274
30
0
41
1
10
6.38271696009753
20
-7.80562587662078
30
0
41
1
10
6.38049188507722
20
-7.78042800906849
30
0
0
SPLINE
5
132
100
AcDbEntity
8
1
62
256
6
ByLayer
370
13
48
1
60
0
100
AcDbSpline
70
4
71
3
72
8
73
4
40
0
40
0
40
0
40
0
40
1
40
1
40
1
40
1
41
1
10
0.528765451752918
20
7.90174031463962
30
0
41
1
10
0.278601382248212
20
7.64846540603122
30
0
41
1
10
0.028583733523817
20
7.3950447128706
30
0
41
1
10
-0.221234548247082
20
7.14142842854292
30
0
0
SPLINE
5
133
100
AcDbEntity
8
1
62
256
6
ByLayer
370
13
48
1
60
0
100
AcDbSpline
70
4
71
3
72
8
73
4
40
0
40
0
40
0
40
0
40
1
40
1
40
1
40
1
41
1
10
-0.221234548247082
20
7.10661198058762
30
0
41
1
10
-0.0337543558516984
20
7.276021729153
30
0
41
1
10
0.154189499858916
20
7.4447430905833
30
0
41
1
10
0.342515451752916
20
7.61289716517342
30
0
0
SPLINE
5
134
100
AcDbEntity
8
1
62
256
6
ByLayer
370
13
48
1
60
0
100
AcDbSpline
70
4
71
3
72
30
73
26
40
0
40
0
40
0
40
0
40
0.125000000000003
40
0.125000000000003
40
0.250000000000006
40
0.250000000000006
40
0.312500000000007
40
0.312500000000007
40
0.375000000000007
40
0.375000000000007
40
0.437500000000008
40
0.437500000000008
40
0.500000000000008
40
0.500000000000008
40
0.562500000000009
40
0.562500000000009
40
0.625000000000009
40
0.625000000000009
40
0.68750000000001
40
0.68750000000001
40
0.750000000000011
40
0.750000000000011
40
0.875000000000005
40
0.875000000000005
40
1
40
1
40
1
40
1
41
1
10
0.342515451752916
20
7.61289716517351
30
0
41
1
10
0.351693169417899
20
7.6210918436301
30
0
41
1
10
0.360529156824299
20
7.6286504467065
30
0
41
1
10
0.377282342396512
20
7.6420330165698
30
0
41
1
10
0.384896020050917
20
7.64761131929242
30
0
41
1
10
0.394537306450019
20
7.6535266221222
30
0
41
1
10
0.397356985530109
20
7.65502640937822
30
0
41
1
10
0.4021561352493
20
7.65701533565311
30
0
41
1
10
0.404147316671612
20
7.65749647571261
30
0
41
1
10
0.407058480277698
20
7.65733635723871
30
0
41
1
10
0.408006179072999
20
7.65671497333841
30
0
41
1
10
0.408910665978198
20
7.65441312773512
30
0
41
1
10
0.408852365893409
20
7.6527417712019
30
0
41
1
10
0.407838394663514
20
7.64856662477831
30
0
41
1
10
0.406872120998798
20
7.64602474808581
30
0
41
1
10
0.40420216537791
20
7.64031539448462
30
0
41
1
10
0.402508915193806
20
7.6371583505215
30
0
41
1
10
0.398520988594498
20
7.630336883403
30
0
41
1
10
0.396216759302604
20
7.6266586927637
30
0
41
1
10
0.391104926922225
20
7.61890317245542
30
0
41
1
10
0.388332155076313
20
7.6148771257121
30
0
41
1
10
0.379464214379709
20
7.60242452895062
30
0
41
1
10
0.372826500761619
20
7.59362831823663
30
0
41
1
10
0.358337901605211
20
7.57521818547451
30
0
41
1
10
0.350618922077416
20
7.56577412480692
30
0
41
1
10
0.342515451752916
20
7.55616241901242
30
0
0
SPLINE
5
135
100
AcDbEntity
8
1
62
256
6
ByLayer
370
13
48
1
60
0
100
AcDbSpline
70
4
71
3
72
8
73
4
40
0
40
0
40
0
40
0
40
1
40
1
40
1
40
1
41
1
10
0.342515451752916
20
7.55616241901242
30
0
41
1
10
0.152101279148297
20
7.33030794767052
30
0
41
1
10
-0.0359901037381007
20
7.1019075101305
30
0
41
1
10
-0.221234548247082
20
6.87038659688832
30
0
0
SPLINE
5
136
100
AcDbEntity
8
1
62
256
6
ByLayer
370
13
48
1
60
0
100
AcDbSpline
70
4
71
3
72
8
73
4
40
0
40
0
40
0
40
0
40
1
40
1
40
1
40
1
41
1
10
-0.221234548247082
20
6.73457554663051
30
0
41
1
10
-0.0334683322720934
20
6.8934953606863
30
0
41
1
10
0.154458049265997
20
7.05216227709312
30
0
41
1
10
0.342515451752916
20
7.21062231451
30
0
0
SPLINE
5
137
100
AcDbEntity
8
1
62
256
6
ByLayer
370
13
48
1
60
0
100
AcDbSpline
70
4
71
3
72
36
73
32
40
0
40
0
40
0
40
0
40
0.0624999999999984
40
0.0624999999999984
40
0.124999999999997
40
0.124999999999997
40
0.187499999999995
40
0.187499999999995
40
0.218749999999996
40
0.218749999999996
40
0.249999999999997
40
0.249999999999997
40
0.312499999999998
40
0.312499999999998
40
0.374999999999999
40
0.374999999999999
40
0.4375
40
0.4375
40
0.500000000000001
40
0.500000000000001
40
0.562500000000003
40
0.562500000000003
40
0.625000000000004
40
0.625000000000004
40
0.687500000000005
40
0.687500000000005
40
0.750000000000006
40
0.750000000000006
40
0.875000000000003
40
0.875000000000003
40
1
40
1
40
1
40
1
41
1
10
0.342515451752916
20
7.21062231451012
30
0
41
1
10
0.347408568830502
20
7.21474532963711
30
0
41
1
10
0.352229719868319
20
7.2186347866872
30
0
41
1
10
0.361702661763417
20
7.22586073503152
30
0
41
1
10
0.366396980479721
20
7.22922469873242
30
0
41
1
10
0.375310922948415
20
7.23508048054091
30
0
41
1
10
0.379535205714802
20
7.23758171809411
30
0
41
1
10
0.385460756322999
20
7.2405756040049
30
0
41
1
10
0.387378496837897
20
7.24145025897661
30
0
41
1
10
0.390974292012117
20
7.24288234926632
30
0
41
1
10
0.392659232699913
20
7.24344461222202
30
0
41
1
10
0.397371264078601
20
7.244663515963
30
0
41
1
10
0.400066968157319
20
7.24485372010392
30
0
41
1
10
0.404436622143919
20
7.2438913676113
30
0
41
1
10
0.406034112408008
20
7.24276255380281
30
0
41
1
10
0.40817858532472
20
7.23934133746172
30
0
41
1
10
0.408710567773198
20
7.2370300706979
30
0
41
1
10
0.408812070686508
20
7.23159104126592
30
0
41
1
10
0.408397569930401
20
7.2284443301111
30
0
41
1
10
0.40677496287222
20
7.22142000048242
30
0
41
1
10
0.405574254141925
20
7.2175871797065
30
0
41
1
10
0.402582083582899
20
7.20952450100862
30
0
41
1
10
0.400784752436522
20
7.20527371617573
30
0
41
1
10
0.396676857194706
20
7.196397971262
30
0
41
1
10
0.394351300303612
20
7.19174651917652
30
0
41
1
10
0.389322024714801
20
7.18226335355462
30
0
41
1
10
0.38661997525341
20
7.17743078059752
30
0
41
1
10
0.378027383802305
20
7.16269759843931
30
0
41
1
10
0.371656074714224
20
7.1525642108852
30
0
41
1
10
0.357811192403517
20
7.13176981587691
30
0
41
1
10
0.350349534083222
20
7.1211352591055
30
0
41
1
10
0.342515451752916
20
7.11046549724361
30
0
0
SPLINE
5
138
100
AcDbEntity
8
1
62
256
6
ByLayer
370
13
48
1
60
0
100
AcDbSpline
70
4
71
3
72
8
73
4
40
0
40
0
40
0
40
0
40
1
40
1
40
1
40
1
41
1
10
0.342515451752916
20
7.11046549724361
30
0
41
1
10
0.150282075203819
20
6.84864997588511
30
0
41
1
10
-0.0379535925749792
20
6.5830672145739
30
0
41
1
10
-0.221234548247082
20
6.31281538143333
30
0
0
SPLINE
5
139
100
AcDbEntity
8
1
62
256
6
ByLayer
370
13
48
1
60
0
100
AcDbSpline
70
4
71
3
72
8
73
4
40
0
40
0
40
0
40
0
40
1
40
1
40
1
40
1
41
1
10
-0.221234548247082
20
6.08934165110782
30
0
41
1
10
-0.033323493802186
20
6.24296580236941
30
0
41
1
10
0.1545935677172
20
6.3965801568938
30
0
41
1
10
0.342515451752916
20
6.55018664447911
30
0
0
SPLINE
5
13A
100
AcDbEntity
8
1
62
256
6
ByLayer
370
13
48
1
60
0
100
AcDbSpline
70
4
71
3
72
30
73
26
40
0
40
0
40
0
40
0
40
0.0624999999999987
40
0.0624999999999987
40
0.124999999999997
40
0.124999999999997
40
0.187499999999996
40
0.187499999999996
40
0.249999999999995
40
0.249999999999995
40
0.312499999999993
40
0.312499999999993
40
0.374999999999992
40
0.374999999999992
40
0.437499999999991
40
0.437499999999991
40
0.499999999999989
40
0.499999999999989
40
0.624999999999992
40
0.624999999999992
40
0.749999999999995
40
0.749999999999995
40
0.874999999999997
40
0.874999999999997
40
1
40
1
40
1
40
1
41
1
10
0.342515451752916
20
6.55018664447931
30
0
41
1
10
0.347852242991621
20
6.55454891320272
30
0
41
1
10
0.353149183809023
20
6.55856039192682
30
0
41
1
10
0.363641804497206
20
6.56568532115182
30
0
41
1
10
0.368792799698212
20
6.56875826178211
30
0
41
1
10
0.37848702391932
20
6.57348105152002
30
0
41
1
10
0.38314193901212
20
6.57516779586311
30
0
41
1
10
0.391310671117708
20
6.57674000571021
30
0
41
1
10
0.394891834480916
20
6.5766642393132
30
0
41
1
10
0.400890943257025
20
6.57471949532311
30
0
41
1
10
0.403196538171215
20
6.57290171574891
30
0
41
1
10
0.406626773170217
20
6.5678184355566
30
0
41
1
10
0.407705365996207
20
6.56460429851381
30
0
41
1
10
0.40883774216411
20
6.55726614737262
30
0
41
1
10
0.408896733788907
20
6.55308100052793
30
0
41
1
10
0.408202044094423
20
6.54411413093271
30
0
41
1
10
0.407458171949315
20
6.5393539703484
30
0
41
1
10
0.404297744128314
20
6.524421739746
30
0
41
1
10
0.400920143826824
20
6.513499093235
30
0
41
1
10
0.3926231385569
20
6.4910933477864
30
0
41
1
10
0.387698772659519
20
6.4795635451471
30
0
41
1
10
0.376632661279302
20
6.4559909133834
30
0
41
1
10
0.370451322198619
20
6.4438855584691
30
0
41
1
10
0.357160062618021
20
6.41955618624272
30
0
41
1
10
0.350056878990699
20
6.4073356430992
30
0
41
1
10
0.342515451752916
20
6.39506439940112
30
0
0
SPLINE
5
13B
100
AcDbEntity
8
1
62
256
6
ByLayer
370
13
48
1
60
0
100
AcDbSpline
70
4
71
3
72
8
73
4
40
0
40
0
40
0
40
0
40
1
40
1
40
1
40
1
41
1
10
0.342515451752916
20
6.39506439940112
30
0
41
1
10
0.146757558258002
20
6.0765314823376
30
0
41
1
10
-0.0416211087043905
20
5.75231020114302
30
0
41
1
10
-0.220714529564589
20
5.4209312780676
30
0
0
SPLINE
5
13C
100
AcDbEntity
8
1
62
256
6
ByLayer
370
13
48
1
60
0
100
AcDbSpline
70
4
71
3
72
8
73
4
40
0
40
0
40
0
40
0
40
1
40
1
40
1
40
1
41
1
10
-0.20915740271198
20
5.07775219929772
30
0
41
1
10
-0.20737668075509
20
5.20034223494452
30
0
41
1
10
-0.211201505855598
20
5.31477535137242
30
0
41
1
10
-0.220714529564475
20
5.42093127806751
30
0
0
SPLINE
5
13D
100
AcDbEntity
8
1
62
256
6
ByLayer
370
13
48
1
60
0
100
AcDbSpline
70
4
71
3
72
8
73
4
40
0
40
0
40
0
40
0
40
1
40
1
40
1
40
1
41
1
10
-0.20915740271198
20
5.07775219929772
30
0
41
1
10
-0.0254122140486004
20
5.23207322486982
30
0
41
1
10
0.158490696831024
20
5.38614329413451
30
0
41
1
10
0.342515451752916
20
5.54001949387512
30
0
0
SPLINE
5
13E
100
AcDbEntity
8
1
62
256
6
ByLayer
370
13
48
1
60
0
100
AcDbSpline
70
4
71
3
72
34
73
30
40
0
40
0
40
0
40
0
40
0.0312499999999995
40
0.0312499999999995
40
0.0624999999999989
40
0.0624999999999989
40
0.0937499999999984
40
0.0937499999999984
40
0.124999999999998
40
0.124999999999998
40
0.187499999999997
40
0.187499999999997
40
0.218749999999999
40
0.218749999999999
40
0.250000000000002
40
0.250000000000002
40
0.312500000000003
40
0.312500000000003
40
0.375000000000005
40
0.375000000000005
40
0.437500000000006
40
0.437500000000006
40
0.500000000000008
40
0.500000000000008
40
0.625000000000007
40
0.625000000000007
40
0.750000000000006
40
0.750000000000006
40
1
40
1
40
1
40
1
41
1
10
0.342515451752803
20
5.5400194938756
30
0
41
1
10
0.345558080866198
20
5.54256365270581
30
0
41
1
10
0.348613365982402
20
5.54495888813042
30
0
41
1
10
0.354754236431319
20
5.5493917065923
30
0
41
1
10
0.3578607808887
20
5.55144004522742
30
0
41
1
10
0.363939843856201
20
5.55499448800211
30
0
41
1
10
0.366925164292212
20
5.55651265803272
30
0
41
1
10
0.3727721367801
20
5.55895620114512
30
0
41
1
10
0.375656037455116
20
5.5598864184285
30
0
41
1
10
0.383939645908413
20
5.5615887380176
30
0
41
1
10
0.388759390633197
20
5.56124598189862
30
0
41
1
10
0.3948801864166
20
5.55856966066622
30
0
41
1
10
0.396677156068108
20
5.5573443812693
30
0
41
1
10
0.399855074196807
20
5.55432180391011
30
0
41
1
10
0.40124346968642
20
5.55250761147352
30
0
41
1
10
0.404778987925624
20
5.5464441950034
30
0
41
1
10
0.406331618788101
20
5.54160121190611
30
0
41
1
10
0.408330457424597
20
5.53080333152772
30
0
41
1
10
0.408753762509605
20
5.5248926032115
30
0
41
1
10
0.40877666526012
20
5.51260633438741
30
0
41
1
10
0.408379512822222
20
5.5061829905693
30
0
41
1
10
0.406961217620506
20
5.4929040735814
30
0
41
1
10
0.405931915151598
20
5.486021071496
30
0
41
1
10
0.402135708234198
20
5.46517281426941
30
0
41
1
10
0.39867207559692
20
5.45092352016522
30
0
41
1
10
0.390429181284901
20
5.42192125483112
30
0
41
1
10
0.3856393984764
20
5.40716456559102
30
0
41
1
10
0.369582707337401
20
5.36224505862651
30
0
41
1
10
0.35691486266802
20
5.33210584375732
30
0
41
1
10
0.342515451752916
20
5.30188435912032
30
0
0
SPLINE
5
13F
100
AcDbEntity
8
1
62
256
6
ByLayer
370
13
48
1
60
0
100
AcDbSpline
70
4
71
3
72
10
73
6
40
0
40
0
40
0
40
0
40
0.5
40
0.5
40
1
40
1
40
1
40
1
41
1
10
0.342515451752803
20
5.30188435912032
30
0
41
1
10
0.239369665227912
20
5.08540197513881
30
0
41
1
10
0.140441058767806
20
4.86653631332823
30
0
41
1
10
-0.0478736633058929
20
4.42341219013062
30
0
41
1
10
-0.137260717488488
20
4.1991542591621
30
0
41
1
10
-0.221234548247196
20
3.9718371238981
30
0
0
SPLINE
5
140
100
AcDbEntity
8
1
62
256
6
ByLayer
370
13
48
1
60
0
100
AcDbSpline
70
4
71
3
72
8
73
4
40
0
40
0
40
0
40
0
40
1
40
1
40
1
40
1
41
1
10
-0.221234548247082
20
3.34009425693373
30
0
41
1
10
-0.0359107758602022
20
3.5362258349686
30
0
41
1
10
0.152330581541804
20
3.7285650750384
30
0
41
1
10
0.342515451752916
20
3.91837809654962
30
0
0
SPLINE
5
141
100
AcDbEntity
8
1
62
256
6
ByLayer
370
13
48
1
60
0
100
AcDbSpline
70
4
71
3
72
38
73
34
40
0
40
0
40
0
40
0
40
0.0624999999999889
40
0.0624999999999889
40
0.0781249999999881
40
0.0781249999999881
40
0.0937499999999874
40
0.0937499999999874
40
0.109374999999987
40
0.109374999999987
40
0.124999999999986
40
0.124999999999986
40
0.156249999999984
40
0.156249999999984
40
0.187499999999983
40
0.187499999999983
40
0.249999999999985
40
0.249999999999985
40
0.312499999999987
40
0.312499999999987
40
0.374999999999989
40
0.374999999999989
40
0.437499999999991
40
0.437499999999991
40
0.499999999999993
40
0.499999999999993
40
0.624999999999995
40
0.624999999999995
40
0.749999999999996
40
0.749999999999996
40
0.874999999999998
40
0.874999999999998
40
1
40
1
40
1
40
1
41
1
10
0.342515451752206
20
3.91837809655132
30
0
41
1
10
0.350371926195521
20
3.92621921004721
30
0
41
1
10
0.358866299816213
20
3.93287772801412
30
0
41
1
10
0.369464437357806
20
3.93670895832051
30
0
41
1
10
0.371538181190118
20
3.93723034678621
30
0
41
1
10
0.375587753665911
20
3.93774951400351
30
0
41
1
10
0.377583699313021
20
3.9377419156792
30
0
41
1
10
0.381338943368206
20
3.93718599280521
30
0
41
1
10
0.383104652986617
20
3.93664550837661
30
0
41
1
10
0.386432573683919
20
3.93508588267181
30
0
41
1
10
0.387999865824014
20
3.9340575172626
30
0
41
1
10
0.392282877919598
20
3.93044875562862
30
0
41
1
10
0.394655827285817
20
3.92732255665661
30
0
41
1
10
0.398693031686406
20
3.9201391026325
30
0
41
1
10
0.400312069902213
20
3.9161710391846
30
0
41
1
10
0.404383508870723
20
3.90352078282891
30
0
41
1
10
0.406061207906902
20
3.8940396268425
30
0
41
1
10
0.408196559095018
20
3.8746194128845
30
0
41
1
10
0.408663114084817
20
3.86457691621342
30
0
41
1
10
0.408838160772603
20
3.8440625405739
30
0
41
1
10
0.408538634519005
20
3.83358640978571
30
0
41
1
10
0.40737614196712
20
3.8123078194582
30
0
41
1
10
0.406509778003198
20
3.80151387567272
30
0
41
1
10
0.404360996551304
20
3.7799227047895
30
0
41
1
10
0.403075670551914
20
3.76908798932172
30
0
41
1
10
0.398711779193718
20
3.73648573394672
30
0
41
1
10
0.395132125063299
20
3.7146211241743
30
0
41
1
10
0.386980762052417
20
3.670686934386
30
0
41
1
10
0.382403990571902
20
3.64861658079891
30
0
41
1
10
0.372403756191602
20
3.60429457505572
30
0
41
1
10
0.366978837158598
20
3.5820426942208
30
0
41
1
10
0.35533142768702
20
3.537366857569
30
0
41
1
10
0.349109132164813
20
3.5149492242474
30
0
41
1
10
0.342515451752916
20
3.4925788240898
30
0
0
SPLINE
5
142
100
AcDbEntity
8
1
62
256
6
ByLayer
370
13
48
1
60
0
100
AcDbSpline
70
4
71
3
72
20
73
16
40
0
40
0
40
0
40
0
40
0.25
40
0.25
40
0.5
40
0.5
40
0.53125
40
0.53125
40
0.546875
40
0.546875
40
0.5625
40
0.625
40
0.75
40
0.75
40
1
40
1
40
1
40
1
41
1
10
0.342515451752916
20
3.4925788240898
30
0
41
1
10
0.175668383799319
20
2.92651625477473
30
0
41
1
10
0.0450918604184096
20
2.35376926084481
30
0
41
1
10
-0.132502464364876
20
1.19287594594002
30
0
41
1
10
-0.179463620023483
20
0.604719185524317
30
0
41
1
10
-0.179929662614398
20
-0.0666077450997022
30
0
41
1
10
-0.179255835234983
20
-0.141333351446491
30
0
41
1
10
-0.177145255875189
20
-0.253624453984599
30
0
41
1
10
-0.176257836262891
20
-0.291101526401178
30
0
41
1
10
-0.174120883214698
20
-0.365934066177886
30
0
41
1
10
-0.167871935001386
20
-0.552820858809582
30
0
41
1
10
-0.139918985906292
20
-1.03621437876959
30
0
41
1
10
-0.0889174065791849
20
-1.47701588932998
30
0
41
1
10
0.0445687152462995
20
-2.35186239450269
30
0
41
1
10
0.17554092182732
20
-2.92608381414328
30
0
41
1
10
0.342515451752916
20
-3.49257882408969
30
0
0
SPLINE
5
143
100
AcDbEntity
8
1
62
256
6
ByLayer
370
13
48
1
60
0
100
AcDbSpline
70
4
71
3
72
38
73
34
40
0
40
0
40
0
40
0
40
0.249999999999996
40
0.249999999999996
40
0.374999999999993
40
0.374999999999993
40
0.49999999999999
40
0.49999999999999
40
0.624999999999987
40
0.624999999999987
40
0.687499999999986
40
0.687499999999986
40
0.749999999999984
40
0.749999999999984
40
0.812499999999983
40
0.812499999999983
40
0.843749999999984
40
0.843749999999984
40
0.859374999999985
40
0.859374999999985
40
0.874999999999987
40
0.874999999999987
40
0.890624999999989
40
0.890624999999989
40
0.90624999999999
40
0.90624999999999
40
0.921874999999992
40
0.921874999999992
40
0.937499999999994
40
0.937499999999994
40
0.968749999999997
40
0.968749999999997
40
1
40
1
40
1
40
1
41
1
10
0.342515451752916
20
-3.49257882408969
30
0
41
1
10
0.355703559574721
20
-3.53732215874709
30
0
41
1
10
0.367355674283999
20
-3.58192856666508
30
0
41
1
10
0.38240447466552
20
-3.64861494584449
30
0
41
1
10
0.387007372540523
20
-3.67080624936739
30
0
41
1
10
0.395217410482218
20
-3.71510523599528
30
0
41
1
10
0.398831768863516
20
-3.7372490795062
30
0
41
1
10
0.404645893418007
20
-3.78095755666149
30
0
41
1
10
0.406874624099714
20
-3.802574641587
30
0
41
1
10
0.408570172074519
20
-3.8344578826009
30
0
41
1
10
0.408851912433107
20
-3.84492992960338
30
0
41
1
10
0.408632942100013
20
-3.86541862210618
30
0
41
1
10
0.408140766427522
20
-3.87544456324318
30
0
41
1
10
0.4059377447293
20
-3.89481741853209
30
0
41
1
10
0.404241573433921
20
-3.9041672875137
30
0
41
1
10
0.400085649859904
20
-3.9167602741023
30
0
41
1
10
0.398433748638411
20
-3.9206855696597
30
0
41
1
10
0.395417359506212
20
-3.9259164254822
30
0
41
1
10
0.394320186504302
20
-3.9275529537405
30
0
41
1
10
0.391897029738516
20
-3.93055973708098
30
0
41
1
10
0.390564008334223
20
-3.93193219538168
30
0
41
1
10
0.387698446319007
20
-3.9342681813788
30
0
41
1
10
0.386158851728311
20
-3.93524299636479
30
0
41
1
10
0.382829028354308
20
-3.93674064590249
30
0
41
1
10
0.381029835296005
20
-3.9372580740249
30
0
41
1
10
0.377308480205414
20
-3.93775184195758
30
0
41
1
10
0.375369947577525
20
-3.9377382600882
30
0
41
1
10
0.371335506377022
20
-3.93718585848998
30
0
41
1
10
0.369234548410617
20
-3.93663945598979
30
0
41
1
10
0.362959428311712
20
-3.934328117912
30
0
41
1
10
0.358676032571225
20
-3.93184704190358
30
0
41
1
10
0.350432954622704
20
-3.92582760232799
30
0
41
1
10
0.346432078090913
20
-3.9222870651154
30
0
41
1
10
0.342515451752916
20
-3.91837809654959
30
0
0
SPLINE
5
144
100
AcDbEntity
8
1
62
256
6
ByLayer
370
13
48
1
60
0
100
AcDbSpline
70
4
71
3
72
8
73
4
40
0
40
0
40
0
40
0
40
1
40
1
40
1
40
1
41
1
10
0.342515451752916
20
-3.9183780965497
30
0
41
1
10
0.152330581541804
20
-3.72856507503838
30
0
41
1
10
-0.0359107758602022
20
-3.53622583496849
30
0
41
1
10
-0.221234548247082
20
-3.3400942569337
30
0
0
SPLINE
5
145
100
AcDbEntity
8
1
62
256
6
ByLayer
370
13
48
1
60
0
100
AcDbSpline
70
4
71
3
72
10
73
6
40
0
40
0
40
0
40
0
40
0.5
40
0.5
40
1
40
1
40
1
40
1
41
1
10
-0.221234548247196
20
-3.97183712389798
30
0
41
1
10
-0.137260717488488
20
-4.1991542591621
30
0
41
1
10
-0.0478736633058929
20
-4.42341219013059
30
0
41
1
10
0.140441058767806
20
-4.8665363133282
30
0
41
1
10
0.239369665227912
20
-5.08540197513869
30
0
41
1
10
0.342515451752803
20
-5.30188435912018
30
0
0
SPLINE
5
146
100
AcDbEntity
8
1
62
256
6
ByLayer
370
13
48
1
60
0
100
AcDbSpline
70
4
71
3
72
34
73
30
40
0
40
0
40
0
40
0
40
0.250000000000008
40
0.250000000000008
40
0.375000000000013
40
0.375000000000013
40
0.437500000000016
40
0.437500000000016
40
0.500000000000019
40
0.500000000000019
40
0.625000000000021
40
0.625000000000021
40
0.687500000000021
40
0.687500000000021
40
0.750000000000022
40
0.750000000000022
40
0.78125000000002
40
0.78125000000002
40
0.812500000000018
40
0.812500000000018
40
0.875000000000008
40
0.875000000000008
40
0.906250000000006
40
0.906250000000006
40
0.937500000000004
40
0.937500000000004
40
0.968750000000002
40
0.968750000000002
40
1
40
1
40
1
40
1
41
1
10
0.342515451752916
20
-5.30188435912018
30
0
41
1
10
0.356893975364812
20
-5.33206200548378
30
0
41
1
10
0.369449811517597
20
-5.3619546433516
30
0
41
1
10
0.385348582875821
20
-5.40631166677989
30
0
41
1
10
0.390148785413999
20
-5.42101572359329
30
0
41
1
10
0.396407923009207
20
-5.4429199421829
30
0
41
1
10
0.398341630466518
20
-5.45022216854289
30
0
41
1
10
0.401787253303411
20
-5.4645802991449
30
0
41
1
10
0.403303530758507
20
-5.47164595218138
30
0
41
1
10
0.407122265668704
20
-5.4924452315158
30
0
41
1
10
0.408748833642022
20
-5.50584335174659
30
0
41
1
10
0.408773579335303
20
-5.52454515233359
30
0
41
1
10
0.408369238972398
20
-5.53044070639589
30
0
41
1
10
0.406413883678198
20
-5.54130083599148
30
0
41
1
10
0.404854671177617
20
-5.54623446129548
30
0
41
1
10
0.401391755277814
20
-5.5522901467607
30
0
41
1
10
0.400046636499809
20
-5.55409578952569
30
0
41
1
10
0.396885961313103
20
-5.55718440173919
30
0
41
1
10
0.39507808199852
20
-5.5584476430781
30
0
41
1
10
0.389065484447514
20
-5.56117726554169
30
0
41
1
10
0.38410334653301
20
-5.5615863825484
30
0
41
1
10
0.375904215132522
20
-5.55995435484758
30
0
41
1
10
0.373006660181403
20
-5.55904191318649
30
0
41
1
10
0.367068199867418
20
-5.55658397679389
30
0
41
1
10
0.36404991129902
20
-5.55505425622459
30
0
41
1
10
0.357929813350523
20
-5.55148486485689
30
0
41
1
10
0.354813635361722
20
-5.54943273754358
30
0
41
1
10
0.348641935006213
20
-5.54498133116348
30
0
41
1
10
0.345572042996622
20
-5.54257532743688
30
0
41
1
10
0.342515451752803
20
-5.54001949387549
30
0
0
SPLINE
5
147
100
AcDbEntity
8
1
62
256
6
ByLayer
370
13
48
1
60
0
100
AcDbSpline
70
4
71
3
72
8
73
4
40
0
40
0
40
0
40
0
40
1
40
1
40
1
40
1
41
1
10
0.342515451752916
20
-5.54001949387509
30
0
41
1
10
0.158490696831024
20
-5.38614329413448
30
0
41
1
10
-0.0254122140486004
20
-5.23207322486979
30
0
41
1
10
-0.20915740271198
20
-5.07775219929758
30
0
0
SPLINE
5
148
100
AcDbEntity
8
1
62
256
6
ByLayer
370
13
48
1
60
0
100
AcDbSpline
70
4
71
3
72
8
73
4
40
0
40
0
40
0
40
0
40
1
40
1
40
1
40
1
41
1
10
-0.220714529564475
20
-5.42093127806749
30
0
41
1
10
-0.211201505855598
20
-5.31477535137228
30
0
41
1
10
-0.20737668075509
20
-5.2003422349444
30
0
41
1
10
-0.20915740271198
20
-5.07775219929758
30
0
0
SPLINE
5
149
100
AcDbEntity
8
1
62
256
6
ByLayer
370
13
48
1
60
0
100
AcDbSpline
70
4
71
3
72
8
73
4
40
0
40
0
40
0
40
0
40
1
40
1
40
1
40
1
41
1
10
-0.220714529564589
20
-5.42093127806749
30
0
41
1
10
-0.0416211087043905
20
-5.75231020114288
30
0
41
1
10
0.146757558258002
20
-6.0765314823376
30
0
41
1
10
0.342515451752916
20
-6.39506439940109
30
0
0
SPLINE
5
14A
100
AcDbEntity
8
1
62
256
6
ByLayer
370
13
48
1
60
0
100
AcDbSpline
70
4
71
3
72
37
73
33
40
0
40
0
40
0
40
0
40
0.125000000000003
40
0.125000000000003
40
0.250000000000007
40
0.250000000000007
40
0.312500000000009
40
0.312500000000009
40
0.37500000000001
40
0.37500000000001
40
0.437500000000012
40
0.437500000000012
40
0.500000000000014
40
0.500000000000014
40
0.562500000000016
40
0.562500000000016
40
0.625000000000018
40
0.625000000000018
40
0.687500000000019
40
0.687500000000019
40
0.718750000000019
40
0.718750000000019
40
0.750000000000019
40
0.781250000000019
40
0.781250000000019
40
0.812500000000018
40
0.812500000000018
40
0.875000000000012
40
0.875000000000012
40
0.937500000000006
40
0.937500000000006
40
1
40
1
40
1
40
1
41
1
10
0.342515451752916
20
-6.39506439940109
30
0
41
1
10
0.35004231378872
20
-6.40731194292428
30
0
41
1
10
0.357097958849408
20
-6.41945282059868
30
0
41
1
10
0.370252601632899
20
-6.4435116932373
30
0
41
1
10
0.376353281072397
20
-6.4554300966438
30
0
41
1
10
0.384677643753918
20
-6.47311208388518
30
0
41
1
10
0.387313541452215
20
-6.47897323178168
30
0
41
1
10
0.392268270861223
20
-6.49062038241678
30
0
41
1
10
0.394580455498811
20
-6.4963938637155
30
0
41
1
10
0.398762998223816
20
-6.50765964226008
30
0
41
1
10
0.400643330739797
20
-6.5131739864745
30
0
41
1
10
0.403909150757897
20
-6.52392537897018
30
0
41
1
10
0.405300682279318
20
-6.5291884366485
30
0
41
1
10
0.40743986226201
20
-6.53924028869909
30
0
41
1
10
0.408187018913509
20
-6.54401158644598
30
0
41
1
10
0.40889224338892
20
-6.5529341647686
30
0
41
1
10
0.408850495994812
20
-6.55710729228139
30
0
41
1
10
0.407725796959397
20
-6.56454590857629
30
0
41
1
10
0.406658091557006
20
-6.56773992654408
30
0
41
1
10
0.404114090742212
20
-6.57155733652678
30
0
41
1
10
0.403097563506918
20
-6.57267170729139
30
0
41
1
10
0.400766454190602
20
-6.57447700338369
30
0
41
1
10
0.398136771077503
20
-6.5758729347904
30
0
41
1
10
0.394889838995908
20
-6.5764252596189
30
0
41
1
10
0.391316746241017
20
-6.57653316455659
30
0
41
1
10
0.3893575261406
20
-6.5763591699199
30
0
41
1
10
0.383194855160014
20
-6.5751875495385
30
0
41
1
10
0.378613215589098
20
-6.57353673361109
30
0
41
1
10
0.368814627364003
20
-6.5687746042513
30
0
41
1
10
0.363730749565605
20
-6.5657400051567
30
0
41
1
10
0.353272516315798
20
-6.55864973853488
30
0
41
1
10
0.347883416452902
20
-6.554574394247
30
0
41
1
10
0.342515451752916
20
-6.55018664447908
30
0
0
SPLINE
5
14B
100
AcDbEntity
8
1
62
256
6
ByLayer
370
13
48
1
60
0
100
AcDbSpline
70
4
71
3
72
8
73
4
40
0
40
0
40
0
40
0
40
1
40
1
40
1
40
1
41
1
10
0.342515451752916
20
-6.55018664447908
30
0
41
1
10
0.1545935677172
20
-6.39658015689369
30
0
41
1
10
-0.033323493802186
20
-6.24296580236938
30
0
41
1
10
-0.221234548247082
20
-6.08934165110779
30
0
0
SPLINE
5
14C
100
AcDbEntity
8
1
62
256
6
ByLayer
370
13
48
1
60
0
100
AcDbSpline
70
4
71
3
72
8
73
4
40
0
40
0
40
0
40
0
40
1
40
1
40
1
40
1
41
1
10
-0.221234548247082
20
-6.31281538143318
30
0
41
1
10
-0.0379535925749792
20
-6.5830672145739
30
0
41
1
10
0.150282075203819
20
-6.848649975885
30
0
41
1
10
0.342515451752916
20
-7.1104654972435
30
0
0
SPLINE
5
14D
100
AcDbEntity
8
1
62
256
6
ByLayer
370
13
48
1
60
0
100
AcDbSpline
70
4
71
3
72
32
73
28
40
0
40
0
40
0
40
0
40
0.124999999999998
40
0.124999999999998
40
0.249999999999995
40
0.249999999999995
40
0.312499999999997
40
0.312499999999997
40
0.374999999999998
40
0.374999999999998
40
0.500000000000002
40
0.500000000000002
40
0.562500000000002
40
0.562500000000002
40
0.625000000000001
40
0.625000000000001
40
0.687500000000001
40
0.687500000000001
40
0.750000000000001
40
0.750000000000001
40
0.812500000000001
40
0.812500000000001
40
0.875
40
0.875
40
0.9375
40
0.9375
40
1
40
1
40
1
40
1
41
1
10
0.342515451752916
20
-7.1104654972435
30
0
41
1
10
0.350318377451316
20
-7.12109282479989
30
0
41
1
10
0.357665535197725
20
-7.13156233940208
30
0
41
1
10
0.371393682466419
20
-7.15215914637929
30
0
41
1
10
0.377778014992316
20
-7.16228766112468
30
0
41
1
10
0.38646780989032
20
-7.17716146773588
30
0
41
1
10
0.389210770969612
20
-7.1820613025177
30
0
41
1
10
0.39424565916562
20
-7.19153992116648
30
0
41
1
10
0.39655210702432
20
-7.1961425738935
30
0
41
1
10
0.402743473019598
20
-7.20947869878609
30
0
41
1
10
0.405924223967418
20
-7.2178111388713
30
0
41
1
10
0.40836742449352
20
-7.22827794832679
30
0
41
1
10
0.408803933641707
20
-7.23146598357289
30
0
41
1
10
0.408721641090608
20
-7.23698023529178
30
0
41
1
10
0.408207137949404
20
-7.23925448234968
30
0
41
1
10
0.406096031740702
20
-7.2427033518822
30
0
41
1
10
0.404468417275012
20
-7.24386616285699
30
0
41
1
10
0.400186679159816
20
-7.2448449267431
30
0
41
1
10
0.397521095163114
20
-7.2446912221568
30
0
41
1
10
0.391137075869921
20
-7.24306157653439
30
0
41
1
10
0.387543705609602
20
-7.2416208422496
30
0
41
1
10
0.379653308678911
20
-7.23764835982738
30
0
41
1
10
0.37534392708281
20
-7.23510004353648
30
0
41
1
10
0.366466147873098
20
-7.2292722304245
30
0
41
1
10
0.361852616489614
20
-7.2259713190069
30
0
41
1
10
0.352327622903403
20
-7.21871317070108
30
0
41
1
10
0.347434792950622
20
-7.21476742648079
30
0
41
1
10
0.342515451752916
20
-7.21062231450989
30
0
0
SPLINE
5
14E
100
AcDbEntity
8
1
62
256
6
ByLayer
370
13
48
1
60
0
100
AcDbSpline
70
4
71
3
72
8
73
4
40
0
40
0
40
0
40
0
40
1
40
1
40
1
40
1
41
1
10
0.342515451752916
20
-7.21062231450989
30
0
41
1
10
0.154458049265997
20
-7.05216227709309
30
0
41
1
10
-0.0334683322720934
20
-6.8934953606863
30
0
41
1
10
-0.221234548247082
20
-6.73457554663048
30
0
0
SPLINE
5
14F
100
AcDbEntity
8
1
62
256
6
ByLayer
370
13
48
1
60
0
100
AcDbSpline
70
4
71
3
72
8
73
4
40
0
40
0
40
0
40
0
40
1
40
1
40
1
40
1
41
1
10
-0.221234548247082
20
-6.8703865968883
30
0
41
1
10
-0.0359901037381007
20
-7.1019075101305
30
0
41
1
10
0.152101279148297
20
-7.33030794767049
30
0
41
1
10
0.342515451752916
20
-7.55616241901228
30
0
0
SPLINE
5
150
100
AcDbEntity
8
1
62
256
6
ByLayer
370
13
48
1
60
0
100
AcDbSpline
70
4
71
3
72
30
73
26
40
0
40
0
40
0
40
0
40
0.125000000000004
40
0.125000000000004
40
0.187500000000003
40
0.187500000000003
40
0.250000000000002
40
0.250000000000002
40
0.375
40
0.375
40
0.499999999999998
40
0.499999999999998
40
0.562499999999998
40
0.562499999999998
40
0.624999999999998
40
0.624999999999998
40
0.687499999999998
40
0.687499999999998
40
0.749999999999998
40
0.749999999999998
40
0.812499999999998
40
0.812499999999998
40
0.874999999999998
40
0.874999999999998
40
1
40
1
40
1
40
1
41
1
10
0.342515451752916
20
-7.55616241901228
30
0
41
1
10
0.350590418685499
20
-7.5657403163018
30
0
41
1
10
0.358230496140521
20
-7.57508829483359
30
0
41
1
10
0.368966358022504
20
-7.58872021584918
30
0
41
1
10
0.372423272466221
20
-7.5931986436201
30
0
41
1
10
0.3790642864397
20
-7.60200737998298
30
0
41
1
10
0.382264766574622
20
-7.60636105414858
30
0
41
1
10
0.391219236850702
20
-7.61892365494248
30
0
41
1
10
0.396373019896004
20
-7.62667899397778
30
0
41
1
10
0.4044753115665
20
-7.64050601670439
30
0
41
1
10
0.407273783544923
20
-7.64632227125819
30
0
41
1
10
0.408848988429725
20
-7.65268885068218
30
0
41
1
10
0.408912672714422
20
-7.65434888545209
30
0
41
1
10
0.408047224104621
20
-7.65666683293719
30
0
41
1
10
0.407094590068908
20
-7.65732246807698
30
0
41
1
10
0.404200204261798
20
-7.65750511066878
30
0
41
1
10
0.402271049763215
20
-7.65705219290589
30
0
41
1
10
0.397467060196817
20
-7.65508230381838
30
0
41
1
10
0.394608318858019
20
-7.65356484690378
30
0
41
1
10
0.388259142795107
20
-7.6496798874519
30
0
41
1
10
0.384709409373897
20
-7.64727667299789
30
0
41
1
10
0.377166643728202
20
-7.64180942430067
30
0
41
1
10
0.373193042516618
20
-7.6387634879556
30
0
41
1
10
0.360761466118305
20
-7.62884179648628
30
0
41
1
10
0.351740206307113
20
-7.621133842327
30
0
41
1
10
0.342515451752916
20
-7.61289716517339
30
0
0
SPLINE
5
151
100
AcDbEntity
8
1
62
256
6
ByLayer
370
13
48
1
60
0
100
AcDbSpline
70
4
71
3
72
8
73
4
40
0
40
0
40
0
40
0
40
1
40
1
40
1
40
1
41
1
10
0.342515451752916
20
-7.61289716517339
30
0
41
1
10
0.154189499858916
20
-7.4447430905833
30
0
41
1
10
-0.0337543558516984
20
-7.276021729153
30
0
41
1
10
-0.221234548247082
20
-7.1066119805875
30
0
0
SPLINE
5
152
100
AcDbEntity
8
1
62
256
6
ByLayer
370
13
48
1
60
0
100
AcDbSpline
70
4
71
3
72
8
73
4
40
0
40
0
40
0
40
0
40
1
40
1
40
1
40
1
41
1
10
-0.221234548247082
20
-7.14142842854278
30
0
41
1
10
0.0285831239267225
20
-7.3950440940057
30
0
41
1
10
0.278601093824221
20
-7.6484651140205
30
0
41
1
10
0.528765451752918
20
-7.9017403146396
30
0
0
SPLINE
5
153
100
AcDbEntity
8
1
62
256
6
ByLayer
370
13
48
1
60
0
100
AcDbSpline
70
4
71
3
72
34
73
30
40
0
40
0
40
0
40
0
40
0.0624999999999997
40
0.0624999999999997
40
0.125
40
0.125
40
0.249999999999999
40
0.249999999999999
40
0.312499999999999
40
0.312499999999999
40
0.374999999999999
40
0.374999999999999
40
0.499999999999999
40
0.499999999999999
40
0.562499999999999
40
0.562499999999999
40
0.624999999999999
40
0.624999999999999
40
0.687499999999999
40
0.687499999999999
40
0.749999999999999
40
0.749999999999999
40
0.874999999999998
40
0.874999999999998
40
0.937499999999999
40
0.937499999999999
40
0.968749999999999
40
0.968749999999999
40
1
40
1
40
1
40
1
41
1
10
16.1015816167649
20
-8.21446784575608
30
0
41
1
10
16.1088999289683
20
-8.20773376811218
30
0
41
1
10
16.1170756104636
20
-8.20219530811229
30
0
41
1
10
16.1346283092271
20
-8.19275443002229
30
0
41
1
10
16.1440522043612
20
-8.18886471881629
30
0
41
1
10
16.17310872064
20
-8.17940849245949
30
0
41
1
10
16.1937774957508
20
-8.1758976723483
30
0
41
1
10
16.2252425543187
20
-8.1737007535512
30
0
41
1
10
16.2358051330947
20
-8.17348689038408
30
0
41
1
10
16.2570755272193
20
-8.17398819329728
30
0
41
1
10
16.2677835297106
20
-8.1747070657228
30
0
41
1
10
16.2998219016341
20
-8.17815270525008
30
0
41
1
10
16.3211694219425
20
-8.1821644506899
30
0
41
1
10
16.3526955537302
20
-8.19054446799919
30
0
41
1
10
16.3630746757499
20
-8.19372036163628
30
0
41
1
10
16.3835725548558
20
-8.20084096621008
30
0
41
1
10
16.3937159492269
20
-8.20479700321928
30
0
41
1
10
16.413572737115
20
-8.21345350935258
30
0
41
1
10
16.4232902595565
20
-8.2181522491675
30
0
41
1
10
16.4422754920496
20
-8.22834887240339
30
0
41
1
10
16.4515362571582
20
-8.2338459801706
30
0
41
1
10
16.4782517359539
20
-8.25149358104377
30
0
41
1
10
16.4948368071684
20
-8.26486307459328
30
0
41
1
10
16.516202389278
20
-8.28777628615538
30
0
41
1
10
16.5226363033672
20
-8.29579101871428
30
0
41
1
10
16.5309787834417
20
-8.30855514383788
30
0
41
1
10
16.533539562234
20
-8.31293466394999
30
0
41
1
10
16.5381317957134
20
-8.32199775241298
30
0
41
1
10
16.5401603071567
20
-8.32668315364538
30
0
41
1
10
16.5418270314624
20
-8.33146618826319
30
0
0
SPLINE
5
154
100
AcDbEntity
8
1
62
256
6
ByLayer
370
13
48
1
60
0
100
AcDbSpline
70
4
71
3
72
8
73
4
40
0
40
0
40
0
40
0
40
1
40
1
40
1
40
1
41
1
10
16.0863069022008
20
-8.228525002705
30
0
41
1
10
16.0913968348545
20
-8.22384018762818
30
0
41
1
10
16.0964883728052
20
-8.21915448651828
30
0
41
1
10
16.1015816167649
20
-8.21446784575608
30
0
0
SPLINE
5
155
100
AcDbEntity
8
1
62
256
6
ByLayer
370
13
48
1
60
0
100
AcDbSpline
70
4
71
3
72
26
73
22
40
0
40
0
40
0
40
0
40
0.249999999999998
40
0.249999999999998
40
0.374999999999997
40
0.374999999999997
40
0.499999999999995
40
0.499999999999995
40
0.624999999999994
40
0.624999999999994
40
0.687499999999995
40
0.687499999999995
40
0.749999999999995
40
0.749999999999995
40
0.812499999999996
40
0.812499999999996
40
0.874999999999998
40
0.874999999999998
40
0.937499999999999
40
0.937499999999999
40
1
40
1
40
1
40
1
41
1
10
15.8164772672671
20
-8.17168698981538
30
0
41
1
10
15.835890120309
20
-8.19097813281138
30
0
41
1
10
15.8569332232978
20
-8.20856537806529
30
0
41
1
10
15.8906969930452
20
-8.2315443718629
30
0
41
1
10
15.90232633848
20
-8.23863099685278
30
0
41
1
10
15.9262782182866
20
-8.25131785778069
30
0
41
1
10
15.9386256242298
20
-8.25693454404058
30
0
41
1
10
15.9639246771481
20
-8.26610509111268
30
0
41
1
10
15.9769083426239
20
-8.26967936368729
30
0
41
1
10
15.9966279622922
20
-8.2726946764308
30
0
41
1
10
16.0032206554969
20
-8.2733009989183
30
0
41
1
10
16.0163560906623
20
-8.27351368937389
30
0
41
1
10
16.0228971919671
20
-8.27311285600089
30
0
41
1
10
16.0355419376196
20
-8.27110610711148
30
0
41
1
10
16.0416901309602
20
-8.2695055117552
30
0
41
1
10
16.0535365432785
20
-8.2648004669494
30
0
41
1
10
16.0590704820399
20
-8.26174289837908
30
0
41
1
10
16.0690201518801
20
-8.25425720892278
30
0
41
1
10
16.073490279559
20
-8.24975791421099
30
0
41
1
10
16.0809029847886
20
-8.23985451216078
30
0
41
1
10
16.0839385567122
20
-8.2343684437644
30
0
41
1
10
16.0863069022008
20
-8.228525002705
30
0
0
SPLINE
5
156
100
AcDbEntity
8
1
62
256
6
ByLayer
370
13
48
1
60
0
100
AcDbSpline
70
4
71
3
72
28
73
24
40
0
40
0
40
0
40
0
40
0.0625000000000003
40
0.0625000000000003
40
0.125000000000001
40
0.125000000000001
40
0.187500000000001
40
0.187500000000001
40
0.250000000000001
40
0.250000000000001
40
0.312500000000001
40
0.312500000000001
40
0.375000000000002
40
0.375000000000002
40
0.437500000000002
40
0.437500000000002
40
0.500000000000002
40
0.500000000000002
40
0.625000000000002
40
0.625000000000002
40
0.750000000000001
40
0.750000000000001
40
1
40
1
40
1
40
1
41
1
10
16.5487838228892
20
-8.35143152566218
30
0
41
1
10
16.5481460384684
20
-8.35773960044489
30
0
41
1
10
16.5482643354971
20
-8.3639902147321
30
0
41
1
10
16.5501812091871
20
-8.3763633974132
30
0
41
1
10
16.5520343157521
20
-8.38256314568088
30
0
41
1
10
16.5573377999474
20
-8.39410861767979
30
0
41
1
10
16.5607963615649
20
-8.39955073011888
30
0
41
1
10
16.5691215561856
20
-8.40965275977328
30
0
41
1
10
16.5738628819176
20
-8.41417864348159
30
0
41
1
10
16.5842818139717
20
-8.4223706080129
30
0
41
1
10
16.5899371365141
20
-8.42600479571669
30
0
41
1
10
16.60163268116
20
-8.43235322044748
30
0
41
1
10
16.607721204882
20
-8.43510369769598
30
0
41
1
10
16.6202841565438
20
-8.4399165825626
30
0
41
1
10
16.6267788443953
20
-8.44198069389378
30
0
41
1
10
16.6398905230504
20
-8.4454684333723
30
0
41
1
10
16.6465303423875
20
-8.44690211103929
30
0
41
1
10
16.6666592014934
20
-8.45041786079858
30
0
41
1
10
16.6802962532739
20
-8.45170956165288
30
0
41
1
10
16.7076511983038
20
-8.45265487267858
30
0
41
1
10
16.7213594012905
20
-8.45230575962128
30
0
41
1
10
16.7623883299116
20
-8.4491955818408
30
0
41
1
10
16.7895218542028
20
-8.44441444797138
30
0
41
1
10
16.8160624877343
20
-8.4373338542338
30
0
0
SPLINE
5
157
100
AcDbEntity
8
1
62
256
6
ByLayer
370
13
48
1
60
0
100
AcDbSpline
70
4
71
3
72
8
73
4
40
0
40
0
40
0
40
0
40
1
40
1
40
1
40
1
41
1
10
16.5418270314624
20
-8.33146618826319
30
0
41
1
10
16.5441466508893
20
-8.33812285006488
30
0
41
1
10
16.5464655676098
20
-8.344777932081
30
0
41
1
10
16.5487838228892
20
-8.35143152566218
30
0
0
SPLINE
5
158
100
AcDbEntity
8
1
62
256
6
ByLayer
370
13
48
1
60
0
100
AcDbSpline
70
4
71
3
72
34
73
30
40
0
40
0
40
0
40
0
40
0.0625000000000001
40
0.0625000000000001
40
0.125
40
0.125
40
0.25
40
0.25
40
0.3125
40
0.3125
40
0.375
40
0.375
40
0.500000000000001
40
0.500000000000001
40
0.562500000000001
40
0.562500000000001
40
0.625000000000001
40
0.625000000000001
40
0.687500000000001
40
0.687500000000001
40
0.750000000000001
40
0.750000000000001
40
0.875000000000001
40
0.875000000000001
40
0.937500000000001
40
0.937500000000001
40
0.96875
40
0.96875
40
1
40
1
40
1
40
1
41
1
10
17.0033170024112
20
-8.2083484414934
30
0
41
1
10
17.0015981377935
20
-8.19835308661717
30
0
41
1
10
17.0013181954644
20
-8.18823919981918
30
0
41
1
10
17.0027362622987
20
-8.16782857537038
30
0
41
1
10
17.0044693231748
20
-8.157497492098
30
0
41
1
10
17.0118932945179
20
-8.1270005988666
30
0
41
1
10
17.0198104557746
20
-8.107027653415
30
0
41
1
10
17.0344076289848
20
-8.0783310941672
30
0
41
1
10
17.039731413202
20
-8.0689819574597
30
0
41
1
10
17.0512010300024
20
-8.05066432346919
30
0
41
1
10
17.0573499499117
20
-8.0416976793438
30
0
41
1
10
17.0767821157254
20
-8.0155808900891
30
0
41
1
10
17.0911002458741
20
-7.99912236061218
30
0
41
1
10
17.1141965155925
20
-7.97617304887538
30
0
41
1
10
17.1221319101024
20
-7.96884787236408
30
0
41
1
10
17.1384791401735
20
-7.9548492123235
30
0
41
1
10
17.1469128250956
20
-7.94816043112809
30
0
41
1
10
17.1641513616359
20
-7.9355677143669
30
0
41
1
10
17.1729569727177
20
-7.92965922455289
30
0
41
1
10
17.1909769202967
20
-7.91867158059668
30
0
41
1
10
17.2001870293377
20
-7.91359806654609
30
0
41
1
10
17.2282018366185
20
-7.8999344466902
30
0
41
1
10
17.2475417448467
20
-7.89276476202139
30
0
41
1
10
17.2771010953945
20
-7.886586589362
30
0
41
1
10
17.2869126601429
20
-7.88532510690709
30
0
41
1
10
17.3015780451679
20
-7.88495924006898
30
0
41
1
10
17.3064577853032
20
-7.88509399601739
30
0
41
1
10
17.3162004108211
20
-7.8859823722828
30
0
41
1
10
17.3210633225815
20
-7.88673950741389
30
0
41
1
10
17.3258247951135
20
-7.88786039791339
30
0
0
SPLINE
5
159
100
AcDbEntity
8
1
62
256
6
ByLayer
370
13
48
1
60
0
100
AcDbSpline
70
4
71
3
72
8
73
4
40
0
40
0
40
0
40
0
40
1
40
1
40
1
40
1
41
1
10
17.0069047861043
20
-8.22921257337799
30
0
41
1
10
17.0057091827249
20
-8.2222594751899
30
0
41
1
10
17.0045132614104
20
-8.2153047969253
30
0
41
1
10
17.0033170024112
20
-8.2083484414934
30
0
0
SPLINE
5
15A
100
AcDbEntity
8
1
62
256
6
ByLayer
370
13
48
1
60
0
100
AcDbSpline
70
4
71
3
72
26
73
22
40
0
40
0
40
0
40
0
40
0.250000000000001
40
0.250000000000001
40
0.375000000000001
40
0.375000000000001
40
0.500000000000002
40
0.500000000000002
40
0.625000000000003
40
0.625000000000003
40
0.687500000000002
40
0.687500000000002
40
0.750000000000002
40
0.750000000000002
40
0.812500000000001
40
0.812500000000001
40
0.875000000000001
40
0.875000000000001
40
0.937500000000001
40
0.937500000000001
40
1
40
1
40
1
40
1
41
1
10
16.8160624877343
20
-8.4373338542338
30
0
41
1
10
16.8425995237171
20
-8.43025422026147
30
0
41
1
10
16.8685333327659
20
-8.42087602894708
30
0
41
1
10
16.9056938914849
20
-8.40313298656068
30
0
41
1
10
16.9177900999818
20
-8.3965955266994
30
0
41
1
10
16.941089202395
20
-8.38214413901778
30
0
41
1
10
16.9523189472754
20
-8.37421697777768
30
0
41
1
10
16.9733612361935
20
-8.35675903987109
30
0
41
1
10
16.9832075965241
20
-8.34721090293488
30
0
41
1
10
16.9961442736828
20
-8.33144555586188
30
0
41
1
10
17.0001334004398
20
-8.32596444862727
30
0
41
1
10
17.0072518795237
20
-8.3145206603551
30
0
41
1
10
17.0103743709757
20
-8.30855563259888
30
0
41
1
10
17.0153867739662
20
-8.29637506412428
30
0
41
1
10
17.0173046377561
20
-8.29012314445549
30
0
41
1
10
17.0196560057706
20
-8.27722011656448
30
0
41
1
10
17.0200417246111
20
-8.27073819906428
30
0
41
1
10
17.0190892672603
20
-8.25803136165018
30
0
41
1
10
17.0177208846432
20
-8.25172092819778
30
0
41
1
10
17.0134314361228
20
-8.23996237318289
30
0
41
1
10
17.0104915375359
20
-8.2343891360932
30
0
41
1
10
17.0069047861043
20
-8.22921257337799
30
0
0
SPLINE
5
15B
100
AcDbEntity
8
1
62
256
6
ByLayer
370
13
48
1
60
0
100
AcDbSpline
70
4
71
3
72
8
73
4
40
0
40
0
40
0
40
0
40
1
40
1
40
1
40
1
41
1
10
17.3258247951135
20
-7.88786039791339
30
0
41
1
10
17.3324514484533
20
-7.88942036759138
30
0
41
1
10
17.3390759995709
20
-7.89098041358878
30
0
41
1
10
17.3456985722235
20
-7.8925405296404
30
0
0
SPLINE
5
15C
100
AcDbEntity
8
1
62
256
6
ByLayer
370
13
48
1
60
0
100
AcDbSpline
70
4
71
3
72
28
73
24
40
0
40
0
40
0
40
0
40
0.0625000000000001
40
0.0625000000000001
40
0.125
40
0.125
40
0.1875
40
0.1875
40
0.25
40
0.25
40
0.312500000000001
40
0.312500000000001
40
0.375000000000001
40
0.375000000000001
40
0.437500000000001
40
0.437500000000001
40
0.500000000000001
40
0.500000000000001
40
0.625000000000001
40
0.625000000000001
40
0.75
40
0.75
40
1
40
1
40
1
40
1
41
1
10
17.3456985722235
20
-7.8925405296404
30
0
41
1
10
17.3505569543821
20
-7.8964598057573
30
0
41
1
10
17.3557468802681
20
-7.89969773738238
30
0
41
1
10
17.366863165256
20
-7.90465928790388
30
0
41
1
10
17.3728801805044
20
-7.9063772246399
30
0
41
1
10
17.3850117741082
20
-7.9079832917177
30
0
41
1
10
17.3912095496881
20
-7.9079158945228
30
0
41
1
10
17.4036646303189
20
-7.90615403710657
30
0
41
1
10
17.409749230355
20
-7.90449574081308
30
0
41
1
10
17.4216762246098
20
-7.8999178145514
30
0
41
1
10
17.4274812613052
20
-7.89700033214788
30
0
41
1
10
17.4385230104161
20
-7.89034678195108
30
0
41
1
10
17.4438136036498
20
-7.8865885532
30
0
41
1
10
17.4540163298847
20
-7.87837721843258
30
0
41
1
10
17.4589399098885
20
-7.8739076572561
30
0
41
1
10
17.4683157929931
20
-7.86452581533229
30
0
41
1
10
17.4727877270484
20
-7.85959929555688
30
0
41
1
10
17.4856529589912
20
-7.84422752600548
30
0
41
1
10
17.4934609887201
20
-7.83324001744498
30
0
41
1
10
17.5077445728908
20
-7.81033994749887
30
0
41
1
10
17.5142131804515
20
-7.79843417107438
30
0
41
1
10
17.5318359890138
20
-7.7617261310609
30
0
41
1
10
17.5411971475137
20
-7.73603427479898
30
0
41
1
10
17.5483222962593
20
-7.7096599228214
30
0
0
SPLINE
5
15D
100
AcDbEntity
8
1
62
256
6
ByLayer
370
13
48
1
60
0
100
AcDbSpline
70
4
71
3
72
34
73
30
40
0
40
0
40
0
40
0
40
0.0625
40
0.0625
40
0.125
40
0.125
40
0.250000000000001
40
0.250000000000001
40
0.312500000000001
40
0.312500000000001
40
0.375
40
0.375
40
0.5
40
0.5
40
0.5625
40
0.5625
40
0.625
40
0.625
40
0.6875
40
0.6875
40
0.75
40
0.75
40
0.875
40
0.875
40
0.9375
40
0.9375
40
0.96875
40
0.96875
40
1
40
1
40
1
40
1
41
1
10
15.6462464954801
20
-7.44150054813929
30
0
41
1
10
15.6552325616443
20
-7.44417762788927
30
0
41
1
10
15.6636405148795
20
-7.44820817735999
30
0
41
1
10
15.6796850537658
20
-7.45814815552598
30
0
41
1
10
15.6873334133721
20
-7.46410404010248
30
0
41
1
10
15.7088487751491
20
-7.4838052973422
30
0
41
1
10
15.7215345930814
20
-7.49951537185618
30
0
41
1
10
15.7383233176632
20
-7.52511020049778
30
0
41
1
10
15.7435389952569
20
-7.53398124591749
30
0
41
1
10
15.7532999163067
20
-7.5523446235205
30
0
41
1
10
15.7578422845691
20
-7.5618390945256
30
0
41
1
10
15.7704083940916
20
-7.59094321721608
30
0
41
1
10
15.7774242887174
20
-7.61125923747468
30
0
41
1
10
15.7858541646669
20
-7.64258872517308
30
0
41
1
10
15.7883012612361
20
-7.65312830384718
30
0
41
1
10
15.7924653213974
20
-7.67440085833738
30
0
41
1
10
15.7941851113246
20
-7.6851608969362
30
0
41
1
10
15.7968300954118
20
-7.70671567643828
30
0
41
1
10
15.7977586380953
20
-7.7175130029693
30
0
41
1
10
15.7987637782424
20
-7.7391528175593
30
0
41
1
10
15.798837665865
20
-7.7499889772661
30
0
41
1
10
15.7976174134895
20
-7.7822040420632
30
0
41
1
10
15.7949280887338
20
-7.8034920288178
30
0
41
1
10
15.7868518955939
20
-7.83392730484738
30
0
41
1
10
15.7835161279562
20
-7.84368224498758
30
0
41
1
10
15.7772606106647
20
-7.8575824814163
30
0
41
1
10
15.7749648789506
20
-7.8620927614534
30
0
41
1
10
15.7698627067337
20
-7.87081862873399
30
0
41
1
10
15.7670533068087
20
-7.87503265062378
30
0
41
1
10
15.7639841174753
20
-7.87898693422639
30
0
0
SPLINE
5
15E
100
AcDbEntity
8
1
62
256
6
ByLayer
370
13
48
1
60
0
100
AcDbSpline
70
4
71
3
72
8
73
4
40
0
40
0
40
0
40
0
40
1
40
1
40
1
40
1
41
1
10
15.6274908258786
20
-7.43591463032578
30
0
41
1
10
15.6337407145476
20
-7.43777546220088
30
0
41
1
10
15.639992563434
20
-7.4396374108629
30
0
41
1
10
15.6462464954801
20
-7.44150054813929
30
0
0
SPLINE
5
15F
100
AcDbEntity
8
1
62
256
6
ByLayer
370
13
48
1
60
0
100
AcDbSpline
70
4
71
3
72
28
73
24
40
0
40
0
40
0
40
0
40
0.0624999999999998
40
0.0624999999999998
40
0.125
40
0.125
40
0.187499999999999
40
0.187499999999999
40
0.249999999999999
40
0.249999999999999
40
0.312499999999999
40
0.312499999999999
40
0.374999999999999
40
0.374999999999999
40
0.4375
40
0.4375
40
0.5
40
0.5
40
0.625
40
0.625
40
0.75
40
0.75
40
1
40
1
40
1
40
1
41
1
10
15.7511739604478
20
-7.89549319702078
30
0
41
1
10
15.7457115619632
20
-7.8982679667738
30
0
41
1
10
15.7406733996477
20
-7.9016631737602
30
0
41
1
10
15.7315402587007
20
-7.9098322794963
30
0
41
1
10
15.7274095683627
20
-7.91469377845348
30
0
41
1
10
15.7206434922385
20
-7.92534222705859
30
0
41
1
10
15.7179336115045
20
-7.93118701702758
30
0
41
1
10
15.7138586068518
20
-7.94367820088459
30
0
41
1
10
15.7125401538479
20
-7.95014608964669
30
0
41
1
10
15.7110777116729
20
-7.96343741971808
30
0
41
1
10
15.7109486271297
20
-7.9702248873451
30
0
41
1
10
15.7116393930565
20
-7.9836494357852
30
0
41
1
10
15.7124538650462
20
-7.9903472120113
30
0
41
1
10
15.7148442290124
20
-8.00371591672339
30
0
41
1
10
15.716428953678
20
-8.01040523017278
30
0
41
1
10
15.7201892744975
20
-8.02355513668178
30
0
41
1
10
15.722368127757
20
-8.03004069868359
30
0
41
1
10
15.7296616053898
20
-8.0492694104241
30
0
41
1
10
15.7355064047209
20
-8.0617289549688
30
0
41
1
10
15.7486035496739
20
-8.085869049482
30
0
41
1
10
15.7558531222369
20
-8.0975397520476
30
0
41
1
10
15.7792825520881
20
-8.13140404642579
30
0
41
1
10
15.7970617824812
20
-8.15239323157527
30
0
41
1
10
15.8164772672671
20
-8.17168698981538
30
0
0
SPLINE
5
160
100
AcDbEntity
8
1
62
256
6
ByLayer
370
13
48
1
60
0
100
AcDbSpline
70
4
71
3
72
8
73
4
40
0
40
0
40
0
40
0
40
1
40
1
40
1
40
1
41
1
10
15.7639841174753
20
-7.87898693422648
30
0
41
1
10
15.7597126544752
20
-7.88449020374338
30
0
41
1
10
15.755442630457
20
-7.8899922682549
30
0
41
1
10
15.7511739604478
20
-7.89549319702078
30
0
0
SPLINE
5
161
100
AcDbEntity
8
1
62
256
6
ByLayer
370
13
48
1
60
0
100
AcDbSpline
70
4
71
3
72
26
73
22
40
0
40
0
40
0
40
0
40
0.25
40
0.25
40
0.375
40
0.375
40
0.5
40
0.5
40
0.625000000000001
40
0.625000000000001
40
0.687500000000001
40
0.687500000000001
40
0.75
40
0.75
40
0.8125
40
0.8125
40
0.875
40
0.875
40
0.9375
40
0.9375
40
1
40
1
40
1
40
1
41
1
10
15.5491518553248
20
-7.1783661939846
30
0
41
1
10
15.542027672384
20
-7.20473697095278
30
0
41
1
10
15.537130096012
20
-7.2316238794958
30
0
41
1
10
15.5337100166265
20
-7.27207970503008
30
0
41
1
10
15.5332331691753
20
-7.2855896677934
30
0
41
1
10
15.5338601869038
20
-7.3124334820846
30
0
41
1
10
15.5349620668707
20
-7.32579695083348
30
0
41
1
10
15.5391790438973
20
-7.35197066862378
30
0
41
1
10
15.5422923444618
20
-7.3648187045211
30
0
41
1
10
15.5490298283603
20
-7.38307977003379
30
0
41
1
10
15.5516166913269
20
-7.38897627809519
30
0
41
1
10
15.5575963622103
20
-7.40020658505688
30
0
41
1
10
15.5609943653088
20
-7.40553524316169
30
0
41
1
10
15.5685816072072
20
-7.41519355866038
30
0
41
1
10
15.5727873372176
20
-7.41956370894019
30
0
41
1
10
15.5822277239841
20
-7.42713695351549
30
0
41
1
10
15.5873465563358
20
-7.43022540099219
30
0
41
1
10
15.5981866638296
20
-7.43473766056778
30
0
41
1
10
15.603992059007
20
-7.4361702917698
30
0
41
1
10
15.6156278672967
20
-7.43726711265288
30
0
41
1
10
15.6215694724221
20
-7.4369671982241
30
0
41
1
10
15.6274908258786
20
-7.43591463032578
30
0
0
SPLINE
5
162
100
AcDbEntity
8
1
62
256
6
ByLayer
370
13
48
1
60
0
100
AcDbSpline
70
4
71
3
72
8
73
4
40
0
40
0
40
0
40
0
40
1
40
1
40
1
40
1
41
1
10
17.4686865936857
20
-7.437289771672
30
0
41
1
10
17.4623654102885
20
-7.43461403732428
30
0
41
1
10
17.4560423406445
20
-7.43193803167679
30
0
41
1
10
17.4497172667728
20
-7.42926173961399
30
0
0
SPLINE
5
163
100
AcDbEntity
8
1
62
256
6
ByLayer
370
13
48
1
60
0
100
AcDbSpline
70
4
71
3
72
26
73
22
40
0
40
0
40
0
40
0
40
0.249999999999999
40
0.249999999999999
40
0.374999999999998
40
0.374999999999998
40
0.499999999999997
40
0.499999999999997
40
0.624999999999997
40
0.624999999999997
40
0.687499999999997
40
0.687499999999997
40
0.749999999999998
40
0.749999999999998
40
0.812499999999998
40
0.812499999999998
40
0.874999999999999
40
0.874999999999999
40
0.937499999999999
40
0.937499999999999
40
1
40
1
40
1
40
1
41
1
10
17.5483222962593
20
-7.7096599228214
30
0
41
1
10
17.5554464792001
20
-7.68328914585308
30
0
41
1
10
17.5603303149482
20
-7.65624518125958
30
0
41
1
10
17.5637038135057
20
-7.61525693442579
30
0
41
1
10
17.564160692179
20
-7.60151872748668
30
0
41
1
10
17.5634821551205
20
-7.57408604455878
30
0
41
1
10
17.5623487129619
20
-7.56036181830768
30
0
41
1
10
17.5580521619882
20
-7.5332785661405
30
0
41
1
10
17.5548908522622
20
-7.51988178301607
30
0
41
1
10
17.5480624511413
20
-7.50058152889599
30
0
41
1
10
17.5454421812128
20
-7.49430317751307
30
0
41
1
10
17.539387939933
20
-7.48222052701919
30
0
41
1
10
17.535948723326
20
-7.4764207963577
30
0
41
1
10
17.5282712799004
20
-7.46573147268609
30
0
41
1
10
17.5240163508094
20
-7.46079897434069
30
0
41
1
10
17.5144666489683
20
-7.45197625274588
30
0
41
1
10
17.5092890414782
20
-7.4482160023625
30
0
41
1
10
17.4983248945901
20
-7.44228596602269
30
0
41
1
10
17.4924532691753
20
-7.44009631974339
30
0
41
1
10
17.480684769965
20
-7.43748283469708
30
0
41
1
10
17.4746754340695
20
-7.4370085828817
30
0
41
1
10
17.4686865936857
20
-7.437289771672
30
0
0
SPLINE
5
164
100
AcDbEntity
8
1
62
256
6
ByLayer
370
13
48
1
60
0
100
AcDbSpline
70
4
71
3
72
8
73
4
40
0
40
0
40
0
40
0
40
1
40
1
40
1
40
1
41
1
10
17.3450034591165
20
-6.977711204977
30
0
41
1
10
17.3406634943792
20
-6.98239723127028
30
0
41
1
10
17.3363222496032
20
-6.98708523879628
30
0
41
1
10
17.3319796447776
20
-6.99177535352689
30
0
0
SPLINE
5
165
100
AcDbEntity
8
1
62
256
6
ByLayer
370
13
48
1
60
0
100
AcDbSpline
70
4
71
3
72
30
73
26
40
0
40
0
40
0
40
0
40
0.0625000000000004
40
0.0625000000000004
40
0.125000000000001
40
0.125000000000001
40
0.250000000000001
40
0.250000000000001
40
0.375000000000001
40
0.375000000000001
40
0.500000000000001
40
0.500000000000001
40
0.625000000000001
40
0.625000000000001
40
0.687500000000001
40
0.687500000000001
40
0.750000000000001
40
0.750000000000001
40
0.812500000000001
40
0.812500000000001
40
0.875
40
0.875
40
0.9375
40
0.9375
40
1
40
1
40
1
40
1
41
1
10
17.3319796447776
20
-6.99177535352689
30
0
41
1
10
17.325730479849
20
-6.99852459773919
30
0
41
1
10
17.3206517951454
20
-7.00616435993308
30
0
41
1
10
17.3120896683881
20
-7.02269567213898
30
0
41
1
10
17.3086198966835
20
-7.03163290742779
30
0
41
1
10
17.3003347649886
20
-7.0593326189011
30
0
41
1
10
17.2974994950685
20
-7.07920707779178
30
0
41
1
10
17.2956803703145
20
-7.11989616842808
30
0
41
1
10
17.2967097922374
20
-7.14077117698878
30
0
41
1
10
17.301949457482
20
-7.1828098641372
30
0
41
1
10
17.3061276679519
20
-7.2037770185687
30
0
41
1
10
17.3174209270711
20
-7.2456041737689
30
0
41
1
10
17.3244082595248
20
-7.26599146628038
30
0
41
1
10
17.3369514605001
20
-7.29576248944548
30
0
41
1
10
17.3414805154182
20
-7.3055494870068
30
0
41
1
10
17.3513097263493
20
-7.32482045268429
30
0
41
1
10
17.3566167684313
20
-7.33430545954008
30
0
41
1
10
17.3678736169598
20
-7.35252059510239
30
0
41
1
10
17.3738467420451
20
-7.36130315777598
30
0
41
1
10
17.3866109796273
20
-7.378118234336
30
0
41
1
10
17.3934342753067
20
-7.38618965626699
30
0
41
1
10
17.4079953178506
20
-7.40121127500589
30
0
41
1
10
17.415638410718
20
-7.4080774296433
30
0
41
1
10
17.4318956324713
20
-7.42014991667259
30
0
41
1
10
17.4405905693277
20
-7.4254000127101
30
0
41
1
10
17.4497172667727
20
-7.42926173961388
30
0
0
SPLINE
5
166
100
AcDbEntity
8
1
62
256
6
ByLayer
370
13
48
1
60
0
100
AcDbSpline
70
4
71
3
72
26
73
22
40
0
40
0
40
0
40
0
40
0.249999999999999
40
0.249999999999999
40
0.374999999999999
40
0.374999999999999
40
0.499999999999999
40
0.499999999999999
40
0.624999999999998
40
0.624999999999998
40
0.687499999999999
40
0.687499999999999
40
0.749999999999999
40
0.749999999999999
40
0.812499999999999
40
0.812499999999999
40
0.874999999999999
40
0.874999999999999
40
0.9375
40
0.9375
40
1
40
1
40
1
40
1
41
1
10
17.2809968843182
20
-6.71633912699178
30
0
41
1
10
17.3004097373601
20
-6.73563026998778
30
0
41
1
10
17.3181801071288
20
-6.75646975252289
30
0
41
1
10
17.3415487140492
20
-6.78977880801989
30
0
41
1
10
17.3487849223852
20
-6.8012310574872
30
0
41
1
10
17.3618223964755
20
-6.82476397117418
30
0
41
1
10
17.3676402774879
20
-6.8368692903228
30
0
41
1
10
17.3772865865189
20
-6.86159455383478
30
0
41
1
10
17.3811355414995
20
-6.8742463295319
30
0
41
1
10
17.3846473485314
20
-6.89336795127028
30
0
41
1
10
17.3854329393329
20
-6.89974500838858
30
0
41
1
10
17.3860385906592
20
-6.91240901319989
30
0
41
1
10
17.3858516673688
20
-6.91869406924849
30
0
41
1
10
17.3843059627991
20
-6.93078890094759
30
0
41
1
10
17.382953643682
20
-6.93664184506488
30
0
41
1
10
17.378792992486
20
-6.94784361735069
30
0
41
1
10
17.3760247954085
20
-6.95303619135899
30
0
41
1
10
17.3691432776488
20
-6.96227628189018
30
0
41
1
10
17.3649634069677
20
-6.96637281374169
30
0
41
1
10
17.3556943523485
20
-6.97304669973968
30
0
41
1
10
17.3505293601697
20
-6.9757098382924
30
0
41
1
10
17.3450034591165
20
-6.977711204977
30
0
0
SPLINE
5
167
100
AcDbEntity
8
1
62
256
6
ByLayer
370
13
48
1
60
0
100
AcDbSpline
70
4
71
3
72
34
73
30
40
0
40
0
40
0
40
0
40
0.0625
40
0.0625
40
0.125
40
0.125
40
0.25
40
0.25
40
0.3125
40
0.3125
40
0.375
40
0.375
40
0.5
40
0.5
40
0.5625
40
0.5625
40
0.624999999999999
40
0.624999999999999
40
0.687499999999999
40
0.687499999999999
40
0.749999999999999
40
0.749999999999999
40
0.874999999999999
40
0.874999999999999
40
0.9375
40
0.9375
40
0.96875
40
0.96875
40
1
40
1
40
1
40
1
41
1
10
16.0926467598417
20
-6.66241384625988
30
0
41
1
10
16.0942634031456
20
-6.6712408061714
30
0
41
1
10
16.0944480042962
20
-6.68026493831448
30
0
41
1
10
16.0928497513761
20
-6.69861602637798
30
0
41
1
10
16.0910317411967
20
-6.70797613467028
30
0
41
1
10
16.0833734035359
20
-6.73579420863209
30
0
41
1
10
16.0753246504358
20
-6.75426305243079
30
0
41
1
10
16.0605691556737
20
-6.78114998806049
30
0
41
1
10
16.0551991375263
20
-6.78997066852639
30
0
41
1
10
16.0436498081771
20
-6.80737718391538
30
0
41
1
10
16.0374674596288
20
-6.81596173694928
30
0
41
1
10
16.0179551006404
20
-6.8411619140212
30
0
41
1
10
16.0036099794239
20
-6.85731193418178
30
0
41
1
10
15.9805137374659
20
-6.8802615632232
30
0
41
1
10
15.9725850810749
20
-6.88766375678588
30
0
41
1
10
15.9562646732567
20
-6.90196899657798
30
0
41
1
10
15.947851149291
20
-6.90888821856169
30
0
41
1
10
15.9306660782293
20
-6.92209204853827
30
0
41
1
10
15.9218937297953
20
-6.92838073215648
30
0
41
1
10
15.9039534926823
20
-6.94027947090839
30
0
41
1
10
15.8947898467514
20
-6.94588406073709
30
0
41
1
10
15.8669331916897
20
-6.9613553687289
30
0
41
1
10
15.8477243079776
20
-6.97002267047029
30
0
41
1
10
15.8184001080263
20
-6.9788886267462
30
0
41
1
10
15.8086723093208
20
-6.98110755945368
30
0
41
1
10
15.7941416996139
20
-6.9830139152258
30
0
41
1
10
15.7893084187364
20
-6.98341019102418
30
0
41
1
10
15.7796622328617
20
-6.98362412492469
30
0
41
1
10
15.7748493218854
20
-6.98343850137059
30
0
41
1
10
15.7701389671394
20
-6.98290188983989
30
0
0
SPLINE
5
168
100
AcDbEntity
8
1
62
256
6
ByLayer
370
13
48
1
60
0
100
AcDbSpline
70
4
71
3
72
8
73
4
40
0
40
0
40
0
40
0
40
1
40
1
40
1
40
1
41
1
10
16.08927263346
20
-6.64399182861979
30
0
41
1
10
16.0903969421112
20
-6.65013002433528
30
0
41
1
10
16.091521642668
20
-6.6562706456144
30
0
41
1
10
16.0926467598417
20
-6.66241384625988
30
0
0
SPLINE
5
169
100
AcDbEntity
8
1
62
256
6
ByLayer
370
13
48
1
60
0
100
AcDbSpline
70
4
71
3
72
28
73
24
40
0
40
0
40
0
40
0
40
0.0624999999999999
40
0.0624999999999999
40
0.125
40
0.125
40
0.1875
40
0.1875
40
0.249999999999999
40
0.249999999999999
40
0.312499999999999
40
0.312499999999999
40
0.374999999999999
40
0.374999999999999
40
0.437499999999999
40
0.437499999999999
40
0.499999999999999
40
0.499999999999999
40
0.624999999999999
40
0.624999999999999
40
0.749999999999999
40
0.749999999999999
40
1
40
1
40
1
40
1
41
1
10
15.7504788473408
20
-6.98066387235738
30
0
41
1
10
15.7456880013715
20
-6.9775165384151
30
0
41
1
10
15.7405650085692
20
-6.9750436554387
30
0
41
1
10
15.7295812642831
20
-6.97159705207019
30
0
41
1
10
15.7236306857255
20
-6.970638490185
30
0
41
1
10
15.7116231586903
20
-6.9704505104753
30
0
41
1
10
15.7054840495673
20
-6.97118846834039
30
0
41
1
10
15.6931387316513
20
-6.9742049193292
30
0
41
1
10
15.6871037742158
20
-6.97643063314339
30
0
41
1
10
15.6752680200122
20
-6.9820514379619
30
0
41
1
10
15.6695042425365
20
-6.98544051540469
30
0
41
1
10
15.6585364342093
20
-6.99293921262628
30
0
41
1
10
15.6532789239784
20
-6.9970755818307
30
0
41
1
10
15.6431364748218
20
-7.00597588675419
30
0
41
1
10
15.6382401284539
20
-7.01075672981398
30
0
41
1
10
15.6289132958872
20
-7.02069922195139
30
0
41
1
10
15.6244632977873
20
-7.02587647084528
30
0
41
1
10
15.611657766784
20
-7.04193062525638
30
0
41
1
10
15.6038812916141
20
-7.0532788040768
30
0
41
1
10
15.589649275631
20
-7.0767683011056
30
0
41
1
10
15.5832006223445
20
-7.088902155927
30
0
41
1
10
15.5656244333668
20
-7.12614306023079
30
0
41
1
10
15.5562770040704
20
-7.15199184200699
30
0
41
1
10
15.5491518553248
20
-7.1783661939846
30
0
0
SPLINE
5
16A
100
AcDbEntity
8
1
62
256
6
ByLayer
370
13
48
1
60
0
100
AcDbSpline
70
4
71
3
72
8
73
4
40
0
40
0
40
0
40
0
40
1
40
1
40
1
40
1
41
1
10
15.7701389671394
20
-6.98290188983989
30
0
41
1
10
15.7635834556252
20
-6.98215507494828
30
0
41
1
10
15.7570301252652
20
-6.98140908593638
30
0
41
1
10
15.7504788473408
20
-6.98066387235738
30
0
0
SPLINE
5
16B
100
AcDbEntity
8
1
62
256
6
ByLayer
370
13
48
1
60
0
100
AcDbSpline
70
4
71
3
72
26
73
22
40
0
40
0
40
0
40
0
40
0.249999999999999
40
0.249999999999999
40
0.374999999999999
40
0.374999999999999
40
0.499999999999999
40
0.499999999999999
40
0.624999999999998
40
0.624999999999998
40
0.687499999999999
40
0.687499999999999
40
0.749999999999999
40
0.749999999999999
40
0.812499999999999
40
0.812499999999999
40
0.874999999999999
40
0.874999999999999
40
0.9375
40
0.9375
40
1
40
1
40
1
40
1
41
1
10
16.2814116638498
20
-6.45069226257218
30
0
41
1
10
16.254874627867
20
-6.4577718965445
30
0
41
1
10
16.2289270781942
20
-6.4669930318083
30
0
41
1
10
16.1917199386474
20
-6.48420365289519
30
0
41
1
10
16.1796037613725
20
-6.49051286858068
30
0
41
1
10
16.1562531396293
20
-6.5043753876256
30
0
41
1
10
16.1449918325572
20
-6.51194179136348
30
0
41
1
10
16.123869969692
20
-6.52849019489318
30
0
41
1
10
16.1139756001999
20
-6.53748958460238
30
0
41
1
10
16.1009480058188
20
-6.55221574306788
30
0
41
1
10
16.0969254720999
20
-6.5573150069811
30
0
41
1
10
16.0897324226195
20
-6.567906451721
30
0
41
1
10
16.0865687176591
20
-6.57340040692048
30
0
41
1
10
16.0814661131415
20
-6.58454996722219
30
0
41
1
10
16.0794990502709
20
-6.59023953882539
30
0
41
1
10
16.0770383671818
20
-6.60189308969689
30
0
41
1
10
16.0765938732029
20
-6.6077032042904
30
0
41
1
10
16.0774222911594
20
-6.6189922649404
30
0
41
1
10
16.0787244435391
20
-6.62454568331538
30
0
41
1
10
16.0828812011388
20
-6.63478757416718
30
0
41
1
10
16.0857533689557
20
-6.6395866450126
30
0
41
1
10
16.08927263346
20
-6.64399182861979
30
0
0
SPLINE
5
16C
100
AcDbEntity
8
1
62
256
6
ByLayer
370
13
48
1
60
0
100
AcDbSpline
70
4
71
3
72
32
73
28
40
0
40
0
40
0
40
0
40
0.0624999999999997
40
0.0624999999999997
40
0.124999999999999
40
0.124999999999999
40
0.187499999999999
40
0.187499999999999
40
0.249999999999999
40
0.249999999999999
40
0.374999999999999
40
0.374999999999999
40
0.499999999999999
40
0.499999999999999
40
0.562499999999999
40
0.562499999999999
40
0.624999999999999
40
0.624999999999999
40
0.687499999999999
40
0.687499999999999
40
0.749999999999999
40
0.749999999999999
40
0.874999999999999
40
0.874999999999999
40
0.9375
40
0.9375
40
1
40
1
40
1
40
1
41
1
10
16.5541367307906
20
-6.53929609949009
30
0
41
1
10
16.5573847110359
20
-6.54773718662298
30
0
41
1
10
16.5619724182538
20
-6.5556340523093
30
0
41
1
10
16.5729999340447
20
-6.57070986229698
30
0
41
1
10
16.5794957484017
20
-6.5779030758049
30
0
41
1
10
16.5935268675389
20
-6.59130157633848
30
0
41
1
10
16.6011134532439
20
-6.59757648849998
30
0
41
1
10
16.6172208721136
20
-6.60946958536479
30
0
41
1
10
16.6257950175632
20
-6.61511452934698
30
0
41
1
10
16.6523979802297
20
-6.63097272836728
30
0
41
1
10
16.671173862363
20
-6.6400976234128
30
0
41
1
10
16.7104587321582
20
-6.65609180109328
30
0
41
1
10
16.7310969951102
20
-6.66297113372278
30
0
41
1
10
16.7626555547783
20
-6.67138482197069
30
0
41
1
10
16.7732399713722
20
-6.6738637700781
30
0
41
1
10
16.7945306033853
20
-6.67816353090888
30
0
41
1
10
16.8052652829613
20
-6.6799880293693
30
0
41
1
10
16.8267039206351
20
-6.68291506416668
30
0
41
1
10
16.8374089514755
20
-6.68402044046428
30
0
41
1
10
16.8587951067229
20
-6.6854522439146
30
0
41
1
10
16.8694716031732
20
-6.68577612205129
30
0
41
1
10
16.9011059161688
20
-6.68541069190209
30
0
41
1
10
16.9218662826897
20
-6.68343545755619
30
0
41
1
10
16.9513160834267
20
-6.67664867582818
30
0
41
1
10
16.9608165101767
20
-6.67374232807089
30
0
41
1
10
16.9786640071961
20
-6.66632644893448
30
0
41
1
10
16.9869621226707
20
-6.66185974163199
30
0
41
1
10
16.994382145488
20
-6.65629444199729
30
0
0
SPLINE
5
16D
100
AcDbEntity
8
1
62
256
6
ByLayer
370
13
48
1
60
0
100
AcDbSpline
70
4
71
3
72
8
73
4
40
0
40
0
40
0
40
0
40
1
40
1
40
1
40
1
41
1
10
16.994382145488
20
-6.65629444199729
30
0
41
1
10
16.9995465312733
20
-6.65242095602139
30
0
41
1
10
17.0047092899817
20
-6.648549311897
30
0
41
1
10
17.0098705173636
20
-6.64467939929278
30
0
0
SPLINE
5
16E
100
AcDbEntity
8
1
62
256
6
ByLayer
370
13
48
1
60
0
100
AcDbSpline
70
4
71
3
72
28
73
24
40
0
40
0
40
0
40
0
40
0.0624999999999999
40
0.0624999999999999
40
0.125
40
0.125
40
0.1875
40
0.1875
40
0.25
40
0.25
40
0.3125
40
0.3125
40
0.375
40
0.375
40
0.4375
40
0.4375
40
0.5
40
0.5
40
0.625
40
0.625
40
0.75
40
0.75
40
1
40
1
40
1
40
1
41
1
10
17.0098705173636
20
-6.64467939929278
30
0
41
1
10
17.0123081278106
20
-6.6396036349997
30
0
41
1
10
17.0153732561492
20
-6.63494629929698
30
0
41
1
10
17.0228978614746
20
-6.62656198017299
30
0
41
1
10
17.0274411374019
20
-6.6228038347638
30
0
41
1
10
17.0375052258315
20
-6.61672752002059
30
0
41
1
10
17.0430787999702
20
-6.614340731385
30
0
41
1
10
17.0550723630553
20
-6.61086397910529
30
0
41
1
10
17.0613203547046
20
-6.60981280910789
30
0
41
1
10
17.0742163822192
20
-6.60883559136809
30
0
41
1
10
17.0808299936906
20
-6.60892259003558
30
0
41
1
10
17.093950926669
20
-6.60999481704388
30
0
41
1
10
17.1005172183103
20
-6.61097679517499
30
0
41
1
10
17.1136537103531
20
-6.61366667090599
30
0
41
1
10
17.1202422039416
20
-6.6153835522191
30
0
41
1
10
17.1332174741858
20
-6.61937621918338
30
0
41
1
10
17.1396287520816
20
-6.62165586268648
30
0
41
1
10
17.1586652444929
20
-6.62921510188337
30
0
41
1
10
17.1710376793965
20
-6.6351878910653
30
0
41
1
10
17.1950592496655
20
-6.64847197596879
30
0
41
1
10
17.2066987871994
20
-6.65578020631918
30
0
41
1
10
17.2405318957711
20
-6.67930597643649
30
0
41
1
10
17.2615813995324
20
-6.69704536875159
30
0
41
1
10
17.2809968843182
20
-6.71633912699178
30
0
0
SPLINE
5
16F
100
AcDbEntity
8
1
62
256
6
ByLayer
370
13
48
1
60
0
100
AcDbSpline
70
4
71
3
72
28
73
24
40
0
40
0
40
0
40
0
40
0.0624999999999999
40
0.0624999999999999
40
0.125
40
0.125
40
0.1875
40
0.1875
40
0.25
40
0.25
40
0.3125
40
0.3125
40
0.374999999999999
40
0.374999999999999
40
0.437499999999999
40
0.437499999999999
40
0.499999999999999
40
0.499999999999999
40
0.625
40
0.625
40
0.75
40
0.75
40
1
40
1
40
1
40
1
41
1
10
16.5473935966752
20
-6.52177287633549
30
0
41
1
10
16.5480989172851
20
-6.51623674372749
30
0
41
1
10
16.5480475533402
20
-6.5107511780889
30
0
41
1
10
16.546263220352
20
-6.49989294256088
30
0
41
1
10
16.5444765504777
20
-6.4944525691439
30
0
41
1
10
16.5392971328511
20
-6.48432518451318
30
0
41
1
10
16.5358972376904
20
-6.47955363274428
30
0
41
1
10
16.5276818057847
20
-6.47070619666249
30
0
41
1
10
16.5229901226532
20
-6.46674773047488
30
0
41
1
10
16.5126624306502
20
-6.45959864450049
30
0
41
1
10
16.5070483673276
20
-6.45643605183588
30
0
41
1
10
16.4954267634654
20
-6.45093277412988
30
0
41
1
10
16.4893713227463
20
-6.44856043733469
30
0
41
1
10
16.4768686481626
20
-6.4444365226243
30
0
41
1
10
16.4704011939471
20
-6.44268369317618
30
0
41
1
10
16.4573385658299
20
-6.43975660391138
30
0
41
1
10
16.4507206824482
20
-6.43857365536289
30
0
41
1
10
16.4306515242817
20
-6.4357402904632
30
0
41
1
10
16.4170460270603
20
-6.4348092598689
30
0
41
1
10
16.3897426502181
20
-6.4344533759259
30
0
41
1
10
16.3760544015055
20
-6.4350305673801
30
0
41
1
10
16.3350720924689
20
-6.4386736094508
30
0
41
1
10
16.3079522973813
20
-6.44361166883459
30
0
41
1
10
16.2814116638498
20
-6.45069226257218
30
0
0
SPLINE
5
170
100
AcDbEntity
8
1
62
256
6
ByLayer
370
13
48
1
60
0
100
AcDbSpline
70
4
71
3
72
8
73
4
40
0
40
0
40
0
40
0
40
1
40
1
40
1
40
1
41
1
10
16.5541367307906
20
-6.53929609949009
30
0
41
1
10
16.5518882531892
20
-6.53345259247479
30
0
41
1
10
16.5496405572263
20
-6.5276115674441
30
0
41
1
10
16.5473935966752
20
-6.52177287633549
30
0
0
INSERT
5
1CA
100
AcDbEntity
8
SK2
62
256
6
ByLayer
370
18
48
1
60
0
100
AcDbBlockReference
2
_U3
10
0
20
0
30
0
41
1
42
1
43
1
50
0
210
0
220
0
230
1
0
LINE
5
74
100
AcDbEntity
8
81
62
256
6
ByLayer
370
18
48
1
60
0
100
AcDbLine
10
20
20
-10.9
30
0
11
25
21
-10.9
31
0
39
0
210
0
220
0
230
1
0
LINE
5
75
100
AcDbEntity
8
80
62
256
6
ByLayer
370
18
48
1
60
0
100
AcDbLine
10
0
20
0
30
0
11
-5
21
0
31
0
39
0
210
0
220
0
230
1
0
LINE
5
76
100
AcDbEntity
8
4
62
256
6
ByLayer
370
18
48
0.05
60
0
100
AcDbLine
10
0
20
0
30
0
11
22
21
0
31
0
39
0
210
0
220
0
230
1
0
LINE
5
78
100
AcDbEntity
8
SK4
62
256
6
ByLayer
370
18
48
0.05
60
0
100
AcDbLine
10
-6.599268
20
0
30
0
11
22.400732
21
0
31
0
39
0
210
0
220
0
230
1
0
LINE
5
7A
100
AcDbEntity
8
1
62
256
6
ByLayer
370
18
48
1
60
1
100
AcDbLine
10
0
20
0
30
0
11
0
21
297
31
0
39
0
210
0
220
0
230
1
0
LINE
5
7C
100
AcDbEntity
8
1
62
256
6
ByLayer
370
18
48
1
60
1
100
AcDbLine
10
420
20
297
30
0
11
0
21
297
31
0
39
0
210
0
220
0
230
1
0
LINE
5
7D
100
AcDbEntity
8
1
62
256
6
ByLayer
370
18
48
1
60
1
100
AcDbLine
10
420
20
297
30
0
11
420
21
0
31
0
39
0
210
0
220
0
230
1
0
LINE
5
7E
100
AcDbEntity
8
1
62
256
6
ByLayer
370
18
48
1
60
1
100
AcDbLine
10
0
20
0
30
0
11
420
21
0
31
0
39
0
210
0
220
0
230
1
0
LINE
5
7F
100
AcDbEntity
8
SK1
62
256
6
ByLayer
370
18
48
1
60
0
100
AcDbLine
10
-1.621235
20
-1.955
30
0
11
-0.221235
21
-1.955
31
0
39
0
210
0
220
0
230
1
0
LINE
5
81
100
AcDbEntity
8
SK1
62
256
6
ByLayer
370
18
48
1
60
0
100
AcDbLine
10
-0.221235
20
1.955
30
0
11
-1.621235
21
1.955
31
0
39
0
210
0
220
0
230
1
0
LINE
5
82
100
AcDbEntity
8
SK1
62
256
6
ByLayer
370
18
48
1
60
0
100
AcDbLine
10
-2.121235
20
-1.821025
30
0
11
-2.121235
21
1.821025
31
0
39
0
210
0
220
0
230
1
0
LINE
5
83
100
AcDbEntity
8
SK1
62
256
6
ByLayer
370
18
48
1
60
0
100
AcDbLine
10
-1.621235
20
-1.955
30
0
11
-1.621235
21
1.955
31
0
39
0
210
0
220
0
230
1
0
LINE
5
84
100
AcDbEntity
8
SK1
62
256
6
ByLayer
370
18
48
1
60
0
100
AcDbLine
10
-2.121235
20
-1.821025
30
0
11
-1.621235
21
-1.955
31
0
39
0
210
0
220
0
230
1
0
LINE
5
85
100
AcDbEntity
8
SK1
62
256
6
ByLayer
370
18
48
1
60
0
100
AcDbLine
10
-1.621235
20
1.955
30
0
11
-2.121235
21
1.821025
31
0
39
0
210
0
220
0
230
1
0
LINE
5
86
100
AcDbEntity
8
1
62
256
6
ByLayer
370
13
48
1
60
0
100
AcDbLine
10
19.149349
20
-4.503009
30
0
11
13.529398
21
-4.017489
31
0
39
0
210
0
220
0
230
1
0
LINE
5
87
100
AcDbEntity
8
1
62
256
6
ByLayer
370
13
48
1
60
0
100
AcDbLine
10
13.099226
20
-4.444966
30
0
11
13.587827
21
-10.029701
31
0
39
0
210
0
220
0
230
1
0
LINE
5
88
100
AcDbEntity
8
1
62
256
6
ByLayer
370
13
48
1
60
0
100
AcDbLine
10
13.948386
20
-10.387998
30
0
11
19.568337
21
-10.873518
31
0
39
0
210
0
220
0
230
1
0
LINE
5
89
100
AcDbEntity
8
1
62
256
6
ByLayer
370
13
48
1
60
0
100
AcDbLine
10
19.998508
20
-10.446041
30
0
11
19.509907
21
-4.861306
31
0
39
0
210
0
220
0
230
1
0
LINE
5
8A
100
AcDbEntity
8
1
62
256
6
ByLayer
370
13
48
1
60
0
100
AcDbLine
10
13.202158
20
-6.35146
30
0
11
13.209947
21
-6.241245
31
0
39
0
210
0
220
0
230
1
0
LINE
5
8B
100
AcDbEntity
8
1
62
256
6
ByLayer
370
13
48
1
60
0
100
AcDbLine
10
13.209947
20
-6.241245
30
0
11
13.256737
21
-6.245287
31
0
39
0
210
0
220
0
230
1
0
LINE
5
8C
100
AcDbEntity
8
1
62
256
6
ByLayer
370
13
48
1
60
0
100
AcDbLine
10
14.158872
20
-4.028907
30
0
11
14.151724
21
-4.028289
31
0
39
0
210
0
220
0
230
1
0
LINE
5
8D
100
AcDbEntity
8
1
62
256
6
ByLayer
370
13
48
1
60
0
100
AcDbLine
10
8.33905
20
-8
30
0
11
10.75827
21
-9.396737
31
0
39
0
210
0
220
0
230
1
0
LINE
5
8E
100
AcDbEntity
8
1
62
256
6
ByLayer
370
13
48
1
60
0
100
AcDbLine
10
13.266511
20
-6.357019
30
0
11
13.202158
21
-6.35146
31
0
39
0
210
0
220
0
230
1
0
LINE
5
8F
100
AcDbEntity
8
1
62
256
6
ByLayer
370
13
48
1
60
0
100
AcDbLine
10
-0.221235
20
4.414854
30
0
11
-0.221235
21
3.971855
31
0
39
0
210
0
220
0
230
1
0
LINE
5
90
100
AcDbEntity
8
1
62
256
6
ByLayer
370
13
48
1
60
0
100
AcDbLine
10
-0.221235
20
-3.971855
30
0
11
-0.221235
21
-4.414854
31
0
39
0
210
0
220
0
230
1
0
LINE
5
91
100
AcDbEntity
8
1
62
256
6
ByLayer
370
13
48
1
60
0
100
AcDbLine
10
13.202158
20
-6.35146
30
0
11
13.222287
21
-6.581536
31
0
39
0
210
0
220
0
230
1
0
LINE
5
92
100
AcDbEntity
8
1
62
256
6
ByLayer
370
13
48
1
60
0
100
AcDbLine
10
13.310399
20
-6.58907
30
0
11
13.22228
21
-6.581458
31
0
39
0
210
0
220
0
230
1
0
LINE
5
93
100
AcDbEntity
8
1
62
256
6
ByLayer
370
13
48
1
60
0
100
AcDbLine
10
12.019799
20
-5.118979
30
0
11
12.039929
21
-5.349055
31
0
39
0
210
0
220
0
230
1
0
LINE
5
94
100
AcDbEntity
8
1
62
256
6
ByLayer
370
13
48
1
60
0
100
AcDbLine
10
19.138429
20
-4.502053
30
0
11
19.049108
21
-3.481215
31
0
39
0
210
0
220
0
230
1
0
LINE
5
95
100
AcDbEntity
8
1
62
256
6
ByLayer
370
13
48
1
60
0
100
AcDbLine
10
12.92575
20
1.404439
30
0
11
15.231809
21
1.404439
31
0
39
0
210
0
220
0
230
1
0
LINE
5
96
100
AcDbEntity
8
1
62
256
6
ByLayer
370
13
48
1
60
0
100
AcDbLine
10
18.973951
20
-2.622254
30
0
11
18.911852
21
-1.912528
31
0
39
0
210
0
220
0
230
1
0
LINE
5
97
100
AcDbEntity
8
1
62
256
6
ByLayer
370
13
48
1
60
0
100
AcDbLine
10
-0.221235
20
7.106612
30
0
11
-0.221235
21
6.870358
31
0
39
0
210
0
220
0
230
1
0
LINE
5
98
100
AcDbEntity
8
1
62
256
6
ByLayer
370
13
48
1
60
0
100
AcDbLine
10
-0.221235
20
5.658061
30
0
11
-0.221235
21
4.993964
31
0
39
0
210
0
220
0
230
1
0
LINE
5
99
100
AcDbEntity
8
1
62
256
6
ByLayer
370
13
48
1
60
0
100
AcDbLine
10
-0.221235
20
-4.993964
30
0
11
-0.221235
21
-5.658061
31
0
39
0
210
0
220
0
230
1
0
LINE
5
9A
100
AcDbEntity
8
1
62
256
6
ByLayer
370
13
48
1
60
0
100
AcDbLine
10
-0.221235
20
-6.870358
30
0
11
-0.221235
21
-7.106612
31
0
39
0
210
0
220
0
230
1
0
LINE
5
9B
100
AcDbEntity
8
1
62
256
6
ByLayer
370
13
48
1
60
0
100
AcDbLine
10
0.342515
20
-7.556144
30
0
11
0.342515
21
-7.612897
31
0
39
0
210
0
220
0
230
1
0
LINE
5
9C
100
AcDbEntity
8
1
62
256
6
ByLayer
370
13
48
1
60
0
100
AcDbLine
10
0.342515
20
7.612897
30
0
11
0.342515
21
7.556144
31
0
39
0
210
0
220
0
230
1
0
LINE
5
9D
100
AcDbEntity
8
1
62
256
6
ByLayer
370
13
48
1
60
0
100
AcDbLine
10
7.649012
20
-3.944289
30
0
11
8.005872
21
-7.997226
31
0
39
0
210
0
220
0
230
1
0
LINE
5
9E
100
AcDbEntity
8
1
62
256
6
ByLayer
370
13
48
1
60
0
100
AcDbLine
10
7.166101
20
1.54024
30
0
11
7.494067
21
-2.184543
31
0
39
0
210
0
220
0
230
1
0
LINE
5
9F
100
AcDbEntity
8
1
62
256
6
ByLayer
370
13
48
1
60
0
100
AcDbLine
10
-0.221235
20
6.734576
30
0
11
-0.221235
21
6.312808
31
0
39
0
210
0
220
0
230
1
0
LINE
5
A0
100
AcDbEntity
8
1
62
256
6
ByLayer
370
13
48
1
60
0
100
AcDbLine
10
-0.221235
20
5.817191
30
0
11
-0.221235
21
5.792143
31
0
39
0
210
0
220
0
230
1
0
LINE
5
A1
100
AcDbEntity
8
1
62
256
6
ByLayer
370
13
48
1
60
0
100
AcDbLine
10
-0.221235
20
-5.792143
30
0
11
-0.221235
21
-5.817191
31
0
39
0
210
0
220
0
230
1
0
LINE
5
A2
100
AcDbEntity
8
1
62
256
6
ByLayer
370
13
48
1
60
0
100
AcDbLine
10
-0.221235
20
-6.312808
30
0
11
-0.221235
21
-6.734576
31
0
39
0
210
0
220
0
230
1
0
LINE
5
A3
100
AcDbEntity
8
1
62
256
6
ByLayer
370
13
48
1
60
0
100
AcDbLine
10
0.342515
20
7.210622
30
0
11
0.342515
21
7.110447
31
0
39
0
210
0
220
0
230
1
0
LINE
5
A4
100
AcDbEntity
8
1
62
256
6
ByLayer
370
13
48
1
60
0
100
AcDbLine
10
0.342515
20
-7.110447
30
0
11
0.342515
21
-7.210622
31
0
39
0
210
0
220
0
230
1
0
LINE
5
A5
100
AcDbEntity
8
1
62
256
6
ByLayer
370
13
48
1
60
0
100
AcDbLine
10
-0.221235
20
6.089342
30
0
11
-0.221235
21
5.817178
31
0
39
0
210
0
220
0
230
1
0
LINE
5
A6
100
AcDbEntity
8
1
62
256
6
ByLayer
370
13
48
1
60
0
100
AcDbLine
10
-0.221235
20
-5.817178
30
0
11
-0.221235
21
-6.089342
31
0
39
0
210
0
220
0
230
1
0
LINE
5
A7
100
AcDbEntity
8
1
62
256
6
ByLayer
370
13
48
1
60
0
100
AcDbLine
10
0.342515
20
6.550187
30
0
11
0.342515
21
6.395052
31
0
39
0
210
0
220
0
230
1
0
LINE
5
A8
100
AcDbEntity
8
1
62
256
6
ByLayer
370
13
48
1
60
0
100
AcDbLine
10
0.342515
20
-6.395052
30
0
11
0.342515
21
-6.550187
31
0
39
0
210
0
220
0
230
1
0
LINE
5
A9
100
AcDbEntity
8
1
62
256
6
ByLayer
370
13
48
1
60
0
100
AcDbLine
10
-0.221235
20
5.792143
30
0
11
-0.221235
21
5.658034
31
0
39
0
210
0
220
0
230
1
0
LINE
5
AA
100
AcDbEntity
8
1
62
256
6
ByLayer
370
13
48
1
60
0
100
AcDbLine
10
-0.221235
20
4.993964
30
0
11
-0.221235
21
4.414861
31
0
39
0
210
0
220
0
230
1
0
LINE
5
AB
100
AcDbEntity
8
1
62
256
6
ByLayer
370
13
48
1
60
0
100
AcDbLine
10
0.342515
20
5.540019
30
0
11
0.342515
21
5.301799
31
0
39
0
210
0
220
0
230
1
0
LINE
5
AC
100
AcDbEntity
8
1
62
256
6
ByLayer
370
13
48
1
60
0
100
AcDbLine
10
0.342515
20
-5.301799
30
0
11
0.342515
21
-5.540019
31
0
39
0
210
0
220
0
230
1
0
LINE
5
AD
100
AcDbEntity
8
1
62
256
6
ByLayer
370
13
48
1
60
0
100
AcDbLine
10
-0.221235
20
-4.414861
30
0
11
-0.221235
21
-4.993964
31
0
39
0
210
0
220
0
230
1
0
LINE
5
AE
100
AcDbEntity
8
1
62
256
6
ByLayer
370
13
48
1
60
0
100
AcDbLine
10
-0.221235
20
-5.658034
30
0
11
-0.221235
21
-5.792143
31
0
39
0
210
0
220
0
230
1
0
LINE
5
AF
100
AcDbEntity
8
1
62
256
6
ByLayer
370
13
48
1
60
0
100
AcDbLine
10
6.380492
20
-7.780428
30
0
11
6.205859
21
-5.797079
31
0
39
0
210
0
220
0
230
1
0
LINE
5
B0
100
AcDbEntity
8
1
62
256
6
ByLayer
370
13
48
1
60
0
100
AcDbLine
10
5.756805
20
-0.697077
30
0
11
5.63717
21
0.661646
31
0
39
0
210
0
220
0
230
1
0
LINE
5
B1
100
AcDbEntity
8
1
62
256
6
ByLayer
370
13
48
1
60
0
100
AcDbLine
10
5.157664
20
6.107507
30
0
11
5.064698
21
7.163345
31
0
39
0
210
0
220
0
230
1
0
LINE
5
B2
100
AcDbEntity
8
1
62
256
6
ByLayer
370
13
48
1
60
0
100
AcDbLine
10
5.317132
20
4.293891
30
0
11
6.073222
21
-4.293891
31
0
39
0
210
0
220
0
230
1
0
LINE
5
B3
100
AcDbEntity
8
1
62
256
6
ByLayer
370
13
48
1
60
0
100
AcDbLine
10
-0.221235
20
3.340094
30
0
11
-0.221235
21
-3.340094
31
0
39
0
210
0
220
0
230
1
0
LINE
5
B4
100
AcDbEntity
8
1
62
256
6
ByLayer
370
13
48
1
60
0
100
AcDbLine
10
0.342515
20
3.918378
30
0
11
0.342515
21
3.492499
31
0
39
0
210
0
220
0
230
1
0
LINE
5
B5
100
AcDbEntity
8
1
62
256
6
ByLayer
370
13
48
1
60
0
100
AcDbLine
10
0.342515
20
-3.492499
30
0
11
0.342515
21
-3.918378
31
0
39
0
210
0
220
0
230
1
0
LINE
5
B6
100
AcDbEntity
8
1
62
256
6
ByLayer
370
13
48
1
60
0
100
AcDbLine
10
3.5
20
4.293891
30
0
11
3.5
21
-4.293891
31
0
39
0
210
0
220
0
230
1
0
LINE
5
B7
100
AcDbEntity
8
1
62
256
6
ByLayer
370
13
48
1
60
0
100
AcDbLine
10
3.5
20
-4.293891
30
0
11
6.073222
21
-4.293891
31
0
39
0
210
0
220
0
230
1
0
LINE
5
B8
100
AcDbEntity
8
1
62
256
6
ByLayer
370
13
48
1
60
0
100
AcDbLine
10
3.2
20
3.781204
30
0
11
3.2
21
-3.781204
31
0
39
0
210
0
220
0
230
1
0
LINE
5
B9
100
AcDbEntity
8
1
62
256
6
ByLayer
370
13
48
1
60
0
100
AcDbLine
10
5.317132
20
4.293891
30
0
11
3.5
21
4.293891
31
0
39
0
210
0
220
0
230
1
0
LINE
5
BA
100
AcDbEntity
8
1
62
256
6
ByLayer
370
13
48
1
60
0
100
AcDbLine
10
0.528765
20
7.90174
30
0
11
5.068156
21
7.90174
31
0
39
0
210
0
220
0
230
1
0
LINE
5
BB
100
AcDbEntity
8
1
62
256
6
ByLayer
370
13
48
1
60
0
100
AcDbLine
10
6.189241
20
-7.90174
30
0
11
0.528765
21
-7.90174
31
0
39
0
210
0
220
0
230
1
0
LINE
5
BC
100
AcDbEntity
8
1
62
256
6
ByLayer
370
13
48
1
60
0
100
AcDbLine
10
6.189241
20
-7.90174
30
0
11
6.478597
21
-8
31
0
39
0
210
0
220
0
230
1
0
LINE
5
BD
100
AcDbEntity
8
1
62
256
6
ByLayer
370
13
48
1
60
0
100
AcDbLine
10
8.33905
20
-8
30
0
11
8.33905
21
-7.997294
31
0
39
0
210
0
220
0
230
1
0
LINE
5
BE
100
AcDbEntity
8
1
62
256
6
ByLayer
370
13
48
1
60
0
100
AcDbLine
10
6.478597
20
-8
30
0
11
8.33905
21
-8
31
0
39
0
210
0
220
0
230
1
0
LINE
5
BF
100
AcDbEntity
8
1
62
256
6
ByLayer
370
13
48
1
60
0
100
AcDbLine
10
-0.221235
20
7.106612
30
0
11
-0.221235
21
7.141428
31
0
39
0
210
0
220
0
230
1
0
LINE
5
C0
100
AcDbEntity
8
1
62
256
6
ByLayer
370
13
48
1
60
0
100
AcDbLine
10
-0.221235
20
6.734576
30
0
11
-0.221235
21
6.870387
31
0
39
0
210
0
220
0
230
1
0
LINE
5
C1
100
AcDbEntity
8
1
62
256
6
ByLayer
370
13
48
1
60
0
100
AcDbLine
10
-0.221235
20
6.089342
30
0
11
-0.221235
21
6.312815
31
0
39
0
210
0
220
0
230
1
0
LINE
5
C2
100
AcDbEntity
8
1
62
256
6
ByLayer
370
13
48
1
60
0
100
AcDbLine
10
-0.221235
20
3.340094
30
0
11
-0.221235
21
3.971837
31
0
39
0
210
0
220
0
230
1
0
LINE
5
C3
100
AcDbEntity
8
1
62
256
6
ByLayer
370
13
48
1
60
0
100
AcDbLine
10
-0.221235
20
-3.971837
30
0
11
-0.221235
21
-3.340094
31
0
39
0
210
0
220
0
230
1
0
LINE
5
C4
100
AcDbEntity
8
1
62
256
6
ByLayer
370
13
48
1
60
0
100
AcDbLine
10
-0.221235
20
-6.312815
30
0
11
-0.221235
21
-6.089342
31
0
39
0
210
0
220
0
230
1
0
LINE
5
C5
100
AcDbEntity
8
1
62
256
6
ByLayer
370
13
48
1
60
0
100
AcDbLine
10
-0.221235
20
-6.870387
30
0
11
-0.221235
21
-6.734576
31
0
39
0
210
0
220
0
230
1
0
LINE
5
C6
100
AcDbEntity
8
1
62
256
6
ByLayer
370
13
48
1
60
0
100
AcDbLine
10
-0.221235
20
-7.141428
30
0
11
-0.221235
21
-7.106612
31
0
39
0
210
0
220
0
230
1
0
LINE
5
C7
100
AcDbEntity
8
1
62
256
6
ByLayer
370
13
48
1
60
0
100
AcDbLine
10
0.528765
20
-7.90174
30
0
11
0.528765
21
7.90174
31
0
39
0
210
0
220
0
230
1
0
LINE
5
C8
100
AcDbEntity
8
1
62
256
6
ByLayer
370
13
48
1
60
0
100
AcDbLine
10
16.539616
20
-8.246646
30
0
11
16.532766
21
-8.227902
31
0
39
0
210
0
220
0
230
1
0
LINE
5
C9
100
AcDbEntity
8
1
62
256
6
ByLayer
370
13
48
1
60
0
100
AcDbLine
10
16.092521
20
-8.110903
30
0
11
16.077139
21
-8.123739
31
0
39
0
210
0
220
0
230
1
0
LINE
5
CA
100
AcDbEntity
8
1
62
256
6
ByLayer
370
13
48
1
60
0
100
AcDbLine
10
16.532766
20
-8.227902
30
0
11
16.541827
21
-8.331466
31
0
39
0
210
0
220
0
230
1
0
LINE
5
CB
100
AcDbEntity
8
1
62
256
6
ByLayer
370
13
48
1
60
0
100
AcDbLine
10
16.092521
20
-8.110903
30
0
11
16.101582
21
-8.214468
31
0
39
0
210
0
220
0
230
1
0
LINE
5
CC
100
AcDbEntity
8
1
62
256
6
ByLayer
370
13
48
1
60
0
100
AcDbLine
10
17.336531
20
-7.787755
30
0
11
17.316764
21
-7.784296
31
0
39
0
210
0
220
0
230
1
0
LINE
5
CD
100
AcDbEntity
8
1
62
256
6
ByLayer
370
13
48
1
60
0
100
AcDbLine
10
17.316764
20
-7.784296
30
0
11
17.325825
21
-7.88786
31
0
39
0
210
0
220
0
230
1
0
LINE
5
CE
100
AcDbEntity
8
1
62
256
6
ByLayer
370
13
48
1
60
0
100
AcDbLine
10
16.993126
20
-8.096166
30
0
11
17.002145
21
-8.199253
31
0
39
0
210
0
220
0
230
1
0
LINE
5
CF
100
AcDbEntity
8
1
62
256
6
ByLayer
370
13
48
1
60
0
100
AcDbLine
10
16.539616
20
-8.246646
30
0
11
16.548784
21
-8.351432
31
0
39
0
210
0
220
0
230
1
0
LINE
5
D0
100
AcDbEntity
8
1
62
256
6
ByLayer
370
13
48
1
60
0
100
AcDbLine
10
15.797116
20
-7.711243
30
0
11
15.788614
21
-7.614064
31
0
39
0
210
0
220
0
230
1
0
LINE
5
D1
100
AcDbEntity
8
1
62
256
6
ByLayer
370
13
48
1
60
0
100
AcDbLine
10
15.637186
20
-7.337936
30
0
11
15.646246
21
-7.441501
31
0
39
0
210
0
220
0
230
1
0
LINE
5
D2
100
AcDbEntity
8
1
62
256
6
ByLayer
370
13
48
1
60
0
100
AcDbLine
10
15.637186
20
-7.337936
30
0
11
15.618323
21
-7.331129
31
0
39
0
210
0
220
0
230
1
0
LINE
5
D3
100
AcDbEntity
8
1
62
256
6
ByLayer
370
13
48
1
60
0
100
AcDbLine
10
16.077139
20
-8.123739
30
0
11
16.086307
21
-8.228525
31
0
39
0
210
0
220
0
230
1
0
LINE
5
D4
100
AcDbEntity
8
1
62
256
6
ByLayer
370
13
48
1
60
0
100
AcDbLine
10
17.335836
20
-6.872925
30
0
11
17.322919
21
-6.888211
31
0
39
0
210
0
220
0
230
1
0
LINE
5
D5
100
AcDbEntity
8
1
62
256
6
ByLayer
370
13
48
1
60
0
100
AcDbLine
10
17.322919
20
-6.888211
30
0
11
17.33198
21
-6.991775
31
0
39
0
210
0
220
0
230
1
0
LINE
5
D6
100
AcDbEntity
8
1
62
256
6
ByLayer
370
13
48
1
60
0
100
AcDbLine
10
17.289229
20
-7.049569
30
0
11
17.297727
21
-7.146706
31
0
39
0
210
0
220
0
230
1
0
LINE
5
D7
100
AcDbEntity
8
1
62
256
6
ByLayer
370
13
48
1
60
0
100
AcDbLine
10
17.336531
20
-7.787755
30
0
11
17.345699
21
-7.892541
31
0
39
0
210
0
220
0
230
1
0
LINE
5
D8
100
AcDbEntity
8
1
62
256
6
ByLayer
370
13
48
1
60
0
100
AcDbLine
10
16.093735
20
-6.670554
30
0
11
16.0857
21
-6.578714
31
0
39
0
210
0
220
0
230
1
0
LINE
5
D9
100
AcDbEntity
8
1
62
256
6
ByLayer
370
13
48
1
60
0
100
AcDbLine
10
16.085391
20
-6.579475
30
0
11
16.092647
21
-6.662414
31
0
39
0
210
0
220
0
230
1
0
LINE
5
DA
100
AcDbEntity
8
1
62
256
6
ByLayer
370
13
48
1
60
0
100
AcDbLine
10
15.618323
20
-7.331129
30
0
11
15.627491
21
-7.435915
31
0
39
0
210
0
220
0
230
1
0
LINE
5
DB
100
AcDbEntity
8
1
62
256
6
ByLayer
370
13
48
1
60
0
100
AcDbLine
10
14.821467
20
-7.49338
30
0
11
14.828594
21
-7.574843
31
0
39
0
210
0
220
0
230
1
0
LINE
5
DC
100
AcDbEntity
8
1
62
256
6
ByLayer
370
13
48
1
60
0
100
AcDbLine
10
18.265466
20
-7.274155
30
0
11
18.258339
21
-7.192692
31
0
39
0
210
0
220
0
230
1
0
LINE
5
DD
100
AcDbEntity
8
1
62
256
6
ByLayer
370
13
48
1
60
0
100
AcDbLine
10
17.335836
20
-6.872925
30
0
11
17.345003
21
-6.977711
31
0
39
0
210
0
220
0
230
1
0
LINE
5
DE
100
AcDbEntity
8
1
62
256
6
ByLayer
370
13
48
1
60
0
100
AcDbLine
10
16.08394
20
-6.583039
30
0
11
16.089273
21
-6.643992
31
0
39
0
210
0
220
0
230
1
0
LINE
5
DF
100
AcDbEntity
8
1
62
256
6
ByLayer
370
13
48
1
60
0
100
AcDbLine
10
16.545762
20
-6.503121
30
0
11
16.547394
21
-6.521773
31
0
39
0
210
0
220
0
230
1
0
MTEXT
5
171
100
AcDbEntity
8
SK6
62
256
6
ByLayer
370
18
48
1
60
0
100
AcDbMText
10
-15.473372
20
-33.114561
30
0
210
0
220
0
230
1
1
\W0.7431;SL-SCLCL-16-06-11D
40
3.5
41
0
44
1.084337
50
0
71
7
72
5
7
iso_b_vert
0
DIMENSION
5
176
100
AcDbEntity
8
2
62
256
6
ByLayer
370
18
48
1
60
0
100
AcDbDimension
2
_U0
10
28.479664
20
-10.9
30
0
11
28.479664
21
-5.45
31
0
70
32
71
1
72
1
41
1
210
0
220
0
230
1
3
Standard
100
AcDbAlignedDimension
13
22.400732
23
0
33
0
14
20
24
-10.9
34
0
50
90
100
AcDbRotatedDimension
1001
ACAD
1000
DSTYLE
1002
{
1070
   371
1070
    13
1070
   372
1070
    13
1070
   170
1070
     0
1070
   144
1040
1.0
1070
   277
1070
     2
1070
   284
1070
     8
1070
   278
1070
    46
1070
   146
1040
1.166667
1070
   345
1005
16
1070
   347
1005
16
1070
   346
1005
16
1070
   344
1005
0
1070
   343
1005
0
1070
   172
1070
     1
1070
    76
1070
     0
1070
    75
1070
     0
1070
   282
1070
     0
1070
   281
1070
     0
1070
    71
1070
     0
1070
    74
1070
     0
1070
   279
1070
     0
1070
   173
1070
     1
1070
   340
1005
172
1070
   271
1070
     0
1070
   272
1070
     2
1070
    77
1070
     1
1070
    73
1070
     0
1070
   171
1070
     3
1070
   274
1070
     4
1070
   177
1070
     7
1070
   176
1070
     7
1070
   178
1070
     7
1070
    78
1070
     8
1070
    48
1040
-0.1
1070
    41
1040
3.175
1070
   147
1040
1.5
1070
    42
1040
1.5875
1070
    44
1040
2.0
1070
   140
1040
3.0
1002
}
1001
ACAD_DSTYLE_DIM_LINETYPE
1070
   380
1005
16
1001
ACAD_DSTYLE_DIM_EXT1_LINETYPE
1070
   381
1005
16
1001
ACAD_DSTYLE_DIM_EXT2_LINETYPE
1070
   382
1005
16
0
DIMENSION
5
191
100
AcDbEntity
8
2
62
256
6
ByLayer
370
18
48
1
60
0
100
AcDbDimension
2
_U1
10
20
20
-24.07409
30
0
11
10
21
-24.07409
31
0
70
32
71
1
72
1
41
1
210
0
220
0
230
1
3
Standard
100
AcDbAlignedDimension
13
0
23
0
33
0
14
20
24
-10.9
34
0
50
0
100
AcDbRotatedDimension
1001
ACAD
1000
DSTYLE
1002
{
1070
   371
1070
    13
1070
   372
1070
    13
1070
   170
1070
     0
1070
   144
1040
1.0
1070
   277
1070
     2
1070
   284
1070
     8
1070
   278
1070
    46
1070
   146
1040
1.166667
1070
   345
1005
16
1070
   347
1005
16
1070
   346
1005
16
1070
   344
1005
0
1070
   343
1005
0
1070
   172
1070
     1
1070
    76
1070
     0
1070
    75
1070
     0
1070
   282
1070
     0
1070
   281
1070
     0
1070
    71
1070
     0
1070
    74
1070
     0
1070
   279
1070
     0
1070
   173
1070
     1
1070
   340
1005
172
1070
   271
1070
     2
1070
   272
1070
     2
1070
    77
1070
     1
1070
    73
1070
     1
1070
   171
1070
     3
1070
   274
1070
     4
1070
   177
1070
     7
1070
   176
1070
     7
1070
   178
1070
     7
1070
    78
1070
     8
1070
    48
1040
-0.1
1070
    41
1040
3.175
1070
   147
1040
1.5
1070
    42
1040
1.5875
1070
    44
1040
2.0
1070
   140
1040
3.0
1002
}
1001
ACAD_DSTYLE_DIM_LINETYPE
1070
   380
1005
16
1001
ACAD_DSTYLE_DIM_EXT1_LINETYPE
1070
   381
1005
16
1001
ACAD_DSTYLE_DIM_EXT2_LINETYPE
1070
   382
1005
16
0
DIMENSION
5
1A9
100
AcDbEntity
8
SK2
62
256
6
ByLayer
370
18
48
1
60
0
100
AcDbDimension
2
_U2
10
-9.963921
20
-7.90174
30
0
11
-9.963921
21
0
31
0
70
32
71
1
72
1
41
1
210
0
220
0
230
1
3
Standard
100
AcDbAlignedDimension
13
0.528765
23
7.90174
33
0
14
0.528765
24
-7.90174
34
0
50
90
100
AcDbRotatedDimension
1001
ACAD
1000
DSTYLE
1002
{
1070
   371
1070
    13
1070
   372
1070
    13
1070
     3
1000

1070
   170
1070
     0
1070
   144
1040
1.0
1070
   277
1070
     2
1070
   284
1070
     8
1070
   278
1070
    46
1070
   146
1040
1.166667
1070
   345
1005
16
1070
   347
1005
16
1070
   346
1005
16
1070
   344
1005
0
1070
   343
1005
0
1070
   172
1070
     1
1070
    76
1070
     0
1070
    75
1070
     0
1070
   282
1070
     0
1070
   281
1070
     0
1070
    71
1070
     0
1070
    74
1070
     0
1070
   279
1070
     0
1070
   173
1070
     1
1070
   340
1005
172
1070
   271
1070
     2
1070
   272
1070
     2
1070
    77
1070
     1
1070
    73
1070
     0
1070
   171
1070
     3
1070
   274
1070
     4
1070
   177
1070
     7
1070
   176
1070
     7
1070
   178
1070
     7
1070
    78
1070
     8
1070
    48
1040
-0.1
1070
    41
1040
3.175
1070
   147
1040
1.5
1070
    42
1040
1.5875
1070
    44
1040
2.0
1070
   140
1040
3.0
1002
}
1001
ACAD_DSTYLE_DIM_LINETYPE
1070
   380
1005
16
1001
ACAD_DSTYLE_DIM_EXT1_LINETYPE
1070
   381
1005
16
1001
ACAD_DSTYLE_DIM_EXT2_LINETYPE
1070
   382
1005
16
0
ENDSEC
0
SECTION
2
OBJECTS
0
DICTIONARY
5
23d
330
0
100
AcDbDictionary
280
0
281
1
3
ACAD_GROUP
350
23e
3
ACAD_MLINESTYLE
350
23f
0
DICTIONARY
5
23e
330
0
100
AcDbDictionary
280
0
281
1
0
DICTIONARY
5
23f
330
0
100
AcDbDictionary
280
0
281
1
3
Standard
350
18
0
MLINESTYLE
5
18
330
23f
100
AcDbMlineStyle
2
Standard
70
0
3

62
256
51
90
52
90
71
2
49
-0.5
62
256
6
ByLayer
49
0.5
62
256
6
ByLayer
0
RASTERVARIABLES
5
22b
330

100
AcDbRasterVariables
90
0
70
1
71
1
72
1
0
ENDSEC
0
EOF
