0
SECTION
2
HEADER
9
$ACADVER
1
AC1015
9
$DWGCODEPAGE
3
ANSI_1252
9
$HANDSEED
5
282
9
$ANGBASE
50
0
9
$ANGDIR
70
0
9
$ATTMODE
70
1
9
$AUNITS
70
0
9
$AUPREC
70
0
9
$CECOLOR
62
256
9
$CELTSCALE
40
1
9
$CELTYPE
6
ByLayer
9
$CELWEIGHT
370
18
9
$CLAYER
8
0
9
$CMLJUST
70
0
9
$CMLSCALE
40
1
9
$CMLSTYLE
2
Standard
9
$DIMSTYLE
2
Standard
9
$TEXTSIZE
40
0.2
9
$TEXTSTYLE
7
Standard
9
$LUNITS
70
2
9
$LUPREC
70
4
9
$EXTNAMES
290
1
9
$INSUNITS
70
4
9
$LTSCALE
40
1
9
$LWDISPLAY
290
1
9
$PDMODE
70
0
9
$PDSIZE
40
0
9
$PLINEGEN
70
0
0
ENDSEC
0
SECTION
2
CLASSES
0
CLASS
1
RASTERVARIABLES
2
AcDbRasterVariables
3
ISM
90
0
280
0
281
0
0
ENDSEC
0
SECTION
2
TABLES
0
TABLE
2
VPORT
5
278
100
AcDbSymbolTable
0
VPORT
5
1
100
AcDbSymbolTableRecord
100
AcDbViewportTableRecord
2
*Active
70
0
10
0
20
0
11
1
21
1
12
-1
22
1
13
0
23
0
14
0.5
24
0.5
15
10
25
10
16
0
26
0
36
1
17
0
27
0
37
0
0
ENDTAB
0
TABLE
2
LTYPE
5
279
100
AcDbSymbolTable
0
LTYPE
5
14
100
AcDbSymbolTableRecord
100
AcDbLinetypeTableRecord
70
0
2
ByBlock
3

72
65
73
0
40
0
0
LTYPE
5
15
100
AcDbSymbolTableRecord
100
AcDbLinetypeTableRecord
70
0
2
ByLayer
3

72
65
73
0
40
0
0
LTYPE
5
16
100
AcDbSymbolTableRecord
100
AcDbLinetypeTableRecord
70
0
2
Continuous
3
Solid line
72
65
73
0
40
0
0
LTYPE
5
6E
100
AcDbSymbolTableRecord
100
AcDbLinetypeTableRecord
70
0
2
CENTER
3
____ _ ____ _ ____ _ ____
72
65
73
4
40
47.5
49
22
74
0
49
-8.5
74
0
49
8.5
74
0
49
-8.5
74
0
0
LTYPE
5
6F
100
AcDbSymbolTableRecord
100
AcDbLinetypeTableRecord
70
0
2
DASHED
3
__ __ __ __ __ __ __ __ __
72
65
73
2
40
25.72
49
12.86
74
0
49
-12.86
74
0
0
ENDTAB
0
TABLE
2
LAYER
5
27a
100
AcDbSymbolTable
0
LAYER
5
10
100
AcDbSymbolTableRecord
100
AcDbLayerTableRecord
2
0
70
0
62
7
6
Continuous
290
1
370
-3
390
0
0
LAYER
5
71
100
AcDbSymbolTableRecord
100
AcDbLayerTableRecord
2
80
70
0
62
-6
6
Continuous
290
1
370
-3
390
0
0
LAYER
5
73
100
AcDbSymbolTableRecord
100
AcDbLayerTableRecord
2
81
70
0
62
-3
6
Continuous
290
1
370
-3
390
0
0
LAYER
5
75
100
AcDbSymbolTableRecord
100
AcDbLayerTableRecord
2
1
70
0
62
4
6
Continuous
290
1
370
-3
390
0
0
LAYER
5
83
100
AcDbSymbolTableRecord
100
AcDbLayerTableRecord
2
4
70
0
62
-2
6
CENTER
290
1
370
-3
390
0
0
LAYER
5
1B3
100
AcDbSymbolTableRecord
100
AcDbLayerTableRecord
2
Defpoints
70
0
62
7
6
Continuous
290
0
370
-3
390
0
0
LAYER
5
1C0
100
AcDbSymbolTableRecord
100
AcDbLayerTableRecord
2
2
70
0
62
7
6
Continuous
290
1
370
-3
390
0
0
LAYER
5
264
100
AcDbSymbolTableRecord
100
AcDbLayerTableRecord
2
SK1
70
0
62
4
6
Continuous
290
1
370
-3
390
0
0
LAYER
5
265
100
AcDbSymbolTableRecord
100
AcDbLayerTableRecord
2
SK4
70
0
62
2
6
CENTER
290
1
370
-3
390
0
0
LAYER
5
266
100
AcDbSymbolTableRecord
100
AcDbLayerTableRecord
2
SK6
70
0
62
5
6
Continuous
290
1
370
-3
390
0
0
LAYER
5
267
100
AcDbSymbolTableRecord
100
AcDbLayerTableRecord
2
SK2
70
0
62
7
6
Continuous
290
1
370
-3
390
0
0
ENDTAB
0
TABLE
2
STYLE
5
27b
100
AcDbSymbolTable
0
STYLE
5
11
100
AcDbSymbolTableRecord
100
AcDbTextStyleTableRecord
2
Standard
3
txt
70
0
71
0
40
0
41
1
42
0
50
0
0
STYLE
5
1AC
100
AcDbSymbolTableRecord
100
AcDbTextStyleTableRecord
2
iso_b_vert
3
simplex.shx
70
0
71
0
40
0
41
1
42
0
50
0
0
STYLE
5
1AD
100
AcDbSymbolTableRecord
100
AcDbTextStyleTableRecord
2
DWGDirectTextStyle
3
simplex
70
0
71
0
40
0
41
1
42
0
50
0
0
ENDTAB
0
TABLE
2
DIMSTYLE
5
27c
100
AcDbSymbolTable
100
AcDbDimStyleTable
0
DIMSTYLE
105
27
100
AcDbSymbolTableRecord
100
AcDbDimStyleTableRecord
2
Standard
70
0
3
<>
41
0.18
42
0.0625
44
0.18
140
0.18
147
0.09
73
0
74
0
77
1
271
2
275
0
278
52
280
0
340
11
0
ENDTAB
0
TABLE
2
VIEW
5
27d
100
AcDbSymbolTable
0
ENDTAB
0
TABLE
2
UCS
5
27e
100
AcDbSymbolTable
0
ENDTAB
0
TABLE
2
APPID
5
27f
100
AcDbSymbolTable
0
APPID
5
12
100
AcDbSymbolTableRecord
100
AcDbRegAppTableRecord
2
ACAD
70
0
0
APPID
5
1AF
100
AcDbSymbolTableRecord
100
AcDbRegAppTableRecord
2
ACAD_DSTYLE_DIMBREAK
70
0
0
APPID
5
223
100
AcDbSymbolTableRecord
100
AcDbRegAppTableRecord
2
ACAD_DSTYLE_DIM_LINETYPE
70
0
0
APPID
5
224
100
AcDbSymbolTableRecord
100
AcDbRegAppTableRecord
2
ACAD_DSTYLE_DIM_EXT1_LINETYPE
70
0
0
APPID
5
225
100
AcDbSymbolTableRecord
100
AcDbRegAppTableRecord
2
ACAD_DSTYLE_DIM_EXT2_LINETYPE
70
0
0
APPID
5
260
100
AcDbSymbolTableRecord
100
AcDbRegAppTableRecord
2
ACAD_MLEADERVER
70
0
0
ENDTAB
0
TABLE
2
BLOCK_RECORD
5
280
100
AcDbSymbolTable
0
BLOCK_RECORD
5
1F
100
AcDbSymbolTableRecord
100
AcDbBlockTableRecord
2
*Model_Space
340
0
70
0
0
BLOCK_RECORD
5
1B
100
AcDbSymbolTableRecord
100
AcDbBlockTableRecord
2
*Paper_Space
340
0
70
0
0
BLOCK_RECORD
5
23
100
AcDbSymbolTableRecord
100
AcDbBlockTableRecord
2
*Paper_Space0
340
0
70
0
0
BLOCK_RECORD
5
1B4
100
AcDbSymbolTableRecord
100
AcDbBlockTableRecord
2
*D1
340
0
70
0
0
BLOCK_RECORD
5
1C1
100
AcDbSymbolTableRecord
100
AcDbBlockTableRecord
2
_U0
340
0
70
0
0
BLOCK_RECORD
5
1CD
100
AcDbSymbolTableRecord
100
AcDbBlockTableRecord
2
*D3
340
0
70
0
0
BLOCK_RECORD
5
1D9
100
AcDbSymbolTableRecord
100
AcDbBlockTableRecord
2
_U1
340
0
70
0
0
BLOCK_RECORD
5
1E5
100
AcDbSymbolTableRecord
100
AcDbBlockTableRecord
2
*D5
340
0
70
0
0
BLOCK_RECORD
5
1F2
100
AcDbSymbolTableRecord
100
AcDbBlockTableRecord
2
_U2
340
0
70
0
0
BLOCK_RECORD
5
1FC
100
AcDbSymbolTableRecord
100
AcDbBlockTableRecord
2
_U3
340
0
70
0
0
ENDTAB
0
ENDSEC
0
SECTION
2
BLOCKS
0
BLOCK
5
20
100
AcDbEntity
8
0
100
AcDbBlockBegin
2
*Model_Space
70
0
10
0
20
0
30
0
3
*Model_Space
0
ENDBLK
5
21
100
AcDbEntity
8
0
100
AcDbBlockEnd
0
BLOCK
5
1C
100
AcDbEntity
8
0
100
AcDbBlockBegin
2
*Paper_Space
70
0
10
0
20
0
30
0
3
*Paper_Space
0
ENDBLK
5
1D
100
AcDbEntity
8
0
100
AcDbBlockEnd
0
BLOCK
5
24
100
AcDbEntity
8
0
100
AcDbBlockBegin
2
*Paper_Space0
70
0
10
0
20
0
30
0
3
*Paper_Space0
0
ENDBLK
5
25
100
AcDbEntity
8
0
100
AcDbBlockEnd
0
BLOCK
5
1B5
100
AcDbEntity
8
0
100
AcDbBlockBegin
2
*D1
70
1
10
0
20
0
30
0
3
*D1
0
LINE
5
1B7
100
AcDbEntity
8
0
62
256
6
ByLayer
370
-2
48
1
60
0
100
AcDbLine
10
23.988232
20
0
30
0
11
38.464338
21
0
31
0
39
0
210
0
220
0
230
1
0
LINE
5
1B8
100
AcDbEntity
8
0
62
256
6
ByLayer
370
-2
48
1
60
0
100
AcDbLine
10
21.5875
20
-16.75
30
0
11
38.464338
21
-16.75
31
0
39
0
210
0
220
0
230
1
0
LINE
5
1B9
100
AcDbEntity
8
0
62
256
6
ByLayer
370
-2
48
1
60
0
100
AcDbLine
10
36.464338
20
-3.175
30
0
11
36.464338
21
-13.575
31
0
39
0
210
0
220
0
230
1
0
SOLID
5
1BA
100
AcDbEntity
8
0
62
256
6
ByLayer
370
-1
48
1
60
0
100
AcDbTrace
10
36.993505
20
-3.175
30
0
11
35.935171
21
-3.175
31
0
12
36.464338
22
0
32
0
13
36.464338
23
0
33
0
39
0
210
0
220
0
230
1
0
SOLID
5
1BB
100
AcDbEntity
8
0
62
256
6
ByLayer
370
-1
48
1
60
0
100
AcDbTrace
10
35.935171
20
-13.575
30
0
11
36.993505
21
-13.575
31
0
12
36.464338
22
-16.75
32
0
13
36.464338
23
-16.75
33
0
39
0
210
0
220
0
230
1
0
MTEXT
5
1BC
100
AcDbEntity
8
0
62
256
6
ByLayer
370
18
48
1
60
0
100
AcDbMText
10
30.464338
20
-8.375
30
0
210
0
220
0
230
1
1
\A1;16.75
40
3
41
0
44
1
50
90
71
5
72
5
7
iso_b_vert
0
POINT
5
1BD
100
AcDbEntity
8
Defpoints
62
0
6
ByLayer
370
-1
48
1
60
0
100
AcDbPoint
10
22.400732
20
0
30
0
39
0
210
0
220
0
230
1
50
360
0
POINT
5
1BE
100
AcDbEntity
8
Defpoints
62
0
6
ByLayer
370
-1
48
1
60
0
100
AcDbPoint
10
20
20
-16.75
30
0
39
0
210
0
220
0
230
1
50
360
0
POINT
5
1BF
100
AcDbEntity
8
Defpoints
62
0
6
ByLayer
370
-1
48
1
60
0
100
AcDbPoint
10
36.464338
20
-16.75
30
0
39
0
210
0
220
0
230
1
50
360
0
ENDBLK
5
1B6
100
AcDbEntity
8
0
100
AcDbBlockEnd
0
BLOCK
5
1C8
100
AcDbEntity
8
0
100
AcDbBlockBegin
2
_U0
70
0
10
0
20
0
30
0
3
_U0
0
MTEXT
5
1C2
100
AcDbEntity
8
2
62
256
6
ByLayer
370
18
48
1
60
0
100
AcDbMText
10
35.873223
20
-12.506428
30
0
210
0
220
0
230
1
1
\W0.7465;16.75
40
3
41
0
44
1.084337
50
90
71
7
72
5
7
iso_b_vert
0
LINE
5
1C3
100
AcDbEntity
8
2
62
256
6
ByLayer
370
13
48
1
60
0
100
AcDbLine
10
23.988232
20
0
30
0
11
38.464338
21
0
31
0
39
0
210
0
220
0
230
1
0
LINE
5
1C4
100
AcDbEntity
8
2
62
256
6
ByLayer
370
13
48
1
60
0
100
AcDbLine
10
21.5875
20
-16.75
30
0
11
38.464338
21
-16.75
31
0
39
0
210
0
220
0
230
1
0
LINE
5
1C5
100
AcDbEntity
8
2
62
256
6
ByLayer
370
13
48
1
60
0
100
AcDbLine
10
36.464338
20
0
30
0
11
36.464338
21
-16.75
31
0
39
0
210
0
220
0
230
1
0
SOLID
5
1C6
100
AcDbEntity
8
2
62
256
6
ByLayer
370
18
48
1
60
0
100
AcDbTrace
10
36.464338
20
0
30
0
11
36.882335
21
-3.174998
31
0
12
36.046341
22
-3.175002
32
0
13
36.046341
23
-3.175002
33
0
39
0
210
0
220
0
230
1
0
SOLID
5
1C7
100
AcDbEntity
8
2
62
256
6
ByLayer
370
18
48
1
60
0
100
AcDbTrace
10
36.464338
20
-16.75
30
0
11
36.046341
21
-13.575002
31
0
12
36.882335
22
-13.574998
32
0
13
36.882335
23
-13.574998
33
0
39
0
210
0
220
0
230
1
0
ENDBLK
5
1C9
100
AcDbEntity
8
0
100
AcDbBlockEnd
0
BLOCK
5
1CE
100
AcDbEntity
8
0
100
AcDbBlockBegin
2
*D3
70
1
10
0
20
0
30
0
3
*D3
0
LINE
5
1D0
100
AcDbEntity
8
0
62
256
6
ByLayer
370
-2
48
1
60
0
100
AcDbLine
10
0
20
-1.5875
30
0
11
0
21
-26.07409
31
0
39
0
210
0
220
0
230
1
0
LINE
5
1D1
100
AcDbEntity
8
0
62
256
6
ByLayer
370
-2
48
1
60
0
100
AcDbLine
10
20
20
-18.3375
30
0
11
20
21
-26.07409
31
0
39
0
210
0
220
0
230
1
0
LINE
5
1D2
100
AcDbEntity
8
0
62
256
6
ByLayer
370
-2
48
1
60
0
100
AcDbLine
10
3.175
20
-24.07409
30
0
11
16.825
21
-24.07409
31
0
39
0
210
0
220
0
230
1
0
SOLID
5
1D3
100
AcDbEntity
8
0
62
256
6
ByLayer
370
-1
48
1
60
0
100
AcDbTrace
10
3.175
20
-23.544923
30
0
11
3.175
21
-24.603257
31
0
12
0
22
-24.07409
32
0
13
0
23
-24.07409
33
0
39
0
210
0
220
0
230
1
0
SOLID
5
1D4
100
AcDbEntity
8
0
62
256
6
ByLayer
370
-1
48
1
60
0
100
AcDbTrace
10
16.825
20
-24.603257
30
0
11
16.825
21
-23.544923
31
0
12
20
22
-24.07409
32
0
13
20
23
-24.07409
33
0
39
0
210
0
220
0
230
1
0
MTEXT
5
1D5
100
AcDbEntity
8
0
62
256
6
ByLayer
370
18
48
1
60
0
100
AcDbMText
10
10
20
-18.07409
30
0
210
0
220
0
230
1
1
\A1;20
40
3
41
0
44
1
50
0
71
5
72
5
7
iso_b_vert
0
POINT
5
1D6
100
AcDbEntity
8
Defpoints
62
0
6
ByLayer
370
-1
48
1
60
0
100
AcDbPoint
10
0
20
0
30
0
39
0
210
0
220
0
230
1
50
360
0
POINT
5
1D7
100
AcDbEntity
8
Defpoints
62
0
6
ByLayer
370
-1
48
1
60
0
100
AcDbPoint
10
20
20
-16.75
30
0
39
0
210
0
220
0
230
1
50
360
0
POINT
5
1D8
100
AcDbEntity
8
Defpoints
62
0
6
ByLayer
370
-1
48
1
60
0
100
AcDbPoint
10
20
20
-24.07409
30
0
39
0
210
0
220
0
230
1
50
360
0
ENDBLK
5
1CF
100
AcDbEntity
8
0
100
AcDbBlockEnd
0
BLOCK
5
1E0
100
AcDbEntity
8
0
100
AcDbBlockBegin
2
_U1
70
0
10
0
20
0
30
0
3
_U1
0
MTEXT
5
1DA
100
AcDbEntity
8
2
62
256
6
ByLayer
370
18
48
1
60
0
100
AcDbMText
10
8.367172
20
-23.188976
30
0
210
0
220
0
230
1
1
\W0.7335;20
40
3
41
0
44
1.084337
50
0
71
7
72
5
7
iso_b_vert
0
LINE
5
1DB
100
AcDbEntity
8
2
62
256
6
ByLayer
370
13
48
1
60
0
100
AcDbLine
10
0
20
-1.5875
30
0
11
0
21
-26.07409
31
0
39
0
210
0
220
0
230
1
0
LINE
5
1DC
100
AcDbEntity
8
2
62
256
6
ByLayer
370
13
48
1
60
0
100
AcDbLine
10
20
20
-18.3375
30
0
11
20
21
-26.07409
31
0
39
0
210
0
220
0
230
1
0
LINE
5
1DD
100
AcDbEntity
8
2
62
256
6
ByLayer
370
13
48
1
60
0
100
AcDbLine
10
0
20
-24.07409
30
0
11
20
21
-24.07409
31
0
39
0
210
0
220
0
230
1
0
SOLID
5
1DE
100
AcDbEntity
8
2
62
256
6
ByLayer
370
18
48
1
60
0
100
AcDbTrace
10
0
20
-24.07409
30
0
11
3.174998
21
-23.656093
31
0
12
3.175002
22
-24.492087
32
0
13
3.175002
23
-24.492087
33
0
39
0
210
0
220
0
230
1
0
SOLID
5
1DF
100
AcDbEntity
8
2
62
256
6
ByLayer
370
18
48
1
60
0
100
AcDbTrace
10
20
20
-24.07409
30
0
11
16.825002
21
-24.492087
31
0
12
16.824998
22
-23.656093
32
0
13
16.824998
23
-23.656093
33
0
39
0
210
0
220
0
230
1
0
ENDBLK
5
1E1
100
AcDbEntity
8
0
100
AcDbBlockEnd
0
BLOCK
5
1E6
100
AcDbEntity
8
0
100
AcDbBlockBegin
2
*D5
70
1
10
0
20
0
30
0
3
*D5
0
LINE
5
1E8
100
AcDbEntity
8
0
62
256
6
ByLayer
370
-2
48
1
60
0
100
AcDbLine
10
-1.136768
20
9.921567
30
0
11
-17.484453
21
9.921567
31
0
39
0
210
0
220
0
230
1
0
LINE
5
1E9
100
AcDbEntity
8
0
62
256
6
ByLayer
370
-2
48
1
60
0
100
AcDbLine
10
-1.136768
20
-9.921567
30
0
11
-17.484453
21
-9.921567
31
0
39
0
210
0
220
0
230
1
0
LINE
5
1EA
100
AcDbEntity
8
0
62
256
6
ByLayer
370
-2
48
1
60
0
100
AcDbLine
10
-15.484453
20
6.746567
30
0
11
-15.484453
21
-6.746567
31
0
39
0
210
0
220
0
230
1
0
SOLID
5
1EB
100
AcDbEntity
8
0
62
256
6
ByLayer
370
-1
48
1
60
0
100
AcDbTrace
10
-14.955286
20
6.746567
30
0
11
-16.01362
21
6.746567
31
0
12
-15.484453
22
9.921567
32
0
13
-15.484453
23
9.921567
33
0
39
0
210
0
220
0
230
1
0
SOLID
5
1EC
100
AcDbEntity
8
0
62
256
6
ByLayer
370
-1
48
1
60
0
100
AcDbTrace
10
-16.01362
20
-6.746567
30
0
11
-14.955286
21
-6.746567
31
0
12
-15.484453
22
-9.921567
32
0
13
-15.484453
23
-9.921567
33
0
39
0
210
0
220
0
230
1
0
MTEXT
5
1ED
100
AcDbEntity
8
0
62
256
6
ByLayer
370
18
48
1
60
0
100
AcDbMText
10
-21.484453
20
-0.79998
30
0
210
0
220
0
230
1
1
\A1;19.84
40
3
41
0
44
1
50
90
71
5
72
5
7
iso_b_vert
0
POINT
5
1EE
100
AcDbEntity
8
Defpoints
62
0
6
ByLayer
370
-1
48
1
60
0
100
AcDbPoint
10
0.450732
20
9.921567
30
0
39
0
210
0
220
0
230
1
50
360
0
POINT
5
1EF
100
AcDbEntity
8
Defpoints
62
0
6
ByLayer
370
-1
48
1
60
0
100
AcDbPoint
10
0.450732
20
-9.921567
30
0
39
0
210
0
220
0
230
1
50
360
0
POINT
5
1F0
100
AcDbEntity
8
Defpoints
62
0
6
ByLayer
370
-1
48
1
60
0
100
AcDbPoint
10
-15.484453
20
-9.921567
30
0
39
0
210
0
220
0
230
1
50
360
0
ENDBLK
5
1E7
100
AcDbEntity
8
0
100
AcDbBlockEnd
0
BLOCK
5
1FA
100
AcDbEntity
8
0
100
AcDbBlockBegin
2
_U2
70
0
10
0
20
0
30
0
3
_U2
0
MTEXT
5
1F3
100
AcDbEntity
8
SK2
62
256
6
ByLayer
370
18
48
1
60
0
100
AcDbMText
10
-16.825567
20
2.043192
30
0
210
0
220
0
230
1
1
\W0.7335;20
40
3
41
0
44
1.084337
50
90
71
7
72
5
7
iso_b_vert
0
MTEXT
5
1F4
100
AcDbEntity
8
SK2
62
256
6
ByLayer
370
18
48
1
60
0
100
AcDbMText
10
-16.825567
20
-6.956808
30
0
210
0
220
0
230
1
1
%%c
40
3
41
0
44
1.084337
50
90
71
7
72
5
7
iso_b_vert
0
LINE
5
1F5
100
AcDbEntity
8
SK2
62
256
6
ByLayer
370
13
48
1
60
0
100
AcDbLine
10
-1.136768
20
9.921567
30
0
11
-17.484453
21
9.921567
31
0
39
0
210
0
220
0
230
1
0
LINE
5
1F6
100
AcDbEntity
8
SK2
62
256
6
ByLayer
370
13
48
1
60
0
100
AcDbLine
10
-1.136768
20
-9.921567
30
0
11
-17.484453
21
-9.921567
31
0
39
0
210
0
220
0
230
1
0
LINE
5
1F7
100
AcDbEntity
8
SK2
62
256
6
ByLayer
370
13
48
1
60
0
100
AcDbLine
10
-15.484453
20
9.921567
30
0
11
-15.484453
21
-9.921567
31
0
39
0
210
0
220
0
230
1
0
SOLID
5
1F8
100
AcDbEntity
8
SK2
62
256
6
ByLayer
370
18
48
1
60
0
100
AcDbTrace
10
-15.484453
20
9.921567
30
0
11
-15.066456
21
6.746569
31
0
12
-15.90245
22
6.746565
32
0
13
-15.90245
23
6.746565
33
0
39
0
210
0
220
0
230
1
0
SOLID
5
1F9
100
AcDbEntity
8
SK2
62
256
6
ByLayer
370
18
48
1
60
0
100
AcDbTrace
10
-15.484453
20
-9.921567
30
0
11
-15.90245
21
-6.746569
31
0
12
-15.066456
22
-6.746565
32
0
13
-15.066456
23
-6.746565
33
0
39
0
210
0
220
0
230
1
0
ENDBLK
5
1FB
100
AcDbEntity
8
0
100
AcDbBlockEnd
0
BLOCK
5
203
100
AcDbEntity
8
0
100
AcDbBlockBegin
2
_U3
70
0
10
0
20
0
30
0
3
_U3
0
MTEXT
5
1FD
100
AcDbEntity
8
SK2
62
256
6
ByLayer
370
18
48
1
60
0
100
AcDbMText
10
21.198138
20
-10.246007
30
0
210
0
220
0
230
1
1
\W0.8285;91%%d
40
3
41
0
44
1.084337
50
329.260228196277
71
7
72
5
7
iso_b_vert
0
LINE
5
1FE
100
AcDbEntity
8
SK2
62
256
6
ByLayer
370
13
48
1
60
0
100
AcDbLine
10
21.5875
20
-16.75
30
0
11
27.259613
21
-16.75
31
0
39
0
210
0
220
0
230
1
0
ARC
5
1FF
100
AcDbEntity
8
SK2
62
256
6
ByLayer
370
13
48
1
60
0
100
AcDbCircle
39
0
10
20.009098
20
-16.75
30
0
40
5.25051455872478
210
0
220
0
230
1
100
AcDbArc
50
0
51
90.999942
0
SOLID
5
200
100
AcDbEntity
8
SK2
62
256
6
ByLayer
370
18
48
1
60
0
100
AcDbTrace
10
25.259613
20
-16.75
30
0
11
24.381675
21
-13.670298
31
0
12
25.208675
22
-13.548007
32
0
13
25.259613
23
-16.75
33
0
39
0
210
0
220
0
230
1
0
SOLID
5
201
100
AcDbEntity
8
SK2
62
256
6
ByLayer
370
18
48
1
60
0
100
AcDbTrace
10
19.917464
20
-11.500285
30
0
11
23.119856
21
-11.495332
31
0
12
23.012022
22
-12.324341
32
0
13
19.917464
23
-11.500285
33
0
39
0
210
0
220
0
230
1
0
ENDBLK
5
204
100
AcDbEntity
8
0
100
AcDbBlockEnd
0
ENDSEC
0
SECTION
2
ENTITIES
0
ARC
5
FE
100
AcDbEntity
8
1
62
256
6
ByLayer
370
13
48
1
60
0
100
AcDbCircle
39
0
10
15.098729
20
2
30
0
40
3.99999999974727
210
0
220
0
230
1
100
AcDbArc
50
19.540828
51
25.766313
0
ARC
5
FF
100
AcDbEntity
8
1
62
256
6
ByLayer
370
13
48
1
60
0
100
AcDbCircle
39
0
10
11.999966
20
14
30
0
40
8.00000000002735
210
0
220
0
230
1
100
AcDbArc
50
245.573955
51
262.744853
0
ELLIPSE
5
100
100
AcDbEntity
8
1
62
256
6
ByLayer
370
13
48
1
60
0
100
AcDbEllipse
10
10.767059
20
-10.30341
30
0
11
0.396818970343402
21
0.00672187493339627
31
0
210
0
220
0
230
1
40
0.994519
41
-3.14107675908912
42
-2.18114567051318
0
ELLIPSE
5
101
100
AcDbEntity
8
1
62
256
6
ByLayer
370
13
48
1
60
0
100
AcDbEllipse
10
19.603089
20
-16.2303
30
0
11
0.396812664428928
21
0.00696792831756558
31
0
210
0
220
0
230
1
40
0.994523
41
-2.18176618256145
42
-0.000104617568349877
0
ELLIPSE
5
102
100
AcDbEntity
8
1
62
256
6
ByLayer
370
13
48
1
60
0
100
AcDbEllipse
10
19.418089
20
-5.63142
30
0
11
0.396818970338913
21
0.00672187439481038
31
0
210
0
220
0
230
1
40
0.994519
41
0.000515895849561808
42
0.960446984443722
0
ELLIPSE
5
103
100
AcDbEntity
8
1
62
256
6
ByLayer
370
13
48
1
60
0
100
AcDbEllipse
10
15.089499
20
-7.79109
30
0
11
1.29009177093516
21
0.023230409307
31
0
210
0
220
0
230
1
40
0.994517
41
-3.08893015937838
42
-2.13858168567011
0
ELLIPSE
5
104
100
AcDbEntity
8
1
62
256
6
ByLayer
370
13
48
1
60
0
100
AcDbEllipse
10
15.089499
20
-7.79109
30
0
11
1.29011344997868
21
0.0220445103172642
31
0
210
0
220
0
230
1
40
0.994522
41
-2.1376627174329
42
-1.09046516623366
0
ELLIPSE
5
105
100
AcDbEntity
8
1
62
256
6
ByLayer
370
13
48
1
60
0
100
AcDbEllipse
10
15.089499
20
-7.79109
30
0
11
1.29009404247269
21
0.02283938724899
31
0
210
0
220
0
230
1
40
0.994526
41
-1.09108089188172
42
-0.0438833406844203
0
ELLIPSE
5
106
100
AcDbEntity
8
1
62
256
6
ByLayer
370
13
48
1
60
0
100
AcDbEllipse
10
15.089499
20
-7.79109
30
0
11
1.2901043140033
21
0.0223483540541743
31
0
210
0
220
0
230
1
40
0.994524
41
2.3425178389216
42
3.09808690837931
0
ELLIPSE
5
107
100
AcDbEntity
8
1
62
256
6
ByLayer
370
13
48
1
60
0
100
AcDbEllipse
10
15.089499
20
-7.79109
30
0
11
1.2900903615543
21
0.0231095361005557
31
0
210
0
220
0
230
1
40
0.994522
41
1.20515031058248
42
1.85035471041911
0
ELLIPSE
5
108
100
AcDbEntity
8
1
62
256
6
ByLayer
370
13
48
1
60
0
100
AcDbEllipse
10
15.797139
20
-9.08744
30
0
11
0.346622411588944
21
0.186565303516606
31
0
210
0
220
0
230
1
40
0.488178
41
0.291820276062786
42
1.57368370190522
0
ELLIPSE
5
109
100
AcDbEntity
8
1
62
256
6
ByLayer
370
13
48
1
60
0
100
AcDbEllipse
10
15.797139
20
-9.08744
30
0
11
0.346621946061678
21
0.186563213260012
31
0
210
0
220
0
230
1
40
0.488182
41
1.57368223402551
42
2.85554565990356
0
ELLIPSE
5
10A
100
AcDbEntity
8
1
62
256
6
ByLayer
370
13
48
1
60
0
100
AcDbEllipse
10
14.314349
20
-9.04896
30
0
11
-0.336325401006517
21
0.204233571449544
31
0
210
0
220
0
230
1
40
0.48858
41
-2.85585594556832
42
-1.57399251970809
0
ELLIPSE
5
10B
100
AcDbEntity
8
1
62
256
6
ByLayer
370
13
48
1
60
0
100
AcDbEllipse
10
14.314349
20
-9.04896
30
0
11
-0.336324346909194
21
0.204231138983414
31
0
210
0
220
0
230
1
40
0.488579
41
-1.57399021660481
42
-0.292126790742002
0
ELLIPSE
5
10C
100
AcDbEntity
8
1
62
256
6
ByLayer
370
13
48
1
60
0
100
AcDbEllipse
10
15.050519
20
-9.26587
30
0
11
-0.393963989664567
21
0.0101616381709471
31
0
210
0
220
0
230
1
40
0.487053
41
0.243425904376971
42
2.75207143802221
0
ELLIPSE
5
10D
100
AcDbEntity
8
1
62
256
6
ByLayer
370
13
48
1
60
0
100
AcDbEllipse
10
16.354229
20
-8.5618
30
0
11
0.206476061849408
21
0.333879667015207
31
0
210
0
220
0
230
1
40
0.490849
41
2.94891810114398
42
-0.626368813145143
0
ELLIPSE
5
10E
100
AcDbEntity
8
1
62
256
6
ByLayer
370
13
48
1
60
0
100
AcDbEllipse
10
16.572279
20
-7.82957
30
0
11
0.0104169029576482
21
0.391805940993541
31
0
210
0
220
0
230
1
40
0.492413
41
0.289251357098425
42
1.57111478296702
0
ELLIPSE
5
10F
100
AcDbEntity
8
1
62
256
6
ByLayer
370
13
48
1
60
0
100
AcDbEllipse
10
13.785789
20
-8.49516
30
0
11
-0.188509260831846
21
0.344158606855069
31
0
210
0
220
0
230
1
40
0.491265
41
0.641640963214351
42
-2.94860790688209
0
ELLIPSE
5
110
100
AcDbEntity
8
1
62
256
6
ByLayer
370
13
48
1
60
0
100
AcDbEllipse
10
13.606709
20
-7.75262
30
0
11
0.010416245180618
21
0.391806428018569
31
0
210
0
220
0
230
1
40
0.492416
41
-1.57047988249347
42
-0.288616456636764
0
ELLIPSE
5
111
100
AcDbEntity
8
1
62
256
6
ByLayer
370
13
48
1
60
0
100
AcDbEllipse
10
15.089629
20
-7.79893
30
0
11
2.62458989680135
21
0.0469655445341984
31
0
210
0
220
0
230
1
40
0.994519
41
-0.000353628042941224
42
3.14114091255333
0
ELLIPSE
5
112
100
AcDbEntity
8
1
62
256
6
ByLayer
370
13
48
1
60
0
100
AcDbEllipse
10
16.393199
20
-7.08703
30
0
11
-0.188509593203834
21
0.344159950659433
31
0
210
0
220
0
230
1
40
0.491255
41
2.94278513894885
42
-2.49995181270638
0
ELLIPSE
5
113
100
AcDbEntity
8
1
62
256
6
ByLayer
370
13
48
1
60
0
100
AcDbEllipse
10
15.090509
20
-7.84941
30
0
11
2.92063537937295
21
0.0494738034743022
31
0
210
0
220
0
230
1
40
0.994519
41
0
42
6.28318530717959
0
ELLIPSE
5
114
100
AcDbEntity
8
1
62
256
6
ByLayer
370
13
48
1
60
0
100
AcDbEllipse
10
15.090969
20
-7.8757
30
0
11
3.00951111994503
21
0.0525633121172112
31
0
210
0
220
0
230
1
40
0.994516
41
2.41363713697283
42
3.14158375182836
0
ELLIPSE
5
115
100
AcDbEntity
8
1
62
256
6
ByLayer
370
13
48
1
60
0
100
AcDbEllipse
10
15.090969
20
-7.8757
30
0
11
3.00953582257632
21
0.0509797233947529
31
0
210
0
220
0
230
1
40
0.994519
41
-3.141076757374
42
-1.58763809561335
0
ELLIPSE
5
116
100
AcDbEntity
8
1
62
256
6
ByLayer
370
13
48
1
60
0
100
AcDbEllipse
10
15.090969
20
-7.8757
30
0
11
3.00951132442546
21
0.0522999032266786
31
0
210
0
220
0
230
1
40
0.994517
41
-1.58807752117458
42
0.728061500301417
0
ELLIPSE
5
117
100
AcDbEntity
8
1
62
256
6
ByLayer
370
13
48
1
60
0
100
AcDbEllipse
10
10.582049
20
0.29547
30
0
11
0.396812664427543
21
0.00696792836907733
31
0
210
0
220
0
230
1
40
0.994523
41
0.959826470896891
42
3.14148803589397
0
ELLIPSE
5
118
100
AcDbEntity
8
1
62
256
6
ByLayer
370
13
48
1
60
0
100
AcDbEllipse
10
15.092569
20
-7.96741
30
0
11
3.07089174738671
21
0.0520190558045107
31
0
210
0
220
0
230
1
40
0.994519
41
0
42
6.28318530717959
0
ELLIPSE
5
119
100
AcDbEntity
8
1
62
256
6
ByLayer
370
13
48
1
60
0
100
AcDbEllipse
10
-1499.430789
20
4.59619
30
0
11
1644.47888578669
21
0.311345190125443
31
0
210
0
220
0
230
1
40
0.001815
41
-0.410088689068491
42
-0.394543686587128
0
ELLIPSE
5
11A
100
AcDbEntity
8
1
62
256
6
ByLayer
370
13
48
1
60
0
100
AcDbEllipse
10
7.089369
20
0
30
0
11
-0.00194525791621222
21
9.99998226754105
31
0
210
0
220
0
230
1
40
0.001811
41
-2.94764910318253
42
-2.02182736647658
0
ELLIPSE
5
11B
100
AcDbEntity
8
1
62
256
6
ByLayer
370
13
48
1
60
0
100
AcDbEllipse
10
7.089369
20
0
30
0
11
-0.00188371079188312
21
10.0000009545256
31
0
210
0
220
0
230
1
40
0.001813
41
-1.11976974580839
42
-0.695619779299751
0
ELLIPSE
5
11C
100
AcDbEntity
8
1
62
256
6
ByLayer
370
13
48
1
60
0
100
AcDbEllipse
10
15.092369
20
-7.9557
30
0
11
1.67613241323902
21
0.0296736804736546
31
0
210
0
220
0
230
1
40
0.994526
41
-2.66187721919504
42
-1.61467966800582
0
ELLIPSE
5
11D
100
AcDbEntity
8
1
62
256
6
ByLayer
370
13
48
1
60
0
100
AcDbEllipse
10
15.092369
20
-7.9557
30
0
11
1.67615762808513
21
0.0286409493843175
31
0
210
0
220
0
230
1
40
0.994522
41
2.57472626299731
42
-2.66126149297763
0
ELLIPSE
5
11E
100
AcDbEntity
8
1
62
256
6
ByLayer
370
13
48
1
60
0
100
AcDbEllipse
10
15.092369
20
-7.9557
30
0
11
1.67614958969621
21
0.0286535998735071
31
0
210
0
220
0
230
1
40
0.99453
41
1.52752342835832
42
2.57472097955687
0
ELLIPSE
5
11F
100
AcDbEntity
8
1
62
256
6
ByLayer
370
13
48
1
60
0
100
AcDbEllipse
10
15.092369
20
-7.9557
30
0
11
1.67615762808513
21
0.0286409493843175
31
0
210
0
220
0
230
1
40
0.994522
41
-0.566866390592485
42
0.480331160612164
0
ELLIPSE
5
120
100
AcDbEntity
8
1
62
256
6
ByLayer
370
13
48
1
60
0
100
AcDbEllipse
10
15.092369
20
-7.9557
30
0
11
1.67614958968857
21
0.0286536000934783
31
0
210
0
220
0
230
1
40
0.99453
41
-1.6140692253636
42
-0.566871674162709
0
ELLIPSE
5
121
100
AcDbEntity
8
1
62
256
6
ByLayer
370
13
48
1
60
0
100
AcDbEllipse
10
15.092369
20
-7.9557
30
0
11
1.79974588122587
21
0.030486610786089
31
0
210
0
220
0
230
1
40
0.994519
41
0
42
6.28318530717959
0
ELLIPSE
5
122
100
AcDbEntity
8
1
62
256
6
ByLayer
370
13
48
1
60
0
100
AcDbEllipse
10
15.091869
20
-7.92691
30
0
11
2.62462941012123
21
0.0444596407104089
31
0
210
0
220
0
230
1
40
0.994519
41
0
42
6.28318530717959
0
ELLIPSE
5
123
100
AcDbEntity
8
1
62
256
6
ByLayer
370
13
48
1
60
0
100
AcDbEllipse
10
15.092369
20
-7.9557
30
0
11
1.67613241323902
21
0.0296736804736546
31
0
210
0
220
0
230
1
40
0.994526
41
0.479715434394753
42
1.52691298558397
0
ELLIPSE
5
124
100
AcDbEntity
8
1
62
256
6
ByLayer
370
13
48
1
60
0
100
AcDbEllipse
10
10.741689
20
-1.02661
30
0
11
1.59966847700315
21
0.0279958350508118
31
0
210
0
220
0
230
1
40
0.994525
41
3.11706910989102
42
-2.181705784265
0
ELLIPSE
5
125
100
AcDbEntity
8
1
62
256
6
ByLayer
370
13
48
1
60
0
100
AcDbEllipse
10
10.154119
20
0.11892
30
0
11
1.52476309330762
21
0.027181734619904
31
0
210
0
220
0
230
1
40
0.994521
41
-0.0406092772118216
42
0.154722047877749
0
ELLIPSE
5
126
100
AcDbEntity
8
1
62
256
6
ByLayer
370
13
48
1
60
0
100
AcDbEllipse
10
10.154119
20
0.11892
30
0
11
1.52477486678
21
0.0266057859221957
31
0
210
0
220
0
230
1
40
0.994517
41
2.99599014561191
42
-2.31404490882147
0
ELLIPSE
5
127
100
AcDbEntity
8
1
62
256
6
ByLayer
370
13
48
1
60
0
100
AcDbEllipse
10
10.741879
20
-1.03706
30
0
11
1.69964377982224
21
0.0305216796259802
31
0
210
0
220
0
230
1
40
0.994519
41
-3.14005877188765
42
-2.18216458112258
0
ELLIPSE
5
128
100
AcDbEntity
8
1
62
256
6
ByLayer
370
13
48
1
60
0
100
AcDbEllipse
10
10.748169
20
-1.39763
30
0
11
1.69964377982224
21
0.0305216796263007
31
0
210
0
220
0
230
1
40
0.994519
41
-3.14005877188784
42
-2.18216458112277
0
ELLIPSE
5
129
100
AcDbEntity
8
1
62
256
6
ByLayer
370
13
48
1
60
0
100
AcDbEllipse
10
9.249189
20
-11.16978
30
0
11
1.99968586799455
21
0.0351139696693305
31
0
210
0
220
0
230
1
40
0.994523
41
0.959826470933236
42
1.83576037998131
0
ELLIPSE
5
12A
100
AcDbEntity
8
1
62
256
6
ByLayer
370
13
48
1
60
0
100
AcDbEllipse
10
10.154299
20
0.10847
30
0
11
1.62473504790189
21
0.0292654201041962
31
0
210
0
220
0
230
1
40
0.99452
41
-3.03771326530836
42
-2.34238187490998
0
ELLIPSE
5
12B
100
AcDbEntity
8
1
62
256
6
ByLayer
370
13
48
1
60
0
100
AcDbEllipse
10
10.160599
20
-0.2521
30
0
11
1.62474966131823
21
0.0283450969994431
31
0
210
0
220
0
230
1
40
0.994522
41
-2.71685994612844
42
-2.34181708434924
0
ELLIPSE
5
12C
100
AcDbEntity
8
1
62
256
6
ByLayer
370
13
48
1
60
0
100
AcDbEllipse
10
10.160599
20
-0.2521
30
0
11
1.62474835816071
21
0.0284285418212906
31
0
210
0
220
0
230
1
40
0.994526
41
0.110801670362176
42
2.68211388856574
0
POINT
5
70
100
AcDbEntity
8
80
62
256
6
ByLayer
370
18
48
1
60
0
100
AcDbPoint
10
0
20
0
30
0
39
0
210
0
220
0
230
1
50
360
0
POINT
5
72
100
AcDbEntity
8
81
62
256
6
ByLayer
370
18
48
1
60
0
100
AcDbPoint
10
20
20
-16.75
30
0
39
0
210
0
220
0
230
1
50
360
0
SPLINE
5
12D
100
AcDbEntity
8
1
62
256
6
ByLayer
370
13
48
1
60
0
100
AcDbSpline
70
4
71
3
72
17
73
13
40
0
40
0
40
0
40
0
40
0.25
40
0.25
40
0.5
40
0.5
40
0.75
40
0.75
40
0.8125
40
0.8125
40
0.875
40
1
40
1
40
1
40
1
41
1
10
0.346231754735271
20
-2.81188209233611
30
0
41
1
10
0.261100100111747
20
-2.34644919373821
30
0
41
1
10
0.196484930394348
20
-1.88006651343076
30
0
41
1
10
0.109863135879181
20
-0.945328650371295
30
0
41
1
10
0.0878599000209022
20
-0.476973310732973
30
0
41
1
10
0.0873899278185206
20
0.461752829336405
30
0
41
1
10
0.108924775609779
20
0.932123703102917
30
0
41
1
10
0.163175159104725
20
1.52135258351259
30
0
41
1
10
0.175391661784232
20
1.63927598602632
30
0
41
1
10
0.202543061092996
20
1.87519013229363
30
0
41
1
10
0.247243897903075
20
2.22827249333031
30
0
41
1
10
0.303641631170052
20
2.57903281024633
30
0
41
1
10
0.346231754735271
20
2.81188209234014
30
0
0
SPLINE
5
12E
100
AcDbEntity
8
1
62
256
6
ByLayer
370
13
48
1
60
0
100
AcDbSpline
70
4
71
3
72
8
73
4
40
0
40
0
40
0
40
0
40
1
40
1
40
1
40
1
41
1
10
-0.298799999995168
20
-9.16562384608076
30
0
41
1
10
-0.0490436546108697
20
-9.41769213408836
30
0
41
1
10
0.200806925332216
20
-9.66966674238668
30
0
41
1
10
0.450731877370089
20
-9.92156741649021
30
0
0
SPLINE
5
12F
100
AcDbEntity
8
1
62
256
6
ByLayer
370
13
48
1
60
0
100
AcDbSpline
70
4
71
3
72
8
73
4
40
0
40
0
40
0
40
0
40
1
40
1
40
1
40
1
41
1
10
-0.298799999995282
20
9.1656238460848
30
0
41
1
10
-0.0490439441942101
20
9.41769184182854
30
0
41
1
10
0.200806864498389
20
9.66966668107594
30
0
41
1
10
0.450731877370089
20
9.92156741649424
30
0
0
SPLINE
5
130
100
AcDbEntity
8
1
62
256
6
ByLayer
370
13
48
1
60
0
100
AcDbSpline
70
4
71
3
72
20
73
16
40
0
40
0
40
0
40
0
40
0.125
40
0.125
40
0.25
40
0.25
40
0.375
40
0.375
40
0.5
40
0.5
40
0.625
40
0.625
40
0.75
40
0.75
40
1
40
1
40
1
40
1
41
1
10
-0.298799999995168
20
9.15570013077351
30
0
41
1
10
-0.298799999995168
20
9.15488469944134
30
0
41
1
10
-0.298402821448036
20
9.15446089274914
30
0
41
1
10
-0.29676220676825
20
9.15444870096749
30
0
41
1
10
-0.295533351888508
20
9.15486528315554
30
0
41
1
10
-0.292351466089514
20
9.1564780400561
30
0
41
1
10
-0.290374493222799
20
9.15768769460774
30
0
41
1
10
-0.285794616883919
20
9.16080785819182
30
0
41
1
10
-0.283220892271203
20
9.16269578884723
30
0
41
1
10
-0.277577052924386
20
9.16704707279959
30
0
41
1
10
-0.274485140180815
20
9.16952948112342
30
0
41
1
10
-0.268033551528703
20
9.17486758530501
30
0
41
1
10
-0.26465834587944
20
9.17773433428803
30
0
41
1
10
-0.254146768977449
20
9.18684767971669
30
0
41
1
10
-0.246574658205446
20
9.1936534145506
30
0
41
1
10
-0.238799999995223
20
9.20082569328574
30
0
0
SPLINE
5
131
100
AcDbEntity
8
1
62
256
6
ByLayer
370
13
48
1
60
0
100
AcDbSpline
70
4
71
3
72
8
73
4
40
0
40
0
40
0
40
0
40
1
40
1
40
1
40
1
41
1
10
-0.238799999995223
20
9.20082569328574
30
0
41
1
10
-0.0442438312217348
20
9.3803076762014
30
0
41
1
10
0.150789834342476
20
9.55909535742521
30
0
41
1
10
0.346231754735271
20
9.7372894178678
30
0
0
SPLINE
5
132
100
AcDbEntity
8
1
62
256
6
ByLayer
370
13
48
1
60
0
100
AcDbSpline
70
4
71
3
72
34
73
30
40
0
40
0
40
0
40
0
40
0.12499999999999
40
0.12499999999999
40
0.249999999999981
40
0.249999999999981
40
0.312499999999983
40
0.312499999999983
40
0.374999999999984
40
0.374999999999984
40
0.437499999999986
40
0.437499999999986
40
0.499999999999987
40
0.499999999999987
40
0.562499999999989
40
0.562499999999989
40
0.62499999999999
40
0.62499999999999
40
0.687499999999992
40
0.687499999999992
40
0.749999999999994
40
0.749999999999994
40
0.812499999999995
40
0.812499999999995
40
0.874999999999997
40
0.874999999999997
40
0.937499999999998
40
0.937499999999998
40
1
40
1
40
1
40
1
41
1
10
0.346231754735271
20
9.69383466119731
30
0
41
1
10
0.354259199950519
20
9.70297937374241
30
0
41
1
10
0.361882520438343
20
9.7118888751036
30
0
41
1
10
0.376203769071339
20
9.72916138893444
30
0
41
1
10
0.382925639926469
20
9.73756014121173
30
0
41
1
10
0.391722610487676
20
9.74912153456731
30
0
41
1
10
0.394455801716703
20
9.75282095451254
30
0
41
1
10
0.399458999672191
20
9.75985970719663
30
0
41
1
10
0.401733636911757
20
9.76320876912709
30
0
41
1
10
0.405604683059181
20
9.76928493420971
30
0
41
1
10
0.407220289139758
20
9.77203742421702
30
0
41
1
10
0.409706873366389
20
9.776877304191
30
0
41
1
10
0.410572429263851
20
9.77896665796752
30
0
41
1
10
0.411370328495849
20
9.78220296619693
30
0
41
1
10
0.411319638152776
20
9.78337762721785
30
0
41
1
10
0.410212160190525
20
9.78473579091181
30
0
41
1
10
0.409165513892702
20
9.78489451355122
30
0
41
1
10
0.40614389014317
20
9.78419766645661
30
0
41
1
10
0.404136255739189
20
9.78332726720421
30
0
41
1
10
0.399325958883963
20
9.78065206424739
30
0
41
1
10
0.39654440198305
20
9.77886621883769
30
0
41
1
10
0.390308713992539
20
9.77449628740422
30
0
41
1
10
0.386861740214357
20
9.77191396300523
30
0
41
1
10
0.379616104990731
20
9.76623172903354
30
0
41
1
10
0.375788182731952
20
9.76311138681851
30
0
41
1
10
0.36777391296593
20
9.7563849310998
30
0
41
1
10
0.363572282322224
20
9.7527643616597
30
0
41
1
10
0.355031934572906
20
9.74524948540133
30
0
41
1
10
0.350671763163262
20
9.74133759304223
30
0
41
1
10
0.346231754735271
20
9.7372894178678
30
0
0
SPLINE
5
133
100
AcDbEntity
8
1
62
256
6
ByLayer
370
13
48
1
60
0
100
AcDbSpline
70
4
71
3
72
8
73
4
40
0
40
0
40
0
40
0
40
1
40
1
40
1
40
1
41
1
10
-0.238799999995223
20
9.01540663871853
30
0
41
1
10
-0.0456297561732129
20
9.2436652975791
30
0
41
1
10
0.14947787390426
20
9.46969639128733
30
0
41
1
10
0.346231754735271
20
9.69383466119731
30
0
0
SPLINE
5
134
100
AcDbEntity
8
1
62
256
6
ByLayer
370
13
48
1
60
0
100
AcDbSpline
70
4
71
3
72
16
73
12
40
0
40
0
40
0
40
0
40
0.124999999999997
40
0.124999999999997
40
0.249999999999995
40
0.249999999999995
40
0.499999999999996
40
0.499999999999996
40
0.749999999999998
40
0.749999999999998
40
1
40
1
40
1
40
1
41
1
10
-0.298799999995396
20
8.9257932669573
30
0
41
1
10
-0.298799999995396
20
8.92749611468381
30
0
41
1
10
-0.298314555810663
20
8.92964786907433
30
0
41
1
10
-0.296487171560813
20
8.93474243200873
30
0
41
1
10
-0.29513905044783
20
8.93768513018389
30
0
41
1
10
-0.290121755692809
20
8.94723332518313
30
0
41
1
10
-0.285391715012935
20
8.95473944301014
30
0
41
1
10
-0.274382776873978
20
8.97066557199193
30
0
41
1
10
-0.268078737390653
20
8.9791418491001
30
0
41
1
10
-0.254162227627177
20
8.99694187752189
30
0
41
1
10
-0.246685267561162
20
9.00608905147649
30
0
41
1
10
-0.238799999995223
20
9.01540663871853
30
0
0
SPLINE
5
135
100
AcDbEntity
8
1
62
256
6
ByLayer
370
13
48
1
60
0
100
AcDbSpline
70
4
71
3
72
16
73
12
40
0
40
0
40
0
40
0
40
0.250000000000006
40
0.250000000000006
40
0.500000000000011
40
0.500000000000011
40
0.625000000000008
40
0.625000000000008
40
0.750000000000006
40
0.750000000000006
40
1
40
1
40
1
40
1
41
1
10
-0.238799999995223
20
8.91801952774003
30
0
41
1
10
-0.246567505408763
20
8.9112551940735
30
0
41
1
10
-0.25408972831579
20
8.90504296701729
30
0
41
1
10
-0.268469815837904
20
8.89409925958469
30
0
41
1
10
-0.275080430176814
20
8.88956005829854
30
0
41
1
10
-0.283663167694641
20
8.8847134044357
30
0
41
1
10
-0.286242809606762
20
8.88346309093029
30
0
41
1
10
-0.290715861958717
20
8.8817711097756
30
0
41
1
10
-0.292626646487548
20
8.88131926847799
30
0
41
1
10
-0.297296964802655
20
8.88124480740944
30
0
41
1
10
-0.298799999995282
20
8.88293252983672
30
0
41
1
10
-0.298799999995282
20
8.88608639192219
30
0
0
SPLINE
5
136
100
AcDbEntity
8
1
62
256
6
ByLayer
370
13
48
1
60
0
100
AcDbSpline
70
4
71
3
72
8
73
4
40
0
40
0
40
0
40
0
40
1
40
1
40
1
40
1
41
1
10
0.346231754735271
20
9.42582959020311
30
0
41
1
10
0.151002511288169
20
9.25689544871781
30
0
41
1
10
-0.04401999268228
20
9.08764373665403
30
0
41
1
10
-0.238799999995223
20
8.91801952774003
30
0
0
SPLINE
5
137
100
AcDbEntity
8
1
62
256
6
ByLayer
370
13
48
1
60
0
100
AcDbSpline
70
4
71
3
72
34
73
30
40
0
40
0
40
0
40
0
40
0.0624999999999986
40
0.0624999999999986
40
0.124999999999997
40
0.124999999999997
40
0.187499999999996
40
0.187499999999996
40
0.249999999999995
40
0.249999999999995
40
0.312499999999993
40
0.312499999999993
40
0.374999999999992
40
0.374999999999992
40
0.437499999999991
40
0.437499999999991
40
0.499999999999989
40
0.499999999999989
40
0.562499999999988
40
0.562499999999988
40
0.624999999999986
40
0.624999999999986
40
0.687499999999985
40
0.687499999999985
40
0.749999999999984
40
0.749999999999984
40
0.874999999999992
40
0.874999999999992
40
1
40
1
40
1
40
1
41
1
10
0.346231754735271
20
9.42582959020311
30
0
41
1
10
0.3508610068819
20
9.42983533608074
30
0
41
1
10
0.355411098603412
20
9.4336514984316
30
0
41
1
10
0.364329685689626
20
9.44084688321081
30
0
41
1
10
0.368719883718398
20
9.44424252254933
30
0
41
1
10
0.377183118171701
20
9.4504262545378
30
0
41
1
10
0.381195405992543
20
9.45317146378031
30
0
41
1
10
0.388719675630654
20
9.45786767823662
30
0
41
1
10
0.392271195962706
20
9.45983496837411
30
0
41
1
10
0.398514601429355
20
9.4626870475216
30
0
41
1
10
0.401219464525383
20
9.4635882733655
30
0
41
1
10
0.405745550526689
20
9.46427415886095
30
0
41
1
10
0.407565008970977
20
9.46403712970201
30
0
41
1
10
0.410100349950398
20
9.46244184772993
30
0
41
1
10
0.410855009896721
20
9.46109282980299
30
0
41
1
10
0.411388785794969
20
9.45737553917624
30
0
41
1
10
0.411164549843505
20
9.45506192434689
30
0
41
1
10
0.409888667732474
20
9.44966675630124
30
0
41
1
10
0.408823598891189
20
9.44656271597481
30
0
41
1
10
0.406049081526447
20
9.4398843073391
30
0
41
1
10
0.404337439310979
20
9.43629128607861
30
0
41
1
10
0.400366739166515
20
9.42867687877262
30
0
41
1
10
0.398095519416387
20
9.424635985229
30
0
41
1
10
0.393113013765486
20
9.41625663264014
30
0
41
1
10
0.390423117648396
20
9.41195170327413
30
0
41
1
10
0.381844943142795
20
9.39874269080499
30
0
41
1
10
0.375454438867194
20
9.38954797225674
30
0
41
1
10
0.361540276176896
20
9.37050850487324
30
0
41
1
10
0.354066680435579
20
9.3607382592011
30
0
41
1
10
0.346231754735271
20
9.35088082387963
30
0
0
SPLINE
5
138
100
AcDbEntity
8
1
62
256
6
ByLayer
370
13
48
1
60
0
100
AcDbSpline
70
4
71
3
72
8
73
4
40
0
40
0
40
0
40
0
40
1
40
1
40
1
40
1
41
1
10
0.346231754735271
20
9.35088082387963
30
0
41
1
10
0.148571680449407
20
9.10219673005869
30
0
41
1
10
-0.0465918809348125
20
8.8509308307853
30
0
41
1
10
-0.238799999995223
20
8.5966085174633
30
0
0
SPLINE
5
139
100
AcDbEntity
8
1
62
256
6
ByLayer
370
13
48
1
60
0
100
AcDbSpline
70
4
71
3
72
18
73
14
40
0
40
0
40
0
40
0
40
0.250000000000014
40
0.250000000000014
40
0.375000000000007
40
0.375000000000007
40
0.500000000000001
40
0.500000000000001
40
0.749999999999988
40
0.749999999999988
40
0.874999999999994
40
0.874999999999994
40
1
40
1
40
1
40
1
41
1
10
-0.238799999995223
20
8.5966085174633
30
0
41
1
10
-0.246764340411943
20
8.58607041174352
30
0
41
1
10
-0.254205034620355
20
8.57571276123943
30
0
41
1
10
-0.26451251522829
20
8.56046446829933
30
0
41
1
10
-0.267804810670469
20
8.55543017238344
30
0
41
1
10
-0.274069756188197
20
8.54546864711401
30
0
41
1
10
-0.277056856136966
20
8.5405162228179
30
0
41
1
10
-0.285344334014582
20
8.52604280963314
30
0
41
1
10
-0.289970255051486
20
8.51694644743392
30
0
41
1
10
-0.295051816144024
20
8.50444136071073
30
0
41
1
10
-0.296408294909753
20
8.50051223730841
30
0
41
1
10
-0.29827671593992
20
8.49336032331794
30
0
41
1
10
-0.298799999995396
20
8.49011182497841
30
0
41
1
10
-0.298799999995282
20
8.48729043714084
30
0
0
SPLINE
5
13A
100
AcDbEntity
8
1
62
256
6
ByLayer
370
13
48
1
60
0
100
AcDbSpline
70
4
71
3
72
20
73
16
40
0
40
0
40
0
40
0
40
0.124999999999998
40
0.124999999999998
40
0.249999999999996
40
0.249999999999996
40
0.374999999999994
40
0.374999999999994
40
0.499999999999992
40
0.499999999999992
40
0.62499999999999
40
0.62499999999999
40
0.749999999999988
40
0.749999999999988
40
1
40
1
40
1
40
1
41
1
10
-0.298799999995282
20
8.4245603947484
30
0
41
1
10
-0.298799999995282
20
8.42225956697931
30
0
41
1
10
-0.298481033011882
20
8.42025096446613
30
0
41
1
10
-0.29708518956059
20
8.41693004788854
30
0
41
1
10
-0.296019054308687
20
8.41565975473659
30
0
41
1
10
-0.2931378529602
20
8.41398807293453
30
0
41
1
10
-0.291303367843312
20
8.41357901622203
30
0
41
1
10
-0.286871669524118
20
8.41370543733674
30
0
41
1
10
-0.284333051383811
20
8.41423241202639
30
0
41
1
10
-0.278656032973032
20
8.41615145392623
30
0
41
1
10
-0.275485869335654
20
8.41756427429814
30
0
41
1
10
-0.268822709995135
20
8.42108856397729
30
0
41
1
10
-0.265311825533814
20
8.42320112188432
30
0
41
1
10
-0.25430985705205
20
8.4304596424503
30
0
41
1
10
-0.246626620215835
20
8.43633353027261
30
0
41
1
10
-0.238799999995109
20
8.44286391907841
30
0
0
SPLINE
5
13B
100
AcDbEntity
8
1
62
256
6
ByLayer
370
13
48
1
60
0
100
AcDbSpline
70
4
71
3
72
8
73
4
40
0
40
0
40
0
40
0
40
1
40
1
40
1
40
1
41
1
10
-0.238799999995109
20
8.44286391907841
30
0
41
1
10
-0.0438668911496336
20
8.6055125408287
30
0
41
1
10
0.151147867056551
20
8.76803053634634
30
0
41
1
10
0.346231754735271
20
8.93043793549774
30
0
0
SPLINE
5
13C
100
AcDbEntity
8
1
62
256
6
ByLayer
370
13
48
1
60
0
100
AcDbSpline
70
4
71
3
72
37
73
33
40
0
40
0
40
0
40
0
40
0.125000000000008
40
0.125000000000008
40
0.250000000000016
40
0.250000000000016
40
0.312500000000012
40
0.312500000000012
40
0.375000000000008
40
0.437500000000004
40
0.437500000000004
40
0.5
40
0.5
40
0.562499999999996
40
0.562499999999996
40
0.624999999999992
40
0.624999999999992
40
0.656249999999992
40
0.656249999999992
40
0.687499999999993
40
0.687499999999993
40
0.749999999999992
40
0.749999999999992
40
0.781249999999994
40
0.781249999999994
40
0.812499999999997
40
0.812499999999997
40
0.874999999999998
40
0.874999999999998
40
0.937499999999999
40
0.937499999999999
40
1
40
1
40
1
40
1
41
1
10
0.346231754735271
20
8.81943954716891
30
0
41
1
10
0.353829026334637
20
8.8301956306012
30
0
41
1
10
0.360972510496566
20
8.84081226862813
30
0
41
1
10
0.374308041476951
20
8.86174757714153
30
0
41
1
10
0.380502883394769
20
8.87206714608104
30
0
41
1
10
0.388936403075462
20
8.8872742008385
30
0
41
1
10
0.391611130591713
20
8.89231531701753
30
0
41
1
10
0.396535105227684
20
8.90211328042889
30
0
41
1
10
0.401054202405334
20
8.91166120074851
30
0
41
1
10
0.404655254564744
20
8.92064193519863
30
0
41
1
10
0.407701331086145
20
8.92928013676371
30
0
41
1
10
0.40892815222216
20
8.93338020485103
30
0
41
1
10
0.410655515024104
20
8.94096393357401
30
0
41
1
10
0.411163411947513
20
8.94446445536553
30
0
41
1
10
0.411287396397228
20
8.95073728156811
30
0
41
1
10
0.410894073518847
20
8.95345893819794
30
0
41
1
10
0.409519697409877
20
8.9567097509408
30
0
41
1
10
0.40893046184371
20
8.95765985959733
30
0
41
1
10
0.407462881924602
20
8.95926624917755
30
0
41
1
10
0.406582169901497
20
8.95991897330893
30
0
41
1
10
0.403559975582169
20
8.96135660971404
30
0
41
1
10
0.401022186179233
20
8.96165043157194
30
0
41
1
10
0.396399704438721
20
8.96105869080853
30
0
41
1
10
0.394717941646803
20
8.96068478786842
30
0
41
1
10
0.391183638710544
20
8.959619316078
30
0
41
1
10
0.389320028851302
20
8.95892718930159
30
0
41
1
10
0.383457384262869
20
8.95640269075514
30
0
41
1
10
0.379143284096557
20
8.95409199637291
30
0
41
1
10
0.370233629439866
20
8.94862485415743
30
0
41
1
10
0.365606839642936
20
8.9454611211236
30
0
41
1
10
0.356065655437845
20
8.9384176311161
30
0
41
1
10
0.351155553096731
20
8.934536999215
30
0
41
1
10
0.346231754735271
20
8.93043793549774
30
0
0
SPLINE
5
13D
100
AcDbEntity
8
1
62
256
6
ByLayer
370
13
48
1
60
0
100
AcDbSpline
70
4
71
3
72
8
73
4
40
0
40
0
40
0
40
0
40
1
40
1
40
1
40
1
41
1
10
-0.238799999995223
20
7.96246187705751
30
0
41
1
10
-0.0481511100072396
20
8.25209121847982
30
0
41
1
10
0.147108253221603
20
8.53752399793083
30
0
41
1
10
0.346231754735271
20
8.81943954716891
30
0
0
SPLINE
5
13E
100
AcDbEntity
8
1
62
256
6
ByLayer
370
13
48
1
60
0
100
AcDbSpline
70
4
71
3
72
18
73
14
40
0
40
0
40
0
40
0
40
0.125000000000003
40
0.125000000000003
40
0.250000000000006
40
0.250000000000006
40
0.500000000000011
40
0.500000000000011
40
0.62500000000001
40
0.62500000000001
40
0.750000000000009
40
0.750000000000009
40
1
40
1
40
1
40
1
41
1
10
-0.298800000005059
20
7.827733547093
30
0
41
1
10
-0.298800000004263
20
7.83184934782704
30
0
41
1
10
-0.298273460195247
20
7.8363689534398
30
0
41
1
10
-0.296396418819
20
7.84603730650244
30
0
41
1
10
-0.295029640620925
20
7.85122340122754
30
0
41
1
10
-0.290006643827638
20
7.86717014094521
30
0
41
1
10
-0.285446813456616
20
7.87839814489942
30
0
41
1
10
-0.277281335036065
20
7.895892690203
30
0
41
1
10
-0.274319636582192
20
7.9018589841302
30
0
41
1
10
-0.268066279859028
20
7.91382606915519
30
0
41
1
10
-0.264769693924137
20
7.91983989652991
30
0
41
1
10
-0.254415207402559
20
7.93796518614559
30
0
41
1
10
-0.246898135059297
20
7.95015937938504
30
0
41
1
10
-0.238799999995223
20
7.96246187705751
30
0
0
SPLINE
5
13F
100
AcDbEntity
8
1
62
256
6
ByLayer
370
13
48
1
60
0
100
AcDbSpline
70
4
71
3
72
22
73
18
40
0
40
0
40
0
40
0
40
0.125
40
0.125
40
0.25
40
0.25
40
0.375
40
0.375
40
0.5
40
0.5
40
0.625
40
0.625
40
0.75
40
0.75
40
0.875
40
0.875
40
1
40
1
40
1
40
1
41
1
10
-0.238799999994882
20
7.74001485883591
30
0
41
1
10
-0.242780025319604
20
7.73676354256722
30
0
41
1
10
-0.24673776431635
20
7.7337324078479
30
0
41
1
10
-0.25459873372543
20
7.72820647896933
30
0
41
1
10
-0.258524312967012
20
7.72570293063214
30
0
41
1
10
-0.266023691525817
20
7.72153389229064
30
0
41
1
10
-0.26962790037615
20
7.71984325140792
30
0
41
1
10
-0.276487300615628
20
7.71740268056774
30
0
41
1
10
-0.279647420100247
20
7.7166941468644
30
0
41
1
10
-0.285276252676937
20
7.71635297700553
30
0
41
1
10
-0.287794982416273
20
7.71672566844043
30
0
41
1
10
-0.292014127605881
20
7.71851730263845
30
0
41
1
10
-0.293709710745503
20
7.7199118366768
30
0
41
1
10
-0.296370278686737
20
7.72357747536202
30
0
41
1
10
-0.297313526545423
20
7.72583262587753
30
0
41
1
10
-0.298523028620963
20
7.73091362347904
30
0
41
1
10
-0.298799999995282
20
7.73375639525923
30
0
41
1
10
-0.298799999995282
20
7.7368536450434
30
0
0
SPLINE
5
140
100
AcDbEntity
8
1
62
256
6
ByLayer
370
13
48
1
60
0
100
AcDbSpline
70
4
71
3
72
8
73
4
40
0
40
0
40
0
40
0
40
1
40
1
40
1
40
1
41
1
10
0.346231754735271
20
8.21791822641259
30
0
41
1
10
0.15121937402418
20
8.0586200350659
30
0
41
1
10
-0.0437913217666903
20
7.89931909343593
30
0
41
1
10
-0.238799999994882
20
7.74001485883591
30
0
0
SPLINE
5
141
100
AcDbEntity
8
1
62
256
6
ByLayer
370
13
48
1
60
0
100
AcDbSpline
70
4
71
3
72
32
73
28
40
0
40
0
40
0
40
0
40
0.0624999999999974
40
0.0624999999999974
40
0.124999999999995
40
0.124999999999995
40
0.187499999999992
40
0.187499999999992
40
0.218749999999991
40
0.218749999999991
40
0.24999999999999
40
0.24999999999999
40
0.312499999999996
40
0.312499999999996
40
0.375000000000001
40
0.375000000000001
40
0.437500000000007
40
0.437500000000007
40
0.500000000000013
40
0.500000000000013
40
0.62500000000001
40
0.62500000000001
40
0.750000000000007
40
0.750000000000007
40
0.875000000000003
40
0.875000000000003
40
1
40
1
40
1
40
1
41
1
10
0.346231754735271
20
8.21791822641271
30
0
41
1
10
0.351494305169211
20
8.22221700356184
30
0
41
1
10
0.356721602176066
20
8.22616190665033
30
0
41
1
10
0.367085861944673
20
8.23313945341491
30
0
41
1
10
0.372164523072541
20
8.236123145194
30
0
41
1
10
0.381730898026007
20
8.24065358571093
30
0
41
1
10
0.3863178473392
20
8.2422270469236
30
0
41
1
10
0.392330625050562
20
8.24322555258433
30
0
41
1
10
0.394205670179616
20
8.2433420944233
30
0
41
1
10
0.397692889626768
20
8.24313405318921
30
0
41
1
10
0.399316573766981
20
8.2428043145118
30
0
41
1
10
0.403687397461994
20
8.24116411169612
30
0
41
1
10
0.405922509488022
20
8.23923748173652
30
0
41
1
10
0.409233957191049
20
8.23395478955379
30
0
41
1
10
0.410254243002981
20
8.23068865300891
30
0
41
1
10
0.411316602996266
20
8.22324851475523
30
0
41
1
10
0.411353462307233
20
8.21902344575133
30
0
41
1
10
0.410642647884487
20
8.21004376811331
30
0
41
1
10
0.409903794881615
20
8.20528776958983
30
0
41
1
10
0.406783372624403
20
8.19038965606424
30
0
41
1
10
0.40346768007575
20
8.17952757309254
30
0
41
1
10
0.395343924542743
20
8.15731275461749
30
0
41
1
10
0.390522879437498
20
8.14589043262654
30
0
41
1
10
0.379680583008024
20
8.1225478933616
30
0
41
1
10
0.373620446341505
20
8.11056611654911
30
0
41
1
10
0.36059632379019
20
8.08652064146369
30
0
41
1
10
0.353631505933521
20
8.07444585491541
30
0
41
1
10
0.346231754735271
20
8.06232321790273
30
0
0
SPLINE
5
142
100
AcDbEntity
8
1
62
256
6
ByLayer
370
13
48
1
60
0
100
AcDbSpline
70
4
71
3
72
8
73
4
40
0
40
0
40
0
40
0
40
1
40
1
40
1
40
1
41
1
10
0.346231754735271
20
8.06232321790273
30
0
41
1
10
0.144484512004027
20
7.73181094439033
30
0
41
1
10
-0.0509572220557004
20
7.39641522535371
30
0
41
1
10
-0.238799999995223
20
7.05513432080963
30
0
0
SPLINE
5
143
100
AcDbEntity
8
1
62
256
6
ByLayer
370
13
48
1
60
0
100
AcDbSpline
70
4
71
3
72
14
73
10
40
0
40
0
40
0
40
0
40
0.25
40
0.25
40
0.5
40
0.5
40
0.75
40
0.75
40
1
40
1
40
1
40
1
41
1
10
-0.238799999995223
20
7.05513432080963
30
0
41
1
10
-0.247055241280833
20
7.04013584046314
30
0
41
1
10
-0.254636564590697
20
7.02520968630179
30
0
41
1
10
-0.268443306544128
20
6.99549521407531
30
0
41
1
10
-0.274672554143109
20
6.98070651218811
30
0
41
1
10
-0.285516703275704
20
6.9512897025746
30
0
41
1
10
-0.290043924400976
20
6.93691211787493
30
0
41
1
10
-0.296662595531444
20
6.90923934164633
30
0
41
1
10
-0.298799999998465
20
6.89577639281762
30
0
41
1
10
-0.298800000000057
20
6.88387434548011
30
0
0
SPLINE
5
144
100
AcDbEntity
8
1
62
256
6
ByLayer
370
13
48
1
60
0
100
AcDbSpline
70
4
71
3
72
22
73
18
40
0
40
0
40
0
40
0
40
0.125
40
0.125
40
0.25
40
0.25
40
0.375
40
0.375
40
0.5
40
0.5
40
0.625
40
0.625
40
0.75
40
0.75
40
0.875
40
0.875
40
1
40
1
40
1
40
1
41
1
10
-0.298799999999147
20
6.75422762459473
30
0
41
1
10
-0.298799999999147
20
6.7502601376809
30
0
41
1
10
-0.298577802517599
20
6.74646078971111
30
0
41
1
10
-0.297572787624546
20
6.7392886215105
30
0
41
1
10
-0.296780030539281
20
6.73589235437291
30
0
41
1
10
-0.294507315955713
20
6.72985862414819
30
0
41
1
10
-0.293032166717722
20
6.72720311740264
30
0
41
1
10
-0.289198675819677
20
6.72283892604034
30
0
41
1
10
-0.286866997956764
20
6.72118335375112
30
0
41
1
10
-0.281363030084236
20
6.71920737724619
30
0
41
1
10
-0.278138152928278
20
6.7188959734996
30
0
41
1
10
-0.271168455954722
20
6.71971204676882
30
0
41
1
10
-0.267327068475907
20
6.7208426998213
30
0
41
1
10
-0.259400316349598
20
6.7242898393454
30
0
41
1
10
-0.255301299585909
20
6.7265960663735
30
0
41
1
10
-0.247018726457696
20
6.7320707494392
30
0
41
1
10
-0.242900605878418
20
6.73518996764383
30
0
41
1
10
-0.238799999993972
20
6.7385984354261
30
0
0
SPLINE
5
145
100
AcDbEntity
8
1
62
256
6
ByLayer
370
13
48
1
60
0
100
AcDbSpline
70
4
71
3
72
8
73
4
40
0
40
0
40
0
40
0
40
1
40
1
40
1
40
1
41
1
10
-0.238799999994086
20
6.73859843542644
30
0
41
1
10
-0.04386796045506
20
6.90062804647479
30
0
41
1
10
0.151147848200111
20
7.06252312580475
30
0
41
1
10
0.346231754735271
20
7.22430884114394
30
0
0
SPLINE
5
146
100
AcDbEntity
8
1
62
256
6
ByLayer
370
13
48
1
60
0
100
AcDbSpline
70
4
71
3
72
36
73
32
40
0
40
0
40
0
40
0
40
0.249999999999981
40
0.249999999999981
40
0.374999999999975
40
0.374999999999975
40
0.499999999999968
40
0.499999999999968
40
0.562499999999969
40
0.562499999999969
40
0.62499999999997
40
0.62499999999997
40
0.687499999999971
40
0.687499999999971
40
0.749999999999973
40
0.749999999999973
40
0.781249999999976
40
0.781249999999976
40
0.812499999999979
40
0.812499999999979
40
0.843749999999983
40
0.843749999999983
40
0.874999999999986
40
0.874999999999986
40
0.90624999999999
40
0.90624999999999
40
0.937499999999993
40
0.937499999999993
40
0.968749999999997
40
0.968749999999997
40
1
40
1
40
1
40
1
41
1
10
0.346231754735271
20
7.00675370008824
30
0
41
1
10
0.360514995924376
20
7.03514951054521
30
0
41
1
10
0.372980278963581
20
7.06326667613533
30
0
41
1
10
0.388718807471122
20
7.10496938974731
30
0
41
1
10
0.39346166861182
20
7.11879011835472
30
0
41
1
10
0.401668448538402
20
7.1462293481986
30
0
41
1
10
0.405088626685796
20
7.15969234900101
30
0
41
1
10
0.408737210864814
20
7.17914288353902
30
0
41
1
10
0.4097015454374
20
7.1855019453873
30
0
41
1
10
0.410982328212498
20
7.19770962826149
30
0
41
1
10
0.411305928654059
20
7.20358474378443
30
0
41
1
10
0.411129209094469
20
7.21474424263201
30
0
41
1
10
0.410633487652348
20
7.22003999249344
30
0
41
1
10
0.408450374236821
20
7.22975014560271
30
0
41
1
10
0.406798610939717
20
7.23401471394331
30
0
41
1
10
0.403142828338645
20
7.23917817864614
30
0
41
1
10
0.401730249899828
20
7.24067398390289
30
0
41
1
10
0.398542736692974
20
7.24308921012644
30
0
41
1
10
0.396760008374116
20
7.24402119960834
30
0
41
1
10
0.39277158666377
20
7.24527009967372
30
0
41
1
10
0.390541726911209
20
7.2455804734021
30
0
41
1
10
0.385831424429938
20
7.24551950282674
30
0
41
1
10
0.383334505765191
20
7.24515967715044
30
0
41
1
10
0.378067852477187
20
7.24380802882391
30
0
41
1
10
0.375278000011889
20
7.24280358984041
30
0
41
1
10
0.369632723282137
20
7.24027660648144
30
0
41
1
10
0.366758016949547
20
7.23875255875194
30
0
41
1
10
0.360917920978267
20
7.23525184827244
30
0
41
1
10
0.357953830403716
20
7.23327312459273
30
0
41
1
10
0.352080274567442
20
7.22901804166113
30
0
41
1
10
0.349152289960187
20
7.22673088040389
30
0
41
1
10
0.346231754735271
20
7.22430884114434
30
0
0
SPLINE
5
147
100
AcDbEntity
8
1
62
256
6
ByLayer
370
13
48
1
60
0
100
AcDbSpline
70
4
71
3
72
8
73
4
40
0
40
0
40
0
40
0
40
1
40
1
40
1
40
1
41
1
10
-0.238799999995223
20
5.74665480307763
30
0
41
1
10
-0.0570438443394607
20
6.17489264562923
30
0
41
1
10
0.138815720831161
20
6.59440006784681
30
0
41
1
10
0.346231754735271
20
7.00675370008824
30
0
0
SPLINE
5
148
100
AcDbEntity
8
1
62
256
6
ByLayer
370
13
48
1
60
0
100
AcDbSpline
70
4
71
3
72
18
73
14
40
0
40
0
40
0
40
0
40
0.124999999999999
40
0.124999999999999
40
0.249999999999998
40
0.249999999999998
40
0.374999999999997
40
0.374999999999997
40
0.499999999999996
40
0.499999999999996
40
0.749999999999998
40
0.749999999999998
40
1
40
1
40
1
40
1
41
1
10
-0.298799999995168
20
5.51153694755934
30
0
41
1
10
-0.298799999994827
20
5.52050962164239
30
0
41
1
10
-0.298257784047479
20
5.5297379229772
30
0
41
1
10
-0.296402030219639
20
5.54855247439085
30
0
41
1
10
-0.295083598398179
20
5.5581411258203
30
0
41
1
10
-0.291817255805228
20
5.57760711996499
30
0
41
1
10
-0.289871076599667
20
5.58745600210941
30
0
41
1
10
-0.285497027636239
20
5.60714086234694
30
0
41
1
10
-0.283062938610584
20
5.61701000390704
30
0
41
1
10
-0.275108292706051
20
5.64668700661153
30
0
41
1
10
-0.268943521406101
20
5.66656334616673
30
0
41
1
10
-0.255061562469365
20
5.70648305950041
30
0
41
1
10
-0.247326368969453
20
5.72656572361214
30
0
41
1
10
-0.238799999995223
20
5.74665480307763
30
0
0
SPLINE
5
149
100
AcDbEntity
8
1
62
256
6
ByLayer
370
13
48
1
60
0
100
AcDbSpline
70
4
71
3
72
24
73
20
40
0
40
0
40
0
40
0
40
0.124999999999993
40
0.124999999999993
40
0.187499999999994
40
0.187499999999994
40
0.249999999999994
40
0.249999999999994
40
0.312499999999995
40
0.312499999999995
40
0.374999999999995
40
0.374999999999995
40
0.499999999999996
40
0.499999999999996
40
0.624999999999997
40
0.624999999999997
40
0.749999999999998
40
0.749999999999998
40
1
40
1
40
1
40
1
41
1
10
-0.238799999989425
20
5.27110877642301
30
0
41
1
10
-0.243149409674203
20
5.26708249291104
30
0
41
1
10
-0.247675239765755
20
5.26342580102741
30
0
41
1
10
-0.254461774014572
20
5.25907786899964
30
0
41
1
10
-0.256722164337731
20
5.25781683797354
30
0
41
1
10
-0.261238657457426
20
5.25574529658664
30
0
41
1
10
-0.2635199957098
20
5.25493085399623
30
0
41
1
10
-0.267909481056705
20
5.253891730275
30
0
41
1
10
-0.270024207203193
20
5.25365798451614
30
0
41
1
10
-0.274086758851951
20
5.25378526163493
30
0
41
1
10
-0.276030809728155
20
5.25415473754529
30
0
41
1
10
-0.281375164727848
20
5.25607069221624
30
0
41
1
10
-0.284408197689828
20
5.25846835060602
30
0
41
1
10
-0.289316563121275
20
5.26455534848171
30
0
41
1
10
-0.29126706831633
20
5.26829114346364
30
0
41
1
10
-0.294364863564425
20
5.27647229938501
30
0
41
1
10
-0.295514328248061
20
5.28089462389542
30
0
41
1
10
-0.298140456432662
20
5.29483924206514
30
0
41
1
10
-0.298799999997328
20
5.30506027572599
30
0
41
1
10
-0.298799999997215
20
5.31556932839013
30
0
0
SPLINE
5
14A
100
AcDbEntity
8
1
62
256
6
ByLayer
370
13
48
1
60
0
100
AcDbSpline
70
4
71
3
72
8
73
4
40
0
40
0
40
0
40
0
40
1
40
1
40
1
40
1
41
1
10
0.346231754735271
20
5.80707297082219
30
0
41
1
10
0.150503507819366
20
5.62946272436571
30
0
41
1
10
-0.0445739805038841
20
5.45090536410393
30
0
41
1
10
-0.238799999989652
20
5.2711087764238
30
0
0
SPLINE
5
14B
100
AcDbEntity
8
1
62
256
6
ByLayer
370
13
48
1
60
0
100
AcDbSpline
70
4
71
3
72
32
73
28
40
0
40
0
40
0
40
0
40
0.0624999999999871
40
0.0624999999999871
40
0.0937499999999817
40
0.0937499999999817
40
0.124999999999976
40
0.124999999999976
40
0.187499999999975
40
0.187499999999975
40
0.218749999999974
40
0.218749999999974
40
0.249999999999973
40
0.249999999999973
40
0.312499999999975
40
0.312499999999975
40
0.374999999999978
40
0.374999999999978
40
0.499999999999982
40
0.499999999999982
40
0.624999999999987
40
0.624999999999987
40
0.749999999999991
40
0.749999999999991
40
0.874999999999996
40
0.874999999999996
40
1
40
1
40
1
40
1
41
1
10
0.346231754735044
20
5.80707297082333
30
0
41
1
10
0.353047888087843
20
5.81325815433033
30
0
41
1
10
0.360205844882074
20
5.81860541342573
30
0
41
1
10
0.370719614337162
20
5.82372942213462
30
0
41
1
10
0.374259944642716
20
5.82497406647164
30
0
41
1
10
0.380928722299103
20
5.82617676493541
30
0
41
1
10
0.384105265843203
20
5.82615149859382
30
0
41
1
10
0.392812918376393
20
5.82416349218474
30
0
41
1
10
0.397358564255995
20
5.82030856874084
30
0
41
1
10
0.402404487083885
20
5.8125938636172
30
0
41
1
10
0.403825496334861
20
5.80967387087119
30
0
41
1
10
0.406217108716845
20
5.80339009227291
30
0
41
1
10
0.407180652034953
20
5.80005623842962
30
0
41
1
10
0.40955173300128
20
5.7896229696498
30
0
41
1
10
0.410449086234024
20
5.78207887946255
30
0
41
1
10
0.411338298965205
20
5.76631669214973
30
0
41
1
10
0.411321551022041
20
5.7582072114175
30
0
41
1
10
0.410321808972839
20
5.73340193841833
30
0
41
1
10
0.408405002999387
20
5.71623683607353
30
0
41
1
10
0.402998134616468
20
5.68109519063464
30
0
41
1
10
0.399519197750664
20
5.66331842546381
30
0
41
1
10
0.391481282883859
20
5.627672448026
30
0
41
1
10
0.386908575636284
20
5.60976071461991
30
0
41
1
10
0.376834485350713
20
5.5737855064983
30
0
41
1
10
0.371331097007641
20
5.55572175678239
30
0
41
1
10
0.359446350838965
20
5.5194514898952
30
0
41
1
10
0.353052139860751
20
5.50121156324704
30
0
41
1
10
0.346231754735271
20
5.48298633569911
30
0
0
SPLINE
5
14C
100
AcDbEntity
8
1
62
256
6
ByLayer
370
13
48
1
60
0
100
AcDbSpline
70
4
71
3
72
9
73
5
40
0
40
0
40
0
40
0
40
0.5
40
1
40
1
40
1
40
1
41
1
10
0.346231754735271
20
5.48298633569911
30
0
41
1
10
0.232899532625623
20
5.18014338791093
30
0
41
1
10
0.0209337103502492
20
4.56828325526183
30
0
41
1
10
-0.158294817737129
20
3.94267164195011
30
0
41
1
10
-0.238799999995564
20
3.62603951533933
30
0
0
SPLINE
5
14D
100
AcDbEntity
8
1
62
256
6
ByLayer
370
13
48
1
60
0
100
AcDbSpline
70
4
71
3
72
16
73
12
40
0
40
0
40
0
40
0
40
0.25
40
0.25
40
0.5
40
0.5
40
0.75
40
0.75
40
0.875
40
0.875
40
1
40
1
40
1
40
1
41
1
10
-0.23879999999545
20
3.6260395153391
30
0
41
1
10
-0.247843218077634
20
3.5904719494703
30
0
41
1
10
-0.25583883005234
20
3.55486496976229
30
0
41
1
10
-0.269988790901067
20
3.48356755562369
30
0
41
1
10
-0.276144388265067
20
3.44785672512634
30
0
41
1
10
-0.286539906079639
20
3.37643187577069
30
0
41
1
10
-0.290765735843053
20
3.34087690805032
30
0
41
1
10
-0.295341472884985
20
3.28784696120491
30
0
41
1
10
-0.29656974241405
20
3.270221438368
30
0
41
1
10
-0.298296667463234
20
3.23510274917103
30
0
41
1
10
-0.298799999995282
20
3.2176085344278
30
0
41
1
10
-0.298799999995282
20
3.20021140615964
30
0
0
SPLINE
5
14E
100
AcDbEntity
8
1
62
256
6
ByLayer
370
13
48
1
60
0
100
AcDbSpline
70
4
71
3
72
30
73
26
40
0
40
0
40
0
40
0
40
0.250000000000001
40
0.250000000000001
40
0.374999999999998
40
0.374999999999998
40
0.499999999999995
40
0.499999999999995
40
0.624999999999991
40
0.624999999999991
40
0.687499999999984
40
0.687499999999984
40
0.749999999999977
40
0.749999999999977
40
0.781249999999979
40
0.781249999999979
40
0.812499999999981
40
0.812499999999981
40
0.843749999999984
40
0.843749999999984
40
0.874999999999986
40
0.874999999999986
40
0.937499999999993
40
0.937499999999993
40
1
40
1
40
1
40
1
41
1
10
-0.298799999995168
20
2.78674788328331
30
0
41
1
10
-0.298799999995168
20
2.76837014178162
30
0
41
1
10
-0.298395984705309
20
2.75011998355549
30
0
41
1
10
-0.296826088620179
20
2.72306718945364
30
0
41
1
10
-0.296140070483062
20
2.7141040914278
30
0
41
1
10
-0.294303514833842
20
2.69633781510621
30
0
41
1
10
-0.293153262315883
20
2.6875055630106
30
0
41
1
10
-0.290129181650769
20
2.67030800700334
30
0
41
1
10
-0.288268612967755
20
2.66187795403951
30
0
41
1
10
-0.284416485614116
20
2.65006455067609
30
0
41
1
10
-0.282959678525827
20
2.64628650534971
30
0
41
1
10
-0.279451110427232
20
2.63928438529993
30
0
41
1
10
-0.277418133846737
20
2.63607999865613
30
0
41
1
10
-0.273657231552789
20
2.63233768884592
30
0
41
1
10
-0.272292287095439
20
2.63128803617522
30
0
41
1
10
-0.269339516652423
20
2.62977174665994
30
0
41
1
10
-0.267721333240985
20
2.629305784982
30
0
41
1
10
-0.264417467177992
20
2.62911731603063
30
0
41
1
10
-0.262684935743579
20
2.62938784427254
30
0
41
1
10
-0.259245188030633
20
2.63059011480343
30
0
41
1
10
-0.257546927101458
20
2.63150791241961
30
0
41
1
10
-0.252589926727552
20
2.63493729225641
30
0
41
1
10
-0.249565937549079
20
2.63800941914403
30
0
41
1
10
-0.24387766626765
20
2.64485419171919
30
0
41
1
10
-0.241272925838672
20
2.64856898298214
30
0
41
1
10
-0.238799999995223
20
2.6524453984488
30
0
0
SPLINE
5
14F
100
AcDbEntity
8
1
62
256
6
ByLayer
370
13
48
1
60
0
100
AcDbSpline
70
4
71
3
72
10
73
6
40
0
40
0
40
0
40
0
40
0.5
40
0.5
40
1
40
1
40
1
40
1
41
1
10
-0.238799999995223
20
2.6524453984488
30
0
41
1
10
-0.147071485450539
20
2.79623371036033
30
0
41
1
10
-0.0519675661869599
20
2.93685042935434
30
0
41
1
10
0.14347220214583
20
3.21316784899821
30
0
41
1
10
0.243814008814155
20
3.34886295177753
30
0
41
1
10
0.346231754748459
20
3.48260746349544
30
0
0
SPLINE
5
150
100
AcDbEntity
8
1
62
256
6
ByLayer
370
13
48
1
60
0
100
AcDbSpline
70
4
71
3
72
38
73
34
40
0
40
0
40
0
40
0
40
0.249999999999999
40
0.249999999999999
40
0.374999999999997
40
0.374999999999997
40
0.499999999999996
40
0.499999999999996
40
0.624999999999994
40
0.624999999999994
40
0.687499999999991
40
0.687499999999991
40
0.749999999999989
40
0.749999999999989
40
0.812499999999986
40
0.812499999999986
40
0.843749999999986
40
0.843749999999986
40
0.874999999999986
40
0.874999999999986
40
0.906249999999986
40
0.906249999999986
40
0.921874999999989
40
0.921874999999989
40
0.937499999999991
40
0.937499999999991
40
0.953124999999993
40
0.953124999999993
40
0.968749999999995
40
0.968749999999995
40
0.984374999999998
40
0.984374999999998
40
1
40
1
40
1
40
1
41
1
10
0.346231754735271
20
2.81188209234014
30
0
41
1
10
0.358050621202068
20
2.87649835408283
30
0
41
1
10
0.368765017116033
20
2.9410614707671
30
0
41
1
10
0.382934141384538
20
3.03782818056263
30
0
41
1
10
0.38733185800308
20
3.07006123451723
30
0
41
1
10
0.395311506945717
20
3.13431249233364
30
0
41
1
10
0.398899870351414
20
3.16635190433951
30
0
41
1
10
0.404992648725937
20
3.23022145859974
30
0
41
1
10
0.407508650405447
20
3.26205310117391
30
0
41
1
10
0.410022262748811
20
3.30958525948884
30
0
41
1
10
0.410645008839964
20
3.32536377838054
30
0
41
1
10
0.411303653891849
20
3.35667740017371
30
0
41
1
10
0.411344401831201
20
3.37222346951202
30
0
41
1
10
0.410553662434921
20
3.4029949898131
30
0
41
1
10
0.409731328977472
20
3.41828961427089
30
0
41
1
10
0.407360856705594
20
3.44052910747573
30
0
41
1
10
0.406379563266199
20
3.44782270939859
30
0
41
1
10
0.40384260295329
20
3.462055916776
30
0
41
1
10
0.402284985516275
20
3.46903915100543
30
0
41
1
10
0.39822003071194
20
3.48222152929654
30
0
41
1
10
0.395767056930794
20
3.48837800350694
30
0
41
1
10
0.390712521459676
20
3.49620618404831
30
0
41
1
10
0.388789041888771
20
3.4985545211488
30
0
41
1
10
0.384395869130657
20
3.5022313682567
30
0
41
1
10
0.381900680713414
20
3.50355579751701
30
0
41
1
10
0.376493595889173
20
3.50466816096153
30
0
41
1
10
0.373527446873226
20
3.5044409099427
30
0
41
1
10
0.367634594317195
20
3.50252602936169
30
0
41
1
10
0.364664209066262
20
3.50085278420065
30
0
41
1
10
0.359019394525461
20
3.49668705450833
30
0
41
1
10
0.356270310422104
20
3.49415072057209
30
0
41
1
10
0.351080519440956
20
3.4886752319151
30
0
41
1
10
0.34861268325605
20
3.48571665245029
30
0
41
1
10
0.346231754736408
20
3.48260746351613
30
0
0
SPLINE
5
151
100
AcDbEntity
8
1
62
256
6
ByLayer
370
13
48
1
60
0
100
AcDbSpline
70
4
71
3
72
40
73
36
40
0
40
0
40
0
40
0
40
0.0156250000000024
40
0.0156250000000024
40
0.0312500000000049
40
0.0312500000000049
40
0.0468750000000073
40
0.0468750000000073
40
0.0546875000000108
40
0.0546875000000108
40
0.0625000000000143
40
0.0625000000000143
40
0.0781250000000163
40
0.0781250000000163
40
0.0937500000000184
40
0.0937500000000184
40
0.125000000000017
40
0.125000000000017
40
0.156250000000016
40
0.156250000000016
40
0.187500000000015
40
0.187500000000015
40
0.250000000000012
40
0.250000000000012
40
0.31250000000001
40
0.31250000000001
40
0.375000000000007
40
0.375000000000007
40
0.500000000000006
40
0.500000000000006
40
0.625000000000004
40
0.625000000000004
40
0.750000000000003
40
0.750000000000003
40
1
40
1
40
1
40
1
41
1
10
0.346231754735271
20
-3.4826074634743
30
0
41
1
10
0.348611227465966
20
-3.4857147513334
30
0
41
1
10
0.351077998381214
20
-3.48867230945908
30
0
41
1
10
0.356267185060091
20
-3.49414768538199
30
0
41
1
10
0.359027684975075
20
-3.49669803791809
30
0
41
1
10
0.364737100567453
20
-3.50090164133147
30
0
41
1
10
0.367734283977342
20
-3.50257559072659
30
0
41
1
10
0.372170985541033
20
-3.503991052195
30
0
41
1
10
0.373636167683543
20
-3.50428377077159
30
0
41
1
10
0.376536724407941
20
-3.50447945629716
30
0
41
1
10
0.377980400522205
20
-3.5043759690943
30
0
41
1
10
0.382071650792881
20
-3.50349093258066
30
0
41
1
10
0.384580324214397
20
-3.50211514801887
30
0
41
1
10
0.388958571604888
20
-3.4983712656925
30
0
41
1
10
0.390865882425914
20
-3.49600644900986
30
0
41
1
10
0.395932306769367
20
-3.48804098418677
30
0
41
1
10
0.398383836360466
20
-3.48179143362105
30
0
41
1
10
0.402440707871023
20
-3.46842477868589
30
0
41
1
10
0.403977285476884
20
-3.46141076136976
30
0
41
1
10
0.406485627639398
20
-3.44710611416801
30
0
41
1
10
0.407453183832189
20
-3.4397888503087
30
0
41
1
10
0.409786042422496
20
-3.4175041166105
30
0
41
1
10
0.410592750914447
20
-3.40215793012706
30
0
41
1
10
0.411351913965945
20
-3.37120471176527
30
0
41
1
10
0.411294027658954
20
-3.35563434857957
30
0
41
1
10
0.410610854392047
20
-3.32436496120405
30
0
41
1
10
0.409980806315019
20
-3.30866502803306
30
0
41
1
10
0.407459879221818
20
-3.26141445702515
30
0
41
1
10
0.404948955683352
20
-3.22971510666608
30
0
41
1
10
0.398864803571627
20
-3.16603326081756
30
0
41
1
10
0.39528071792185
20
-3.13404868838629
30
0
41
1
10
0.38730301169582
20
-3.069844980613
30
0
41
1
10
0.382903492045187
20
-3.03761056561379
30
0
41
1
10
0.368746584977515
20
-2.94095225680039
30
0
41
1
10
0.358041632729936
20
-2.8764492121862
30
0
41
1
10
0.346231754735271
20
-2.81188209233611
30
0
0
SPLINE
5
152
100
AcDbEntity
8
1
62
256
6
ByLayer
370
13
48
1
60
0
100
AcDbSpline
70
4
71
3
72
10
73
6
40
0
40
0
40
0
40
0
40
0.5
40
0.5
40
1
40
1
40
1
40
1
41
1
10
0.346231754735271
20
-3.4826074634743
30
0
41
1
10
0.243814008803469
20
-3.348862951759
30
0
41
1
10
0.143472202137303
20
-3.21316784898247
30
0
41
1
10
-0.0519675661910526
20
-2.93685042934416
30
0
41
1
10
-0.147071485452585
20
-2.79623371035316
30
0
41
1
10
-0.238799999995223
20
-2.65244539844477
30
0
0
SPLINE
5
153
100
AcDbEntity
8
1
62
256
6
ByLayer
370
13
48
1
60
0
100
AcDbSpline
70
4
71
3
72
30
73
26
40
0
40
0
40
0
40
0
40
0.0624999999999945
40
0.0624999999999945
40
0.124999999999989
40
0.124999999999989
40
0.156249999999992
40
0.156249999999992
40
0.187499999999996
40
0.187499999999996
40
0.218749999999999
40
0.218749999999999
40
0.250000000000003
40
0.250000000000003
40
0.312499999999998
40
0.312499999999998
40
0.374999999999993
40
0.374999999999993
40
0.499999999999994
40
0.499999999999994
40
0.624999999999995
40
0.624999999999995
40
0.749999999999997
40
0.749999999999997
40
1
40
1
40
1
40
1
41
1
10
-0.238799999995223
20
-2.65244539844477
30
0
41
1
10
-0.24128427131032
20
-2.64855119847326
30
0
41
1
10
-0.243900054474835
20
-2.64482269137639
30
0
41
1
10
-0.249607962591455
20
-2.63796346183088
30
0
41
1
10
-0.25270501805133
20
-2.63483001890737
30
0
41
1
10
-0.257692334575523
20
-2.63142200177876
30
0
41
1
10
-0.259380059754477
20
-2.63052661177878
30
0
41
1
10
-0.262821029894468
20
-2.6293579787845
30
0
41
1
10
-0.264579240001837
20
-2.6291021459339
30
0
41
1
10
-0.267912787949427
20
-2.62934383160027
30
0
41
1
10
-0.26953280741705
20
-2.62984199346451
30
0
41
1
10
-0.272492235896635
20
-2.6314238460096
30
0
41
1
10
-0.273867654940801
20
-2.63251703452417
30
0
41
1
10
-0.27759826807133
20
-2.63632719568969
30
0
41
1
10
-0.27963109900125
20
-2.63958921990419
30
0
41
1
10
-0.283112918696389
20
-2.64665215484089
30
0
41
1
10
-0.284551839648231
20
-2.65043762248726
30
0
41
1
10
-0.28835241958339
20
-2.66222516209447
30
0
41
1
10
-0.290210733822079
20
-2.67070333468339
30
0
41
1
10
-0.293207175921026
20
-2.6878837707072
30
0
41
1
10
-0.294337443546652
20
-2.69662518160018
30
0
41
1
10
-0.296154521613659
20
-2.71428583714217
30
0
41
1
10
-0.296835566697865
20
-2.72320753549846
30
0
41
1
10
-0.298395715978728
20
-2.75016173229281
30
0
41
1
10
-0.298799999995964
20
-2.76837985267119
30
0
41
1
10
-0.298799999995964
20
-2.78674788327899
30
0
0
SPLINE
5
154
100
AcDbEntity
8
1
62
256
6
ByLayer
370
13
48
1
60
0
100
AcDbSpline
70
4
71
3
72
16
73
12
40
0
40
0
40
0
40
0
40
0.125
40
0.125
40
0.25
40
0.25
40
0.5
40
0.5
40
0.75
40
0.75
40
1
40
1
40
1
40
1
41
1
10
-0.298799999995282
20
-3.2002114061556
30
0
41
1
10
-0.298799999995282
20
-3.21760546653567
30
0
41
1
10
-0.29829680111348
20
-3.23510015504067
30
0
41
1
10
-0.296569565654551
20
-3.27022490915661
30
0
41
1
10
-0.295340876277265
20
-3.28785605266799
30
0
41
1
10
-0.290762573387866
20
-3.34090920151746
30
0
41
1
10
-0.286528932396237
20
-3.37651757297661
30
0
41
1
10
-0.276131235785812
20
-3.4479367684547
30
0
41
1
10
-0.269981294962378
20
-3.48360762164989
30
0
41
1
10
-0.255836062673012
20
-3.5548766158465
30
0
41
1
10
-0.247842517337773
20
-3.59047470552238
30
0
41
1
10
-0.238799999995564
20
-3.62603951533507
30
0
0
SPLINE
5
155
100
AcDbEntity
8
1
62
256
6
ByLayer
370
13
48
1
60
0
100
AcDbSpline
70
4
71
3
72
9
73
5
40
0
40
0
40
0
40
0
40
0.5
40
1
40
1
40
1
40
1
41
1
10
-0.238799999995564
20
-3.62603951533529
30
0
41
1
10
-0.158294817737129
20
-3.94267164194608
30
0
41
1
10
0.020933507700164
20
-4.56828334038201
30
0
41
1
10
0.232899532625623
20
-5.1801433879069
30
0
41
1
10
0.346231754735271
20
-5.48298633569507
30
0
0
SPLINE
5
156
100
AcDbEntity
8
1
62
256
6
ByLayer
370
13
48
1
60
0
100
AcDbSpline
70
4
71
3
72
36
73
32
40
0
40
0
40
0
40
0
40
0.250000000000008
40
0.250000000000008
40
0.375000000000009
40
0.375000000000009
40
0.50000000000001
40
0.50000000000001
40
0.562500000000011
40
0.562500000000011
40
0.625000000000011
40
0.625000000000011
40
0.687500000000012
40
0.687500000000012
40
0.750000000000013
40
0.750000000000013
40
0.781250000000011
40
0.781250000000011
40
0.81250000000001
40
0.81250000000001
40
0.843750000000008
40
0.843750000000008
40
0.875000000000006
40
0.875000000000006
40
0.906250000000005
40
0.906250000000005
40
0.937500000000003
40
0.937500000000003
40
0.968750000000002
40
0.968750000000002
40
1
40
1
40
1
40
1
41
1
10
0.346231754735385
20
-5.48298633569507
30
0
41
1
10
0.359847635996147
20
-5.5193702831817
30
0
41
1
10
0.371701060952063
20
-5.55550204342288
30
0
41
1
10
0.386786297610769
20
-5.6093003009826
30
0
41
1
10
0.391355820336315
20
-5.62716542405357
30
0
41
1
10
0.399398998017063
20
-5.66273749153717
30
0
41
1
10
0.402880099327234
20
-5.68044531587586
30
0
41
1
10
0.406969381488665
20
-5.7068504820875
30
0
41
1
10
0.408139479084269
20
-5.71562689760421
30
0
41
1
10
0.409969789580458
20
-5.7328683080195
30
0
41
1
10
0.410636118104406
20
-5.74136150539417
30
0
41
1
10
0.411320305001794
20
-5.75801999238595
30
0
41
1
10
0.411339834897802
20
-5.76622186865089
30
0
41
1
10
0.410457951243842
20
-5.78198854631327
30
0
41
1
10
0.409569793956251
20
-5.78952751234667
30
0
41
1
10
0.407186923516377
20
-5.80003655850859
30
0
41
1
10
0.406208057407497
20
-5.8034162770019
30
0
41
1
10
0.403823872505171
20
-5.80967572346467
30
0
41
1
10
0.40241810795689
20
-5.81257141616149
30
0
41
1
10
0.399037808928568
20
-5.81774279093835
30
0
41
1
10
0.397050331275494
20
-5.82001526290961
30
0
41
1
10
0.392500013072407
20
-5.82354395375577
30
0
41
1
10
0.389876827475149
20
-5.82483691467101
30
0
41
1
10
0.384099151550544
20
-5.82614977688687
30
0
41
1
10
0.380981025232217
20
-5.82618199423169
30
0
41
1
10
0.374278610461232
20
-5.8249815919522
30
0
41
1
10
0.370768091748772
20
-5.82375127097859
30
0
41
1
10
0.363701848834666
20
-5.82031099908207
30
0
41
1
10
0.360104730084998
20
-5.81808116000397
30
0
41
1
10
0.353097277544151
20
-5.81302053335341
30
0
41
1
10
0.349644735162627
20
-5.81017002147107
30
0
41
1
10
0.346231754735271
20
-5.80707297081838
30
0
0
SPLINE
5
157
100
AcDbEntity
8
1
62
256
6
ByLayer
370
13
48
1
60
0
100
AcDbSpline
70
4
71
3
72
8
73
4
40
0
40
0
40
0
40
0
40
1
40
1
40
1
40
1
41
1
10
-0.238799999995223
20
-5.27110877641459
30
0
41
1
10
-0.0445739805076357
20
-5.45090536409637
30
0
41
1
10
0.150503507817433
20
-5.62946272435997
30
0
41
1
10
0.346231754735271
20
-5.80707297081816
30
0
0
SPLINE
5
158
100
AcDbEntity
8
1
62
256
6
ByLayer
370
13
48
1
60
0
100
AcDbSpline
70
4
71
3
72
22
73
18
40
0
40
0
40
0
40
0
40
0.250000000000009
40
0.250000000000009
40
0.375000000000008
40
0.375000000000008
40
0.500000000000008
40
0.500000000000008
40
0.625000000000007
40
0.625000000000007
40
0.750000000000006
40
0.750000000000006
40
0.812500000000004
40
0.812500000000004
40
0.875000000000003
40
0.875000000000003
40
1
40
1
40
1
40
1
41
1
10
-0.298800000026091
20
-5.3155693283675
30
0
41
1
10
-0.298800000027569
20
-5.30511179614919
30
0
41
1
10
-0.298166569130814
20
-5.2950423656259
30
0
41
1
10
-0.295537526695654
20
-5.28098623421587
30
0
41
1
10
-0.294376407691885
20
-5.27652146564938
30
0
41
1
10
-0.291316716599482
20
-5.26840395339556
30
0
41
1
10
-0.289421446174316
20
-5.26471844885808
30
0
41
1
10
-0.284482400310054
20
-5.25852851360068
30
0
41
1
10
-0.281507089489111
20
-5.25613964050225
30
0
41
1
10
-0.274294177395774
20
-5.25351102423926
30
0
41
1
10
-0.270228327402293
20
-5.25335709562117
30
0
41
1
10
-0.263587471157308
20
-5.25490793451345
30
0
41
1
10
-0.261340993860955
20
-5.25570422909706
30
0
41
1
10
-0.256791433080849
20
-5.25777941401796
30
0
41
1
10
-0.254471834523571
20
-5.25907096211418
30
0
41
1
10
-0.247630320464424
20
-5.26345550482486
30
0
41
1
10
-0.243178696812294
20
-5.26705538156941
30
0
41
1
10
-0.238799999995223
20
-5.27110877641459
30
0
0
SPLINE
5
159
100
AcDbEntity
8
1
62
256
6
ByLayer
370
13
48
1
60
0
100
AcDbSpline
70
4
71
3
72
18
73
14
40
0
40
0
40
0
40
0
40
0.250000000000004
40
0.250000000000004
40
0.500000000000009
40
0.500000000000009
40
0.625000000000006
40
0.625000000000006
40
0.750000000000004
40
0.750000000000004
40
0.875000000000002
40
0.875000000000002
40
1
40
1
40
1
40
1
41
1
10
-0.23879999999545
20
-5.7466548030736
30
0
41
1
10
-0.247311860521023
20
-5.72659990713649
30
0
41
1
10
-0.255009862845014
20
-5.70661864818138
30
0
41
1
10
-0.26887064183282
20
-5.66678588708047
30
0
41
1
10
-0.275034758051248
20
-5.64693429670317
30
0
41
1
10
-0.282998464796293
20
-5.61726381037826
30
0
41
1
10
-0.285437265773481
20
-5.60739168872348
30
0
41
1
10
-0.289823177299724
20
-5.58768925131668
30
0
41
1
10
-0.291775766060965
20
-5.57783152194256
30
0
41
1
10
-0.295061901803393
20
-5.55829285121197
30
0
41
1
10
-0.296388120887428
20
-5.54867003181616
30
0
41
1
10
-0.298254708679025
20
-5.5297923520254
30
0
41
1
10
-0.298799999994827
20
-5.52053505662596
30
0
41
1
10
-0.298799999995168
20
-5.5115369475553
30
0
0
SPLINE
5
15A
100
AcDbEntity
8
1
62
256
6
ByLayer
370
13
48
1
60
0
100
AcDbSpline
70
4
71
3
72
8
73
4
40
0
40
0
40
0
40
0
40
1
40
1
40
1
40
1
41
1
10
0.346231754735271
20
-7.0067537000842
30
0
41
1
10
0.138815720831161
20
-6.59440006784277
30
0
41
1
10
-0.0570438443394607
20
-6.17489264562519
30
0
41
1
10
-0.238799999995223
20
-5.7466548030736
30
0
0
SPLINE
5
15B
100
AcDbEntity
8
1
62
256
6
ByLayer
370
13
48
1
60
0
100
AcDbSpline
70
4
71
3
72
34
73
30
40
0
40
0
40
0
40
0
40
0.0312499999999938
40
0.0312499999999938
40
0.0624999999999876
40
0.0624999999999876
40
0.124999999999982
40
0.124999999999982
40
0.156249999999982
40
0.156249999999982
40
0.187499999999982
40
0.187499999999982
40
0.218749999999982
40
0.218749999999982
40
0.249999999999983
40
0.249999999999983
40
0.31249999999998
40
0.31249999999998
40
0.374999999999978
40
0.374999999999978
40
0.499999999999982
40
0.499999999999982
40
0.624999999999987
40
0.624999999999987
40
0.749999999999991
40
0.749999999999991
40
0.874999999999995
40
0.874999999999995
40
1
40
1
40
1
40
1
41
1
10
0.346231754735271
20
-7.2243088411403
30
0
41
1
10
0.349138962058731
20
-7.22671982739141
30
0
41
1
10
0.352053594056855
20
-7.228997192143
30
0
41
1
10
0.357900373190176
20
-7.23323589782106
30
0
41
1
10
0.3608541646731
20
-7.23520980893196
30
0
41
1
10
0.369556244736003
20
-7.24043737387225
30
0
41
1
10
0.37514169569144
20
-7.2430196351265
30
0
41
1
10
0.383097318685572
20
-7.24511618959596
30
0
41
1
10
0.38563206976059
20
-7.2454967073522
30
0
41
1
10
0.39032023561262
20
-7.24559608126478
30
0
41
1
10
0.392497536790387
20
-7.24532171076467
30
0
41
1
10
0.396520333041366
20
-7.24412633237736
30
0
41
1
10
0.398359709425762
20
-7.24319766904941
30
0
41
1
10
0.401586778928134
20
-7.24080999722517
30
0
41
1
10
0.402997071161138
20
-7.23934624810838
30
0
41
1
10
0.406689835498213
20
-7.2342380923599
30
0
41
1
10
0.408363698600368
20
-7.22999031864808
30
0
41
1
10
0.410571216714715
20
-7.22045272576909
30
0
41
1
10
0.411106919175921
20
-7.2150922508944
30
0
41
1
10
0.411422276413504
20
-7.19826874362937
30
0
41
1
10
0.409998357091666
20
-7.1859453654225
30
0
41
1
10
0.405160435557121
20
-7.15999771055326
30
0
41
1
10
0.401784098233719
20
-7.14667789060499
30
0
41
1
10
0.393707631364663
20
-7.11955332215658
30
0
41
1
10
0.388995514435891
20
-7.10574442488408
30
0
41
1
10
0.378447687356896
20
-7.07771387141597
30
0
41
1
10
0.372612642909388
20
-7.06351183392181
30
0
41
1
10
0.360092094073451
20
-7.03517086760488
30
0
41
1
10
0.353384803487387
20
-7.02097432507148
30
0
41
1
10
0.346231754735271
20
-7.0067537000842
30
0
0
SPLINE
5
15C
100
AcDbEntity
8
1
62
256
6
ByLayer
370
13
48
1
60
0
100
AcDbSpline
70
4
71
3
72
8
73
4
40
0
40
0
40
0
40
0
40
1
40
1
40
1
40
1
41
1
10
0.346231754735271
20
-7.2243088411399
30
0
41
1
10
0.151147848200111
20
-7.06252312580071
30
0
41
1
10
-0.04386796045506
20
-6.90062804647076
30
0
41
1
10
-0.238799999994086
20
-6.7385984354224
30
0
0
SPLINE
5
15D
100
AcDbEntity
8
1
62
256
6
ByLayer
370
13
48
1
60
0
100
AcDbSpline
70
4
71
3
72
20
73
16
40
0
40
0
40
0
40
0
40
0.125000000000022
40
0.125000000000022
40
0.250000000000043
40
0.250000000000043
40
0.312500000000046
40
0.312500000000046
40
0.375000000000048
40
0.375000000000048
40
0.500000000000038
40
0.500000000000038
40
0.750000000000019
40
0.750000000000019
40
1
40
1
40
1
40
1
41
1
10
-0.238799999993972
20
-6.73859843542206
30
0
41
1
10
-0.242899956306047
20
-6.73519050757128
30
0
41
1
10
-0.247018398433653
20
-6.73207088082606
30
0
41
1
10
-0.255304263143813
20
-6.72659419294897
30
0
41
1
10
-0.25937849402149
20
-6.72430467750868
30
0
41
1
10
-0.265264845946177
20
-6.72173689482347
30
0
41
1
10
-0.267194115788954
20
-6.72102286986959
30
0
41
1
10
-0.270978754435333
20
-6.71991323315436
30
0
41
1
10
-0.272837949412434
20
-6.71952073905086
30
0
41
1
10
-0.278090306898577
20
-6.71889345998031
30
0
41
1
10
-0.281231628288111
20
-6.7191800209653
30
0
41
1
10
-0.289586791188327
20
-6.72212118175301
30
0
41
1
10
-0.293355453525038
20
-6.72682384379587
30
0
41
1
10
-0.297900918657007
20
-6.73884506041921
30
0
41
1
10
-0.298799999995509
20
-6.7462407295674
30
0
41
1
10
-0.298799999995509
20
-6.75422762459337
30
0
0
SPLINE
5
15E
100
AcDbEntity
8
1
62
256
6
ByLayer
370
13
48
1
60
0
100
AcDbSpline
70
4
71
3
72
16
73
12
40
0
40
0
40
0
40
0
40
0.124999999999997
40
0.124999999999997
40
0.249999999999995
40
0.249999999999995
40
0.499999999999996
40
0.499999999999996
40
0.749999999999998
40
0.749999999999998
40
1
40
1
40
1
40
1
41
1
10
-0.298799999995282
20
-6.88387434547926
30
0
41
1
10
-0.2987999999946
20
-6.88981192257771
30
0
41
1
10
-0.298262682421097
20
-6.89609483055565
30
0
41
1
10
-0.296390309399868
20
-6.9091694038822
30
0
41
1
10
-0.29504272922523
20
-6.91599803173207
30
0
41
1
10
-0.290062356584286
20
-6.93686268198709
30
0
41
1
10
-0.285558047242745
20
-6.95114879840295
30
0
41
1
10
-0.274848481941291
20
-6.9802574488622
30
0
41
1
10
-0.268597178422652
20
-6.99514998062179
30
0
41
1
10
-0.254686214042323
20
-7.02511670269567
30
0
41
1
10
-0.247066153606653
20
-7.04011601447209
30
0
41
1
10
-0.238799999995223
20
-7.05513432080559
30
0
0
SPLINE
5
15F
100
AcDbEntity
8
1
62
256
6
ByLayer
370
13
48
1
60
0
100
AcDbSpline
70
4
71
3
72
8
73
4
40
0
40
0
40
0
40
0
40
1
40
1
40
1
40
1
41
1
10
-0.238799999995223
20
-7.05513432080559
30
0
41
1
10
-0.0509572220557004
20
-7.39641522534967
30
0
41
1
10
0.144484512004027
20
-7.7318109443863
30
0
41
1
10
0.346231754735271
20
-8.06232321789869
30
0
0
SPLINE
5
160
100
AcDbEntity
8
1
62
256
6
ByLayer
370
13
48
1
60
0
100
AcDbSpline
70
4
71
3
72
40
73
36
40
0
40
0
40
0
40
0
40
0.0625000000000105
40
0.0625000000000105
40
0.0937500000000159
40
0.0937500000000159
40
0.125000000000021
40
0.125000000000021
40
0.187500000000021
40
0.187500000000021
40
0.25000000000002
40
0.25000000000002
40
0.312500000000019
40
0.312500000000019
40
0.375000000000018
40
0.375000000000018
40
0.500000000000019
40
0.500000000000019
40
0.562500000000015
40
0.562500000000015
40
0.625000000000011
40
0.625000000000011
40
0.687500000000008
40
0.687500000000008
40
0.750000000000004
40
0.750000000000004
40
0.8125
40
0.8125
40
0.874999999999996
40
0.874999999999996
40
0.906249999999996
40
0.906249999999996
40
0.937499999999996
40
0.937499999999996
40
1
40
1
40
1
40
1
41
1
10
16.1055692208189
20
-9.0126771070222
30
0
41
1
10
16.091746798956
20
-9.00374772100488
30
0
41
1
10
16.0767179707369
20
-8.99738489774191
30
0
41
1
10
16.0529433077766
20
-8.99038789735627
30
0
41
1
10
16.0447812068888
20
-8.98849206863108
30
0
41
1
10
16.0283130451217
20
-8.98550779518237
30
0
41
1
10
16.0199832933507
20
-8.98441032386316
30
0
41
1
10
15.9947370034331
20
-8.98213810158077
30
0
41
1
10
15.9776033498902
20
-8.98198457123706
30
0
41
1
10
15.9432103833145
20
-8.9838299120162
30
0
41
1
10
15.925913948789
20
-8.9858329379949
30
0
41
1
10
15.8913918453904
20
-8.99163029393421
30
0
41
1
10
15.8741530391662
20
-8.99542917725378
30
0
41
1
10
15.8399657424331
20
-9.00455526023407
30
0
41
1
10
15.8229491479073
20
-9.00990048032477
30
0
41
1
10
15.7723412511075
20
-9.02804833754865
30
0
41
1
10
15.7395340425648
20
-9.04279048339359
30
0
41
1
10
15.6916245848535
20
-9.06865788568356
30
0
41
1
10
15.6760058588821
20
-9.07784455004307
30
0
41
1
10
15.645476542491
20
-9.09735124062027
30
0
41
1
10
15.6305287787421
20
-9.10769973354681
30
0
41
1
10
15.6015920937836
20
-9.1294431699225
30
0
41
1
10
15.5876084603064
20
-9.14082768108941
30
0
41
1
10
15.5606843998877
20
-9.16471162306451
30
0
41
1
10
15.5477362179973
20
-9.17722452519709
30
0
41
1
10
15.5233212661612
20
-9.20322759289067
30
0
41
1
10
15.5117837239334
20
-9.216786396792
30
0
41
1
10
15.490524894623
20
-9.24499215271047
30
0
41
1
10
15.4808239363537
20
-9.25959569025829
30
0
41
1
10
15.4680895107643
20
-9.28240882374777
30
0
41
1
10
15.4641726207436
20
-9.29012563078746
30
0
41
1
10
15.4570922780476
20
-9.30582403836226
30
0
41
1
10
15.4539182444265
20
-9.31383782899476
30
0
41
1
10
15.4458438421879
20
-9.3380770145798
30
0
41
1
10
15.4423187259295
20
-9.35447982506841
30
0
41
1
10
15.4415650166497
20
-9.37127304256026
30
0
0
SPLINE
5
161
100
AcDbEntity
8
1
62
256
6
ByLayer
370
13
48
1
60
0
100
AcDbSpline
70
4
71
3
72
8
73
4
40
0
40
0
40
0
40
0
40
1
40
1
40
1
40
1
41
1
10
15.4415650166497
20
-9.37127304256026
30
0
41
1
10
15.4412503533639
20
-9.37828398051451
30
0
41
1
10
15.4409357356379
20
-9.38529420650806
30
0
41
1
10
15.4406211617579
20
-9.39230374698749
30
0
0
SPLINE
5
162
100
AcDbEntity
8
1
62
256
6
ByLayer
370
13
48
1
60
0
100
AcDbSpline
70
4
71
3
72
32
73
28
40
0
40
0
40
0
40
0
40
0.0624999999999876
40
0.0624999999999876
40
0.124999999999975
40
0.124999999999975
40
0.156249999999973
40
0.156249999999973
40
0.187499999999972
40
0.187499999999972
40
0.249999999999973
40
0.249999999999973
40
0.312499999999974
40
0.312499999999974
40
0.374999999999975
40
0.374999999999975
40
0.437499999999976
40
0.437499999999976
40
0.499999999999977
40
0.499999999999977
40
0.624999999999983
40
0.624999999999983
40
0.749999999999988
40
0.749999999999988
40
0.874999999999994
40
0.874999999999994
40
1
40
1
40
1
40
1
41
1
10
15.4406211617579
20
-9.39230374698749
30
0
41
1
10
15.4440320352632
20
-9.401903720322
30
0
41
1
10
15.4461935996108
20
-9.41171839664119
30
0
41
1
10
15.4476971492335
20
-9.43183188000606
30
0
41
1
10
15.4469720231299
20
-9.44224055588037
30
0
41
1
10
15.44368163633
20
-9.45724487825331
30
0
41
1
10
15.4422266008829
20
-9.46218223155907
30
0
41
1
10
15.438620953734
20
-9.4719307453428
30
0
41
1
10
15.4364525372784
20
-9.4767712521419
30
0
41
1
10
15.4290964707124
20
-9.49079254037136
30
0
41
1
10
15.4230660431315
20
-9.49953475098451
30
0
41
1
10
15.4091781188382
20
-9.51602268668577
30
0
41
1
10
15.401475567925
20
-9.52358057062756
30
0
41
1
10
15.385059236735
20
-9.53752867968277
30
0
41
1
10
15.3763189555197
20
-9.54394164915536
30
0
41
1
10
15.3579803053594
20
-9.55585255660728
30
0
41
1
10
15.348421779249
20
-9.56131811192509
30
0
41
1
10
15.328890284279
20
-9.5713294664092
30
0
41
1
10
15.3188815827834
20
-9.57589681777816
30
0
41
1
10
15.2882429961374
20
-9.58848421317796
30
0
41
1
10
15.2672150849316
20
-9.59531918073506
30
0
41
1
10
15.2243969554669
20
-9.60657219887688
30
0
41
1
10
15.2026710777161
20
-9.61096305814326
30
0
41
1
10
15.1588604772223
20
-9.61764464775749
30
0
41
1
10
15.1367750030527
20
-9.61992989608476
30
0
41
1
10
15.0925588169996
20
-9.6225691513865
30
0
41
1
10
15.0704446453503
20
-9.62292495170576
30
0
41
1
10
15.0483246990513
20
-9.62235100473501
30
0
0
SPLINE
5
163
100
AcDbEntity
8
1
62
256
6
ByLayer
370
13
48
1
60
0
100
AcDbSpline
70
4
71
3
72
8
73
4
40
0
40
0
40
0
40
0
40
1
40
1
40
1
40
1
41
1
10
16.1228705122709
20
-9.02385450738726
30
0
41
1
10
16.1171041575555
20
-9.020128976655
30
0
41
1
10
16.1113370699272
20
-9.01640317989771
30
0
41
1
10
16.1055692208189
20
-9.0126771070222
30
0
0
SPLINE
5
164
100
AcDbEntity
8
1
62
256
6
ByLayer
370
13
48
1
60
0
100
AcDbSpline
70
4
71
3
72
31
73
27
40
0
40
0
40
0
40
0
40
0.250000000000015
40
0.250000000000015
40
0.375000000000025
40
0.375000000000025
40
0.500000000000035
40
0.500000000000035
40
0.562500000000041
40
0.562500000000041
40
0.625000000000046
40
0.625000000000046
40
0.687500000000051
40
0.687500000000051
40
0.750000000000056
40
0.750000000000056
40
0.781250000000049
40
0.781250000000049
40
0.812500000000042
40
0.843750000000035
40
0.843750000000035
40
0.875000000000028
40
0.875000000000028
40
0.937500000000014
40
0.937500000000014
40
1
40
1
40
1
40
1
41
1
10
16.5216477130523
20
-8.82668187909067
30
0
41
1
10
16.4985368384157
20
-8.86418528475579
30
0
41
1
10
16.4722684275185
20
-8.8998769007446
30
0
41
1
10
16.4283799306138
20
-8.94901549662418
30
0
41
1
10
16.4129720745129
20
-8.96467986949565
30
0
41
1
10
16.3805543327165
20
-8.9940426801422
30
0
41
1
10
16.3635301677933
20
-9.00776354313896
30
0
41
1
10
16.336689316466
20
-9.02621743777107
30
0
41
1
10
16.3275054929962
20
-9.03202183805698
30
0
41
1
10
16.3087415054667
20
-9.04269775129606
30
0
41
1
10
16.2991012364172
20
-9.04760108000809
30
0
41
1
10
16.2795380108991
20
-9.05617345749491
30
0
41
1
10
16.2696408392819
20
-9.0598385602415
30
0
41
1
10
16.2495771033565
20
-9.065651866195
30
0
41
1
10
16.2394113143948
20
-9.06780513204799
30
0
41
1
10
16.2239092881673
20
-9.06954367503997
30
0
41
1
10
16.2186637889692
20
-9.06987164206006
30
0
41
1
10
16.2082829750063
20
-9.06993192359758
30
0
41
1
10
16.1980187797435
20
-9.06940533175018
30
0
41
1
10
16.1880119128707
20
-9.06760875896336
30
0
41
1
10
16.1781491980707
20
-9.06511247400115
30
0
41
1
10
16.1732883799847
20
-9.06350566534658
30
0
41
1
10
16.1593892857352
20
-9.05773382909817
30
0
41
1
10
16.1508746604004
20
-9.05259136528858
30
0
41
1
10
16.1353635384126
20
-9.03971200955456
30
0
41
1
10
16.1286554153488
20
-9.03221507646541
30
0
41
1
10
16.1228705122709
20
-9.02385450738726
30
0
0
SPLINE
5
165
100
AcDbEntity
8
1
62
256
6
ByLayer
370
13
48
1
60
0
100
AcDbSpline
70
4
71
3
72
8
73
4
40
0
40
0
40
0
40
0
40
1
40
1
40
1
40
1
41
1
10
14.6677646265221
20
-9.37225041316449
30
0
41
1
10
14.6677868214196
20
-9.3652332863181
30
0
41
1
10
14.6678090228154
20
-9.35821547298841
30
0
41
1
10
14.6678312309676
20
-9.3511969466912
30
0
0
SPLINE
5
166
100
AcDbEntity
8
1
62
256
6
ByLayer
370
13
48
1
60
0
100
AcDbSpline
70
4
71
3
72
40
73
36
40
0
40
0
40
0
40
0
40
0.0625000000000007
40
0.0625000000000007
40
0.0937500000000037
40
0.0937500000000037
40
0.125000000000007
40
0.125000000000007
40
0.187500000000007
40
0.187500000000007
40
0.250000000000008
40
0.250000000000008
40
0.312500000000008
40
0.312500000000008
40
0.375000000000009
40
0.375000000000009
40
0.50000000000001
40
0.50000000000001
40
0.625000000000011
40
0.625000000000011
40
0.687500000000012
40
0.687500000000012
40
0.750000000000012
40
0.750000000000012
40
0.812500000000013
40
0.812500000000013
40
0.843750000000012
40
0.843750000000012
40
0.87500000000001
40
0.87500000000001
40
0.937500000000002
40
0.937500000000002
40
0.968750000000001
40
0.968750000000001
40
1
40
1
40
1
40
1
41
1
10
14.0236766060049
20
-8.95865817118468
30
0
41
1
10
14.0378870312154
20
-8.95044622100707
30
0
41
1
10
14.0531744947992
20
-8.944865954064
30
0
41
1
10
14.0772090360985
20
-8.93910828034197
30
0
41
1
10
14.085435494754
20
-8.93763824303076
30
0
41
1
10
14.1019919835435
20
-8.93551345527706
30
0
41
1
10
14.110346393093
20
-8.9348508685782
30
0
41
1
10
14.1356164732424
20
-8.93389710397278
30
0
41
1
10
14.1526978773307
20
-8.93463882775259
30
0
41
1
10
14.1868834581237
20
-8.93828193732426
30
0
41
1
10
14.2040229496451
20
-8.94118927568357
30
0
41
1
10
14.2381473009658
20
-8.94879240735227
30
0
41
1
10
14.255143126722
20
-8.95349300529446
30
0
41
1
10
14.2887747785053
20
-8.96440835860486
30
0
41
1
10
14.3054711782355
20
-8.97064207250807
30
0
41
1
10
14.3550613778489
20
-8.9914509207496
30
0
41
1
10
14.3872901959574
20
-9.0080444152853
30
0
41
1
10
14.4492892823951
20
-9.04590786785039
30
0
41
1
10
14.4785627950206
20
-9.06684589073208
30
0
41
1
10
14.5198339362978
20
-9.10133326571841
30
0
41
1
10
14.5331457951576
20
-9.11334888809276
30
0
41
1
10
14.5587862376543
20
-9.1385335614049
30
0
41
1
10
14.5711504769225
20
-9.1517536693772
30
0
41
1
10
14.5942253572993
20
-9.17895003635917
30
0
41
1
10
14.6050022665714
20
-9.19297954104636
30
0
41
1
10
14.6198304962468
20
-9.21480651903087
30
0
41
1
10
14.6245489829507
20
-9.22221350510128
30
0
41
1
10
14.6334790279919
20
-9.23732881994218
30
0
41
1
10
14.6377049715657
20
-9.24506743177247
30
0
41
1
10
14.6493491820235
20
-9.26851838148067
30
0
41
1
10
14.6557859697893
20
-9.2844797763556
30
0
41
1
10
14.6627421970522
20
-9.30913056129626
30
0
41
1
10
14.6646114409603
20
-9.31751238336696
30
0
41
1
10
14.6671665097608
20
-9.33433079971556
30
0
41
1
10
14.6678579465349
20
-9.34275392496178
30
0
41
1
10
14.6678312309676
20
-9.3511969466912
30
0
0
SPLINE
5
167
100
AcDbEntity
8
1
62
256
6
ByLayer
370
13
48
1
60
0
100
AcDbSpline
70
4
71
3
72
8
73
4
40
0
40
0
40
0
40
0
40
1
40
1
40
1
40
1
41
1
10
14.0059102711561
20
-8.96892567070208
30
0
41
1
10
14.0118316128576
20
-8.96550340101138
30
0
41
1
10
14.0177537145957
20
-8.96208090403317
30
0
41
1
10
14.0236766060049
20
-8.95865817118468
30
0
0
SPLINE
5
168
100
AcDbEntity
8
1
62
256
6
ByLayer
370
13
48
1
60
0
100
AcDbSpline
70
4
71
3
72
31
73
27
40
0
40
0
40
0
40
0
40
0.250000000000004
40
0.250000000000004
40
0.375000000000006
40
0.375000000000006
40
0.500000000000008
40
0.500000000000008
40
0.562500000000011
40
0.562500000000011
40
0.625000000000015
40
0.625000000000015
40
0.687500000000018
40
0.687500000000018
40
0.750000000000021
40
0.750000000000021
40
0.781250000000019
40
0.781250000000019
40
0.812500000000017
40
0.843750000000015
40
0.843750000000015
40
0.875000000000012
40
0.875000000000012
40
0.937500000000006
40
0.937500000000006
40
1
40
1
40
1
40
1
41
1
10
15.0483246990513
20
-9.62235100473501
30
0
41
1
10
15.0041154025033
20
-9.62120390467007
30
0
41
1
10
14.9598090952717
20
-9.61637790347245
30
0
41
1
10
14.8947540215797
20
-9.60297378059047
30
0
41
1
10
14.8732712045995
20
-9.5974602925011
30
0
41
1
10
14.8311338425553
20
-9.58402452379968
30
0
41
1
10
14.8104528411439
20
-9.57610127604138
30
0
41
1
10
14.7805419750385
20
-9.5619792164064
30
0
41
1
10
14.7707398953011
20
-9.55688581443516
30
0
41
1
10
14.7517132415406
20
-9.5458707979445
30
0
41
1
10
14.7424297437185
20
-9.53991268070027
30
0
41
1
10
14.7247522535207
20
-9.52711137405251
30
0
41
1
10
14.7163753681533
20
-9.52028885048767
30
0
41
1
10
14.7007524090118
20
-9.50562251802066
30
0
41
1
10
14.6935025342143
20
-9.49778203031266
30
0
41
1
10
14.6837419981999
20
-9.48502533735271
30
0
41
1
10
14.6806574419934
20
-9.48057389882806
30
0
41
1
10
14.6750459180652
20
-9.47145908075098
30
0
41
1
10
14.6699882536342
20
-9.46214247612258
30
0
41
1
10
14.6661297860012
20
-9.4523931650979
30
0
41
1
10
14.6629330859546
20
-9.4424070762021
30
0
41
1
10
14.6616720588156
20
-9.43728973867476
30
0
41
1
10
14.6590487587251
20
-9.422044771163
30
0
41
1
10
14.6587824181432
20
-9.41186992966388
30
0
41
1
10
14.6612248876655
20
-9.39150651117936
30
0
41
1
10
14.663887854331
20
-9.38169678260297
30
0
41
1
10
14.6677646265221
20
-9.37225041316449
30
0
0
SPLINE
5
169
100
AcDbEntity
8
1
62
256
6
ByLayer
370
13
48
1
60
0
100
AcDbSpline
70
4
71
3
72
31
73
27
40
0
40
0
40
0
40
0
40
0.249999999999983
40
0.249999999999983
40
0.374999999999975
40
0.374999999999975
40
0.499999999999967
40
0.499999999999967
40
0.562499999999963
40
0.562499999999963
40
0.62499999999996
40
0.62499999999996
40
0.687499999999957
40
0.687499999999957
40
0.749999999999954
40
0.749999999999954
40
0.781249999999957
40
0.781249999999957
40
0.812499999999961
40
0.843749999999965
40
0.843749999999965
40
0.874999999999968
40
0.874999999999968
40
0.937499999999984
40
0.937499999999984
40
1
40
1
40
1
40
1
41
1
10
13.6190448427288
20
-8.75136794738356
30
0
41
1
10
13.6401432646403
20
-8.79001845311356
30
0
41
1
10
13.6644809686136
20
-8.82702314762176
30
0
41
1
10
13.7056812500091
20
-8.87836954481779
30
0
41
1
10
13.7202265985731
20
-8.89481111447137
30
0
41
1
10
13.7510126961675
20
-8.9258138772079
30
0
41
1
10
13.7672665412483
20
-8.94039820581966
30
0
41
1
10
13.7930535310012
20
-8.9602176367674
30
0
41
1
10
13.8019025218285
20
-8.96648993507617
30
0
41
1
10
13.8200419086378
20
-8.97812338137746
30
0
41
1
10
13.8293905295579
20
-8.98351941543919
30
0
41
1
10
13.8484308737105
20
-8.99309344101218
30
0
41
1
10
13.8580971338877
20
-8.99726615676397
30
0
41
1
10
13.8777732659328
20
-9.0041105943728
30
0
41
1
10
13.8877821180599
20
-9.00678733229856
30
0
41
1
10
13.9031214001304
20
-9.00932611572691
30
0
41
1
10
13.9083247306131
20
-9.00992519887276
30
0
41
1
10
13.9186512052104
20
-9.0105227731045
30
0
41
1
10
13.9288906254907
20
-9.01052799691408
30
0
41
1
10
13.9389367211232
20
-9.00925193132869
30
0
41
1
10
13.948873816342
20
-9.0072693926854
30
0
41
1
10
13.9537898416488
20
-9.00591626410628
30
0
41
1
10
13.9679047200407
20
-9.00087130732331
30
0
41
1
10
13.976630573988
20
-8.99617618279396
30
0
41
1
10
13.9926989861692
20
-8.98411622226698
30
0
41
1
10
13.9997427841455
20
-8.9769761107232
30
0
41
1
10
14.0059102711561
20
-8.96892567070208
30
0
0
SPLINE
5
16A
100
AcDbEntity
8
1
62
256
6
ByLayer
370
13
48
1
60
0
100
AcDbSpline
70
4
71
3
72
40
73
36
40
0
40
0
40
0
40
0
40
0.0625000000000127
40
0.0625000000000127
40
0.0937500000000153
40
0.0937500000000153
40
0.125000000000018
40
0.125000000000018
40
0.187500000000017
40
0.187500000000017
40
0.250000000000016
40
0.250000000000016
40
0.312500000000015
40
0.312500000000015
40
0.375000000000014
40
0.375000000000014
40
0.500000000000012
40
0.500000000000012
40
0.562500000000011
40
0.562500000000011
40
0.62500000000001
40
0.62500000000001
40
0.687500000000009
40
0.687500000000009
40
0.750000000000007
40
0.750000000000007
40
0.812500000000006
40
0.812500000000006
40
0.875000000000005
40
0.875000000000005
40
0.906250000000005
40
0.906250000000005
40
0.937500000000004
40
0.937500000000004
40
1
40
1
40
1
40
1
41
1
10
16.5298962723944
20
-7.60517248496458
30
0
41
1
10
16.5160044846482
20
-7.61213777692697
30
0
41
1
10
16.503691032405
20
-7.621456780079
30
0
41
1
10
16.48676413393
20
-7.63780429400848
30
0
41
1
10
16.481374081275
20
-7.64368145880749
30
0
41
1
10
16.4711966747247
20
-7.65598028658266
30
0
41
1
10
16.4663907489756
20
-7.66241716235081
30
0
41
1
10
16.452696937008
20
-7.6824805212519
30
0
41
1
10
16.4445524347065
20
-7.69682673123938
30
0
41
1
10
16.4299736297076
20
-7.72676373071297
30
0
41
1
10
16.4235254197029
20
-7.7423879466057
30
0
41
1
10
16.4121236010817
20
-7.77453093403878
30
0
41
1
10
16.4071675987488
20
-7.79106316973227
30
0
41
1
10
16.3986293134606
20
-7.82470265908128
30
0
41
1
10
16.395029923809
20
-7.8418768211279
30
0
41
1
10
16.3861391571705
20
-7.89416584319846
30
0
41
1
10
16.3827736772567
20
-7.92966755477985
30
0
41
1
10
16.3813365633152
20
-7.98386036497729
30
0
41
1
10
16.3814725672955
20
-8.0019352429459
30
0
41
1
10
16.3829828517189
20
-8.03810304160888
30
0
41
1
10
16.3843627507264
20
-8.0562425526862
30
0
41
1
10
16.3884116522352
20
-8.09227958080888
30
0
41
1
10
16.3910747012015
20
-8.11016703870976
30
0
41
1
10
16.3977915950972
20
-8.14566159757399
30
0
41
1
10
16.4018526886402
20
-8.1632824717627
30
0
41
1
10
16.4114695723613
20
-8.19779489231556
30
0
41
1
10
16.4170477190628
20
-8.21478290594089
30
0
41
1
10
16.429959812084
20
-8.24779838630579
30
0
41
1
10
16.4372679079678
20
-8.26378557629076
30
0
41
1
10
16.4498501328731
20
-8.28670252657147
30
0
41
1
10
16.4542944379406
20
-8.29412225895018
30
0
41
1
10
16.4637651744892
20
-8.30846027154487
30
0
41
1
10
16.4688129316131
20
-8.31540459914041
30
0
41
1
10
16.4848220509444
20
-8.33510780174745
30
0
41
1
10
16.49659723308
20
-8.34678792055738
30
0
41
1
10
16.5100466931878
20
-8.35630719600928
30
0
0
SPLINE
5
16B
100
AcDbEntity
8
1
62
256
6
ByLayer
370
13
48
1
60
0
100
AcDbSpline
70
4
71
3
72
8
73
4
40
0
40
0
40
0
40
0
40
1
40
1
40
1
40
1
41
1
10
16.5100466931878
20
-8.35630719600928
30
0
41
1
10
16.5156616582999
20
-8.36028136293677
30
0
41
1
10
16.5212758822167
20
-8.3642552208286
30
0
41
1
10
16.5268893927446
20
-8.36822878101268
30
0
0
SPLINE
5
16C
100
AcDbEntity
8
1
62
256
6
ByLayer
370
13
48
1
60
0
100
AcDbSpline
70
4
71
3
72
32
73
28
40
0
40
0
40
0
40
0
40
0.0625000000000024
40
0.0625000000000024
40
0.125000000000005
40
0.125000000000005
40
0.156250000000003
40
0.156250000000003
40
0.1875
40
0.1875
40
0.249999999999998
40
0.249999999999998
40
0.312499999999995
40
0.312499999999995
40
0.374999999999992
40
0.374999999999992
40
0.437499999999989
40
0.437499999999989
40
0.499999999999986
40
0.499999999999986
40
0.624999999999989
40
0.624999999999989
40
0.749999999999993
40
0.749999999999993
40
0.874999999999996
40
0.874999999999996
40
1
40
1
40
1
40
1
41
1
10
16.5268893927446
20
-8.36822878101268
30
0
41
1
10
16.5364549514776
20
-8.37038827799248
30
0
41
1
10
16.5455866107144
20
-8.37372871002449
30
0
41
1
10
16.5628701957255
20
-8.3830746709659
30
0
41
1
10
16.5710797063253
20
-8.38919562010639
30
0
41
1
10
16.5818148437825
20
-8.39993849415006
30
0
41
1
10
16.5851650990236
20
-8.40379186415677
30
0
41
1
10
16.5914207660407
20
-8.41202687937707
30
0
41
1
10
16.5943415988511
20
-8.4164392618421
30
0
41
1
10
16.6022745067837
20
-8.43014031150787
30
0
41
1
10
16.6065116690891
20
-8.43991859240177
30
0
41
1
10
16.6132642369989
20
-8.4605149559417
30
0
41
1
10
16.6157010730435
20
-8.4711012130854
30
0
41
1
10
16.6191100293067
20
-8.49252647120196
30
0
41
1
10
16.6200878757159
20
-8.50340015820248
30
0
41
1
10
16.6208601072501
20
-8.52540380966965
30
0
41
1
10
16.6206474349637
20
-8.53648254716606
30
0
41
1
10
16.6192520293026
20
-8.55851445237877
30
0
41
1
10
16.6180694475439
20
-8.56950961299137
30
0
41
1
10
16.6132879552107
20
-8.6024396345563
30
0
41
1
10
16.6085032564898
20
-8.62409792645198
30
0
41
1
10
16.5965277866671
20
-8.66681530004328
30
0
41
1
10
16.5893465919171
20
-8.6878047336256
30
0
41
1
10
16.573037389321
20
-8.72900623029457
30
0
41
1
10
16.5639044804368
20
-8.74921605195917
30
0
41
1
10
16.5439864429338
20
-8.78867821053339
30
0
41
1
10
16.5332111475738
20
-8.8079171987155
30
0
41
1
10
16.5216477130523
20
-8.82668187909067
30
0
0
SPLINE
5
16D
100
AcDbEntity
8
1
62
256
6
ByLayer
370
13
48
1
60
0
100
AcDbSpline
70
4
71
3
72
8
73
4
40
0
40
0
40
0
40
0
40
1
40
1
40
1
40
1
41
1
10
16.5472843878916
20
-7.59645479895008
30
0
41
1
10
16.5414890955722
20
-7.59936010566881
30
0
41
1
10
16.5356930666436
20
-7.6022659933648
30
0
41
1
10
16.5298962723944
20
-7.60517248496458
30
0
0
SPLINE
5
16E
100
AcDbEntity
8
1
62
256
6
ByLayer
370
13
48
1
60
0
100
AcDbSpline
70
4
71
3
72
31
73
27
40
0
40
0
40
0
40
0
40
0.25
40
0.25
40
0.374999999999997
40
0.374999999999997
40
0.499999999999993
40
0.499999999999993
40
0.562499999999991
40
0.562499999999991
40
0.624999999999988
40
0.624999999999988
40
0.687499999999986
40
0.687499999999986
40
0.749999999999983
40
0.749999999999983
40
0.781249999999985
40
0.781249999999985
40
0.812499999999987
40
0.843749999999989
40
0.843749999999989
40
0.874999999999991
40
0.874999999999991
40
0.937499999999996
40
0.937499999999996
40
1
40
1
40
1
40
1
41
1
10
16.5656908707305
20
-7.16002969609477
30
0
41
1
10
16.586789292642
20
-7.19868020182477
30
0
41
1
10
16.6048252746219
20
-7.23908814570936
30
0
41
1
10
16.6259853304808
20
-7.30125728074276
30
0
41
1
10
16.632057492597
20
-7.32227480067226
30
0
41
1
10
16.6417698700527
20
-7.36465844072987
30
0
41
1
10
16.6454222666519
20
-7.3860481904205
30
0
41
1
10
16.648483839359
20
-7.41814049876089
30
0
41
1
10
16.6490989745831
20
-7.42885949655536
30
0
41
1
10
16.6493546695557
20
-7.45015104315897
30
0
41
1
10
16.6489940247675
20
-7.460790572967
30
0
41
1
10
16.6470996691018
20
-7.48167039783979
30
0
41
1
10
16.6455746516005
20
-7.49188697094039
30
0
41
1
10
16.6411233120088
20
-7.5117614665057
30
0
41
1
10
16.6382015706533
20
-7.5214213804986
30
0
41
1
10
16.6324501934166
20
-7.53535018925785
30
0
41
1
10
16.6302857359636
20
-7.53992825143891
30
0
41
1
10
16.6255090959888
20
-7.54868227327356
30
0
41
1
10
16.620294944527
20
-7.55703320932648
30
0
41
1
10
16.6141381509152
20
-7.56450752542619
30
0
41
1
10
16.6074633894679
20
-7.5714962316105
30
0
41
1
10
16.6038590215737
20
-7.57474454734748
30
0
41
1
10
16.5925692928239
20
-7.58341936644487
30
0
41
1
10
16.5843113140263
20
-7.58789637268526
30
0
41
1
10
16.5663374836073
20
-7.59422094911807
30
0
41
1
10
16.5569562255344
20
-7.59595120059797
30
0
41
1
10
16.5472843878916
20
-7.59645479895008
30
0
0
SPLINE
5
16F
100
AcDbEntity
8
1
62
256
6
ByLayer
370
13
48
1
60
0
100
AcDbSpline
70
4
71
3
72
42
73
38
40
0
40
0
40
0
40
0
40
0.0625000000000066
40
0.0625000000000066
40
0.0937500000000082
40
0.0937500000000082
40
0.12500000000001
40
0.12500000000001
40
0.18750000000001
40
0.18750000000001
40
0.218750000000009
40
0.218750000000009
40
0.250000000000008
40
0.250000000000008
40
0.375000000000007
40
0.375000000000007
40
0.437500000000007
40
0.437500000000007
40
0.500000000000006
40
0.500000000000006
40
0.562500000000005
40
0.562500000000005
40
0.625000000000005
40
0.625000000000005
40
0.687500000000004
40
0.687500000000004
40
0.750000000000003
40
0.750000000000003
40
0.812500000000002
40
0.812500000000002
40
0.875000000000002
40
0.875000000000002
40
0.906250000000002
40
0.906250000000002
40
0.937500000000003
40
0.937500000000003
40
1
40
1
40
1
40
1
41
1
10
13.6742698718984
20
-7.53107745325806
30
0
41
1
10
13.6877717506887
20
-7.53879616594318
30
0
41
1
10
13.6995592729151
20
-7.54880945688339
30
0
41
1
10
13.7155645545526
20
-7.56613744542361
30
0
41
1
10
13.72062618745
20
-7.57233738717346
30
0
41
1
10
13.7300721414099
20
-7.5851887860326
30
0
41
1
10
13.7344816612591
20
-7.59186375872881
30
0
41
1
10
13.7469218331548
20
-7.61252998615319
30
0
41
1
10
13.754172870712
20
-7.62715583401987
30
0
41
1
10
13.7638205140924
20
-7.65014863715456
30
0
41
1
10
13.7668357159423
20
-7.65801323233987
30
0
41
1
10
13.7724205053173
20
-7.6738955359568
30
0
41
1
10
13.7749978155922
20
-7.68192829314396
30
0
41
1
10
13.7869158591282
20
-7.72251663732519
30
0
41
1
10
13.7934274324354
20
-7.75631841965756
30
0
41
1
10
13.7995113255072
20
-7.80880808903581
30
0
41
1
10
13.8009065254719
20
-7.82663040270089
30
0
41
1
10
13.8024404870854
20
-7.86236339426736
30
0
41
1
10
13.802588330194
20
-7.88033693325551
30
0
41
1
10
13.8016560520801
20
-7.91649909957337
30
0
41
1
10
13.8005789750693
20
-7.93456307344761
30
0
41
1
10
13.7971956701028
20
-7.97064095824649
30
0
41
1
10
13.7948814506457
20
-7.9887030260077
30
0
41
1
10
13.788986087409
20
-8.02452233631649
30
0
41
1
10
13.7854116520283
20
-8.0422678362709
30
0
41
1
10
13.7768971255246
20
-8.07740647794489
30
0
41
1
10
13.7719487995291
20
-8.09481423675899
30
0
41
1
10
13.7606056681483
20
-8.12882327637359
30
0
41
1
10
13.7541839633725
20
-8.14551925149689
30
0
41
1
10
13.7396444718147
20
-8.17786275691211
30
0
41
1
10
13.7315555237355
20
-8.19346907139087
30
0
41
1
10
13.7178650217841
20
-8.21573293637508
30
0
41
1
10
13.7130640483382
20
-8.22292196426147
30
0
41
1
10
13.7029089985557
20
-8.23676830734016
30
0
41
1
10
13.6975323749178
20
-8.24345058991636
30
0
41
1
10
13.6805983299554
20
-8.26232341301059
30
0
41
1
10
13.6682871479357
20
-8.27339230835318
30
0
41
1
10
13.6544202926918
20
-8.28221216430276
30
0
0
SPLINE
5
170
100
AcDbEntity
8
1
62
256
6
ByLayer
370
13
48
1
60
0
100
AcDbSpline
70
4
71
3
72
22
73
18
40
0
40
0
40
0
40
0
40
0.125
40
0.125
40
0.25
40
0.25
40
0.375
40
0.375
40
0.5
40
0.5
40
0.625
40
0.625
40
0.75
40
0.75
40
0.875
40
0.875
40
1
40
1
40
1
40
1
41
1
10
-0.298799999995282
20
-7.12970301028437
30
0
41
1
10
-0.298799999995282
20
-7.13134889164147
30
0
41
1
10
-0.298441203237104
20
-7.13262910841419
30
0
41
1
10
-0.296900943249767
20
-7.1343568393207
30
0
41
1
10
-0.295743113386635
20
-7.13477373012401
30
0
41
1
10
-0.292668340213623
20
-7.1347264266075
30
0
41
1
10
-0.290722021481344
20
-7.13425042423691
30
0
41
1
10
-0.286187402488423
20
-7.13245546619928
30
0
41
1
10
-0.283616246134926
20
-7.1311520722758
30
0
41
1
10
-0.277923090618657
20
-7.12781806280961
30
0
41
1
10
-0.274801218957833
20
-7.12578312470319
30
0
41
1
10
-0.26828992282779
20
-7.1212216292532
30
0
41
1
10
-0.264872850255443
20
-7.11867925546059
30
0
41
1
10
-0.257755914530236
20
-7.11314279008437
30
0
41
1
10
-0.254040213483137
20
-7.11013431982636
30
0
41
1
10
-0.246513702645217
20
-7.10384689335237
30
0
41
1
10
-0.24268559970497
20
-7.10055512733359
30
0
41
1
10
-0.238799999995223
20
-7.0971342654054
30
0
0
SPLINE
5
171
100
AcDbEntity
8
1
62
256
6
ByLayer
370
13
48
1
60
0
100
AcDbSpline
70
4
71
3
72
20
73
16
40
0
40
0
40
0
40
0
40
0.25
40
0.25
40
0.375
40
0.375
40
0.5
40
0.5
40
0.625
40
0.625
40
0.75
40
0.75
40
0.875
40
0.875
40
1
40
1
40
1
40
1
41
1
10
-0.238799999995223
20
-7.12029111935411
30
0
41
1
10
-0.246576112703821
20
-7.12929770106641
30
0
41
1
10
-0.253943824462027
20
-7.13806994957466
30
0
41
1
10
-0.264291843644656
20
-7.15080301113497
30
0
41
1
10
-0.267638661471352
20
-7.15499640762729
30
0
41
1
10
-0.273961375612572
20
-7.16308880125567
30
0
41
1
10
-0.276938991582512
20
-7.16698880880418
30
0
41
1
10
-0.282481921703862
20
-7.1744569634391
30
0
41
1
10
-0.285047947451545
20
-7.17802569007526
30
0
41
1
10
-0.289686924591166
20
-7.18476288785931
30
0
41
1
10
-0.291725728192347
20
-7.18788343460326
30
0
41
1
10
-0.295101438411422
20
-7.19346351575248
30
0
41
1
10
-0.296450830442524
20
-7.19594117972886
30
0
41
1
10
-0.29831497501155
20
-7.20011608459927
30
0
41
1
10
-0.298799999995282
20
-7.20174747864118
30
0
41
1
10
-0.298799999995282
20
-7.20288531101247
30
0
0
SPLINE
5
172
100
AcDbEntity
8
1
62
256
6
ByLayer
370
13
48
1
60
0
100
AcDbSpline
70
4
71
3
72
38
73
34
40
0
40
0
40
0
40
0
40
0.0624999999999996
40
0.0624999999999996
40
0.0937499999999992
40
0.0937499999999992
40
0.124999999999999
40
0.124999999999999
40
0.249999999999998
40
0.249999999999998
40
0.374999999999997
40
0.374999999999997
40
0.406249999999998
40
0.406249999999998
40
0.437499999999998
40
0.437499999999998
40
0.499999999999999
40
0.499999999999999
40
0.625
40
0.625
40
0.656250000000001
40
0.656250000000001
40
0.687500000000001
40
0.687500000000001
40
0.750000000000001
40
0.750000000000001
40
0.8125
40
0.8125
40
0.84375
40
0.84375
40
0.875
40
0.875
40
1
40
1
40
1
40
1
41
1
10
15.0987286870006
20
6.00000000000202
30
0
41
1
10
15.1935440057236
20
6.00000000000202
30
0
41
1
10
15.2881129906698
20
5.9966330801
30
0
41
1
10
15.4296020736772
20
5.98657226196363
30
0
41
1
10
15.4767043554924
20
5.98238277937222
30
0
41
1
10
15.5707881064126
20
5.97232905383694
30
0
41
1
10
15.6177106318048
20
5.9664684072695
30
0
41
1
10
15.8506068872245
20
5.93320496925671
30
0
41
1
10
16.0325120777036
20
5.8938870315321
30
0
41
1
10
16.3883636783434
20
5.79092986273693
30
0
41
1
10
16.5623102698096
20
5.72729054600004
30
0
41
1
10
16.7750527760279
20
5.63209449423474
30
0
41
1
10
16.8174376800584
20
5.61223227579384
30
0
41
1
10
16.901336339194
20
5.57110462873302
30
0
41
1
10
16.942834044875
20
5.54985103818254
30
0
41
1
10
17.0660040317634
20
5.48403438197002
30
0
41
1
10
17.146355208773
20
5.43741870340531
30
0
41
1
10
17.382299406531
20
5.2893451672949
30
0
41
1
10
17.532813859192
20
5.17971869823313
30
0
41
1
10
17.7125959055557
20
5.02818584557824
30
0
41
1
10
17.748172348841
20
4.99710958317004
30
0
41
1
10
17.8179968341688
20
4.93390496004761
30
0
41
1
10
17.8522991239874
20
4.90173346556983
30
0
41
1
10
17.9533913178829
20
4.8035210522539
30
0
41
1
10
18.018368874562
20
4.73578442223081
30
0
41
1
10
18.1435134175738
20
4.59578527120649
30
0
41
1
10
18.2036804496471
20
4.52352285818651
30
0
41
1
10
18.2902845963008
20
4.4116786983046
30
0
41
1
10
18.3185706628019
20
4.37378490405101
30
0
41
1
10
18.3738004218597
20
4.29698547042833
30
0
41
1
10
18.4006004925836
20
4.25828225631435
30
0
41
1
10
18.53060478595
20
4.06333835236401
30
0
41
1
10
18.6218593951596
20
3.90281823802789
30
0
41
1
10
18.7010267166035
20
3.7388067477228
30
0
0
SPLINE
5
173
100
AcDbEntity
8
1
62
256
6
ByLayer
370
13
48
1
60
0
100
AcDbSpline
70
4
71
3
72
10
73
6
40
0
40
0
40
0
40
0
40
0.5
40
0.5
40
1
40
1
40
1
40
1
41
1
10
11.99996587737
20
6.00000000000202
30
0
41
1
10
11.829503723929
20
6.00000000000202
30
0
41
1
10
11.6600914480199
20
6.00544228086491
30
0
41
1
10
11.3233253757277
20
6.02688107552339
30
0
41
1
10
11.1559717168116
20
6.04287857841032
30
0
41
1
10
10.9896612117018
20
6.0640511290396
30
0
0
SPLINE
5
174
100
AcDbEntity
8
1
62
256
6
ByLayer
370
13
48
1
60
0
100
AcDbSpline
70
4
71
3
72
47
73
43
40
0
40
0
40
0
40
0
40
0.0312500000000033
40
0.0468750000000041
40
0.0468750000000041
40
0.062500000000005
40
0.062500000000005
40
0.125000000000005
40
0.125000000000005
40
0.156250000000005
40
0.156250000000005
40
0.187500000000004
40
0.187500000000004
40
0.250000000000003
40
0.250000000000003
40
0.281250000000003
40
0.281250000000003
40
0.312500000000003
40
0.312500000000003
40
0.375000000000003
40
0.375000000000003
40
0.437500000000003
40
0.437500000000003
40
0.500000000000003
40
0.500000000000003
40
0.531250000000003
40
0.531250000000003
40
0.562500000000003
40
0.562500000000003
40
0.625000000000003
40
0.625000000000003
40
0.750000000000001
40
0.750000000000001
40
0.781250000000001
40
0.781250000000001
40
0.812500000000001
40
0.812500000000001
40
0.875
40
0.875
40
0.9375
40
0.9375
40
1
40
1
40
1
40
1
41
1
10
8.69181905936793
20
6.0732490194417
30
0
41
1
10
8.66012682190237
20
6.0733752392795
30
0
41
1
10
8.61307571180802
20
6.0766513763858
30
0
41
1
10
8.5667050953675
20
6.08422003280324
30
0
41
1
10
8.53593617813883
20
6.0901739319726
30
0
41
1
10
8.5205762688033
20
6.09361850540469
30
0
41
1
10
8.4448639817625
20
6.11279965615441
30
0
41
1
10
8.3876218760482
20
6.1342827232136
30
0
41
1
10
8.30514369258967
20
6.17239576462103
30
0
41
1
10
8.27821940985891
20
6.18610121716674
30
0
41
1
10
8.22535798706869
20
6.2151130413441
30
0
41
1
10
8.19966020018975
20
6.2302857698941
30
0
41
1
10
8.12436593807976
20
6.27732362435071
30
0
41
1
10
8.07654598220128
20
6.31068314351464
30
0
41
1
10
8.00739862596001
20
6.36248934453843
30
0
41
1
10
7.98477197909924
20
6.38007190163833
30
0
41
1
10
7.94035363949044
20
6.415654167008
30
0
41
1
10
7.91864515510107
20
6.43358643653065
30
0
41
1
10
7.85485000916683
20
6.48765397911731
30
0
41
1
10
7.81408323112348
20
6.5240528323624
30
0
41
1
10
7.73550723585228
20
6.5969913676079
30
0
41
1
10
7.69770281372107
20
6.633535064661
30
0
41
1
10
7.62478090999636
20
6.7063946756434
30
0
41
1
10
7.58966547895008
20
6.74271268841309
30
0
41
1
10
7.53894303432523
20
6.79681569535231
30
0
41
1
10
7.52236195464533
20
6.81478828967934
30
0
41
1
10
7.489855767286
20
6.85058103841774
30
0
41
1
10
7.47395686520187
20
6.86837338375912
30
0
41
1
10
7.42757979802909
20
6.921109153228
30
0
41
1
10
7.3983133258366
20
6.95552470104613
30
0
41
1
10
7.31552875128122
20
7.05630202736714
30
0
41
1
10
7.26695060772406
20
7.12020526837134
30
0
41
1
10
7.21574771747518
20
7.19513341031424
30
0
41
1
10
7.20598916835203
20
7.2098707143418
30
0
41
1
10
7.18749458361614
20
7.23882304877932
30
0
41
1
10
7.17875858054126
20
7.25304225071639
30
0
41
1
10
7.15443842329191
20
7.29443051228341
30
0
41
1
10
7.14063366108891
20
7.32048838971733
30
0
41
1
10
7.1181464870003
20
7.36946120258389
30
0
41
1
10
7.10946247065189
20
7.39237645878271
30
0
41
1
10
7.09770786481201
20
7.43494854029339
30
0
41
1
10
7.09463412570992
20
7.4546058586437
30
0
41
1
10
7.09474055890868
20
7.47254949825421
30
0
0
SPLINE
5
175
100
AcDbEntity
8
1
62
256
6
ByLayer
370
13
48
1
60
0
100
AcDbSpline
70
4
71
3
72
46
73
42
40
0
40
0
40
0
40
0
40
0.0625000000000008
40
0.0625000000000008
40
0.0937500000000011
40
0.0937500000000011
40
0.125000000000001
40
0.125000000000001
40
0.250000000000002
40
0.250000000000002
40
0.281250000000003
40
0.281250000000003
40
0.312500000000003
40
0.312500000000003
40
0.375000000000004
40
0.375000000000004
40
0.500000000000005
40
0.500000000000005
40
0.531250000000005
40
0.531250000000005
40
0.562500000000006
40
0.562500000000006
40
0.625000000000006
40
0.625000000000006
40
0.687500000000007
40
0.687500000000007
40
0.750000000000007
40
0.750000000000007
40
0.781250000000007
40
0.781250000000007
40
0.812500000000007
40
0.812500000000007
40
0.875000000000007
40
0.875000000000007
40
0.906250000000006
40
0.906250000000006
40
0.921875000000006
40
0.921875000000006
40
0.937500000000005
40
0.937500000000005
40
1
40
1
40
1
40
1
41
1
10
7.09474055890868
20
1.95987174742893
30
0
41
1
10
7.09463429753973
20
1.98996183765163
30
0
41
1
10
7.09770028095588
20
2.0216667139766
30
0
41
1
10
7.10665408242571
20
2.07160963656671
30
0
41
1
10
7.1103767213767
20
2.08868976884381
30
0
41
1
10
7.1191556107494
20
2.1233707485541
30
0
41
1
10
7.12421274159928
20
2.14099107484574
30
0
41
1
10
7.15263227658303
20
2.23044877035173
30
0
41
1
10
7.18527933419713
20
2.30633947055551
30
0
41
1
10
7.23655376877875
20
2.40609648067422
30
0
41
1
10
7.24733876416994
20
2.42629339097769
30
0
41
1
10
7.26994608470815
20
2.46716810811003
30
0
41
1
10
7.28175522046317
20
2.4878187503538
30
0
41
1
10
7.31837374740073
20
2.54992335921182
30
0
41
1
10
7.34446443377234
20
2.59170417432134
30
0
41
1
10
7.42740225240468
20
2.7180117932958
30
0
41
1
10
7.48884746266921
20
2.80352407691831
30
0
41
1
10
7.57317832294265
20
2.9112986119367
30
0
41
1
10
7.59042624630123
20
2.93289612250592
30
0
41
1
10
7.62570536902419
20
2.97614921516603
30
0
41
1
10
7.64376719851086
20
2.99784055810463
30
0
41
1
10
7.69892373688887
20
3.06265915483701
30
0
41
1
10
7.73693741289955
20
3.10548969824581
30
0
41
1
10
7.81567393891416
20
3.19003914739713
30
0
41
1
10
7.85639307386847
20
3.23176189091905
30
0
41
1
10
7.94100955820895
20
3.31354295199421
30
0
41
1
10
7.98489838388227
20
3.35360947627393
30
0
41
1
10
8.05378102972711
20
3.4117635320242
30
0
41
1
10
8.07725408693656
20
3.4308203309707
30
0
41
1
10
8.12540735327761
20
3.4680956878195
30
0
41
1
10
8.15011738364748
20
3.48632998938754
30
0
41
1
10
8.22552846605433
20
3.5388027333311
30
0
41
1
10
8.2777224428348
20
3.57106494970773
30
0
41
1
10
8.36018256087195
20
3.61316816935593
30
0
41
1
10
8.38837131200282
20
3.62614251006514
30
0
41
1
10
8.43196339445191
20
3.6435848374949
30
0
41
1
10
8.44675296378782
20
3.64907241441702
30
0
41
1
10
8.47644880375296
20
3.65916260810113
30
0
41
1
10
8.49138751056407
20
3.66378031144652
30
0
41
1
10
8.56656217573138
20
3.68459190761601
30
0
41
1
10
8.62824181879373
20
3.69394502460969
30
0
41
1
10
8.69181905936793
20
3.69422247528999
30
0
0
SPLINE
5
176
100
AcDbEntity
8
1
62
256
6
ByLayer
370
13
48
1
60
0
100
AcDbSpline
70
4
71
3
72
54
73
50
40
0
40
0
40
0
40
0
40
0.0625000000000008
40
0.0625000000000008
40
0.0781250000000009
40
0.0781250000000009
40
0.093750000000001
40
0.093750000000001
40
0.125000000000001
40
0.125000000000001
40
0.187500000000001
40
0.187500000000001
40
0.250000000000001
40
0.250000000000001
40
0.281250000000001
40
0.281250000000001
40
0.312500000000001
40
0.312500000000001
40
0.375
40
0.375
40
0.4375
40
0.4375
40
0.453125
40
0.453125
40
0.468749999999999
40
0.468749999999999
40
0.5
40
0.5
40
0.5625
40
0.5625
40
0.625
40
0.625
40
0.640625
40
0.640625
40
0.65625
40
0.65625
40
0.6875
40
0.6875
40
0.75
40
0.75
40
0.8125
40
0.8125
40
0.84375
40
0.84375
40
0.875
40
0.875
40
0.9375
40
0.9375
40
1
40
1
40
1
40
1
41
1
10
7.09474055890868
20
-6.49759078438589
30
0
41
1
10
7.0946101480823
20
-6.41983910606487
30
0
41
1
10
7.09924414287408
20
-6.33938375343931
30
0
41
1
10
7.10925065628928
20
-6.23542822148838
30
0
41
1
10
7.11146437819193
20
-6.21446736263667
30
0
41
1
10
7.11627889819246
20
-6.17220421212747
30
0
41
1
10
7.11888302133886
20
-6.15087711454638
30
0
41
1
10
7.12719311157522
20
-6.08659461520537
30
0
41
1
10
7.13339198964238
20
-6.04335061101969
30
0
41
1
10
7.15349050716858
20
-5.91242742955657
30
0
41
1
10
7.16888475533014
20
-5.82356094559319
30
0
41
1
10
7.20144233242999
20
-5.6424446056387
30
0
41
1
10
7.2186140313174
20
-5.55019572611977
30
0
41
1
10
7.24415321911667
20
-5.40902364876209
30
0
41
1
10
7.25263020520728
20
-5.36149868415137
30
0
41
1
10
7.26924972760455
20
-5.26545430793166
30
0
41
1
10
7.27734285214885
20
-5.2172127938459
30
0
41
1
10
7.3005485126242
20
-5.07213559766288
30
0
41
1
10
7.31460481033261
20
-4.97480023033117
30
0
41
1
10
7.33812506257854
20
-4.77869682833128
30
0
41
1
10
7.34758408386844
20
-4.67992822722991
30
0
41
1
10
7.35563121954007
20
-4.55544932562211
30
0
41
1
10
7.35705283838305
20
-4.53050267076381
30
0
41
1
10
7.35950249289667
20
-4.48050473816429
30
0
41
1
10
7.36053163479878
20
-4.45541658976796
30
0
41
1
10
7.36299667977514
20
-4.38026446658697
30
0
41
1
10
7.36380668357592
20
-4.33045627465501
30
0
41
1
10
7.36374920661441
20
-4.18189392533779
30
0
41
1
10
7.36037307584681
20
-4.08400131912978
30
0
41
1
10
7.34755886493085
20
-3.89043662397287
30
0
41
1
10
7.33812588491762
20
-3.7947641825231
30
0
41
1
10
7.32331778227123
20
-3.67652919074689
30
0
41
1
10
7.32020659690031
20
-3.6529500517876
30
0
41
1
10
7.31370907033565
20
-3.6059270549529
30
0
41
1
10
7.31031924589635
20
-3.58246196629111
30
0
41
1
10
7.29983146245283
20
-3.51262944516876
30
0
41
1
10
7.2924016544367
20
-3.46671851247041
30
0
41
1
10
7.26917550796017
20
-3.33082024971046
30
0
41
1
10
7.25244161751422
20
-3.24266169720337
30
0
41
1
10
7.21849854490276
20
-3.07085014384469
30
0
41
1
10
7.20128483757443
20
-2.98719758733026
30
0
41
1
10
7.17668419958406
20
-2.86495174188897
30
0
41
1
10
7.16867305165451
20
-2.824660312134
30
0
41
1
10
7.15347480879265
20
-2.74582728810216
30
0
41
1
10
7.14627533879181
20
-2.70722777202647
30
0
41
1
10
7.12627906578447
20
-2.59383069790729
30
0
41
1
10
7.11507142560205
20
-2.52142752877867
30
0
41
1
10
7.09924605507317
20
-2.38292465045637
30
0
41
1
10
7.09461001042095
20
-2.3168245774506
30
0
41
1
10
7.09474055890868
20
-2.25394906032696
30
0
0
SPLINE
5
177
100
AcDbEntity
8
1
62
256
6
ByLayer
370
13
48
1
60
0
100
AcDbSpline
70
4
71
3
72
10
73
6
40
0
40
0
40
0
40
0
40
0.723884949155281
40
0.723884949155281
40
1
40
1
40
1
40
1
41
1
10
7.67817747929754
20
-9.97788656032927
30
0
41
1
10
7.65650446958702
20
-9.98848766426957
30
0
41
1
10
7.63881368881616
20
-9.99532260965626
30
0
41
1
10
7.61881728476121
20
-9.9994263391425
30
0
41
1
10
7.61376471141566
20
-9.99999735000827
30
0
41
1
10
7.60915659041629
20
-10.0000002306218
30
0
0
SPLINE
5
178
100
AcDbEntity
8
1
62
256
6
ByLayer
370
13
48
1
60
0
100
AcDbSpline
70
4
71
3
72
23
73
19
40
0
40
0
40
0
40
0
40
0.125
40
0.250000000000001
40
0.250000000000001
40
0.312500000000001
40
0.312500000000001
40
0.375000000000001
40
0.375000000000001
40
0.5
40
0.625
40
0.625
40
0.6875
40
0.6875
40
0.75
40
0.75
40
0.875
40
1
40
1
40
1
40
1
41
1
10
7.67817747929754
20
-9.97788656032927
30
0
41
1
10
7.63162779265721
20
-9.97530318914139
30
0
41
1
10
7.54375219175594
20
-9.96937640506516
30
0
41
1
10
7.46595839975086
20
-9.96161808273158
30
0
41
1
10
7.41139453486036
20
-9.95497476097918
30
0
41
1
10
7.393838204871
20
-9.95262265227339
30
0
41
1
10
7.36000581864889
20
-9.94761670808126
30
0
41
1
10
7.34368627034345
20
-9.94495409681556
30
0
41
1
10
7.29718940994368
20
-9.93656533099059
30
0
41
1
10
7.24150668275465
20
-9.92428928718689
30
0
41
1
10
7.19794277698028
20
-9.90961121510028
30
0
41
1
10
7.16978398104388
20
-9.89760892716177
30
0
41
1
10
7.16115166122924
20
-9.89344241900218
30
0
41
1
10
7.14540914849496
20
-9.8847605816176
30
0
41
1
10
7.13828800530129
20
-9.88023454894997
30
0
41
1
10
7.11941376287231
20
-9.8662424009033
30
0
41
1
10
7.10073486240444
20
-9.84642791977021
30
0
41
1
10
7.09463456325759
20
-9.82422718909677
30
0
41
1
10
7.09474055890868
20
-9.81251011867991
30
0
0
SPLINE
5
179
100
AcDbEntity
8
1
62
256
6
ByLayer
370
13
48
1
60
0
100
AcDbSpline
70
4
71
3
72
34
73
30
40
0
40
0
40
0
40
0
40
0.125000000000001
40
0.125000000000001
40
0.250000000000003
40
0.250000000000003
40
0.375000000000003
40
0.375000000000003
40
0.500000000000003
40
0.500000000000003
40
0.625000000000002
40
0.625000000000002
40
0.687500000000001
40
0.687500000000001
40
0.749999999999999
40
0.749999999999999
40
0.78125
40
0.78125
40
0.8125
40
0.8125
40
0.875000000000002
40
0.875000000000002
40
0.937500000000003
40
0.937500000000003
40
0.953125000000003
40
0.953125000000003
40
0.968750000000002
40
0.968750000000002
40
1
40
1
40
1
40
1
41
1
10
3.19996587737009
20
-3.6755951898958
30
0
41
1
10
3.19996587737009
20
-3.70905326341151
30
0
41
1
10
3.20083916514759
20
-3.74246287510286
30
0
41
1
10
3.20449431851532
20
-3.80881649494196
30
0
41
1
10
3.2072729511743
20
-3.84178640205417
30
0
41
1
10
3.21500241833755
20
-3.90727905495018
30
0
41
1
10
3.21994960370316
20
-3.93980228318875
30
0
41
1
10
3.23247121943606
20
-4.00434355552076
30
0
41
1
10
3.24003599521367
20
-4.0363628837928
30
0
41
1
10
3.25861462081647
20
-4.09978954266509
30
0
41
1
10
3.26967374667592
20
-4.13130833129159
30
0
41
1
10
3.28957187697469
20
-4.17686298050606
30
0
41
1
10
3.29676931886283
20
-4.19179425895149
30
0
41
1
10
3.31257852922417
20
-4.22103428642848
30
0
41
1
10
3.32118521691425
20
-4.23534512781876
30
0
41
1
10
3.33551403129295
20
-4.25619867098416
30
0
41
1
10
3.34054662622688
20
-4.2630682795718
30
0
41
1
10
3.35106721998906
20
-4.2764145146912
30
0
41
1
10
3.35655752175862
20
-4.28289830752536
30
0
41
1
10
3.3738352013913
20
-4.30168928594949
30
0
41
1
10
3.38639929695884
20
-4.31336016363926
30
0
41
1
10
3.4147274236478
20
-4.33410679970396
30
0
41
1
10
3.43004300763241
20
-4.3428428849551
30
0
41
1
10
3.45108931889339
20
-4.35067739474326
30
0
41
1
10
3.4554155064512
20
-4.3520915491014
30
0
41
1
10
3.46411084366227
20
-4.35452324471899
30
0
41
1
10
3.46849674297479
20
-4.35554846982066
30
0
41
1
10
3.48177336460466
20
-4.35803148050516
30
0
41
1
10
3.49078254838227
20
-4.35889894353866
30
0
41
1
10
3.49996587737005
20
-4.35889894353866
30
0
0
SPLINE
5
17A
100
AcDbEntity
8
1
62
256
6
ByLayer
370
13
48
1
60
0
100
AcDbSpline
70
4
71
3
72
34
73
30
40
0
40
0
40
0
40
0
40
0.0312499999999999
40
0.0312499999999999
40
0.0624999999999997
40
0.0624999999999997
40
0.0937499999999996
40
0.0937499999999996
40
0.124999999999999
40
0.124999999999999
40
0.156249999999999
40
0.156249999999999
40
0.187499999999999
40
0.187499999999999
40
0.249999999999998
40
0.249999999999998
40
0.312499999999997
40
0.312499999999997
40
0.374999999999996
40
0.374999999999996
40
0.499999999999996
40
0.499999999999996
40
0.562499999999997
40
0.562499999999997
40
0.624999999999998
40
0.624999999999998
40
0.749999999999999
40
0.749999999999999
40
1
40
1
40
1
40
1
41
1
10
3.49996587737005
20
4.3588989435427
30
0
41
1
10
3.49075465699579
20
4.3588989435427
30
0
41
1
10
3.481527403184
20
4.35800310739384
30
0
41
1
10
3.46374016517436
20
4.35464068049143
30
0
41
1
10
3.45514208659697
20
4.3521909982459
30
0
41
1
10
3.43845399392612
20
4.34596887702119
30
0
41
1
10
3.43030873702352
20
4.34216270499209
30
0
41
1
10
3.41474940852728
20
4.33352798574364
30
0
41
1
10
3.40737719755995
20
4.3287371994812
30
0
41
1
10
3.3932882864128
20
4.3183915201258
30
0
41
1
10
3.38655744743116
20
4.31282144931365
30
0
41
1
10
3.37371279922112
20
4.30109441304469
30
0
41
1
10
3.36767585430877
20
4.2950119057692
30
0
41
1
10
3.35047864198313
20
4.2762419426958
30
0
41
1
10
3.34021981199552
20
4.26303882791834
30
0
41
1
10
3.32139078891006
20
4.23565268309849
30
0
41
1
10
3.31283031195809
20
4.22146423462502
30
0
41
1
10
3.2970292981648
20
4.1923097039282
30
0
41
1
10
3.28977760293148
20
4.177307372927
30
0
41
1
10
3.26976229347983
20
4.1315632555538
30
0
41
1
10
3.25877927899191
20
4.1002990257505
30
0
41
1
10
3.24477178788195
20
4.05255652422792
30
0
41
1
10
3.24052750565019
20
4.0365091285465
30
0
41
1
10
3.23281641147568
20
4.00435303426232
30
0
41
1
10
3.2293421882757
20
3.98821834588543
30
0
41
1
10
3.21992278172078
20
3.9396579553563
30
0
41
1
10
3.21497349180899
20
3.90707665796461
30
0
41
1
10
3.20338755454495
20
3.8087791584326
30
0
41
1
10
3.19996587737009
20
3.74251406554643
30
0
41
1
10
3.19996587737009
20
3.67559518989984
30
0
0
SPLINE
5
17B
100
AcDbEntity
8
1
62
256
6
ByLayer
370
13
48
1
60
0
100
AcDbSpline
70
4
71
3
72
31
73
27
40
0
40
0
40
0
40
0
40
0.125000000000001
40
0.125000000000001
40
0.250000000000002
40
0.250000000000002
40
0.312500000000002
40
0.312500000000002
40
0.343750000000002
40
0.343750000000002
40
0.375000000000002
40
0.375000000000002
40
0.500000000000003
40
0.500000000000003
40
0.625000000000004
40
0.625000000000004
40
0.750000000000006
40
0.750000000000006
40
0.781250000000006
40
0.781250000000006
40
0.796875000000005
40
0.796875000000005
40
0.812500000000005
40
0.875000000000003
40
0.875000000000003
40
1
40
1
40
1
40
1
41
1
10
5.11764158525895
20
9.92156741649424
30
0
41
1
10
5.13648637543744
20
9.88976697488604
30
0
41
1
10
5.16121476803821
20
9.84849276456433
30
0
41
1
10
5.22362153470587
20
9.74739063504464
30
0
41
1
10
5.26129550784182
20
9.68756101563153
30
0
41
1
10
5.32908188684425
20
9.58400533620133
30
0
41
1
10
5.35356403859484
20
9.5471830924495
30
0
41
1
10
5.39338882847014
20
9.48849264096853
30
0
41
1
10
5.40718313387444
20
9.4683509877672
30
0
41
1
10
5.43568178551695
20
9.4271670231191
30
0
41
1
10
5.45040522251335
20
9.40609639063413
30
0
41
1
10
5.52646067401744
20
9.29842019283691
30
0
41
1
10
5.59508191098323
20
9.20484736043173
30
0
41
1
10
5.75001715476625
20
9.00458526001492
30
0
41
1
10
5.83632785314225
20
8.89789079161685
30
0
41
1
10
6.02947493473911
20
8.67316323021484
30
0
41
1
10
6.13630397359859
20
8.55512410137143
30
0
41
1
10
6.28497015148375
20
8.40172802262563
30
0
41
1
10
6.31546231883837
20
8.37075721696451
30
0
41
1
10
6.36239014519126
20
8.32388965767373
30
0
41
1
10
6.3782397526804
20
8.3081902860628
30
0
41
1
10
6.41022351775948
20
8.27677688763904
30
0
41
1
10
6.49096043662504
20
8.19814007114351
30
0
41
1
10
6.57561310871321
20
8.1190688820017
30
0
41
1
10
6.78654004470249
20
7.92908522698181
30
0
41
1
10
6.93749559965701
20
7.8021438249319
30
0
41
1
10
7.09953639429122
20
7.67656810890273
30
0
0
SPLINE
5
17C
100
AcDbEntity
8
1
62
256
6
ByLayer
370
13
48
1
60
0
100
AcDbSpline
70
4
71
3
72
16
73
12
40
0
40
0
40
0
40
0
40
0.249999999999998
40
0.249999999999998
40
0.499999999999995
40
0.499999999999995
40
0.749999999999993
40
0.749999999999993
40
0.874999999999996
40
0.874999999999996
40
1
40
1
40
1
40
1
41
1
10
-0.238799999995223
20
6.42988705333519
30
0
41
1
10
-0.246731645205983
20
6.44565433727891
30
0
41
1
10
-0.254102420328792
20
6.461328057646
30
0
41
1
10
-0.267685049747598
20
6.4924642714324
30
0
41
1
10
-0.273908147022809
20
6.50794547083083
30
0
41
1
10
-0.284873616232659
20
6.53856956609221
30
0
41
1
10
-0.289537078082645
20
6.5534577941439
30
0
41
1
10
-0.294751695813176
20
6.57490335005852
30
0
41
1
10
-0.296193557659336
20
6.5819443283041
30
0
41
1
10
-0.298212428361609
20
6.59535073640799
30
0
41
1
10
-0.298800000017678
20
6.60172818357219
30
0
41
1
10
-0.298800000018588
20
6.60766390353373
30
0
0
SPLINE
5
17D
100
AcDbEntity
8
1
62
256
6
ByLayer
370
13
48
1
60
0
100
AcDbSpline
70
4
71
3
72
20
73
16
40
0
40
0
40
0
40
0
40
0.125
40
0.125
40
0.25
40
0.25
40
0.375
40
0.375
40
0.5
40
0.5
40
0.625
40
0.625
40
0.75
40
0.75
40
1
40
1
40
1
40
1
41
1
10
-0.298799999995282
20
7.20288531101662
30
0
41
1
10
-0.298799999995282
20
7.20174965556933
30
0
41
1
10
-0.298316928230776
20
7.20012457844243
30
0
41
1
10
-0.29646981633087
20
7.19597962709551
30
0
41
1
10
-0.29511034629698
20
7.19347882177183
30
0
41
1
10
-0.291728572964559
20
7.18788755786343
30
0
41
1
10
-0.289688681320996
20
7.18476547092294
30
0
41
1
10
-0.285047576587686
20
7.17802511972573
30
0
41
1
10
-0.282482890851298
20
7.17445841880399
30
0
41
1
10
-0.276949084501581
20
7.1670022579963
30
0
41
1
10
-0.273979224700525
20
7.16311220113065
30
0
41
1
10
-0.267679513318768
20
7.15504814378622
30
0
41
1
10
-0.26433335562993
20
7.15085457314163
30
0
41
1
10
-0.253960366399866
20
7.13808934663879
30
0
41
1
10
-0.246580989864839
20
7.12930334997893
30
0
41
1
10
-0.238799999995223
20
7.12029111935814
30
0
0
SPLINE
5
17E
100
AcDbEntity
8
1
62
256
6
ByLayer
370
13
48
1
60
0
100
AcDbSpline
70
4
71
3
72
20
73
16
40
0
40
0
40
0
40
0
40
0.249999999999993
40
0.249999999999993
40
0.374999999999994
40
0.374999999999994
40
0.499999999999995
40
0.499999999999995
40
0.624999999999997
40
0.624999999999997
40
0.749999999999998
40
0.749999999999998
40
0.874999999999999
40
0.874999999999999
40
1
40
1
40
1
40
1
41
1
10
-0.238799999995223
20
7.09713426540944
30
0
41
1
10
-0.246552046510061
20
7.10395912714731
30
0
41
1
10
-0.254049566003033
20
7.11025503359994
30
0
41
1
10
-0.264794871662985
20
7.11862078810864
30
0
41
1
10
-0.268255884991646
20
7.12119682081899
30
0
41
1
10
-0.2747726820227
20
7.1257640871149
30
0
41
1
10
-0.277848604148318
20
7.12777157612661
30
0
41
1
10
-0.283572139294535
20
7.13112904986772
30
0
41
1
10
-0.286168681583973
20
7.1324455590391
30
0
41
1
10
-0.290681644048988
20
7.1342369057468
30
0
41
1
10
-0.29263297026867
20
7.13472247289914
30
0
41
1
10
-0.295742899135035
20
7.13477709757163
30
0
41
1
10
-0.296893320547866
20
7.13435637591723
30
0
41
1
10
-0.298425132987092
20
7.13265600982984
30
0
41
1
10
-0.298799999995282
20
7.13135999945743
30
0
41
1
10
-0.298799999995282
20
7.12970301028841
30
0
0
SPLINE
5
17F
100
AcDbEntity
8
1
62
256
6
ByLayer
370
13
48
1
60
0
100
AcDbSpline
70
4
71
3
72
16
73
12
40
0
40
0
40
0
40
0
40
0.172172079665254
40
0.172172079665254
40
0.344344159330508
40
0.344344159330508
40
0.516516238995762
40
0.516516238995762
40
0.688688318661017
40
0.688688318661017
40
1
40
1
40
1
40
1
41
1
10
-0.298799999996078
20
7.08200940189712
30
0
41
1
10
-0.298799999995964
20
7.07961770072242
30
0
41
1
10
-0.298279796436674
20
7.07673222072262
30
0
41
1
10
-0.296368417255991
20
7.07012845289424
30
0
41
1
10
-0.294971325859393
20
7.0664143694959
30
0
41
1
10
-0.291557407095439
20
7.05856340319289
30
0
41
1
10
-0.289530266660592
20
7.05439166091472
30
0
41
1
10
-0.284940316938588
20
7.04563601231794
30
0
41
1
10
-0.282359707909251
20
7.0410240146725
30
0
41
1
10
-0.274599869005698
20
7.02782513062263
30
0
41
1
10
-0.269002873438609
20
7.01900843246389
30
0
41
1
10
-0.262920730405455
20
7.00994135548385
30
0
0
SPLINE
5
180
100
AcDbEntity
8
1
62
256
6
ByLayer
370
13
48
1
60
0
100
AcDbSpline
70
4
71
3
72
18
73
14
40
0
40
0
40
0
40
0
40
0.25
40
0.25
40
0.5
40
0.5
40
0.625
40
0.625
40
0.75
40
0.75
40
0.875
40
0.875
40
1
40
1
40
1
40
1
41
1
10
-0.238799999995223
20
5.84076208671232
30
0
41
1
10
-0.246491845530755
20
5.86486911728773
30
0
41
1
10
-0.253699005319305
20
5.88885570832574
30
0
41
1
10
-0.267060799302755
20
5.93657206090174
30
0
41
1
10
-0.273219704088575
20
5.96030230653523
30
0
41
1
10
-0.281422854694398
20
5.99567700567789
30
0
41
1
10
-0.28398263020884
20
6.00743160137623
30
0
41
1
10
-0.28866586125767
20
6.03085780583021
30
0
41
1
10
-0.290796678639509
20
6.0425683046075
30
0
41
1
10
-0.294444739929787
20
6.0657031610061
30
0
41
1
10
-0.295958698103533
20
6.07708388298781
30
0
41
1
10
-0.298131738778722
20
6.09936367937709
30
0
41
1
10
-0.2987999999946
20
6.11026697781122
30
0
41
1
10
-0.298799999995168
20
6.12081833033434
30
0
0
SPLINE
5
181
100
AcDbEntity
8
1
62
256
6
ByLayer
370
13
48
1
60
0
100
AcDbSpline
70
4
71
3
72
8
73
4
40
0
40
0
40
0
40
0
40
1
40
1
40
1
40
1
41
1
10
-0.0775143649574659
20
6.08076682973834
30
0
41
1
10
-0.127156425034997
20
6.19907513876913
30
0
41
1
10
-0.181172325610902
20
6.31532924333609
30
0
41
1
10
-0.238799999995223
20
6.42988705333519
30
0
0
SPLINE
5
182
100
AcDbEntity
8
1
62
256
6
ByLayer
370
13
48
1
60
0
100
AcDbSpline
70
4
71
3
72
16
73
12
40
0
40
0
40
0
40
0
40
0.125
40
0.125
40
0.25
40
0.25
40
0.5
40
0.5
40
0.75
40
0.75
40
1
40
1
40
1
40
1
41
1
10
-0.298799999995168
20
-6.6076639035135
30
0
41
1
10
-0.298799999995168
20
-6.60172888676206
30
0
41
1
10
-0.298213181265311
20
-6.5953687121673
30
0
41
1
10
-0.296208316168219
20
-6.58202945671999
30
0
41
1
10
-0.29477465160133
20
-6.57500589832298
30
0
41
1
10
-0.289547960906844
20
-6.55348640133079
30
0
41
1
10
-0.284897064290277
20
-6.5386542797514
30
0
41
1
10
-0.2740479046129
20
-6.50831684074231
30
0
41
1
10
-0.267796205288874
20
-6.49272823460487
30
0
41
1
10
-0.254139569048704
20
-6.46140415939047
30
0
41
1
10
-0.246741566424731
20
-6.4456740596236
30
0
41
1
10
-0.238799999995223
20
-6.42988705333116
30
0
0
SPLINE
5
183
100
AcDbEntity
8
1
62
256
6
ByLayer
370
13
48
1
60
0
100
AcDbSpline
70
4
71
3
72
8
73
4
40
0
40
0
40
0
40
0
40
1
40
1
40
1
40
1
41
1
10
-0.238799999995223
20
-6.42988705333116
30
0
41
1
10
-0.175987554255386
20
-6.30502245829908
30
0
41
1
10
-0.117549895808594
20
-6.17830173046289
30
0
41
1
10
-0.0644428157627601
20
-6.04931934719687
30
0
0
SPLINE
5
184
100
AcDbEntity
8
1
62
256
6
ByLayer
370
13
48
1
60
0
100
AcDbSpline
70
4
71
3
72
16
73
12
40
0
40
0
40
0
40
0
40
0.124999999999997
40
0.124999999999997
40
0.249999999999994
40
0.249999999999994
40
0.499999999999996
40
0.499999999999996
40
0.749999999999998
40
0.749999999999998
40
1
40
1
40
1
40
1
41
1
10
-0.298799999995168
20
-6.1208183303302
30
0
41
1
10
-0.2987999999946
20
-6.11029241381661
30
0
41
1
10
-0.298134465807181
20
-6.09940222110791
30
0
41
1
10
-0.295964144764099
20
-6.0771291843723
30
0
41
1
10
-0.294446434116054
20
-6.0657169975739
30
0
41
1
10
-0.288983249909194
20
-6.0310619371198
30
0
41
1
10
-0.284205649478878
20
-6.0076986675152
30
0
41
1
10
-0.273291569844588
20
-5.96059111891836
30
0
41
1
10
-0.267133845129621
20
-5.93684374200771
30
0
41
1
10
-0.253746875432995
20
-5.88901592789986
30
0
41
1
10
-0.246498494840722
20
-5.86488995690107
30
0
41
1
10
-0.238799999995223
20
-5.84076208670817
30
0
0
SPLINE
5
185
100
AcDbEntity
8
1
62
256
6
ByLayer
370
13
48
1
60
0
100
AcDbSpline
70
4
71
3
72
16
73
12
40
0
40
0
40
0
40
0
40
0.149277365411125
40
0.149277365411125
40
0.3194218923289
40
0.3194218923289
40
0.659710946164444
40
0.659710946164444
40
0.829855473082222
40
0.829855473082222
40
1
40
1
40
1
40
1
41
1
10
-0.262040165066793
20
-7.00863197799455
30
0
41
1
10
-0.26500183930753
20
-7.01302573110101
30
0
41
1
10
-0.267859594765838
20
-7.01737549120358
30
0
41
1
10
-0.273729309014499
20
-7.02657728285757
30
0
41
1
10
-0.276721443300318
20
-7.03143891407368
30
0
41
1
10
-0.28506115281678
20
-7.04560892253269
30
0
41
1
10
-0.289759193006745
20
-7.05444336342126
30
0
41
1
10
-0.294958465221868
20
-7.06637727195616
30
0
41
1
10
-0.296339105275734
20
-7.07004664752057
30
0
41
1
10
-0.298258609215878
20
-7.07664006018976
30
0
41
1
10
-0.298799999995282
20
-7.07958918448449
30
0
41
1
10
-0.298799999995282
20
-7.08200940189286
30
0
0
SPLINE
5
186
100
AcDbEntity
8
1
62
256
6
ByLayer
370
13
48
1
60
0
100
AcDbSpline
70
4
71
3
72
8
73
4
40
0
40
0
40
0
40
0
40
1
40
1
40
1
40
1
41
1
10
13.6742698718984
20
-7.53107745325806
30
0
41
1
10
13.6686683807637
20
-7.52787520997416
30
0
41
1
10
13.663067636656
20
-7.52467360983516
30
0
41
1
10
13.6574676115411
20
-7.5214726284419
30
0
0
SPLINE
5
187
100
AcDbEntity
8
1
62
256
6
ByLayer
370
13
48
1
60
0
100
AcDbSpline
70
4
71
3
72
32
73
28
40
0
40
0
40
0
40
0
40
0.0625000000000007
40
0.0625000000000007
40
0.125000000000001
40
0.125000000000001
40
0.156250000000005
40
0.156250000000005
40
0.187500000000009
40
0.187500000000009
40
0.250000000000011
40
0.250000000000011
40
0.312500000000013
40
0.312500000000013
40
0.375000000000015
40
0.375000000000015
40
0.437500000000018
40
0.437500000000018
40
0.50000000000002
40
0.50000000000002
40
0.625000000000015
40
0.625000000000015
40
0.75000000000001
40
0.75000000000001
40
0.875000000000005
40
0.875000000000005
40
1
40
1
40
1
40
1
41
1
10
13.6370726163941
20
-8.2932466105045
30
0
41
1
10
13.627456981038
20
-8.29490841241326
30
0
41
1
10
13.6182118712399
20
-8.29777202181751
30
0
41
1
10
13.6005583724311
20
-8.30621146910116
30
0
41
1
10
13.5920868414473
20
-8.31189959470956
30
0
41
1
10
13.5808686854136
20
-8.32207284592826
30
0
41
1
10
13.5773420254891
20
-8.32574778039211
30
0
41
1
10
13.5707037208251
20
-8.33364823530698
30
0
41
1
10
13.5675751777157
20
-8.33790365441698
30
0
41
1
10
13.5589902899842
20
-8.35117611629781
30
0
41
1
10
13.5542790352804
20
-8.36072221232266
30
0
41
1
10
13.5465149197188
20
-8.3809419110012
30
0
41
1
10
13.5435520015825
20
-8.3913880605464
30
0
41
1
10
13.539069639006
20
-8.41260856235468
30
0
41
1
10
13.5375427281309
20
-8.423417258336
30
0
41
1
10
13.5356528837052
20
-8.44535183683107
30
0
41
1
10
13.5352995800814
20
-8.45642692537368
30
0
41
1
10
13.5355644558423
20
-8.47850190996266
30
0
41
1
10
13.5361803415728
20
-8.48954373545817
30
0
41
1
10
13.5392585860208
20
-8.52267769387058
30
0
41
1
10
13.5429151119429
20
-8.5445550104985
30
0
41
1
10
13.5526544640805
20
-8.58783581928608
30
0
41
1
10
13.558731296401
20
-8.60916925933086
30
0
41
1
10
13.5728639126084
20
-8.6511606308691
30
0
41
1
10
13.5809246839186
20
-8.67181657751647
30
0
41
1
10
13.5987414504054
20
-8.71225784228525
30
0
41
1
10
13.6084883309515
20
-8.73202932003747
30
0
41
1
10
13.6190448427288
20
-8.75136794738356
30
0
0
SPLINE
5
188
100
AcDbEntity
8
1
62
256
6
ByLayer
370
13
48
1
60
0
100
AcDbSpline
70
4
71
3
72
8
73
4
40
0
40
0
40
0
40
0
40
1
40
1
40
1
40
1
41
1
10
13.6544202926918
20
-8.28221216430276
30
0
41
1
10
13.6486369724199
20
-8.2858905795463
30
0
41
1
10
13.6428544233005
20
-8.28956872499489
30
0
41
1
10
13.6370726163941
20
-8.2932466105045
30
0
0
SPLINE
5
189
100
AcDbEntity
8
1
62
256
6
ByLayer
370
13
48
1
60
0
100
AcDbSpline
70
4
71
3
72
32
73
28
40
0
40
0
40
0
40
0
40
0.0624999999999957
40
0.0624999999999957
40
0.124999999999991
40
0.124999999999991
40
0.156249999999992
40
0.156249999999992
40
0.187499999999993
40
0.187499999999993
40
0.249999999999996
40
0.249999999999996
40
0.312499999999998
40
0.312499999999998
40
0.375000000000001
40
0.375000000000001
40
0.437500000000003
40
0.437500000000003
40
0.500000000000005
40
0.500000000000005
40
0.625000000000004
40
0.625000000000004
40
0.750000000000003
40
0.750000000000003
40
0.875000000000001
40
0.875000000000001
40
1
40
1
40
1
40
1
41
1
10
13.6574676115411
20
-7.5214726284419
30
0
41
1
10
13.6479223020027
20
-7.52047320704341
30
0
41
1
10
13.6388107299498
20
-7.51828356899929
30
0
41
1
10
13.621566957005
20
-7.51121843981659
30
0
41
1
10
13.6133773543827
20
-7.50623801794146
30
0
41
1
10
13.6026699475895
20
-7.49708383258499
30
0
41
1
10
13.5993286580046
20
-7.49374410466677
30
0
41
1
10
13.5930903979618
20
-7.48650633434298
30
0
41
1
10
13.5901780562069
20
-7.48258040410988
30
0
41
1
10
13.5822693434766
20
-7.4702654966591
30
0
41
1
10
13.5780467303719
20
-7.46132073892247
30
0
41
1
10
13.5713208386634
20
-7.44225265392529
30
0
41
1
10
13.568895825798
20
-7.4323437462655
30
0
41
1
10
13.5655081729825
20
-7.41213896185306
30
0
41
1
10
13.5645398402332
20
-7.40181031206467
30
0
41
1
10
13.5637849138182
20
-7.38079807021481
30
0
41
1
10
13.5640053284367
20
-7.37016289062316
30
0
41
1
10
13.5654146740038
20
-7.34892960208717
30
0
41
1
10
13.5666034834506
20
-7.33829122548499
30
0
41
1
10
13.5714019081136
20
-7.30633125645059
30
0
41
1
10
13.5761954791617
20
-7.28518125983837
30
0
41
1
10
13.5881854603885
20
-7.24329524403177
30
0
41
1
10
13.5953722507465
20
-7.2226263826137
30
0
41
1
10
13.6116901562482
20
-7.18192347506997
30
0
41
1
10
13.6208261623666
20
-7.1618910938374
30
0
41
1
10
13.6407482837896
20
-7.12266290288571
30
0
41
1
10
13.6515245658854
20
-7.10348044476299
30
0
41
1
10
13.6630880004071
20
-7.08471576438771
30
0
0
SPLINE
5
18A
100
AcDbEntity
8
1
62
256
6
ByLayer
370
13
48
1
60
0
100
AcDbSpline
70
4
71
3
72
40
73
36
40
0
40
0
40
0
40
0
40
0.0625000000000043
40
0.0625000000000043
40
0.0937500000000038
40
0.0937500000000038
40
0.125000000000003
40
0.125000000000003
40
0.187500000000002
40
0.187500000000002
40
0.250000000000001
40
0.250000000000001
40
0.3125
40
0.3125
40
0.374999999999999
40
0.374999999999999
40
0.499999999999998
40
0.499999999999998
40
0.562499999999999
40
0.562499999999999
40
0.624999999999999
40
0.624999999999999
40
0.687499999999999
40
0.687499999999999
40
0.75
40
0.75
40
0.8125
40
0.8125
40
0.875
40
0.875
40
0.90625
40
0.90625
40
0.9375
40
0.9375
40
1
40
1
40
1
40
1
41
1
10
14.0787473442673
20
-6.87470754224526
30
0
41
1
10
14.0925374762774
20
-6.88178704383469
30
0
41
1
10
14.1075361692396
20
-6.88642341938547
30
0
41
1
10
14.13126801528
20
-6.89096744007756
30
0
41
1
10
14.1394162169227
20
-6.8920669815798
30
0
41
1
10
14.155857728722
20
-6.89352447939629
30
0
41
1
10
14.1641746836935
20
-6.89388882256131
30
0
41
1
10
14.1893840349996
20
-6.89404483321178
30
0
41
1
10
14.2064950569771
20
-6.89290180204361
30
0
41
1
10
14.2408468604393
20
-6.88869822806581
30
0
41
1
10
14.2581247212368
20
-6.88563111392418
30
0
41
1
10
14.2926137529923
20
-6.87793908482669
30
0
41
1
10
14.3098380527121
20
-6.87330912442027
30
0
41
1
10
14.3440004805147
20
-6.86275830136501
30
0
41
1
10
14.3610066614052
20
-6.85681648450858
30
0
41
1
10
14.4115895091199
20
-6.83723356616386
30
0
41
1
10
14.4443883667631
20
-6.82201299761218
30
0
41
1
10
14.4922978074248
20
-6.79614461854678
30
0
41
1
10
14.5079186278892
20
-6.78707794760626
30
0
41
1
10
14.5384562975389
20
-6.7680498148932
30
0
41
1
10
14.5534103434279
20
-6.75806122552839
30
0
41
1
10
14.5823637118398
20
-6.7372735835622
30
0
41
1
10
14.5963577269463
20
-6.72648383554267
30
0
41
1
10
14.6233066748977
20
-6.70402569935769
30
0
41
1
10
14.6362693871248
20
-6.69234523965739
30
0
41
1
10
14.6607173378197
20
-6.66823267532109
30
0
41
1
10
14.6722734301834
20
-6.65573660798228
30
0
41
1
10
14.693573416676
20
-6.62988874546139
30
0
41
1
10
14.7032969096344
20
-6.61657621939119
30
0
41
1
10
14.7160683467866
20
-6.59588347691167
30
0
41
1
10
14.7199980472346
20
-6.58890057876036
30
0
41
1
10
14.7271050352324
20
-6.57472867949846
30
0
41
1
10
14.7302929609498
20
-6.56751076653106
30
0
41
1
10
14.7384102744548
20
-6.54572996575919
30
0
41
1
10
14.7419655650967
20
-6.5310558445448
30
0
41
1
10
14.7427515484365
20
-6.5161116067072
30
0
0
SPLINE
5
18B
100
AcDbEntity
8
1
62
256
6
ByLayer
370
13
48
1
60
0
100
AcDbSpline
70
4
71
3
72
8
73
4
40
0
40
0
40
0
40
0
40
1
40
1
40
1
40
1
41
1
10
14.7427515484365
20
-6.5161116067072
30
0
41
1
10
14.7430796856997
20
-6.50987259239648
30
0
41
1
10
14.7434077832348
20
-6.50363462415558
30
0
41
1
10
14.7437358425278
20
-6.49739766246708
30
0
0
SPLINE
5
18C
100
AcDbEntity
8
1
62
256
6
ByLayer
370
13
48
1
60
0
100
AcDbSpline
70
4
71
3
72
31
73
27
40
0
40
0
40
0
40
0
40
0.250000000000013
40
0.250000000000013
40
0.375000000000014
40
0.375000000000014
40
0.500000000000016
40
0.500000000000016
40
0.562500000000011
40
0.562500000000011
40
0.625000000000006
40
0.625000000000006
40
0.687500000000001
40
0.687500000000001
40
0.749999999999997
40
0.749999999999997
40
0.781249999999995
40
0.781249999999995
40
0.812499999999993
40
0.843749999999991
40
0.843749999999991
40
0.874999999999989
40
0.874999999999989
40
0.937499999999994
40
0.937499999999994
40
1
40
1
40
1
40
1
41
1
10
13.6630880004071
20
-7.08471576438771
30
0
41
1
10
13.6861988750436
20
-7.0472123587227
30
0
41
1
10
13.7124634572316
20
-7.01130139613016
30
0
41
1
10
13.7563389122799
20
-6.96141563279397
30
0
41
1
10
13.7717411708545
20
-6.9454305778597
30
0
41
1
10
13.8041444270663
20
-6.91523788863267
30
0
41
1
10
13.8211597122118
20
-6.90100830350676
30
0
41
1
10
13.847983679397
20
-6.88158711702116
30
0
41
1
10
13.8571612607797
20
-6.87542510781006
30
0
41
1
10
13.8759113057925
20
-6.86395042831876
30
0
41
1
10
13.8855438277205
20
-6.85860326731049
30
0
41
1
10
13.9050898125475
20
-6.8490431712996
30
0
41
1
10
13.9149775216621
20
-6.84483596213167
30
0
41
1
10
13.9350201319718
20
-6.8378123704679
30
0
41
1
10
13.9451742665508
20
-6.83499142547871
30
0
41
1
10
13.9606565187314
20
-6.832120028101
30
0
41
1
10
13.9658949890065
20
-6.83138937435356
30
0
41
1
10
13.9762611030895
20
-6.8304869372565
30
0
41
1
10
13.9865099366608
20
-6.8301359495031
30
0
41
1
10
13.9965001352204
20
-6.83097510415789
30
0
41
1
10
14.006345356633
20
-6.83246919362151
30
0
41
1
10
14.0111970208244
20
-6.83355157600491
30
0
41
1
10
14.0250682458926
20
-6.83772678792096
30
0
41
1
10
14.0335634831378
20
-6.8417585088325
30
0
41
1
10
14.0490341273078
20
-6.85231889193128
30
0
41
1
10
14.0557219136846
20
-6.85865073700589
30
0
41
1
10
14.0614864920148
20
-6.86584690206726
30
0
0
SPLINE
5
18D
100
AcDbEntity
8
1
62
256
6
ByLayer
370
13
48
1
60
0
100
AcDbSpline
70
4
71
3
72
8
73
4
40
0
40
0
40
0
40
0
40
1
40
1
40
1
40
1
41
1
10
14.0614864920148
20
-6.86584690206726
30
0
41
1
10
14.0672393613173
20
-6.8687998540087
30
0
41
1
10
14.0729929691363
20
-6.87175339301339
30
0
41
1
10
14.0787473442673
20
-6.87470754224526
30
0
0
SPLINE
5
18E
100
AcDbEntity
8
1
62
256
6
ByLayer
370
13
48
1
60
0
100
AcDbSpline
70
4
71
3
72
40
73
36
40
0
40
0
40
0
40
0
40
0.0625000000000026
40
0.0625000000000026
40
0.0937500000000039
40
0.0937500000000039
40
0.125000000000005
40
0.125000000000005
40
0.187500000000008
40
0.187500000000008
40
0.250000000000011
40
0.250000000000011
40
0.312500000000014
40
0.312500000000014
40
0.375000000000017
40
0.375000000000017
40
0.500000000000016
40
0.500000000000016
40
0.562500000000015
40
0.562500000000015
40
0.625000000000015
40
0.625000000000015
40
0.687500000000014
40
0.687500000000014
40
0.750000000000013
40
0.750000000000013
40
0.812500000000013
40
0.812500000000013
40
0.875000000000012
40
0.875000000000012
40
0.906250000000012
40
0.906250000000012
40
0.937500000000012
40
0.937500000000012
40
1
40
1
40
1
40
1
41
1
10
15.5164853341186
20
-6.5361877025762
30
0
41
1
10
15.5163998233089
20
-6.5511574383419
30
0
41
1
10
15.5191001316564
20
-6.56597604090067
30
0
41
1
10
15.5259264876816
20
-6.58809406536906
30
0
41
1
10
15.528691586292
20
-6.59546891528177
30
0
41
1
10
15.5349690165248
20
-6.60998862868971
30
0
41
1
10
15.5384864441471
20
-6.61715641169988
30
0
41
1
10
15.5500204527912
20
-6.63843388706741
30
0
41
1
10
15.55899828825
20
-6.65228534664257
30
0
41
1
10
15.5787918682699
20
-6.67919788873778
30
0
41
1
10
15.5896308059268
20
-6.69228703457028
30
0
41
1
10
15.6127345548826
20
-6.71768532948497
30
0
41
1
10
15.6250101055218
20
-6.7300031433156
30
0
41
1
10
15.6506466825014
20
-6.75380417964678
30
0
41
1
10
15.6640586805579
20
-6.76533482321966
30
0
41
1
10
15.7057632861767
20
-6.79875845750607
30
0
41
1
10
15.7352008393559
20
-6.81927881188906
30
0
41
1
10
15.7816731746009
20
-6.8476037314089
30
0
41
1
10
15.797428951799
20
-6.85655194172747
30
0
41
1
10
15.8294727292428
20
-6.8734523287454
30
0
41
1
10
15.8458035330693
20
-6.88142329867711
30
0
41
1
10
15.8787974612633
20
-6.89619478762867
30
0
41
1
10
15.8954493345215
20
-6.90299511593648
30
0
41
1
10
15.9291027326023
20
-6.91531863572058
30
0
41
1
10
15.9461192732039
20
-6.9208428289929
30
0
41
1
10
15.9801676081906
20
-6.9302974335308
30
0
41
1
10
15.9972925721878
20
-6.93425801153606
30
0
41
1
10
16.0314840731105
20
-6.94024668268131
30
0
41
1
10
16.0485043946081
20
-6.94227584085726
30
0
41
1
10
16.0738395508843
20
-6.94343985315359
30
0
41
1
10
16.082207151186
20
-6.94350973293669
30
0
41
1
10
16.0987715530816
20
-6.942912592113
30
0
41
1
10
16.1070002898748
20
-6.94224106790855
30
0
41
1
10
16.1311052670779
20
-6.93893427733715
30
0
41
1
10
16.1464206526635
20
-6.9350759302956
30
0
41
1
10
16.1606399590812
20
-6.92872647808267
30
0
0
SPLINE
5
18F
100
AcDbEntity
8
1
62
256
6
ByLayer
370
13
48
1
60
0
100
AcDbSpline
70
4
71
3
72
8
73
4
40
0
40
0
40
0
40
0
40
1
40
1
40
1
40
1
41
1
10
16.1606399590812
20
-6.92872647808267
30
0
41
1
10
16.1665763244677
20
-6.92607566887776
30
0
41
1
10
16.1725119060152
20
-6.92342542965227
30
0
41
1
10
16.1784467331296
20
-6.9207757387525
30
0
0
SPLINE
5
190
100
AcDbEntity
8
1
62
256
6
ByLayer
370
13
48
1
60
0
100
AcDbSpline
70
4
71
3
72
32
73
28
40
0
40
0
40
0
40
0
40
0.062500000000014
40
0.062500000000014
40
0.125000000000028
40
0.125000000000028
40
0.156250000000035
40
0.156250000000035
40
0.187500000000042
40
0.187500000000042
40
0.250000000000038
40
0.250000000000038
40
0.312500000000034
40
0.312500000000034
40
0.375000000000029
40
0.375000000000029
40
0.437500000000025
40
0.437500000000025
40
0.500000000000021
40
0.500000000000021
40
0.625000000000016
40
0.625000000000016
40
0.750000000000011
40
0.750000000000011
40
0.875000000000005
40
0.875000000000005
40
1
40
1
40
1
40
1
41
1
10
16.1784467331296
20
-6.9207757387525
30
0
41
1
10
16.1846115429545
20
-6.91391530018839
30
0
41
1
10
16.1915916814355
20
-6.90801645289517
30
0
41
1
10
16.2073916228572
20
-6.89838934635119
30
0
41
1
10
16.2163362135495
20
-6.89467188324986
30
0
41
1
10
16.2303756031388
20
-6.89120477926426
30
0
41
1
10
16.2351853766548
20
-6.89037761700936
30
0
41
1
10
16.2450553943081
20
-6.88936274089426
30
0
41
1
10
16.2501488891015
20
-6.88917784267611
30
0
41
1
10
16.2654499612014
20
-6.88955067521997
30
0
41
1
10
16.2757248256882
20
-6.89100350707949
30
0
41
1
10
16.2963786559919
20
-6.89587607418926
30
0
41
1
10
16.3065239545393
20
-6.89924312213319
30
0
41
1
10
16.3263598937163
20
-6.90733050804667
30
0
41
1
10
16.3360827781708
20
-6.9120637441807
30
0
41
1
10
16.3552023124249
20
-6.92265219300467
30
0
41
1
10
16.3645520374149
20
-6.92848715413569
30
0
41
1
10
16.3826950966768
20
-6.94090701320246
30
0
41
1
10
16.3915243302577
20
-6.94751321445156
30
0
41
1
10
16.4173898907354
20
-6.96834086688156
30
0
41
1
10
16.433637539384
20
-6.98341833886209
30
0
41
1
10
16.4644874547281
20
-7.01529837320399
30
0
41
1
10
16.4790349355328
20
-7.03205723360188
30
0
41
1
10
16.5065406848833
20
-7.0668264352195
30
0
41
1
10
16.5194947987856
20
-7.08483972877266
30
0
41
1
10
16.543794989296
20
-7.12177961585635
30
0
41
1
10
16.5551343589533
20
-7.14069106874879
30
0
41
1
10
16.5656908707305
20
-7.16002969609477
30
0
0
SPLINE
5
191
100
AcDbEntity
8
1
62
256
6
ByLayer
370
13
48
1
60
0
100
AcDbSpline
70
4
71
3
72
8
73
4
40
0
40
0
40
0
40
0
40
1
40
1
40
1
40
1
41
1
10
15.5165923777635
20
-6.51745099629008
30
0
41
1
10
15.5165566974532
20
-6.5236955443456
30
0
41
1
10
15.5165210162481
20
-6.52994109992258
30
0
41
1
10
15.5164853341186
20
-6.5361877025762
30
0
0
SPLINE
5
192
100
AcDbEntity
8
1
62
256
6
ByLayer
370
13
48
1
60
0
100
AcDbSpline
70
4
71
3
72
32
73
28
40
0
40
0
40
0
40
0
40
0.0625000000000074
40
0.0625000000000074
40
0.125000000000015
40
0.125000000000015
40
0.156250000000017
40
0.156250000000017
40
0.187500000000018
40
0.187500000000018
40
0.250000000000017
40
0.250000000000017
40
0.312500000000016
40
0.312500000000016
40
0.375000000000016
40
0.375000000000016
40
0.437500000000015
40
0.437500000000015
40
0.500000000000014
40
0.500000000000014
40
0.62500000000001
40
0.62500000000001
40
0.750000000000007
40
0.750000000000007
40
0.875000000000004
40
0.875000000000004
40
1
40
1
40
1
40
1
41
1
10
14.7437358425278
20
-6.49739766246708
30
0
41
1
10
14.740345218217
20
-6.48895776471377
30
0
41
1
10
14.7382037410532
20
-6.48029388238248
30
0
41
1
10
14.736740003497
20
-6.46246123077637
30
0
41
1
10
14.7374850375781
20
-6.45319308216736
30
0
41
1
10
14.7408031550422
20
-6.43977744848169
30
0
41
1
10
14.7422671561453
20
-6.43535373726448
30
0
41
1
10
14.7458902102687
20
-6.4266024683773
30
0
41
1
10
14.7480671177794
20
-6.42224841380997
30
0
41
1
10
14.7554473795478
20
-6.40961326779561
30
0
41
1
10
14.7614923563296
20
-6.40170458033978
30
0
41
1
10
14.7754069568241
20
-6.386744923181
30
0
41
1
10
14.7831213309165
20
-6.37986438872329
30
0
41
1
10
14.7995589655543
20
-6.36713675337231
30
0
41
1
10
14.8083087604294
20
-6.36126882111191
30
0
41
1
10
14.826664715709
20
-6.35034932327719
30
0
41
1
10
14.8362309841513
20
-6.34532732586419
30
0
41
1
10
14.8557764190274
20
-6.3361145880568
30
0
41
1
10
14.8657913482111
20
-6.33190402069826
30
0
41
1
10
14.8964468671869
20
-6.32028667782876
30
0
41
1
10
14.91748365072
20
-6.31396000555517
30
0
41
1
10
14.9603162915888
20
-6.30353834519829
30
0
41
1
10
14.9820477649475
20
-6.29946805809587
30
0
41
1
10
15.0258670683469
20
-6.29328505760716
30
0
41
1
10
15.0479556397506
20
-6.29117724971181
30
0
41
1
10
15.0921759097239
20
-6.2887719620326
30
0
41
1
10
15.1142910681089
20
-6.28847269177245
30
0
41
1
10
15.1364110144079
20
-6.28904663874337
30
0
0
SPLINE
5
193
100
AcDbEntity
8
1
62
256
6
ByLayer
370
13
48
1
60
0
100
AcDbSpline
70
4
71
3
72
31
73
27
40
0
40
0
40
0
40
0
40
0.249999999999997
40
0.249999999999997
40
0.374999999999996
40
0.374999999999996
40
0.499999999999994
40
0.499999999999994
40
0.562499999999995
40
0.562499999999995
40
0.624999999999995
40
0.624999999999995
40
0.687499999999996
40
0.687499999999996
40
0.749999999999996
40
0.749999999999996
40
0.781249999999995
40
0.781249999999995
40
0.812499999999994
40
0.843749999999993
40
0.843749999999993
40
0.874999999999992
40
0.874999999999992
40
0.937499999999996
40
0.937499999999996
40
1
40
1
40
1
40
1
41
1
10
15.1364110144079
20
-6.28904663874337
30
0
41
1
10
15.180620310956
20
-6.29019373880826
30
0
41
1
10
15.2249227894784
20
-6.2948003934022
30
0
41
1
10
15.289964821314
20
-6.30745734882757
30
0
41
1
10
15.3114420407679
20
-6.31265015485431
30
0
41
1
10
15.3535649172275
20
-6.32525604497519
30
0
41
1
10
15.3742370388612
20
-6.33267057060439
30
0
41
1
10
15.4041310208244
20
-6.34582533838599
30
0
41
1
10
15.4139268584748
20
-6.35056113143187
30
0
41
1
10
15.4329395697185
20
-6.36077738167037
30
0
41
1
10
15.4422153204192
20
-6.3662916666182
30
0
41
1
10
15.4598755699261
20
-6.37810525474211
30
0
41
1
10
15.4682429927906
20
-6.3843856718855
30
0
41
1
10
15.4838448263165
20
-6.39784171864218
30
0
41
1
10
15.4910830467313
20
-6.40501452721398
30
0
41
1
10
15.5008238086987
20
-6.41663836578826
30
0
41
1
10
15.5039013359823
20
-6.42068711758557
30
0
41
1
10
15.5094981600305
20
-6.4289597801031
30
0
41
1
10
15.5145405029138
20
-6.4373986138456
30
0
41
1
10
15.5183822620901
20
-6.44619069802346
30
0
41
1
10
15.521561468749
20
-6.45517459142056
30
0
41
1
10
15.5228133419935
20
-6.45976750267656
30
0
41
1
10
15.5254087729026
20
-6.47341584585629
30
0
41
1
10
15.525655725395
20
-6.4824799444572
30
0
41
1
10
15.5231727780549
20
-6.50052439030648
30
0
41
1
10
15.5204894747023
20
-6.50916903086826
30
0
41
1
10
15.5165923777635
20
-6.51745099629008
30
0
0
SPLINE
5
194
100
AcDbEntity
8
1
62
256
6
ByLayer
370
13
48
1
60
0
100
AcDbSpline
70
4
71
3
72
8
73
4
40
0
40
0
40
0
40
0
40
1
40
1
40
1
40
1
41
1
10
9.04228055853216
20
-1.07017288938701
30
0
41
1
10
9.07537724677067
20
-1.05201450073966
30
0
41
1
10
9.1085508953548
20
-1.03382099989611
30
0
41
1
10
9.14181883456499
20
-1.01558448013216
30
0
0
SPLINE
5
195
100
AcDbEntity
8
1
62
256
6
ByLayer
370
13
48
1
60
0
100
AcDbSpline
70
4
71
3
72
8
73
4
40
0
40
0
40
0
40
0
40
1
40
1
40
1
40
1
41
1
10
11.6787167802047
20
0.0845162490279279
30
0
41
1
10
11.6988592129738
20
0.0927834125695028
30
0
41
1
10
11.7189202357735
20
0.101140372844014
30
0
41
1
10
11.7389047976568
20
0.109581670952622
30
0
0
SPLINE
5
196
100
AcDbEntity
8
1
62
256
6
ByLayer
370
13
48
1
60
0
100
AcDbSpline
70
4
71
3
72
35
73
31
40
0
40
0
40
0
40
0
40
0.124999999999982
40
0.124999999999982
40
0.249999999999964
40
0.249999999999964
40
0.312499999999959
40
0.312499999999959
40
0.374999999999954
40
0.374999999999954
40
0.437499999999949
40
0.437499999999949
40
0.499999999999944
40
0.499999999999944
40
0.624999999999943
40
0.624999999999943
40
0.687499999999946
40
0.687499999999946
40
0.718749999999953
40
0.718749999999953
40
0.749999999999961
40
0.781249999999968
40
0.781249999999968
40
0.812499999999975
40
0.812499999999975
40
0.874999999999983
40
0.874999999999983
40
0.937499999999992
40
0.937499999999992
40
1
40
1
40
1
40
1
41
1
10
0.346231754735271
20
-8.06232321789869
30
0
41
1
10
0.353618261973423
20
-8.0744241580035
30
0
41
1
10
0.360538343006368
20
-8.08642349978967
30
0
41
1
10
0.373433647405904
20
-8.11021152583496
30
0
41
1
10
0.379410448822654
20
-8.1220005745777
30
0
41
1
10
0.387562241259474
20
-8.1395004910095
30
0
41
1
10
0.390142857586028
20
-8.14530295769507
30
0
41
1
10
0.394993076091595
20
-8.15683758009371
30
0
41
1
10
0.397258680929298
20
-8.16256352951288
30
0
41
1
10
0.401357576882305
20
-8.17374330169159
30
0
41
1
10
0.403200944399799
20
-8.17921957417278
30
0
41
1
10
0.40640577060239
20
-8.18990704833189
30
0
41
1
10
0.407772655950083
20
-8.19514097128129
30
0
41
1
10
0.410942189153474
20
-8.2101906460762
30
0
41
1
10
0.41185637972248
20
-8.21930455064731
30
0
41
1
10
0.410274181350445
20
-8.23062901171036
30
0
41
1
10
0.409254143171864
20
-8.23389316835696
30
0
41
1
10
0.406805937558119
20
-8.237842292262
30
0
41
1
10
0.405825857445592
20
-8.23900656376068
30
0
41
1
10
0.403562251547754
20
-8.2409248448653
30
0
41
1
10
0.40100406581152
20
-8.24243734782161
30
0
41
1
10
0.397836426603447
20
-8.24311245036566
30
0
41
1
10
0.394346449579615
20
-8.2433457168768
30
0
41
1
10
0.392424575302897
20
-8.24323591947316
30
0
41
1
10
0.386364773896702
20
-8.24224501119207
30
0
41
1
10
0.38186461582049
20
-8.24071058892216
30
0
41
1
10
0.372185481075775
20
-8.23613929309309
30
0
41
1
10
0.367165386971436
20
-8.23318736387037
30
0
41
1
10
0.356843413342148
20
-8.2262494333855
30
0
41
1
10
0.351524997935911
20
-8.22224207531056
30
0
41
1
10
0.346231754735271
20
-8.21791822640856
30
0
0
SPLINE
5
197
100
AcDbEntity
8
1
62
256
6
ByLayer
370
13
48
1
60
0
100
AcDbSpline
70
4
71
3
72
8
73
4
40
0
40
0
40
0
40
0
40
1
40
1
40
1
40
1
41
1
10
-0.238799999995223
20
-7.7400148588317
30
0
41
1
10
-0.0437913217670314
20
-7.89931909343167
30
0
41
1
10
0.151219374023952
20
-8.05862003506181
30
0
41
1
10
0.346231754735271
20
-8.21791822640856
30
0
0
SPLINE
5
198
100
AcDbEntity
8
1
62
256
6
ByLayer
370
13
48
1
60
0
100
AcDbSpline
70
4
71
3
72
20
73
16
40
0
40
0
40
0
40
0
40
0.124999999999998
40
0.124999999999998
40
0.249999999999995
40
0.249999999999995
40
0.374999999999993
40
0.374999999999993
40
0.49999999999999
40
0.49999999999999
40
0.624999999999987
40
0.624999999999987
40
0.749999999999985
40
0.749999999999985
40
1
40
1
40
1
40
1
41
1
10
-0.298799999995623
20
-7.73685364503896
30
0
41
1
10
-0.298799999995737
20
-7.73377374074809
30
0
41
1
10
-0.298526791792853
20
-7.7309252762835
30
0
41
1
10
-0.297305334353752
20
-7.72580238231237
30
0
41
1
10
-0.296355675295587
20
-7.72355587986257
30
0
41
1
10
-0.293718038867638
20
-7.7199247898341
30
0
41
1
10
-0.292004334569157
20
-7.71851066904046
30
0
41
1
10
-0.287781646402919
20
-7.71672249401868
30
0
41
1
10
-0.285318002806122
20
-7.71635494380118
30
0
41
1
10
-0.279679103409109
20
-7.71668778733576
30
0
41
1
10
-0.276462977671741
20
-7.71741160369126
30
0
41
1
10
-0.269658996631193
20
-7.7198319186036
30
0
41
1
10
-0.26602764495911
20
-7.72152988220429
30
0
41
1
10
-0.254670348314591
20
-7.7278490661042
30
0
41
1
10
-0.246812109474746
20
-7.73346969899686
30
0
41
1
10
-0.238799999995223
20
-7.7400148588317
30
0
0
SPLINE
5
199
100
AcDbEntity
8
1
62
256
6
ByLayer
370
13
48
1
60
0
100
AcDbSpline
70
4
71
3
72
18
73
14
40
0
40
0
40
0
40
0
40
0.25
40
0.25
40
0.5
40
0.5
40
0.625
40
0.625
40
0.75
40
0.75
40
0.875
40
0.875
40
1
40
1
40
1
40
1
41
1
10
-0.238799999995223
20
-7.96246187705347
30
0
41
1
10
-0.246894710314024
20
-7.95016458217387
30
0
41
1
10
-0.254391786970501
20
-7.93800122598358
30
0
41
1
10
-0.268139457526246
20
-7.9139461224361
30
0
41
1
10
-0.274395108520508
20
-7.90205329357676
30
0
41
1
10
-0.282621653397683
20
-7.88446223524428
30
0
41
1
10
-0.285153468506366
20
-7.87866843437845
30
0
41
1
10
-0.289665583937818
20
-7.86740990255387
30
0
41
1
10
-0.291657947218283
20
-7.86192119743251
30
0
41
1
10
-0.29501401276255
20
-7.85127941591819
30
0
41
1
10
-0.29638423838972
20
-7.84609103606746
30
0
41
1
10
-0.29827189503149
20
-7.83638595986056
30
0
41
1
10
-0.298800000000398
20
-7.83185476134005
30
0
41
1
10
-0.29880000000108
20
-7.82773354709209
30
0
0
SPLINE
5
19A
100
AcDbEntity
8
1
62
256
6
ByLayer
370
13
48
1
60
0
100
AcDbSpline
70
4
71
3
72
8
73
4
40
0
40
0
40
0
40
0
40
1
40
1
40
1
40
1
41
1
10
0.346231754735271
20
-8.81943954716488
30
0
41
1
10
0.147108253221603
20
-8.5375239979268
30
0
41
1
10
-0.0481511100072396
20
-8.25209121847578
30
0
41
1
10
-0.238799999995223
20
-7.96246187705347
30
0
0
SPLINE
5
19B
100
AcDbEntity
8
1
62
256
6
ByLayer
370
13
48
1
60
0
100
AcDbSpline
70
4
71
3
72
34
73
30
40
0
40
0
40
0
40
0
40
0.062500000000003
40
0.062500000000003
40
0.125000000000006
40
0.125000000000006
40
0.187500000000009
40
0.187500000000009
40
0.250000000000012
40
0.250000000000012
40
0.281250000000009
40
0.281250000000009
40
0.312500000000007
40
0.312500000000007
40
0.375
40
0.375
40
0.437499999999993
40
0.437499999999993
40
0.499999999999985
40
0.499999999999985
40
0.624999999999977
40
0.624999999999977
40
0.687499999999976
40
0.687499999999976
40
0.749999999999974
40
0.749999999999974
40
0.874999999999987
40
0.874999999999987
40
1
40
1
40
1
40
1
41
1
10
0.346231754735385
20
-8.93043793549376
30
0
41
1
10
0.351128178262769
20
-8.93451420965297
30
0
41
1
10
0.355960738234984
20
-8.93833589705676
30
0
41
1
10
0.365472840646447
20
-8.94536637626706
30
0
41
1
10
0.370190357955579
20
-8.9485961832498
30
0
41
1
10
0.379100538242454
20
-8.9540678649532
30
0
41
1
10
0.383323041786269
20
-8.95633715592587
30
0
41
1
10
0.39120861375531
20
-8.95974792136437
30
0
41
1
10
0.394759170270135
20
-8.96083180769526
30
0
41
1
10
0.399344389466791
20
-8.9614435804601
30
0
41
1
10
0.400756287663825
20
-8.96148106193149
30
0
41
1
10
0.403338408474013
20
-8.96121001423469
30
0
41
1
10
0.404508039170395
20
-8.96089749684276
30
0
41
1
10
0.407552068011881
20
-8.9594732401242
30
0
41
1
10
0.409008474860997
20
-8.95787833727977
30
0
41
1
10
0.41088583333223
20
-8.95351772423916
30
0
41
1
10
0.411277419013885
20
-8.9508185511589
30
0
41
1
10
0.411177738223586
20
-8.94462567257077
30
0
41
1
10
0.410679584073222
20
-8.94109520372947
30
0
41
1
10
0.408091664626312
20
-8.92965763060076
30
0
41
1
10
0.404990781381656
20
-8.92105407979651
30
0
41
1
10
0.39890521017
20
-8.90712538286479
30
0
41
1
10
0.396628441614865
20
-8.90230746749566
30
0
41
1
10
0.391737458476285
20
-8.89255859969856
30
0
41
1
10
0.389112085905225
20
-8.88760176028396
30
0
41
1
10
0.380762444169335
20
-8.87251476902028
30
0
41
1
10
0.37456992524082
20
-8.86217049821769
30
0
41
1
10
0.361090347427847
20
-8.8409857943399
30
0
41
1
10
0.353854909233945
20
-8.83023227515068
30
0
41
1
10
0.346231754735271
20
-8.81943954716488
30
0
0
SPLINE
5
19C
100
AcDbEntity
8
1
62
256
6
ByLayer
370
13
48
1
60
0
100
AcDbSpline
70
4
71
3
72
8
73
4
40
0
40
0
40
0
40
0
40
1
40
1
40
1
40
1
41
1
10
0.346231754735271
20
-8.9304379354937
30
0
41
1
10
0.151147867056551
20
-8.76803053634231
30
0
41
1
10
-0.0438668911496336
20
-8.60551254082466
30
0
41
1
10
-0.238799999995109
20
-8.44286391907437
30
0
0
SPLINE
5
19D
100
AcDbEntity
8
1
62
256
6
ByLayer
370
13
48
1
60
0
100
AcDbSpline
70
4
71
3
72
20
73
16
40
0
40
0
40
0
40
0
40
0.125000000000001
40
0.125000000000001
40
0.250000000000002
40
0.250000000000002
40
0.375000000000004
40
0.375000000000004
40
0.500000000000005
40
0.500000000000005
40
0.625000000000006
40
0.625000000000006
40
0.750000000000007
40
0.750000000000007
40
1
40
1
40
1
40
1
41
1
10
-0.238799999995109
20
-8.44286391907437
30
0
41
1
10
-0.242713926420521
20
-8.43959821042947
30
0
41
1
10
-0.2465820144063
20
-8.43650682860979
30
0
41
1
10
-0.254211223764315
20
-8.43072930173847
30
0
41
1
10
-0.257998473275535
20
-8.4280256508151
30
0
41
1
10
-0.265314044109829
20
-8.4232000960977
30
0
41
1
10
-0.268813890353641
20
-8.42109429718786
30
0
41
1
10
-0.275453137780602
20
-8.41758052507581
30
0
41
1
10
-0.278626835345136
20
-8.4161633027974
30
0
41
1
10
-0.284311883508991
20
-8.4142376060083
30
0
41
1
10
-0.286837584587744
20
-8.41371371244296
30
0
41
1
10
-0.291231183645124
20
-8.41357394734891
30
0
41
1
10
-0.293105320599949
20
-8.41397522945337
30
0
41
1
10
-0.297465173768757
20
-8.41648685673047
30
0
41
1
10
-0.298799999995282
20
-8.41994724155117
30
0
41
1
10
-0.298799999995282
20
-8.42456039474436
30
0
0
SPLINE
5
19E
100
AcDbEntity
8
1
62
256
6
ByLayer
370
13
48
1
60
0
100
AcDbSpline
70
4
71
3
72
16
73
12
40
0
40
0
40
0
40
0
40
0.125000000000007
40
0.125000000000007
40
0.250000000000014
40
0.250000000000014
40
0.500000000000009
40
0.500000000000009
40
0.750000000000005
40
0.750000000000005
40
1
40
1
40
1
40
1
41
1
10
-0.298799999996874
20
-8.48729043713738
30
0
41
1
10
-0.29879999999676
20
-8.49007210552045
30
0
41
1
10
-0.298290792881545
20
-8.49329114072199
30
0
41
1
10
-0.296427722589016
20
-8.50045289950347
30
0
41
1
10
-0.295060779277065
20
-8.50441335014656
30
0
41
1
10
-0.290029195819244
20
-8.51681317316709
30
0
41
1
10
-0.285416223217823
20
-8.52590816882767
30
0
41
1
10
-0.274364474414739
20
-8.54522722694136
30
0
41
1
10
-0.268078917403983
20
-8.55518066417446
30
0
41
1
10
-0.254317882615538
20
-8.57555355665639
30
0
41
1
10
-0.246806352069513
20
-8.58601482354689
30
0
41
1
10
-0.238799999995223
20
-8.59660851745926
30
0
0
SPLINE
5
19F
100
AcDbEntity
8
1
62
256
6
ByLayer
370
13
48
1
60
0
100
AcDbSpline
70
4
71
3
72
8
73
4
40
0
40
0
40
0
40
0
40
1
40
1
40
1
40
1
41
1
10
-0.238799999995223
20
-8.59660851745926
30
0
41
1
10
-0.0465918809348125
20
-8.85093083078127
30
0
41
1
10
0.148571680449407
20
-9.10219673005466
30
0
41
1
10
0.346231754735271
20
-9.3508808238756
30
0
0
SPLINE
5
1A0
100
AcDbEntity
8
1
62
256
6
ByLayer
370
13
48
1
60
0
100
AcDbSpline
70
4
71
3
72
28
73
24
40
0
40
0
40
0
40
0
40
0.125000000000008
40
0.125000000000008
40
0.250000000000015
40
0.250000000000015
40
0.375000000000023
40
0.375000000000023
40
0.43750000000002
40
0.43750000000002
40
0.500000000000018
40
0.500000000000018
40
0.562500000000016
40
0.562500000000016
40
0.625000000000013
40
0.625000000000013
40
0.687500000000011
40
0.687500000000011
40
0.750000000000009
40
0.750000000000009
40
0.875000000000004
40
0.875000000000004
40
1
40
1
40
1
40
1
41
1
10
0.346231754735271
20
-9.3508808238756
30
0
41
1
10
0.354033642138205
20
-9.36069669238557
30
0
41
1
10
0.36139776874856
20
-9.37032279385707
30
0
41
1
10
0.375174540998131
20
-9.38915596506226
30
0
41
1
10
0.381607022102202
20
-9.39838880063306
30
0
41
1
10
0.393201841745025
20
-9.41621836100066
30
0
41
1
10
0.398222980745771
20
-9.4245913212059
30
0
41
1
10
0.404238160326457
20
-9.43608875420048
30
0
41
1
10
0.405989631009987
20
-9.43975435028651
30
0
41
1
10
0.40878156928872
20
-9.4464488757736
30
0
41
1
10
0.409837414274165
20
-9.44950338457218
30
0
41
1
10
0.411142671554415
20
-9.4549189964346
30
0
41
1
10
0.411382502528426
20
-9.45728358760047
30
0
41
1
10
0.410887839820219
20
-9.46099303642839
30
0
41
1
10
0.410165598443172
20
-9.4623692521761
30
0
41
1
10
0.407630687477166
20
-9.46402576623487
30
0
41
1
10
0.405867494638159
20
-9.46427147427957
30
0
41
1
10
0.401377908485159
20
-9.46363217188011
30
0
41
1
10
0.39860801654649
20
-9.46272307855699
30
0
41
1
10
0.389234639743535
20
-9.45846082509681
30
0
41
1
10
0.381427128706917
20
-9.45352142081416
30
0
41
1
10
0.364670850345618
20
-9.4412897513935
30
0
41
1
10
0.355542334292039
20
-9.43388614328697
30
0
41
1
10
0.346231754735271
20
-9.42582959019907
30
0
0
SPLINE
5
1A1
100
AcDbEntity
8
1
62
256
6
ByLayer
370
13
48
1
60
0
100
AcDbSpline
70
4
71
3
72
8
73
4
40
0
40
0
40
0
40
0
40
1
40
1
40
1
40
1
41
1
10
-0.238799999995223
20
-8.91801952773599
30
0
41
1
10
-0.04401999268228
20
-9.08764373664999
30
0
41
1
10
0.151002511288169
20
-9.25689544871378
30
0
41
1
10
0.346231754735271
20
-9.42582959019907
30
0
0
SPLINE
5
1A2
100
AcDbEntity
8
1
62
256
6
ByLayer
370
13
48
1
60
0
100
AcDbSpline
70
4
71
3
72
22
73
18
40
0
40
0
40
0
40
0
40
0.125
40
0.125
40
0.25
40
0.25
40
0.375
40
0.375
40
0.5
40
0.5
40
0.625
40
0.625
40
0.75
40
0.75
40
0.875
40
0.875
40
1
40
1
40
1
40
1
41
1
10
-0.298799999995282
20
-8.88608639191816
30
0
41
1
10
-0.298799999995282
20
-8.88452839534327
30
0
41
1
10
-0.298439933741662
20
-8.883316925662
30
0
41
1
10
-0.296906718557381
20
-8.88167800490757
30
0
41
1
10
-0.295749414641961
20
-8.88127603321911
30
0
41
1
10
-0.292689626448492
20
-8.88131186438486
30
0
41
1
10
-0.290761403188668
20
-8.88175544973561
30
0
41
1
10
-0.286235174802329
20
-8.88346442549889
30
0
41
1
10
-0.283670127720171
20
-8.8847109691861
30
0
41
1
10
-0.277997146734293
20
-8.88791151595316
30
0
41
1
10
-0.274868737451158
20
-8.8898823732753
30
0
41
1
10
-0.268341472413596
20
-8.89432246018239
30
0
41
1
10
-0.264919370019726
20
-8.89680313743449
30
0
41
1
10
-0.257801699390399
20
-8.90221620531369
30
0
41
1
10
-0.254084653497927
20
-8.90516689655098
30
0
41
1
10
-0.246530409601092
20
-8.91137419390779
30
0
41
1
10
-0.242691898054574
20
-8.91463026752078
30
0
41
1
10
-0.238799999995223
20
-8.91801952773599
30
0
0
SPLINE
5
1A3
100
AcDbEntity
8
1
62
256
6
ByLayer
370
13
48
1
60
0
100
AcDbSpline
70
4
71
3
72
20
73
16
40
0
40
0
40
0
40
0
40
0.25000000000002
40
0.25000000000002
40
0.375000000000017
40
0.375000000000017
40
0.500000000000014
40
0.500000000000014
40
0.62500000000001
40
0.62500000000001
40
0.750000000000007
40
0.750000000000007
40
0.875000000000003
40
0.875000000000003
40
1
40
1
40
1
40
1
41
1
10
-0.238799999995223
20
-9.0154066387145
30
0
41
1
10
-0.246666247329387
20
-9.00611152663501
30
0
41
1
10
-0.254071864201166
20
-8.99705086121978
30
0
41
1
10
-0.264399553271829
20
-8.9838509223695
30
0
41
1
10
-0.26771081287805
20
-8.97951670890828
30
0
41
1
10
-0.274034124683027
20
-8.97099709251788
30
0
41
1
10
-0.277048937003457
20
-8.96680580325639
30
0
41
1
10
-0.282589126697331
20
-8.95879650906656
30
0
41
1
10
-0.28513377342918
20
-8.95495349945938
30
0
41
1
10
-0.289704373035903
20
-8.94763844711579
30
0
41
1
10
-0.29174365626514
20
-8.94414124015171
30
0
41
1
10
-0.295116113242472
20
-8.93773417862158
30
0
41
1
10
-0.296448188665323
20
-8.93483271643791
30
0
41
1
10
-0.298291452690961
20
-8.92973006155589
30
0
41
1
10
-0.298799999995168
20
-8.92751534710041
30
0
41
1
10
-0.298799999995168
20
-8.9257932669536
30
0
0
SPLINE
5
1A4
100
AcDbEntity
8
1
62
256
6
ByLayer
370
13
48
1
60
0
100
AcDbSpline
70
4
71
3
72
8
73
4
40
0
40
0
40
0
40
0
40
1
40
1
40
1
40
1
41
1
10
0.346231754735271
20
-9.69383466119328
30
0
41
1
10
0.14947787390426
20
-9.46969639128329
30
0
41
1
10
-0.0456297561732129
20
-9.24366529757506
30
0
41
1
10
-0.238799999995223
20
-9.0154066387145
30
0
0
SPLINE
5
1A5
100
AcDbEntity
8
1
62
256
6
ByLayer
370
13
48
1
60
0
100
AcDbSpline
70
4
71
3
72
30
73
26
40
0
40
0
40
0
40
0
40
0.125000000000002
40
0.125000000000002
40
0.187500000000003
40
0.187500000000003
40
0.250000000000004
40
0.250000000000004
40
0.312500000000004
40
0.312500000000004
40
0.375000000000005
40
0.375000000000005
40
0.437500000000005
40
0.437500000000005
40
0.500000000000006
40
0.500000000000006
40
0.625000000000005
40
0.625000000000005
40
0.687500000000005
40
0.687500000000005
40
0.750000000000004
40
0.750000000000004
40
0.875000000000002
40
0.875000000000002
40
1
40
1
40
1
40
1
41
1
10
0.346231754735271
20
-9.73728941786376
30
0
41
1
10
0.355085586941613
20
-9.74536189437319
30
0
41
1
10
0.363591430441232
20
-9.75287014857858
30
0
41
1
10
0.375666008741717
20
-9.76301098011609
30
0
41
1
10
0.379553131850656
20
-9.76618107796949
30
0
41
1
10
0.386810252766708
20
-9.7718748309845
30
0
41
1
10
0.390209100917986
20
-9.77442329189037
30
0
41
1
10
0.396465451859484
20
-9.77881398857036
30
0
41
1
10
0.399283006982813
20
-9.78062463517679
30
0
41
1
10
0.404073290831178
20
-9.78329571403665
30
0
41
1
10
0.406087952781917
20
-9.7841787300471
30
0
41
1
10
0.409154059245765
20
-9.78489777647249
30
0
41
1
10
0.410191615077991
20
-9.78473876642587
30
0
41
1
10
0.411307103356393
20
-9.78341456460086
30
0
41
1
10
0.41137277580637
20
-9.7822277109502
30
0
41
1
10
0.410187406030985
20
-9.77737570103827
30
0
41
1
10
0.40754302835839
20
-9.7723301496795
30
0
41
1
10
0.401759182382165
20
-9.76324752432149
30
0
41
1
10
0.399524591512744
20
-9.75995443484456
30
0
41
1
10
0.394513368372685
20
-9.7528995518928
30
0
41
1
10
0.391748228213231
20
-9.74915581542697
30
0
41
1
10
0.382948820856171
20
-9.73758938873297
30
0
41
1
10
0.376356795142982
20
-9.72934950946021
30
0
41
1
10
0.361990448104365
20
-9.7120155486368
30
0
41
1
10
0.354280107786707
20
-9.7030031915468
30
0
41
1
10
0.346231754735271
20
-9.69383466119328
30
0
0
SPLINE
5
1A6
100
AcDbEntity
8
1
62
256
6
ByLayer
370
13
48
1
60
0
100
AcDbSpline
70
4
71
3
72
8
73
4
40
0
40
0
40
0
40
0
40
1
40
1
40
1
40
1
41
1
10
0.346231754735271
20
-9.73728941786376
30
0
41
1
10
0.150789834342476
20
-9.55909535742117
30
0
41
1
10
-0.0442438312217348
20
-9.38030767619736
30
0
41
1
10
-0.238799999995223
20
-9.2008256932817
30
0
0
SPLINE
5
1A7
100
AcDbEntity
8
1
62
256
6
ByLayer
370
13
48
1
60
0
100
AcDbSpline
70
4
71
3
72
20
73
16
40
0
40
0
40
0
40
0
40
0.249999999999998
40
0.249999999999998
40
0.374999999999998
40
0.374999999999998
40
0.499999999999999
40
0.499999999999999
40
0.624999999999999
40
0.624999999999999
40
0.749999999999999
40
0.749999999999999
40
0.875
40
0.875
40
1
40
1
40
1
40
1
41
1
10
-0.238799999995223
20
-9.2008256932817
30
0
41
1
10
-0.24654611760505
20
-9.19367974382519
30
0
41
1
10
-0.253991216364312
20
-9.18698493671135
30
0
41
1
10
-0.264580465002297
20
-9.1778006839568
30
0
41
1
10
-0.268023433372861
20
-9.17487605209979
30
0
41
1
10
-0.274482958378968
20
-9.16953119160016
30
0
41
1
10
-0.277523454426756
20
-9.16708959501031
30
0
41
1
10
-0.283170704887453
20
-9.16273330525249
30
0
41
1
10
-0.285794276031908
20
-9.16080846145516
30
0
41
1
10
-0.290355964776864
20
-9.1576999480836
30
0
41
1
10
-0.292315520782296
20
-9.15649800774159
30
0
41
1
10
-0.295529120608222
20
-9.15486570094086
30
0
41
1
10
-0.296767534067072
20
-9.15444963178007
30
0
41
1
10
-0.298392261816872
20
-9.1544599259129
30
0
41
1
10
-0.298799999995168
20
-9.15487415843236
30
0
41
1
10
-0.298799999995168
20
-9.15570013076947
30
0
0
SPLINE
5
1A8
100
AcDbEntity
8
1
62
256
6
ByLayer
370
13
48
1
60
0
100
AcDbSpline
70
4
71
3
72
24
73
20
40
0
40
0
40
0
40
0
40
0.125
40
0.125
40
0.25
40
0.375000000000001
40
0.375000000000001
40
0.437500000000001
40
0.437500000000001
40
0.500000000000001
40
0.500000000000001
40
0.625000000000001
40
0.750000000000001
40
0.750000000000001
40
0.812500000000001
40
0.812500000000001
40
0.875000000000001
40
0.875000000000001
40
1
40
1
40
1
40
1
41
1
10
8.69181905936793
20
-0.943782143573088
30
0
41
1
10
8.66599336948011
20
-0.889523529455204
30
0
41
1
10
8.64344636281075
20
-0.834421587373782
30
0
41
1
10
8.60465842696598
20
-0.722505742109973
30
0
41
1
10
8.57217886545104
20
-0.608877726999566
30
0
41
1
10
8.55229364300075
20
-0.491696183211076
30
0
41
1
10
8.54227425832593
20
-0.40239602100209
30
0
41
1
10
8.53977453991646
20
-0.372565151791065
30
0
41
1
10
8.53645101251047
20
-0.313094054874597
30
0
41
1
10
8.53562138282459
20
-0.283403121433793
30
0
41
1
10
8.53559111059096
20
-0.194460981884475
30
0
41
1
10
8.54209304470223
20
-0.0762177337363994
30
0
41
1
10
8.56163689447405
20
0.0413116440163037
30
0
41
1
10
8.58135338685756
20
0.129154340306599
30
0
41
1
10
8.58876074311408
20
0.158320121778928
30
0
41
1
10
8.60512401168532
20
0.215968697117802
30
0
41
1
10
8.61409404381013
20
0.244516977826692
30
0
41
1
10
8.64335695788438
20
0.329327160991142
30
0
41
1
10
8.66599512747754
20
0.384757720547015
30
0
41
1
10
8.69181905936793
20
0.439022488376537
30
0
0
SPLINE
5
1A9
100
AcDbEntity
8
1
62
256
6
ByLayer
370
13
48
1
60
0
100
AcDbSpline
70
4
71
3
72
23
73
19
40
0
40
0
40
0
40
0
40
0.124999999999998
40
0.187499999999996
40
0.187499999999996
40
0.249999999999994
40
0.249999999999994
40
0.499999999999992
40
0.499999999999992
40
0.562499999999992
40
0.562499999999992
40
0.624999999999993
40
0.624999999999993
40
0.749999999999995
40
0.749999999999995
40
0.874999999999998
40
0.874999999999998
40
1
40
1
40
1
40
1
41
1
10
7.67817747929754
20
-9.97788656032927
30
0
41
1
10
7.70823304295149
20
-9.93726279982096
30
0
41
1
10
7.75562909196194
20
-9.87777055239687
30
0
41
1
10
7.80674456027256
20
-9.82045327855857
30
0
41
1
10
7.84168684020992
20
-9.78273388727686
30
0
41
1
10
7.859585241894
20
-9.76412801769996
30
0
41
1
10
7.95077166345763
20
-9.67290081042168
30
0
41
1
10
8.02949609925631
20
-9.60519151349419
30
0
41
1
10
8.13622562489203
20
-9.5276897523016
30
0
41
1
10
8.15799129757326
20
-9.51254922096567
30
0
41
1
10
8.20240632008446
20
-9.48301497049286
30
0
41
1
10
8.22511866710644
20
-9.46858471008116
30
0
41
1
10
8.2940200611084
20
-9.42684341933401
30
0
41
1
10
8.34103678014466
20
-9.40101953451565
30
0
41
1
10
8.43729796939849
20
-9.35344465917339
30
0
41
1
10
8.4865420763883
20
-9.33169321554297
30
0
41
1
10
8.58737546980646
20
-9.29242392192137
30
0
41
1
10
8.63896406088392
20
-9.27490510290667
30
0
41
1
10
8.69181905936793
20
-9.25964136508267
30
0
0
SPLINE
5
1AA
100
AcDbEntity
8
1
62
256
6
ByLayer
370
13
48
1
60
0
100
AcDbSpline
70
4
71
3
72
40
73
36
40
0
40
0
40
0
40
0
40
0.124999999999998
40
0.124999999999998
40
0.187499999999997
40
0.187499999999997
40
0.218749999999997
40
0.218749999999997
40
0.249999999999996
40
0.249999999999996
40
0.374999999999996
40
0.374999999999996
40
0.437499999999995
40
0.437499999999995
40
0.468749999999995
40
0.468749999999995
40
0.499999999999995
40
0.499999999999995
40
0.624999999999997
40
0.624999999999997
40
0.656249999999997
40
0.656249999999997
40
0.687499999999997
40
0.687499999999997
40
0.749999999999998
40
0.749999999999998
40
0.812499999999998
40
0.812499999999998
40
0.843749999999998
40
0.843749999999998
40
0.874999999999998
40
0.874999999999998
40
0.937499999999999
40
0.937499999999999
40
1
40
1
40
1
40
1
41
1
10
8.69181905936793
20
6.71603372944983
30
0
41
1
10
8.58576221678433
20
6.7642013888387
30
0
41
1
10
8.48270257385772
20
6.81379648412994
30
0
41
1
10
8.33215705570044
20
6.89012349072814
30
0
41
1
10
8.28265325726929
20
6.91588737552703
30
0
41
1
10
8.20938994884793
20
6.9549804593577
30
0
41
1
10
8.18508747310509
20
6.96811202867039
30
0
41
1
10
8.13717171491325
20
6.99431895251101
30
0
41
1
10
8.11353099143318
20
7.00740826344921
30
0
41
1
10
7.99686217055759
20
7.07276348171931
30
0
41
1
10
7.90839864203539
20
7.12477244806783
30
0
41
1
10
7.78253844654236
20
7.20178516456642
30
0
41
1
10
7.74173193368503
20
7.22728608155344
30
0
41
1
10
7.68225462067991
20
7.26517097181383
30
0
41
1
10
7.66273061924809
20
7.27773046999764
30
0
41
1
10
7.62457715619504
20
7.30250114916694
30
0
41
1
10
7.60590719646299
20
7.31473800970443
30
0
41
1
10
7.51457178641303
20
7.37512921095484
30
0
41
1
10
7.44787855950878
20
7.4209501096976
30
0
41
1
10
7.37284925400465
20
7.4738886747709
30
0
41
1
10
7.35823348038932
20
7.4842789673875
30
0
41
1
10
7.3300529162353
20
7.5044466628751
30
0
41
1
10
7.31649251663063
20
7.51422046042583
30
0
41
1
10
7.27741076567972
20
7.5425617274349
30
0
41
1
10
7.25348339338788
20
7.56015254670754
30
0
41
1
10
7.2100580582588
20
7.59238622599301
30
0
41
1
10
7.19055827745623
20
7.6070305554812
30
0
41
1
10
7.16490755794152
20
7.62643537783831
30
0
41
1
10
7.15696582695304
20
7.63247041911083
30
0
41
1
10
7.14252355301059
20
7.64348078604641
30
0
41
1
10
7.13599423979767
20
7.64847782557351
30
0
41
1
10
7.11850004868663
20
7.66190032763521
30
0
41
1
10
7.10962197911405
20
7.66876051107383
30
0
41
1
10
7.09769023795113
20
7.67799474339759
30
0
41
1
10
7.09463443912577
20
7.6803699871754
30
0
41
1
10
7.09474055890868
20
7.68028761927414
30
0
0
INSERT
5
202
100
AcDbEntity
8
SK2
62
256
6
ByLayer
370
18
48
1
60
0
100
AcDbBlockReference
2
_U3
10
0
20
0
30
0
41
1
42
1
43
1
50
0
210
0
220
0
230
1
0
LINE
5
74
100
AcDbEntity
8
1
62
256
6
ByLayer
370
18
48
1
60
1
100
AcDbLine
10
0
20
0
30
0
11
0
21
297
31
0
39
0
210
0
220
0
230
1
0
LINE
5
76
100
AcDbEntity
8
1
62
256
6
ByLayer
370
18
48
1
60
1
100
AcDbLine
10
420
20
297
30
0
11
0
21
297
31
0
39
0
210
0
220
0
230
1
0
LINE
5
77
100
AcDbEntity
8
1
62
256
6
ByLayer
370
18
48
1
60
1
100
AcDbLine
10
420
20
297
30
0
11
420
21
0
31
0
39
0
210
0
220
0
230
1
0
LINE
5
78
100
AcDbEntity
8
1
62
256
6
ByLayer
370
18
48
1
60
1
100
AcDbLine
10
0
20
0
30
0
11
420
21
0
31
0
39
0
210
0
220
0
230
1
0
LINE
5
79
100
AcDbEntity
8
SK1
62
256
6
ByLayer
370
18
48
1
60
0
100
AcDbLine
10
-4.099268
20
2.821025
30
0
11
-4.099268
21
-2.821025
31
0
39
0
210
0
220
0
230
1
0
LINE
5
7B
100
AcDbEntity
8
SK1
62
256
6
ByLayer
370
18
48
1
60
0
100
AcDbLine
10
-4.099268
20
-2.821025
30
0
11
-3.599268
21
-2.955
31
0
39
0
210
0
220
0
230
1
0
LINE
5
7C
100
AcDbEntity
8
SK1
62
256
6
ByLayer
370
18
48
1
60
0
100
AcDbLine
10
-3.599268
20
2.955
30
0
11
-4.099268
21
2.821025
31
0
39
0
210
0
220
0
230
1
0
LINE
5
7D
100
AcDbEntity
8
SK1
62
256
6
ByLayer
370
18
48
1
60
0
100
AcDbLine
10
-3.599268
20
2.955
30
0
11
-3.599268
21
-2.955
31
0
39
0
210
0
220
0
230
1
0
LINE
5
7E
100
AcDbEntity
8
SK1
62
256
6
ByLayer
370
18
48
1
60
0
100
AcDbLine
10
-3.599268
20
-2.955
30
0
11
-0.298893
21
-2.955
31
0
39
0
210
0
220
0
230
1
0
LINE
5
7F
100
AcDbEntity
8
SK1
62
256
6
ByLayer
370
18
48
1
60
0
100
AcDbLine
10
-0.298893
20
2.955
30
0
11
-3.599268
21
2.955
31
0
39
0
210
0
220
0
230
1
0
LINE
5
80
100
AcDbEntity
8
81
62
256
6
ByLayer
370
18
48
1
60
0
100
AcDbLine
10
20
20
-16.75
30
0
11
25
21
-16.75
31
0
39
0
210
0
220
0
230
1
0
LINE
5
81
100
AcDbEntity
8
80
62
256
6
ByLayer
370
18
48
1
60
0
100
AcDbLine
10
0
20
0
30
0
11
-5
21
0
31
0
39
0
210
0
220
0
230
1
0
LINE
5
82
100
AcDbEntity
8
4
62
256
6
ByLayer
370
18
48
0.05
60
0
100
AcDbLine
10
0
20
0
30
0
11
22
21
0
31
0
39
0
210
0
220
0
230
1
0
LINE
5
84
100
AcDbEntity
8
SK4
62
256
6
ByLayer
370
18
48
0.05
60
0
100
AcDbLine
10
-6.599268
20
0
30
0
11
22.400732
21
0
31
0
39
0
210
0
220
0
230
1
0
LINE
5
86
100
AcDbEntity
8
1
62
256
6
ByLayer
370
18
48
1
60
1
100
AcDbLine
10
0
20
0
30
0
11
0
21
841
31
0
39
0
210
0
220
0
230
1
0
LINE
5
87
100
AcDbEntity
8
1
62
256
6
ByLayer
370
18
48
1
60
1
100
AcDbLine
10
1189
20
841
30
0
11
0
21
841
31
0
39
0
210
0
220
0
230
1
0
LINE
5
88
100
AcDbEntity
8
1
62
256
6
ByLayer
370
18
48
1
60
1
100
AcDbLine
10
1189
20
841
30
0
11
1189
21
0
31
0
39
0
210
0
220
0
230
1
0
LINE
5
89
100
AcDbEntity
8
1
62
256
6
ByLayer
370
18
48
1
60
1
100
AcDbLine
10
0
20
0
30
0
11
1189
21
0
31
0
39
0
210
0
220
0
230
1
0
LINE
5
8A
100
AcDbEntity
8
1
62
256
6
ByLayer
370
13
48
1
60
0
100
AcDbLine
10
7.008109
20
-10
30
0
11
7.617488
21
-10
31
0
39
0
210
0
220
0
230
1
0
LINE
5
8B
100
AcDbEntity
8
1
62
256
6
ByLayer
370
13
48
1
60
0
100
AcDbLine
10
0.450732
20
-9.921567
30
0
11
0.450732
21
9.921567
31
0
39
0
210
0
220
0
230
1
0
LINE
5
8C
100
AcDbEntity
8
1
62
256
6
ByLayer
370
13
48
1
60
0
100
AcDbLine
10
-0.2988
20
9.165624
30
0
11
-0.2988
21
9.1557
31
0
39
0
210
0
220
0
230
1
0
LINE
5
8D
100
AcDbEntity
8
1
62
256
6
ByLayer
370
13
48
1
60
0
100
AcDbLine
10
-0.2988
20
8.886086
30
0
11
-0.2988
21
8.925793
31
0
39
0
210
0
220
0
230
1
0
LINE
5
8E
100
AcDbEntity
8
1
62
256
6
ByLayer
370
13
48
1
60
0
100
AcDbLine
10
-0.2988
20
8.48729
30
0
11
-0.2988
21
8.42456
31
0
39
0
210
0
220
0
230
1
0
LINE
5
8F
100
AcDbEntity
8
1
62
256
6
ByLayer
370
13
48
1
60
0
100
AcDbLine
10
-0.2988
20
7.736854
30
0
11
-0.2988
21
7.827734
31
0
39
0
210
0
220
0
230
1
0
LINE
5
90
100
AcDbEntity
8
1
62
256
6
ByLayer
370
13
48
1
60
0
100
AcDbLine
10
-0.2988
20
6.883874
30
0
11
-0.2988
21
6.754228
31
0
39
0
210
0
220
0
230
1
0
LINE
5
91
100
AcDbEntity
8
1
62
256
6
ByLayer
370
13
48
1
60
0
100
AcDbLine
10
-0.2988
20
5.315569
30
0
11
-0.2988
21
5.511537
31
0
39
0
210
0
220
0
230
1
0
LINE
5
92
100
AcDbEntity
8
1
62
256
6
ByLayer
370
13
48
1
60
0
100
AcDbLine
10
-0.2988
20
3.200211
30
0
11
-0.2988
21
2.786748
31
0
39
0
210
0
220
0
230
1
0
LINE
5
93
100
AcDbEntity
8
1
62
256
6
ByLayer
370
13
48
1
60
0
100
AcDbLine
10
-0.2988
20
-2.786748
30
0
11
-0.2988
21
-3.200211
31
0
39
0
210
0
220
0
230
1
0
LINE
5
94
100
AcDbEntity
8
1
62
256
6
ByLayer
370
13
48
1
60
0
100
AcDbLine
10
-0.2988
20
-5.511537
30
0
11
-0.2988
21
-5.315569
31
0
39
0
210
0
220
0
230
1
0
LINE
5
95
100
AcDbEntity
8
1
62
256
6
ByLayer
370
13
48
1
60
0
100
AcDbLine
10
-0.2988
20
-6.754228
30
0
11
-0.2988
21
-6.883874
31
0
39
0
210
0
220
0
230
1
0
LINE
5
96
100
AcDbEntity
8
1
62
256
6
ByLayer
370
13
48
1
60
0
100
AcDbLine
10
10.185239
20
0.288547
30
0
11
10.370243
21
-10.310337
31
0
39
0
210
0
220
0
230
1
0
LINE
5
97
100
AcDbEntity
8
1
62
256
6
ByLayer
370
13
48
1
60
0
100
AcDbLine
10
10.545097
20
-10.630654
30
0
11
19.381131
21
-16.557542
31
0
39
0
210
0
220
0
230
1
0
LINE
5
98
100
AcDbEntity
8
1
62
256
6
ByLayer
370
13
48
1
60
0
100
AcDbLine
10
19.999906
20
-16.223372
30
0
11
19.814902
21
-5.624489
31
0
39
0
210
0
220
0
230
1
0
LINE
5
99
100
AcDbEntity
8
1
62
256
6
ByLayer
370
13
48
1
60
0
100
AcDbLine
10
19.640048
20
-5.304172
30
0
11
10.804014
21
0.622717
31
0
39
0
210
0
220
0
230
1
0
LINE
5
9A
100
AcDbEntity
8
1
62
256
6
ByLayer
370
13
48
1
60
0
100
AcDbLine
10
15.437937
20
-9.238545
30
0
11
15.438901
21
-9.218672
31
0
39
0
210
0
220
0
230
1
0
LINE
5
9B
100
AcDbEntity
8
1
62
256
6
ByLayer
370
13
48
1
60
0
100
AcDbLine
10
16.102906
20
-8.860076
30
0
11
16.120187
21
-8.870095
31
0
39
0
210
0
220
0
230
1
0
LINE
5
9C
100
AcDbEntity
8
1
62
256
6
ByLayer
370
13
48
1
60
0
100
AcDbLine
10
16.102906
20
-8.860076
30
0
11
16.105569
21
-9.012677
31
0
39
0
210
0
220
0
230
1
0
LINE
5
9D
100
AcDbEntity
8
1
62
256
6
ByLayer
370
13
48
1
60
0
100
AcDbLine
10
15.438901
20
-9.218672
30
0
11
15.441565
21
-9.371273
31
0
39
0
210
0
220
0
230
1
0
LINE
5
9E
100
AcDbEntity
8
1
62
256
6
ByLayer
370
13
48
1
60
0
100
AcDbLine
10
14.003227
20
-8.815167
30
0
11
14.021013
21
-8.806057
31
0
39
0
210
0
220
0
230
1
0
LINE
5
9F
100
AcDbEntity
8
1
62
256
6
ByLayer
370
13
48
1
60
0
100
AcDbLine
10
14.021013
20
-8.806057
30
0
11
14.023677
21
-8.958658
31
0
39
0
210
0
220
0
230
1
0
LINE
5
A0
100
AcDbEntity
8
1
62
256
6
ByLayer
370
13
48
1
60
0
100
AcDbLine
10
14.665168
20
-9.198596
30
0
11
14.667831
21
-9.351197
31
0
39
0
210
0
220
0
230
1
0
LINE
5
A1
100
AcDbEntity
8
1
62
256
6
ByLayer
370
13
48
1
60
0
100
AcDbLine
10
15.437937
20
-9.238545
30
0
11
15.440621
21
-9.392304
31
0
39
0
210
0
220
0
230
1
0
LINE
5
A2
100
AcDbEntity
8
1
62
256
6
ByLayer
370
13
48
1
60
0
100
AcDbLine
10
16.120187
20
-8.870095
30
0
11
16.122871
21
-9.023855
31
0
39
0
210
0
220
0
230
1
0
LINE
5
A3
100
AcDbEntity
8
1
62
256
6
ByLayer
370
13
48
1
60
0
100
AcDbLine
10
16.37919
20
-7.859373
30
0
11
16.38166
21
-8.00088
31
0
39
0
210
0
220
0
230
1
0
LINE
5
A4
100
AcDbEntity
8
1
62
256
6
ByLayer
370
13
48
1
60
0
100
AcDbLine
10
16.527233
20
-7.452572
30
0
11
16.544601
21
-7.442696
31
0
39
0
210
0
220
0
230
1
0
LINE
5
A5
100
AcDbEntity
8
1
62
256
6
ByLayer
370
13
48
1
60
0
100
AcDbLine
10
16.527233
20
-7.452572
30
0
11
16.529896
21
-7.605172
31
0
39
0
210
0
220
0
230
1
0
LINE
5
A6
100
AcDbEntity
8
1
62
256
6
ByLayer
370
13
48
1
60
0
100
AcDbLine
10
14.003227
20
-8.815167
30
0
11
14.00591
21
-8.968926
31
0
39
0
210
0
220
0
230
1
0
LINE
5
A7
100
AcDbEntity
8
1
62
256
6
ByLayer
370
13
48
1
60
0
100
AcDbLine
10
13.654784
20
-7.367713
30
0
11
13.671606
21
-7.378477
31
0
39
0
210
0
220
0
230
1
0
LINE
5
A8
100
AcDbEntity
8
1
62
256
6
ByLayer
370
13
48
1
60
0
100
AcDbLine
10
13.671606
20
-7.378477
30
0
11
13.67427
21
-7.531077
31
0
39
0
210
0
220
0
230
1
0
LINE
5
A9
100
AcDbEntity
8
1
62
256
6
ByLayer
370
13
48
1
60
0
100
AcDbLine
10
13.802269
20
-7.864308
30
0
11
13.7998
21
-7.722811
31
0
39
0
210
0
220
0
230
1
0
LINE
5
AA
100
AcDbEntity
8
1
62
256
6
ByLayer
370
13
48
1
60
0
100
AcDbLine
10
12.465031
20
-7.844743
30
0
11
12.467265
21
-7.972724
31
0
39
0
210
0
220
0
230
1
0
LINE
5
AB
100
AcDbEntity
8
1
62
256
6
ByLayer
370
13
48
1
60
0
100
AcDbLine
10
17.716466
20
-7.881099
30
0
11
17.714232
21
-7.753117
31
0
39
0
210
0
220
0
230
1
0
LINE
5
AC
100
AcDbEntity
8
1
62
256
6
ByLayer
370
13
48
1
60
0
100
AcDbLine
10
15.514847
20
-6.442338
30
0
11
15.516485
21
-6.536188
31
0
39
0
210
0
220
0
230
1
0
LINE
5
AD
100
AcDbEntity
8
1
62
256
6
ByLayer
370
13
48
1
60
0
100
AcDbLine
10
16.544601
20
-7.442696
30
0
11
16.547285
21
-7.596455
31
0
39
0
210
0
220
0
230
1
0
LINE
5
AE
100
AcDbEntity
8
1
62
256
6
ByLayer
370
13
48
1
60
0
100
AcDbLine
10
11.999966
20
6
30
0
11
15.098729
21
6
31
0
39
0
210
0
220
0
230
1
0
LINE
5
AF
100
AcDbEntity
8
1
62
256
6
ByLayer
370
13
48
1
60
0
100
AcDbLine
10
-0.2988
20
-5.315569
30
0
11
-0.2988
21
-3.200139
31
0
39
0
210
0
220
0
230
1
0
LINE
5
B0
100
AcDbEntity
8
1
62
256
6
ByLayer
370
13
48
1
60
0
100
AcDbLine
10
-0.2988
20
3.200139
30
0
11
-0.2988
21
5.315569
31
0
39
0
210
0
220
0
230
1
0
LINE
5
B1
100
AcDbEntity
8
1
62
256
6
ByLayer
370
13
48
1
60
0
100
AcDbLine
10
-0.2388
20
-5.271109
30
0
11
-0.2388
21
-3.626029
31
0
39
0
210
0
220
0
230
1
0
LINE
5
B2
100
AcDbEntity
8
1
62
256
6
ByLayer
370
13
48
1
60
0
100
AcDbLine
10
-0.2388
20
3.626029
30
0
11
-0.2388
21
5.271109
31
0
39
0
210
0
220
0
230
1
0
LINE
5
B3
100
AcDbEntity
8
1
62
256
6
ByLayer
370
13
48
1
60
0
100
AcDbLine
10
0.346232
20
-5.807073
30
0
11
0.346232
21
-5.482966
31
0
39
0
210
0
220
0
230
1
0
LINE
5
B4
100
AcDbEntity
8
1
62
256
6
ByLayer
370
13
48
1
60
0
100
AcDbLine
10
0.346232
20
5.482966
30
0
11
0.346232
21
5.807073
31
0
39
0
210
0
220
0
230
1
0
LINE
5
B5
100
AcDbEntity
8
1
62
256
6
ByLayer
370
13
48
1
60
0
100
AcDbLine
10
-0.2988
20
-2.786748
30
0
11
-0.2988
21
2.786748
31
0
39
0
210
0
220
0
230
1
0
LINE
5
B6
100
AcDbEntity
8
1
62
256
6
ByLayer
370
13
48
1
60
0
100
AcDbLine
10
7.104871
20
4.358899
30
0
11
7.106533
21
-4.358899
31
0
39
0
210
0
220
0
230
1
0
LINE
5
B7
100
AcDbEntity
8
1
62
256
6
ByLayer
370
13
48
1
60
0
100
AcDbLine
10
-0.2388
20
-2.652445
30
0
11
-0.2388
21
2.652445
31
0
39
0
210
0
220
0
230
1
0
LINE
5
B8
100
AcDbEntity
8
1
62
256
6
ByLayer
370
13
48
1
60
0
100
AcDbLine
10
3.499966
20
4.358899
30
0
11
3.499966
21
-4.358899
31
0
39
0
210
0
220
0
230
1
0
LINE
5
B9
100
AcDbEntity
8
1
62
256
6
ByLayer
370
13
48
1
60
0
100
AcDbLine
10
0.346232
20
-3.482607
30
0
11
0.346232
21
-2.811879
31
0
39
0
210
0
220
0
230
1
0
LINE
5
BA
100
AcDbEntity
8
1
62
256
6
ByLayer
370
13
48
1
60
0
100
AcDbLine
10
0.346232
20
2.811879
30
0
11
0.346232
21
3.482607
31
0
39
0
210
0
220
0
230
1
0
LINE
5
BB
100
AcDbEntity
8
1
62
256
6
ByLayer
370
13
48
1
60
0
100
AcDbLine
10
7.106533
20
-4.358899
30
0
11
3.499966
21
-4.358899
31
0
39
0
210
0
220
0
230
1
0
LINE
5
BC
100
AcDbEntity
8
1
62
256
6
ByLayer
370
13
48
1
60
0
100
AcDbLine
10
3.199966
20
-3.675595
30
0
11
3.199966
21
3.675595
31
0
39
0
210
0
220
0
230
1
0
LINE
5
BD
100
AcDbEntity
8
1
62
256
6
ByLayer
370
13
48
1
60
0
100
AcDbLine
10
3.499966
20
4.358899
30
0
11
7.104871
21
4.358899
31
0
39
0
210
0
220
0
230
1
0
LINE
5
BE
100
AcDbEntity
8
1
62
256
6
ByLayer
370
13
48
1
60
0
100
AcDbLine
10
0.450732
20
9.921567
30
0
11
5.117642
21
9.921567
31
0
39
0
210
0
220
0
230
1
0
LINE
5
BF
100
AcDbEntity
8
1
62
256
6
ByLayer
370
13
48
1
60
0
100
AcDbLine
10
6.792618
20
-9.921567
30
0
11
0.450732
21
-9.921567
31
0
39
0
210
0
220
0
230
1
0
LINE
5
C0
100
AcDbEntity
8
1
62
256
6
ByLayer
370
13
48
1
60
0
100
AcDbLine
10
6.792618
20
-9.921567
30
0
11
7.008109
21
-10
31
0
39
0
210
0
220
0
230
1
0
LINE
5
C1
100
AcDbEntity
8
1
62
256
6
ByLayer
370
13
48
1
60
0
100
AcDbLine
10
8.691819
20
6.716034
30
0
11
8.691819
21
6.073249
31
0
39
0
210
0
220
0
230
1
0
LINE
5
C2
100
AcDbEntity
8
1
62
256
6
ByLayer
370
13
48
1
60
0
100
AcDbLine
10
-0.2988
20
-8.42456
30
0
11
-0.2988
21
-7.827732
31
0
39
0
210
0
220
0
230
1
0
LINE
5
C3
100
AcDbEntity
8
1
62
256
6
ByLayer
370
13
48
1
60
0
100
AcDbLine
10
-0.2988
20
-7.202903
30
0
11
-0.2988
21
-7.129703
31
0
39
0
210
0
220
0
230
1
0
LINE
5
C4
100
AcDbEntity
8
1
62
256
6
ByLayer
370
13
48
1
60
0
100
AcDbLine
10
-0.2988
20
7.129703
30
0
11
-0.2988
21
7.202903
31
0
39
0
210
0
220
0
230
1
0
LINE
5
C5
100
AcDbEntity
8
1
62
256
6
ByLayer
370
13
48
1
60
0
100
AcDbLine
10
-0.2988
20
7.827732
30
0
11
-0.2988
21
8.42456
31
0
39
0
210
0
220
0
230
1
0
LINE
5
C6
100
AcDbEntity
8
1
62
256
6
ByLayer
370
13
48
1
60
0
100
AcDbLine
10
-0.2388
20
-8.442864
30
0
11
-0.2388
21
-7.962459
31
0
39
0
210
0
220
0
230
1
0
LINE
5
C7
100
AcDbEntity
8
1
62
256
6
ByLayer
370
13
48
1
60
0
100
AcDbLine
10
-0.2388
20
7.962459
30
0
11
-0.2388
21
8.442864
31
0
39
0
210
0
220
0
230
1
0
LINE
5
C8
100
AcDbEntity
8
1
62
256
6
ByLayer
370
13
48
1
60
0
100
AcDbLine
10
0.346232
20
-8.930438
30
0
11
0.346232
21
-8.819404
31
0
39
0
210
0
220
0
230
1
0
LINE
5
C9
100
AcDbEntity
8
1
62
256
6
ByLayer
370
13
48
1
60
0
100
AcDbLine
10
0.346232
20
8.819404
30
0
11
0.346232
21
8.930438
31
0
39
0
210
0
220
0
230
1
0
LINE
5
CA
100
AcDbEntity
8
1
62
256
6
ByLayer
370
13
48
1
60
0
100
AcDbLine
10
-0.2988
20
7.202885
30
0
11
-0.2988
21
7.736854
31
0
39
0
210
0
220
0
230
1
0
LINE
5
CB
100
AcDbEntity
8
1
62
256
6
ByLayer
370
13
48
1
60
0
100
AcDbLine
10
-0.2988
20
-7.736854
30
0
11
-0.2988
21
-7.202885
31
0
39
0
210
0
220
0
230
1
0
LINE
5
CC
100
AcDbEntity
8
1
62
256
6
ByLayer
370
13
48
1
60
0
100
AcDbLine
10
-0.2388
20
-7.740015
30
0
11
-0.2388
21
-7.120291
31
0
39
0
210
0
220
0
230
1
0
LINE
5
CD
100
AcDbEntity
8
1
62
256
6
ByLayer
370
13
48
1
60
0
100
AcDbLine
10
-0.2388
20
7.120291
30
0
11
-0.2388
21
7.740015
31
0
39
0
210
0
220
0
230
1
0
LINE
5
CE
100
AcDbEntity
8
1
62
256
6
ByLayer
370
13
48
1
60
0
100
AcDbLine
10
0.346232
20
8.062304
30
0
11
0.346232
21
8.217918
31
0
39
0
210
0
220
0
230
1
0
LINE
5
CF
100
AcDbEntity
8
1
62
256
6
ByLayer
370
13
48
1
60
0
100
AcDbLine
10
0.346232
20
-8.217918
30
0
11
0.346232
21
-8.062304
31
0
39
0
210
0
220
0
230
1
0
LINE
5
D0
100
AcDbEntity
8
1
62
256
6
ByLayer
370
13
48
1
60
0
100
AcDbLine
10
-0.2988
20
6.607664
30
0
11
-0.2988
21
6.754228
31
0
39
0
210
0
220
0
230
1
0
LINE
5
D1
100
AcDbEntity
8
1
62
256
6
ByLayer
370
13
48
1
60
0
100
AcDbLine
10
-0.2988
20
-6.754228
30
0
11
-0.2988
21
-6.607664
31
0
39
0
210
0
220
0
230
1
0
LINE
5
D2
100
AcDbEntity
8
1
62
256
6
ByLayer
370
13
48
1
60
0
100
AcDbLine
10
-0.2988
20
7.129703
30
0
11
-0.2988
21
7.082009
31
0
39
0
210
0
220
0
230
1
0
LINE
5
D3
100
AcDbEntity
8
1
62
256
6
ByLayer
370
13
48
1
60
0
100
AcDbLine
10
-0.2988
20
6.120818
30
0
11
-0.2988
21
6.304262
31
0
39
0
210
0
220
0
230
1
0
LINE
5
D4
100
AcDbEntity
8
1
62
256
6
ByLayer
370
13
48
1
60
0
100
AcDbLine
10
0.346232
20
-7.224309
30
0
11
0.346232
21
-7.006677
31
0
39
0
210
0
220
0
230
1
0
LINE
5
D5
100
AcDbEntity
8
1
62
256
6
ByLayer
370
13
48
1
60
0
100
AcDbLine
10
0.346232
20
7.006677
30
0
11
0.346232
21
7.224309
31
0
39
0
210
0
220
0
230
1
0
LINE
5
D6
100
AcDbEntity
8
1
62
256
6
ByLayer
370
13
48
1
60
0
100
AcDbLine
10
-0.2388
20
6.429887
30
0
11
-0.2388
21
6.738598
31
0
39
0
210
0
220
0
230
1
0
LINE
5
D7
100
AcDbEntity
8
1
62
256
6
ByLayer
370
13
48
1
60
0
100
AcDbLine
10
-0.2388
20
-6.738598
30
0
11
-0.2388
21
-6.429887
31
0
39
0
210
0
220
0
230
1
0
LINE
5
D8
100
AcDbEntity
8
1
62
256
6
ByLayer
370
13
48
1
60
0
100
AcDbLine
10
-0.2988
20
-6.304262
30
0
11
-0.2988
21
-6.120818
31
0
39
0
210
0
220
0
230
1
0
LINE
5
D9
100
AcDbEntity
8
1
62
256
6
ByLayer
370
13
48
1
60
0
100
AcDbLine
10
-0.2988
20
-7.082009
30
0
11
-0.2988
21
-7.129703
31
0
39
0
210
0
220
0
230
1
0
LINE
5
DA
100
AcDbEntity
8
1
62
256
6
ByLayer
370
13
48
1
60
0
100
AcDbLine
10
13.654784
20
-7.367713
30
0
11
13.657468
21
-7.521473
31
0
39
0
210
0
220
0
230
1
0
LINE
5
DB
100
AcDbEntity
8
1
62
256
6
ByLayer
370
13
48
1
60
0
100
AcDbLine
10
14.742741
20
-6.44042
30
0
11
14.743736
21
-6.497398
31
0
39
0
210
0
220
0
230
1
0
LINE
5
DC
100
AcDbEntity
8
1
62
256
6
ByLayer
370
13
48
1
60
0
100
AcDbLine
10
15.515297
20
-6.443219
30
0
11
15.516593
21
-6.517451
31
0
39
0
210
0
220
0
230
1
0
LINE
5
DD
100
AcDbEntity
8
1
62
256
6
ByLayer
370
13
48
1
60
0
100
AcDbLine
10
9.791161
20
-2.438731
30
0
11
9.846906
21
-2.345825
31
0
39
0
210
0
220
0
230
1
0
LINE
5
DE
100
AcDbEntity
8
1
62
256
6
ByLayer
370
13
48
1
60
0
100
AcDbLine
10
11.760861
20
0.029417
30
0
11
11.678717
21
0.084516
31
0
39
0
210
0
220
0
230
1
0
LINE
5
DF
100
AcDbEntity
8
1
62
256
6
ByLayer
370
13
48
1
60
0
100
AcDbLine
10
9.846906
20
-2.345825
30
0
11
10.235768
21
-2.606659
31
0
39
0
210
0
220
0
230
1
0
LINE
5
E0
100
AcDbEntity
8
1
62
256
6
ByLayer
370
13
48
1
60
0
100
AcDbLine
10
-0.2988
20
-7.827734
30
0
11
-0.2988
21
-7.736854
31
0
39
0
210
0
220
0
230
1
0
LINE
5
E1
100
AcDbEntity
8
1
62
256
6
ByLayer
370
13
48
1
60
0
100
AcDbLine
10
-0.2988
20
-8.42456
30
0
11
-0.2988
21
-8.48729
31
0
39
0
210
0
220
0
230
1
0
LINE
5
E2
100
AcDbEntity
8
1
62
256
6
ByLayer
370
13
48
1
60
0
100
AcDbLine
10
-0.2988
20
-8.925793
30
0
11
-0.2988
21
-8.886086
31
0
39
0
210
0
220
0
230
1
0
LINE
5
E3
100
AcDbEntity
8
1
62
256
6
ByLayer
370
13
48
1
60
0
100
AcDbLine
10
-0.2988
20
-9.1557
30
0
11
-0.2988
21
-9.165624
31
0
39
0
210
0
220
0
230
1
0
LINE
5
E4
100
AcDbEntity
8
1
62
256
6
ByLayer
370
13
48
1
60
0
100
AcDbLine
10
10.238074
20
-2.738504
30
0
11
9.791161
21
-2.438731
31
0
39
0
210
0
220
0
230
1
0
LINE
5
E5
100
AcDbEntity
8
1
62
256
6
ByLayer
370
13
48
1
60
0
100
AcDbLine
10
9.791161
20
-2.438731
30
0
11
9.797455
21
-2.7993
31
0
39
0
210
0
220
0
230
1
0
LINE
5
E6
100
AcDbEntity
8
1
62
256
6
ByLayer
370
13
48
1
60
0
100
AcDbLine
10
9.797455
20
-2.7993
30
0
11
10.244369
21
-3.099073
31
0
39
0
210
0
220
0
230
1
0
LINE
5
E7
100
AcDbEntity
8
1
62
256
6
ByLayer
370
13
48
1
60
0
100
AcDbLine
10
-0.2988
20
5.511558
30
0
11
-0.2988
21
6.120825
31
0
39
0
210
0
220
0
230
1
0
LINE
5
E8
100
AcDbEntity
8
1
62
256
6
ByLayer
370
13
48
1
60
0
100
AcDbLine
10
-0.2988
20
8.925727
30
0
11
-0.2988
21
9.1557
31
0
39
0
210
0
220
0
230
1
0
LINE
5
E9
100
AcDbEntity
8
1
62
256
6
ByLayer
370
13
48
1
60
0
100
AcDbLine
10
-0.2988
20
-9.1557
30
0
11
-0.2988
21
-8.925727
31
0
39
0
210
0
220
0
230
1
0
LINE
5
EA
100
AcDbEntity
8
1
62
256
6
ByLayer
370
13
48
1
60
0
100
AcDbLine
10
-0.2988
20
-6.120825
30
0
11
-0.2988
21
-5.739694
31
0
39
0
210
0
220
0
230
1
0
LINE
5
EB
100
AcDbEntity
8
1
62
256
6
ByLayer
370
13
48
1
60
0
100
AcDbLine
10
9.042281
20
-1.070173
30
0
11
9.048574
21
-1.430741
31
0
39
0
210
0
220
0
230
1
0
LINE
5
EC
100
AcDbEntity
8
1
62
256
6
ByLayer
370
13
48
1
60
0
100
AcDbLine
10
18.868342
20
3.337914
30
0
11
19.011835
21
-4.882772
31
0
39
0
210
0
220
0
230
1
0
LINE
5
ED
100
AcDbEntity
8
1
62
256
6
ByLayer
370
13
48
1
60
0
100
AcDbLine
10
-0.2388
20
9.01534
30
0
11
-0.2388
21
9.200826
31
0
39
0
210
0
220
0
230
1
0
LINE
5
EE
100
AcDbEntity
8
1
62
256
6
ByLayer
370
13
48
1
60
0
100
AcDbLine
10
-0.2388
20
-9.200826
30
0
11
-0.2388
21
-9.01534
31
0
39
0
210
0
220
0
230
1
0
LINE
5
EF
100
AcDbEntity
8
1
62
256
6
ByLayer
370
13
48
1
60
0
100
AcDbLine
10
0.346232
20
-9.737289
30
0
11
0.346232
21
-9.693747
31
0
39
0
210
0
220
0
230
1
0
LINE
5
F0
100
AcDbEntity
8
1
62
256
6
ByLayer
370
13
48
1
60
0
100
AcDbLine
10
0.346232
20
9.693747
30
0
11
0.346232
21
9.737289
31
0
39
0
210
0
220
0
230
1
0
LINE
5
F1
100
AcDbEntity
8
1
62
256
6
ByLayer
370
13
48
1
60
0
100
AcDbLine
10
-0.2988
20
-8.886086
30
0
11
-0.2988
21
-8.487275
31
0
39
0
210
0
220
0
230
1
0
LINE
5
F2
100
AcDbEntity
8
1
62
256
6
ByLayer
370
13
48
1
60
0
100
AcDbLine
10
-0.2988
20
-7.082037
30
0
11
-0.2988
21
-6.883882
31
0
39
0
210
0
220
0
230
1
0
LINE
5
F3
100
AcDbEntity
8
1
62
256
6
ByLayer
370
13
48
1
60
0
100
AcDbLine
10
-0.2988
20
-6.607667
30
0
11
-0.2988
21
-6.304262
31
0
39
0
210
0
220
0
230
1
0
LINE
5
F4
100
AcDbEntity
8
1
62
256
6
ByLayer
370
13
48
1
60
0
100
AcDbLine
10
-0.2988
20
6.304262
30
0
11
-0.2988
21
6.607667
31
0
39
0
210
0
220
0
230
1
0
LINE
5
F5
100
AcDbEntity
8
1
62
256
6
ByLayer
370
13
48
1
60
0
100
AcDbLine
10
-0.2988
20
6.883882
30
0
11
-0.2988
21
7.082037
31
0
39
0
210
0
220
0
230
1
0
LINE
5
F6
100
AcDbEntity
8
1
62
256
6
ByLayer
370
13
48
1
60
0
100
AcDbLine
10
-0.2988
20
8.487275
30
0
11
-0.2988
21
8.886086
31
0
39
0
210
0
220
0
230
1
0
LINE
5
F7
100
AcDbEntity
8
1
62
256
6
ByLayer
370
13
48
1
60
0
100
AcDbLine
10
-0.2388
20
-8.91802
30
0
11
-0.2388
21
-8.596597
31
0
39
0
210
0
220
0
230
1
0
LINE
5
F8
100
AcDbEntity
8
1
62
256
6
ByLayer
370
13
48
1
60
0
100
AcDbLine
10
-0.2388
20
8.596597
30
0
11
-0.2388
21
8.91802
31
0
39
0
210
0
220
0
230
1
0
LINE
5
F9
100
AcDbEntity
8
1
62
256
6
ByLayer
370
13
48
1
60
0
100
AcDbLine
10
0.346232
20
9.350829
30
0
11
0.346232
21
9.42583
31
0
39
0
210
0
220
0
230
1
0
LINE
5
FA
100
AcDbEntity
8
1
62
256
6
ByLayer
370
13
48
1
60
0
100
AcDbLine
10
0.346232
20
-9.42583
30
0
11
0.346232
21
-9.350829
31
0
39
0
210
0
220
0
230
1
0
LINE
5
FB
100
AcDbEntity
8
1
62
256
6
ByLayer
370
13
48
1
60
0
100
AcDbLine
10
8.691819
20
-0.943782
30
0
11
8.691819
21
-9.259641
31
0
39
0
210
0
220
0
230
1
0
LINE
5
FC
100
AcDbEntity
8
1
62
256
6
ByLayer
370
13
48
1
60
0
100
AcDbLine
10
8.691819
20
3.694222
30
0
11
8.691819
21
0.439022
31
0
39
0
210
0
220
0
230
1
0
LINE
5
FD
100
AcDbEntity
8
1
62
256
6
ByLayer
370
13
48
1
60
0
100
AcDbLine
10
10.989661
20
6.063778
30
0
11
8.691819
21
6.072973
31
0
39
0
210
0
220
0
230
1
0
MTEXT
5
1AB
100
AcDbEntity
8
SK6
62
256
6
ByLayer
370
18
48
1
60
0
100
AcDbMText
10
-15.473372
20
-33.114561
30
0
210
0
220
0
230
1
1
\W0.7581;SL-SDTCL-20-11-16.5D
40
3.5
41
0
44
1.084337
50
0
71
7
72
5
7
iso_b_vert
0
DIMENSION
5
1B0
100
AcDbEntity
8
2
62
256
6
ByLayer
370
18
48
1
60
0
100
AcDbDimension
2
_U0
10
36.464338
20
-16.75
30
0
11
36.464338
21
-8.375
31
0
70
32
71
1
72
1
41
1
210
0
220
0
230
1
3
Standard
100
AcDbAlignedDimension
13
22.400732
23
0
33
0
14
20
24
-16.75
34
0
50
90
100
AcDbRotatedDimension
1001
ACAD
1000
DSTYLE
1002
{
1070
   371
1070
    13
1070
   372
1070
    13
1070
   170
1070
     0
1070
   144
1040
1.0
1070
   277
1070
     2
1070
   284
1070
     8
1070
   278
1070
    46
1070
   146
1040
1.166667
1070
   345
1005
16
1070
   347
1005
16
1070
   346
1005
16
1070
   344
1005
0
1070
   343
1005
0
1070
   172
1070
     1
1070
    76
1070
     0
1070
    75
1070
     0
1070
   282
1070
     0
1070
   281
1070
     0
1070
    71
1070
     0
1070
    74
1070
     0
1070
   279
1070
     0
1070
   173
1070
     1
1070
   340
1005
1AC
1070
   271
1070
     2
1070
   272
1070
     2
1070
    77
1070
     1
1070
    73
1070
     0
1070
   171
1070
     3
1070
   274
1070
     4
1070
   177
1070
     7
1070
   176
1070
     7
1070
   178
1070
     7
1070
    78
1070
     8
1070
    48
1040
-0.1
1070
    41
1040
3.175
1070
   147
1040
1.5
1070
    42
1040
1.5875
1070
    44
1040
2.0
1070
   140
1040
3.0
1002
}
1001
ACAD_DSTYLE_DIM_LINETYPE
1070
   380
1005
16
1001
ACAD_DSTYLE_DIM_EXT1_LINETYPE
1070
   381
1005
16
1001
ACAD_DSTYLE_DIM_EXT2_LINETYPE
1070
   382
1005
16
0
DIMENSION
5
1CA
100
AcDbEntity
8
2
62
256
6
ByLayer
370
18
48
1
60
0
100
AcDbDimension
2
_U1
10
20
20
-24.07409
30
0
11
10
21
-24.07409
31
0
70
32
71
1
72
1
41
1
210
0
220
0
230
1
3
Standard
100
AcDbAlignedDimension
13
0
23
0
33
0
14
20
24
-16.75
34
0
50
0
100
AcDbRotatedDimension
1001
ACAD
1000
DSTYLE
1002
{
1070
   371
1070
    13
1070
   372
1070
    13
1070
   170
1070
     0
1070
   144
1040
1.0
1070
   277
1070
     2
1070
   284
1070
     8
1070
   278
1070
    46
1070
   146
1040
1.166667
1070
   345
1005
16
1070
   347
1005
16
1070
   346
1005
16
1070
   344
1005
0
1070
   343
1005
0
1070
   172
1070
     1
1070
    76
1070
     0
1070
    75
1070
     0
1070
   282
1070
     0
1070
   281
1070
     0
1070
    71
1070
     0
1070
    74
1070
     0
1070
   279
1070
     0
1070
   173
1070
     1
1070
   340
1005
1AC
1070
   271
1070
     2
1070
   272
1070
     2
1070
    77
1070
     1
1070
    73
1070
     1
1070
   171
1070
     3
1070
   274
1070
     4
1070
   177
1070
     7
1070
   176
1070
     7
1070
   178
1070
     7
1070
    78
1070
     8
1070
    48
1040
-0.1
1070
    41
1040
3.175
1070
   147
1040
1.5
1070
    42
1040
1.5875
1070
    44
1040
2.0
1070
   140
1040
3.0
1002
}
1001
ACAD_DSTYLE_DIM_LINETYPE
1070
   380
1005
16
1001
ACAD_DSTYLE_DIM_EXT1_LINETYPE
1070
   381
1005
16
1001
ACAD_DSTYLE_DIM_EXT2_LINETYPE
1070
   382
1005
16
0
DIMENSION
5
1E2
100
AcDbEntity
8
SK2
62
256
6
ByLayer
370
18
48
1
60
0
100
AcDbDimension
2
_U2
10
-15.484453
20
-9.921567
30
0
11
-15.484453
21
-0.79998
31
0
70
32
71
1
72
1
41
1
210
0
220
0
230
1
3
Standard
100
AcDbAlignedDimension
13
0.450732
23
9.921567
33
0
14
0.450732
24
-9.921567
34
0
50
90
100
AcDbRotatedDimension
1001
ACAD
1000
DSTYLE
1002
{
1070
   371
1070
    13
1070
   372
1070
    13
1070
     3
1000

1070
   170
1070
     0
1070
   144
1040
1.0
1070
   277
1070
     2
1070
   284
1070
     8
1070
   278
1070
    46
1070
   146
1040
1.166667
1070
   345
1005
16
1070
   347
1005
16
1070
   346
1005
16
1070
   344
1005
0
1070
   343
1005
0
1070
   172
1070
     1
1070
    76
1070
     0
1070
    75
1070
     0
1070
   282
1070
     0
1070
   281
1070
     0
1070
    71
1070
     0
1070
    74
1070
     0
1070
   279
1070
     0
1070
   173
1070
     1
1070
   340
1005
1AC
1070
   271
1070
     2
1070
   272
1070
     2
1070
    77
1070
     1
1070
    73
1070
     0
1070
   171
1070
     3
1070
   274
1070
     4
1070
   177
1070
     7
1070
   176
1070
     7
1070
   178
1070
     7
1070
    78
1070
     8
1070
    48
1040
-0.1
1070
    41
1040
3.175
1070
   147
1040
1.5
1070
    42
1040
1.5875
1070
    44
1040
2.0
1070
   140
1040
3.0
1002
}
1001
ACAD_DSTYLE_DIM_LINETYPE
1070
   380
1005
16
1001
ACAD_DSTYLE_DIM_EXT1_LINETYPE
1070
   381
1005
16
1001
ACAD_DSTYLE_DIM_EXT2_LINETYPE
1070
   382
1005
16
0
ENDSEC
0
SECTION
2
OBJECTS
0
DICTIONARY
5
275
330
0
100
AcDbDictionary
280
0
281
1
3
ACAD_GROUP
350
276
3
ACAD_MLINESTYLE
350
277
0
DICTIONARY
5
276
330
0
100
AcDbDictionary
280
0
281
1
0
DICTIONARY
5
277
330
0
100
AcDbDictionary
280
0
281
1
3
Standard
350
18
0
MLINESTYLE
5
18
330
277
100
AcDbMlineStyle
2
Standard
70
0
3

62
256
51
90
52
90
71
2
49
-0.5
62
256
6
ByLayer
49
0.5
62
256
6
ByLayer
0
RASTERVARIABLES
5
263
330

100
AcDbRasterVariables
90
0
70
1
71
1
72
1
0
ENDSEC
0
EOF
