0
SECTION
2
HEADER
9
$ACADVER
1
AC1015
9
$DWGCODEPAGE
3
ANSI_1252
9
$HANDSEED
5
2f6
9
$ANGBASE
50
0
9
$ANGDIR
70
0
9
$ATTMODE
70
1
9
$AUNITS
70
0
9
$AUPREC
70
0
9
$CECOLOR
62
256
9
$CELTSCALE
40
1
9
$CELTYPE
6
ByLayer
9
$CELWEIGHT
370
18
9
$CLAYER
8
0
9
$CMLJUST
70
0
9
$CMLSCALE
40
1
9
$CMLSTYLE
2
Standard
9
$DIMSTYLE
2
Standard
9
$TEXTSIZE
40
0.2
9
$TEXTSTYLE
7
Standard
9
$LUNITS
70
2
9
$LUPREC
70
4
9
$EXTNAMES
290
1
9
$INSUNITS
70
4
9
$LTSCALE
40
1
9
$LWDISPLAY
290
1
9
$PDMODE
70
0
9
$PDSIZE
40
0
9
$PLINEGEN
70
0
0
ENDSEC
0
SECTION
2
CLASSES
0
CLASS
1
RASTERVARIABLES
2
AcDbRasterVariables
3
ISM
90
0
280
0
281
0
0
ENDSEC
0
SECTION
2
TABLES
0
TABLE
2
VPORT
5
2ec
100
AcDbSymbolTable
0
VPORT
5
1
100
AcDbSymbolTableRecord
100
AcDbViewportTableRecord
2
*Active
70
0
10
0
20
0
11
1
21
1
12
-1
22
1
13
0
23
0
14
0.5
24
0.5
15
10
25
10
16
0
26
0
36
1
17
0
27
0
37
0
0
ENDTAB
0
TABLE
2
LTYPE
5
2ed
100
AcDbSymbolTable
0
LTYPE
5
14
100
AcDbSymbolTableRecord
100
AcDbLinetypeTableRecord
70
0
2
ByBlock
3

72
65
73
0
40
0
0
LTYPE
5
15
100
AcDbSymbolTableRecord
100
AcDbLinetypeTableRecord
70
0
2
ByLayer
3

72
65
73
0
40
0
0
LTYPE
5
16
100
AcDbSymbolTableRecord
100
AcDbLinetypeTableRecord
70
0
2
Continuous
3
Solid line
72
65
73
0
40
0
0
LTYPE
5
6E
100
AcDbSymbolTableRecord
100
AcDbLinetypeTableRecord
70
0
2
CENTER
3
____ _ ____ _ ____ _ ____
72
65
73
4
40
47.5
49
22
74
0
49
-8.5
74
0
49
8.5
74
0
49
-8.5
74
0
0
LTYPE
5
6F
100
AcDbSymbolTableRecord
100
AcDbLinetypeTableRecord
70
0
2
DASHED
3
__ __ __ __ __ __ __ __ __
72
65
73
2
40
25.72
49
12.86
74
0
49
-12.86
74
0
0
ENDTAB
0
TABLE
2
LAYER
5
2ee
100
AcDbSymbolTable
0
LAYER
5
10
100
AcDbSymbolTableRecord
100
AcDbLayerTableRecord
2
0
70
0
62
7
6
Continuous
290
1
370
-3
390
0
0
LAYER
5
71
100
AcDbSymbolTableRecord
100
AcDbLayerTableRecord
2
81
70
0
62
-3
6
Continuous
290
1
370
-3
390
0
0
LAYER
5
73
100
AcDbSymbolTableRecord
100
AcDbLayerTableRecord
2
80
70
0
62
-6
6
Continuous
290
1
370
-3
390
0
0
LAYER
5
75
100
AcDbSymbolTableRecord
100
AcDbLayerTableRecord
2
1
70
0
62
4
6
Continuous
290
1
370
-3
390
0
0
LAYER
5
82
100
AcDbSymbolTableRecord
100
AcDbLayerTableRecord
2
4
70
0
62
-2
6
CENTER
290
1
370
-3
390
0
0
LAYER
5
101
100
AcDbSymbolTableRecord
100
AcDbLayerTableRecord
2
2
70
0
62
7
6
Continuous
290
1
370
-3
390
0
0
LAYER
5
201
100
AcDbSymbolTableRecord
100
AcDbLayerTableRecord
2
Defpoints
70
0
62
7
6
Continuous
290
0
370
-3
390
0
0
LAYER
5
2d8
100
AcDbSymbolTableRecord
100
AcDbLayerTableRecord
2
SK4
70
0
62
2
6
CENTER
290
1
370
-3
390
0
0
LAYER
5
2d9
100
AcDbSymbolTableRecord
100
AcDbLayerTableRecord
2
SK1
70
0
62
4
6
Continuous
290
1
370
-3
390
0
0
LAYER
5
2da
100
AcDbSymbolTableRecord
100
AcDbLayerTableRecord
2
SK2
70
0
62
7
6
Continuous
290
1
370
-3
390
0
0
LAYER
5
2db
100
AcDbSymbolTableRecord
100
AcDbLayerTableRecord
2
SK6
70
0
62
5
6
Continuous
290
1
370
-3
390
0
0
ENDTAB
0
TABLE
2
STYLE
5
2ef
100
AcDbSymbolTable
0
STYLE
5
11
100
AcDbSymbolTableRecord
100
AcDbTextStyleTableRecord
2
Standard
3
txt
70
0
71
0
40
0
41
1
42
0
50
0
0
STYLE
5
1D3
100
AcDbSymbolTableRecord
100
AcDbTextStyleTableRecord
2
iso_b_vert
3
simplex.shx
70
0
71
0
40
0
41
1
42
0
50
0
0
STYLE
5
1D4
100
AcDbSymbolTableRecord
100
AcDbTextStyleTableRecord
2
DWGDirectTextStyle
3
simplex
70
0
71
0
40
0
41
1
42
0
50
0
0
ENDTAB
0
TABLE
2
DIMSTYLE
5
2f0
100
AcDbSymbolTable
100
AcDbDimStyleTable
0
DIMSTYLE
105
27
100
AcDbSymbolTableRecord
100
AcDbDimStyleTableRecord
2
Standard
70
0
3
<>
41
0.18
42
0.0625
44
0.18
140
0.18
147
0.09
73
0
74
0
77
1
271
2
275
0
278
52
280
0
340
11
0
ENDTAB
0
TABLE
2
VIEW
5
2f1
100
AcDbSymbolTable
0
ENDTAB
0
TABLE
2
UCS
5
2f2
100
AcDbSymbolTable
0
ENDTAB
0
TABLE
2
APPID
5
2f3
100
AcDbSymbolTable
0
APPID
5
12
100
AcDbSymbolTableRecord
100
AcDbRegAppTableRecord
2
ACAD
70
0
0
APPID
5
1FD
100
AcDbSymbolTableRecord
100
AcDbRegAppTableRecord
2
ACAD_DSTYLE_DIMBREAK
70
0
0
APPID
5
297
100
AcDbSymbolTableRecord
100
AcDbRegAppTableRecord
2
ACAD_DSTYLE_DIM_LINETYPE
70
0
0
APPID
5
298
100
AcDbSymbolTableRecord
100
AcDbRegAppTableRecord
2
ACAD_DSTYLE_DIM_EXT1_LINETYPE
70
0
0
APPID
5
299
100
AcDbSymbolTableRecord
100
AcDbRegAppTableRecord
2
ACAD_DSTYLE_DIM_EXT2_LINETYPE
70
0
0
APPID
5
2D4
100
AcDbSymbolTableRecord
100
AcDbRegAppTableRecord
2
ACAD_MLEADERVER
70
0
0
ENDTAB
0
TABLE
2
BLOCK_RECORD
5
2f4
100
AcDbSymbolTable
0
BLOCK_RECORD
5
1F
100
AcDbSymbolTableRecord
100
AcDbBlockTableRecord
2
*Model_Space
340
0
70
0
0
BLOCK_RECORD
5
1B
100
AcDbSymbolTableRecord
100
AcDbBlockTableRecord
2
*Paper_Space
340
0
70
0
0
BLOCK_RECORD
5
23
100
AcDbSymbolTableRecord
100
AcDbBlockTableRecord
2
*Paper_Space0
340
0
70
0
0
BLOCK_RECORD
5
202
100
AcDbSymbolTableRecord
100
AcDbBlockTableRecord
2
*D1
340
0
70
0
0
BLOCK_RECORD
5
20E
100
AcDbSymbolTableRecord
100
AcDbBlockTableRecord
2
_U0
340
0
70
0
0
BLOCK_RECORD
5
21A
100
AcDbSymbolTableRecord
100
AcDbBlockTableRecord
2
*D3
340
0
70
0
0
BLOCK_RECORD
5
226
100
AcDbSymbolTableRecord
100
AcDbBlockTableRecord
2
_U1
340
0
70
0
0
BLOCK_RECORD
5
232
100
AcDbSymbolTableRecord
100
AcDbBlockTableRecord
2
*D5
340
0
70
0
0
BLOCK_RECORD
5
23E
100
AcDbSymbolTableRecord
100
AcDbBlockTableRecord
2
_U2
340
0
70
0
0
BLOCK_RECORD
5
24A
100
AcDbSymbolTableRecord
100
AcDbBlockTableRecord
2
*D7
340
0
70
0
0
BLOCK_RECORD
5
256
100
AcDbSymbolTableRecord
100
AcDbBlockTableRecord
2
_U3
340
0
70
0
0
BLOCK_RECORD
5
262
100
AcDbSymbolTableRecord
100
AcDbBlockTableRecord
2
*D9
340
0
70
0
0
BLOCK_RECORD
5
270
100
AcDbSymbolTableRecord
100
AcDbBlockTableRecord
2
_U4
340
0
70
0
0
ENDTAB
0
ENDSEC
0
SECTION
2
BLOCKS
0
BLOCK
5
20
100
AcDbEntity
8
0
100
AcDbBlockBegin
2
*Model_Space
70
0
10
0
20
0
30
0
3
*Model_Space
0
ENDBLK
5
21
100
AcDbEntity
8
0
100
AcDbBlockEnd
0
BLOCK
5
1C
100
AcDbEntity
8
0
100
AcDbBlockBegin
2
*Paper_Space
70
0
10
0
20
0
30
0
3
*Paper_Space
0
ENDBLK
5
1D
100
AcDbEntity
8
0
100
AcDbBlockEnd
0
BLOCK
5
24
100
AcDbEntity
8
0
100
AcDbBlockBegin
2
*Paper_Space0
70
0
10
0
20
0
30
0
3
*Paper_Space0
0
ENDBLK
5
25
100
AcDbEntity
8
0
100
AcDbBlockEnd
0
BLOCK
5
203
100
AcDbEntity
8
0
100
AcDbBlockBegin
2
*D1
70
1
10
0
20
0
30
0
3
*D1
0
LINE
5
205
100
AcDbEntity
8
0
62
256
6
ByLayer
370
-2
48
1
60
0
100
AcDbLine
10
112
20
1.5875
30
0
11
112
21
17.85
31
0
39
0
210
0
220
0
230
1
0
LINE
5
206
100
AcDbEntity
8
0
62
256
6
ByLayer
370
-2
48
1
60
0
100
AcDbLine
10
87
20
5.683178
30
0
11
87
21
17.85
31
0
39
0
210
0
220
0
230
1
0
LINE
5
207
100
AcDbEntity
8
0
62
256
6
ByLayer
370
-2
48
1
60
0
100
AcDbLine
10
108.5
20
15.85
30
0
11
90.5
21
15.85
31
0
39
0
210
0
220
0
230
1
0
SOLID
5
208
100
AcDbEntity
8
0
62
256
6
ByLayer
370
-1
48
1
60
0
100
AcDbTrace
10
108.5
20
15.266667
30
0
11
108.5
21
16.433333
31
0
12
112
22
15.85
32
0
13
112
23
15.85
33
0
39
0
210
0
220
0
230
1
0
SOLID
5
209
100
AcDbEntity
8
0
62
256
6
ByLayer
370
-1
48
1
60
0
100
AcDbTrace
10
90.5
20
16.433333
30
0
11
90.5
21
15.266667
31
0
12
87
22
15.85
32
0
13
87
23
15.85
33
0
39
0
210
0
220
0
230
1
0
MTEXT
5
20A
100
AcDbEntity
8
0
62
256
6
ByLayer
370
18
48
1
60
0
100
AcDbMText
10
99.5
20
21.85
30
0
210
0
220
0
230
1
1
\A1;25
40
3
41
0
44
1
50
0
71
5
72
5
7
iso_b_vert
0
POINT
5
20B
100
AcDbEntity
8
Defpoints
62
0
6
ByLayer
370
-1
48
1
60
0
100
AcDbPoint
10
112
20
0
30
0
39
0
210
0
220
0
230
1
50
360
0
POINT
5
20C
100
AcDbEntity
8
Defpoints
62
0
6
ByLayer
370
-1
48
1
60
0
100
AcDbPoint
10
87
20
4.095678
30
0
39
0
210
0
220
0
230
1
50
360
0
POINT
5
20D
100
AcDbEntity
8
Defpoints
62
0
6
ByLayer
370
-1
48
1
60
0
100
AcDbPoint
10
87
20
15.85
30
0
39
0
210
0
220
0
230
1
50
360
0
ENDBLK
5
204
100
AcDbEntity
8
0
100
AcDbBlockEnd
0
BLOCK
5
215
100
AcDbEntity
8
0
100
AcDbBlockBegin
2
_U0
70
0
10
0
20
0
30
0
3
_U0
0
MTEXT
5
20F
100
AcDbEntity
8
2
62
256
6
ByLayer
370
18
48
1
60
0
100
AcDbMText
10
97.867172
20
16.735114
30
0
210
0
220
0
230
1
1
\W0.6740;25
40
3
41
0
44
1.084337
50
0
71
7
72
5
7
iso_b_vert
0
LINE
5
210
100
AcDbEntity
8
2
62
256
6
ByLayer
370
13
48
1
60
0
100
AcDbLine
10
112
20
1.5875
30
0
11
112
21
17.85
31
0
39
0
210
0
220
0
230
1
0
LINE
5
211
100
AcDbEntity
8
2
62
256
6
ByLayer
370
13
48
1
60
0
100
AcDbLine
10
87
20
5.683178
30
0
11
87
21
17.85
31
0
39
0
210
0
220
0
230
1
0
LINE
5
212
100
AcDbEntity
8
2
62
256
6
ByLayer
370
13
48
1
60
0
100
AcDbLine
10
112
20
15.85
30
0
11
87
21
15.85
31
0
39
0
210
0
220
0
230
1
0
SOLID
5
213
100
AcDbEntity
8
2
62
256
6
ByLayer
370
18
48
1
60
0
100
AcDbTrace
10
112
20
15.85
30
0
11
108.500002
21
15.389216
31
0
12
108.499998
22
16.310784
32
0
13
108.499998
23
16.310784
33
0
39
0
210
0
220
0
230
1
0
SOLID
5
214
100
AcDbEntity
8
2
62
256
6
ByLayer
370
18
48
1
60
0
100
AcDbTrace
10
87
20
15.85
30
0
11
90.499998
21
16.310784
31
0
12
90.500002
22
15.389216
32
0
13
90.500002
23
15.389216
33
0
39
0
210
0
220
0
230
1
0
ENDBLK
5
216
100
AcDbEntity
8
0
100
AcDbBlockEnd
0
BLOCK
5
21B
100
AcDbEntity
8
0
100
AcDbBlockBegin
2
*D3
70
1
10
0
20
0
30
0
3
*D3
0
LINE
5
21D
100
AcDbEntity
8
0
62
256
6
ByLayer
370
-2
48
1
60
0
100
AcDbLine
10
112
20
1.5875
30
0
11
112
21
27.85
31
0
39
0
210
0
220
0
230
1
0
LINE
5
21E
100
AcDbEntity
8
0
62
256
6
ByLayer
370
-2
48
1
60
0
100
AcDbLine
10
1.976309
20
9.5875
30
0
11
1.976309
21
27.85
31
0
39
0
210
0
220
0
230
1
0
LINE
5
21F
100
AcDbEntity
8
0
62
256
6
ByLayer
370
-2
48
1
60
0
100
AcDbLine
10
108.5
20
25.85
30
0
11
5.476309
21
25.85
31
0
39
0
210
0
220
0
230
1
0
SOLID
5
220
100
AcDbEntity
8
0
62
256
6
ByLayer
370
-1
48
1
60
0
100
AcDbTrace
10
108.5
20
25.266667
30
0
11
108.5
21
26.433333
31
0
12
112
22
25.85
32
0
13
112
23
25.85
33
0
39
0
210
0
220
0
230
1
0
SOLID
5
221
100
AcDbEntity
8
0
62
256
6
ByLayer
370
-1
48
1
60
0
100
AcDbTrace
10
5.476309
20
26.433333
30
0
11
5.476309
21
25.266667
31
0
12
1.976309
22
25.85
32
0
13
1.976309
23
25.85
33
0
39
0
210
0
220
0
230
1
0
MTEXT
5
222
100
AcDbEntity
8
0
62
256
6
ByLayer
370
18
48
1
60
0
100
AcDbMText
10
56.988154
20
31.85
30
0
210
0
220
0
230
1
1
\A1;110.02
40
3
41
0
44
1
50
0
71
5
72
5
7
iso_b_vert
0
POINT
5
223
100
AcDbEntity
8
Defpoints
62
0
6
ByLayer
370
-1
48
1
60
0
100
AcDbPoint
10
112
20
0
30
0
39
0
210
0
220
0
230
1
50
360
0
POINT
5
224
100
AcDbEntity
8
Defpoints
62
0
6
ByLayer
370
-1
48
1
60
0
100
AcDbPoint
10
1.976309
20
8
30
0
39
0
210
0
220
0
230
1
50
360
0
POINT
5
225
100
AcDbEntity
8
Defpoints
62
0
6
ByLayer
370
-1
48
1
60
0
100
AcDbPoint
10
1.976309
20
25.85
30
0
39
0
210
0
220
0
230
1
50
360
0
ENDBLK
5
21C
100
AcDbEntity
8
0
100
AcDbBlockEnd
0
BLOCK
5
22D
100
AcDbEntity
8
0
100
AcDbBlockBegin
2
_U1
70
0
10
0
20
0
30
0
3
_U1
0
MTEXT
5
227
100
AcDbEntity
8
2
62
256
6
ByLayer
370
18
48
1
60
0
100
AcDbMText
10
54.984298
20
26.735114
30
0
210
0
220
0
230
1
1
\W0.5296;110
40
3
41
0
44
1.084337
50
0
71
7
72
5
7
iso_b_vert
0
LINE
5
228
100
AcDbEntity
8
2
62
256
6
ByLayer
370
13
48
1
60
0
100
AcDbLine
10
112
20
1.5875
30
0
11
112
21
27.85
31
0
39
0
210
0
220
0
230
1
0
LINE
5
229
100
AcDbEntity
8
2
62
256
6
ByLayer
370
13
48
1
60
0
100
AcDbLine
10
1.976309
20
9.5875
30
0
11
1.976309
21
27.85
31
0
39
0
210
0
220
0
230
1
0
LINE
5
22A
100
AcDbEntity
8
2
62
256
6
ByLayer
370
13
48
1
60
0
100
AcDbLine
10
112
20
25.85
30
0
11
1.976309
21
25.85
31
0
39
0
210
0
220
0
230
1
0
SOLID
5
22B
100
AcDbEntity
8
2
62
256
6
ByLayer
370
18
48
1
60
0
100
AcDbTrace
10
112
20
25.85
30
0
11
108.500002
21
25.389216
31
0
12
108.499998
22
26.310784
32
0
13
108.499998
23
26.310784
33
0
39
0
210
0
220
0
230
1
0
SOLID
5
22C
100
AcDbEntity
8
2
62
256
6
ByLayer
370
18
48
1
60
0
100
AcDbTrace
10
1.976309
20
25.85
30
0
11
5.476307
21
26.310784
31
0
12
5.476311
22
25.389216
32
0
13
5.476311
23
25.389216
33
0
39
0
210
0
220
0
230
1
0
ENDBLK
5
22E
100
AcDbEntity
8
0
100
AcDbBlockEnd
0
BLOCK
5
233
100
AcDbEntity
8
0
100
AcDbBlockBegin
2
*D5
70
1
10
0
20
0
30
0
3
*D5
0
LINE
5
235
100
AcDbEntity
8
0
62
256
6
ByLayer
370
-2
48
1
60
0
100
AcDbLine
10
112
20
1.5875
30
0
11
112
21
37.85
31
0
39
0
210
0
220
0
230
1
0
LINE
5
236
100
AcDbEntity
8
0
62
256
6
ByLayer
370
-2
48
1
60
0
100
AcDbLine
10
-48
20
1.5875
30
0
11
-48
21
37.85
31
0
39
0
210
0
220
0
230
1
0
LINE
5
237
100
AcDbEntity
8
0
62
256
6
ByLayer
370
-2
48
1
60
0
100
AcDbLine
10
108.5
20
35.85
30
0
11
-44.5
21
35.85
31
0
39
0
210
0
220
0
230
1
0
SOLID
5
238
100
AcDbEntity
8
0
62
256
6
ByLayer
370
-1
48
1
60
0
100
AcDbTrace
10
108.5
20
35.266667
30
0
11
108.5
21
36.433333
31
0
12
112
22
35.85
32
0
13
112
23
35.85
33
0
39
0
210
0
220
0
230
1
0
SOLID
5
239
100
AcDbEntity
8
0
62
256
6
ByLayer
370
-1
48
1
60
0
100
AcDbTrace
10
-44.5
20
36.433333
30
0
11
-44.5
21
35.266667
31
0
12
-48
22
35.85
32
0
13
-48
23
35.85
33
0
39
0
210
0
220
0
230
1
0
MTEXT
5
23A
100
AcDbEntity
8
0
62
256
6
ByLayer
370
18
48
1
60
0
100
AcDbMText
10
32
20
41.85
30
0
210
0
220
0
230
1
1
\A1;160
40
3
41
0
44
1
50
0
71
5
72
5
7
iso_b_vert
0
POINT
5
23B
100
AcDbEntity
8
Defpoints
62
0
6
ByLayer
370
-1
48
1
60
0
100
AcDbPoint
10
112
20
0
30
0
39
0
210
0
220
0
230
1
50
360
0
POINT
5
23C
100
AcDbEntity
8
Defpoints
62
0
6
ByLayer
370
-1
48
1
60
0
100
AcDbPoint
10
-48
20
0
30
0
39
0
210
0
220
0
230
1
50
360
0
POINT
5
23D
100
AcDbEntity
8
Defpoints
62
0
6
ByLayer
370
-1
48
1
60
0
100
AcDbPoint
10
-48
20
35.85
30
0
39
0
210
0
220
0
230
1
50
360
0
ENDBLK
5
234
100
AcDbEntity
8
0
100
AcDbBlockEnd
0
BLOCK
5
245
100
AcDbEntity
8
0
100
AcDbBlockBegin
2
_U2
70
0
10
0
20
0
30
0
3
_U2
0
MTEXT
5
23F
100
AcDbEntity
8
SK2
62
256
6
ByLayer
370
18
48
1
60
0
100
AcDbMText
10
29.621201
20
36.735114
30
0
210
0
220
0
230
1
1
\W0.6217;160
40
3
41
0
44
1.084337
50
0
71
7
72
5
7
iso_b_vert
0
LINE
5
240
100
AcDbEntity
8
SK2
62
256
6
ByLayer
370
13
48
1
60
0
100
AcDbLine
10
112
20
1.5875
30
0
11
112
21
37.85
31
0
39
0
210
0
220
0
230
1
0
LINE
5
241
100
AcDbEntity
8
SK2
62
256
6
ByLayer
370
13
48
1
60
0
100
AcDbLine
10
-48
20
1.5875
30
0
11
-48
21
37.85
31
0
39
0
210
0
220
0
230
1
0
LINE
5
242
100
AcDbEntity
8
SK2
62
256
6
ByLayer
370
13
48
1
60
0
100
AcDbLine
10
112
20
35.85
30
0
11
-48
21
35.85
31
0
39
0
210
0
220
0
230
1
0
SOLID
5
243
100
AcDbEntity
8
SK2
62
256
6
ByLayer
370
18
48
1
60
0
100
AcDbTrace
10
112
20
35.85
30
0
11
108.500002
21
35.389216
31
0
12
108.499998
22
36.310784
32
0
13
108.499998
23
36.310784
33
0
39
0
210
0
220
0
230
1
0
SOLID
5
244
100
AcDbEntity
8
SK2
62
256
6
ByLayer
370
18
48
1
60
0
100
AcDbTrace
10
-48
20
35.85
30
0
11
-44.500002
21
36.310784
31
0
12
-44.499998
22
35.389216
32
0
13
-44.499998
23
35.389216
33
0
39
0
210
0
220
0
230
1
0
ENDBLK
5
246
100
AcDbEntity
8
0
100
AcDbBlockEnd
0
BLOCK
5
24B
100
AcDbEntity
8
0
100
AcDbBlockBegin
2
*D7
70
1
10
0
20
0
30
0
3
*D7
0
LINE
5
24D
100
AcDbEntity
8
0
62
256
6
ByLayer
370
-2
48
1
60
0
100
AcDbLine
10
-48
20
-1.5875
30
0
11
-48
21
-21.492226
31
0
39
0
210
0
220
0
230
1
0
LINE
5
24E
100
AcDbEntity
8
0
62
256
6
ByLayer
370
-2
48
1
60
0
100
AcDbLine
10
0.6
20
-9.5875
30
0
11
0.6
21
-21.492226
31
0
39
0
210
0
220
0
230
1
0
LINE
5
24F
100
AcDbEntity
8
0
62
256
6
ByLayer
370
-2
48
1
60
0
100
AcDbLine
10
-44.5
20
-19.492226
30
0
11
-2.9
21
-19.492226
31
0
39
0
210
0
220
0
230
1
0
SOLID
5
250
100
AcDbEntity
8
0
62
256
6
ByLayer
370
-1
48
1
60
0
100
AcDbTrace
10
-44.5
20
-18.908893
30
0
11
-44.5
21
-20.07556
31
0
12
-48
22
-19.492226
32
0
13
-48
23
-19.492226
33
0
39
0
210
0
220
0
230
1
0
SOLID
5
251
100
AcDbEntity
8
0
62
256
6
ByLayer
370
-1
48
1
60
0
100
AcDbTrace
10
-2.9
20
-20.07556
30
0
11
-2.9
21
-18.908893
31
0
12
0.6
22
-19.492226
32
0
13
0.6
23
-19.492226
33
0
39
0
210
0
220
0
230
1
0
MTEXT
5
252
100
AcDbEntity
8
0
62
256
6
ByLayer
370
18
48
1
60
0
100
AcDbMText
10
-23.7
20
-13.492226
30
0
210
0
220
0
230
1
1
\A1;48.6
40
3
41
0
44
1
50
0
71
5
72
5
7
iso_b_vert
0
POINT
5
253
100
AcDbEntity
8
Defpoints
62
0
6
ByLayer
370
-1
48
1
60
0
100
AcDbPoint
10
-48
20
0
30
0
39
0
210
0
220
0
230
1
50
360
0
POINT
5
254
100
AcDbEntity
8
Defpoints
62
0
6
ByLayer
370
-1
48
1
60
0
100
AcDbPoint
10
0.6
20
-8
30
0
39
0
210
0
220
0
230
1
50
360
0
POINT
5
255
100
AcDbEntity
8
Defpoints
62
0
6
ByLayer
370
-1
48
1
60
0
100
AcDbPoint
10
0.6
20
-19.492226
30
0
39
0
210
0
220
0
230
1
50
360
0
ENDBLK
5
24C
100
AcDbEntity
8
0
100
AcDbBlockEnd
0
BLOCK
5
25D
100
AcDbEntity
8
0
100
AcDbBlockBegin
2
_U3
70
0
10
0
20
0
30
0
3
_U3
0
MTEXT
5
257
100
AcDbEntity
8
SK2
62
256
6
ByLayer
370
18
48
1
60
0
100
AcDbMText
10
-31.422856
20
-18.607112
30
0
210
0
220
0
230
1
1
\W0.7399;(MIN. 48)
40
3
41
0
44
1.084337
50
0
71
7
72
5
7
iso_b_vert
0
LINE
5
258
100
AcDbEntity
8
SK2
62
256
6
ByLayer
370
13
48
1
60
0
100
AcDbLine
10
-48
20
-1.5875
30
0
11
-48
21
-21.492226
31
0
39
0
210
0
220
0
230
1
0
LINE
5
259
100
AcDbEntity
8
SK2
62
256
6
ByLayer
370
13
48
1
60
0
100
AcDbLine
10
0.6
20
-9.5875
30
0
11
0.6
21
-21.492226
31
0
39
0
210
0
220
0
230
1
0
LINE
5
25A
100
AcDbEntity
8
SK2
62
256
6
ByLayer
370
13
48
1
60
0
100
AcDbLine
10
-48
20
-19.492226
30
0
11
0.6
21
-19.492226
31
0
39
0
210
0
220
0
230
1
0
SOLID
5
25B
100
AcDbEntity
8
SK2
62
256
6
ByLayer
370
18
48
1
60
0
100
AcDbTrace
10
-48
20
-19.492226
30
0
11
-44.500002
21
-19.031443
31
0
12
-44.499998
22
-19.95301
32
0
13
-44.499998
23
-19.95301
33
0
39
0
210
0
220
0
230
1
0
SOLID
5
25C
100
AcDbEntity
8
SK2
62
256
6
ByLayer
370
18
48
1
60
0
100
AcDbTrace
10
0.6
20
-19.492226
30
0
11
-2.899998
21
-19.95301
31
0
12
-2.900002
22
-19.031443
32
0
13
-2.900002
23
-19.031443
33
0
39
0
210
0
220
0
230
1
0
ENDBLK
5
25E
100
AcDbEntity
8
0
100
AcDbBlockEnd
0
BLOCK
5
263
100
AcDbEntity
8
0
100
AcDbBlockBegin
2
*D9
70
1
10
0
20
0
30
0
3
*D9
0
LINE
5
265
100
AcDbEntity
8
0
62
256
6
ByLayer
370
-2
48
1
60
0
100
AcDbLine
10
112
20
-1.5875
30
0
11
112
21
-13.5
31
0
39
0
210
0
220
0
230
1
0
LINE
5
266
100
AcDbEntity
8
0
62
256
6
ByLayer
370
-2
48
1
60
0
100
AcDbLine
10
104.132
20
2.508178
30
0
11
104.132
21
-13.5
31
0
39
0
210
0
220
0
230
1
0
LINE
5
267
100
AcDbEntity
8
0
62
256
6
ByLayer
370
-2
48
1
60
0
100
AcDbLine
10
112
20
-11.5
30
0
11
137.142857
21
-11.5
31
0
39
0
210
0
220
0
230
1
0
LINE
5
268
100
AcDbEntity
8
0
62
256
6
ByLayer
370
-2
48
1
60
0
100
AcDbLine
10
115.5
20
-11.5
30
0
11
119
21
-11.5
31
0
39
0
210
0
220
0
230
1
0
LINE
5
269
100
AcDbEntity
8
0
62
256
6
ByLayer
370
-2
48
1
60
0
100
AcDbLine
10
100.632
20
-11.5
30
0
11
97.132
21
-11.5
31
0
39
0
210
0
220
0
230
1
0
SOLID
5
26A
100
AcDbEntity
8
0
62
256
6
ByLayer
370
-1
48
1
60
0
100
AcDbTrace
10
115.5
20
-10.916667
30
0
11
115.5
21
-12.083333
31
0
12
112
22
-11.5
32
0
13
112
23
-11.5
33
0
39
0
210
0
220
0
230
1
0
SOLID
5
26B
100
AcDbEntity
8
0
62
256
6
ByLayer
370
-1
48
1
60
0
100
AcDbTrace
10
100.632
20
-12.083333
30
0
11
100.632
21
-10.916667
31
0
12
104.132
22
-11.5
32
0
13
104.132
23
-11.5
33
0
39
0
210
0
220
0
230
1
0
MTEXT
5
26C
100
AcDbEntity
8
0
62
256
6
ByLayer
370
18
48
1
60
0
100
AcDbMText
10
128.071429
20
-5.5
30
0
210
0
220
0
230
1
1
\A1;7.87
40
3
41
0
44
1
50
0
71
5
72
5
7
iso_b_vert
0
POINT
5
26D
100
AcDbEntity
8
Defpoints
62
0
6
ByLayer
370
-1
48
1
60
0
100
AcDbPoint
10
112
20
0
30
0
39
0
210
0
220
0
230
1
50
360
0
POINT
5
26E
100
AcDbEntity
8
Defpoints
62
0
6
ByLayer
370
-1
48
1
60
0
100
AcDbPoint
10
104.132
20
4.095678
30
0
39
0
210
0
220
0
230
1
50
360
0
POINT
5
26F
100
AcDbEntity
8
Defpoints
62
0
6
ByLayer
370
-1
48
1
60
0
100
AcDbPoint
10
104.132
20
-11.5
30
0
39
0
210
0
220
0
230
1
50
360
0
ENDBLK
5
264
100
AcDbEntity
8
0
100
AcDbBlockEnd
0
BLOCK
5
277
100
AcDbEntity
8
0
100
AcDbBlockBegin
2
_U4
70
0
10
0
20
0
30
0
3
_U4
0
MTEXT
5
271
100
AcDbEntity
8
SK2
62
256
6
ByLayer
370
18
48
1
60
0
100
AcDbMText
10
122.159
20
-10.614886
30
0
210
0
220
0
230
1
1
\W0.7346;7.87
40
3
41
0
44
1.084337
50
0
71
7
72
5
7
iso_b_vert
0
LINE
5
272
100
AcDbEntity
8
SK2
62
256
6
ByLayer
370
13
48
1
60
0
100
AcDbLine
10
112
20
-1.5875
30
0
11
112
21
-13.5
31
0
39
0
210
0
220
0
230
1
0
LINE
5
273
100
AcDbEntity
8
SK2
62
256
6
ByLayer
370
13
48
1
60
0
100
AcDbLine
10
104.132
20
2.508178
30
0
11
104.132
21
-13.5
31
0
39
0
210
0
220
0
230
1
0
LINE
5
274
100
AcDbEntity
8
SK2
62
256
6
ByLayer
370
13
48
1
60
0
100
AcDbLine
10
104.132
20
-11.5
30
0
11
129.040913
21
-11.5
31
0
39
0
210
0
220
0
230
1
0
SOLID
5
275
100
AcDbEntity
8
SK2
62
256
6
ByLayer
370
18
48
1
60
0
100
AcDbTrace
10
112
20
-11.5
30
0
11
108.500002
21
-11.960784
31
0
12
108.499998
22
-11.039216
32
0
13
108.499998
23
-11.039216
33
0
39
0
210
0
220
0
230
1
0
SOLID
5
276
100
AcDbEntity
8
SK2
62
256
6
ByLayer
370
18
48
1
60
0
100
AcDbTrace
10
104.132
20
-11.5
30
0
11
107.631998
21
-11.039216
31
0
12
107.632002
22
-11.960784
32
0
13
107.632002
23
-11.960784
33
0
39
0
210
0
220
0
230
1
0
ENDBLK
5
278
100
AcDbEntity
8
0
100
AcDbBlockEnd
0
ENDSEC
0
SECTION
2
ENTITIES
0
ARC
5
112
100
AcDbEntity
8
1
62
256
6
ByLayer
370
18
48
1
60
0
100
AcDbCircle
39
0
10
86.999261
20
5.096
30
0
40
1
210
0
220
0
230
1
100
AcDbArc
50
267.370287
51
270
0
ARC
5
113
100
AcDbEntity
8
1
62
256
6
ByLayer
370
18
48
1
60
0
100
AcDbCircle
39
0
10
86.999261
20
-5.096
30
0
40
1
210
0
220
0
230
1
100
AcDbArc
50
90
51
92.629713
0
ARC
5
114
100
AcDbEntity
8
81
62
256
6
ByLayer
370
18
48
1
60
0
100
AcDbCircle
39
0
10
103.92021
20
-4.325815
30
0
40
0.327409305312861
210
0
220
0
230
1
100
AcDbArc
50
49.86945
51
90
0
ARC
5
115
100
AcDbEntity
8
81
62
256
6
ByLayer
370
18
48
1
60
0
100
AcDbCircle
39
0
10
103.92021
20
4.325815
30
0
40
0.327409305312861
210
0
220
0
230
1
100
AcDbArc
50
270
51
310.13055
0
ARC
5
116
100
AcDbEntity
8
81
62
256
6
ByLayer
370
18
48
1
60
0
100
AcDbCircle
39
0
10
103.62021
20
-12.448212
30
0
40
8.44980590837708
210
0
220
0
230
1
100
AcDbArc
50
90
51
98.702138
0
ARC
5
117
100
AcDbEntity
8
81
62
256
6
ByLayer
370
18
48
1
60
0
100
AcDbCircle
39
0
10
103.62021
20
12.448212
30
0
40
8.44980590837708
210
0
220
0
230
1
100
AcDbArc
50
261.297862
51
270
0
ARC
5
118
100
AcDbEntity
8
81
62
256
6
ByLayer
370
18
48
1
60
0
100
AcDbCircle
39
0
10
107
20
0
30
0
40
4.984
210
0
220
0
230
1
100
AcDbArc
50
82.793407
51
125.13055
0
ARC
5
119
100
AcDbEntity
8
81
62
256
6
ByLayer
370
18
48
1
60
0
100
AcDbCircle
39
0
10
107
20
0
30
0
40
4.984
210
0
220
0
230
1
100
AcDbArc
50
359.999995
51
76.794963
0
ARC
5
11A
100
AcDbEntity
8
81
62
256
6
ByLayer
370
18
48
1
60
0
100
AcDbCircle
39
0
10
107
20
0
30
0
40
4.984
210
0
220
0
230
1
100
AcDbArc
50
276.494914
51
359.292236
0
ARC
5
11B
100
AcDbEntity
8
81
62
256
6
ByLayer
370
18
48
1
60
0
100
AcDbCircle
39
0
10
107
20
0
30
0
40
4.984
210
0
220
0
230
1
100
AcDbArc
50
234.86945
51
263.027739
0
ARC
5
11C
100
AcDbEntity
8
SK2
62
256
6
ByLayer
370
13
48
1
60
0
100
AcDbCircle
39
0
10
176.190803
20
0
30
0
40
187.166044865416
210
0
220
0
230
1
100
AcDbArc
50
177.370802
51
180
0
ARC
5
11D
100
AcDbEntity
8
SK2
62
256
6
ByLayer
370
13
48
1
60
0
100
AcDbCircle
39
0
10
176.190803
20
0
30
0
40
187.166044865416
210
0
220
0
230
1
100
AcDbArc
50
173.396663
51
177.370802
0
ELLIPSE
5
11E
100
AcDbEntity
8
1
62
256
6
ByLayer
370
18
48
1
60
0
100
AcDbEllipse
10
111.660121
20
0.905092
30
0
11
0.160144715597891
21
0.251780540341999
31
0
210
0
220
0
230
1
40
0.08864
41
1.26787702827849
42
2.0483911306579
0
ELLIPSE
5
11F
100
AcDbEntity
8
1
62
256
6
ByLayer
370
18
48
1
60
0
100
AcDbEllipse
10
111.658965
20
-1.116818
30
0
11
0.150103613850682
21
-0.25319726443646
31
0
210
0
220
0
230
1
40
0.117396
41
2.23612880564305
42
-1.90902816785233
0
ELLIPSE
5
120
100
AcDbEntity
8
1
62
256
6
ByLayer
370
18
48
1
60
0
100
AcDbEllipse
10
111.660121
20
-0.891594
30
0
11
0.159811039386121
21
-0.251549692485861
31
0
210
0
220
0
230
1
40
0.097768
41
2.89150552121709
42
-1.31182663471025
0
ELLIPSE
5
121
100
AcDbEntity
8
1
62
256
6
ByLayer
370
18
48
1
60
0
100
AcDbEllipse
10
102.282907
20
-15.041643
30
0
11
7.69711409325125
21
9.09752507459512
31
0
210
0
220
0
230
1
40
0.894028
41
0.615340058389497
42
0.717534699689767
0
ELLIPSE
5
122
100
AcDbEntity
8
1
62
256
6
ByLayer
370
18
48
1
60
0
100
AcDbEllipse
10
102.388211
20
6.351735
30
0
11
-11.4172735480888
21
4.24940752219477
31
0
210
0
220
0
230
1
40
0.196411
41
1.69458362286384
42
1.78267918371794
0
ELLIPSE
5
123
100
AcDbEntity
8
1
62
256
6
ByLayer
370
18
48
1
60
0
100
AcDbEllipse
10
102.282904
20
6.068797
30
0
11
-11.168336495453
21
4.15675536845876
31
0
210
0
220
0
230
1
40
0.196411
41
1.684076328613
42
1.78627179190552
0
ELLIPSE
5
124
100
AcDbEntity
8
1
62
256
6
ByLayer
370
18
48
1
60
0
100
AcDbEllipse
10
102.388215
20
-15.130741
30
0
11
7.86867763498753
21
9.30030284349953
31
0
210
0
220
0
230
1
40
0.894028
41
0.618932255198476
42
0.707025865728492
0
ELLIPSE
5
125
100
AcDbEntity
8
1
62
256
6
ByLayer
370
18
48
1
60
0
100
AcDbEllipse
10
102.282904
20
-8.758765
30
0
11
-10.5161257533311
21
5.60548431529246
31
0
210
0
220
0
230
1
40
0.686524
41
-1.36249295011692
42
-1.26029748682431
0
ELLIPSE
5
126
100
AcDbEntity
8
1
62
256
6
ByLayer
370
18
48
1
60
0
100
AcDbEllipse
10
111.920745
20
0
30
0
11
12.7608588373502
21
-0.234730606030325
31
0
210
0
220
0
230
1
40
0.320454
41
-2.62451863202822
42
-2.27000192375059
0
ELLIPSE
5
127
100
AcDbEntity
8
1
62
256
6
ByLayer
370
18
48
1
60
0
100
AcDbEllipse
10
111.920745
20
0
30
0
11
12.7517918145654
21
-3.74576173886667
31
0
210
0
220
0
230
1
40
0.129962
41
-2.59225606849533
42
-2.2377440412626
0
ELLIPSE
5
128
100
AcDbEntity
8
1
62
256
6
ByLayer
370
18
48
1
60
0
100
AcDbEllipse
10
102.388211
20
-8.561204
30
0
11
-10.7505253303179
21
5.73042796689292
31
0
210
0
220
0
230
1
40
0.686524
41
-1.35890034192931
42
-1.27080478107516
0
ELLIPSE
5
129
100
AcDbEntity
8
1
62
256
6
ByLayer
370
18
48
1
60
0
100
AcDbEllipse
10
111.920745
20
0
30
0
11
12.7481619299539
21
-3.53396956967904
31
0
210
0
220
0
230
1
40
0.16244
41
2.32090148195847
42
2.61154595601298
0
ELLIPSE
5
12A
100
AcDbEntity
8
1
62
256
6
ByLayer
370
18
48
1
60
0
100
AcDbEllipse
10
111.920745
20
0
30
0
11
12.7476891632374
21
3.49902964869893
31
0
210
0
220
0
230
1
40
0.167036
41
-2.67622966628213
42
-2.46564400549395
0
POINT
5
70
100
AcDbEntity
8
81
62
256
6
ByLayer
370
18
48
1
60
0
100
AcDbPoint
10
112
20
0
30
0
39
0
210
0
220
0
230
1
50
360
0
POINT
5
72
100
AcDbEntity
8
80
62
256
6
ByLayer
370
18
48
1
60
0
100
AcDbPoint
10
0
20
0
30
0
39
0
210
0
220
0
230
1
50
360
0
POINT
5
74
100
AcDbEntity
8
1
62
256
6
ByLayer
370
18
48
1
60
1
100
AcDbPoint
10
112
20
0
30
0
39
0
210
0
220
0
230
1
50
360
0
POINT
5
76
100
AcDbEntity
8
1
62
256
6
ByLayer
370
18
48
1
60
1
100
AcDbPoint
10
87
20
4.095678
30
0
39
0
210
0
220
0
230
1
50
360
0
POINT
5
77
100
AcDbEntity
8
1
62
256
6
ByLayer
370
18
48
1
60
1
100
AcDbPoint
10
112
20
0
30
0
39
0
210
0
220
0
230
1
50
360
0
POINT
5
78
100
AcDbEntity
8
1
62
256
6
ByLayer
370
18
48
1
60
1
100
AcDbPoint
10
1.976309
20
8
30
0
39
0
210
0
220
0
230
1
50
360
0
POINT
5
79
100
AcDbEntity
8
1
62
256
6
ByLayer
370
18
48
1
60
1
100
AcDbPoint
10
112
20
0
30
0
39
0
210
0
220
0
230
1
50
360
0
POINT
5
7A
100
AcDbEntity
8
1
62
256
6
ByLayer
370
18
48
1
60
1
100
AcDbPoint
10
-48
20
0
30
0
39
0
210
0
220
0
230
1
50
360
0
POINT
5
7B
100
AcDbEntity
8
1
62
256
6
ByLayer
370
18
48
1
60
1
100
AcDbPoint
10
-48
20
0
30
0
39
0
210
0
220
0
230
1
50
360
0
POINT
5
7C
100
AcDbEntity
8
1
62
256
6
ByLayer
370
18
48
1
60
1
100
AcDbPoint
10
0.6
20
-8
30
0
39
0
210
0
220
0
230
1
50
360
0
POINT
5
7D
100
AcDbEntity
8
1
62
256
6
ByLayer
370
18
48
1
60
1
100
AcDbPoint
10
112
20
0
30
0
39
0
210
0
220
0
230
1
50
360
0
POINT
5
7E
100
AcDbEntity
8
1
62
256
6
ByLayer
370
18
48
1
60
1
100
AcDbPoint
10
104.132
20
4.095678
30
0
39
0
210
0
220
0
230
1
50
360
0
SPLINE
5
12B
100
AcDbEntity
8
1
62
256
6
ByLayer
370
18
48
1
60
0
100
AcDbSpline
70
4
71
1
72
4
73
2
40
0
40
0
40
1
40
1
41
1
10
111.988003538362
20
7.08560172598E-05
30
0
41
1
10
111.975470652126
20
0.0645360969637636
30
0
0
SPLINE
5
12C
100
AcDbEntity
8
1
62
256
6
ByLayer
370
18
48
1
60
0
100
AcDbSpline
70
4
71
2
72
6
73
3
40
0
40
0
40
0
40
1
40
1
40
1
41
1
10
108.865857964464
20
2.79059392163163
30
0
41
1
10
108.535543105993
20
2.86309615504237
30
0
41
1
10
108.072789072356
20
2.9850680515182
30
0
0
SPLINE
5
12D
100
AcDbEntity
8
1
62
256
6
ByLayer
370
18
48
1
60
0
100
AcDbSpline
70
4
71
3
72
8
73
4
40
0
40
0
40
0
40
0
40
1
40
1
40
1
40
1
41
1
10
111.621614782749
20
-0.725961417505118
30
0
41
1
10
111.606397479419
20
-0.751098625055619
30
0
41
1
10
111.590972424384
20
-0.776353235724088
30
0
41
1
10
111.575348071245
20
-0.801713639014281
30
0
0
SPLINE
5
12E
100
AcDbEntity
8
1
62
256
6
ByLayer
370
18
48
1
60
0
100
AcDbSpline
70
4
71
3
72
8
73
4
40
0
40
0
40
0
40
0
40
1
40
1
40
1
40
1
41
1
10
111.981791029352
20
-0.0588170630419143
30
0
41
1
10
111.983716477503
20
-0.0590067791036688
30
0
41
1
10
111.985633133203
20
-0.0591965223435125
30
0
41
1
10
111.987541043448
20
-0.0593862926161535
30
0
0
SPLINE
5
12F
100
AcDbEntity
8
1
62
256
6
ByLayer
370
18
48
1
60
0
100
AcDbSpline
70
4
71
3
72
8
73
4
40
0
40
0
40
0
40
0
40
1
40
1
40
1
40
1
41
1
10
111.743038974575
20
1.42263309207047
30
0
41
1
10
111.769658167462
20
1.3443837460897
30
0
41
1
10
111.794259826412
20
1.2656797969006
30
0
41
1
10
111.816839375231
20
1.18652021336689
30
0
0
SPLINE
5
130
100
AcDbEntity
8
1
62
256
6
ByLayer
370
18
48
1
60
0
100
AcDbSpline
70
4
71
3
72
8
73
4
40
0
40
0
40
0
40
0
40
1
40
1
40
1
40
1
41
1
10
111.491938754575
20
1.32855455188553
30
0
41
1
10
111.575615291311
20
1.35996518587049
30
0
41
1
10
111.659317516144
20
1.39132002629091
30
0
41
1
10
111.743038974574
20
1.42263309207092
30
0
0
SPLINE
5
131
100
AcDbEntity
8
1
62
256
6
ByLayer
370
18
48
1
60
0
100
AcDbSpline
70
4
71
3
72
8
73
4
40
0
40
0
40
0
40
0
40
1
40
1
40
1
40
1
41
1
10
111.658686063575
20
1.64760578923426
30
0
41
1
10
111.688729874815
20
1.57288318833713
30
0
41
1
10
111.716843906367
20
1.4978941997048
30
0
41
1
10
111.743038974575
20
1.42263309207061
30
0
0
SPLINE
5
132
100
AcDbEntity
8
1
62
256
6
ByLayer
370
18
48
1
60
0
100
AcDbSpline
70
4
71
3
72
9
73
5
40
0
40
0
40
0
40
0
40
0.454541937711121
40
1
40
1
40
1
40
1
41
1
10
111.288528479616
20
2.3932084864787
30
0
41
1
10
111.354037004556
20
2.28322214289517
30
0
41
1
10
111.489089596979
20
2.0375405870407
30
0
41
1
10
111.6030587572
20
1.78592918680937
30
0
41
1
10
111.658686063575
20
1.64760578923429
30
0
0
SPLINE
5
133
100
AcDbEntity
8
1
62
256
6
ByLayer
370
18
48
1
60
0
100
AcDbSpline
70
4
71
3
72
51
73
47
40
0
40
0
40
0
40
0
40
0.0096103627108623
40
0.0200500863888555
40
0.0313234455194398
40
0.0434349217945698
40
0.0563892192409561
40
0.0701912501240708
40
0.0848461225432616
40
0.100359130422802
40
0.116735746707532
40
0.133981620687594
40
0.152102580502742
40
0.171104642014876
40
0.190994025386844
40
0.211777180866748
40
0.233460825448757
40
0.256051486895339
40
0.279553627193303
40
0.303970695848982
40
0.32930558560411
40
0.355560605066127
40
0.382737465734245
40
0.410837286862853
40
0.439860622070357
40
0.4698075121204
40
0.500677033448479
40
0.552843164361724
40
0.611967674608329
40
0.678028330273365
40
0.750992534354136
40
0.765269313972066
40
0.779880435971126
40
0.794825443860636
40
0.810103821076969
40
0.825714989444535
40
0.841658308112418
40
0.857933073049707
40
0.874538518415828
40
0.891474003395366
40
0.908739223970071
40
0.926333890776784
40
0.944257680631147
40
0.962510234080589
40
0.981091153242412
40
1
40
1
40
1
40
1
41
1
10
108.729330143844
20
4.65855093001514
30
0
41
1
10
108.73909754997
20
4.65443067592793
30
0
41
1
10
108.759475275816
20
4.64583459554282
30
0
41
1
10
108.791258006174
20
4.63209659640774
30
0
41
1
10
108.825530595787
20
4.6169945395381
30
0
41
1
10
108.862288439454
20
4.600434308714
30
0
41
1
10
108.901530302817
20
4.58234706636273
30
0
41
1
10
108.943251489616
20
4.56264987615549
30
0
41
1
10
108.987445443775
20
4.54125747567704
30
0
41
1
10
109.034102798873
20
4.51807880264124
30
0
41
1
10
109.08321115527
20
4.49301803809519
30
0
41
1
10
109.134754614412
20
4.46597431993871
30
0
41
1
10
109.188713355878
20
4.43684184672566
30
0
41
1
10
109.245063173005
20
4.40550986788384
30
0
41
1
10
109.303774993546
20
4.37186270832279
30
0
41
1
10
109.364814369654
20
4.3357797795195
30
0
41
1
10
109.428140481316
20
4.29713591041118
30
0
41
1
10
109.493703151575
20
4.25580284692816
30
0
41
1
10
109.561444663782
20
4.21165918784044
30
0
41
1
10
109.631296312856
20
4.16458336942881
30
0
41
1
10
109.703179135702
20
4.11445302730698
30
0
41
1
10
109.777003649159
20
4.06114505159607
30
0
41
1
10
109.852669032377
20
4.0045359492714
30
0
41
1
10
109.930062351969
20
3.94450215253386
30
0
41
1
10
110.009057519568
20
3.88092061751502
30
0
41
1
10
110.089514671947
20
3.81366873265154
30
0
41
1
10
110.189265396118
20
3.72699806248505
30
0
41
1
10
110.312236179394
20
3.61443838575013
30
0
41
1
10
110.461110513102
20
3.46844960721808
30
0
41
1
10
110.621305349837
20
3.29871337189286
30
0
41
1
10
110.739633257154
20
3.16209657892659
30
0
41
1
10
110.815731620558
20
3.06934742346624
30
0
41
1
10
110.848121597001
20
3.02915030271765
30
0
41
1
10
110.880869647167
20
2.98774653407648
30
0
41
1
10
110.913943888902
20
2.94512355442666
30
0
41
1
10
110.94731069277
20
2.90126975846519
30
0
41
1
10
110.98093504582
20
2.85617402388175
30
0
41
1
10
111.014780423331
20
2.80982593669913
30
0
41
1
10
111.048808759732
20
2.7622155347961
30
0
41
1
10
111.08298120849
20
2.71333337387759
30
0
41
1
10
111.117260388428
20
2.66317167521922
30
0
41
1
10
111.151606255138
20
2.61172232491799
30
0
41
1
10
111.185982986252
20
2.55898054453655
30
0
41
1
10
111.22033259742
20
2.50493325262337
30
0
41
1
10
111.254675519286
20
2.44960395695293
30
0
41
1
10
111.277178547256
20
2.41211627974178
30
0
41
1
10
111.288528479619
20
2.39320848647341
30
0
0
SPLINE
5
134
100
AcDbEntity
8
1
62
256
6
ByLayer
370
18
48
1
60
0
100
AcDbSpline
70
4
71
3
72
9
73
5
40
0
40
0
40
0
40
0
40
0.240670863712647
40
1
40
1
40
1
40
1
41
1
10
108.176193660121
20
4.8497040744785
30
0
41
1
10
108.220114047103
20
4.83772886887388
30
0
41
1
10
108.403111813828
20
4.78467461939584
30
0
41
1
10
108.588204397385
20
4.71773288211028
30
0
41
1
10
108.729330143825
20
4.65855093002313
30
0
0
SPLINE
5
135
100
AcDbEntity
8
1
62
256
6
ByLayer
370
18
48
1
60
0
100
AcDbSpline
70
4
71
1
72
4
73
2
40
0
40
0
40
1
40
1
41
1
10
104.135103148833
20
-3.84048664956507
30
0
41
1
10
104.135204298978
20
-3.84027747133447
30
0
0
SPLINE
5
136
100
AcDbEntity
8
1
62
256
6
ByLayer
370
18
48
1
60
0
100
AcDbSpline
70
4
71
3
72
8
73
4
40
0
40
0
40
0
40
0
40
1
40
1
40
1
40
1
41
1
10
109.327706475698
20
2.99127703267266
30
0
41
1
10
109.424321073298
20
2.84171376861562
30
0
41
1
10
109.524548400649
20
2.69425532800585
30
0
41
1
10
109.628683493342
20
2.54907360242433
30
0
0
SPLINE
5
137
100
AcDbEntity
8
1
62
256
6
ByLayer
370
18
48
1
60
0
100
AcDbSpline
70
4
71
3
72
8
73
4
40
0
40
0
40
0
40
0
40
1
40
1
40
1
40
1
41
1
10
111.981791029352
20
-0.0588170630418574
30
0
41
1
10
111.983874325308
20
-0.0598643245900519
30
0
41
1
10
111.985950287405
20
-0.0609115107480704
30
0
41
1
10
111.988018942529
20
-0.0619586217923427
30
0
0
SPLINE
5
138
100
AcDbEntity
8
1
62
256
6
ByLayer
370
18
48
1
60
0
100
AcDbSpline
70
4
71
3
72
12
73
8
40
0
40
0
40
0
40
0
40
0.249999999999994
40
0.249999999999994
40
0.499999999999989
40
0.499999999999989
40
1
40
1
40
1
40
1
41
1
10
111.929027597442
20
-0.119028258789541
30
0
41
1
10
111.921227288969
20
-0.124015928583447
30
0
41
1
10
111.9124618208
20
-0.128969630538052
30
0
41
1
10
111.893089496349
20
-0.138774398340502
30
0
41
1
10
111.882475158822
20
-0.143630546998054
30
0
41
1
10
111.847897361005
20
-0.15806276497392
30
0
41
1
10
111.821205825527
20
-0.167502940543642
30
0
41
1
10
111.790945402295
20
-0.17676533892535
30
0
0
SPLINE
5
139
100
AcDbEntity
8
1
62
256
6
ByLayer
370
18
48
1
60
0
100
AcDbSpline
70
4
71
3
72
12
73
8
40
0
40
0
40
0
40
0
40
0.25
40
0.25
40
0.500000000000001
40
0.500000000000001
40
1
40
1
40
1
40
1
41
1
10
111.491938754561
20
1.32855455189497
30
0
41
1
10
111.487001088599
20
1.32670104284296
30
0
41
1
10
111.48183247902
20
1.32600764892516
30
0
41
1
10
111.471321746592
20
1.32549248253363
30
0
41
1
10
111.466027604135
20
1.32572935118034
30
0
41
1
10
111.450417938389
20
1.32716512084659
30
0
41
1
10
111.440172738029
20
1.32908007790618
30
0
41
1
10
111.429992311096
20
1.33137978553111
30
0
0
SPLINE
5
13A
100
AcDbEntity
8
1
62
256
6
ByLayer
370
18
48
1
60
0
100
AcDbSpline
70
4
71
3
72
24
73
20
40
0
40
0
40
0
40
0
40
0.137412564362698
40
0.137412564362698
40
0.223671307926514
40
0.223671307926514
40
0.30993005149033
40
0.30993005149033
40
0.482447538617662
40
0.482447538617662
40
0.568706282181328
40
0.568706282181328
40
0.654965025744995
40
0.654965025744995
40
0.827482512872678
40
0.827482512872678
40
0.913741256436339
40
0.913741256436339
40
1
40
1
40
1
40
1
41
1
10
111.226896188405
20
1.26185693949671
30
0
41
1
10
111.234070513587
20
1.26757086295041
30
0
41
1
10
111.241564810092
20
1.27325942372661
30
0
41
1
10
111.254337249314
20
1.28238042996429
30
0
41
1
10
111.259402546558
20
1.2858637534971
30
0
41
1
10
111.269839858918
20
1.29271930053315
30
0
41
1
10
111.275215582537
20
1.29609215610694
30
0
41
1
10
111.291588680084
20
1.30580805416389
30
0
41
1
10
111.302907991375
20
1.31181265167385
30
0
41
1
10
111.320645529549
20
1.31968946924908
30
0
41
1
10
111.32668541075
20
1.3221245610014
30
0
41
1
10
111.339059360634
20
1.32650886282104
30
0
41
1
10
111.345406366897
20
1.32845724462729
30
0
41
1
10
111.364527611185
20
1.33328462738936
30
0
41
1
10
111.377507000594
20
1.33518992977508
30
0
41
1
10
111.39735889366
20
1.33557875336587
30
0
41
1
10
111.404034358001
20
1.33528972293257
30
0
41
1
10
111.417129639271
20
1.33391092649364
30
0
41
1
10
111.423597803255
20
1.33282427293224
30
0
41
1
10
111.429992311096
20
1.33137978553143
30
0
0
SPLINE
5
13B
100
AcDbEntity
8
1
62
256
6
ByLayer
370
18
48
1
60
0
100
AcDbSpline
70
4
71
3
72
12
73
8
40
0
40
0
40
0
40
0
40
0.5
40
0.5
40
0.75
40
0.75
40
1
40
1
40
1
40
1
41
1
10
111.590973706937
20
-0.625722081378512
30
0
41
1
10
111.587397241012
20
-0.614469355067826
30
0
41
1
10
111.584469923594
20
-0.60180575388523
30
0
41
1
10
111.581555470075
20
-0.579967754837554
30
0
41
1
10
111.580832756297
20
-0.572210282069506
30
0
41
1
10
111.580036240637
20
-0.555506890155357
30
0
41
1
10
111.579959703094
20
-0.54656553406673
30
0
41
1
10
111.580333627801
20
-0.536830591346501
30
0
0
SPLINE
5
13C
100
AcDbEntity
8
1
62
256
6
ByLayer
370
18
48
1
60
0
100
AcDbSpline
70
4
71
3
72
39
73
35
40
0
40
0
40
0
40
0
40
0.0624999999999938
40
0.0624999999999938
40
0.0937499999999941
40
0.0937499999999941
40
0.124999999999994
40
0.124999999999994
40
0.156249999999995
40
0.156249999999995
40
0.187499999999995
40
0.218749999999995
40
0.218749999999995
40
0.249999999999995
40
0.249999999999995
40
0.281249999999995
40
0.281249999999995
40
0.312499999999996
40
0.312499999999996
40
0.374999999999996
40
0.374999999999996
40
0.437499999999996
40
0.437499999999996
40
0.499999999999997
40
0.499999999999997
40
0.562499999999997
40
0.562499999999997
40
0.624999999999998
40
0.624999999999998
40
0.749999999999998
40
0.749999999999998
40
0.874999999999999
40
0.874999999999999
40
1
40
1
40
1
40
1
41
1
10
111.580333627802
20
-0.536830591346046
30
0
41
1
10
111.579979879258
20
-0.525140589635072
30
0
41
1
10
111.580196517926
20
-0.512743551636447
30
0
41
1
10
111.581666360677
20
-0.49275926777338
30
0
41
1
10
111.582355311796
20
-0.485835112238846
30
0
41
1
10
111.584132129883
20
-0.471860622469137
30
0
41
1
10
111.585221668347
20
-0.464767570393718
30
0
41
1
10
111.587835635485
20
-0.450352159198019
30
0
41
1
10
111.589371376698
20
-0.442982317164052
30
0
41
1
10
111.59287257752
20
-0.428199666883501
30
0
41
1
10
111.596739474906
20
-0.413621406111531
30
0
41
1
10
111.601292338765
20
-0.399429299894621
30
0
41
1
10
111.606172456046
20
-0.385423297733041
30
0
41
1
10
111.60874361021
20
-0.3786109535599
30
0
41
1
10
111.6140351299
20
-0.365516008911214
30
0
41
1
10
111.616767608734
20
-0.359198979222924
30
0
41
1
10
111.622379522133
20
-0.346972453642707
30
0
41
1
10
111.625245622745
20
-0.341095469227497
30
0
41
1
10
111.633844830172
20
-0.324348809452658
30
0
41
1
10
111.639637788485
20
-0.314221367200787
30
0
41
1
10
111.651268492914
20
-0.295494638790018
30
0
41
1
10
111.657112662184
20
-0.286903352981795
30
0
41
1
10
111.668508394247
20
-0.271314785226451
30
0
41
1
10
111.674104192637
20
-0.264247556112565
30
0
41
1
10
111.685107314091
20
-0.251236265263543
30
0
41
1
10
111.690514482275
20
-0.245294947061609
30
0
41
1
10
111.701148731409
20
-0.234334284899887
30
0
41
1
10
111.706387335056
20
-0.229307193062283
30
0
41
1
10
111.721663853128
20
-0.215553680080404
30
0
41
1
10
111.7313242859
20
-0.208070173737411
30
0
41
1
10
111.74976898592
20
-0.195512153512368
30
0
41
1
10
111.758551018026
20
-0.190450031713738
30
0
41
1
10
111.775326947446
20
-0.182241404621322
30
0
41
1
10
111.783320071701
20
-0.179099372696299
30
0
41
1
10
111.790945402295
20
-0.17676533892535
30
0
0
SPLINE
5
13D
100
AcDbEntity
8
1
62
256
6
ByLayer
370
18
48
1
60
0
100
AcDbSpline
70
4
71
3
72
16
73
12
40
0
40
0
40
0
40
0
40
0.249999999999972
40
0.249999999999972
40
0.499999999999945
40
0.499999999999945
40
0.624999999999958
40
0.624999999999958
40
0.749999999999972
40
0.749999999999972
40
1
40
1
40
1
40
1
41
1
10
104.135103148833
20
-3.84048664956507
30
0
41
1
10
104.219857537721
20
-3.90177462428235
30
0
41
1
10
104.30448380615
20
-3.96163445236561
30
0
41
1
10
104.474338124389
20
-4.07802330703038
30
0
41
1
10
104.559564005088
20
-4.13454429398359
30
0
41
1
10
104.688314478113
20
-4.21647452386983
30
0
41
1
10
104.731382365704
20
-4.24330881004809
30
0
41
1
10
104.817885612265
20
-4.29597088288492
30
0
41
1
10
104.861317308607
20
-4.32179601703734
30
0
41
1
10
104.991478278501
20
-4.39723217918851
30
0
41
1
10
105.078350270206
20
-4.44496177096832
30
0
41
1
10
105.165603351179
20
-4.49005456206567
30
0
0
SPLINE
5
13E
100
AcDbEntity
8
1
62
256
6
ByLayer
370
18
48
1
60
0
100
AcDbSpline
70
4
71
3
72
8
73
4
40
0
40
0
40
0
40
0
40
1
40
1
40
1
40
1
41
1
10
104.135103148833
20
-3.84048664956504
30
0
41
1
10
104.134068879697
20
-3.83970494396286
30
0
41
1
10
104.133034496838
20
-3.83892346175645
30
0
41
1
10
104.132
20
-3.83814220345599
30
0
0
SPLINE
5
13F
100
AcDbEntity
8
1
62
256
6
ByLayer
370
18
48
1
60
0
100
AcDbSpline
70
4
71
3
72
8
73
4
40
0
40
0
40
0
40
0
40
1
40
1
40
1
40
1
41
1
10
109.327706475688
20
2.99127703266711
30
0
41
1
10
109.239838172697
20
2.97977652789186
30
0
41
1
10
109.151704785212
20
2.97007322752162
30
0
41
1
10
109.063335426777
20
2.96196974925033
30
0
0
SPLINE
5
140
100
AcDbEntity
8
1
62
256
6
ByLayer
370
18
48
1
60
0
100
AcDbSpline
70
4
71
3
72
8
73
4
40
0
40
0
40
0
40
0
40
1
40
1
40
1
40
1
41
1
10
108.878565510318
20
3.29061825981867
30
0
41
1
10
109.023391613131
20
3.18381217118451
30
0
41
1
10
109.17255889491
20
3.08459907234501
30
0
41
1
10
109.327706475694
20
2.99127703267229
30
0
0
SPLINE
5
141
100
AcDbEntity
8
1
62
256
6
ByLayer
370
18
48
1
60
0
100
AcDbSpline
70
4
71
1
72
4
73
2
40
0
40
0
40
1
40
1
41
1
10
104.135204298978
20
-3.84027747133447
30
0
41
1
10
104.235244601081
20
-3.67397801418022
30
0
0
SPLINE
5
142
100
AcDbEntity
8
1
62
256
6
ByLayer
370
18
48
1
60
0
100
AcDbSpline
70
4
71
3
72
8
73
4
40
0
40
0
40
0
40
0
40
1
40
1
40
1
40
1
41
1
10
111.716499535255
20
-1.30089755610575
30
0
41
1
10
111.722048333252
20
-1.31144873609247
30
0
41
1
10
111.727589069014
20
-1.32199035041791
30
0
41
1
10
111.733121851376
20
-1.33252252821245
30
0
0
SPLINE
5
143
100
AcDbEntity
8
1
62
256
6
ByLayer
370
18
48
1
60
0
100
AcDbSpline
70
4
71
3
72
8
73
4
40
0
40
0
40
0
40
0
40
1
40
1
40
1
40
1
41
1
10
111.677273093351
20
-0.971115860647103
30
0
41
1
10
111.677579072676
20
-0.973905723891647
30
0
41
1
10
111.677859496202
20
-0.976656704998021
30
0
41
1
10
111.678113765622
20
-0.979367893666733
30
0
0
SPLINE
5
144
100
AcDbEntity
8
1
62
256
6
ByLayer
370
18
48
1
60
0
100
AcDbSpline
70
4
71
3
72
8
73
4
40
0
40
0
40
0
40
0
40
1
40
1
40
1
40
1
41
1
10
111.590973706937
20
-0.625722081379081
30
0
41
1
10
111.601951126614
20
-0.660260617963019
30
0
41
1
10
111.612207712487
20
-0.693736938246843
30
0
41
1
10
111.62161478275
20
-0.725961417505061
30
0
0
SPLINE
5
145
100
AcDbEntity
8
1
62
256
6
ByLayer
370
18
48
1
60
0
100
AcDbSpline
70
4
71
3
72
10
73
6
40
0
40
0
40
0
40
0
40
0.5
40
0.5
40
1
40
1
40
1
40
1
41
1
10
102.589759764107
20
-3.70455050026317
30
0
41
1
10
102.797534506558
20
-3.68924418323107
30
0
41
1
10
103.007675611662
20
-3.6779518654476
30
0
41
1
10
103.43216873107
20
-3.66384795238025
30
0
41
1
10
103.646513726125
20
-3.66104046269413
30
0
41
1
10
103.862534131887
20
-3.66281438103087
30
0
0
SPLINE
5
146
100
AcDbEntity
8
1
62
256
6
ByLayer
370
18
48
1
60
0
100
AcDbSpline
70
4
71
3
72
8
73
4
40
0
40
0
40
0
40
0
40
1
40
1
40
1
40
1
41
1
10
104.132
20
-3.83814220345528
30
0
41
1
10
104.041429743225
20
-3.77615225460474
30
0
41
1
10
103.951556530402
20
-3.71746666285358
30
0
41
1
10
103.862534131887
20
-3.66281438103084
30
0
0
SPLINE
5
147
100
AcDbEntity
8
1
62
256
6
ByLayer
370
18
48
1
60
0
100
AcDbSpline
70
4
71
3
72
8
73
4
40
0
40
0
40
0
40
0
40
1
40
1
40
1
40
1
41
1
10
104.132
20
3.78048624626999
30
0
41
1
10
103.971157873992
20
3.82707191968765
30
0
41
1
10
103.810529529525
20
3.87497899628505
30
0
41
1
10
103.650114797312
20
3.92420642967542
30
0
0
SPLINE
5
148
100
AcDbEntity
8
1
62
256
6
ByLayer
370
18
48
1
60
0
100
AcDbSpline
70
4
71
3
72
8
73
4
40
0
40
0
40
0
40
0
40
1
40
1
40
1
40
1
41
1
10
109.421967186637
20
-3.86967506255408
30
0
41
1
10
109.385185254495
20
-3.97234078426499
30
0
41
1
10
109.345376546176
20
-4.0750799560748
30
0
41
1
10
109.301765738966
20
-4.17791139500338
30
0
0
SPLINE
5
149
100
AcDbEntity
8
1
62
256
6
ByLayer
370
18
48
1
60
0
100
AcDbSpline
70
4
71
3
72
8
73
4
40
0
40
0
40
0
40
0
40
1
40
1
40
1
40
1
41
1
10
104.302650317341
20
-2.96139640816688
30
0
41
1
10
104.378438802852
20
-3.0471408887457
30
0
41
1
10
104.453092606339
20
-3.13340473985949
30
0
41
1
10
104.526626221198
20
-3.22018132754198
30
0
0
SPLINE
5
14A
100
AcDbEntity
8
1
62
256
6
ByLayer
370
18
48
1
60
0
100
AcDbSpline
70
4
71
3
72
24
73
20
40
0
40
0
40
0
40
0
40
0.250000000000135
40
0.250000000000135
40
0.500000000000271
40
0.500000000000271
40
0.625000000000279
40
0.625000000000279
40
0.687500000000232
40
0.687500000000232
40
0.750000000000186
40
0.750000000000186
40
0.812500000000139
40
0.812500000000139
40
0.875000000000093
40
0.875000000000093
40
0.937500000000047
40
0.937500000000047
40
1
40
1
40
1
40
1
41
1
10
109.3039336902
20
-3.72646542883214
30
0
41
1
10
109.320466793048
20
-3.73118480611214
30
0
41
1
10
109.336412115055
20
-3.73680088767728
30
0
41
1
10
109.366557585324
20
-3.75069544585082
30
0
41
1
10
109.38084650111
20
-3.75900315010316
30
0
41
1
10
109.399394027778
20
-3.7744923254707
30
0
41
1
10
109.405109361551
20
-3.7801727362648
30
0
41
1
10
109.412667861085
20
-3.78981681667563
30
0
41
1
10
109.415016542179
20
-3.79322067578465
30
0
41
1
10
109.419281214334
20
-3.80050755736818
30
0
41
1
10
109.421208828559
20
-3.80441951162618
30
0
41
1
10
109.424431472821
20
-3.81272048684622
30
0
41
1
10
109.425724801908
20
-3.81709148413762
30
0
41
1
10
109.427531283094
20
-3.82637448608273
30
0
41
1
10
109.428043455955
20
-3.83133975444113
30
0
41
1
10
109.428079656808
20
-3.84166056232778
30
0
41
1
10
109.427613199821
20
-3.84699639979826
30
0
41
1
10
109.425614700972
20
-3.85805386867631
30
0
41
1
10
109.42406319353
20
-3.86382465233095
30
0
41
1
10
109.421967176707
20
-3.86967506283452
30
0
0
SPLINE
5
14B
100
AcDbEntity
8
1
62
256
6
ByLayer
370
18
48
1
60
0
100
AcDbSpline
70
4
71
3
72
8
73
4
40
0
40
0
40
0
40
0
40
1
40
1
40
1
40
1
41
1
10
111.757410228904
20
-1.17814682735988
30
0
41
1
10
111.741872218118
20
-1.21465870726914
30
0
41
1
10
111.726075704088
20
-1.25096553752169
30
0
41
1
10
111.710025459899
20
-1.28707110421712
30
0
0
SPLINE
5
14C
100
AcDbEntity
8
1
62
256
6
ByLayer
370
18
48
1
60
0
100
AcDbSpline
70
4
71
3
72
8
73
4
40
0
40
0
40
0
40
0
40
1
40
1
40
1
40
1
41
1
10
111.452001161578
20
-1.81129680066093
30
0
41
1
10
111.427198841243
20
-1.85704183855953
30
0
41
1
10
111.401985119347
20
-1.90237610669575
30
0
41
1
10
111.376361394213
20
-1.94730100124625
30
0
0
SPLINE
5
14D
100
AcDbEntity
8
1
62
256
6
ByLayer
370
18
48
1
60
0
100
AcDbSpline
70
4
71
3
72
35
73
31
40
0
40
0
40
0
40
0
40
0.0624999999999983
40
0.0624999999999983
40
0.124999999999997
40
0.124999999999997
40
0.156249999999996
40
0.156249999999996
40
0.187499999999995
40
0.187499999999995
40
0.249999999999994
40
0.375000000000005
40
0.375000000000005
40
0.437500000000011
40
0.437500000000011
40
0.468750000000022
40
0.468750000000022
40
0.500000000000033
40
0.500000000000033
40
0.625000000000025
40
0.625000000000025
40
0.750000000000017
40
0.750000000000017
40
0.781250000000014
40
0.781250000000014
40
0.812500000000012
40
0.875000000000008
40
0.937500000000004
40
0.937500000000004
40
1
40
1
40
1
40
1
41
1
10
111.376361394214
20
-1.94730100124497
30
0
41
1
10
111.352500381314
20
-2.00486669388727
30
0
41
1
10
111.327038336765
20
-2.06245504277476
30
0
41
1
10
111.272957879071
20
-2.17767640640801
30
0
41
1
10
111.24434270057
20
-2.23530937538152
30
0
41
1
10
111.198943871526
20
-2.32179386765478
30
0
41
1
10
111.183376401361
20
-2.35066699080926
30
0
41
1
10
111.151494640764
20
-2.4082471191999
30
0
41
1
10
111.135227992114
20
-2.43687029215769
30
0
41
1
10
111.0854613996
20
-2.52224459766566
30
0
41
1
10
110.982073711533
20
-2.69101854545792
30
0
41
1
10
110.867073403597
20
-2.85384334412447
30
0
41
1
10
110.744191302742
20
-3.01263029758664
30
0
41
1
10
110.701923629949
20
-3.06488971961184
30
0
41
1
10
110.636478852277
20
-3.14223208550766
30
0
41
1
10
110.614311299174
20
-3.16784972393657
30
0
41
1
10
110.569316690174
20
-3.21867503220437
30
0
41
1
10
110.546617572383
20
-3.24373870675907
30
0
41
1
10
110.432124621298
20
-3.36733242098171
30
0
41
1
10
110.337345304759
20
-3.46069990329755
30
0
41
1
10
110.141657987996
20
-3.63683702550043
30
0
41
1
10
110.04072924192
20
-3.71957079124513
30
0
41
1
10
109.910667576248
20
-3.81624277275327
30
0
41
1
10
109.884413730247
20
-3.83526896292312
30
0
41
1
10
109.831905211182
20
-3.87235057496673
30
0
41
1
10
109.753036084059
20
-3.9265999383461
30
0
41
1
10
109.621063159271
20
-4.01024533405902
30
0
41
1
10
109.514939821073
20
-4.0701252336672
30
0
41
1
10
109.408551258208
20
-4.12658084535533
30
0
41
1
10
109.355225374909
20
-4.15310955327266
30
0
41
1
10
109.301765738983
20
-4.17791139500301
30
0
0
SPLINE
5
14E
100
AcDbEntity
8
1
62
256
6
ByLayer
370
18
48
1
60
0
100
AcDbSpline
70
4
71
3
72
59
73
55
40
0
40
0
40
0
40
0
40
0.03124999999996
40
0.0468749999999337
40
0.0468749999999337
40
0.0624999999999073
40
0.0624999999999073
40
0.124999999999827
40
0.124999999999827
40
0.187499999999747
40
0.187499999999747
40
0.203124999999733
40
0.203124999999733
40
0.21874999999972
40
0.21874999999972
40
0.249999999999706
40
0.249999999999706
40
0.312499999999678
40
0.312499999999678
40
0.328124999999675
40
0.335937499999673
40
0.335937499999673
40
0.339843749999672
40
0.339843749999672
40
0.341796874999672
40
0.341796874999672
40
0.343749999999671
40
0.374999999999677
40
0.374999999999677
40
0.437499999999689
40
0.437499999999689
40
0.453124999999689
40
0.453124999999689
40
0.468749999999689
40
0.468749999999689
40
0.499999999999701
40
0.499999999999701
40
0.624999999999788
40
0.624999999999788
40
0.687499999999831
40
0.687499999999831
40
0.703124999999842
40
0.703124999999842
40
0.718749999999853
40
0.749999999999874
40
0.812499999999906
40
0.812499999999906
40
0.874999999999937
40
0.874999999999937
40
0.937499999999969
40
0.937499999999969
40
0.968749999999984
40
0.968749999999984
40
1
40
1
40
1
40
1
41
1
10
109.301765738982
20
-4.1779113950011
30
0
41
1
10
109.250043275307
20
-4.20716291139328
30
0
41
1
10
109.171587895668
20
-4.24929757344302
30
0
41
1
10
109.091776820689
20
-4.28875248440403
30
0
41
1
10
109.038262958585
20
-4.31445325194079
30
0
41
1
10
109.011311430444
20
-4.32702031182896
30
0
41
1
10
108.87659341166
20
-4.38796769960484
30
0
41
1
10
108.76854625918
20
-4.43094233986326
30
0
41
1
10
108.551540103527
20
-4.50589824247388
30
0
41
1
10
108.442577267687
20
-4.53784363845739
30
0
41
1
10
108.305540385024
20
-4.57083575615448
30
0
41
1
10
108.278091372575
20
-4.57708697719625
30
0
41
1
10
108.223103714343
20
-4.58889359350951
30
0
41
1
10
108.195616950777
20
-4.59443701113284
30
0
41
1
10
108.113457821864
20
-4.60994680797594
30
0
41
1
10
108.058966741865
20
-4.61881999601201
30
0
41
1
10
107.896211529581
20
-4.64117867030035
30
0
41
1
10
107.788664555097
20
-4.65039355291108
30
0
41
1
10
107.655064845608
20
-4.65511996754907
30
0
41
1
10
107.615047635238
20
-4.65602951726808
30
0
41
1
10
107.575114463043
20
-4.65619152646931
30
0
41
1
10
107.555161043831
20
-4.65614950181026
30
0
41
1
10
107.548512291124
20
-4.65611333249666
30
0
41
1
10
107.538544280696
20
-4.65601136004355
30
0
41
1
10
107.535209469119
20
-4.65608411424009
30
0
41
1
10
107.52853826297
20
-4.65624408108818
30
0
41
1
10
107.471840789727
20
-4.6575362945207
30
0
41
1
10
107.415308274242
20
-4.65737153647217
30
0
41
1
10
107.256037504642
20
-4.6530950993666
30
0
41
1
10
107.150323076357
20
-4.64516983220162
30
0
41
1
10
107.018504910952
20
-4.62892582880542
30
0
41
1
10
106.992130394557
20
-4.62536361550417
30
0
41
1
10
106.939543121941
20
-4.6176456025305
30
0
41
1
10
106.913347958121
20
-4.61348867623079
30
0
41
1
10
106.835056060044
20
-4.6001046992678
30
0
41
1
10
106.78325124803
20
-4.58996839806855
30
0
41
1
10
106.525986335117
20
-4.53341002207122
30
0
41
1
10
106.325742587888
20
-4.46947896842153
30
0
41
1
10
106.031258211364
20
-4.34683439281454
30
0
41
1
10
105.934084591003
20
-4.30148453397615
30
0
41
1
10
105.813679580497
20
-4.23914069316902
30
0
41
1
10
105.789645801295
20
-4.22638440752212
30
0
41
1
10
105.741878508121
20
-4.20041439750023
30
0
41
1
10
105.670604177931
20
-4.16073419107982
30
0
41
1
10
105.506829205536
20
-4.06317967590419
30
0
41
1
10
105.370544055585
20
-3.97126316707695
30
0
41
1
10
105.192291751765
20
-3.8413394419922
30
0
41
1
10
105.10490923611
20
-3.7726739822144
30
0
41
1
10
104.933595899031
20
-3.62773239986726
30
0
41
1
10
104.849658317773
20
-3.55146653603936
30
0
41
1
10
104.726263945784
20
-3.43128714312451
30
0
41
1
10
104.685502862283
20
-3.39019861031119
30
0
41
1
10
104.605175990546
20
-3.30641944289826
30
0
41
1
10
104.565605153316
20
-3.26371140236907
30
0
41
1
10
104.526626221198
20
-3.22018132754198
30
0
0
SPLINE
5
14F
100
AcDbEntity
8
1
62
256
6
ByLayer
370
18
48
1
60
0
100
AcDbSpline
70
4
71
1
72
4
73
2
40
0
40
0
40
1
40
1
41
1
10
104.235244601081
20
-3.67397801418022
30
0
41
1
10
104.526626221198
20
-3.22018132754201
30
0
0
SPLINE
5
150
100
AcDbEntity
8
1
62
256
6
ByLayer
370
18
48
1
60
0
100
AcDbSpline
70
4
71
3
72
28
73
24
40
0
40
0
40
0
40
0
40
0.0408115182054415
40
0.0964064537272491
40
0.167150187345276
40
0.238592267368001
40
0.317225369333808
40
0.38157146112856
40
0.474492022865647
40
0.552916718515585
40
0.652333137673612
40
0.680659085251241
40
0.698433887114671
40
0.760595004033584
40
0.815476133332386
40
0.817006876419744
40
0.817759459592361
40
0.818622033650945
40
0.822056885291186
40
0.854483495873919
40
0.891063053423213
40
0.996740812399777
40
1
40
1
40
1
40
1
41
1
10
104.235244601081
20
-3.67397801418022
30
0
41
1
10
104.2910862494
20
-3.71432680882782
30
0
41
1
10
104.421973528077
20
-3.80832640320688
30
0
41
1
10
104.645736740546
20
-3.96435683661775
30
0
41
1
10
104.907898624304
20
-4.13630462899965
30
0
41
1
10
105.199051196052
20
-4.31072246790555
30
0
41
1
10
105.484664462118
20
-4.46062866972972
30
0
41
1
10
105.802527082439
20
-4.60243787539929
30
0
41
1
10
106.12371720325
20
-4.71829041706337
30
0
41
1
10
106.496571475021
20
-4.8175316594814
30
0
41
1
10
106.783214961585
20
-4.8654275216783
30
0
41
1
10
106.986241959416
20
-4.88463111450881
30
0
41
1
10
107.137548521778
20
-4.89496920037132
30
0
41
1
10
107.3262552725
20
-4.89925285455448
30
0
41
1
10
107.491638473069
20
-4.89190438138738
30
0
41
1
10
107.571178366306
20
-4.88579288854413
30
0
41
1
10
107.575569455989
20
-4.88544931208429
30
0
41
1
10
107.582872251753
20
-4.8848627237507
30
0
41
1
10
107.635814988862
20
-4.88046416023138
30
0
41
1
10
107.739893357499
20
-4.86973423235841
30
0
41
1
10
107.98948626785
20
-4.8341321991324
30
0
41
1
10
108.195618529575
20
-4.78780532936304
30
0
41
1
10
108.348373569467
20
-4.74404081145442
30
0
41
1
10
108.352942299533
20
-4.74272334311726
30
0
0
SPLINE
5
151
100
AcDbEntity
8
1
62
256
6
ByLayer
370
18
48
1
60
0
100
AcDbSpline
70
4
71
3
72
8
73
4
40
0
40
0
40
0
40
0
40
1
40
1
40
1
40
1
41
1
10
111.78112519086
20
-1.19195450327234
30
0
41
1
10
111.773213582989
20
-1.18734085061283
30
0
41
1
10
111.765309551812
20
-1.18273988836052
30
0
41
1
10
111.757410228904
20
-1.17814682735985
30
0
0
SPLINE
5
152
100
AcDbEntity
8
1
62
256
6
ByLayer
370
18
48
1
60
0
100
AcDbSpline
70
4
71
3
72
12
73
8
40
0
40
0
40
0
40
0
40
0.500000000000099
40
0.500000000000099
40
0.75000000000005
40
0.75000000000005
40
1
40
1
40
1
40
1
41
1
10
104.132
20
3.1518813637675
30
0
41
1
10
104.086747704787
20
3.12519136645835
30
0
41
1
10
104.041652469406
20
3.09727385850661
30
0
41
1
10
103.974267004137
20
3.05338596661633
30
0
41
1
10
103.951848160296
20
3.03842077281939
30
0
41
1
10
103.907101212276
20
3.00778120390595
30
0
41
1
10
103.884750152847
20
2.9920898210512
30
0
41
1
10
103.862536194173
20
2.97608641429872
30
0
0
SPLINE
5
153
100
AcDbEntity
8
1
62
256
6
ByLayer
370
18
48
1
60
0
100
AcDbSpline
70
4
71
3
72
10
73
6
40
0
40
0
40
0
40
0
40
0.5
40
0.5
40
1
40
1
40
1
40
1
41
1
10
102.589770801635
20
3.36559536842543
30
0
41
1
10
102.797544224691
20
3.2882111950135
30
0
41
1
10
103.007683914244
20
3.21742475809583
30
0
41
1
10
103.432174030508
20
3.08804423874724
30
0
41
1
10
103.646517438621
20
3.02943599351909
30
0
41
1
10
103.862536194173
20
2.97608641429875
30
0
0
SPLINE
5
154
100
AcDbEntity
8
1
62
256
6
ByLayer
370
18
48
1
60
0
100
AcDbSpline
70
4
71
3
72
8
73
4
40
0
40
0
40
0
40
0
40
1
40
1
40
1
40
1
41
1
10
104.302650317341
20
-2.96139640816685
30
0
41
1
10
104.245711330007
20
-2.96104450345052
30
0
41
1
10
104.188825691696
20
-2.96093344740206
30
0
41
1
10
104.132
20
-2.96105231178663
30
0
0
SPLINE
5
155
100
AcDbEntity
8
1
62
256
6
ByLayer
370
18
48
1
60
0
100
AcDbSpline
70
4
71
3
72
10
73
6
40
0
40
0
40
0
40
0
40
0.5
40
0.5
40
1
40
1
40
1
40
1
41
1
10
109.150923816155
20
-3.65328887356588
30
0
41
1
10
109.172728983081
20
-3.67054690443675
30
0
41
1
10
109.196981181877
20
-3.68471441429432
30
0
41
1
10
109.248464197391
20
-3.70865676557
30
0
41
1
10
109.275691699889
20
-3.71840377140944
30
0
41
1
10
109.303933690919
20
-3.72646542904553
30
0
0
SPLINE
5
156
100
AcDbEntity
8
1
62
256
6
ByLayer
370
18
48
1
60
0
100
AcDbSpline
70
4
71
3
72
10
73
6
40
0
40
0
40
0
40
0
40
0.5
40
0.5
40
1
40
1
40
1
40
1
41
1
10
109.291142785519
20
-2.99641936030193
30
0
41
1
10
109.258802618776
20
-3.10810667835099
30
0
41
1
10
109.230249845745
20
-3.21910103477643
30
0
41
1
10
109.182734770989
20
-3.43865480486093
30
0
41
1
10
109.163823077423
20
-3.54694823379884
30
0
41
1
10
109.150923815742
20
-3.6532888736549
30
0
0
SPLINE
5
157
100
AcDbEntity
8
1
62
256
6
ByLayer
370
18
48
1
60
0
100
AcDbSpline
70
4
71
3
72
12
73
8
40
0
40
0
40
0
40
0
40
0.0202082796818275
40
0.216166623745462
40
0.412124967809097
40
0.608083311872731
40
1
40
1
40
1
40
1
41
1
10
109.150923816179
20
-3.65328887360954
30
0
41
1
10
109.117115877453
20
-3.64946492281689
30
0
41
1
10
108.755474605393
20
-3.60766977970746
30
0
41
1
10
108.066
20
-3.50987817010744
30
0
41
1
10
107.0825
20
-3.32542016188179
30
0
41
1
10
105.771166666667
20
-3.0226410041933
30
0
41
1
10
104.787666666667
20
-2.7355969302258
30
0
41
1
10
104.132
20
-2.52104117520042
30
0
0
SPLINE
5
158
100
AcDbEntity
8
1
62
256
6
ByLayer
370
18
48
1
60
0
100
AcDbSpline
70
4
71
3
72
10
73
6
40
0
40
0
40
0
40
0
40
0.0824565097662077
40
0.882031800956115
40
1
40
1
40
1
40
1
41
1
10
109.150923816179
20
2.67374669390037
30
0
41
1
10
109.117115877453
20
2.68418032163137
30
0
41
1
10
108.755474605393
20
2.79513860756424
30
0
41
1
10
108.345465270506
20
2.91296663123481
30
0
41
1
10
107.969263874344
20
3.01266247782087
30
0
41
1
10
107.920895811516
20
3.02533946242181
30
0
0
SPLINE
5
159
100
AcDbEntity
8
1
62
256
6
ByLayer
370
18
48
1
60
0
100
AcDbSpline
70
4
71
3
72
18
73
14
40
0
40
0
40
0
40
0
40
0.250000000000001
40
0.250000000000001
40
0.375
40
0.375
40
0.499999999999999
40
0.499999999999999
40
0.624999999999998
40
0.624999999999998
40
0.749999999999997
40
0.749999999999997
40
1
40
1
40
1
40
1
41
1
10
109.255564020017
20
-2.86532231011037
30
0
41
1
10
109.26310023093
20
-2.8726234112743
30
0
41
1
10
109.269958533531
20
-2.88058152756909
30
0
41
1
10
109.278893859271
20
-2.89382915782855
30
0
41
1
10
109.281645208297
20
-2.89846512847822
30
0
41
1
10
109.286603419802
20
-2.90826477529944
30
0
41
1
10
109.288818958013
20
-2.91345458815994
30
0
41
1
10
109.292526993558
20
-2.92433629812052
30
0
41
1
10
109.294021493437
20
-2.93002041206239
30
0
41
1
10
109.296161005189
20
-2.94196342516139
30
0
41
1
10
109.296806404116
20
-2.9482710876872
30
0
41
1
10
109.297187063977
20
-2.96785902642136
30
0
41
1
10
109.29541247442
20
-2.98167399964876
30
0
41
1
10
109.291142784129
20
-2.9964193604267
30
0
0
SPLINE
5
15A
100
AcDbEntity
8
1
62
256
6
ByLayer
370
18
48
1
60
0
100
AcDbSpline
70
4
71
3
72
8
73
4
40
0
40
0
40
0
40
0
40
1
40
1
40
1
40
1
41
1
10
109.206520130868
20
0.319591264403726
30
0
41
1
10
109.27556312851
20
0.297992393232164
30
0
41
1
10
109.346478932554
20
0.276614484649798
30
0
41
1
10
109.419385796665
20
0.255471490785311
30
0
0
SPLINE
5
15B
100
AcDbEntity
8
1
62
256
6
ByLayer
370
18
48
1
60
0
100
AcDbSpline
70
4
71
3
72
8
73
4
40
0
40
0
40
0
40
0
40
1
40
1
40
1
40
1
41
1
10
111.111493992297
20
-0.528191682001079
30
0
41
1
10
111.085727670421
20
-0.469682707308777
30
0
41
1
10
111.059840683403
20
-0.411007435105404
30
0
41
1
10
111.0338231076
20
-0.352152188887686
30
0
0
SPLINE
5
15C
100
AcDbEntity
8
1
62
256
6
ByLayer
370
18
48
1
60
0
100
AcDbSpline
70
4
71
3
72
10
73
6
40
0
40
0
40
0
40
0
40
0.5
40
0.5
40
1
40
1
40
1
40
1
41
1
10
109.063335426777
20
2.96196974925036
30
0
41
1
10
109.097366090789
20
2.92733438494321
30
0
41
1
10
109.130535485477
20
2.89318745177843
30
0
41
1
10
109.194768996276
20
2.82608750190121
30
0
41
1
10
109.225836928021
20
2.79313232131992
30
0
41
1
10
109.255564012076
20
2.76093754372792
30
0
0
SPLINE
5
15D
100
AcDbEntity
8
1
62
256
6
ByLayer
370
18
48
1
60
0
100
AcDbSpline
70
4
71
3
72
18
73
14
40
0
40
0
40
0
40
0
40
0.25
40
0.25
40
0.375000000000002
40
0.375000000000002
40
0.500000000000003
40
0.500000000000003
40
0.625000000000005
40
0.625000000000005
40
0.750000000000006
40
0.750000000000006
40
1
40
1
40
1
40
1
41
1
10
109.255564020017
20
2.76093753532447
30
0
41
1
10
109.26310023093
20
2.75277573670232
30
0
41
1
10
109.269958533531
20
2.74505190726936
30
0
41
1
10
109.278893859271
20
2.73433971889426
30
0
41
1
10
109.281645208297
20
2.7309157050108
30
0
41
1
10
109.286603419802
20
2.72441944811183
30
0
41
1
10
109.288818958013
20
2.72133381128327
30
0
41
1
10
109.292526993559
20
2.7156744593604
30
0
41
1
10
109.294021493437
20
2.71310076775555
30
0
41
1
10
109.296161005189
20
2.70855823800147
30
0
41
1
10
109.296806404116
20
2.70657807068423
30
0
41
1
10
109.297187063977
20
2.70183252702589
30
0
41
1
10
109.29541247442
20
2.70025197751013
30
0
41
1
10
109.29114278413
20
2.70061886524192
30
0
0
SPLINE
5
15E
100
AcDbEntity
8
1
62
256
6
ByLayer
370
18
48
1
60
0
100
AcDbSpline
70
4
71
3
72
10
73
6
40
0
40
0
40
0
40
0
40
0.5
40
0.5
40
1
40
1
40
1
40
1
41
1
10
109.291142785519
20
2.70061886460121
30
0
41
1
10
109.258802618776
20
2.70339765446181
30
0
41
1
10
109.230249845744
20
2.70305818689573
30
0
41
1
10
109.182734770989
20
2.69463654259599
30
0
41
1
10
109.163823077423
20
2.68657058140653
30
0
41
1
10
109.150923815742
20
2.67374669402062
30
0
0
SPLINE
5
15F
100
AcDbEntity
8
1
62
256
6
ByLayer
370
18
48
1
60
0
100
AcDbSpline
70
4
71
3
72
10
73
6
40
0
40
0
40
0
40
0
40
0.5
40
0.5
40
1
40
1
40
1
40
1
41
1
10
109.150923816155
20
2.67374669381803
30
0
41
1
10
109.172728983081
20
2.65100331235718
30
0
41
1
10
109.196981181878
20
2.62684109158042
30
0
41
1
10
109.248464197391
20
2.576931804818
30
0
41
1
10
109.275691699888
20
2.55119388010525
30
0
41
1
10
109.303933690919
20
2.52495884142169
30
0
0
SPLINE
5
160
100
AcDbEntity
8
1
62
256
6
ByLayer
370
18
48
1
60
0
100
AcDbSpline
70
4
71
3
72
24
73
20
40
0
40
0
40
0
40
0
40
0.249999999999997
40
0.249999999999997
40
0.499999999999994
40
0.499999999999994
40
0.624999999999992
40
0.624999999999992
40
0.687499999999993
40
0.687499999999993
40
0.749999999999995
40
0.749999999999995
40
0.812499999999996
40
0.812499999999996
40
0.874999999999997
40
0.874999999999997
40
0.937499999999999
40
0.937499999999999
40
1
40
1
40
1
40
1
41
1
10
109.303933690199
20
2.52495884210057
30
0
41
1
10
109.320466793048
20
2.50960062314252
30
0
41
1
10
109.336412115055
20
2.49454840928169
30
0
41
1
10
109.366557585324
20
2.46535253801585
30
0
41
1
10
109.380846501109
20
2.45112554429545
30
0
41
1
10
109.399394027777
20
2.43159746509954
30
0
41
1
10
109.40510936155
20
2.42537536877171
30
0
41
1
10
109.412667861084
20
2.41666603542558
30
0
41
1
10
109.415016542178
20
2.4138679598166
30
0
41
1
10
109.419281214333
20
2.40853786731665
30
0
41
1
10
109.421208828558
20
2.4059892781313
30
0
41
1
10
109.424431472821
20
2.40133145526937
30
0
41
1
10
109.425724801907
20
2.3992277559405
30
0
41
1
10
109.427531283094
20
2.39557290175409
30
0
41
1
10
109.428043455955
20
2.39401058431895
30
0
41
1
10
109.428079656809
20
2.39165228438728
30
0
41
1
10
109.427613199821
20
2.3908525175795
30
0
41
1
10
109.425614700972
20
2.39008728128769
30
0
41
1
10
109.42406319353
20
2.39012755910545
30
0
41
1
10
109.421967176707
20
2.39062065446962
30
0
0
SPLINE
5
161
100
AcDbEntity
8
1
62
256
6
ByLayer
370
18
48
1
60
0
100
AcDbSpline
70
4
71
3
72
16
73
12
40
0
40
0
40
0
40
0
40
0.250000000000009
40
0.250000000000009
40
0.500000000000017
40
0.500000000000017
40
0.625000000000004
40
0.625000000000004
40
0.749999999999991
40
0.749999999999991
40
1
40
1
40
1
40
1
41
1
10
109.628683493337
20
2.54907360242027
30
0
41
1
10
109.745587710197
20
2.45214924967777
30
0
41
1
10
109.86411187936
20
2.35532970120769
30
0
41
1
10
110.104183868297
20
2.16188622206553
30
0
41
1
10
110.225731933355
20
2.0652623072624
30
0
41
1
10
110.410199007058
20
1.92046520621821
30
0
41
1
10
110.472045910491
20
1.87222265916552
30
0
41
1
10
110.596439366237
20
1.77578282947411
30
0
41
1
10
110.659081436037
20
1.72751522577622
30
0
41
1
10
110.8467496136
20
1.58373031589741
30
0
41
1
10
110.971834856357
20
1.48897696011383
30
0
41
1
10
111.096898740756
20
1.39510037018454
30
0
0
SPLINE
5
162
100
AcDbEntity
8
1
62
256
6
ByLayer
370
18
48
1
60
0
100
AcDbSpline
70
4
71
3
72
8
73
4
40
0
40
0
40
0
40
0
40
1
40
1
40
1
40
1
41
1
10
104.132
20
-2.96105231178663
30
0
41
1
10
103.971176437834
20
-2.9643875818073
30
0
41
1
10
103.810563247438
20
-2.9702580276894
30
0
41
1
10
103.650160288555
20
-2.978661959221
30
0
0
SPLINE
5
163
100
AcDbEntity
8
1
62
256
6
ByLayer
370
18
48
1
60
0
100
AcDbSpline
70
4
71
3
72
12
73
8
40
0
40
0
40
0
40
0
40
0.0252030394684112
40
0.220162431574729
40
0.415121823681047
40
0.610081215787365
40
1
40
1
40
1
40
1
41
1
10
109.176640267772
20
-0.960345652331199
30
0
41
1
10
109.134260178515
20
-0.94241167990873
30
0
41
1
10
108.764046755924
20
-0.785444846574762
30
0
41
1
10
108.066
20
-0.484752401135609
30
0
41
1
10
107.0825
20
-0.0548868020314046
30
0
41
1
10
105.771166666667
20
0.519046008814115
30
0
41
1
10
104.787666666667
20
0.942246188493186
30
0
41
1
10
104.132
20
1.21478301663129
30
0
0
SPLINE
5
164
100
AcDbEntity
8
1
62
256
6
ByLayer
370
18
48
1
60
0
100
AcDbSpline
70
4
71
3
72
8
73
4
40
0
40
0
40
0
40
0
40
1
40
1
40
1
40
1
41
1
10
109.421967186663
20
2.39062064886207
30
0
41
1
10
109.385175840315
20
2.39927597777032
30
0
41
1
10
109.345356177281
20
2.41053295039239
30
0
41
1
10
109.301732252117
20
2.4250581918499
30
0
0
SPLINE
5
165
100
AcDbEntity
8
1
62
256
6
ByLayer
370
18
48
1
60
0
100
AcDbSpline
70
4
71
3
72
8
73
4
40
0
40
0
40
0
40
0
40
1
40
1
40
1
40
1
41
1
10
104.302638018731
20
3.72838614117526
30
0
41
1
10
104.245703138068
20
3.74549710744978
30
0
41
1
10
104.188821599819
20
3.76286026504249
30
0
41
1
10
104.132
20
3.78048624626999
30
0
0
SPLINE
5
166
100
AcDbEntity
8
1
62
256
6
ByLayer
370
18
48
1
60
0
100
AcDbSpline
70
4
71
3
72
8
73
4
40
0
40
0
40
0
40
0
40
1
40
1
40
1
40
1
41
1
10
104.302638018731
20
3.72838614117526
30
0
41
1
10
104.378431906706
20
3.75058791515869
30
0
41
1
10
104.453085724859
20
3.77171003176812
30
0
41
1
10
104.526614498484
20
3.79176672010539
30
0
0
SPLINE
5
167
100
AcDbEntity
8
1
62
256
6
ByLayer
370
18
48
1
60
0
100
AcDbSpline
70
4
71
3
72
22
73
18
40
0
40
0
40
0
40
0
40
0.249999999999999
40
0.249999999999999
40
0.374999999999998
40
0.374999999999998
40
0.499999999999998
40
0.499999999999998
40
0.624999999999997
40
0.624999999999997
40
0.687499999999997
40
0.687499999999997
40
0.749999999999997
40
0.749999999999997
40
0.874999999999998
40
0.874999999999998
40
1
40
1
40
1
40
1
41
1
10
109.327655299754
20
-0.188056606192703
30
0
41
1
10
109.337249154224
20
-0.205824139714906
30
0
41
1
10
109.346036713523
20
-0.22389748308774
30
0
41
1
10
109.357543995214
20
-0.25164243085905
30
0
41
1
10
109.361098150405
20
-0.260997553444952
30
0
41
1
10
109.367509042237
20
-0.279972313975065
30
0
41
1
10
109.370380377989
20
-0.289652239821038
30
0
41
1
10
109.375135719761
20
-0.308992629040318
30
0
41
1
10
109.377025330811
20
-0.3186480346736
30
0
41
1
10
109.378963580674
20
-0.333103987870373
30
0
41
1
10
109.379459649409
20
-0.337918093260356
30
0
41
1
10
109.380113594222
20
-0.347536056273896
30
0
41
1
10
109.380269385643
20
-0.352345237582881
30
0
41
1
10
109.380171183218
20
-0.366479062283048
30
0
41
1
10
109.379362673987
20
-0.375599565164094
30
0
41
1
10
109.376068392584
20
-0.393158761792705
30
0
41
1
10
109.373558795194
20
-0.401599695131466
30
0
41
1
10
109.370232065521
20
-0.409376932858407
30
0
0
SPLINE
5
168
100
AcDbEntity
8
1
62
256
6
ByLayer
370
18
48
1
60
0
100
AcDbSpline
70
4
71
3
72
10
73
6
40
0
40
0
40
0
40
0
40
0.5
40
0.5
40
1
40
1
40
1
40
1
41
1
10
109.370232067538
20
-0.409376933850979
30
0
41
1
10
109.332637237937
20
-0.497267633457881
30
0
41
1
10
109.297294063264
20
-0.586954594833145
30
0
41
1
10
109.232290285475
20
-0.770485224195227
30
0
41
1
10
109.202663411836
20
-0.864216341691332
30
0
41
1
10
109.176640267771
20
-0.960345652330375
30
0
0
SPLINE
5
169
100
AcDbEntity
8
1
62
256
6
ByLayer
370
18
48
1
60
0
100
AcDbSpline
70
4
71
3
72
10
73
6
40
0
40
0
40
0
40
0
40
0.5
40
0.5
40
1
40
1
40
1
40
1
41
1
10
109.176640268246
20
-0.960345652590775
30
0
41
1
10
109.195728309009
20
-0.991876878035185
30
0
41
1
10
109.216144170934
20
-1.02238933304506
30
0
41
1
10
109.258801425918
20
-1.08165162268423
30
0
41
1
10
109.281031015058
20
-1.11037632973526
30
0
41
1
10
109.303933690781
20
-1.13833329380043
30
0
0
SPLINE
5
16A
100
AcDbEntity
8
1
62
256
6
ByLayer
370
18
48
1
60
0
100
AcDbSpline
70
4
71
3
72
24
73
20
40
0
40
0
40
0
40
0
40
0.249999999999998
40
0.249999999999998
40
0.499999999999995
40
0.499999999999995
40
0.624999999999995
40
0.624999999999995
40
0.687499999999996
40
0.687499999999996
40
0.749999999999997
40
0.749999999999997
40
0.812499999999997
40
0.812499999999997
40
0.874999999999998
40
0.874999999999998
40
0.937499999999999
40
0.937499999999999
40
1
40
1
40
1
40
1
41
1
10
109.303933690199
20
-1.13833329307286
30
0
41
1
10
109.320466792994
20
-1.15851502991202
30
0
41
1
10
109.336412115511
20
-1.17927525803663
30
0
41
1
10
109.366557585652
20
-1.22251330283615
30
0
41
1
10
109.380846501372
20
-1.24510421226262
30
0
41
1
10
109.399394027949
20
-1.2801568300379
30
0
41
1
10
109.405109361694
20
-1.29206298242255
30
0
41
1
10
109.412667861187
20
-1.31040418216119
30
0
41
1
10
109.415016542268
20
-1.31659906831075
30
0
41
1
10
109.419281214399
20
-1.32919440382912
30
0
41
1
10
109.421208828613
20
-1.33564022580956
30
0
41
1
10
109.424431472853
20
-1.34856034120662
30
0
41
1
10
109.42572480193
20
-1.35501120604042
30
0
41
1
10
109.427531283102
20
-1.36789038156232
30
0
41
1
10
109.428043455957
20
-1.37438268450268
30
0
41
1
10
109.428079656806
20
-1.38697962975172
30
0
41
1
10
109.427613199819
20
-1.39306859339223
30
0
41
1
10
109.425614700978
20
-1.40478579177452
30
0
41
1
10
109.424063193523
20
-1.41045687173991
30
0
41
1
10
109.421967176707
20
-1.41574945279072
30
0
0
SPLINE
5
16B
100
AcDbEntity
8
1
62
256
6
ByLayer
370
18
48
1
60
0
100
AcDbSpline
70
4
71
3
72
16
73
12
40
0
40
0
40
0
40
0
40
0.250000000000007
40
0.250000000000007
40
0.500000000000015
40
0.500000000000015
40
0.625000000000018
40
0.625000000000018
40
0.750000000000022
40
0.750000000000022
40
1
40
1
40
1
40
1
41
1
10
109.419385796665
20
0.255471490785425
30
0
41
1
10
109.552256439238
20
0.154731915810487
30
0
41
1
10
109.687670047952
20
0.0636284536054461
30
0
41
1
10
109.963209879766
20
-0.100720866287446
30
0
41
1
10
110.103336593705
20
-0.173964864028449
30
0
41
1
10
110.316857428212
20
-0.27120953111725
30
0
41
1
10
110.388586905385
20
-0.301518067173305
30
0
41
1
10
110.533132072301
20
-0.358019132143852
30
0
41
1
10
110.605474663652
20
-0.384011660071423
30
0
41
1
10
110.822370559111
20
-0.45565398725492
30
0
41
1
10
110.966942136443
20
-0.495110906729877
30
0
41
1
10
111.111493992297
20
-0.528191682001108
30
0
0
SPLINE
5
16C
100
AcDbEntity
8
1
62
256
6
ByLayer
370
18
48
1
60
0
100
AcDbSpline
70
4
71
3
72
12
73
8
40
0
40
0
40
0
40
0
40
0.500000000000002
40
0.500000000000002
40
0.750000000000001
40
0.750000000000001
40
1
40
1
40
1
40
1
41
1
10
104.132
20
-0.615723798566563
30
0
41
1
10
104.086600649308
20
-0.612627674404564
30
0
41
1
10
104.041380736815
20
-0.611648832984741
30
0
41
1
10
103.973844611659
20
-0.6136466010405
30
0
41
1
10
103.951381619378
20
-0.614891283021649
30
0
41
1
10
103.90655915798
20
-0.61860216956498
30
0
41
1
10
103.884187138497
20
-0.621071417194401
30
0
41
1
10
103.861965872154
20
-0.624173919481706
30
0
0
SPLINE
5
16D
100
AcDbEntity
8
1
62
256
6
ByLayer
370
18
48
1
60
0
100
AcDbSpline
70
4
71
3
72
10
73
6
40
0
40
0
40
0
40
0
40
0.5
40
0.5
40
1
40
1
40
1
40
1
41
1
10
102.560058421151
20
-0.289101125460036
30
0
41
1
10
102.772503024809
20
-0.349367706388932
30
0
41
1
10
102.987459943623
20
-0.406735181797757
30
0
41
1
10
103.421714478706
20
-0.517619437014446
30
0
41
1
10
103.641003553604
20
-0.571159029096975
30
0
41
1
10
103.861965872154
20
-0.624173919481677
30
0
0
SPLINE
5
16E
100
AcDbEntity
8
1
62
256
6
ByLayer
370
18
48
1
60
0
100
AcDbSpline
70
4
71
3
72
20
73
16
40
0
40
0
40
0
40
0
40
0.125000000000021
40
0.125000000000021
40
0.250000000000042
40
0.250000000000042
40
0.500000000000028
40
0.500000000000028
40
0.625000000000021
40
0.625000000000021
40
0.750000000000014
40
0.750000000000014
40
0.875000000000007
40
0.875000000000007
40
1
40
1
40
1
40
1
41
1
10
103.650114797312
20
3.92420642967551
30
0
41
1
10
103.613329758006
20
3.91637368581692
30
0
41
1
10
103.577081235785
20
3.90804137131434
30
0
41
1
10
103.506070059087
20
3.89028497819001
30
0
41
1
10
103.471304223486
20
3.88086211200817
30
0
41
1
10
103.369508354283
20
3.85069501798671
30
0
41
1
10
103.304836125512
20
3.82802788393789
30
0
41
1
10
103.215321850118
20
3.7891291082272
30
0
41
1
10
103.186767074751
20
3.77535543059599
30
0
41
1
10
103.132764561738
20
3.74597221717812
30
0
41
1
10
103.107312815132
20
3.73035660681089
30
0
41
1
10
103.060324643342
20
3.69714971863709
30
0
41
1
10
103.038723049278
20
3.67950153392874
30
0
41
1
10
103.00042768419
20
3.6422344067619
30
0
41
1
10
102.983669542006
20
3.62258083767569
30
0
41
1
10
102.969675715538
20
3.60174046076693
30
0
0
SPLINE
5
16F
100
AcDbEntity
8
1
62
256
6
ByLayer
370
18
48
1
60
0
100
AcDbSpline
70
4
71
3
72
36
73
32
40
0
40
0
40
0
40
0
40
0.25
40
0.25
40
0.375
40
0.375
40
0.5
40
0.5
40
0.5625
40
0.5625
40
0.625000000000001
40
0.625000000000001
40
0.687500000000001
40
0.687500000000001
40
0.718750000000001
40
0.718750000000001
40
0.750000000000002
40
0.750000000000002
40
0.765625000000002
40
0.765625000000002
40
0.781250000000002
40
0.781250000000002
40
0.812500000000002
40
0.812500000000002
40
0.843750000000001
40
0.843750000000001
40
0.875000000000001
40
0.875000000000001
40
0.937500000000001
40
0.937500000000001
40
1
40
1
40
1
40
1
41
1
10
100.790937970092
20
-4.08246524131059
30
0
41
1
10
100.758696266027
20
-4.08074693860536
30
0
41
1
10
100.726997713519
20
-4.07881436449739
30
0
41
1
10
100.680958793792
20
-4.07544855824858
30
0
41
1
10
100.665867552122
20
-4.0742480603248
30
0
41
1
10
100.636479359581
20
-4.07163326918896
30
0
41
1
10
100.622164827411
20
-4.07022220931014
30
0
41
1
10
100.601790224379
20
-4.06784872944618
30
0
41
1
10
100.595184090997
20
-4.06701426936755
30
0
41
1
10
100.58257011497
20
-4.06521622247368
30
0
41
1
10
100.576579211756
20
-4.06425653852355
30
0
41
1
10
100.566030804937
20
-4.06217842748163
30
0
41
1
10
100.561372426642
20
-4.06105054988674
30
0
41
1
10
100.557021160886
20
-4.05919105331731
30
0
41
1
10
100.556025279788
20
-4.05853675336971
30
0
41
1
10
100.55558489538
20
-4.05720701087907
30
0
41
1
10
100.556172048479
20
-4.05652007985114
30
0
41
1
10
100.558544567426
20
-4.0555485032362
30
0
41
1
10
100.559593251466
20
-4.05522976434347
30
0
41
1
10
100.56208407591
20
-4.05463441919099
30
0
41
1
10
100.563531707263
20
-4.05435410401631
30
0
41
1
10
100.568413401727
20
-4.05356047338671
30
0
41
1
10
100.572236171524
20
-4.05311651751401
30
0
41
1
10
100.580484489306
20
-4.05235179110892
30
0
41
1
10
100.584912968002
20
-4.05203186598075
30
0
41
1
10
100.593911267974
20
-4.0514890767756
30
0
41
1
10
100.598526556303
20
-4.05126294719167
30
0
41
1
10
100.612609727742
20
-4.05067847639702
30
0
41
1
10
100.622266698295
20
-4.0504145897373
30
0
41
1
10
100.641581078486
20
-4.05003298566413
30
0
41
1
10
100.651300812063
20
-4.04991552020724
30
0
41
1
10
100.661060740987
20
-4.04984570366773
30
0
0
SPLINE
5
170
100
AcDbEntity
8
1
62
256
6
ByLayer
370
18
48
1
60
0
100
AcDbSpline
70
4
71
3
72
16
73
12
40
0
40
0
40
0
40
0
40
0.250000000000107
40
0.250000000000107
40
0.500000000000214
40
0.500000000000214
40
0.625000000000061
40
0.625000000000061
40
0.749999999999908
40
0.749999999999908
40
1
40
1
40
1
40
1
41
1
10
100.661060740987
20
-4.0498457036677
30
0
41
1
10
100.677553157461
20
-4.04972772704562
30
0
41
1
10
100.693984291734
20
-4.04954677435865
30
0
41
1
10
100.726679726133
20
-4.04901064545223
30
0
41
1
10
100.74294492322
20
-4.04865656367059
30
0
41
1
10
100.767160226917
20
-4.0479299033349
30
0
41
1
10
100.775201264552
20
-4.04765471890275
30
0
41
1
10
100.791205456534
20
-4.04701930953235
30
0
41
1
10
100.799181984463
20
-4.04665821130351
30
0
41
1
10
100.822645466578
20
-4.0454220768637
30
0
41
1
10
100.837778072902
20
-4.04440270958304
30
0
41
1
10
100.851992612389
20
-4.04301036474158
30
0
0
SPLINE
5
171
100
AcDbEntity
8
1
62
256
6
ByLayer
370
18
48
1
60
0
100
AcDbSpline
70
4
71
3
72
14
73
10
40
0
40
0
40
0
40
0
40
0.25
40
0.25
40
0.5
40
0.5
40
0.75
40
0.75
40
1
40
1
40
1
40
1
41
1
10
100.851992612389
20
-4.04301036474158
30
0
41
1
10
100.758907788026
20
-4.03065930527484
30
0
41
1
10
100.668573934836
20
-4.01581123508439
30
0
41
1
10
100.494017374762
20
-3.98019965464405
30
0
41
1
10
100.409793546207
20
-3.95943890074636
30
0
41
1
10
100.248170542402
20
-3.91083071278095
30
0
41
1
10
100.170769368968
20
-3.88298779665163
30
0
41
1
10
100.02365563831
20
-3.81868526847561
30
0
41
1
10
99.9539392982733
20
-3.78223365907223
30
0
41
1
10
99.8886156613819
20
-3.74043952628597
30
0
0
SPLINE
5
172
100
AcDbEntity
8
1
62
256
6
ByLayer
370
18
48
1
60
0
100
AcDbSpline
70
4
71
3
72
30
73
26
40
0
40
0
40
0
40
0
40
0.124999999999998
40
0.124999999999998
40
0.187499999999997
40
0.187499999999997
40
0.249999999999997
40
0.249999999999997
40
0.312499999999997
40
0.312499999999997
40
0.374999999999997
40
0.374999999999997
40
0.437499999999997
40
0.437499999999997
40
0.499999999999997
40
0.499999999999997
40
0.562499999999996
40
0.562499999999996
40
0.624999999999996
40
0.624999999999996
40
0.749999999999998
40
0.749999999999998
40
0.874999999999999
40
0.874999999999999
40
1
40
1
40
1
40
1
41
1
10
99.8886156613819
20
-3.74043952628594
30
0
41
1
10
99.8829770541389
20
-3.73683193933795
30
0
41
1
10
99.8778798331681
20
-3.7330934062669
30
0
41
1
10
99.871439158698
20
-3.7272035167307
30
0
41
1
10
99.8694953016324
20
-3.72519273662601
30
0
41
1
10
99.8661281514159
20
-3.72105141939551
30
0
41
1
10
99.8647085019605
20
-3.71891871011812
30
0
41
1
10
99.862602598998
20
-3.71461345412447
30
0
41
1
10
99.8619048405267
20
-3.71242945856511
30
0
41
1
10
99.861396479026
20
-3.70798615142357
30
0
41
1
10
99.8615995569231
20
-3.70572683845401
30
0
41
1
10
99.8630350099986
20
-3.70130852356084
30
0
41
1
10
99.8642626270986
20
-3.69912739982686
30
0
41
1
10
99.8678330600376
20
-3.69483493709879
30
0
41
1
10
99.8701115751751
20
-3.69280011090288
30
0
41
1
10
99.8755516304684
20
-3.68893299336207
30
0
41
1
10
99.878749243548
20
-3.68708502532263
30
0
41
1
10
99.8857374298318
20
-3.68367101209171
30
0
41
1
10
99.88951931602
20
-3.68210060778353
30
0
41
1
10
99.9015486792844
20
-3.67771680146632
30
0
41
1
10
99.9105327202259
20
-3.67522015742819
30
0
41
1
10
99.9290096032638
20
-3.67097426036085
30
0
41
1
10
99.938595653787
20
-3.66919314028985
30
0
41
1
10
99.9582329230647
20
-3.66609351063667
30
0
41
1
10
99.9683026020543
20
-3.66477689827883
30
0
41
1
10
99.9784615804083
20
-3.663642838296
30
0
0
SPLINE
5
173
100
AcDbEntity
8
1
62
256
6
ByLayer
370
18
48
1
60
0
100
AcDbSpline
70
4
71
3
72
24
73
20
40
0
40
0
40
0
40
0
40
0.062499999999998
40
0.062499999999998
40
0.124999999999996
40
0.124999999999996
40
0.187499999999994
40
0.187499999999994
40
0.249999999999992
40
0.249999999999992
40
0.374999999999988
40
0.374999999999988
40
0.499999999999984
40
0.499999999999984
40
0.62499999999998
40
0.62499999999998
40
0.749999999999976
40
0.749999999999976
40
1
40
1
40
1
40
1
41
1
10
99.9784615804084
20
-3.66364283829594
30
0
41
1
10
100.031872205272
20
-3.65768054069031
30
0
41
1
10
100.085608281438
20
-3.65271363643103
30
0
41
1
10
100.19354249445
20
-3.64424432154738
30
0
41
1
10
100.24774274355
20
-3.64074744963855
30
0
41
1
10
100.356501717352
20
-3.63491891505416
30
0
41
1
10
100.411061281476
20
-3.63258947704395
30
0
41
1
10
100.520472236679
20
-3.62889642212693
30
0
41
1
10
100.575339267984
20
-3.62753448708679
30
0
41
1
10
100.739683618862
20
-3.62468948790567
30
0
41
1
10
100.849134087532
20
-3.62442623811535
30
0
41
1
10
101.067868090265
20
-3.62633383158803
30
0
41
1
10
101.177150988875
20
-3.62851244851905
30
0
41
1
10
101.395582083141
20
-3.63479131767065
30
0
41
1
10
101.504730023943
20
-3.63889473603723
30
0
41
1
10
101.722912314691
20
-3.64865182970189
30
0
41
1
10
101.831809640706
20
-3.65430099378744
30
0
41
1
10
102.157722830526
20
-3.67308884718926
30
0
41
1
10
102.374095404242
20
-3.68805897616693
30
0
41
1
10
102.589759764107
20
-3.70455050026001
30
0
0
SPLINE
5
174
100
AcDbEntity
8
1
62
256
6
ByLayer
370
18
48
1
60
0
100
AcDbSpline
70
4
71
3
72
8
73
4
40
0
40
0
40
0
40
0
40
1
40
1
40
1
40
1
41
1
10
102.734160229413
20
-3.66255815138231
30
0
41
1
10
102.684929855116
20
-3.67627030409361
30
0
41
1
10
102.636749731059
20
-3.69027208615916
30
0
41
1
10
102.589759764118
20
-3.70455050026467
30
0
0
SPLINE
5
175
100
AcDbEntity
8
1
62
256
6
ByLayer
370
18
48
1
60
0
100
AcDbSpline
70
4
71
3
72
10
73
6
40
0
40
0
40
0
40
0
40
0.500000000000001
40
0.500000000000001
40
1
40
1
40
1
40
1
41
1
10
102.969703529601
20
-3.49010160156502
30
0
41
1
10
102.922148877627
20
-3.51790984447533
30
0
41
1
10
102.877789908888
20
-3.54634133678695
30
0
41
1
10
102.798142731812
20
-3.60406600265097
30
0
41
1
10
102.762897542713
20
-3.63333930976083
30
0
41
1
10
102.734160229413
20
-3.66255815138231
30
0
0
SPLINE
5
176
100
AcDbEntity
8
1
62
256
6
ByLayer
370
18
48
1
60
0
100
AcDbSpline
70
4
71
3
72
20
73
16
40
0
40
0
40
0
40
0
40
0.125000000000022
40
0.125000000000022
40
0.250000000000043
40
0.250000000000043
40
0.50000000000003
40
0.50000000000003
40
0.625000000000022
40
0.625000000000022
40
0.750000000000015
40
0.750000000000015
40
0.875000000000007
40
0.875000000000007
40
1
40
1
40
1
40
1
41
1
10
103.650160288555
20
-2.97866195922094
30
0
41
1
10
103.61337510414
20
-2.9974226780044
30
0
41
1
10
103.577126397124
20
-3.01655388958631
30
0
41
1
10
103.50611477793
20
-3.05547013674683
30
0
41
1
10
103.471348669711
20
-3.0752549401939
30
0
41
1
10
103.369551804104
20
-3.13566903078311
30
0
41
1
10
103.30487866965
20
-3.17743192176553
30
0
41
1
10
103.215362511499
20
-3.24204733443548
30
0
41
1
10
103.186806994465
20
-3.26389382704434
30
0
41
1
10
103.132802816273
20
-3.30815780282336
30
0
41
1
10
103.107350093496
20
-3.33058189359878
30
0
41
1
10
103.060359751353
20
-3.37579034850964
30
0
41
1
10
103.038756904099
20
-3.39864655571591
30
0
41
1
10
103.000458722423
20
-3.4443231682624
30
0
41
1
10
102.983699040748
20
-3.46719576666362
30
0
41
1
10
102.969703529601
20
-3.49010160156504
30
0
0
SPLINE
5
177
100
AcDbEntity
8
1
62
256
6
ByLayer
370
18
48
1
60
0
100
AcDbSpline
70
4
71
3
72
36
73
32
40
0
40
0
40
0
40
0
40
0.250000000000123
40
0.250000000000123
40
0.375000000000184
40
0.375000000000184
40
0.500000000000245
40
0.500000000000245
40
0.562500000000212
40
0.562500000000212
40
0.625000000000179
40
0.625000000000179
40
0.687500000000146
40
0.687500000000146
40
0.71875000000013
40
0.71875000000013
40
0.750000000000115
40
0.750000000000115
40
0.765625000000108
40
0.765625000000108
40
0.781250000000101
40
0.781250000000101
40
0.812500000000087
40
0.812500000000087
40
0.843750000000072
40
0.843750000000072
40
0.875000000000058
40
0.875000000000058
40
0.937500000000029
40
0.937500000000029
40
1
40
1
40
1
40
1
41
1
10
100.790937970092
20
-1.81743998565778
30
0
41
1
10
100.758696266027
20
-1.79848214617115
30
0
41
1
10
100.72699771352
20
-1.77885428365306
30
0
41
1
10
100.680958793792
20
-1.74760599254481
30
0
41
1
10
100.665867552122
20
-1.7368846845159
30
0
41
1
10
100.636479359581
20
-1.71450481263111
30
0
41
1
10
100.622164827411
20
-1.70286635358337
30
0
41
1
10
100.601790224379
20
-1.68413042063113
30
0
41
1
10
100.595184090998
20
-1.67766916187483
30
0
41
1
10
100.582570114971
20
-1.66405431280859
30
0
41
1
10
100.576579211757
20
-1.65693059833129
30
0
41
1
10
100.566030804937
20
-1.64186573965932
30
0
41
1
10
100.561372426642
20
-1.63385564977418
30
0
41
1
10
100.557021160886
20
-1.62098704783551
30
0
41
1
10
100.556025279788
20
-1.61651203226455
30
0
41
1
10
100.55558489538
20
-1.60753196452436
30
0
41
1
10
100.556172048479
20
-1.6029511920193
30
0
41
1
10
100.558544567427
20
-1.59654502422782
30
0
41
1
10
100.559593251466
20
-1.59445583725156
30
0
41
1
10
100.56208407591
20
-1.59057267193774
30
0
41
1
10
100.563531707263
20
-1.58875409200144
30
0
41
1
10
100.568413401728
20
-1.58362650413807
30
0
41
1
10
100.572236171524
20
-1.58078680943356
30
0
41
1
10
100.580484489307
20
-1.57591888291637
30
0
41
1
10
100.584912968002
20
-1.57389672476668
30
0
41
1
10
100.593911267974
20
-1.57047726497356
30
0
41
1
10
100.598526556303
20
-1.56905963926275
30
0
41
1
10
100.612609727742
20
-1.56540417473076
30
0
41
1
10
100.622266698295
20
-1.56376635898738
30
0
41
1
10
100.641581078486
20
-1.561400319027
30
0
41
1
10
100.651300812063
20
-1.56067484284938
30
0
41
1
10
100.661060740987
20
-1.56024361978754
30
0
0
SPLINE
5
178
100
AcDbEntity
8
1
62
256
6
ByLayer
370
18
48
1
60
0
100
AcDbSpline
70
4
71
3
72
16
73
12
40
0
40
0
40
0
40
0
40
0.250000000000001
40
0.250000000000001
40
0.500000000000001
40
0.500000000000001
40
0.750000000000002
40
0.750000000000002
40
0.875000000000001
40
0.875000000000001
40
1
40
1
40
1
40
1
41
1
10
100.661060740987
20
-1.56024361978757
30
0
41
1
10
100.680536726217
20
-1.55938311208834
30
0
41
1
10
100.699942532575
20
-1.55798440590627
30
0
41
1
10
100.738549161687
20
-1.55361296802349
30
0
41
1
10
100.75782135452
20
-1.55064138051262
30
0
41
1
10
100.795713167115
20
-1.54220905350019
30
0
41
1
10
100.814220869911
20
-1.53682195595064
30
0
41
1
10
100.840767267576
20
-1.52548157257664
30
0
41
1
10
100.849446375684
20
-1.5211108641744
30
0
41
1
10
100.865635875396
20
-1.511078165405
30
0
41
1
10
100.873209095765
20
-1.50540154814647
30
0
41
1
10
100.880051815347
20
-1.49879707862704
30
0
0
SPLINE
5
179
100
AcDbEntity
8
1
62
256
6
ByLayer
370
18
48
1
60
0
100
AcDbSpline
70
4
71
3
72
14
73
10
40
0
40
0
40
0
40
0
40
0.25
40
0.25
40
0.5
40
0.5
40
0.75
40
0.75
40
1
40
1
40
1
40
1
41
1
10
100.880051815347
20
-1.49879707862701
30
0
41
1
10
100.794966618004
20
-1.42450421712778
30
0
41
1
10
100.713329467376
20
-1.34691877766613
30
0
41
1
10
100.557775708281
20
-1.1842394953949
30
0
41
1
10
100.483857230524
20
-1.0991481534428
30
0
41
1
10
100.344715267244
20
-0.920329902930661
30
0
41
1
10
100.279488179708
20
-0.82660759576072
30
0
41
1
10
100.158933337221
20
-0.629091925288265
30
0
41
1
10
100.104494286954
20
-0.52672137528134
30
0
41
1
10
100.056289403702
20
-0.420558067786317
30
0
0
SPLINE
5
17A
100
AcDbEntity
8
1
62
256
6
ByLayer
370
18
48
1
60
0
100
AcDbSpline
70
4
71
3
72
24
73
20
40
0
40
0
40
0
40
0
40
0.125
40
0.125
40
0.25
40
0.25
40
0.375
40
0.375
40
0.4375
40
0.4375
40
0.5
40
0.5
40
0.625
40
0.625
40
0.75
40
0.75
40
0.875
40
0.875
40
1
40
1
40
1
40
1
41
1
10
100.056289403702
20
-0.42055806778626
30
0
41
1
10
100.052721020808
20
-0.412699292805939
30
0
41
1
10
100.049738797123
20
-0.404652901772494
30
0
41
1
10
100.045452227541
20
-0.388024155154
30
0
41
1
10
100.044170174103
20
-0.379402450870316
30
0
41
1
10
100.04413038234
20
-0.362295751485675
30
0
41
1
10
100.045424334166
20
-0.353582967294159
30
0
41
1
10
100.049449573328
20
-0.341435548935578
30
0
41
1
10
100.051128442965
20
-0.337509523436921
30
0
41
1
10
100.055152169786
20
-0.329900850533903
30
0
41
1
10
100.057507308645
20
-0.326216039025269
30
0
41
1
10
100.065251933444
20
-0.315872031161916
30
0
41
1
10
100.071458888718
20
-0.309714619127988
30
0
41
1
10
100.084881044547
20
-0.298934984167403
30
0
41
1
10
100.092077675626
20
-0.294289042673284
30
0
41
1
10
100.1071370704
20
-0.286018110211472
30
0
41
1
10
100.115025050954
20
-0.282393681551412
30
0
41
1
10
100.131047938111
20
-0.276006726613474
30
0
41
1
10
100.139215236599
20
-0.273227040051125
30
0
41
1
10
100.147499311217
20
-0.270757474761211
30
0
0
SPLINE
5
17B
100
AcDbEntity
8
1
62
256
6
ByLayer
370
18
48
1
60
0
100
AcDbSpline
70
4
71
3
72
24
73
20
40
0
40
0
40
0
40
0
40
0.0625000000000021
40
0.0625000000000021
40
0.125000000000004
40
0.125000000000004
40
0.250000000000008
40
0.250000000000008
40
0.375000000000013
40
0.375000000000013
40
0.437500000000015
40
0.437500000000015
40
0.500000000000017
40
0.500000000000017
40
0.625000000000021
40
0.625000000000021
40
0.750000000000026
40
0.750000000000026
40
1
40
1
40
1
40
1
41
1
10
100.147499311217
20
-0.270757474761211
30
0
41
1
10
100.196588753925
20
-0.256123422146629
30
0
41
1
10
100.245939431128
20
-0.243890818769074
30
0
41
1
10
100.345002163245
20
-0.222750774300835
30
0
41
1
10
100.3947161781
20
-0.213861292200164
30
0
41
1
10
100.5442720276
20
-0.191003158248634
30
0
41
1
10
100.644521188277
20
-0.180785388170989
30
0
41
1
10
100.845741915671
20
-0.167009213462535
30
0
41
1
10
100.946719424144
20
-0.16350528543262
30
0
41
1
10
101.09859855222
20
-0.162056586768188
30
0
41
1
10
101.149330278453
20
-0.162217217730586
30
0
41
1
10
101.25070143816
20
-0.163680737418133
30
0
41
1
10
101.301343822514
20
-0.164982755311797
30
0
41
1
10
101.453155083429
20
-0.170418567222015
30
0
41
1
10
101.554208677881
20
-0.17607409318029
30
0
41
1
10
101.75606057643
20
-0.190752719178477
30
0
41
1
10
101.856858570317
20
-0.199779899114304
30
0
41
1
10
102.158922695598
20
-0.231207664351643
30
0
41
1
10
102.359999575071
20
-0.257949502637047
30
0
41
1
10
102.560058421152
20
-0.28910112545995
30
0
0
SPLINE
5
17C
100
AcDbEntity
8
1
62
256
6
ByLayer
370
18
48
1
60
0
100
AcDbSpline
70
4
71
3
72
8
73
4
40
0
40
0
40
0
40
0
40
1
40
1
40
1
40
1
41
1
10
102.734151010327
20
-0.171761144140675
30
0
41
1
10
102.674494465358
20
-0.208844560144143
30
0
41
1
10
102.61637740713
20
-0.247852956661944
30
0
41
1
10
102.560058421151
20
-0.289101125460036
30
0
0
SPLINE
5
17D
100
AcDbEntity
8
1
62
256
6
ByLayer
370
18
48
1
60
0
100
AcDbSpline
70
4
71
3
72
10
73
6
40
0
40
0
40
0
40
0
40
0.5
40
0.5
40
1
40
1
40
1
40
1
41
1
10
102.969675715537
20
0.183077807716472
30
0
41
1
10
102.922123664563
20
0.130001798334177
30
0
41
1
10
102.8777675068
20
0.0740209227645039
30
0
41
1
10
102.798126498123
20
-0.0442721576532676
30
0
41
1
10
102.762884673736
20
-0.106555020543055
30
0
41
1
10
102.734151010327
20
-0.171761144140675
30
0
0
SPLINE
5
17E
100
AcDbEntity
8
1
62
256
6
ByLayer
370
18
48
1
60
0
100
AcDbSpline
70
4
71
3
72
36
73
32
40
0
40
0
40
0
40
0
40
0.249999999999685
40
0.249999999999685
40
0.374999999999527
40
0.374999999999527
40
0.499999999999369
40
0.499999999999369
40
0.56249999999929
40
0.56249999999929
40
0.624999999999212
40
0.624999999999212
40
0.687499999999134
40
0.687499999999134
40
0.718749999999093
40
0.718749999999093
40
0.749999999999052
40
0.749999999999052
40
0.76562499999906
40
0.76562499999906
40
0.781249999999067
40
0.781249999999067
40
0.812499999999201
40
0.812499999999201
40
0.843749999999334
40
0.843749999999334
40
0.874999999999467
40
0.874999999999467
40
0.937499999999733
40
0.937499999999733
40
1
40
1
40
1
40
1
41
1
10
100.790937970092
20
2.32936482142267
30
0
41
1
10
100.758696266027
20
2.34676528592385
30
0
41
1
10
100.726997713519
20
2.36462406349256
30
0
41
1
10
100.680958793792
20
2.39276094345658
30
0
41
1
10
100.665867552122
20
2.40236810645212
30
0
41
1
10
100.636479359581
20
2.42231122574074
30
0
41
1
10
100.622164827411
20
2.43263016862511
30
0
41
1
10
100.601790224379
20
2.4491379164418
30
0
41
1
10
100.595184090997
20
2.45481449671942
30
0
41
1
10
100.58257011497
20
2.46673538766328
30
0
41
1
10
100.576579211756
20
2.47295349608493
30
0
41
1
10
100.566030804937
20
2.48605361485315
30
0
41
1
10
100.561372426642
20
2.49299564046535
30
0
41
1
10
100.557021160886
20
2.50409987161984
30
0
41
1
10
100.556025279788
20
2.50795351085171
30
0
41
1
10
100.55558489538
20
2.51566956324609
30
0
41
1
10
100.556172048479
20
2.51959675685356
30
0
41
1
10
100.558544567427
20
2.52507776854174
30
0
41
1
10
100.559593251466
20
2.52686331691302
30
0
41
1
10
100.56208407591
20
2.53017914476089
30
0
41
1
10
100.563531707263
20
2.53173049564251
30
0
41
1
10
100.568413401728
20
2.53610128341975
30
0
41
1
10
100.572236171524
20
2.53851732891755
30
0
41
1
10
100.580484489307
20
2.54265526469771
30
0
41
1
10
100.584912968003
20
2.54437188116799
30
0
41
1
10
100.593911267974
20
2.54727283750452
30
0
41
1
10
100.598526556303
20
2.54847437947572
30
0
41
1
10
100.612609727743
20
2.55157124921152
30
0
41
1
10
100.622266698295
20
2.55295673086309
30
0
41
1
10
100.641581078486
20
2.55495784811046
30
0
41
1
10
100.651300812063
20
2.55557096435476
30
0
41
1
10
100.661060740987
20
2.55593540570087
30
0
0
SPLINE
5
17F
100
AcDbEntity
8
1
62
256
6
ByLayer
370
18
48
1
60
0
100
AcDbSpline
70
4
71
3
72
16
73
12
40
0
40
0
40
0
40
0
40
0.249999999999793
40
0.249999999999793
40
0.499999999999587
40
0.499999999999587
40
0.62499999999969
40
0.62499999999969
40
0.749999999999794
40
0.749999999999794
40
1
40
1
40
1
40
1
41
1
10
100.661060740987
20
2.55593540570084
30
0
41
1
10
100.677553157461
20
2.55655124199507
30
0
41
1
10
100.693984291735
20
2.55749523540541
30
0
41
1
10
100.726679726133
20
2.56027483532205
30
0
41
1
10
100.742944923221
20
2.56210574807031
30
0
41
1
10
100.767160226918
20
2.56582426784502
30
0
41
1
10
100.775201264553
20
2.56722745367617
30
0
41
1
10
100.791205456534
20
2.57044770994207
30
0
41
1
10
100.799181984463
20
2.57226923369151
30
0
41
1
10
100.822645466579
20
2.57845671680903
30
0
41
1
10
100.837778072903
20
2.58351552921619
30
0
41
1
10
100.851992612389
20
2.59024272548311
30
0
0
SPLINE
5
180
100
AcDbEntity
8
1
62
256
6
ByLayer
370
18
48
1
60
0
100
AcDbSpline
70
4
71
3
72
14
73
10
40
0
40
0
40
0
40
0
40
0.25
40
0.25
40
0.5
40
0.5
40
0.75
40
0.75
40
1
40
1
40
1
40
1
41
1
10
100.851992612389
20
2.59024272548305
30
0
41
1
10
100.758907788026
20
2.64991759815985
30
0
41
1
10
100.668573934837
20
2.70996455272785
30
0
41
1
10
100.494017374763
20
2.83060544135756
30
0
41
1
10
100.409793546208
20
2.89120054267266
30
0
41
1
10
100.248170542403
20
3.01263692264524
30
0
41
1
10
100.17076936897
20
3.07347998299352
30
0
41
1
10
100.023655638311
20
3.19496321700555
30
0
41
1
10
99.9539392982753
20
3.25560634600683
30
0
41
1
10
99.8886156613839
20
3.31581518118026
30
0
0
SPLINE
5
181
100
AcDbEntity
8
1
62
256
6
ByLayer
370
18
48
1
60
0
100
AcDbSpline
70
4
71
3
72
30
73
26
40
0
40
0
40
0
40
0
40
0.125000000000002
40
0.125000000000002
40
0.187500000000001
40
0.187500000000001
40
0.249999999999999
40
0.249999999999999
40
0.312499999999998
40
0.312499999999998
40
0.374999999999997
40
0.374999999999997
40
0.437499999999996
40
0.437499999999996
40
0.499999999999995
40
0.499999999999995
40
0.562499999999994
40
0.562499999999994
40
0.624999999999993
40
0.624999999999993
40
0.749999999999995
40
0.749999999999995
40
0.874999999999998
40
0.874999999999998
40
1
40
1
40
1
40
1
41
1
10
99.8886156613839
20
3.31581518118023
30
0
41
1
10
99.8829770541411
20
3.3210122888469
30
0
41
1
10
99.8778798331703
20
3.32633771562411
30
0
41
1
10
99.8714391587001
20
3.33461989385509
30
0
41
1
10
99.8694953016345
20
3.337430193047
30
0
41
1
10
99.866128151418
20
3.3431796662901
30
0
41
1
10
99.8647085019626
20
3.3461215224124
30
0
41
1
10
99.8626025990002
20
3.3520196908174
30
0
41
1
10
99.8619048405288
20
3.35499198385943
30
0
41
1
10
99.8613964790282
20
3.36099727215313
30
0
41
1
10
99.8615995569253
20
3.36402969393006
30
0
41
1
10
99.8630350100009
20
3.36992002878449
30
0
41
1
10
99.8642626271007
20
3.37280793495629
30
0
41
1
10
99.8678330600399
20
3.37845526377171
30
0
41
1
10
99.8701115751772
20
3.38111417139004
30
0
41
1
10
99.8755516304706
20
3.38613991859566
30
0
41
1
10
99.8787492435501
20
3.38852681259368
30
0
41
1
10
99.885737429834
20
3.39291557522756
30
0
41
1
10
99.8895193160222
20
3.39492341767448
30
0
41
1
10
99.9015486792866
20
3.40050644641138
30
0
41
1
10
99.9105327202282
20
3.40365505129733
30
0
41
1
10
99.929009603266
20
3.40898331548058
30
0
41
1
10
99.9385956537893
20
3.41120285025116
30
0
41
1
10
99.9582329230668
20
3.41505177000184
30
0
41
1
10
99.9683026020566
20
3.41667836514486
30
0
41
1
10
99.9784615804106
20
3.41807576982899
30
0
0
SPLINE
5
182
100
AcDbEntity
8
1
62
256
6
ByLayer
370
18
48
1
60
0
100
AcDbSpline
70
4
71
3
72
24
73
20
40
0
40
0
40
0
40
0
40
0.062500000000002
40
0.062500000000002
40
0.125000000000004
40
0.125000000000004
40
0.187500000000006
40
0.187500000000006
40
0.250000000000008
40
0.250000000000008
40
0.375000000000012
40
0.375000000000012
40
0.500000000000016
40
0.500000000000016
40
0.62500000000002
40
0.62500000000002
40
0.750000000000024
40
0.750000000000024
40
1
40
1
40
1
40
1
41
1
10
99.9784615804106
20
3.41807576982885
30
0
41
1
10
100.031872433067
20
3.42542262825148
30
0
41
1
10
100.085608739763
20
3.43142366642309
30
0
41
1
10
100.193543417125
20
3.44156337679735
30
0
41
1
10
100.247743900082
20
3.44569244500821
30
0
41
1
10
100.356503343922
20
3.45253309926696
30
0
41
1
10
100.411063144237
20
3.45524089086462
30
0
41
1
10
100.520474573596
20
3.45951880359544
30
0
41
1
10
100.57534183899
20
3.46108643017271
30
0
41
1
10
100.739686887867
20
3.46435690525533
30
0
41
1
10
100.849137821248
20
3.46465554772064
30
0
41
1
10
101.067872752525
20
3.46246739869781
30
0
41
1
10
101.177156114963
20
3.45996858886536
30
0
41
1
10
101.395588136183
20
3.45268304328579
30
0
41
1
10
101.504736540111
20
3.44789153347784
30
0
41
1
10
101.722919756518
20
3.43631258316535
30
0
41
1
10
101.831817529028
20
3.42952987320876
30
0
41
1
10
102.157732073847
20
3.40651508060478
30
0
41
1
10
102.374105546393
20
3.38762775717802
30
0
41
1
10
102.589770801635
20
3.36559536842975
30
0
0
SPLINE
5
183
100
AcDbEntity
8
1
62
256
6
ByLayer
370
18
48
1
60
0
100
AcDbSpline
70
4
71
3
72
8
73
4
40
0
40
0
40
0
40
0
40
1
40
1
40
1
40
1
41
1
10
102.734151010328
20
3.41940545551665
30
0
41
1
10
102.684927559217
20
3.40254550175183
30
0
41
1
10
102.636754197491
20
3.38466922927495
30
0
41
1
10
102.589770801626
20
3.36559536843453
30
0
0
SPLINE
5
184
100
AcDbEntity
8
1
62
256
6
ByLayer
370
18
48
1
60
0
100
AcDbSpline
70
4
71
3
72
10
73
6
40
0
40
0
40
0
40
0
40
0.5
40
0.5
40
1
40
1
40
1
40
1
41
1
10
102.969675715538
20
3.60174046076693
30
0
41
1
10
102.922123664564
20
3.57643980798863
30
0
41
1
10
102.877767506801
20
3.54887359727135
30
0
41
1
10
102.798126498124
20
3.48831637637056
30
0
41
1
10
102.762884673737
20
3.45533494671756
30
0
41
1
10
102.734151010328
20
3.41940545551663
30
0
0
SPLINE
5
185
100
AcDbEntity
8
1
62
256
6
ByLayer
370
18
48
1
60
0
100
AcDbSpline
70
4
71
3
72
20
73
16
40
0
40
0
40
0
40
0
40
0.125000000000009
40
0.125000000000009
40
0.250000000000017
40
0.250000000000017
40
0.499999999999979
40
0.499999999999979
40
0.624999999999984
40
0.624999999999984
40
0.749999999999989
40
0.749999999999989
40
0.874999999999995
40
0.874999999999995
40
1
40
1
40
1
40
1
41
1
10
103.650114797312
20
1.01496783394416
30
0
41
1
10
103.613329758006
20
0.988487870042746
30
0
41
1
10
103.577081235785
20
0.961136666937989
30
0
41
1
10
103.506070059087
20
0.904684502061286
30
0
41
1
10
103.471304223486
20
0.875585002537122
30
0
41
1
10
103.369508354283
20
0.785320312500062
30
0
41
1
10
103.304836125512
20
0.72109110992011
30
0
41
1
10
103.215321850117
20
0.61784970822373
30
0
41
1
10
103.186767074751
20
0.582315625615564
30
0
41
1
10
103.132764561737
20
0.50882822223528
30
0
41
1
10
103.107312815132
20
0.470862269262369
30
0
41
1
10
103.060324643342
20
0.392578509052044
30
0
41
1
10
103.038723049277
20
0.352132169371458
30
0
41
1
10
103.00042768419
20
0.269284744068813
30
0
41
1
10
102.983669542005
20
0.226796997495228
30
0
41
1
10
102.969675715537
20
0.183077807716501
30
0
0
SPLINE
5
186
100
AcDbEntity
8
1
62
256
6
ByLayer
370
18
48
1
60
0
100
AcDbSpline
70
4
71
3
72
8
73
4
40
0
40
0
40
0
40
0
40
1
40
1
40
1
40
1
41
1
10
104.132
20
0.887253541741785
30
0
41
1
10
103.971157873992
20
0.930999886421404
30
0
41
1
10
103.810529529525
20
0.973571006945093
30
0
41
1
10
103.650114797312
20
1.01496783394401
30
0
0
SPLINE
5
187
100
AcDbEntity
8
1
62
256
6
ByLayer
370
18
48
1
60
0
100
AcDbSpline
70
4
71
3
72
10
73
6
40
0
40
0
40
0
40
0
40
0.5
40
0.5
40
1
40
1
40
1
40
1
41
1
10
111.616932391928
20
0.74508076547022
30
0
41
1
10
111.579120212658
20
0.808839295200073
30
0
41
1
10
111.54011246201
20
0.873224720938282
30
0
41
1
10
111.45989336092
20
1.00299580981647
30
0
41
1
10
111.418661763301
20
1.06841562759445
30
0
41
1
10
111.376315563875
20
1.13436617357638
30
0
0
SPLINE
5
188
100
AcDbEntity
8
1
62
256
6
ByLayer
370
18
48
1
60
0
100
AcDbSpline
70
4
71
3
72
34
73
30
40
0
40
0
40
0
40
0
40
0.125000000000011
40
0.125000000000011
40
0.18750000000001
40
0.18750000000001
40
0.218750000000004
40
0.218750000000004
40
0.249999999999997
40
0.249999999999997
40
0.374999999999999
40
0.374999999999999
40
0.5
40
0.5
40
0.531250000000005
40
0.531250000000005
40
0.56250000000001
40
0.56250000000001
40
0.625000000000019
40
0.625000000000019
40
0.750000000000019
40
0.750000000000019
40
0.81250000000002
40
0.81250000000002
40
0.84375000000002
40
0.84375000000002
40
0.87500000000002
40
0.87500000000002
40
1
40
1
40
1
40
1
41
1
10
111.376315563875
20
1.13436617357635
30
0
41
1
10
111.328565401562
20
1.149650963905
30
0
41
1
10
111.274696476022
20
1.17031476948188
30
0
41
1
10
111.184534391371
20
1.20953772385332
30
0
41
1
10
111.152927354606
20
1.22397729445561
30
0
41
1
10
111.103080118969
20
1.24777874035772
30
0
41
1
10
111.086024218484
20
1.25608668972504
30
0
41
1
10
111.051255437831
20
1.27334684818544
30
0
41
1
10
111.033564087032
20
1.28228764127329
30
0
41
1
10
110.943590616303
20
1.32852686923397
30
0
41
1
10
110.866787480353
20
1.37040160124087
30
0
41
1
10
110.703388154455
20
1.46406386466913
30
0
41
1
10
110.616814872081
20
1.51582820841122
30
0
41
1
10
110.502240382966
20
1.58696926584028
30
0
41
1
10
110.478958545131
20
1.6015519221472
30
0
41
1
10
110.431950321735
20
1.63125021203481
30
0
41
1
10
110.4082732845
20
1.64633424225545
30
0
41
1
10
110.336734300711
20
1.69227617709475
30
0
41
1
10
110.288366698086
20
1.7238209158769
30
0
41
1
10
110.141300078631
20
1.82112258339561
30
0
41
1
10
110.040624230293
20
1.88956464831495
30
0
41
1
10
109.885690255535
20
1.99755256819986
30
0
41
1
10
109.833390038369
20
2.03443898913864
30
0
41
1
10
109.753935513388
20
2.09113262738336
30
0
41
1
10
109.727318054876
20
2.11023352836673
30
0
41
1
10
109.674171089591
20
2.14858420768172
30
0
41
1
10
109.647591994653
20
2.16786929722318
30
0
41
1
10
109.514669192431
20
2.26482914182432
30
0
41
1
10
109.408243850015
20
2.34410029286138
30
0
41
1
10
109.301732252126
20
2.42505819184186
30
0
0
SPLINE
5
189
100
AcDbEntity
8
1
62
256
6
ByLayer
370
18
48
1
60
0
100
AcDbSpline
70
4
71
3
72
63
73
59
40
0
40
0
40
0
40
0
40
0.0312500000000528
40
0.0468750000000792
40
0.0468750000000792
40
0.0625000000001056
40
0.0625000000001056
40
0.125000000000237
40
0.125000000000237
40
0.187500000000369
40
0.187500000000369
40
0.203125000000401
40
0.203125000000401
40
0.218750000000434
40
0.218750000000434
40
0.250000000000513
40
0.250000000000513
40
0.312500000000684
40
0.312500000000684
40
0.328125000000727
40
0.328125000000727
40
0.335937500000748
40
0.335937500000748
40
0.339843750000766
40
0.339843750000766
40
0.340820312500773
40
0.340820312500773
40
0.341796875000781
40
0.341796875000781
40
0.343750000000783
40
0.343750000000783
40
0.375000000000748
40
0.375000000000748
40
0.437500000000691
40
0.437500000000691
40
0.45312500000067
40
0.45312500000067
40
0.46875000000065
40
0.46875000000065
40
0.500000000000609
40
0.500000000000609
40
0.625000000000469
40
0.625000000000469
40
0.687500000000399
40
0.687500000000399
40
0.703125000000382
40
0.703125000000382
40
0.718750000000364
40
0.750000000000318
40
0.812500000000236
40
0.812500000000236
40
0.875000000000154
40
0.875000000000154
40
0.937500000000072
40
0.937500000000072
40
0.968750000000036
40
0.968750000000036
40
1
40
1
40
1
40
1
41
1
10
109.301732252126
20
2.42505819184632
30
0
41
1
10
109.249996948582
20
2.44466691179497
30
0
41
1
10
109.171512566399
20
2.47527732947009
30
0
41
1
10
109.091682930071
20
2.50753607654988
30
0
41
1
10
109.038161587546
20
2.52939181390818
30
0
41
1
10
109.011210397533
20
2.54051141078935
30
0
41
1
10
108.876503440518
20
2.59660357385258
30
0
41
1
10
108.768470250782
20
2.64321886932728
30
0
41
1
10
108.551469929039
20
2.7386699215208
30
0
41
1
10
108.442504637857
20
2.78750831541524
30
0
41
1
10
108.305471588617
20
2.84924179926011
30
0
41
1
10
108.278023546308
20
2.8616229747368
30
0
41
1
10
108.223037953015
20
2.88643724077238
30
0
41
1
10
108.195549835289
20
2.89884799553352
30
0
41
1
10
108.113389243835
20
2.9359304539442
30
0
41
1
10
108.058897444801
20
2.9605076197808
30
0
41
1
10
107.896140957816
20
3.03363837183645
30
0
41
1
10
107.788594652689
20
3.08158505970192
30
0
41
1
10
107.654999172704
20
3.13999560622403
30
0
41
1
10
107.628321652745
20
3.15160275623566
30
0
41
1
10
107.58835980516
20
3.16889629485331
30
0
41
1
10
107.575047996915
20
3.17464188388155
30
0
41
1
10
107.555096325265
20
3.1832233214991
30
0
41
1
10
107.548447925085
20
3.18607869647445
30
0
41
1
10
107.540139157967
20
3.18964334008678
30
0
41
1
10
107.538483211139
20
3.19034388408826
30
0
41
1
10
107.53514371617
20
3.19180353425892
30
0
41
1
10
107.533475063054
20
3.19253105923866
30
0
41
1
10
107.528471907215
20
3.19470767624199
30
0
41
1
10
107.52513741504
20
3.19615676459415
30
0
41
1
10
107.468454354782
20
3.22078431555903
30
0
41
1
10
107.415245435332
20
3.24366635292074
30
0
41
1
10
107.255977875821
20
3.31123183690679
30
0
41
1
10
107.150266601995
20
3.35485809300349
30
0
41
1
10
107.018452755222
20
3.40715947142067
30
0
41
1
10
106.992079425052
20
3.41752047359694
30
0
41
1
10
106.939491963134
20
3.43796185712156
30
0
41
1
10
106.913296804459
20
3.44803403956959
30
0
41
1
10
106.835004849054
20
3.47778265163385
30
0
41
1
10
106.783199941225
20
3.49699249380436
30
0
41
1
10
106.525935458389
20
3.58982139089394
30
0
41
1
10
106.325694410279
20
3.65380733555455
30
0
41
1
10
106.031216409202
20
3.73174714592824
30
0
41
1
10
105.934045412293
20
3.75472198688732
30
0
41
1
10
105.813644165842
20
3.7793364724518
30
0
41
1
10
105.789610383987
20
3.78405466858692
30
0
41
1
10
105.74184286487
20
3.79303623785
30
0
41
1
10
105.670568222213
20
3.80584135428052
30
0
41
1
10
105.50679418433
20
3.83106180386432
30
0
41
1
10
105.370510215372
20
3.84465443836416
30
0
41
1
10
105.192260576317
20
3.85533908278109
30
0
41
1
10
105.104881104114
20
3.85694818864945
30
0
41
1
10
104.933572322418
20
3.85226342794684
30
0
41
1
10
104.84963788663
20
3.84597470301955
30
0
41
1
10
104.726248314122
20
3.8303400694607
30
0
41
1
10
104.685488872842
20
3.82407828929661
30
0
41
1
10
104.605163101662
20
3.80948704359432
30
0
41
1
10
104.56559278198
20
3.80115241920547
30
0
41
1
10
104.526614498484
20
3.79176672010539
30
0
0
SPLINE
5
18A
100
AcDbEntity
8
1
62
256
6
ByLayer
370
18
48
1
60
0
100
AcDbSpline
70
4
71
1
72
4
73
2
40
0
40
0
40
1
40
1
41
1
10
104.235239431497
20
3.38244948986065
30
0
41
1
10
104.526614498484
20
3.79176672010539
30
0
0
SPLINE
5
18B
100
AcDbEntity
8
1
62
256
6
ByLayer
370
18
48
1
60
0
100
AcDbSpline
70
4
71
3
72
16
73
12
40
0
40
0
40
0
40
0
40
0.250000000000006
40
0.250000000000006
40
0.500000000000012
40
0.500000000000012
40
0.625000000000009
40
0.625000000000009
40
0.750000000000007
40
0.750000000000007
40
1
40
1
40
1
40
1
41
1
10
111.585402750288
20
0.649899417529582
30
0
41
1
10
111.58272761802
20
0.642102876290807
30
0
41
1
10
111.580388839003
20
0.633555299399404
30
0
41
1
10
111.576610534006
20
0.614625018481092
30
0
41
1
10
111.575166372653
20
0.604250198007122
30
0
41
1
10
111.57396375892
20
0.586861142956394
30
0
41
1
10
111.57372503382
20
0.580757725313248
30
0
41
1
10
111.573655493682
20
0.56780161312966
30
0
41
1
10
111.573826920045
20
0.560972605688789
30
0
41
1
10
111.575089953972
20
0.539541279236516
30
0
41
1
10
111.57688608978
20
0.523950800858586
30
0
41
1
10
111.580298306005
20
0.506231768334857
30
0
0
SPLINE
5
18C
100
AcDbEntity
8
1
62
256
6
ByLayer
370
18
48
1
60
0
100
AcDbSpline
70
4
71
3
72
8
73
4
40
0
40
0
40
0
40
0
40
1
40
1
40
1
40
1
41
1
10
111.585402750288
20
0.649899417530065
30
0
41
1
10
111.596675356487
20
0.682752873103652
30
0
41
1
10
111.607233065285
20
0.714555543347529
30
0
41
1
10
111.616932391928
20
0.745080765470277
30
0
0
SPLINE
5
18D
100
AcDbEntity
8
1
62
256
6
ByLayer
370
18
48
1
60
0
100
AcDbSpline
70
4
71
3
72
22
73
18
40
0
40
0
40
0
40
0
40
0.03125
40
0.03125
40
0.0625000000000001
40
0.0625000000000001
40
0.125
40
0.125
40
0.25
40
0.25
40
0.375
40
0.375
40
0.5
40
0.5
40
0.75
40
0.75
40
1
40
1
40
1
40
1
41
1
10
111.550182324738
20
0.0717703049032536
30
0
41
1
10
111.547422982174
20
0.0717388973490358
30
0
41
1
10
111.544578756657
20
0.0717493880287066
30
0
41
1
10
111.538800421528
20
0.0718147362096317
30
0
41
1
10
111.535863695491
20
0.0718705156114652
30
0
41
1
10
111.526968462742
20
0.0720820660553159
30
0
41
1
10
111.521132598814
20
0.0722750256474285
30
0
41
1
10
111.50375184428
20
0.0729237533978164
30
0
41
1
10
111.492316020962
20
0.0734517681703721
30
0
41
1
10
111.469665140754
20
0.0745762870098758
30
0
41
1
10
111.458523489365
20
0.0751733989588104
30
0
41
1
10
111.436437599062
20
0.0764050589094722
30
0
41
1
10
111.425497125197
20
0.0770403208911432
30
0
41
1
10
111.392873872647
20
0.078983686360516
30
0
41
1
10
111.371385159599
20
0.0803285912274703
30
0
41
1
10
111.328685817053
20
0.0830711349667013
30
0
41
1
10
111.307480735444
20
0.0844698259052734
30
0
41
1
10
111.286370255596
20
0.0858864565234683
30
0
0
SPLINE
5
18E
100
AcDbEntity
8
1
62
256
6
ByLayer
370
18
48
1
60
0
100
AcDbSpline
70
4
71
3
72
8
73
4
40
0
40
0
40
0
40
0
40
1
40
1
40
1
40
1
41
1
10
111.023304517269
20
-0.330227281718891
30
0
41
1
10
111.027464789421
20
-0.338384759372104
30
0
41
1
10
111.030963468481
20
-0.345683301635035
30
0
41
1
10
111.033823107602
20
-0.352152188891324
30
0
0
SPLINE
5
18F
100
AcDbEntity
8
1
62
256
6
ByLayer
370
18
48
1
60
0
100
AcDbSpline
70
4
71
3
72
43
73
39
40
0
40
0
40
0
40
0
40
0.0625000000000005
40
0.0625000000000005
40
0.125000000000001
40
0.125000000000001
40
0.250000000000002
40
0.250000000000002
40
0.281250000000002
40
0.281250000000002
40
0.312500000000002
40
0.375000000000003
40
0.375000000000003
40
0.406249999999986
40
0.406249999999986
40
0.437499999999969
40
0.437499999999969
40
0.499999999999985
40
0.499999999999985
40
0.562500000000002
40
0.562500000000002
40
0.625000000000018
40
0.625000000000018
40
0.687500000000035
40
0.687500000000035
40
0.750000000000051
40
0.750000000000051
40
0.812500000000068
40
0.812500000000068
40
0.843750000000013
40
0.843750000000013
40
0.874999999999958
40
0.874999999999958
40
0.937499999999979
40
0.937499999999979
40
0.96874999999999
40
0.96874999999999
40
1
40
1
40
1
40
1
41
1
10
111.023304517268
20
-0.330227281718805
30
0
41
1
10
111.018833183276
20
-0.321459872812795
30
0
41
1
10
111.014689590539
20
-0.312083748467472
30
0
41
1
10
111.007335600391
20
-0.292186091544067
30
0
41
1
10
111.004108867457
20
-0.28160502353083
30
0
41
1
10
110.996282539164
20
-0.248522147623646
30
0
41
1
10
110.993607262909
20
-0.225229258332604
30
0
41
1
10
110.994029597127
20
-0.19472673236848
30
0
41
1
10
110.994307164284
20
-0.188531519579499
30
0
41
1
10
110.995250332915
20
-0.176184116327505
30
0
41
1
10
110.9972443452
20
-0.157686783332025
30
0
41
1
10
111.00096854927
20
-0.139276209950083
30
0
41
1
10
111.005889771475
20
-0.120945272030752
30
0
41
1
10
111.007730279194
20
-0.114848254338199
30
0
41
1
10
111.011826976805
20
-0.102685074188372
30
0
41
1
10
111.014086128698
20
-0.096617421505016
30
0
41
1
10
111.021383240847
20
-0.0787681441348695
30
0
41
1
10
111.026970595882
20
-0.0672353224864821
30
0
41
1
10
111.039589928443
20
-0.0449088269406559
30
0
41
1
10
111.046623613191
20
-0.0341120993688833
30
0
41
1
10
111.062211880504
20
-0.0133197080382104
30
0
41
1
10
111.070587768925
20
-0.0035613475184562
30
0
41
1
10
111.088493470827
20
0.0147144688416461
30
0
41
1
10
111.098022866974
20
0.0232320352967577
30
0
41
1
10
111.118308491484
20
0.0389812285271205
30
0
41
1
10
111.129082044555
20
0.0462021937611041
30
0
41
1
10
111.151259458315
20
0.0588628692200928
30
0
41
1
10
111.162740698435
20
0.0643692978777324
30
0
41
1
10
111.180608279711
20
0.0713553042605781
30
0
41
1
10
111.186672333128
20
0.073470855672582
30
0
41
1
10
111.199034503944
20
0.0772584454486491
30
0
41
1
10
111.205370417636
20
0.0789373073612296
30
0
41
1
10
111.224353529308
20
0.0831879467301349
30
0
41
1
10
111.237032583551
20
0.0850021306352744
30
0
41
1
10
111.255980941192
20
0.0863192852233396
30
0
41
1
10
111.262306402983
20
0.0865214539387011
30
0
41
1
10
111.274562317643
20
0.0864981958891633
30
0
41
1
10
111.280537270606
20
0.0862778822604753
30
0
41
1
10
111.286370255596
20
0.0858864565234398
30
0
0
SPLINE
5
190
100
AcDbEntity
8
1
62
256
6
ByLayer
370
18
48
1
60
0
100
AcDbSpline
70
4
71
3
72
24
73
20
40
0
40
0
40
0
40
0
40
0.25000000000005
40
0.25000000000005
40
0.375000000000048
40
0.375000000000048
40
0.500000000000045
40
0.500000000000045
40
0.625000000000042
40
0.625000000000042
40
0.687500000000033
40
0.687500000000033
40
0.750000000000024
40
0.750000000000024
40
0.875000000000012
40
0.875000000000012
40
0.937500000000006
40
0.937500000000006
40
1
40
1
40
1
40
1
41
1
10
111.937870711502
20
0.0971616064645673
30
0
41
1
10
111.942063703474
20
0.0854556184856108
30
0
41
1
10
111.945991175886
20
0.0749976266712622
30
0
41
1
10
111.951259700279
20
0.0624769209719318
30
0
41
1
10
111.952907008964
20
0.0588552447478321
30
0
41
1
10
111.955837757401
20
0.0532720252765841
30
0
41
1
10
111.957132785969
20
0.051277821499383
30
0
41
1
10
111.959261537704
20
0.0495333799625257
30
0
41
1
10
111.960058843797
20
0.04982536695411
30
0
41
1
10
111.960766890837
20
0.0524142740272566
30
0
41
1
10
111.960921414116
20
0.0536535387006154
30
0
41
1
10
111.961049560933
20
0.0568289209993509
30
0
41
1
10
111.961025741396
20
0.0587640096644009
30
0
41
1
10
111.960700278581
20
0.0655899361096033
30
0
41
1
10
111.960129316196
20
0.0716047839994189
30
0
41
1
10
111.958877685944
20
0.0819793458293532
30
0
41
1
10
111.958395173855
20
0.0856715745809993
30
0
41
1
10
111.957315701272
20
0.0934730587587751
30
0
41
1
10
111.95671859632
20
0.0975809437219368
30
0
41
1
10
111.956084882404
20
0.101786291224045
30
0
0
SPLINE
5
191
100
AcDbEntity
8
1
62
256
6
ByLayer
370
18
48
1
60
0
100
AcDbSpline
70
4
71
3
72
8
73
4
40
0
40
0
40
0
40
0
40
1
40
1
40
1
40
1
41
1
10
111.937870711502
20
0.097161606464482
30
0
41
1
10
111.934086469607
20
0.107726446659882
30
0
41
1
10
111.930222378069
20
0.11835104794082
30
0
41
1
10
111.926279276819
20
0.129034781685988
30
0
0
SPLINE
5
192
100
AcDbEntity
8
1
62
256
6
ByLayer
370
18
48
1
60
0
100
AcDbSpline
70
4
71
3
72
12
73
8
40
0
40
0
40
0
40
0
40
0.25
40
0.25
40
0.5
40
0.5
40
1
40
1
40
1
40
1
41
1
10
111.926279276819
20
0.129034781685931
30
0
41
1
10
111.918318685585
20
0.134953648612168
30
0
41
1
10
111.909413580387
20
0.140839842292195
30
0
41
1
10
111.889806256174
20
0.15249883966095
30
0
41
1
10
111.879095991476
20
0.158278081565754
30
0
41
1
10
111.844289469241
20
0.175467480459844
30
0
41
1
10
111.81752648825
20
0.18672980979656
30
0
41
1
10
111.787266410413
20
0.197798280404896
30
0
0
SPLINE
5
193
100
AcDbEntity
8
1
62
256
6
ByLayer
370
18
48
1
60
0
100
AcDbSpline
70
4
71
3
72
33
73
29
40
0
40
0
40
0
40
0
40
0.0625000000000542
40
0.0625000000000542
40
0.0937500000000673
40
0.0937500000000673
40
0.12500000000008
40
0.156250000000093
40
0.156250000000093
40
0.187500000000106
40
0.187500000000106
40
0.250000000000087
40
0.250000000000087
40
0.281250000000077
40
0.281250000000077
40
0.312500000000068
40
0.312500000000068
40
0.375000000000049
40
0.375000000000049
40
0.43750000000003
40
0.43750000000003
40
0.500000000000011
40
0.500000000000011
40
0.625000000000018
40
0.625000000000018
40
0.750000000000026
40
0.750000000000026
40
1
40
1
40
1
40
1
41
1
10
111.580298306005
20
0.506231768334828
30
0
41
1
10
111.581925222183
20
0.493356633219378
30
0
41
1
10
111.584211835908
20
0.480310033301947
30
0
41
1
10
111.588687776966
20
0.460464719649565
30
0
41
1
10
111.590372706138
20
0.453742050598919
30
0
41
1
10
111.594004563764
20
0.440568498665812
30
0
41
1
10
111.597891306665
20
0.427661399431088
30
0
41
1
10
111.602238957616
20
0.415242658637652
30
0
41
1
10
111.606798112468
20
0.403051919233718
30
0
41
1
10
111.609183267986
20
0.397077325168112
30
0
41
1
10
111.616428596405
20
0.379926263009082
30
0
41
1
10
111.621441680574
20
0.36933611015678
30
0
41
1
10
111.629145661916
20
0.354421458190018
30
0
41
1
10
111.631755023396
20
0.349596401629896
30
0
41
1
10
111.63695255888
20
0.340368258756399
30
0
41
1
10
111.639545673226
20
0.335953869875851
30
0
41
1
10
111.647304317411
20
0.323224645079506
30
0
41
1
10
111.652449008603
20
0.315419585068128
30
0
41
1
10
111.662667951941
20
0.300871019597651
30
0
41
1
10
111.667750076025
20
0.294120255704286
30
0
41
1
10
111.677799916438
20
0.281537867921685
30
0
41
1
10
111.682721056364
20
0.275763108511598
30
0
41
1
10
111.697205116427
20
0.259679149682143
30
0
41
1
10
111.706490363369
20
0.250594691848534
30
0
41
1
10
111.724412679581
20
0.234770705458516
30
0
41
1
10
111.733048444073
20
0.228043281724069
30
0
41
1
10
111.758049956393
20
0.210660771396022
30
0
41
1
10
111.773272753621
20
0.20291685213175
30
0
41
1
10
111.787266410413
20
0.197798280403788
30
0
0
SPLINE
5
194
100
AcDbEntity
8
1
62
256
6
ByLayer
370
18
48
1
60
0
100
AcDbSpline
70
4
71
3
72
40
73
36
40
0
40
0
40
0
40
0
40
0.0205047780609408
40
0.048475252769049
40
0.0841170723558391
40
0.120131593210161
40
0.159754394869635
40
0.192170194528131
40
0.238985259268171
40
0.278501416420159
40
0.328589670631262
40
0.342855529907085
40
0.351805374518479
40
0.380859618774074
40
0.407572447273091
40
0.410792369394851
40
0.411631670667426
40
0.411842670741813
40
0.412108380602658
40
0.412340917254651
40
0.413305934497992
40
0.415771183607484
40
0.417506679848923
40
0.435783471886643
40
0.481922727477576
40
0.529125888140779
40
0.583818633144251
40
0.666683577662683
40
0.722252125636384
40
0.778000501983929
40
0.805921386877883
40
0.833851528379425
40
0.917385725646462
40
0.97239029956456
40
1
40
1
40
1
40
1
41
1
10
104.235239431497
20
3.38244948986065
30
0
41
1
10
104.291113486724
20
3.40565240264186
30
0
41
1
10
104.422105754789
20
3.45242968929787
30
0
41
1
10
104.645916028013
20
3.50644098176667
30
0
41
1
10
104.90798445111
20
3.53649397996307
30
0
41
1
10
105.198979071286
20
3.53440858204632
30
0
41
1
10
105.484637572149
20
3.50356055492443
30
0
41
1
10
105.802551399793
20
3.44526202698074
30
0
41
1
10
106.123739911496
20
3.36083570036473
30
0
41
1
10
106.496557821693
20
3.23439971578645
30
0
41
1
10
106.783158642172
20
3.11672736853981
30
0
41
1
10
106.986230532326
20
3.02429703258923
30
0
41
1
10
107.131314367296
20
2.95624930460949
30
0
41
1
10
107.311289950549
20
2.86753924937835
30
0
41
1
10
107.474805458751
20
2.78174506639726
30
0
41
1
10
107.559868417686
20
2.73580636312258
30
0
41
1
10
107.571680195275
20
2.72942801181566
30
0
41
1
10
107.575285110873
20
2.72741341143165
30
0
41
1
10
107.577363583701
20
2.72647397286198
30
0
41
1
10
107.581534528215
20
2.7244210261731
30
0
41
1
10
107.592038667326
20
2.7193650268396
30
0
41
1
10
107.606793580294
20
2.71216758559109
30
0
41
1
10
107.67105340693
20
2.68085539771008
30
0
41
1
10
107.859098071923
20
2.58745360278002
30
0
41
1
10
108.174301491396
20
2.42494408779856
30
0
41
1
10
108.586509250867
20
2.2041469423703
30
0
41
1
10
109.08969439071
20
1.92715864739441
30
0
41
1
10
109.593596501447
20
1.64461127594262
30
0
41
1
10
110.067299795927
20
1.37624686444548
30
0
41
1
10
110.383504940896
20
1.19532743679022
30
0
41
1
10
110.620361879856
20
1.05888966201309
30
0
41
1
10
110.901431209716
20
0.896377422154103
30
0
41
1
10
111.199820644971
20
0.722892319035225
30
0
41
1
10
111.443790297598
20
0.582746375040642
30
0
41
1
10
111.547645303802
20
0.524385381903215
30
0
41
1
10
111.580298306009
20
0.506231768332668
30
0
0
SPLINE
5
195
100
AcDbEntity
8
1
62
256
6
ByLayer
370
18
48
1
60
0
100
AcDbSpline
70
4
71
1
72
4
73
2
40
0
40
0
40
1
40
1
41
1
10
104.135204298977
20
3.15387337654812
30
0
41
1
10
104.235239431497
20
3.38244948986065
30
0
0
SPLINE
5
196
100
AcDbEntity
8
1
62
256
6
ByLayer
370
18
48
1
60
0
100
AcDbSpline
70
4
71
3
72
8
73
4
40
0
40
0
40
0
40
0
40
1
40
1
40
1
40
1
41
1
10
108.104348434298
20
2.13036231655801
30
0
41
1
10
108.099427887419
20
2.13313857355303
30
0
41
1
10
108.094480374733
20
2.13586920992509
30
0
41
1
10
108.089507998122
20
2.13855359284389
30
0
0
SPLINE
5
197
100
AcDbEntity
8
1
62
256
6
ByLayer
370
18
48
1
60
0
100
AcDbSpline
70
4
71
3
72
14
73
10
40
0
40
0
40
0
40
0
40
0.499999999999996
40
0.499999999999996
40
0.624999999999997
40
0.624999999999997
40
0.749999999999998
40
0.749999999999998
40
1
40
1
40
1
40
1
41
1
10
111.761962621903
20
0.0741562906723914
30
0
41
1
10
111.832836227001
20
0.0517313442628051
30
0
41
1
10
111.888244173259
20
0.0294078144781906
30
0
41
1
10
111.937908988949
20
0.0016318979464813
30
0
41
1
10
111.946859109305
20
-0.0039189482051825
30
0
41
1
10
111.962727376467
20
-0.0149763078846377
30
0
41
1
10
111.969652773874
20
-0.0204864522620767
30
0
41
1
10
111.987398833853
20
-0.0369612069094956
30
0
41
1
10
111.99519279025
20
-0.0478702016482941
30
0
41
1
10
111.998934962038
20
-0.0587047451056435
30
0
0
SPLINE
5
198
100
AcDbEntity
8
1
62
256
6
ByLayer
370
18
48
1
60
0
100
AcDbSpline
70
4
71
3
72
8
73
4
40
0
40
0
40
0
40
0
40
1
40
1
40
1
40
1
41
1
10
111.999449854217
20
-0.0593862926161535
30
0
41
1
10
111.999323272207
20
-0.0591590840939773
30
0
41
1
10
111.999151627645
20
-0.0589319015984415
30
0
41
1
10
111.998934962038
20
-0.0587047451055582
30
0
0
SPLINE
5
199
100
AcDbEntity
8
1
62
256
6
ByLayer
370
18
48
1
60
0
100
AcDbSpline
70
4
71
3
72
8
73
4
40
0
40
0
40
0
40
0
40
1
40
1
40
1
40
1
41
1
10
111.976031114263
20
0.0611800266117086
30
0
41
1
10
111.974074978693
20
0.074872289750715
30
0
41
1
10
111.967412979829
20
0.0884072682703163
30
0
41
1
10
111.956084882401
20
0.101786291231804
30
0
0
SPLINE
5
19A
100
AcDbEntity
8
1
62
256
6
ByLayer
370
18
48
1
60
0
100
AcDbSpline
70
4
71
3
72
8
73
4
40
0
40
0
40
0
40
0
40
1
40
1
40
1
40
1
41
1
10
111.550182324752
20
0.0717703049009231
30
0
41
1
10
111.620741560087
20
0.0725734284556836
30
0
41
1
10
111.691337905221
20
0.07336809310641
30
0
41
1
10
111.761962621902
20
0.0741562906725051
30
0
0
SPLINE
5
19B
100
AcDbEntity
8
1
62
256
6
ByLayer
370
18
48
1
60
0
100
AcDbSpline
70
4
71
3
72
8
73
4
40
0
40
0
40
0
40
0
40
1
40
1
40
1
40
1
41
1
10
111.66061077125
20
0.130811126822039
30
0
41
1
10
111.697272443854
20
0.110299073391218
30
0
41
1
10
111.731055779173
20
0.0914322856925196
30
0
41
1
10
111.761962621903
20
0.0741562906723061
30
0
0
SPLINE
5
19C
100
AcDbEntity
8
1
62
256
6
ByLayer
370
18
48
1
60
0
100
AcDbSpline
70
4
71
3
72
10
73
6
40
0
40
0
40
0
40
0
40
0.120771949038848
40
0.773579679850648
40
1
40
1
40
1
40
1
41
1
10
111.291026203551
20
0.338598672589683
30
0
41
1
10
111.308426910009
20
0.328815661738673
30
0
41
1
10
111.41799758519
20
0.267212926091219
30
0
41
1
10
111.543741973545
20
0.196517008790352
30
0
41
1
10
111.637574747597
20
0.143762421325135
30
0
41
1
10
111.66061077125
20
0.130811126822067
30
0
0
SPLINE
5
19D
100
AcDbEntity
8
1
62
256
6
ByLayer
370
18
48
1
60
0
100
AcDbSpline
70
4
71
3
72
51
73
47
40
0
40
0
40
0
40
0
40
0.0097397429837434
40
0.0204023257287465
40
0.0319926846897374
40
0.0445161984276637
40
0.0579787029711635
40
0.0723865122364424
40
0.0877464338018025
40
0.104065284356762
40
0.121349463800185
40
0.139605409557016
40
0.158839613881158
40
0.179058602705243
40
0.200268921774754
40
0.222477132142517
40
0.245689817401071
40
0.269913605360732
40
0.295155207239309
40
0.321421437369726
40
0.348717394955716
40
0.377045095201841
40
0.406405367136782
40
0.436798001608658
40
0.468221760213866
40
0.500674392289634
40
0.551361489948336
40
0.609984726672343
40
0.676540207347189
40
0.750990963377596
40
0.763060602036342
40
0.775598499008053
40
0.788604066070036
40
0.802076675623257
40
0.816015917535444
40
0.830421421735478
40
0.845292772016346
40
0.860629501007256
40
0.876431085054558
40
0.892696939078118
40
0.909426411493361
40
0.926618779303722
40
0.944273243484978
40
0.962388924799843
40
0.980964860200926
40
1
40
1
40
1
40
1
41
1
10
108.728261085993
20
1.77943436701668
30
0
41
1
10
108.73817796949
20
1.77387422985944
30
0
41
1
10
108.758951360291
20
1.7622271330554
30
0
41
1
10
108.79147104736
20
1.74398407052053
30
0
41
1
10
108.826769574923
20
1.72417595365411
30
0
41
1
10
108.864842803555
20
1.7028041275214
30
0
41
1
10
108.905690412791
20
1.67986903940718
30
0
41
1
10
108.949308685793
20
1.65537266975875
30
0
41
1
10
108.995691641649
20
1.62931838545299
30
0
41
1
10
109.044829309381
20
1.60171176415309
30
0
41
1
10
109.096707290137
20
1.57256088304177
30
0
41
1
10
109.151305870311
20
1.5418768052252
30
0
41
1
10
109.208600030395
20
1.50967357945271
30
0
41
1
10
109.268558801873
20
1.4759686011507
30
0
41
1
10
109.331144585313
20
1.44078299669445
30
0
41
1
10
109.396312420605
20
1.40414203412519
30
0
41
1
10
109.464009240291
20
1.36607554346671
30
0
41
1
10
109.534173034369
20
1.32661838656102
30
0
41
1
10
109.606732157122
20
1.2858108475254
30
0
41
1
10
109.681601942453
20
1.24370053449005
30
0
41
1
10
109.758683690443
20
1.20034295717352
30
0
41
1
10
109.837865506173
20
1.15580100779167
30
0
41
1
10
109.919017525409
20
1.11014782778449
30
0
41
1
10
110.001993548093
20
1.06346520141653
30
0
41
1
10
110.086630532988
20
1.01584654027076
30
0
41
1
10
110.187965999811
20
0.958823178294011
30
0
41
1
10
110.310818438939
20
0.889724038517045
30
0
41
1
10
110.458801488762
20
0.806557287785807
30
0
41
1
10
110.620579286704
20
0.715683562796045
30
0
41
1
10
110.73894320048
20
0.649236559556556
30
0
41
1
10
110.813094345234
20
0.607609547826371
30
0
41
1
10
110.840985296814
20
0.591944391750104
30
0
41
1
10
110.869627301593
20
0.57585213762664
30
0
41
1
10
110.898983505114
20
0.559352900436835
30
0
41
1
10
110.929016363874
20
0.542467984622874
30
0
41
1
10
110.959686846516
20
0.525219307145136
30
0
41
1
10
110.990954026238
20
0.507629916269622
30
0
41
1
10
111.022774998124
20
0.489723956026609
30
0
41
1
10
111.055104832163
20
0.471526715524817
30
0
41
1
10
111.087896398007
20
0.45306472013641
30
0
41
1
10
111.121100738593
20
0.434365524957002
30
0
41
1
10
111.154665280501
20
0.415458711803808
30
0
41
1
10
111.188540450033
20
0.396372200905034
30
0
41
1
10
111.222653632819
20
0.377146767110219
30
0
41
1
10
111.257009810917
20
0.357779937978904
30
0
41
1
10
111.279595487672
20
0.345044258905034
30
0
41
1
10
111.29102620355
20
0.33859867258991
30
0
0
SPLINE
5
19E
100
AcDbEntity
8
1
62
256
6
ByLayer
370
18
48
1
60
0
100
AcDbSpline
70
4
71
3
72
9
73
5
40
0
40
0
40
0
40
0
40
0.639375941092337
40
1
40
1
40
1
40
1
41
1
10
108.177313245316
20
2.08918779583593
30
0
41
1
10
108.29350125551
20
2.02386466558312
30
0
41
1
10
108.476650403294
20
1.9208947070814
30
0
41
1
10
108.661487507814
20
1.81697575066835
30
0
41
1
10
108.728261088759
20
1.77943436546173
30
0
0
SPLINE
5
19F
100
AcDbEntity
8
1
62
256
6
ByLayer
370
18
48
1
60
0
100
AcDbSpline
70
4
71
3
72
8
73
4
40
0
40
0
40
0
40
0
40
1
40
1
40
1
40
1
41
1
10
108.104348434299
20
2.13036231655752
30
0
41
1
10
108.128656297757
20
2.11664740282549
30
0
41
1
10
108.152977229288
20
2.10292153318019
30
0
41
1
10
108.177313245312
20
2.08918779583814
30
0
0
SPLINE
5
1A0
100
AcDbEntity
8
1
62
256
6
ByLayer
370
18
48
1
60
0
100
AcDbSpline
70
4
71
3
72
10
73
6
40
0
40
0
40
0
40
0
40
0.5
40
0.5
40
1
40
1
40
1
40
1
41
1
10
109.023509503542
20
0.314179511970821
30
0
41
1
10
109.07729427041
20
0.233173441324112
30
0
41
1
10
109.129789310306
20
0.151041832206687
30
0
41
1
10
109.231484681479
20
-0.0160966622577803
30
0
41
1
10
109.280697749707
20
-0.101092432129974
30
0
41
1
10
109.327655290548
20
-0.188056589810742
30
0
0
SPLINE
5
1A1
100
AcDbEntity
8
1
62
256
6
ByLayer
370
18
48
1
60
0
100
AcDbSpline
70
4
71
3
72
8
73
4
40
0
40
0
40
0
40
0
40
1
40
1
40
1
40
1
41
1
10
109.206520130857
20
0.319591264402334
30
0
41
1
10
109.145757203955
20
0.317601436586273
30
0
41
1
10
109.084652744111
20
0.315800662742419
30
0
41
1
10
109.023509503542
20
0.314179511970849
30
0
0
SPLINE
5
1A2
100
AcDbEntity
8
1
62
256
6
ByLayer
370
18
48
1
60
0
100
AcDbSpline
70
4
71
3
72
8
73
4
40
0
40
0
40
0
40
0
40
1
40
1
40
1
40
1
41
1
10
108.878565510319
20
0.668867488544066
30
0
41
1
10
108.985309701151
20
0.55021113556586
30
0
41
1
10
109.094400478927
20
0.43347675210353
30
0
41
1
10
109.206520130864
20
0.319591264409979
30
0
0
SPLINE
5
1A3
100
AcDbEntity
8
1
62
256
6
ByLayer
370
18
48
1
60
0
100
AcDbSpline
70
4
71
3
72
30
73
26
40
0
40
0
40
0
40
0
40
0.125
40
0.125
40
0.187499999999999
40
0.187499999999999
40
0.249999999999999
40
0.249999999999999
40
0.374999999999999
40
0.374999999999999
40
0.499999999999999
40
0.499999999999999
40
0.562499999999999
40
0.562499999999999
40
0.624999999999999
40
0.624999999999999
40
0.749999999999999
40
0.749999999999999
40
0.812499999999999
40
0.812499999999999
40
0.875
40
0.875
40
0.9375
40
0.9375
40
1
40
1
40
1
40
1
41
1
10
108.878561921516
20
0.668871477842714
30
0
41
1
10
108.830624750334
20
0.722158263327913
30
0
41
1
10
108.788376901287
20
0.778336894451058
30
0
41
1
10
108.731277695861
20
0.865259876465416
30
0
41
1
10
108.713303662095
20
0.894684098260313
30
0
41
1
10
108.679189412585
20
0.95420427351354
30
0
41
1
10
108.663028531354
20
0.984342940666323
30
0
41
1
10
108.617031415969
20
1.07517390148874
30
0
41
1
10
108.590138794436
20
1.13529048163738
30
0
41
1
10
108.540994458595
20
1.25349955458356
30
0
41
1
10
108.518755536721
20
1.31159502823303
30
0
41
1
10
108.486984376864
20
1.39663621907843
30
0
41
1
10
108.476660265484
20
1.42463548169346
30
0
41
1
10
108.456227605792
20
1.47987007914688
30
0
41
1
10
108.446105770978
20
1.50714371307603
30
0
41
1
10
108.415682294535
20
1.5874044916599
30
0
41
1
10
108.395387153665
20
1.63880749782862
30
0
41
1
10
108.362053655265
20
1.71308886903444
30
0
41
1
10
108.350447855251
20
1.73738431362008
30
0
41
1
10
108.32545037076
20
1.78522199991701
30
0
41
1
10
108.312054343745
20
1.80876358816076
30
0
41
1
10
108.282388087633
20
1.85540311663516
30
0
41
1
10
108.266081753916
20
1.87850844799786
30
0
41
1
10
108.229756489584
20
1.92464692671623
30
0
41
1
10
108.209919843823
20
1.94744372974054
30
0
41
1
10
108.188781054956
20
1.97001990449897
30
0
0
SPLINE
5
1A4
100
AcDbEntity
8
1
62
256
6
ByLayer
370
18
48
1
60
0
100
AcDbSpline
70
4
71
3
72
8
73
4
40
0
40
0
40
0
40
0
40
1
40
1
40
1
40
1
41
1
10
104.135104134955
20
3.15330363054389
30
0
41
1
10
104.134069522241
20
3.15283016063515
30
0
41
1
10
104.133034810179
20
3.15235607194162
30
0
41
1
10
104.132
20
3.15188136376835
30
0
0
SPLINE
5
1A5
100
AcDbEntity
8
1
62
256
6
ByLayer
370
18
48
1
60
0
100
AcDbSpline
70
4
71
3
72
8
73
4
40
0
40
0
40
0
40
0
40
1
40
1
40
1
40
1
41
1
10
108.089507998124
20
2.13855359284284
30
0
41
1
10
108.060778525043
20
2.15397223115994
30
0
41
1
10
108.031048812486
20
2.16762291962303
30
0
41
1
10
108.000844653536
20
2.1790654165662
30
0
0
SPLINE
5
1A6
100
AcDbEntity
8
1
62
256
6
ByLayer
370
18
48
1
60
0
100
AcDbSpline
70
4
71
3
72
30
73
26
40
0
40
0
40
0
40
0
40
0.0431778116812647
40
0.102076468667112
40
0.177129013470194
40
0.252966371700423
40
0.336401845288688
40
0.404661218250072
40
0.50324175607321
40
0.586452663638504
40
0.691925700281121
40
0.721965946678922
40
0.740812027531827
40
0.801992825650252
40
0.858243201780954
40
0.865023533203634
40
0.8667908867533
40
0.867235198876529
40
0.867794715799821
40
0.868284378440348
40
0.870316457630783
40
0.87550764094819
40
0.879162151602423
40
0.91764839526704
40
1
40
1
40
1
40
1
41
1
10
104.135204298977
20
3.15387337654812
30
0
41
1
10
104.192948046664
20
3.17787247326146
30
0
41
1
10
104.328825533225
20
3.22598836095133
30
0
41
1
10
104.561344831155
20
3.28004662621274
30
0
41
1
10
104.833740851136
20
3.30746649263744
30
0
41
1
10
105.135670747336
20
3.29990557709164
30
0
41
1
10
105.432419804636
20
3.26216410791596
30
0
41
1
10
105.762686203867
20
3.19524506549007
30
0
41
1
10
106.09524254707
20
3.10113387811154
30
0
41
1
10
106.480842616479
20
2.96269740743966
30
0
41
1
10
106.776444873783
20
2.83538695320394
30
0
41
1
10
106.985836242715
20
2.73604246767869
30
0
41
1
10
107.134941179055
20
2.66304319729383
30
0
41
1
10
107.31971669292
20
2.56817989946552
30
0
41
1
10
107.487392773685
20
2.47683818776
30
0
41
1
10
107.574651376752
20
2.42800861397518
30
0
41
1
10
107.586688215754
20
2.42124806147714
30
0
41
1
10
107.590497572114
20
2.41910691926498
30
0
41
1
10
107.592283372378
20
2.4181027855758
30
0
41
1
10
107.596125011438
20
2.41594300308452
30
0
41
1
10
107.605610012969
20
2.41061031271261
30
0
41
1
10
107.619100193249
20
2.40302589435387
30
0
41
1
10
107.677616695296
20
2.37012679419442
30
0
41
1
10
107.832770577571
20
2.28289631082728
30
0
41
1
10
107.985001334561
20
2.19730924815482
30
0
41
1
10
108.089507998122
20
2.13855359284389
30
0
0
SPLINE
5
1A7
100
AcDbEntity
8
1
62
256
6
ByLayer
370
18
48
1
60
0
100
AcDbSpline
70
4
71
1
72
4
73
2
40
0
40
0
40
1
40
1
41
1
10
104.135104134955
20
3.15330363054378
30
0
41
1
10
104.135204298977
20
3.15387337654812
30
0
0
SPLINE
5
1A8
100
AcDbEntity
8
1
62
256
6
ByLayer
370
18
48
1
60
0
100
AcDbSpline
70
4
71
3
72
18
73
14
40
0
40
0
40
0
40
0
40
0.125
40
0.125
40
0.25
40
0.25
40
0.500000000000001
40
0.500000000000001
40
0.625
40
0.625
40
0.75
40
0.75
40
1
40
1
40
1
40
1
41
1
10
104.135104134955
20
3.15330363054378
30
0
41
1
10
104.177307654287
20
3.17084615052866
30
0
41
1
10
104.219682458574
20
3.18657797607949
30
0
41
1
10
104.304847898587
20
3.214778270822
30
0
41
1
10
104.347499178783
20
3.22719900397098
30
0
41
1
10
104.47536336901
20
3.25980862409995
30
0
41
1
10
104.560687295508
20
3.27543428211021
30
0
41
1
10
104.689308818829
20
3.29116155079052
30
0
41
1
10
104.732287324027
20
3.295109454792
30
0
41
1
10
104.818523214683
20
3.30058659632684
30
0
41
1
10
104.86183237694
20
3.30211710240852
30
0
41
1
10
104.991808430793
20
3.30327617286693
30
0
41
1
10
105.078529151685
20
3.29948830639916
30
0
41
1
10
105.165603944858
20
3.29170274393178
30
0
0
SPLINE
5
1A9
100
AcDbEntity
8
1
62
256
6
ByLayer
370
18
48
1
60
0
100
AcDbSpline
70
4
71
3
72
8
73
4
40
0
40
0
40
0
40
0
40
1
40
1
40
1
40
1
41
1
10
108.188781054956
20
1.97001990449891
30
0
41
1
10
108.124668985374
20
2.03849113228247
30
0
41
1
10
108.061922860346
20
2.10819216101834
30
0
41
1
10
108.000844653542
20
2.17906541656822
30
0
0
SPLINE
5
1AA
100
AcDbEntity
8
1
62
256
6
ByLayer
370
18
48
1
60
0
100
AcDbSpline
70
4
71
3
72
29
73
25
40
0
40
0
40
0
40
0
40
0.0625000000000147
40
0.0625000000000147
40
0.125000000000029
40
0.125000000000029
40
0.250000000000059
40
0.250000000000059
40
0.281250000000061
40
0.281250000000061
40
0.312500000000063
40
0.375000000000066
40
0.375000000000066
40
0.500000000000075
40
0.500000000000075
40
0.625000000000083
40
0.625000000000083
40
0.687500000000077
40
0.687500000000077
40
0.75000000000007
40
0.75000000000007
40
0.875000000000035
40
0.875000000000035
40
1
40
1
40
1
40
1
41
1
10
105.165603944855
20
3.29170274393289
30
0
41
1
10
105.22351936601
20
3.28652438119252
30
0
41
1
10
105.281680608005
20
3.27987365688409
30
0
41
1
10
105.398344964071
20
3.26375035563501
30
0
41
1
10
105.45679352681
20
3.2542860604957
30
0
41
1
10
105.6325744686
20
3.22184329410823
30
0
41
1
10
105.750338610703
20
3.19483026262537
30
0
41
1
10
105.898557255855
20
3.154783352279
30
0
41
1
10
105.928264013913
20
3.14645525825992
30
0
41
1
10
105.98760391813
20
3.12923363885059
30
0
41
1
10
106.076567146375
20
3.10253633547404
30
0
41
1
10
106.165427365283
20
3.07332063484546
30
0
41
1
10
106.343105837889
20
3.01171149486154
30
0
41
1
10
106.46150229876
20
2.96640637455687
30
0
41
1
10
106.698681002498
20
2.86812204774267
30
0
41
1
10
106.817462210756
20
2.81514256551236
30
0
41
1
10
106.996300429545
20
2.73040093629768
30
0
41
1
10
107.056024300329
20
2.70127444793232
30
0
41
1
10
107.175761527929
20
2.6413254864963
30
0
41
1
10
107.235501881284
20
2.61064089551698
30
0
41
1
10
107.413943405787
20
2.51688281015322
30
0
41
1
10
107.53207673918
20
2.45199542981362
30
0
41
1
10
107.767205808188
20
2.3183082433348
30
0
41
1
10
107.884193698838
20
2.24948756419497
30
0
41
1
10
108.000844653537
20
2.17906541656794
30
0
0
SPLINE
5
1AB
100
AcDbEntity
8
1
62
256
6
ByLayer
370
18
48
1
60
0
100
AcDbSpline
70
4
71
3
72
8
73
4
40
0
40
0
40
0
40
0
40
1
40
1
40
1
40
1
41
1
10
104.135104134955
20
-0.616608618449646
30
0
41
1
10
104.134069522241
20
-0.616312820733668
30
0
41
1
10
104.133034810179
20
-0.616017880007746
30
0
41
1
10
104.132
20
-0.615723798566364
30
0
0
SPLINE
5
1AC
100
AcDbEntity
8
1
62
256
6
ByLayer
370
18
48
1
60
0
100
AcDbSpline
70
4
71
3
72
8
73
4
40
0
40
0
40
0
40
0
40
1
40
1
40
1
40
1
41
1
10
108.089507998113
20
-2.65758858033561
30
0
41
1
10
108.060778525032
20
-2.64931264194075
30
0
41
1
10
108.031048812476
20
-2.64257487970593
30
0
41
1
10
108.000844653527
20
-2.63770738421161
30
0
0
SPLINE
5
1AD
100
AcDbEntity
8
1
62
256
6
ByLayer
370
18
48
1
60
0
100
AcDbSpline
70
4
71
1
72
4
73
2
40
0
40
0
40
1
40
1
41
1
10
104.135104134955
20
-0.616608618449675
30
0
41
1
10
104.135204298977
20
-0.61582817079767
30
0
0
SPLINE
5
1AE
100
AcDbEntity
8
1
62
256
6
ByLayer
370
18
48
1
60
0
100
AcDbSpline
70
4
71
3
72
18
73
14
40
0
40
0
40
0
40
0
40
0.124999999999993
40
0.124999999999993
40
0.249999999999986
40
0.249999999999986
40
0.499999999999972
40
0.499999999999972
40
0.624999999999965
40
0.624999999999965
40
0.749999999999958
40
0.749999999999958
40
1
40
1
40
1
40
1
41
1
10
104.135104134955
20
-0.616608618449675
30
0
41
1
10
104.177307654287
20
-0.629098294062544
30
0
41
1
10
104.219682458574
20
-0.643213028260902
30
0
41
1
10
104.304847898587
20
-0.674221190837301
30
0
41
1
10
104.347499178783
20
-0.691066799567409
30
0
41
1
10
104.475363369011
20
-0.744837969053862
30
0
41
1
10
104.560687295508
20
-0.785040872958234
30
0
41
1
10
104.68930881883
20
-0.850141117182943
30
0
41
1
10
104.732287324027
20
-0.872648978093167
30
0
41
1
10
104.818523214683
20
-0.919064996040447
30
0
41
1
10
104.86183237694
20
-0.943003459343004
30
0
41
1
10
104.991808430792
20
-1.01637887740307
30
0
41
1
10
105.078529151682
20
-1.06735645569989
30
0
41
1
10
105.165603944855
20
-1.11975921913773
30
0
0
SPLINE
5
1AF
100
AcDbEntity
8
1
62
256
6
ByLayer
370
18
48
1
60
0
100
AcDbSpline
70
4
71
3
72
29
73
25
40
0
40
0
40
0
40
0
40
0.0624999999999799
40
0.0624999999999799
40
0.12499999999996
40
0.12499999999996
40
0.249999999999941
40
0.249999999999941
40
0.281249999999936
40
0.281249999999936
40
0.312499999999932
40
0.374999999999922
40
0.374999999999922
40
0.499999999999925
40
0.499999999999925
40
0.624999999999927
40
0.624999999999927
40
0.687499999999939
40
0.687499999999939
40
0.749999999999952
40
0.749999999999952
40
0.874999999999976
40
0.874999999999976
40
1
40
1
40
1
40
1
41
1
10
105.165603944855
20
-1.11975921913762
30
0
41
1
10
105.223519366009
20
-1.15461349796706
30
0
41
1
10
105.281680608005
20
-1.18973554787604
30
0
41
1
10
105.39834496407
20
-1.26028700593201
30
0
41
1
10
105.456793526809
20
-1.2956830327403
30
0
41
1
10
105.632574468598
20
-1.40207168592849
30
0
41
1
10
105.750338610701
20
-1.47326685402706
30
0
41
1
10
105.898557255853
20
-1.56207117465269
30
0
41
1
10
105.92826401391
20
-1.57982968397701
30
0
41
1
10
105.987603918127
20
-1.61520528348333
30
0
41
1
10
106.076567146373
20
-1.66809485985337
30
0
41
1
10
106.16542736528
20
-1.72041033699711
30
0
41
1
10
106.343105837885
20
-1.82413436141516
30
0
41
1
10
106.461502298756
20
-1.8920757115682
30
0
41
1
10
106.698681002493
20
-2.02475799371246
30
0
41
1
10
106.81746221075
20
-2.08950098508723
30
0
41
1
10
106.996300429537
20
-2.18358429853529
30
0
41
1
10
107.056024300321
20
-2.21443990556432
30
0
41
1
10
107.17576152792
20
-2.27502028490568
30
0
41
1
10
107.235501881276
20
-2.30460704363361
30
0
41
1
10
107.41394340578
20
-2.39089736915057
30
0
41
1
10
107.532076739173
20
-2.44523317437489
30
0
41
1
10
107.767205808181
20
-2.5469206153536
30
0
41
1
10
107.884193698831
20
-2.5942489392155
30
0
41
1
10
108.000844653529
20
-2.63770738420837
30
0
0
SPLINE
5
1B0
100
AcDbEntity
8
1
62
256
6
ByLayer
370
18
48
1
60
0
100
AcDbSpline
70
4
71
3
72
8
73
4
40
0
40
0
40
0
40
0
40
1
40
1
40
1
40
1
41
1
10
111.660610771228
20
-1.48047861393707
30
0
41
1
10
111.686181327275
20
-1.43213789045424
30
0
41
1
10
111.71035067276
20
-1.38281479083906
30
0
41
1
10
111.733121851366
20
-1.33252252821535
30
0
0
SPLINE
5
1B1
100
AcDbEntity
8
1
62
256
6
ByLayer
370
18
48
1
60
0
100
AcDbSpline
70
4
71
3
72
8
73
4
40
0
40
0
40
0
40
0
40
1
40
1
40
1
40
1
41
1
10
111.733121851369
20
-1.33252252820083
30
0
41
1
10
111.690733169406
20
-1.28956651567887
30
0
41
1
10
111.647957843112
20
-1.24592238236337
30
0
41
1
10
111.604782653818
20
-1.20156450512206
30
0
0
SPLINE
5
1B2
100
AcDbEntity
8
1
62
256
6
ByLayer
370
18
48
1
60
0
100
AcDbSpline
70
4
71
1
72
4
73
2
40
0
40
0
40
1
40
1
41
1
10
104.135204298977
20
-0.61582817079767
30
0
41
1
10
104.235239431497
20
-0.220382178613306
30
0
0
SPLINE
5
1B3
100
AcDbEntity
8
1
62
256
6
ByLayer
370
18
48
1
60
0
100
AcDbSpline
70
4
71
3
72
30
73
26
40
0
40
0
40
0
40
0
40
0.0431778116811994
40
0.102076468666432
40
0.177129013470289
40
0.252966371700636
40
0.336401845288965
40
0.40466121825125
40
0.503241756073572
40
0.586452663638245
40
0.691925700281111
40
0.7219659466791
40
0.740812027532328
40
0.801992825652173
40
0.858243201780532
40
0.865023533202943
40
0.866790886752574
40
0.867235198875805
40
0.867794715799057
40
0.868284378439526
40
0.870316457629957
40
0.875507640947245
40
0.879162151601399
40
0.91764839526756
40
1
40
1
40
1
40
1
41
1
10
104.135204298977
20
-0.61582817079767
30
0
41
1
10
104.192948046664
20
-0.632921363420678
30
0
41
1
10
104.328825533224
20
-0.680151699818595
30
0
41
1
10
104.561344831158
20
-0.782091213066366
30
0
41
1
10
104.833740851136
20
-0.923812390438769
30
0
41
1
10
105.135670747334
20
-1.0999477084784
30
0
41
1
10
105.432419804641
20
-1.28044878130956
30
0
41
1
10
105.76268620386
20
-1.48007243796391
30
0
41
1
10
106.095242547069
20
-1.67942269045113
30
0
41
1
10
106.480842616485
20
-1.9035107246327
30
0
41
1
10
106.776444873777
20
-2.06734556521658
30
0
41
1
10
106.985836242718
20
-2.17747280192313
30
0
41
1
10
107.134941179055
20
-2.25427318581615
30
0
41
1
10
107.319716692915
20
-2.34595196707201
30
0
41
1
10
107.487392773685
20
-2.42382847460308
30
0
41
1
10
107.574651376757
20
-2.46269486469788
30
0
41
1
10
107.586688215758
20
-2.46802527365313
30
0
41
1
10
107.590497572119
20
-2.46970928209973
30
0
41
1
10
107.592283372382
20
-2.47049844025213
30
0
41
1
10
107.596125011443
20
-2.4721925377132
30
0
41
1
10
107.605610012972
20
-2.47636758257016
30
0
41
1
10
107.619100193255
20
-2.48225011375524
30
0
41
1
10
107.6776166953
20
-2.50754182641236
30
0
41
1
10
107.832770577575
20
-2.57134249404561
30
0
41
1
10
107.985001334558
20
-2.62500269928637
30
0
41
1
10
108.089507998114
20
-2.65758858033632
30
0
0
SPLINE
5
1B4
100
AcDbEntity
8
1
62
256
6
ByLayer
370
18
48
1
60
0
100
AcDbSpline
70
4
71
3
72
8
73
4
40
0
40
0
40
0
40
0
40
1
40
1
40
1
40
1
41
1
10
108.104348434297
20
-2.6620080617987
30
0
41
1
10
108.099427887415
20
-2.66048091417423
30
0
41
1
10
108.094480374726
20
-2.65900771687953
30
0
41
1
10
108.089507998111
20
-2.65758858033536
30
0
0
SPLINE
5
1B5
100
AcDbEntity
8
1
62
256
6
ByLayer
370
18
48
1
60
0
100
AcDbSpline
70
4
71
3
72
8
73
4
40
0
40
0
40
0
40
0
40
1
40
1
40
1
40
1
41
1
10
108.104348434298
20
-2.66200806179896
30
0
41
1
10
108.128656297789
20
-2.66955228338074
30
0
41
1
10
108.152977229351
20
-2.67687604010274
30
0
41
1
10
108.177313245408
20
-2.68397444679337
30
0
0
SPLINE
5
1B6
100
AcDbEntity
8
1
62
256
6
ByLayer
370
18
48
1
60
0
100
AcDbSpline
70
4
71
3
72
9
73
5
40
0
40
0
40
0
40
0
40
0.639375944179743
40
1
40
1
40
1
40
1
41
1
10
108.177313245402
20
-2.68397444679184
30
0
41
1
10
108.293501255567
20
-2.71757701858303
30
0
41
1
10
108.476650402423
20
-2.76239744711751
30
0
41
1
10
108.661487506005
20
-2.79432601900885
30
0
41
1
10
108.72826108604
20
-2.80408286834154
30
0
0
SPLINE
5
1B7
100
AcDbEntity
8
1
62
256
6
ByLayer
370
18
48
1
60
0
100
AcDbSpline
70
4
71
3
72
51
73
47
40
0
40
0
40
0
40
0
40
0.0097397429950803
40
0.0204023257490497
40
0.0319926847166035
40
0.0445161984586747
40
0.057978703003889
40
0.072386512268423
40
0.0877464338305516
40
0.104065284379734
40
0.121349463814826
40
0.139605409560731
40
0.15883961387134
40
0.179058602679226
40
0.200268921729828
40
0.22247713207595
40
0.245689817310094
40
0.269913605242524
40
0.295155207091009
40
0.321421437188428
40
0.348717394738503
40
0.377045094945833
40
0.406405366839186
40
0.436798001266711
40
0.468221759824923
40
0.500674391851149
40
0.551361489677496
40
0.609984726494285
40
0.676540207186333
40
0.750990963157691
40
0.763060601836606
40
0.775598498827624
40
0.788604065908061
40
0.802076675478892
40
0.816015917407834
40
0.830421421623739
40
0.845292771919632
40
0.860629500924712
40
0.876431084985319
40
0.892696939021336
40
0.909426411448166
40
0.926618779269263
40
0.944273243460405
40
0.962388924784309
40
0.980964860193586
40
1
40
1
40
1
40
1
41
1
10
108.728261086091
20
-2.80408286834896
30
0
41
1
10
108.738177969599
20
-2.80549226598802
30
0
41
1
10
108.75895136042
20
-2.80844460156368
30
0
41
1
10
108.791471047516
20
-2.81273918536269
30
0
41
1
10
108.826769575098
20
-2.81710838507232
30
0
41
1
10
108.864842803742
20
-2.82144634099299
30
0
41
1
10
108.905690412982
20
-2.8256724552428
30
0
41
1
10
108.949308685981
20
-2.82968855844504
30
0
41
1
10
108.995691641826
20
-2.83339114906235
30
0
41
1
10
109.044829309539
20
-2.8366685290971
30
0
41
1
10
109.096707290269
20
-2.83940290302092
30
0
41
1
10
109.151305870409
20
-2.84146792899679
30
0
41
1
10
109.208600030452
20
-2.8427290520502
30
0
41
1
10
109.26855880188
20
-2.84304310184456
30
0
41
1
10
109.331144585264
20
-2.84225807462144
30
0
41
1
10
109.396312420492
20
-2.84021283503142
30
0
41
1
10
109.464009240107
20
-2.83673685707834
30
0
41
1
10
109.534173034107
20
-2.83164980263391
30
0
41
1
10
109.606732156774
20
-2.82476166316647
30
0
41
1
10
109.681601942013
20
-2.81587083572211
30
0
41
1
10
109.758683689906
20
-2.80477251671769
30
0
41
1
10
109.837865505533
20
-2.79126492567576
30
0
41
1
10
109.91901752466
20
-2.77513677035788
30
0
41
1
10
110.001993547233
20
-2.75617035096894
30
0
41
1
10
110.086630532012
20
-2.734137814533
30
0
41
1
10
110.187965998916
20
-2.70433622116585
30
0
41
1
10
110.310818438246
20
-2.6625792356011
30
0
41
1
10
110.458801488318
20
-2.60291544198225
30
0
41
1
10
110.620579286314
20
-2.5251138757142
30
0
41
1
10
110.738943200086
20
-2.45697698544421
30
0
41
1
10
110.813094344834
20
-2.40964526328997
30
0
41
1
10
110.840985296461
20
-2.39132962225887
30
0
41
1
10
110.869627301283
20
-2.37195978224221
30
0
41
1
10
110.898983504845
20
-2.3514968783652
30
0
41
1
10
110.929016363644
20
-2.32990196683733
30
0
41
1
10
110.959686846322
20
-2.30713543938003
30
0
41
1
10
110.990954026078
20
-2.28315691446059
30
0
41
1
10
111.022774997995
20
-2.25792542188978
30
0
41
1
10
111.055104832062
20
-2.23139947725187
30
0
41
1
10
111.087896397932
20
-2.20353704824186
30
0
41
1
10
111.121100738542
20
-2.17429606304546
30
0
41
1
10
111.154665280471
20
-2.14363278946155
30
0
41
1
10
111.188540450021
20
-2.11150851316032
30
0
41
1
10
111.222653632824
20
-2.07786399410398
30
0
41
1
10
111.257009810936
20
-2.04271893655593
30
0
41
1
10
111.2795954877
20
-2.01839414598814
30
0
41
1
10
111.291026203582
20
-2.00608325653431
30
0
0
SPLINE
5
1B8
100
AcDbEntity
8
1
62
256
6
ByLayer
370
18
48
1
60
0
100
AcDbSpline
70
4
71
3
72
10
73
6
40
0
40
0
40
0
40
0
40
0.120771948984873
40
0.773579679890559
40
1
40
1
40
1
40
1
41
1
10
111.291026203582
20
-2.00608325653388
30
0
41
1
10
111.30842691003
20
-1.98708841634596
30
0
41
1
10
111.4179975852
20
-1.86364321631299
30
0
41
1
10
111.543741973537
20
-1.68966012326456
30
0
41
1
10
111.637574747582
20
-1.5239538794396
30
0
41
1
10
111.660610771228
20
-1.48047861393707
30
0
0
SPLINE
5
1B9
100
AcDbEntity
8
1
62
256
6
ByLayer
370
18
48
1
60
0
100
AcDbSpline
70
4
71
3
72
8
73
4
40
0
40
0
40
0
40
0
40
1
40
1
40
1
40
1
41
1
10
111.604782653207
20
-1.20156449413059
30
0
41
1
10
111.513255894013
20
-1.09097504513014
30
0
41
1
10
111.421889420591
20
-0.980692161199954
30
0
41
1
10
111.330722969031
20
-0.870791110571219
30
0
0
SPLINE
5
1BA
100
AcDbEntity
8
1
62
256
6
ByLayer
370
18
48
1
60
0
100
AcDbSpline
70
4
71
3
72
31
73
27
40
0
40
0
40
0
40
0
40
0.125000000000002
40
0.125000000000002
40
0.250000000000004
40
0.250000000000004
40
0.281250000000012
40
0.281250000000012
40
0.31250000000002
40
0.375000000000019
40
0.375000000000019
40
0.500000000000019
40
0.500000000000019
40
0.562500000000018
40
0.562500000000018
40
0.593750000000018
40
0.593750000000018
40
0.625000000000018
40
0.749999999999998
40
0.749999999999998
40
0.874999999999978
40
0.874999999999978
40
0.906249999999983
40
0.906249999999983
40
0.937499999999989
40
1
40
1
40
1
40
1
41
1
10
111.330722969031
20
-0.870791110571219
30
0
41
1
10
111.280941359392
20
-0.96272213615967
30
0
41
1
10
111.225697011799
20
-1.04868218310787
30
0
41
1
10
111.104367318789
20
-1.20875265745914
30
0
41
1
10
111.038240213455
20
-1.282817439697
30
0
41
1
10
110.948325532015
20
-1.36746755465336
30
0
41
1
10
110.929969596224
20
-1.3840019190593
30
0
41
1
10
110.892813598342
20
-1.41599550971341
30
0
41
1
10
110.83630663853
20
-1.46247705458677
30
0
41
1
10
110.777493157103
20
-1.50445621748199
30
0
41
1
10
110.656817985923
20
-1.58246437217679
30
0
41
1
10
110.572341554413
20
-1.62661034669401
30
0
41
1
10
110.439438753809
20
-1.68074989421197
30
0
41
1
10
110.394091320944
20
-1.69675361986299
30
0
41
1
10
110.324469419522
20
-1.71763450424928
30
0
41
1
10
110.30094677245
20
-1.72408644445068
30
0
41
1
10
110.253634623643
20
-1.73587431835119
30
0
41
1
10
110.134755982231
20
-1.76254201210304
30
0
41
1
10
110.012927336402
20
-1.775393378459
30
0
41
1
10
109.814372735001
20
-1.77896025184245
30
0
41
1
10
109.71327024552
20
-1.77219542819648
30
0
41
1
10
109.584602888947
20
-1.75301773517649
30
0
41
1
10
109.558742127726
20
-1.74864197842868
30
0
41
1
10
109.507176842286
20
-1.73887814551412
30
0
41
1
10
109.429920602389
20
-1.72269507813618
30
0
41
1
10
109.352936459611
20
-1.70194981494498
30
0
41
1
10
109.301732252114
20
-1.68613186329298
30
0
0
SPLINE
5
1BB
100
AcDbEntity
8
1
62
256
6
ByLayer
370
18
48
1
60
0
100
AcDbSpline
70
4
71
1
72
4
73
2
40
0
40
0
40
1
40
1
41
1
10
104.235239431497
20
-0.220382178613306
30
0
41
1
10
104.526614498483
20
0.642165788784837
30
0
0
SPLINE
5
1BC
100
AcDbEntity
8
1
62
256
6
ByLayer
370
18
48
1
60
0
100
AcDbSpline
70
4
71
3
72
40
73
36
40
0
40
0
40
0
40
0
40
0.0203619686649274
40
0.0481376377237142
40
0.0835312231328751
40
0.119294914060954
40
0.158641755241622
40
0.190831788947078
40
0.237320801334518
40
0.276561740753173
40
0.326301145866469
40
0.340467647873538
40
0.349355159603485
40
0.378207050093201
40
0.404733832056418
40
0.407931328422846
40
0.40876478422332
40
0.408974314747874
40
0.409238174022236
40
0.40946909112881
40
0.410427387327462
40
0.412875466744292
40
0.414598875794639
40
0.432748375666174
40
0.478566285706777
40
0.525440691051253
40
0.57975251811032
40
0.662040334085272
40
0.71722186442182
40
0.772581970682446
40
0.800308395304726
40
0.828044012065321
40
0.910996419652951
40
0.96561790383674
40
1
40
1
40
1
40
1
41
1
10
104.235239431497
20
-0.220382178613306
30
0
41
1
10
104.291113486724
20
-0.236907943464217
30
0
41
1
10
104.422105754786
20
-0.282776911170373
30
0
41
1
10
104.64591602801
20
-0.382688730945034
30
0
41
1
10
104.907984451112
20
-0.522452533488547
30
0
41
1
10
105.198979071287
20
-0.697098635829974
30
0
41
1
10
105.484637572152
20
-0.876657484112854
30
0
41
1
10
105.802551399795
20
-1.07591747483545
30
0
41
1
10
106.123739911504
20
-1.27584899639837
30
0
41
1
10
106.496557821681
20
-1.50175547627558
30
0
41
1
10
106.783158642177
20
-1.66799941514913
30
0
41
1
10
106.986230532325
20
-1.78036013690436
30
0
41
1
10
107.131314367299
20
-1.85889474495622
30
0
41
1
10
107.311289950555
20
-1.95298076164431
30
0
41
1
10
107.47480545875
20
-2.03343063011414
30
0
41
1
10
107.559868417678
20
-2.0737247201275
30
0
41
1
10
107.571680195266
20
-2.07926664921948
30
0
41
1
10
107.575285110864
20
-2.08102367142698
30
0
41
1
10
107.577363583692
20
-2.08180336854849
30
0
41
1
10
107.581534528207
20
-2.08354581766511
30
0
41
1
10
107.592038667316
20
-2.08779474562306
30
0
41
1
10
107.606793580284
20
-2.0938123079157
30
0
41
1
10
107.671053406924
20
-2.11965324063522
30
0
41
1
10
107.85909807192
20
-2.19294869000854
30
0
41
1
10
108.1743014914
20
-2.29877123461387
30
0
41
1
10
108.586509250883
20
-2.40226153469385
30
0
41
1
10
109.089694390721
20
-2.47799542078204
30
0
41
1
10
109.593596501455
20
-2.47753887389195
30
0
41
1
10
110.067299795926
20
-2.39610726624386
30
0
41
1
10
110.383504940898
20
-2.29230538071303
30
0
41
1
10
110.620361879857
20
-2.18241270855384
30
0
41
1
10
110.901431209718
20
-2.02315476067892
30
0
41
1
10
111.199820644972
20
-1.7810625898972
30
0
41
1
10
111.454088856915
20
-1.46341065559932
30
0
41
1
10
111.565153040975
20
-1.27690639231568
30
0
41
1
10
111.604782656286
20
-1.20156449353809
30
0
0
SPLINE
5
1BD
100
AcDbEntity
8
1
62
256
6
ByLayer
370
18
48
1
60
0
100
AcDbSpline
70
4
71
3
72
8
73
4
40
0
40
0
40
0
40
0
40
1
40
1
40
1
40
1
41
1
10
109.421967186663
20
-1.41574945817516
30
0
41
1
10
109.385175840315
20
-1.50864985312342
30
0
41
1
10
109.34535617728
20
-1.59899552186047
30
0
41
1
10
109.301732252115
20
-1.68613186329284
30
0
0
SPLINE
5
1BE
100
AcDbEntity
8
1
62
256
6
ByLayer
370
18
48
1
60
0
100
AcDbSpline
70
4
71
3
72
8
73
4
40
0
40
0
40
0
40
0
40
1
40
1
40
1
40
1
41
1
10
104.30263801873
20
0.834296128364002
30
0
41
1
10
104.245703138067
20
0.851925066879289
30
0
41
1
10
104.188821599818
20
0.869570354020425
30
0
41
1
10
104.132
20
0.887253541741813
30
0
0
SPLINE
5
1BF
100
AcDbEntity
8
1
62
256
6
ByLayer
370
18
48
1
60
0
100
AcDbSpline
70
4
71
3
72
8
73
4
40
0
40
0
40
0
40
0
40
1
40
1
40
1
40
1
41
1
10
104.30263801873
20
0.834296128364031
30
0
41
1
10
104.378423289523
20
0.771851408329354
30
0
41
1
10
104.4530774002
20
0.707801268665577
30
0
41
1
10
104.526614498483
20
0.642165788784808
30
0
0
SPLINE
5
1C0
100
AcDbEntity
8
1
62
256
6
ByLayer
370
18
48
1
60
0
100
AcDbSpline
70
4
71
3
72
62
73
58
40
0
40
0
40
0
40
0
40
0.0312499999999047
40
0.0468749999998635
40
0.0468749999998635
40
0.0624999999998222
40
0.0624999999998222
40
0.124999999999683
40
0.124999999999683
40
0.187499999999543
40
0.187499999999543
40
0.203124999999508
40
0.203124999999508
40
0.218749999999473
40
0.218749999999473
40
0.249999999999417
40
0.249999999999417
40
0.312499999999304
40
0.312499999999304
40
0.328124999999285
40
0.328124999999285
40
0.335937499999283
40
0.335937499999283
40
0.339843749999288
40
0.339843749999288
40
0.340820312499286
40
0.340820312499286
40
0.341796874999284
40
0.341796874999284
40
0.34374999999928
40
0.34374999999928
40
0.374999999999337
40
0.374999999999337
40
0.437499999999451
40
0.437499999999451
40
0.453124999999477
40
0.453124999999477
40
0.468749999999502
40
0.49999999999954
40
0.49999999999954
40
0.624999999999655
40
0.624999999999655
40
0.687499999999719
40
0.687499999999719
40
0.703124999999737
40
0.703124999999737
40
0.718749999999756
40
0.749999999999782
40
0.812499999999834
40
0.812499999999834
40
0.874999999999886
40
0.874999999999886
40
0.937499999999938
40
0.937499999999938
40
0.968749999999969
40
0.968749999999969
40
1
40
1
40
1
40
1
41
1
10
109.301732252115
20
-1.68613186329282
30
0
41
1
10
109.24999694857
20
-1.69526223240828
30
0
41
1
10
109.171512566386
20
-1.70600660247723
30
0
41
1
10
109.091682930057
20
-1.71245424234786
30
0
41
1
10
109.038161587531
20
-1.71581214059267
30
0
41
1
10
109.011210397518
20
-1.71702190462057
30
0
41
1
10
108.876503440503
20
-1.72072613208567
30
0
41
1
10
108.768470250768
20
-1.71624066322752
30
0
41
1
10
108.551469929025
20
-1.69400591908513
30
0
41
1
10
108.442504637841
20
-1.67625963772716
30
0
41
1
10
108.305471588601
20
-1.64656243493707
30
0
41
1
10
108.278023546291
20
-1.6402458996028
30
0
41
1
10
108.223037952997
20
-1.62687266890543
30
0
41
1
10
108.195549835272
20
-1.61982714698334
30
0
41
1
10
108.11338924382
20
-1.59773199826296
30
0
41
1
10
108.058897444786
20
-1.58169599471034
30
0
41
1
10
107.896140957802
20
-1.52997575027857
30
0
41
1
10
107.788594652676
20
-1.49067391627932
30
0
41
1
10
107.654999172691
20
-1.43633930426196
30
0
41
1
10
107.628321652733
20
-1.42521462978195
30
0
41
1
10
107.588359805147
20
-1.40816702645333
30
0
41
1
10
107.575047996902
20
-1.4024261912744
30
0
41
1
10
107.555096325252
20
-1.39370574553436
30
0
41
1
10
107.548447925073
20
-1.39078408161305
30
0
41
1
10
107.540139157955
20
-1.38711949552766
30
0
41
1
10
107.538483211124
20
-1.38634825318337
30
0
41
1
10
107.535143716155
20
-1.38498757082164
30
0
41
1
10
107.533475063042
20
-1.38430004783933
30
0
41
1
10
107.528471907203
20
-1.38221900122261
30
0
41
1
10
107.525137415027
20
-1.38082543082061
30
0
41
1
10
107.46845435477
20
-1.3571130323387
30
0
41
1
10
107.415245435319
20
-1.33387421822559
30
0
41
1
10
107.255977875808
20
-1.26140495494053
30
0
41
1
10
107.150266601982
20
-1.20949759712022
30
0
41
1
10
107.018452755207
20
-1.14059889101645
30
0
41
1
10
106.992079425036
20
-1.1266092266583
30
0
41
1
10
106.939491963119
20
-1.09832482559639
30
0
41
1
10
106.860907302955
20
-1.05546183346357
30
0
41
1
10
106.783199941213
20
-1.01131134861157
30
0
41
1
10
106.525935458382
20
-0.861578149243996
30
0
41
1
10
106.325694410272
20
-0.73367743948296
30
0
41
1
10
106.031216409195
20
-0.533573572336906
30
0
41
1
10
105.934045412286
20
-0.465484846012004
30
0
41
1
10
105.813644165833
20
-0.3789209692913
30
0
41
1
10
105.789610383978
20
-0.361530000355913
30
0
41
1
10
105.741842864863
20
-0.326754551978013
30
0
41
1
10
105.670568222207
20
-0.274547617988702
30
0
41
1
10
105.506794184326
20
-0.152518129852552
30
0
41
1
10
105.370510215371
20
-0.0478141913549166
30
0
41
1
10
105.192260576317
20
0.0915708854165871
30
0
41
1
10
105.104881104115
20
0.161160399187111
30
0
41
1
10
104.933572322417
20
0.299886219285554
30
0
41
1
10
104.849637886628
20
0.369020050878561
30
0
41
1
10
104.726248314118
20
0.472177456940614
30
0
41
1
10
104.685488872838
20
0.506520806363966
30
0
41
1
10
104.60516310166
20
0.574706634304277
30
0
41
1
10
104.565592781979
20
0.608560150714936
30
0
41
1
10
104.526614498483
20
0.642165788784808
30
0
0
SPLINE
5
1C1
100
AcDbEntity
8
1
62
256
6
ByLayer
370
18
48
1
60
0
100
AcDbSpline
70
4
71
3
72
8
73
4
40
0
40
0
40
0
40
0
40
1
40
1
40
1
40
1
41
1
10
111.988018942524
20
-0.061958621789671
30
0
41
1
10
111.987859688626
20
-0.061101172163319
30
0
41
1
10
111.987700389014
20
-0.060243729093969
30
0
41
1
10
111.987541043448
20
-0.0593862926161535
30
0
0
SPLINE
5
1C2
100
AcDbEntity
8
1
62
256
6
ByLayer
370
18
48
1
60
0
100
AcDbSpline
70
4
71
3
72
8
73
4
40
0
40
0
40
0
40
0
40
1
40
1
40
1
40
1
41
1
10
111.987823707655
20
0.0615105865259977
30
0
41
1
10
111.987729232129
20
0.061007055422067
30
0
41
1
10
111.98763474053
20
0.0605035265777474
30
0
41
1
10
111.987540232806
20
0.0600000000000307
30
0
0
SPLINE
5
1C3
100
AcDbEntity
8
1
62
256
6
ByLayer
370
18
48
1
60
0
100
AcDbSpline
70
4
71
3
72
8
73
4
40
0
40
0
40
0
40
0
40
1
40
1
40
1
40
1
41
1
10
111.999515568268
20
0.0600000000000307
30
0
41
1
10
111.999519546958
20
0.0597100032600508
30
0
41
1
10
111.999523516727
20
0.0594200063781614
30
0
41
1
10
111.999527477575
20
0.0591300093543339
30
0
0
SPLINE
5
1C4
100
AcDbEntity
8
1
62
256
6
ByLayer
370
18
48
1
60
0
100
AcDbSpline
70
4
71
3
72
8
73
4
40
0
40
0
40
0
40
0
40
1
40
1
40
1
40
1
41
1
10
111.987460811032
20
0.0004400003523131
30
0
41
1
10
111.991493206004
20
-0.0194965115874197
30
0
41
1
10
111.995489402705
20
-0.039438632646096
30
0
41
1
10
111.999449854217
20
-0.0593862926161535
30
0
0
SPLINE
5
1C5
100
AcDbEntity
8
1
62
256
6
ByLayer
370
18
48
1
60
0
100
AcDbSpline
70
4
71
3
72
15
73
11
40
0
40
0
40
0
40
0
40
0.285388205589463
40
0.285388205589463
40
0.570776411178926
40
0.570776411178926
40
0.856164616768389
40
0.856164616768389
40
0.998858719563145
40
1
40
1
40
1
40
1
41
1
10
105.165603351179
20
-4.49005456206567
30
0
41
1
10
105.281697491121
20
-4.55005255040464
30
0
41
1
10
105.3978570365
20
-4.6046441164728
30
0
41
1
10
105.630765229921
20
-4.70327036309519
30
0
41
1
10
105.74751229379
20
-4.74730897270379
30
0
41
1
10
105.982046349316
20
-4.82487773857696
30
0
41
1
10
106.099833262517
20
-4.85840330219494
30
0
41
1
10
106.277653628186
20
-4.90066277744188
30
0
41
1
10
106.337592957824
20
-4.91351129643499
30
0
41
1
10
106.397758865646
20
-4.92497350228484
30
0
41
1
10
106.3982362741
20
-4.92506436334199
30
0
0
SPLINE
5
1C6
100
AcDbEntity
8
1
62
256
6
ByLayer
370
18
48
1
60
0
100
AcDbSpline
70
4
71
3
72
8
73
4
40
0
40
0
40
0
40
0
40
1
40
1
40
1
40
1
41
1
10
107.005157976188
20
-4.99194606624258
30
0
41
1
10
107.082915865864
20
-4.99426589192902
30
0
41
1
10
107.160560909356
20
-4.99417002078008
30
0
41
1
10
107.238163255005
20
-4.99165957677789
30
0
0
SPLINE
5
1C7
100
AcDbEntity
8
1
62
256
6
ByLayer
370
18
48
1
60
0
100
AcDbSpline
70
4
71
3
72
12
73
8
40
0
40
0
40
0
40
0
40
0.184836426198455
40
0.184836426198455
40
0.592418213099228
40
0.592418213099228
40
1
40
1
40
1
40
1
41
1
10
107.782679335748
20
-4.93411072177435
30
0
41
1
10
107.796140400464
20
-4.93169319366459
30
0
41
1
10
107.80960511557
20
-4.92920052085782
30
0
41
1
10
107.852773702521
20
-4.92096928823048
30
0
41
1
10
107.882499247318
20
-4.91493799927375
30
0
41
1
10
107.94176593379
20
-4.90218957192468
30
0
41
1
10
107.971335728019
20
-4.89546684225519
30
0
41
1
10
108.000845758854
20
-4.88839672503696
30
0
0
SPLINE
5
1C8
100
AcDbEntity
8
1
62
256
6
ByLayer
370
18
48
1
60
0
100
AcDbSpline
70
4
71
3
72
27
73
23
40
0
40
0
40
0
40
0
40
0.043286387794825
40
0.102252680749454
40
0.177286416863575
40
0.253060848120098
40
0.336462375308277
40
0.404710507330418
40
0.503265906549266
40
0.586446389360653
40
0.691891564205275
40
0.721935238281032
40
0.740787929880582
40
0.806718586984947
40
0.864927787473087
40
0.866551357038915
40
0.867349577945419
40
0.868264459744564
40
0.871907605764487
40
0.906300612990785
40
0.94509840790425
40
1
40
1
40
1
40
1
41
1
10
104.135204298978
20
-3.84027747133447
30
0
41
1
10
104.192914631365
20
-3.88201120511008
30
0
41
1
10
104.328683289464
20
-3.97875088501857
30
0
41
1
10
104.561154093287
20
-4.13687966837767
30
0
41
1
10
104.833647674915
20
-4.30811985094169
30
0
41
1
10
105.135742818664
20
-4.47845304384384
30
0
41
1
10
105.432446695312
20
-4.62227877378774
30
0
41
1
10
105.762661287607
20
-4.75566199814625
30
0
41
1
10
106.095219718603
20
-4.86104617381977
30
0
41
1
10
106.480857360276
20
-4.94620468287528
30
0
41
1
10
106.77650332266
20
-4.98183047842969
30
0
41
1
10
106.985847970114
20
-4.99172434191414
30
0
41
1
10
107.14134821058
20
-4.9949664916696
30
0
41
1
10
107.335073365285
20
-4.99009889502457
30
0
41
1
10
107.50465624076
20
-4.97436377801407
30
0
41
1
10
107.58624608679
20
-4.96413232041442
30
0
41
1
10
107.590701690645
20
-4.9635672896853
30
0
41
1
10
107.59729998565
20
-4.96272533908885
30
0
41
1
10
107.64539043265
20
-4.95647777924586
30
0
41
1
10
107.740964107957
20
-4.94226346864133
30
0
41
1
10
107.901554186027
20
-4.91252647356896
30
0
41
1
10
108.019933651745
20
-4.88514386718342
30
0
41
1
10
108.08960583713
20
-4.86712269113139
30
0
0
SPLINE
5
1C9
100
AcDbEntity
8
1
62
256
6
ByLayer
370
18
48
1
60
0
100
AcDbSpline
70
4
71
3
72
8
73
4
40
0
40
0
40
0
40
0
40
1
40
1
40
1
40
1
41
1
10
108.104348292818
20
-4.86325556762029
30
0
41
1
10
108.128283465684
20
-4.85698135270522
30
0
41
1
10
108.152231280735
20
-4.85048010623629
30
0
41
1
10
108.176193660016
20
-4.84375011552794
30
0
0
SPLINE
5
1CA
100
AcDbEntity
8
1
62
256
6
ByLayer
370
18
48
1
60
0
100
AcDbSpline
70
4
71
3
72
8
73
4
40
0
40
0
40
0
40
0
40
1
40
1
40
1
40
1
41
1
10
108.089605837123
20
4.87232755383999
30
0
41
1
10
108.060717652484
20
4.87950136835906
30
0
41
1
10
108.031148798703
20
4.88637975938914
30
0
41
1
10
108.000845758852
20
4.89299526387606
30
0
0
SPLINE
5
1CB
100
AcDbEntity
8
1
62
256
6
ByLayer
370
18
48
1
60
0
100
AcDbSpline
70
4
71
3
72
20
73
16
40
0
40
0
40
0
40
0
40
0.049881477445677
40
0.049881477445677
40
0.287411108084268
40
0.287411108084268
40
0.524940738722859
40
0.524940738722859
40
0.76247036936145
40
0.76247036936145
40
0.881235184680745
40
0.881235184680745
40
0.940617592340373
40
0.940617592340373
40
1
40
1
40
1
40
1
41
1
10
106.500887697593
20
4.9328287593556
30
0
41
1
10
106.526059437917
20
4.93718197958043
30
0
41
1
10
106.551241268395
20
4.94128724863916
30
0
41
1
10
106.696072581601
20
4.96346265588923
30
0
41
1
10
106.815191048104
20
4.9760622920227
30
0
41
1
10
107.05280479685
20
4.99002385907113
30
0
41
1
10
107.17129890607
20
4.99138268433194
30
0
41
1
10
107.408160567177
20
4.98284922054791
30
0
41
1
10
107.526526912531
20
4.97295127887685
30
0
41
1
10
107.704352769704
20
4.94947759374682
30
0
41
1
10
107.763674163958
20
4.94021301761723
30
0
41
1
10
107.852773702519
20
4.92410908567069
30
0
41
1
10
107.882499247317
20
4.91837220116585
30
0
41
1
10
107.941765933788
20
4.90620857552943
30
0
41
1
10
107.971335728017
20
4.89977652861134
30
0
41
1
10
108.000845758852
20
4.89299526387606
30
0
0
SPLINE
5
1CC
100
AcDbEntity
8
1
62
256
6
ByLayer
370
18
48
1
60
0
100
AcDbSpline
70
4
71
3
72
8
73
4
40
0
40
0
40
0
40
0
40
1
40
1
40
1
40
1
41
1
10
108.104348292817
20
-4.86325556762046
30
0
41
1
10
108.099460066388
20
-4.86453693639697
30
0
41
1
10
108.094545227442
20
-4.86582615159816
30
0
41
1
10
108.08960583713
20
-4.86712269113141
30
0
0
SPLINE
5
1CD
100
AcDbEntity
8
1
62
256
6
ByLayer
370
18
48
1
60
0
100
AcDbSpline
70
4
71
3
72
8
73
4
40
0
40
0
40
0
40
0
40
1
40
1
40
1
40
1
41
1
10
108.08960583713
20
-4.86712269113139
30
0
41
1
10
108.060717652489
20
-4.87453548326332
30
0
41
1
10
108.031148798706
20
-4.88161715548324
30
0
41
1
10
108.000845758854
20
-4.88839672503696
30
0
0
SPLINE
5
1CE
100
AcDbEntity
8
1
62
256
6
ByLayer
370
18
48
1
60
0
100
AcDbSpline
70
4
71
3
72
10
73
6
40
0
40
0
40
0
40
0
40
0.243692502620909
40
0.55685424370826
40
1
40
1
40
1
40
1
41
1
10
107.62301564543
20
4.96014880767399
30
0
41
1
10
107.660377728301
20
4.95544396795196
30
0
41
1
10
107.746231922846
20
4.94333844399242
30
0
41
1
10
107.901554186029
20
4.91605128677651
30
0
41
1
10
108.019933651743
20
4.88973818174023
30
0
41
1
10
108.089605837125
20
4.87232755383965
30
0
0
SPLINE
5
1CF
100
AcDbEntity
8
1
62
256
6
ByLayer
370
18
48
1
60
0
100
AcDbSpline
70
4
71
3
72
8
73
4
40
0
40
0
40
0
40
0
40
1
40
1
40
1
40
1
41
1
10
108.104348292816
20
4.86858605991253
30
0
41
1
10
108.099460066385
20
4.86982456444471
30
0
41
1
10
108.094545227437
20
4.87107190068082
30
0
41
1
10
108.089605837123
20
4.87232755384002
30
0
0
SPLINE
5
1D0
100
AcDbEntity
8
1
62
256
6
ByLayer
370
18
48
1
60
0
100
AcDbSpline
70
4
71
3
72
8
73
4
40
0
40
0
40
0
40
0
40
1
40
1
40
1
40
1
41
1
10
108.104348292817
20
4.86858605991245
30
0
41
1
10
108.128283465722
20
4.86252172951811
30
0
41
1
10
108.152231280811
20
4.85622833069377
30
0
41
1
10
108.176193660131
20
4.84970407447557
30
0
0
SPLINE
5
1D1
100
AcDbEntity
8
1
62
256
6
ByLayer
370
18
48
1
60
0
100
AcDbSpline
70
4
71
3
72
8
73
4
40
0
40
0
40
0
40
0
40
1
40
1
40
1
40
1
41
1
10
111.999527477527
20
0.0591300077691699
30
0
41
1
10
111.995621530749
20
0.0392645689346978
30
0
41
1
10
111.991674971597
20
0.019405308710617
30
0
41
1
10
111.987687224499
20
-0.0004476823426387
30
0
0
LINE
5
7F
100
AcDbEntity
8
80
62
256
6
ByLayer
370
18
48
1
60
0
100
AcDbLine
10
0
20
0
30
0
11
-3
21
0
31
0
39
0
210
0
220
0
230
1
0
LINE
5
80
100
AcDbEntity
8
81
62
256
6
ByLayer
370
18
48
1
60
0
100
AcDbLine
10
112
20
0
30
0
11
115
21
0
31
0
39
0
210
0
220
0
230
1
0
LINE
5
81
100
AcDbEntity
8
4
62
256
6
ByLayer
370
18
48
0.05
60
0
100
AcDbLine
10
0
20
0
30
0
11
115
21
0
31
0
39
0
210
0
220
0
230
1
0
LINE
5
83
100
AcDbEntity
8
SK4
62
256
6
ByLayer
370
18
48
0.05
60
0
100
AcDbLine
10
-51
20
0
30
0
11
115
21
0
31
0
39
0
210
0
220
0
230
1
0
LINE
5
85
100
AcDbEntity
8
81
62
256
6
ByLayer
370
18
48
1
60
0
100
AcDbLine
10
-48
20
4.984
30
0
11
-48
21
4.07613
31
0
39
0
210
0
220
0
230
1
0
LINE
5
86
100
AcDbEntity
8
81
62
256
6
ByLayer
370
13
48
1
60
0
100
AcDbLine
10
-48
20
-4.075485
30
0
11
-48
21
-4.07613
31
0
39
0
210
0
220
0
230
1
0
LINE
5
87
100
AcDbEntity
8
81
62
256
6
ByLayer
370
13
48
1
60
0
100
AcDbLine
10
-48
20
-4.095678
30
0
11
-48
21
-3.998406
31
0
39
0
210
0
220
0
230
1
0
LINE
5
88
100
AcDbEntity
8
81
62
256
6
ByLayer
370
18
48
1
60
0
100
AcDbLine
10
-56.06379
20
0
30
0
11
-56.36379
21
0
31
0
39
0
210
0
220
0
230
1
0
LINE
5
89
100
AcDbEntity
8
81
62
256
6
ByLayer
370
18
48
1
60
0
100
AcDbLine
10
-52.984
20
0
30
0
11
-55.852
21
0
31
0
39
0
210
0
220
0
230
1
0
LINE
5
8A
100
AcDbEntity
8
81
62
256
6
ByLayer
370
18
48
1
60
0
100
AcDbLine
10
103.92021
20
0
30
0
11
104.131235
21
0
31
0
39
0
210
0
220
0
230
1
0
LINE
5
8B
100
AcDbEntity
8
81
62
256
6
ByLayer
370
18
48
1
60
0
100
AcDbLine
10
-48
20
-9.642226
30
0
11
-48
21
-8.36379
31
0
39
0
210
0
220
0
230
1
0
LINE
5
8C
100
AcDbEntity
8
81
62
256
6
ByLayer
370
18
48
1
60
0
100
AcDbLine
10
102.341774
20
0
30
0
11
103.62021
21
0
31
0
39
0
210
0
220
0
230
1
0
LINE
5
8D
100
AcDbEntity
8
81
62
256
6
ByLayer
370
18
48
1
60
0
100
AcDbLine
10
-48
20
0
30
0
11
-48
21
-4.984
31
0
39
0
210
0
220
0
230
1
0
LINE
5
8E
100
AcDbEntity
8
81
62
256
6
ByLayer
370
18
48
1
60
0
100
AcDbLine
10
-48
20
0
30
0
11
-48
21
4.984
31
0
39
0
210
0
220
0
230
1
0
LINE
5
8F
100
AcDbEntity
8
81
62
256
6
ByLayer
370
18
48
1
60
0
100
AcDbLine
10
-55.852765
20
0
30
0
11
-55.852
21
0
31
0
39
0
210
0
220
0
230
1
0
LINE
5
90
100
AcDbEntity
8
81
62
256
6
ByLayer
370
18
48
1
60
0
100
AcDbLine
10
-57.642226
20
0
30
0
11
-56.36379
21
0
31
0
39
0
210
0
220
0
230
1
0
LINE
5
91
100
AcDbEntity
8
81
62
256
6
ByLayer
370
18
48
1
60
0
100
AcDbLine
10
107
20
0
30
0
11
104.132
21
0
31
0
39
0
210
0
220
0
230
1
0
LINE
5
92
100
AcDbEntity
8
81
62
256
6
ByLayer
370
13
48
1
60
0
100
AcDbLine
10
-48
20
0
30
0
11
-48
21
-4.984
31
0
39
0
210
0
220
0
230
1
0
LINE
5
93
100
AcDbEntity
8
81
62
256
6
ByLayer
370
18
48
1
60
0
100
AcDbLine
10
-48
20
-8.06379
30
0
11
-48
21
-8.36379
31
0
39
0
210
0
220
0
230
1
0
LINE
5
94
100
AcDbEntity
8
81
62
256
6
ByLayer
370
13
48
1
60
0
100
AcDbLine
10
-48
20
-3.998406
30
0
11
-48
21
-4.075485
31
0
39
0
210
0
220
0
230
1
0
LINE
5
95
100
AcDbEntity
8
81
62
256
6
ByLayer
370
18
48
1
60
0
100
AcDbLine
10
-48
20
4.095678
30
0
11
-48
21
3.998406
31
0
39
0
210
0
220
0
230
1
0
LINE
5
96
100
AcDbEntity
8
81
62
256
6
ByLayer
370
18
48
1
60
0
100
AcDbLine
10
-48
20
-7.852765
30
0
11
-48
21
-7.852
31
0
39
0
210
0
220
0
230
1
0
LINE
5
97
100
AcDbEntity
8
81
62
256
6
ByLayer
370
18
48
1
60
0
100
AcDbLine
10
-56.06379
20
0
30
0
11
-55.852765
21
0
31
0
39
0
210
0
220
0
230
1
0
LINE
5
98
100
AcDbEntity
8
81
62
256
6
ByLayer
370
18
48
1
60
0
100
AcDbLine
10
-48
20
4.075485
30
0
11
-48
21
4.07613
31
0
39
0
210
0
220
0
230
1
0
LINE
5
99
100
AcDbEntity
8
81
62
256
6
ByLayer
370
18
48
1
60
0
100
AcDbLine
10
-48
20
0
30
0
11
-52.984
21
0
31
0
39
0
210
0
220
0
230
1
0
LINE
5
9A
100
AcDbEntity
8
81
62
256
6
ByLayer
370
18
48
1
60
0
100
AcDbLine
10
-48
20
3.998406
30
0
11
-48
21
4.075485
31
0
39
0
210
0
220
0
230
1
0
LINE
5
9B
100
AcDbEntity
8
81
62
256
6
ByLayer
370
18
48
1
60
0
100
AcDbLine
10
-56.06379
20
0
30
0
11
-55.852765
21
0
31
0
39
0
210
0
220
0
230
1
0
LINE
5
9C
100
AcDbEntity
8
81
62
256
6
ByLayer
370
18
48
1
60
0
100
AcDbLine
10
-52.984
20
0
30
0
11
-55.852
21
0
31
0
39
0
210
0
220
0
230
1
0
LINE
5
9D
100
AcDbEntity
8
81
62
256
6
ByLayer
370
18
48
1
60
0
100
AcDbLine
10
-48
20
-4.984
30
0
11
-48
21
-7.852
31
0
39
0
210
0
220
0
230
1
0
LINE
5
9E
100
AcDbEntity
8
81
62
256
6
ByLayer
370
18
48
1
60
0
100
AcDbLine
10
-48
20
-8.06379
30
0
11
-48
21
-7.852765
31
0
39
0
210
0
220
0
230
1
0
LINE
5
9F
100
AcDbEntity
8
81
62
256
6
ByLayer
370
18
48
1
60
0
100
AcDbLine
10
-57.642226
20
0
30
0
11
-56.36379
21
0
31
0
39
0
210
0
220
0
230
1
0
LINE
5
A0
100
AcDbEntity
8
81
62
256
6
ByLayer
370
18
48
1
60
0
100
AcDbLine
10
103.92021
20
0
30
0
11
103.62021
21
0
31
0
39
0
210
0
220
0
230
1
0
LINE
5
A1
100
AcDbEntity
8
81
62
256
6
ByLayer
370
18
48
1
60
0
100
AcDbLine
10
-55.852765
20
0
30
0
11
-55.852
21
0
31
0
39
0
210
0
220
0
230
1
0
LINE
5
A2
100
AcDbEntity
8
81
62
256
6
ByLayer
370
13
48
1
60
0
100
AcDbLine
10
-48
20
-4.984
30
0
11
-48
21
-4.07613
31
0
39
0
210
0
220
0
230
1
0
LINE
5
A3
100
AcDbEntity
8
81
62
256
6
ByLayer
370
18
48
1
60
0
100
AcDbLine
10
-48
20
0
30
0
11
-52.984
21
0
31
0
39
0
210
0
220
0
230
1
0
LINE
5
A4
100
AcDbEntity
8
81
62
256
6
ByLayer
370
18
48
1
60
0
100
AcDbLine
10
-56.06379
20
0
30
0
11
-56.36379
21
0
31
0
39
0
210
0
220
0
230
1
0
LINE
5
A5
100
AcDbEntity
8
81
62
256
6
ByLayer
370
18
48
1
60
0
100
AcDbLine
10
104.131235
20
0
30
0
11
104.132
21
0
31
0
39
0
210
0
220
0
230
1
0
LINE
5
A6
100
AcDbEntity
8
81
62
256
6
ByLayer
370
18
48
1
60
0
100
AcDbLine
10
111.984
20
0
30
0
11
107
21
0
31
0
39
0
210
0
220
0
230
1
0
LINE
5
A7
100
AcDbEntity
8
1
62
256
6
ByLayer
370
18
48
1
60
0
100
AcDbLine
10
1.976309
20
8
30
0
11
0
21
8
31
0
39
0
210
0
220
0
230
1
0
LINE
5
A8
100
AcDbEntity
8
1
62
256
6
ByLayer
370
18
48
1
60
0
100
AcDbLine
10
0
20
-8
30
0
11
1.976309
21
-8
31
0
39
0
210
0
220
0
230
1
0
LINE
5
A9
100
AcDbEntity
8
1
62
256
6
ByLayer
370
18
48
1
60
0
100
AcDbLine
10
101.212043
20
4.096
30
0
11
86.999261
21
4.096
31
0
39
0
210
0
220
0
230
1
0
LINE
5
AA
100
AcDbEntity
8
1
62
256
6
ByLayer
370
18
48
1
60
0
100
AcDbLine
10
86.999261
20
-4.096
30
0
11
101.3348
21
-4.096
31
0
39
0
210
0
220
0
230
1
0
LINE
5
AB
100
AcDbEntity
8
1
62
256
6
ByLayer
370
18
48
1
60
0
100
AcDbLine
10
86.95338
20
4.097053
30
0
11
1.976309
21
8
31
0
39
0
210
0
220
0
230
1
0
LINE
5
AC
100
AcDbEntity
8
1
62
256
6
ByLayer
370
18
48
1
60
0
100
AcDbLine
10
1.976309
20
-8
30
0
11
86.95338
21
-4.097053
31
0
39
0
210
0
220
0
230
1
0
LINE
5
AD
100
AcDbEntity
8
SK1
62
256
6
ByLayer
370
18
48
1
60
0
100
AcDbLine
10
-48
20
-7.2
30
0
11
-47.2
21
-8
31
0
39
0
210
0
220
0
230
1
0
LINE
5
AF
100
AcDbEntity
8
SK1
62
256
6
ByLayer
370
18
48
1
60
0
100
AcDbLine
10
-47.2
20
8
30
0
11
-48
21
7.2
31
0
39
0
210
0
220
0
230
1
0
LINE
5
B0
100
AcDbEntity
8
SK1
62
256
6
ByLayer
370
18
48
1
60
0
100
AcDbLine
10
0
20
8
30
0
11
-47.2
21
8
31
0
39
0
210
0
220
0
230
1
0
LINE
5
B1
100
AcDbEntity
8
SK1
62
256
6
ByLayer
370
18
48
1
60
0
100
AcDbLine
10
-47.2
20
-8
30
0
11
0
21
-8
31
0
39
0
210
0
220
0
230
1
0
LINE
5
B2
100
AcDbEntity
8
1
62
256
6
ByLayer
370
18
48
1
60
0
100
AcDbLine
10
0
20
-8
30
0
11
0
21
8
31
0
39
0
210
0
220
0
230
1
0
LINE
5
B3
100
AcDbEntity
8
1
62
256
6
ByLayer
370
18
48
1
60
0
100
AcDbLine
10
111.115863
20
1.359737
30
0
11
111.096899
21
1.3951
31
0
39
0
210
0
220
0
230
1
0
LINE
5
B4
100
AcDbEntity
8
1
62
256
6
ByLayer
370
18
48
1
60
0
100
AcDbLine
10
111.983622
20
0.061393
30
0
11
111.987824
21
0.061511
31
0
39
0
210
0
220
0
230
1
0
LINE
5
B5
100
AcDbEntity
8
1
62
256
6
ByLayer
370
18
48
1
60
0
100
AcDbLine
10
111.999516
20
0.06
30
0
11
111.98754
21
0.06
31
0
39
0
210
0
220
0
230
1
0
LINE
5
B6
100
AcDbEntity
8
1
62
256
6
ByLayer
370
18
48
1
60
0
100
AcDbLine
10
111.816839
20
1.18652
30
0
11
111.686592
21
0.993749
31
0
39
0
210
0
220
0
230
1
0
LINE
5
B7
100
AcDbEntity
8
1
62
256
6
ByLayer
370
18
48
1
60
0
100
AcDbLine
10
111.975834
20
-0.061622
30
0
11
111.975194
21
-0.065957
31
0
39
0
210
0
220
0
230
1
0
LINE
5
B8
100
AcDbEntity
8
1
62
256
6
ByLayer
370
18
48
1
60
0
100
AcDbLine
10
111.981791
20
-0.058817
30
0
11
111.998935
21
-0.058705
31
0
39
0
210
0
220
0
230
1
0
LINE
5
B9
100
AcDbEntity
8
1
62
256
6
ByLayer
370
18
48
1
60
0
100
AcDbLine
10
100.851993
20
-4.04301
30
0
11
103.969127
21
-3.732171
31
0
39
0
210
0
220
0
230
1
0
LINE
5
BA
100
AcDbEntity
8
1
62
256
6
ByLayer
370
18
48
1
60
0
100
AcDbLine
10
104.135204
20
-3.840277
30
0
11
103.873277
21
-3.640597
31
0
39
0
210
0
220
0
230
1
0
LINE
5
BB
100
AcDbEntity
8
1
62
256
6
ByLayer
370
18
48
1
60
0
100
AcDbLine
10
103.862534
20
-3.662814
30
0
11
103.873277
21
-3.640597
31
0
39
0
210
0
220
0
230
1
0
LINE
5
BC
100
AcDbEntity
8
1
62
256
6
ByLayer
370
18
48
1
60
0
100
AcDbLine
10
111.338349
20
-1.947178
30
0
11
111.376361
21
-1.947301
31
0
39
0
210
0
220
0
230
1
0
LINE
5
BD
100
AcDbEntity
8
1
62
256
6
ByLayer
370
18
48
1
60
0
100
AcDbLine
10
111.7165
20
-1.300898
30
0
11
111.581117
21
-1.049426
31
0
39
0
210
0
220
0
230
1
0
LINE
5
BE
100
AcDbEntity
8
1
62
256
6
ByLayer
370
18
48
1
60
0
100
AcDbLine
10
111.589688
20
-0.946651
30
0
11
111.75741
21
-1.178147
31
0
39
0
210
0
220
0
230
1
0
LINE
5
BF
100
AcDbEntity
8
1
62
256
6
ByLayer
370
18
48
1
60
0
100
AcDbLine
10
111.511369
20
-0.644003
30
0
11
111.621615
21
-0.725961
31
0
39
0
210
0
220
0
230
1
0
LINE
5
C0
100
AcDbEntity
8
1
62
256
6
ByLayer
370
18
48
1
60
0
100
AcDbLine
10
99.978462
20
-3.663643
30
0
11
100.283682
21
-3.633206
31
0
39
0
210
0
220
0
230
1
0
LINE
5
C1
100
AcDbEntity
8
1
62
256
6
ByLayer
370
18
48
1
60
0
100
AcDbLine
10
103.873277
20
-3.640597
30
0
11
103.973318
21
-3.474298
31
0
39
0
210
0
220
0
230
1
0
LINE
5
C2
100
AcDbEntity
8
1
62
256
6
ByLayer
370
18
48
1
60
0
100
AcDbLine
10
103.973312
20
3.265756
30
0
11
104.302638
21
3.728386
31
0
39
0
210
0
220
0
230
1
0
LINE
5
C3
100
AcDbEntity
8
1
62
256
6
ByLayer
370
18
48
1
60
0
100
AcDbLine
10
104.235245
20
-3.673978
30
0
11
103.973318
21
-3.474298
31
0
39
0
210
0
220
0
230
1
0
LINE
5
C4
100
AcDbEntity
8
1
62
256
6
ByLayer
370
18
48
1
60
0
100
AcDbLine
10
104.235239
20
3.382449
30
0
11
103.973312
21
3.265756
31
0
39
0
210
0
220
0
230
1
0
LINE
5
C5
100
AcDbEntity
8
1
62
256
6
ByLayer
370
18
48
1
60
0
100
AcDbLine
10
103.873277
20
3.03718
30
0
11
103.973312
21
3.265756
31
0
39
0
210
0
220
0
230
1
0
LINE
5
C6
100
AcDbEntity
8
1
62
256
6
ByLayer
370
18
48
1
60
0
100
AcDbLine
10
104.135204
20
3.153873
30
0
11
103.873277
21
3.03718
31
0
39
0
210
0
220
0
230
1
0
LINE
5
C7
100
AcDbEntity
8
1
62
256
6
ByLayer
370
18
48
1
60
0
100
AcDbLine
10
103.862536
20
2.976086
30
0
11
103.873277
21
3.03718
31
0
39
0
210
0
220
0
230
1
0
LINE
5
C8
100
AcDbEntity
8
1
62
256
6
ByLayer
370
18
48
1
60
0
100
AcDbLine
10
103.973318
20
-3.474298
30
0
11
104.30265
21
-2.961396
31
0
39
0
210
0
220
0
230
1
0
LINE
5
C9
100
AcDbEntity
8
1
62
256
6
ByLayer
370
18
48
1
60
0
100
AcDbLine
10
104.132
20
1.536367
30
0
11
104.132
21
1.676304
31
0
39
0
210
0
220
0
230
1
0
LINE
5
CA
100
AcDbEntity
8
1
62
256
6
ByLayer
370
18
48
1
60
0
100
AcDbLine
10
111.115863
20
1.359737
30
0
11
111.376316
21
1.134366
31
0
39
0
210
0
220
0
230
1
0
LINE
5
CB
100
AcDbEntity
8
1
62
256
6
ByLayer
370
18
48
1
60
0
100
AcDbLine
10
109.628683
20
2.549074
30
0
11
109.063335
21
2.96197
31
0
39
0
210
0
220
0
230
1
0
LINE
5
CC
100
AcDbEntity
8
1
62
256
6
ByLayer
370
18
48
1
60
0
100
AcDbLine
10
100.851993
20
2.590243
30
0
11
104.132
21
1.214783
31
0
39
0
210
0
220
0
230
1
0
LINE
5
CD
100
AcDbEntity
8
1
62
256
6
ByLayer
370
18
48
1
60
0
100
AcDbLine
10
104.132
20
-2.867697
30
0
11
104.132
21
-2.961052
31
0
39
0
210
0
220
0
230
1
0
LINE
5
CE
100
AcDbEntity
8
1
62
256
6
ByLayer
370
18
48
1
60
0
100
AcDbLine
10
104.132
20
1.214783
30
0
11
104.132
21
1.536367
31
0
39
0
210
0
220
0
230
1
0
LINE
5
CF
100
AcDbEntity
8
1
62
256
6
ByLayer
370
18
48
1
60
0
100
AcDbLine
10
104.132
20
1.100409
30
0
11
104.132
21
1.214783
31
0
39
0
210
0
220
0
230
1
0
LINE
5
D0
100
AcDbEntity
8
1
62
256
6
ByLayer
370
18
48
1
60
0
100
AcDbLine
10
104.132
20
-2.651327
30
0
11
104.132
21
-2.521041
31
0
39
0
210
0
220
0
230
1
0
LINE
5
D1
100
AcDbEntity
8
1
62
256
6
ByLayer
370
18
48
1
60
0
100
AcDbLine
10
104.132
20
-2.867697
30
0
11
104.132
21
-2.651327
31
0
39
0
210
0
220
0
230
1
0
LINE
5
D2
100
AcDbEntity
8
1
62
256
6
ByLayer
370
18
48
1
60
0
100
AcDbLine
10
104.132
20
0.928302
30
0
11
104.132
21
1.100409
31
0
39
0
210
0
220
0
230
1
0
LINE
5
D3
100
AcDbEntity
8
1
62
256
6
ByLayer
370
18
48
1
60
0
100
AcDbLine
10
111.111494
20
-0.528192
30
0
11
111.330723
21
-0.870791
31
0
39
0
210
0
220
0
230
1
0
LINE
5
D4
100
AcDbEntity
8
1
62
256
6
ByLayer
370
18
48
1
60
0
100
AcDbLine
10
109.419386
20
0.255471
30
0
11
109.02351
21
0.31418
31
0
39
0
210
0
220
0
230
1
0
LINE
5
D5
100
AcDbEntity
8
1
62
256
6
ByLayer
370
18
48
1
60
0
100
AcDbLine
10
104.235239
20
-0.220382
30
0
11
103.973312
21
-0.140597
31
0
39
0
210
0
220
0
230
1
0
LINE
5
D6
100
AcDbEntity
8
1
62
256
6
ByLayer
370
18
48
1
60
0
100
AcDbLine
10
104.135204
20
-0.615828
30
0
11
103.873277
21
-0.536043
31
0
39
0
210
0
220
0
230
1
0
LINE
5
D7
100
AcDbEntity
8
1
62
256
6
ByLayer
370
18
48
1
60
0
100
AcDbLine
10
104.132
20
-1.70175
30
0
11
104.132
21
-1.523278
31
0
39
0
210
0
220
0
230
1
0
LINE
5
D8
100
AcDbEntity
8
1
62
256
6
ByLayer
370
18
48
1
60
0
100
AcDbLine
10
103.861966
20
-0.624174
30
0
11
103.873277
21
-0.536043
31
0
39
0
210
0
220
0
230
1
0
LINE
5
D9
100
AcDbEntity
8
1
62
256
6
ByLayer
370
18
48
1
60
0
100
AcDbLine
10
103.873277
20
-0.536043
30
0
11
103.973312
21
-0.140597
31
0
39
0
210
0
220
0
230
1
0
LINE
5
DA
100
AcDbEntity
8
1
62
256
6
ByLayer
370
18
48
1
60
0
100
AcDbLine
10
100.880052
20
-1.498797
30
0
11
104.132
21
-2.521041
31
0
39
0
210
0
220
0
230
1
0
LINE
5
DB
100
AcDbEntity
8
1
62
256
6
ByLayer
370
18
48
1
60
0
100
AcDbLine
10
104.132
20
-2.521041
30
0
11
104.132
21
-1.70175
31
0
39
0
210
0
220
0
230
1
0
LINE
5
DC
100
AcDbEntity
8
1
62
256
6
ByLayer
370
18
48
1
60
0
100
AcDbLine
10
103.973312
20
-0.140597
30
0
11
104.302638
21
0.834296
31
0
39
0
210
0
220
0
230
1
0
LINE
5
DD
100
AcDbEntity
8
1
62
256
6
ByLayer
370
18
48
1
60
0
100
AcDbLine
10
104.132
20
1.676304
30
0
11
104.132
21
3.151881
31
0
39
0
210
0
220
0
230
1
0
LINE
5
DE
100
AcDbEntity
8
1
62
256
6
ByLayer
370
18
48
1
60
0
100
AcDbLine
10
104.132
20
-1.523278
30
0
11
104.132
21
-0.615724
31
0
39
0
210
0
220
0
230
1
0
LINE
5
DF
100
AcDbEntity
8
1
62
256
6
ByLayer
370
18
48
1
60
0
100
AcDbLine
10
104.132
20
0.928302
30
0
11
104.132
21
0.887254
31
0
39
0
210
0
220
0
230
1
0
LINE
5
E0
100
AcDbEntity
8
1
62
256
6
ByLayer
370
18
48
1
60
0
100
AcDbLine
10
111.975834
20
-0.061622
30
0
11
111.988019
21
-0.061959
31
0
39
0
210
0
220
0
230
1
0
LINE
5
E1
100
AcDbEntity
8
1
62
256
6
ByLayer
370
18
48
1
60
0
100
AcDbLine
10
111.99945
20
-0.059386
30
0
11
111.987541
21
-0.059386
31
0
39
0
210
0
220
0
230
1
0
LINE
5
E2
100
AcDbEntity
8
1
62
256
6
ByLayer
370
18
48
1
60
0
100
AcDbLine
10
111.987461
20
0.00044
30
0
11
111.988006
21
-0.000115
31
0
39
0
210
0
220
0
230
1
0
LINE
5
E3
100
AcDbEntity
8
1
62
256
6
ByLayer
370
18
48
1
60
0
100
AcDbLine
10
1.976309
20
-8
30
0
11
1.976309
21
8
31
0
39
0
210
0
220
0
230
1
0
LINE
5
E4
100
AcDbEntity
8
SK1
62
256
6
ByLayer
370
18
48
1
60
0
100
AcDbLine
10
-48
20
7.2
30
0
11
-48
21
-7.2
31
0
39
0
210
0
220
0
230
1
0
LINE
5
E5
100
AcDbEntity
8
SK1
62
256
6
ByLayer
370
18
48
1
60
0
100
AcDbLine
10
0
20
-8
30
0
11
0
21
8
31
0
39
0
210
0
220
0
230
1
0
LINE
5
E6
100
AcDbEntity
8
SK1
62
256
6
ByLayer
370
18
48
1
60
0
100
AcDbLine
10
-47.2
20
8
30
0
11
-47.2
21
-8
31
0
39
0
210
0
220
0
230
1
0
LINE
5
E7
100
AcDbEntity
8
81
62
256
6
ByLayer
370
18
48
1
60
0
100
AcDbLine
10
102.341774
20
4.095678
30
0
11
102.341774
21
4.051905
31
0
39
0
210
0
220
0
230
1
0
LINE
5
E8
100
AcDbEntity
8
81
62
256
6
ByLayer
370
18
48
1
60
0
100
AcDbLine
10
102.341774
20
-3.89435
30
0
11
102.341774
21
-4.095678
31
0
39
0
210
0
220
0
230
1
0
LINE
5
E9
100
AcDbEntity
8
81
62
256
6
ByLayer
370
18
48
1
60
0
100
AcDbLine
10
103.92021
20
-3.998406
30
0
11
103.62021
21
-3.998406
31
0
39
0
210
0
220
0
230
1
0
LINE
5
EA
100
AcDbEntity
8
81
62
256
6
ByLayer
370
18
48
1
60
0
100
AcDbLine
10
103.62021
20
3.998406
30
0
11
103.92021
21
3.998406
31
0
39
0
210
0
220
0
230
1
0
LINE
5
EB
100
AcDbEntity
8
81
62
256
6
ByLayer
370
18
48
1
60
0
100
AcDbLine
10
104.131235
20
-4.075485
30
0
11
104.132
21
-4.07613
31
0
39
0
210
0
220
0
230
1
0
LINE
5
EC
100
AcDbEntity
8
81
62
256
6
ByLayer
370
18
48
1
60
0
100
AcDbLine
10
104.132
20
4.07613
30
0
11
104.131235
21
4.075485
31
0
39
0
210
0
220
0
230
1
0
LINE
5
ED
100
AcDbEntity
8
SK2
62
256
6
ByLayer
370
13
48
1
60
0
100
AcDbLine
10
-54.5
20
-8
30
0
11
-54.5
21
27.625256
31
0
39
0
210
0
220
0
230
1
0
LINE
5
EF
100
AcDbEntity
8
SK2
62
256
6
ByLayer
370
13
48
1
60
0
100
AcDbLine
10
-49.5875
20
-8
30
0
11
-56.5
21
-8
31
0
39
0
210
0
220
0
230
1
0
LINE
5
F0
100
AcDbEntity
8
SK2
62
256
6
ByLayer
370
13
48
1
60
0
100
AcDbLine
10
-49.5875
20
8
30
0
11
-56.5
21
8
31
0
39
0
210
0
220
0
230
1
0
LINE
5
F1
100
AcDbEntity
8
1
62
256
6
ByLayer
370
18
48
1
60
1
100
AcDbLine
10
-54.5
20
-8
30
0
11
-54.960784
21
-4.500002
31
0
39
0
210
0
220
0
230
1
0
LINE
5
F2
100
AcDbEntity
8
1
62
256
6
ByLayer
370
18
48
1
60
1
100
AcDbLine
10
-54.960784
20
-4.500002
30
0
11
-54.039216
21
-4.499998
31
0
39
0
210
0
220
0
230
1
0
LINE
5
F3
100
AcDbEntity
8
1
62
256
6
ByLayer
370
18
48
1
60
1
100
AcDbLine
10
-54.039216
20
-4.499998
30
0
11
-54.5
21
-8
31
0
39
0
210
0
220
0
230
1
0
LINE
5
F4
100
AcDbEntity
8
1
62
256
6
ByLayer
370
18
48
1
60
1
100
AcDbLine
10
-54.5
20
8
30
0
11
-54.039216
21
4.500002
31
0
39
0
210
0
220
0
230
1
0
LINE
5
F5
100
AcDbEntity
8
1
62
256
6
ByLayer
370
18
48
1
60
1
100
AcDbLine
10
-54.039216
20
4.500002
30
0
11
-54.960784
21
4.499998
31
0
39
0
210
0
220
0
230
1
0
LINE
5
F6
100
AcDbEntity
8
1
62
256
6
ByLayer
370
18
48
1
60
1
100
AcDbLine
10
-54.960784
20
4.499998
30
0
11
-54.5
21
8
31
0
39
0
210
0
220
0
230
1
0
LINE
5
F7
100
AcDbEntity
8
SK2
62
256
6
ByLayer
370
13
48
1
60
0
100
AcDbLine
10
91.5
20
4.095678
30
0
11
91.5
21
-34.095678
31
0
39
0
210
0
220
0
230
1
0
LINE
5
F8
100
AcDbEntity
8
SK2
62
256
6
ByLayer
370
13
48
1
60
0
100
AcDbLine
10
88.5875
20
-4.095678
30
0
11
93.5
21
-4.095678
31
0
39
0
210
0
220
0
230
1
0
LINE
5
F9
100
AcDbEntity
8
SK2
62
256
6
ByLayer
370
13
48
1
60
0
100
AcDbLine
10
88.5875
20
4.095678
30
0
11
93.5
21
4.095678
31
0
39
0
210
0
220
0
230
1
0
LINE
5
FA
100
AcDbEntity
8
1
62
256
6
ByLayer
370
18
48
1
60
1
100
AcDbLine
10
91.5
20
-4.095678
30
0
11
91.039216
21
-0.595679
31
0
39
0
210
0
220
0
230
1
0
LINE
5
FB
100
AcDbEntity
8
1
62
256
6
ByLayer
370
18
48
1
60
1
100
AcDbLine
10
91.039216
20
-0.595679
30
0
11
91.960784
21
-0.595676
31
0
39
0
210
0
220
0
230
1
0
LINE
5
FC
100
AcDbEntity
8
1
62
256
6
ByLayer
370
18
48
1
60
1
100
AcDbLine
10
91.960784
20
-0.595676
30
0
11
91.5
21
-4.095678
31
0
39
0
210
0
220
0
230
1
0
LINE
5
FD
100
AcDbEntity
8
1
62
256
6
ByLayer
370
18
48
1
60
1
100
AcDbLine
10
91.5
20
4.095678
30
0
11
91.960784
21
0.595679
31
0
39
0
210
0
220
0
230
1
0
LINE
5
FE
100
AcDbEntity
8
1
62
256
6
ByLayer
370
18
48
1
60
1
100
AcDbLine
10
91.960784
20
0.595679
30
0
11
91.039216
21
0.595676
31
0
39
0
210
0
220
0
230
1
0
LINE
5
FF
100
AcDbEntity
8
1
62
256
6
ByLayer
370
18
48
1
60
1
100
AcDbLine
10
91.039216
20
0.595676
30
0
11
91.5
21
4.095678
31
0
39
0
210
0
220
0
230
1
0
LINE
5
100
100
AcDbEntity
8
2
62
256
6
ByLayer
370
13
48
1
60
0
100
AcDbLine
10
123.5
20
-5
30
0
11
123.5
21
22.764627
31
0
39
0
210
0
220
0
230
1
0
LINE
5
102
100
AcDbEntity
8
2
62
256
6
ByLayer
370
13
48
1
60
0
100
AcDbLine
10
108.5875
20
-5
30
0
11
125.5
21
-5
31
0
39
0
210
0
220
0
230
1
0
LINE
5
103
100
AcDbEntity
8
2
62
256
6
ByLayer
370
13
48
1
60
0
100
AcDbLine
10
108.5875
20
5
30
0
11
125.5
21
5
31
0
39
0
210
0
220
0
230
1
0
LINE
5
104
100
AcDbEntity
8
1
62
256
6
ByLayer
370
18
48
1
60
1
100
AcDbLine
10
123.5
20
-5
30
0
11
123.039216
21
-1.500002
31
0
39
0
210
0
220
0
230
1
0
LINE
5
105
100
AcDbEntity
8
1
62
256
6
ByLayer
370
18
48
1
60
1
100
AcDbLine
10
123.039216
20
-1.500002
30
0
11
123.960784
21
-1.499998
31
0
39
0
210
0
220
0
230
1
0
LINE
5
106
100
AcDbEntity
8
1
62
256
6
ByLayer
370
18
48
1
60
1
100
AcDbLine
10
123.960784
20
-1.499998
30
0
11
123.5
21
-5
31
0
39
0
210
0
220
0
230
1
0
LINE
5
107
100
AcDbEntity
8
1
62
256
6
ByLayer
370
18
48
1
60
1
100
AcDbLine
10
123.5
20
5
30
0
11
123.960784
21
1.500002
31
0
39
0
210
0
220
0
230
1
0
LINE
5
108
100
AcDbEntity
8
1
62
256
6
ByLayer
370
18
48
1
60
1
100
AcDbLine
10
123.960784
20
1.500002
30
0
11
123.039216
21
1.499998
31
0
39
0
210
0
220
0
230
1
0
LINE
5
109
100
AcDbEntity
8
1
62
256
6
ByLayer
370
18
48
1
60
1
100
AcDbLine
10
123.039216
20
1.499998
30
0
11
123.5
21
5
31
0
39
0
210
0
220
0
230
1
0
LINE
5
10A
100
AcDbEntity
8
SK2
62
256
6
ByLayer
370
13
48
1
60
0
100
AcDbLine
10
0.39048
20
8.072822
30
0
11
-12.776112
21
8.677437
31
0
39
0
210
0
220
0
230
1
0
LINE
5
10B
100
AcDbEntity
8
SK2
62
256
6
ByLayer
370
13
48
1
60
0
100
AcDbLine
10
-46.4125
20
0
30
0
11
-8.975242
21
0
31
0
39
0
210
0
220
0
230
1
0
LINE
5
10C
100
AcDbEntity
8
1
62
256
6
ByLayer
370
18
48
1
60
1
100
AcDbLine
10
-10.778217
20
8.585693
30
0
11
-10.46203
21
5.069682
31
0
39
0
210
0
220
0
230
1
0
LINE
5
10D
100
AcDbEntity
8
1
62
256
6
ByLayer
370
18
48
1
60
1
100
AcDbLine
10
-10.46203
20
5.069682
30
0
11
-11.382815
21
5.107648
31
0
39
0
210
0
220
0
230
1
0
LINE
5
10E
100
AcDbEntity
8
1
62
256
6
ByLayer
370
18
48
1
60
1
100
AcDbLine
10
-11.382815
20
5.107648
30
0
11
-10.778217
21
8.585693
31
0
39
0
210
0
220
0
230
1
0
LINE
5
10F
100
AcDbEntity
8
1
62
256
6
ByLayer
370
18
48
1
60
1
100
AcDbLine
10
-10.975242
20
0
30
0
11
-11.419659
21
3.502114
31
0
39
0
210
0
220
0
230
1
0
LINE
5
110
100
AcDbEntity
8
1
62
256
6
ByLayer
370
18
48
1
60
1
100
AcDbLine
10
-11.419659
20
3.502114
30
0
11
-10.498102
21
3.497809
31
0
39
0
210
0
220
0
230
1
0
LINE
5
111
100
AcDbEntity
8
1
62
256
6
ByLayer
370
18
48
1
60
1
100
AcDbLine
10
-10.498102
20
3.497809
30
0
11
-10.975242
21
0
31
0
39
0
210
0
220
0
230
1
0
LINE
5
1D6
100
AcDbEntity
8
1
62
256
6
ByLayer
370
18
48
1
60
1
100
AcDbLine
10
-54.5
20
-8
30
0
11
-54.960784
21
-4.500002
31
0
39
0
210
0
220
0
230
1
0
LINE
5
1D7
100
AcDbEntity
8
1
62
256
6
ByLayer
370
18
48
1
60
1
100
AcDbLine
10
-54.960784
20
-4.500002
30
0
11
-54.039216
21
-4.499998
31
0
39
0
210
0
220
0
230
1
0
LINE
5
1D8
100
AcDbEntity
8
1
62
256
6
ByLayer
370
18
48
1
60
1
100
AcDbLine
10
-54.039216
20
-4.499998
30
0
11
-54.5
21
-8
31
0
39
0
210
0
220
0
230
1
0
LINE
5
1DA
100
AcDbEntity
8
1
62
256
6
ByLayer
370
18
48
1
60
1
100
AcDbLine
10
-54.5
20
8
30
0
11
-54.039216
21
4.500002
31
0
39
0
210
0
220
0
230
1
0
LINE
5
1DB
100
AcDbEntity
8
1
62
256
6
ByLayer
370
18
48
1
60
1
100
AcDbLine
10
-54.039216
20
4.500002
30
0
11
-54.960784
21
4.499998
31
0
39
0
210
0
220
0
230
1
0
LINE
5
1DC
100
AcDbEntity
8
1
62
256
6
ByLayer
370
18
48
1
60
1
100
AcDbLine
10
-54.960784
20
4.499998
30
0
11
-54.5
21
8
31
0
39
0
210
0
220
0
230
1
0
LINE
5
1E0
100
AcDbEntity
8
1
62
256
6
ByLayer
370
18
48
1
60
1
100
AcDbLine
10
91.5
20
-4.095678
30
0
11
91.039216
21
-0.595679
31
0
39
0
210
0
220
0
230
1
0
LINE
5
1E1
100
AcDbEntity
8
1
62
256
6
ByLayer
370
18
48
1
60
1
100
AcDbLine
10
91.039216
20
-0.595679
30
0
11
91.960784
21
-0.595676
31
0
39
0
210
0
220
0
230
1
0
LINE
5
1E2
100
AcDbEntity
8
1
62
256
6
ByLayer
370
18
48
1
60
1
100
AcDbLine
10
91.960784
20
-0.595676
30
0
11
91.5
21
-4.095678
31
0
39
0
210
0
220
0
230
1
0
LINE
5
1E4
100
AcDbEntity
8
1
62
256
6
ByLayer
370
18
48
1
60
1
100
AcDbLine
10
91.5
20
4.095678
30
0
11
91.960784
21
0.595679
31
0
39
0
210
0
220
0
230
1
0
LINE
5
1E5
100
AcDbEntity
8
1
62
256
6
ByLayer
370
18
48
1
60
1
100
AcDbLine
10
91.960784
20
0.595679
30
0
11
91.039216
21
0.595676
31
0
39
0
210
0
220
0
230
1
0
LINE
5
1E6
100
AcDbEntity
8
1
62
256
6
ByLayer
370
18
48
1
60
1
100
AcDbLine
10
91.039216
20
0.595676
30
0
11
91.5
21
4.095678
31
0
39
0
210
0
220
0
230
1
0
LINE
5
1EA
100
AcDbEntity
8
1
62
256
6
ByLayer
370
18
48
1
60
1
100
AcDbLine
10
123.5
20
-5
30
0
11
123.039216
21
-1.500002
31
0
39
0
210
0
220
0
230
1
0
LINE
5
1EB
100
AcDbEntity
8
1
62
256
6
ByLayer
370
18
48
1
60
1
100
AcDbLine
10
123.039216
20
-1.500002
30
0
11
123.960784
21
-1.499998
31
0
39
0
210
0
220
0
230
1
0
LINE
5
1EC
100
AcDbEntity
8
1
62
256
6
ByLayer
370
18
48
1
60
1
100
AcDbLine
10
123.960784
20
-1.499998
30
0
11
123.5
21
-5
31
0
39
0
210
0
220
0
230
1
0
LINE
5
1EE
100
AcDbEntity
8
1
62
256
6
ByLayer
370
18
48
1
60
1
100
AcDbLine
10
123.5
20
5
30
0
11
123.960784
21
1.500002
31
0
39
0
210
0
220
0
230
1
0
LINE
5
1EF
100
AcDbEntity
8
1
62
256
6
ByLayer
370
18
48
1
60
1
100
AcDbLine
10
123.960784
20
1.500002
30
0
11
123.039216
21
1.499998
31
0
39
0
210
0
220
0
230
1
0
LINE
5
1F0
100
AcDbEntity
8
1
62
256
6
ByLayer
370
18
48
1
60
1
100
AcDbLine
10
123.039216
20
1.499998
30
0
11
123.5
21
5
31
0
39
0
210
0
220
0
230
1
0
LINE
5
1F3
100
AcDbEntity
8
1
62
256
6
ByLayer
370
18
48
1
60
1
100
AcDbLine
10
-10.778217
20
8.585693
30
0
11
-10.46203
21
5.069682
31
0
39
0
210
0
220
0
230
1
0
LINE
5
1F4
100
AcDbEntity
8
1
62
256
6
ByLayer
370
18
48
1
60
1
100
AcDbLine
10
-10.46203
20
5.069682
30
0
11
-11.382815
21
5.107648
31
0
39
0
210
0
220
0
230
1
0
LINE
5
1F5
100
AcDbEntity
8
1
62
256
6
ByLayer
370
18
48
1
60
1
100
AcDbLine
10
-11.382815
20
5.107648
30
0
11
-10.778217
21
8.585693
31
0
39
0
210
0
220
0
230
1
0
LINE
5
1F7
100
AcDbEntity
8
1
62
256
6
ByLayer
370
18
48
1
60
1
100
AcDbLine
10
-10.975242
20
0
30
0
11
-11.419659
21
3.502114
31
0
39
0
210
0
220
0
230
1
0
LINE
5
1F8
100
AcDbEntity
8
1
62
256
6
ByLayer
370
18
48
1
60
1
100
AcDbLine
10
-11.419659
20
3.502114
30
0
11
-10.498102
21
3.497809
31
0
39
0
210
0
220
0
230
1
0
LINE
5
1F9
100
AcDbEntity
8
1
62
256
6
ByLayer
370
18
48
1
60
1
100
AcDbLine
10
-10.498102
20
3.497809
30
0
11
-10.975242
21
0
31
0
39
0
210
0
220
0
230
1
0
MTEXT
5
1D2
100
AcDbEntity
8
SK2
62
256
6
ByLayer
370
18
48
1
60
0
100
AcDbMText
10
-55.841114
20
12.658437
30
0
210
0
220
0
230
1
1
%%c
40
3
41
0
44
1.084337
50
90
71
7
72
5
7
iso_b_vert
0
MTEXT
5
1D5
100
AcDbEntity
8
SK2
62
256
6
ByLayer
370
18
48
1
60
0
100
AcDbMText
10
-55.841114
20
18.635
30
0
210
0
220
0
230
1
1
\W0.6563;16 h6
40
3
41
0
44
1.084337
50
90
71
7
72
5
7
iso_b_vert
0
MTEXT
5
1DE
100
AcDbEntity
8
SK2
62
256
6
ByLayer
370
18
48
1
60
0
100
AcDbMText
10
90.158886
20
-32.43724
30
0
210
0
220
0
230
1
1
%%c
40
3
41
0
44
1.084337
50
90
71
7
72
5
7
iso_b_vert
0
MTEXT
5
1DF
100
AcDbEntity
8
SK2
62
256
6
ByLayer
370
18
48
1
60
0
100
AcDbMText
10
90.158886
20
-26.460678
30
0
210
0
220
0
230
1
1
\W0.6662;8.19
40
3
41
0
44
1.084337
50
90
71
7
72
5
7
iso_b_vert
0
MTEXT
5
1E8
100
AcDbEntity
8
2
62
256
6
ByLayer
370
18
48
1
60
0
100
AcDbMText
10
122.158886
20
11.658437
30
0
210
0
220
0
230
1
1
%%c
40
3
41
0
44
1.084337
50
90
71
7
72
5
7
iso_b_vert
0
MTEXT
5
1E9
100
AcDbEntity
8
2
62
256
6
ByLayer
370
18
48
1
60
0
100
AcDbMText
10
122.158886
20
17.635
30
0
210
0
220
0
230
1
1
\W0.5742;(10)
40
3
41
0
44
1.084337
50
90
71
7
72
5
7
iso_b_vert
0
MTEXT
5
1F2
100
AcDbEntity
8
SK2
62
256
6
ByLayer
370
18
48
1
60
0
100
AcDbMText
10
-10.909774
20
16.084832
30
0
210
0
220
0
230
1
1
\W0.7635;(3%%d)
40
3
41
0
44
1.084337
50
84.2658575265306
71
7
72
5
7
iso_b_vert
0
MTEXT
5
1FB
100
AcDbEntity
8
SK6
62
256
6
ByLayer
370
18
48
1
60
0
100
AcDbMText
10
3.470719
20
-42.935999
30
0
210
0
220
0
230
1
1
\W0.7427;2L486-1000-RI1600   R2AH
40
3
41
0
44
1.084337
50
0
71
7
72
5
7
iso_b_vert
0
HATCH
5
1D9
100
AcDbEntity
8
SK2
62
256
6
ByLayer
370
13
48
1
60
0
100
AcDbHatch
10
0
20
0
30
0
210
0
220
0
230
1
2
ANSI31
70
0
71
0
91
1
92
5
93
3
72
1
10
-54.5
20
-8
11
-54.9607837415528
21
-4.50000169255318
72
1
10
-54.9607837415528
20
-4.50000169255318
11
-54.0392162584472
21
-4.49999830744682
72
1
10
-54.0392162584472
20
-4.49999830744682
11
-54.5
21
-8
97
0
75
0
76
1
52
0
41
0.0062
77
0
78
1
53
45
43
0
44
0
45
-0.0139193969876572
46
0.0139193969876572
79
0
47
0
98
1
10
0
20
0
0
HATCH
5
1DD
100
AcDbEntity
8
SK2
62
256
6
ByLayer
370
13
48
1
60
0
100
AcDbHatch
10
0
20
0
30
0
210
0
220
0
230
1
2
ANSI31
70
0
71
0
91
1
92
5
93
3
72
1
10
-54.5
20
8
11
-54.0392162584472
21
4.50000169255318
72
1
10
-54.0392162584472
20
4.50000169255318
11
-54.9607837415528
21
4.49999830744682
72
1
10
-54.9607837415528
20
4.49999830744682
11
-54.5
21
8
97
0
75
0
76
1
52
0
41
0.0062
77
0
78
1
53
45
43
0
44
0
45
-0.0139193969876572
46
0.0139193969876572
79
0
47
0
98
1
10
0
20
0
0
HATCH
5
1E3
100
AcDbEntity
8
SK2
62
256
6
ByLayer
370
13
48
1
60
0
100
AcDbHatch
10
0
20
0
30
0
210
0
220
0
230
1
2
ANSI31
70
0
71
0
91
1
92
5
93
3
72
1
10
91.5
20
-4.09567772169638
11
91.0392162584472
21
-0.59567941424956
72
1
10
91.0392162584472
20
-0.59567941424956
11
91.9607837415528
21
-0.595676029143192
72
1
10
91.9607837415528
20
-0.595676029143192
11
91.5
21
-4.09567772169638
97
0
75
0
76
1
52
0
41
0.0062
77
0
78
1
53
45
43
0
44
0
45
-0.0139193969876572
46
0.0139193969876572
79
0
47
0
98
1
10
0
20
0
0
HATCH
5
1E7
100
AcDbEntity
8
SK2
62
256
6
ByLayer
370
13
48
1
60
0
100
AcDbHatch
10
0
20
0
30
0
210
0
220
0
230
1
2
ANSI31
70
0
71
0
91
1
92
5
93
3
72
1
10
91.5
20
4.09567772169615
11
91.9607837415528
21
0.595679414249332
72
1
10
91.9607837415528
20
0.595679414249332
11
91.0392162584472
21
0.595676029142965
72
1
10
91.0392162584472
20
0.595676029142965
11
91.5
21
4.09567772169615
97
0
75
0
76
1
52
0
41
0.0062
77
0
78
1
53
45
43
0
44
0
45
-0.0139193969876572
46
0.0139193969876572
79
0
47
0
98
1
10
0
20
0
0
HATCH
5
1ED
100
AcDbEntity
8
2
62
256
6
ByLayer
370
13
48
1
60
0
100
AcDbHatch
10
0
20
0
30
0
210
0
220
0
230
1
2
ANSI31
70
0
71
0
91
1
92
5
93
3
72
1
10
123.5
20
-5
11
123.039216258447
21
-1.50000169255318
72
1
10
123.039216258447
20
-1.50000169255318
11
123.960783741553
21
-1.49999830744682
72
1
10
123.960783741553
20
-1.49999830744682
11
123.5
21
-5
97
0
75
0
76
1
52
0
41
0.0062
77
0
78
1
53
45
43
0
44
0
45
-0.0139193969876572
46
0.0139193969876572
79
0
47
0
98
1
10
0
20
0
0
HATCH
5
1F1
100
AcDbEntity
8
2
62
256
6
ByLayer
370
13
48
1
60
0
100
AcDbHatch
10
0
20
0
30
0
210
0
220
0
230
1
2
ANSI31
70
0
71
0
91
1
92
5
93
3
72
1
10
123.5
20
5
11
123.960783741553
21
1.50000169255318
72
1
10
123.960783741553
20
1.50000169255318
11
123.039216258447
21
1.49999830744682
72
1
10
123.039216258447
20
1.49999830744682
11
123.5
21
5
97
0
75
0
76
1
52
0
41
0.0062
77
0
78
1
53
45
43
0
44
0
45
-0.0139193969876572
46
0.0139193969876572
79
0
47
0
98
1
10
0
20
0
0
HATCH
5
1F6
100
AcDbEntity
8
SK2
62
256
6
ByLayer
370
13
48
1
60
0
100
AcDbHatch
10
0
20
0
30
0
210
0
220
0
230
1
2
ANSI31
70
0
71
0
91
1
92
5
93
3
72
1
10
-10.7782168581722
20
8.58569298006222
11
-10.4620300776022
21
5.06968164213927
72
1
10
-10.4620300776022
20
5.06968164213927
11
-11.382815152722
21
5.10764835605548
72
1
10
-11.382815152722
20
5.10764835605548
11
-10.7782168581722
21
8.58569298006222
97
0
75
0
76
1
52
0
41
0.0062
77
0
78
1
53
45
43
0
44
0
45
-0.0139193969876572
46
0.0139193969876572
79
0
47
0
98
1
10
0
20
0
0
HATCH
5
1FA
100
AcDbEntity
8
SK2
62
256
6
ByLayer
370
13
48
1
60
0
100
AcDbHatch
10
0
20
0
30
0
210
0
220
0
230
1
2
ANSI31
70
0
71
0
91
1
92
5
93
3
72
1
10
-10.9752422935901
20
2.84E-14
11
-11.4196590679576
21
3.5021141528041
72
1
10
-11.4196590679576
20
3.5021141528041
11
-10.4981016391097
21
3.49780935732593
72
1
10
-10.4981016391097
20
3.49780935732593
11
-10.9752422935901
21
2.84E-14
97
0
75
0
76
1
52
0
41
0.0062
77
0
78
1
53
45
43
0
44
0
45
-0.0139193969876572
46
0.0139193969876572
79
0
47
0
98
1
10
0
20
0
0
DIMENSION
5
1FE
100
AcDbEntity
8
2
62
256
6
ByLayer
370
18
48
1
60
0
100
AcDbDimension
2
_U0
10
87
20
15.85
30
0
11
99.5
21
15.85
31
0
70
32
71
1
72
1
41
1
210
0
220
0
230
1
3
Standard
100
AcDbAlignedDimension
13
112
23
0
33
0
14
87
24
4.095678
34
0
50
0
100
AcDbRotatedDimension
1001
ACAD
1000
DSTYLE
1002
{
1070
   371
1070
    13
1070
   372
1070
    13
1070
     3
1000

1070
   170
1070
     0
1070
   144
1040
1.0
1070
   277
1070
     2
1070
   284
1070
     8
1070
   278
1070
    46
1070
   146
1040
1.166667
1070
   345
1005
16
1070
   347
1005
16
1070
   346
1005
16
1070
   344
1005
0
1070
   343
1005
0
1070
   172
1070
     1
1070
    76
1070
     0
1070
    75
1070
     0
1070
   282
1070
     0
1070
   281
1070
     0
1070
    71
1070
     0
1070
    74
1070
     0
1070
   279
1070
     0
1070
   173
1070
     1
1070
   340
1005
1D3
1070
   271
1070
     2
1070
   272
1070
     2
1070
    77
1070
     1
1070
    73
1070
     1
1070
   171
1070
     3
1070
   274
1070
     4
1070
   177
1070
     2
1070
   176
1070
     2
1070
   178
1070
     2
1070
    78
1070
     8
1070
    48
1040
-0.1
1070
    41
1040
3.5
1070
   147
1040
1.5
1070
    42
1040
1.5875
1070
    44
1040
2.0
1070
   140
1040
3.0
1002
}
1001
ACAD_DSTYLE_DIM_LINETYPE
1070
   380
1005
16
1001
ACAD_DSTYLE_DIM_EXT1_LINETYPE
1070
   381
1005
16
1001
ACAD_DSTYLE_DIM_EXT2_LINETYPE
1070
   382
1005
16
0
DIMENSION
5
217
100
AcDbEntity
8
2
62
256
6
ByLayer
370
18
48
1
60
0
100
AcDbDimension
2
_U1
10
1.976309
20
25.85
30
0
11
56.988154
21
25.85
31
0
70
32
71
1
72
1
41
1
210
0
220
0
230
1
3
Standard
100
AcDbAlignedDimension
13
112
23
0
33
0
14
1.976309
24
8
34
0
50
0
100
AcDbRotatedDimension
1001
ACAD
1000
DSTYLE
1002
{
1070
   371
1070
    13
1070
   372
1070
    13
1070
     3
1000

1070
   170
1070
     0
1070
   144
1040
1.0
1070
   277
1070
     2
1070
   284
1070
     8
1070
   278
1070
    46
1070
   146
1040
1.166667
1070
   345
1005
16
1070
   347
1005
16
1070
   346
1005
16
1070
   344
1005
0
1070
   343
1005
0
1070
   172
1070
     1
1070
    76
1070
     0
1070
    75
1070
     0
1070
   282
1070
     0
1070
   281
1070
     0
1070
    71
1070
     0
1070
    74
1070
     0
1070
   279
1070
     0
1070
   173
1070
     1
1070
   340
1005
1D3
1070
   271
1070
     2
1070
   272
1070
     2
1070
    77
1070
     1
1070
    73
1070
     1
1070
   171
1070
     3
1070
   274
1070
     4
1070
   177
1070
     2
1070
   176
1070
     2
1070
   178
1070
     2
1070
    78
1070
     8
1070
    48
1040
-0.1
1070
    41
1040
3.5
1070
   147
1040
1.5
1070
    42
1040
1.5875
1070
    44
1040
2.0
1070
   140
1040
3.0
1002
}
1001
ACAD_DSTYLE_DIM_LINETYPE
1070
   380
1005
16
1001
ACAD_DSTYLE_DIM_EXT1_LINETYPE
1070
   381
1005
16
1001
ACAD_DSTYLE_DIM_EXT2_LINETYPE
1070
   382
1005
16
0
DIMENSION
5
22F
100
AcDbEntity
8
SK2
62
256
6
ByLayer
370
18
48
1
60
0
100
AcDbDimension
2
_U2
10
-48
20
35.85
30
0
11
32
21
35.85
31
0
70
32
71
1
72
1
41
1
210
0
220
0
230
1
3
Standard
100
AcDbAlignedDimension
13
112
23
0
33
0
14
-48
24
0
34
0
50
0
100
AcDbRotatedDimension
1001
ACAD
1000
DSTYLE
1002
{
1070
   371
1070
    13
1070
   372
1070
    13
1070
     3
1000

1070
   170
1070
     0
1070
   144
1040
1.0
1070
   277
1070
     2
1070
   284
1070
     8
1070
   278
1070
    46
1070
   146
1040
1.166667
1070
   345
1005
16
1070
   347
1005
16
1070
   346
1005
16
1070
   344
1005
0
1070
   343
1005
0
1070
   172
1070
     1
1070
    76
1070
     0
1070
    75
1070
     0
1070
   282
1070
     0
1070
   281
1070
     0
1070
    71
1070
     0
1070
    74
1070
     0
1070
   279
1070
     0
1070
   173
1070
     1
1070
   340
1005
1D3
1070
   271
1070
     2
1070
   272
1070
     2
1070
    77
1070
     1
1070
    73
1070
     1
1070
   171
1070
     3
1070
   274
1070
     4
1070
   177
1070
     2
1070
   176
1070
     2
1070
   178
1070
     2
1070
    78
1070
     8
1070
    48
1040
-0.1
1070
    41
1040
3.5
1070
   147
1040
1.5
1070
    42
1040
1.5875
1070
    44
1040
2.0
1070
   140
1040
3.0
1002
}
1001
ACAD_DSTYLE_DIM_LINETYPE
1070
   380
1005
16
1001
ACAD_DSTYLE_DIM_EXT1_LINETYPE
1070
   381
1005
16
1001
ACAD_DSTYLE_DIM_EXT2_LINETYPE
1070
   382
1005
16
0
DIMENSION
5
247
100
AcDbEntity
8
SK2
62
256
6
ByLayer
370
18
48
1
60
0
100
AcDbDimension
2
_U3
10
0.6
20
-19.492226
30
0
11
-23.7
21
-19.492226
31
0
70
32
71
1
72
1
41
1
210
0
220
0
230
1
3
Standard
100
AcDbAlignedDimension
13
-48
23
0
33
0
14
0.6
24
-8
34
0
50
0
100
AcDbRotatedDimension
1001
ACAD
1000
DSTYLE
1002
{
1070
   371
1070
    13
1070
   372
1070
    13
1070
     3
1000

1070
   170
1070
     0
1070
   144
1040
1.0
1070
   277
1070
     2
1070
   284
1070
     8
1070
   278
1070
    46
1070
   146
1040
1.166667
1070
   345
1005
16
1070
   347
1005
16
1070
   346
1005
16
1070
   344
1005
0
1070
   343
1005
0
1070
   172
1070
     1
1070
    76
1070
     0
1070
    75
1070
     0
1070
   282
1070
     0
1070
   281
1070
     0
1070
    71
1070
     0
1070
    74
1070
     0
1070
   279
1070
     0
1070
   173
1070
     1
1070
   340
1005
1D3
1070
   271
1070
     2
1070
   272
1070
     2
1070
    77
1070
     1
1070
    73
1070
     1
1070
   171
1070
     3
1070
   274
1070
     4
1070
   177
1070
     2
1070
   176
1070
     2
1070
   178
1070
     2
1070
    78
1070
     8
1070
    48
1040
-0.1
1070
    41
1040
3.5
1070
   147
1040
1.5
1070
    42
1040
1.5875
1070
    44
1040
2.0
1070
   140
1040
3.0
1002
}
1001
ACAD_DSTYLE_DIM_LINETYPE
1070
   380
1005
16
1001
ACAD_DSTYLE_DIM_EXT1_LINETYPE
1070
   381
1005
16
1001
ACAD_DSTYLE_DIM_EXT2_LINETYPE
1070
   382
1005
16
0
DIMENSION
5
25F
100
AcDbEntity
8
SK2
62
256
6
ByLayer
370
18
48
1
60
0
100
AcDbDimension
2
_U4
10
104.132
20
-11.5
30
0
11
128.071429
21
-11.5
31
0
70
32
71
1
72
1
41
1
210
0
220
0
230
1
3
Standard
100
AcDbAlignedDimension
13
112
23
0
33
0
14
104.132
24
4.095678
34
0
50
0
100
AcDbRotatedDimension
1001
ACAD
1000
DSTYLE
1002
{
1070
   371
1070
    13
1070
   372
1070
    13
1070
     3
1000

1070
   170
1070
     0
1070
   144
1040
1.0
1070
   277
1070
     2
1070
   284
1070
     8
1070
   278
1070
    46
1070
   146
1040
1.166667
1070
   345
1005
16
1070
   347
1005
16
1070
   346
1005
16
1070
   344
1005
0
1070
   343
1005
0
1070
   172
1070
     1
1070
    76
1070
     0
1070
    75
1070
     0
1070
   282
1070
     0
1070
   281
1070
     0
1070
    71
1070
     0
1070
    74
1070
     0
1070
   279
1070
     0
1070
   173
1070
     1
1070
   340
1005
1D3
1070
   271
1070
     2
1070
   272
1070
     2
1070
    77
1070
     1
1070
    73
1070
     1
1070
   171
1070
     3
1070
   274
1070
     4
1070
   177
1070
     2
1070
   176
1070
     2
1070
   178
1070
     2
1070
    78
1070
     8
1070
    48
1040
-0.1
1070
    41
1040
3.5
1070
   147
1040
1.5
1070
    42
1040
1.5875
1070
    44
1040
2.0
1070
   140
1040
3.0
1002
}
1001
ACAD_DSTYLE_DIM_LINETYPE
1070
   380
1005
16
1001
ACAD_DSTYLE_DIM_EXT1_LINETYPE
1070
   381
1005
16
1001
ACAD_DSTYLE_DIM_EXT2_LINETYPE
1070
   382
1005
16
0
ENDSEC
0
SECTION
2
OBJECTS
0
DICTIONARY
5
2e9
330
0
100
AcDbDictionary
280
0
281
1
3
ACAD_GROUP
350
2ea
3
ACAD_MLINESTYLE
350
2eb
0
DICTIONARY
5
2ea
330
0
100
AcDbDictionary
280
0
281
1
0
DICTIONARY
5
2eb
330
0
100
AcDbDictionary
280
0
281
1
3
Standard
350
18
0
MLINESTYLE
5
18
330
2eb
100
AcDbMlineStyle
2
Standard
70
0
3

62
256
51
90
52
90
71
2
49
-0.5
62
256
6
ByLayer
49
0.5
62
256
6
ByLayer
0
RASTERVARIABLES
5
2d7
330

100
AcDbRasterVariables
90
0
70
1
71
1
72
1
0
ENDSEC
0
EOF
