0
SECTION
2
HEADER
9
$ACADVER
1
AC1015
9
$DWGCODEPAGE
3
ANSI_1252
9
$HANDSEED
5
2af
9
$ANGBASE
50
0
9
$ANGDIR
70
0
9
$ATTMODE
70
1
9
$AUNITS
70
0
9
$AUPREC
70
0
9
$CECOLOR
62
256
9
$CELTSCALE
40
1
9
$CELTYPE
6
ByLayer
9
$CELWEIGHT
370
18
9
$CLAYER
8
0
9
$CMLJUST
70
0
9
$CMLSCALE
40
1
9
$CMLSTYLE
2
Standard
9
$DIMSTYLE
2
Standard
9
$TEXTSIZE
40
0.2
9
$TEXTSTYLE
7
Standard
9
$LUNITS
70
2
9
$LUPREC
70
4
9
$EXTNAMES
290
1
9
$INSUNITS
70
4
9
$LTSCALE
40
1
9
$LWDISPLAY
290
1
9
$PDMODE
70
0
9
$PDSIZE
40
0
9
$PLINEGEN
70
0
0
ENDSEC
0
SECTION
2
CLASSES
0
CLASS
1
RASTERVARIABLES
2
AcDbRasterVariables
3
ISM
90
0
280
0
281
0
0
ENDSEC
0
SECTION
2
TABLES
0
TABLE
2
VPORT
5
2a5
100
AcDbSymbolTable
0
VPORT
5
1
100
AcDbSymbolTableRecord
100
AcDbViewportTableRecord
2
*Active
70
0
10
0
20
0
11
1
21
1
12
-1
22
1
13
0
23
0
14
0.5
24
0.5
15
10
25
10
16
0
26
0
36
1
17
0
27
0
37
0
0
ENDTAB
0
TABLE
2
LTYPE
5
2a6
100
AcDbSymbolTable
0
LTYPE
5
14
100
AcDbSymbolTableRecord
100
AcDbLinetypeTableRecord
70
0
2
ByBlock
3

72
65
73
0
40
0
0
LTYPE
5
15
100
AcDbSymbolTableRecord
100
AcDbLinetypeTableRecord
70
0
2
ByLayer
3

72
65
73
0
40
0
0
LTYPE
5
16
100
AcDbSymbolTableRecord
100
AcDbLinetypeTableRecord
70
0
2
Continuous
3
Solid line
72
65
73
0
40
0
0
LTYPE
5
6E
100
AcDbSymbolTableRecord
100
AcDbLinetypeTableRecord
70
0
2
CENTER
3
____ _ ____ _ ____ _ ____
72
65
73
4
40
47.5
49
22
74
0
49
-8.5
74
0
49
8.5
74
0
49
-8.5
74
0
0
LTYPE
5
6F
100
AcDbSymbolTableRecord
100
AcDbLinetypeTableRecord
70
0
2
DASHED
3
__ __ __ __ __ __ __ __ __
72
65
73
2
40
25.72
49
12.86
74
0
49
-12.86
74
0
0
ENDTAB
0
TABLE
2
LAYER
5
2a7
100
AcDbSymbolTable
0
LAYER
5
10
100
AcDbSymbolTableRecord
100
AcDbLayerTableRecord
2
0
70
0
62
7
6
Continuous
290
1
370
-3
390
0
0
LAYER
5
71
100
AcDbSymbolTableRecord
100
AcDbLayerTableRecord
2
81
70
0
62
-3
6
Continuous
290
1
370
-3
390
0
0
LAYER
5
73
100
AcDbSymbolTableRecord
100
AcDbLayerTableRecord
2
80
70
0
62
-6
6
Continuous
290
1
370
-3
390
0
0
LAYER
5
75
100
AcDbSymbolTableRecord
100
AcDbLayerTableRecord
2
1
70
0
62
4
6
Continuous
290
1
370
-3
390
0
0
LAYER
5
84
100
AcDbSymbolTableRecord
100
AcDbLayerTableRecord
2
4
70
0
62
-2
6
CENTER
290
1
370
-3
390
0
0
LAYER
5
EC
100
AcDbSymbolTableRecord
100
AcDbLayerTableRecord
2
2
70
0
62
7
6
Continuous
290
1
370
-3
390
0
0
LAYER
5
1B9
100
AcDbSymbolTableRecord
100
AcDbLayerTableRecord
2
Defpoints
70
0
62
7
6
Continuous
290
0
370
-3
390
0
0
LAYER
5
291
100
AcDbSymbolTableRecord
100
AcDbLayerTableRecord
2
SK4
70
0
62
2
6
CENTER
290
1
370
-3
390
0
0
LAYER
5
292
100
AcDbSymbolTableRecord
100
AcDbLayerTableRecord
2
SK1
70
0
62
4
6
Continuous
290
1
370
-3
390
0
0
LAYER
5
293
100
AcDbSymbolTableRecord
100
AcDbLayerTableRecord
2
SK2
70
0
62
7
6
Continuous
290
1
370
-3
390
0
0
LAYER
5
294
100
AcDbSymbolTableRecord
100
AcDbLayerTableRecord
2
SK6
70
0
62
5
6
Continuous
290
1
370
-3
390
0
0
ENDTAB
0
TABLE
2
STYLE
5
2a8
100
AcDbSymbolTable
0
STYLE
5
11
100
AcDbSymbolTableRecord
100
AcDbTextStyleTableRecord
2
Standard
3
txt
70
0
71
0
40
0
41
1
42
0
50
0
0
STYLE
5
18B
100
AcDbSymbolTableRecord
100
AcDbTextStyleTableRecord
2
iso_b_vert
3
simplex.shx
70
0
71
0
40
0
41
1
42
0
50
0
0
STYLE
5
18C
100
AcDbSymbolTableRecord
100
AcDbTextStyleTableRecord
2
DWGDirectTextStyle
3
simplex
70
0
71
0
40
0
41
1
42
0
50
0
0
ENDTAB
0
TABLE
2
DIMSTYLE
5
2a9
100
AcDbSymbolTable
100
AcDbDimStyleTable
0
DIMSTYLE
105
27
100
AcDbSymbolTableRecord
100
AcDbDimStyleTableRecord
2
Standard
70
0
3
<>
41
0.18
42
0.0625
44
0.18
140
0.18
147
0.09
73
0
74
0
77
1
271
2
275
0
278
52
280
0
340
11
0
ENDTAB
0
TABLE
2
VIEW
5
2aa
100
AcDbSymbolTable
0
ENDTAB
0
TABLE
2
UCS
5
2ab
100
AcDbSymbolTable
0
ENDTAB
0
TABLE
2
APPID
5
2ac
100
AcDbSymbolTable
0
APPID
5
12
100
AcDbSymbolTableRecord
100
AcDbRegAppTableRecord
2
ACAD
70
0
0
APPID
5
1B5
100
AcDbSymbolTableRecord
100
AcDbRegAppTableRecord
2
ACAD_DSTYLE_DIMBREAK
70
0
0
APPID
5
250
100
AcDbSymbolTableRecord
100
AcDbRegAppTableRecord
2
ACAD_DSTYLE_DIM_LINETYPE
70
0
0
APPID
5
251
100
AcDbSymbolTableRecord
100
AcDbRegAppTableRecord
2
ACAD_DSTYLE_DIM_EXT1_LINETYPE
70
0
0
APPID
5
252
100
AcDbSymbolTableRecord
100
AcDbRegAppTableRecord
2
ACAD_DSTYLE_DIM_EXT2_LINETYPE
70
0
0
APPID
5
28D
100
AcDbSymbolTableRecord
100
AcDbRegAppTableRecord
2
ACAD_MLEADERVER
70
0
0
ENDTAB
0
TABLE
2
BLOCK_RECORD
5
2ad
100
AcDbSymbolTable
0
BLOCK_RECORD
5
1F
100
AcDbSymbolTableRecord
100
AcDbBlockTableRecord
2
*Model_Space
340
0
70
0
0
BLOCK_RECORD
5
1B
100
AcDbSymbolTableRecord
100
AcDbBlockTableRecord
2
*Paper_Space
340
0
70
0
0
BLOCK_RECORD
5
23
100
AcDbSymbolTableRecord
100
AcDbBlockTableRecord
2
*Paper_Space0
340
0
70
0
0
BLOCK_RECORD
5
1BA
100
AcDbSymbolTableRecord
100
AcDbBlockTableRecord
2
*D1
340
0
70
0
0
BLOCK_RECORD
5
1C7
100
AcDbSymbolTableRecord
100
AcDbBlockTableRecord
2
_U0
340
0
70
0
0
BLOCK_RECORD
5
1D3
100
AcDbSymbolTableRecord
100
AcDbBlockTableRecord
2
*D3
340
0
70
0
0
BLOCK_RECORD
5
1DF
100
AcDbSymbolTableRecord
100
AcDbBlockTableRecord
2
_U1
340
0
70
0
0
BLOCK_RECORD
5
1EB
100
AcDbSymbolTableRecord
100
AcDbBlockTableRecord
2
*D5
340
0
70
0
0
BLOCK_RECORD
5
1F7
100
AcDbSymbolTableRecord
100
AcDbBlockTableRecord
2
_U2
340
0
70
0
0
BLOCK_RECORD
5
203
100
AcDbSymbolTableRecord
100
AcDbBlockTableRecord
2
*D7
340
0
70
0
0
BLOCK_RECORD
5
20F
100
AcDbSymbolTableRecord
100
AcDbBlockTableRecord
2
_U3
340
0
70
0
0
BLOCK_RECORD
5
21B
100
AcDbSymbolTableRecord
100
AcDbBlockTableRecord
2
*D9
340
0
70
0
0
BLOCK_RECORD
5
229
100
AcDbSymbolTableRecord
100
AcDbBlockTableRecord
2
_U4
340
0
70
0
0
ENDTAB
0
ENDSEC
0
SECTION
2
BLOCKS
0
BLOCK
5
20
100
AcDbEntity
8
0
100
AcDbBlockBegin
2
*Model_Space
70
0
10
0
20
0
30
0
3
*Model_Space
0
ENDBLK
5
21
100
AcDbEntity
8
0
100
AcDbBlockEnd
0
BLOCK
5
1C
100
AcDbEntity
8
0
100
AcDbBlockBegin
2
*Paper_Space
70
0
10
0
20
0
30
0
3
*Paper_Space
0
ENDBLK
5
1D
100
AcDbEntity
8
0
100
AcDbBlockEnd
0
BLOCK
5
24
100
AcDbEntity
8
0
100
AcDbBlockBegin
2
*Paper_Space0
70
0
10
0
20
0
30
0
3
*Paper_Space0
0
ENDBLK
5
25
100
AcDbEntity
8
0
100
AcDbBlockEnd
0
BLOCK
5
1BB
100
AcDbEntity
8
0
100
AcDbBlockBegin
2
*D1
70
1
10
0
20
0
30
0
3
*D1
0
LINE
5
1BD
100
AcDbEntity
8
0
62
256
6
ByLayer
370
-2
48
1
60
0
100
AcDbLine
10
59
20
1.5875
30
0
11
59
21
12.85
31
0
39
0
210
0
220
0
230
1
0
LINE
5
1BE
100
AcDbEntity
8
0
62
256
6
ByLayer
370
-2
48
1
60
0
100
AcDbLine
10
54
20
2.407055
30
0
11
54
21
12.85
31
0
39
0
210
0
220
0
230
1
0
LINE
5
1BF
100
AcDbEntity
8
0
62
256
6
ByLayer
370
-2
48
1
60
0
100
AcDbLine
10
62.5
20
10.85
30
0
11
66
21
10.85
31
0
39
0
210
0
220
0
230
1
0
LINE
5
1C0
100
AcDbEntity
8
0
62
256
6
ByLayer
370
-2
48
1
60
0
100
AcDbLine
10
50.5
20
10.85
30
0
11
47
21
10.85
31
0
39
0
210
0
220
0
230
1
0
SOLID
5
1C1
100
AcDbEntity
8
0
62
256
6
ByLayer
370
-1
48
1
60
0
100
AcDbTrace
10
62.5
20
11.433333
30
0
11
62.5
21
10.266667
31
0
12
59
22
10.85
32
0
13
59
23
10.85
33
0
39
0
210
0
220
0
230
1
0
SOLID
5
1C2
100
AcDbEntity
8
0
62
256
6
ByLayer
370
-1
48
1
60
0
100
AcDbTrace
10
50.5
20
10.266667
30
0
11
50.5
21
11.433333
31
0
12
54
22
10.85
32
0
13
54
23
10.85
33
0
39
0
210
0
220
0
230
1
0
MTEXT
5
1C3
100
AcDbEntity
8
0
62
256
6
ByLayer
370
18
48
1
60
0
100
AcDbMText
10
56.5
20
16.85
30
0
210
0
220
0
230
1
1
\A1;5
40
3
41
0
44
1
50
0
71
5
72
5
7
iso_b_vert
0
POINT
5
1C4
100
AcDbEntity
8
Defpoints
62
0
6
ByLayer
370
-1
48
1
60
0
100
AcDbPoint
10
59
20
0
30
0
39
0
210
0
220
0
230
1
50
360
0
POINT
5
1C5
100
AcDbEntity
8
Defpoints
62
0
6
ByLayer
370
-1
48
1
60
0
100
AcDbPoint
10
54
20
0.819555
30
0
39
0
210
0
220
0
230
1
50
360
0
POINT
5
1C6
100
AcDbEntity
8
Defpoints
62
0
6
ByLayer
370
-1
48
1
60
0
100
AcDbPoint
10
54
20
10.85
30
0
39
0
210
0
220
0
230
1
50
360
0
ENDBLK
5
1BC
100
AcDbEntity
8
0
100
AcDbBlockEnd
0
BLOCK
5
1CE
100
AcDbEntity
8
0
100
AcDbBlockBegin
2
_U0
70
0
10
0
20
0
30
0
3
_U0
0
MTEXT
5
1C8
100
AcDbEntity
8
2
62
256
6
ByLayer
370
18
48
1
60
0
100
AcDbMText
10
55.988086
20
11.735114
30
0
210
0
220
0
230
1
1
\W0.5404;5
40
3
41
0
44
1.084337
50
0
71
7
72
5
7
iso_b_vert
0
LINE
5
1C9
100
AcDbEntity
8
2
62
256
6
ByLayer
370
13
48
1
60
0
100
AcDbLine
10
59
20
1.5875
30
0
11
59
21
12.85
31
0
39
0
210
0
220
0
230
1
0
LINE
5
1CA
100
AcDbEntity
8
2
62
256
6
ByLayer
370
13
48
1
60
0
100
AcDbLine
10
54
20
2.407055
30
0
11
54
21
12.85
31
0
39
0
210
0
220
0
230
1
0
LINE
5
1CB
100
AcDbEntity
8
2
62
256
6
ByLayer
370
13
48
1
60
0
100
AcDbLine
10
66.5
20
10.85
30
0
11
46.5
21
10.85
31
0
39
0
210
0
220
0
230
1
0
SOLID
5
1CC
100
AcDbEntity
8
2
62
256
6
ByLayer
370
18
48
1
60
0
100
AcDbTrace
10
59
20
10.85
30
0
11
62.499998
21
11.310784
31
0
12
62.500002
22
10.389216
32
0
13
62.500002
23
10.389216
33
0
39
0
210
0
220
0
230
1
0
SOLID
5
1CD
100
AcDbEntity
8
2
62
256
6
ByLayer
370
18
48
1
60
0
100
AcDbTrace
10
54
20
10.85
30
0
11
50.500002
21
10.389216
31
0
12
50.499998
22
11.310784
32
0
13
50.499998
23
11.310784
33
0
39
0
210
0
220
0
230
1
0
ENDBLK
5
1CF
100
AcDbEntity
8
0
100
AcDbBlockEnd
0
BLOCK
5
1D4
100
AcDbEntity
8
0
100
AcDbBlockBegin
2
*D3
70
1
10
0
20
0
30
0
3
*D3
0
LINE
5
1D6
100
AcDbEntity
8
0
62
256
6
ByLayer
370
-2
48
1
60
0
100
AcDbLine
10
59
20
1.5875
30
0
11
59
21
22.85
31
0
39
0
210
0
220
0
230
1
0
LINE
5
1D7
100
AcDbEntity
8
0
62
256
6
ByLayer
370
-2
48
1
60
0
100
AcDbLine
10
28.955082
20
4.5875
30
0
11
28.955082
21
22.85
31
0
39
0
210
0
220
0
230
1
0
LINE
5
1D8
100
AcDbEntity
8
0
62
256
6
ByLayer
370
-2
48
1
60
0
100
AcDbLine
10
55.5
20
20.85
30
0
11
32.455082
21
20.85
31
0
39
0
210
0
220
0
230
1
0
SOLID
5
1D9
100
AcDbEntity
8
0
62
256
6
ByLayer
370
-1
48
1
60
0
100
AcDbTrace
10
55.5
20
20.266667
30
0
11
55.5
21
21.433333
31
0
12
59
22
20.85
32
0
13
59
23
20.85
33
0
39
0
210
0
220
0
230
1
0
SOLID
5
1DA
100
AcDbEntity
8
0
62
256
6
ByLayer
370
-1
48
1
60
0
100
AcDbTrace
10
32.455082
20
21.433333
30
0
11
32.455082
21
20.266667
31
0
12
28.955082
22
20.85
32
0
13
28.955082
23
20.85
33
0
39
0
210
0
220
0
230
1
0
MTEXT
5
1DB
100
AcDbEntity
8
0
62
256
6
ByLayer
370
18
48
1
60
0
100
AcDbMText
10
43.977541
20
26.85
30
0
210
0
220
0
230
1
1
\A1;30.04
40
3
41
0
44
1
50
0
71
5
72
5
7
iso_b_vert
0
POINT
5
1DC
100
AcDbEntity
8
Defpoints
62
0
6
ByLayer
370
-1
48
1
60
0
100
AcDbPoint
10
59
20
0
30
0
39
0
210
0
220
0
230
1
50
360
0
POINT
5
1DD
100
AcDbEntity
8
Defpoints
62
0
6
ByLayer
370
-1
48
1
60
0
100
AcDbPoint
10
28.955082
20
3
30
0
39
0
210
0
220
0
230
1
50
360
0
POINT
5
1DE
100
AcDbEntity
8
Defpoints
62
0
6
ByLayer
370
-1
48
1
60
0
100
AcDbPoint
10
28.955082
20
20.85
30
0
39
0
210
0
220
0
230
1
50
360
0
ENDBLK
5
1D5
100
AcDbEntity
8
0
100
AcDbBlockEnd
0
BLOCK
5
1E6
100
AcDbEntity
8
0
100
AcDbBlockBegin
2
_U1
70
0
10
0
20
0
30
0
3
_U1
0
MTEXT
5
1E0
100
AcDbEntity
8
2
62
256
6
ByLayer
370
18
48
1
60
0
100
AcDbMText
10
42.344713
20
21.735114
30
0
210
0
220
0
230
1
1
\W0.6740;30
40
3
41
0
44
1.084337
50
0
71
7
72
5
7
iso_b_vert
0
LINE
5
1E1
100
AcDbEntity
8
2
62
256
6
ByLayer
370
13
48
1
60
0
100
AcDbLine
10
59
20
1.5875
30
0
11
59
21
22.85
31
0
39
0
210
0
220
0
230
1
0
LINE
5
1E2
100
AcDbEntity
8
2
62
256
6
ByLayer
370
13
48
1
60
0
100
AcDbLine
10
28.955082
20
4.5875
30
0
11
28.955082
21
22.85
31
0
39
0
210
0
220
0
230
1
0
LINE
5
1E3
100
AcDbEntity
8
2
62
256
6
ByLayer
370
13
48
1
60
0
100
AcDbLine
10
59
20
20.85
30
0
11
28.955082
21
20.85
31
0
39
0
210
0
220
0
230
1
0
SOLID
5
1E4
100
AcDbEntity
8
2
62
256
6
ByLayer
370
18
48
1
60
0
100
AcDbTrace
10
59
20
20.85
30
0
11
55.500002
21
20.389216
31
0
12
55.499998
22
21.310784
32
0
13
55.499998
23
21.310784
33
0
39
0
210
0
220
0
230
1
0
SOLID
5
1E5
100
AcDbEntity
8
2
62
256
6
ByLayer
370
18
48
1
60
0
100
AcDbTrace
10
28.955082
20
20.85
30
0
11
32.455081
21
21.310784
31
0
12
32.455084
22
20.389216
32
0
13
32.455084
23
20.389216
33
0
39
0
210
0
220
0
230
1
0
ENDBLK
5
1E7
100
AcDbEntity
8
0
100
AcDbBlockEnd
0
BLOCK
5
1EC
100
AcDbEntity
8
0
100
AcDbBlockBegin
2
*D5
70
1
10
0
20
0
30
0
3
*D5
0
LINE
5
1EE
100
AcDbEntity
8
0
62
256
6
ByLayer
370
-2
48
1
60
0
100
AcDbLine
10
59
20
1.5875
30
0
11
59
21
32.85
31
0
39
0
210
0
220
0
230
1
0
LINE
5
1EF
100
AcDbEntity
8
0
62
256
6
ByLayer
370
-2
48
1
60
0
100
AcDbLine
10
-36
20
1.5875
30
0
11
-36
21
32.85
31
0
39
0
210
0
220
0
230
1
0
LINE
5
1F0
100
AcDbEntity
8
0
62
256
6
ByLayer
370
-2
48
1
60
0
100
AcDbLine
10
55.5
20
30.85
30
0
11
-32.5
21
30.85
31
0
39
0
210
0
220
0
230
1
0
SOLID
5
1F1
100
AcDbEntity
8
0
62
256
6
ByLayer
370
-1
48
1
60
0
100
AcDbTrace
10
55.5
20
30.266667
30
0
11
55.5
21
31.433333
31
0
12
59
22
30.85
32
0
13
59
23
30.85
33
0
39
0
210
0
220
0
230
1
0
SOLID
5
1F2
100
AcDbEntity
8
0
62
256
6
ByLayer
370
-1
48
1
60
0
100
AcDbTrace
10
-32.5
20
31.433333
30
0
11
-32.5
21
30.266667
31
0
12
-36
22
30.85
32
0
13
-36
23
30.85
33
0
39
0
210
0
220
0
230
1
0
MTEXT
5
1F3
100
AcDbEntity
8
0
62
256
6
ByLayer
370
18
48
1
60
0
100
AcDbMText
10
11.5
20
36.85
30
0
210
0
220
0
230
1
1
\A1;95
40
3
41
0
44
1
50
0
71
5
72
5
7
iso_b_vert
0
POINT
5
1F4
100
AcDbEntity
8
Defpoints
62
0
6
ByLayer
370
-1
48
1
60
0
100
AcDbPoint
10
59
20
0
30
0
39
0
210
0
220
0
230
1
50
360
0
POINT
5
1F5
100
AcDbEntity
8
Defpoints
62
0
6
ByLayer
370
-1
48
1
60
0
100
AcDbPoint
10
-36
20
0
30
0
39
0
210
0
220
0
230
1
50
360
0
POINT
5
1F6
100
AcDbEntity
8
Defpoints
62
0
6
ByLayer
370
-1
48
1
60
0
100
AcDbPoint
10
-36
20
30.85
30
0
39
0
210
0
220
0
230
1
50
360
0
ENDBLK
5
1ED
100
AcDbEntity
8
0
100
AcDbBlockEnd
0
BLOCK
5
1FE
100
AcDbEntity
8
0
100
AcDbBlockBegin
2
_U2
70
0
10
0
20
0
30
0
3
_U2
0
MTEXT
5
1F8
100
AcDbEntity
8
SK2
62
256
6
ByLayer
370
18
48
1
60
0
100
AcDbMText
10
9.867172
20
31.735114
30
0
210
0
220
0
230
1
1
\W0.6740;95
40
3
41
0
44
1.084337
50
0
71
7
72
5
7
iso_b_vert
0
LINE
5
1F9
100
AcDbEntity
8
SK2
62
256
6
ByLayer
370
13
48
1
60
0
100
AcDbLine
10
59
20
1.5875
30
0
11
59
21
32.85
31
0
39
0
210
0
220
0
230
1
0
LINE
5
1FA
100
AcDbEntity
8
SK2
62
256
6
ByLayer
370
13
48
1
60
0
100
AcDbLine
10
-36
20
1.5875
30
0
11
-36
21
32.85
31
0
39
0
210
0
220
0
230
1
0
LINE
5
1FB
100
AcDbEntity
8
SK2
62
256
6
ByLayer
370
13
48
1
60
0
100
AcDbLine
10
59
20
30.85
30
0
11
-36
21
30.85
31
0
39
0
210
0
220
0
230
1
0
SOLID
5
1FC
100
AcDbEntity
8
SK2
62
256
6
ByLayer
370
18
48
1
60
0
100
AcDbTrace
10
59
20
30.85
30
0
11
55.500002
21
30.389216
31
0
12
55.499998
22
31.310784
32
0
13
55.499998
23
31.310784
33
0
39
0
210
0
220
0
230
1
0
SOLID
5
1FD
100
AcDbEntity
8
SK2
62
256
6
ByLayer
370
18
48
1
60
0
100
AcDbTrace
10
-36
20
30.85
30
0
11
-32.500002
21
31.310784
31
0
12
-32.499998
22
30.389216
32
0
13
-32.499998
23
30.389216
33
0
39
0
210
0
220
0
230
1
0
ENDBLK
5
1FF
100
AcDbEntity
8
0
100
AcDbBlockEnd
0
BLOCK
5
204
100
AcDbEntity
8
0
100
AcDbBlockBegin
2
*D7
70
1
10
0
20
0
30
0
3
*D7
0
LINE
5
206
100
AcDbEntity
8
0
62
256
6
ByLayer
370
-2
48
1
60
0
100
AcDbLine
10
-36
20
-1.5875
30
0
11
-36
21
-14.85
31
0
39
0
210
0
220
0
230
1
0
LINE
5
207
100
AcDbEntity
8
0
62
256
6
ByLayer
370
-2
48
1
60
0
100
AcDbLine
10
0.4
20
-4.5875
30
0
11
0.4
21
-14.85
31
0
39
0
210
0
220
0
230
1
0
LINE
5
208
100
AcDbEntity
8
0
62
256
6
ByLayer
370
-2
48
1
60
0
100
AcDbLine
10
-32.5
20
-12.85
30
0
11
-3.1
21
-12.85
31
0
39
0
210
0
220
0
230
1
0
SOLID
5
209
100
AcDbEntity
8
0
62
256
6
ByLayer
370
-1
48
1
60
0
100
AcDbTrace
10
-32.5
20
-12.266667
30
0
11
-32.5
21
-13.433333
31
0
12
-36
22
-12.85
32
0
13
-36
23
-12.85
33
0
39
0
210
0
220
0
230
1
0
SOLID
5
20A
100
AcDbEntity
8
0
62
256
6
ByLayer
370
-1
48
1
60
0
100
AcDbTrace
10
-3.1
20
-13.433333
30
0
11
-3.1
21
-12.266667
31
0
12
0.4
22
-12.85
32
0
13
0.4
23
-12.85
33
0
39
0
210
0
220
0
230
1
0
MTEXT
5
20B
100
AcDbEntity
8
0
62
256
6
ByLayer
370
18
48
1
60
0
100
AcDbMText
10
-17.8
20
-6.85
30
0
210
0
220
0
230
1
1
\A1;36.4
40
3
41
0
44
1
50
0
71
5
72
5
7
iso_b_vert
0
POINT
5
20C
100
AcDbEntity
8
Defpoints
62
0
6
ByLayer
370
-1
48
1
60
0
100
AcDbPoint
10
-36
20
0
30
0
39
0
210
0
220
0
230
1
50
360
0
POINT
5
20D
100
AcDbEntity
8
Defpoints
62
0
6
ByLayer
370
-1
48
1
60
0
100
AcDbPoint
10
0.4
20
-3
30
0
39
0
210
0
220
0
230
1
50
360
0
POINT
5
20E
100
AcDbEntity
8
Defpoints
62
0
6
ByLayer
370
-1
48
1
60
0
100
AcDbPoint
10
0.4
20
-12.85
30
0
39
0
210
0
220
0
230
1
50
360
0
ENDBLK
5
205
100
AcDbEntity
8
0
100
AcDbBlockEnd
0
BLOCK
5
216
100
AcDbEntity
8
0
100
AcDbBlockBegin
2
_U3
70
0
10
0
20
0
30
0
3
_U3
0
MTEXT
5
210
100
AcDbEntity
8
SK2
62
256
6
ByLayer
370
18
48
1
60
0
100
AcDbMText
10
-25.364913
20
-11.964886
30
0
210
0
220
0
230
1
1
\W0.7245;(MIN. 36)
40
3
41
0
44
1.084337
50
0
71
7
72
5
7
iso_b_vert
0
LINE
5
211
100
AcDbEntity
8
SK2
62
256
6
ByLayer
370
13
48
1
60
0
100
AcDbLine
10
-36
20
-1.5875
30
0
11
-36
21
-14.85
31
0
39
0
210
0
220
0
230
1
0
LINE
5
212
100
AcDbEntity
8
SK2
62
256
6
ByLayer
370
13
48
1
60
0
100
AcDbLine
10
0.4
20
-4.5875
30
0
11
0.4
21
-14.85
31
0
39
0
210
0
220
0
230
1
0
LINE
5
213
100
AcDbEntity
8
SK2
62
256
6
ByLayer
370
13
48
1
60
0
100
AcDbLine
10
-36
20
-12.85
30
0
11
0.4
21
-12.85
31
0
39
0
210
0
220
0
230
1
0
SOLID
5
214
100
AcDbEntity
8
SK2
62
256
6
ByLayer
370
18
48
1
60
0
100
AcDbTrace
10
-36
20
-12.85
30
0
11
-32.500002
21
-12.389216
31
0
12
-32.499998
22
-13.310784
32
0
13
-32.499998
23
-13.310784
33
0
39
0
210
0
220
0
230
1
0
SOLID
5
215
100
AcDbEntity
8
SK2
62
256
6
ByLayer
370
18
48
1
60
0
100
AcDbTrace
10
0.4
20
-12.85
30
0
11
-3.099998
21
-13.310784
31
0
12
-3.100002
22
-12.389216
32
0
13
-3.100002
23
-12.389216
33
0
39
0
210
0
220
0
230
1
0
ENDBLK
5
217
100
AcDbEntity
8
0
100
AcDbBlockEnd
0
BLOCK
5
21C
100
AcDbEntity
8
0
100
AcDbBlockBegin
2
*D9
70
1
10
0
20
0
30
0
3
*D9
0
LINE
5
21E
100
AcDbEntity
8
0
62
256
6
ByLayer
370
-2
48
1
60
0
100
AcDbLine
10
59
20
-1.5875
30
0
11
59
21
-13.5
31
0
39
0
210
0
220
0
230
1
0
LINE
5
21F
100
AcDbEntity
8
0
62
256
6
ByLayer
370
-2
48
1
60
0
100
AcDbLine
10
57.427
20
-0.767945
30
0
11
57.427
21
-13.5
31
0
39
0
210
0
220
0
230
1
0
LINE
5
220
100
AcDbEntity
8
0
62
256
6
ByLayer
370
-2
48
1
60
0
100
AcDbLine
10
59
20
-11.5
30
0
11
83.714286
21
-11.5
31
0
39
0
210
0
220
0
230
1
0
LINE
5
221
100
AcDbEntity
8
0
62
256
6
ByLayer
370
-2
48
1
60
0
100
AcDbLine
10
62.5
20
-11.5
30
0
11
66
21
-11.5
31
0
39
0
210
0
220
0
230
1
0
LINE
5
222
100
AcDbEntity
8
0
62
256
6
ByLayer
370
-2
48
1
60
0
100
AcDbLine
10
53.927
20
-11.5
30
0
11
50.427
21
-11.5
31
0
39
0
210
0
220
0
230
1
0
SOLID
5
223
100
AcDbEntity
8
0
62
256
6
ByLayer
370
-1
48
1
60
0
100
AcDbTrace
10
62.5
20
-10.916667
30
0
11
62.5
21
-12.083333
31
0
12
59
22
-11.5
32
0
13
59
23
-11.5
33
0
39
0
210
0
220
0
230
1
0
SOLID
5
224
100
AcDbEntity
8
0
62
256
6
ByLayer
370
-1
48
1
60
0
100
AcDbTrace
10
53.927
20
-12.083333
30
0
11
53.927
21
-10.916667
31
0
12
57.427
22
-11.5
32
0
13
57.427
23
-11.5
33
0
39
0
210
0
220
0
230
1
0
MTEXT
5
225
100
AcDbEntity
8
0
62
256
6
ByLayer
370
18
48
1
60
0
100
AcDbMText
10
74.857143
20
-5.5
30
0
210
0
220
0
230
1
1
\A1;1.57
40
3
41
0
44
1
50
0
71
5
72
5
7
iso_b_vert
0
POINT
5
226
100
AcDbEntity
8
Defpoints
62
0
6
ByLayer
370
-1
48
1
60
0
100
AcDbPoint
10
59
20
0
30
0
39
0
210
0
220
0
230
1
50
360
0
POINT
5
227
100
AcDbEntity
8
Defpoints
62
0
6
ByLayer
370
-1
48
1
60
0
100
AcDbPoint
10
57.427
20
0.819555
30
0
39
0
210
0
220
0
230
1
50
360
0
POINT
5
228
100
AcDbEntity
8
Defpoints
62
0
6
ByLayer
370
-1
48
1
60
0
100
AcDbPoint
10
57.427
20
-11.5
30
0
39
0
210
0
220
0
230
1
50
360
0
ENDBLK
5
21D
100
AcDbEntity
8
0
100
AcDbBlockEnd
0
BLOCK
5
230
100
AcDbEntity
8
0
100
AcDbBlockBegin
2
_U4
70
0
10
0
20
0
30
0
3
_U4
0
MTEXT
5
22A
100
AcDbEntity
8
SK2
62
256
6
ByLayer
370
18
48
1
60
0
100
AcDbMText
10
69.159
20
-10.614886
30
0
210
0
220
0
230
1
1
\W0.6563;1.57
40
3
41
0
44
1.084337
50
0
71
7
72
5
7
iso_b_vert
0
LINE
5
22B
100
AcDbEntity
8
SK2
62
256
6
ByLayer
370
13
48
1
60
0
100
AcDbLine
10
59
20
-1.5875
30
0
11
59
21
-13.5
31
0
39
0
210
0
220
0
230
1
0
LINE
5
22C
100
AcDbEntity
8
SK2
62
256
6
ByLayer
370
13
48
1
60
0
100
AcDbLine
10
57.427
20
-0.767945
30
0
11
57.427
21
-13.5
31
0
39
0
210
0
220
0
230
1
0
LINE
5
22D
100
AcDbEntity
8
SK2
62
256
6
ByLayer
370
13
48
1
60
0
100
AcDbLine
10
49.927
20
-11.5
30
0
11
75.291027
21
-11.5
31
0
39
0
210
0
220
0
230
1
0
SOLID
5
22E
100
AcDbEntity
8
SK2
62
256
6
ByLayer
370
18
48
1
60
0
100
AcDbTrace
10
59
20
-11.5
30
0
11
62.499998
21
-11.039216
31
0
12
62.500002
22
-11.960784
32
0
13
62.500002
23
-11.960784
33
0
39
0
210
0
220
0
230
1
0
SOLID
5
22F
100
AcDbEntity
8
SK2
62
256
6
ByLayer
370
18
48
1
60
0
100
AcDbTrace
10
57.427
20
-11.5
30
0
11
53.927002
21
-11.960784
31
0
12
53.926998
22
-11.039216
32
0
13
53.926998
23
-11.039216
33
0
39
0
210
0
220
0
230
1
0
ENDBLK
5
231
100
AcDbEntity
8
0
100
AcDbBlockEnd
0
ENDSEC
0
SECTION
2
ENTITIES
0
ARC
5
FD
100
AcDbEntity
8
1
62
256
6
ByLayer
370
18
48
1
60
0
100
AcDbCircle
39
0
10
53.99862
20
1.819
30
0
40
1
210
0
220
0
230
1
100
AcDbArc
50
265.014139
51
270
0
ARC
5
FE
100
AcDbEntity
8
1
62
256
6
ByLayer
370
18
48
1
60
0
100
AcDbCircle
39
0
10
53.99862
20
-1.819
30
0
40
1
210
0
220
0
230
1
100
AcDbArc
50
90
51
94.985861
0
ARC
5
FF
100
AcDbEntity
8
81
62
256
6
ByLayer
370
18
48
1
60
0
100
AcDbCircle
39
0
10
57.301112
20
-0.951718
30
0
40
0.192954551280898
210
0
220
0
230
1
100
AcDbArc
50
49.572934
51
67.360783
0
ARC
5
100
100
AcDbEntity
8
81
62
256
6
ByLayer
370
18
48
1
60
0
100
AcDbCircle
39
0
10
57.301112
20
0.951718
30
0
40
0.192954551280898
210
0
220
0
230
1
100
AcDbArc
50
302.47622
51
310.427066
0
ARC
5
101
100
AcDbEntity
8
81
62
256
6
ByLayer
370
18
48
1
60
0
100
AcDbCircle
39
0
10
58
20
0
30
0
40
0.9885
210
0
220
0
230
1
100
AcDbArc
50
1.740287
51
125.427066
0
ARC
5
102
100
AcDbEntity
8
81
62
256
6
ByLayer
370
18
48
1
60
0
100
AcDbCircle
39
0
10
58
20
0
30
0
40
0.9885
210
0
220
0
230
1
100
AcDbArc
50
344.082529
51
358.22053
0
ARC
5
103
100
AcDbEntity
8
81
62
256
6
ByLayer
370
18
48
1
60
0
100
AcDbCircle
39
0
10
58
20
0
30
0
40
0.9885
210
0
220
0
230
1
100
AcDbArc
50
234.572934
51
305.078622
0
ARC
5
104
100
AcDbEntity
8
SK2
62
256
6
ByLayer
370
13
48
1
60
0
100
AcDbCircle
39
0
10
63.413537
20
0
30
0
40
48.4017388690198
210
0
220
0
230
1
100
AcDbArc
50
175.024298
51
188.808109
0
ARC
5
105
100
AcDbEntity
8
SK2
62
256
6
ByLayer
370
13
48
1
60
0
100
AcDbCircle
39
0
10
63.413537
20
0
30
0
40
48.4017388690198
210
0
220
0
230
1
100
AcDbArc
50
160.83747
51
175.024298
0
ELLIPSE
5
106
100
AcDbEntity
8
1
62
256
6
ByLayer
370
18
48
1
60
0
100
AcDbEllipse
10
58.971595
20
0.29647
30
0
11
0.0499455583176353
21
0.128459168546932
31
0
210
0
220
0
230
1
40
0.094249
41
2.1273949010195
42
2.17950507377615
0
ELLIPSE
5
107
100
AcDbEntity
8
1
62
256
6
ByLayer
370
18
48
1
60
0
100
AcDbEllipse
10
58.908212
20
0.432364
30
0
11
0.137821384774392
21
-0.25902054763814
31
0
210
0
220
0
230
1
40
0.337466
41
-0.864701773822665
42
-0.852471881756606
0
ELLIPSE
5
108
100
AcDbEntity
8
1
62
256
6
ByLayer
370
18
48
1
60
0
100
AcDbEllipse
10
58.971595
20
0.296469
30
0
11
0.0499450409323366
21
0.128458062953439
31
0
210
0
220
0
230
1
40
0.094248
41
2.27900406309481
42
2.7445490494368
0
ELLIPSE
5
109
100
AcDbEntity
8
1
62
256
6
ByLayer
370
18
48
1
60
0
100
AcDbEllipse
10
57.643861
20
1.895061
30
0
11
-5.97086972277547
21
2.22248564258532
31
0
210
0
220
0
230
1
40
0.196761
41
1.57849624884065
42
1.60226944437865
0
ELLIPSE
5
10A
100
AcDbEntity
8
1
62
256
6
ByLayer
370
18
48
1
60
0
100
AcDbEllipse
10
57.623158
20
1.839442
30
0
11
-5.91932319283768
21
2.20329891970728
31
0
210
0
220
0
230
1
40
0.196761
41
1.57868381621754
42
1.60230137975684
0
ELLIPSE
5
10B
100
AcDbEntity
8
1
62
256
6
ByLayer
370
18
48
1
60
0
100
AcDbEllipse
10
57.623158
20
-6.755036
30
0
11
-2.6279332319862
21
5.74342059409368
31
0
210
0
220
0
230
1
40
0.92657
41
-0.417085488976289
42
-0.393467925444814
0
ELLIPSE
5
10C
100
AcDbEntity
8
1
62
256
6
ByLayer
370
18
48
1
60
0
100
AcDbEllipse
10
57.643861
20
-6.745563
30
0
11
-2.65081774669071
21
5.79343533245916
31
0
210
0
220
0
230
1
40
0.92657
41
-0.417053553623179
42
-0.393280358143917
0
ELLIPSE
5
10D
100
AcDbEntity
8
1
62
256
6
ByLayer
370
18
48
1
60
0
100
AcDbEllipse
10
58.990704
20
0
30
0
11
2.558206367827
21
-0.500096872909885
31
0
210
0
220
0
230
1
40
0.253532
41
-2.58139994477082
42
-2.28032304611424
0
ELLIPSE
5
10E
100
AcDbEntity
8
1
62
256
6
ByLayer
370
18
48
1
60
0
100
AcDbEllipse
10
59.001349
20
-0.136725
30
0
11
0.0666465118721166
21
-0.0830932196937796
31
0
210
0
220
0
230
1
40
0.926464
41
2.47594604597367
42
2.55747083378554
0
ELLIPSE
5
10F
100
AcDbEntity
8
1
62
256
6
ByLayer
370
18
48
1
60
0
100
AcDbEllipse
10
59.001349
20
0.136725
30
0
11
0.0666465145123006
21
0.083093216609356
31
0
210
0
220
0
230
1
40
0.926464
41
-2.55747079797308
42
-2.47594600961873
0
ELLIPSE
5
110
100
AcDbEntity
8
1
62
256
6
ByLayer
370
18
48
1
60
0
100
AcDbEllipse
10
58.990704
20
0
30
0
11
2.55841664359639
21
-0.674504285777566
31
0
210
0
220
0
230
1
40
0.181576
41
2.37767926624563
42
2.53847331365836
0
ELLIPSE
5
111
100
AcDbEntity
8
1
62
256
6
ByLayer
370
18
48
1
60
0
100
AcDbEllipse
10
58.990704
20
0
30
0
11
2.55841664308589
21
0.674504285582426
31
0
210
0
220
0
230
1
40
0.181576
41
-2.67875616485326
42
-2.37767926616505
0
POINT
5
70
100
AcDbEntity
8
81
62
256
6
ByLayer
370
18
48
1
60
0
100
AcDbPoint
10
59
20
0
30
0
39
0
210
0
220
0
230
1
50
360
0
POINT
5
72
100
AcDbEntity
8
80
62
256
6
ByLayer
370
18
48
1
60
0
100
AcDbPoint
10
0
20
0
30
0
39
0
210
0
220
0
230
1
50
360
0
POINT
5
74
100
AcDbEntity
8
1
62
256
6
ByLayer
370
18
48
1
60
1
100
AcDbPoint
10
59
20
0
30
0
39
0
210
0
220
0
230
1
50
360
0
POINT
5
76
100
AcDbEntity
8
1
62
256
6
ByLayer
370
18
48
1
60
1
100
AcDbPoint
10
54
20
0.819555
30
0
39
0
210
0
220
0
230
1
50
360
0
POINT
5
77
100
AcDbEntity
8
1
62
256
6
ByLayer
370
18
48
1
60
1
100
AcDbPoint
10
59
20
0
30
0
39
0
210
0
220
0
230
1
50
360
0
POINT
5
78
100
AcDbEntity
8
1
62
256
6
ByLayer
370
18
48
1
60
1
100
AcDbPoint
10
28.955082
20
3
30
0
39
0
210
0
220
0
230
1
50
360
0
POINT
5
79
100
AcDbEntity
8
1
62
256
6
ByLayer
370
18
48
1
60
1
100
AcDbPoint
10
59
20
0
30
0
39
0
210
0
220
0
230
1
50
360
0
POINT
5
7A
100
AcDbEntity
8
1
62
256
6
ByLayer
370
18
48
1
60
1
100
AcDbPoint
10
-36
20
0
30
0
39
0
210
0
220
0
230
1
50
360
0
POINT
5
7B
100
AcDbEntity
8
1
62
256
6
ByLayer
370
18
48
1
60
1
100
AcDbPoint
10
-36
20
0
30
0
39
0
210
0
220
0
230
1
50
360
0
POINT
5
7C
100
AcDbEntity
8
1
62
256
6
ByLayer
370
18
48
1
60
1
100
AcDbPoint
10
0.4
20
-3
30
0
39
0
210
0
220
0
230
1
50
360
0
POINT
5
7D
100
AcDbEntity
8
1
62
256
6
ByLayer
370
18
48
1
60
1
100
AcDbPoint
10
59
20
0
30
0
39
0
210
0
220
0
230
1
50
360
0
POINT
5
7E
100
AcDbEntity
8
1
62
256
6
ByLayer
370
18
48
1
60
1
100
AcDbPoint
10
57.427
20
0.819555
30
0
39
0
210
0
220
0
230
1
50
360
0
SPLINE
5
112
100
AcDbEntity
8
1
62
256
6
ByLayer
370
18
48
1
60
0
100
AcDbSpline
70
4
71
2
72
6
73
3
40
0
40
0
40
0
40
1
40
1
40
1
41
1
10
58.9853602365836
20
-0.050422725554057
30
0
41
1
10
58.9868635031514
20
-0.04188996700708
30
0
41
1
10
58.9883710925485
20
-0.0333562777465204
30
0
0
SPLINE
5
113
100
AcDbEntity
8
1
62
256
6
ByLayer
370
18
48
1
60
0
100
AcDbSpline
70
4
71
2
72
6
73
3
40
0
40
0
40
0
40
1
40
1
40
1
41
1
10
58.9942649107395
20
8.38384633539E-05
30
0
41
1
10
58.9897937732711
20
0.0252573297545666
30
0
41
1
10
58.9853602365719
20
0.0504227255269996
30
0
0
SPLINE
5
114
100
AcDbEntity
8
1
62
256
6
ByLayer
370
18
48
1
60
0
100
AcDbSpline
70
4
71
1
72
4
73
2
40
0
40
0
40
1
40
1
41
1
10
58.4081607659748
20
0.657625398317776
30
0
41
1
10
58.1875944087299
20
0.692083931331183
30
0
0
SPLINE
5
115
100
AcDbEntity
8
1
62
256
6
ByLayer
370
18
48
1
60
0
100
AcDbSpline
70
4
71
3
72
8
73
4
40
0
40
0
40
0
40
0
40
1
40
1
40
1
40
1
41
1
10
58.9299111601687
20
0.216486100010371
30
0
41
1
10
58.929814136809
20
0.217365563031933
30
0
41
1
10
58.9297077411884
20
0.218224251567136
30
0
41
1
10
58.9295915710144
20
0.219061273897438
30
0
0
SPLINE
5
116
100
AcDbEntity
8
1
62
256
6
ByLayer
370
18
48
1
60
0
100
AcDbSpline
70
4
71
3
72
8
73
4
40
0
40
0
40
0
40
0
40
1
40
1
40
1
40
1
41
1
10
58.9295915710134
20
0.219061273902554
30
0
41
1
10
58.9281767245649
20
0.223235726086614
30
0
41
1
10
58.9267594596729
20
0.227409437843477
30
0
41
1
10
58.9253397784084
20
0.231582409818003
30
0
0
SPLINE
5
117
100
AcDbEntity
8
1
62
256
6
ByLayer
370
18
48
1
60
0
100
AcDbSpline
70
4
71
3
72
8
73
4
40
0
40
0
40
0
40
0
40
1
40
1
40
1
40
1
41
1
10
58.4323615892401
20
0.655855041133293
30
0
41
1
10
58.440681150985
20
0.654093201856597
30
0
41
1
10
58.4490311075013
20
0.652458864391235
30
0
41
1
10
58.457412757475
20
0.650943208635169
30
0
0
SPLINE
5
118
100
AcDbEntity
8
1
62
256
6
ByLayer
370
18
48
1
60
0
100
AcDbSpline
70
4
71
3
72
8
73
4
40
0
40
0
40
0
40
0
40
1
40
1
40
1
40
1
41
1
10
57.4270000000001
20
-0.782920478453008
30
0
41
1
10
57.3933024522517
20
-0.795461389904574
30
0
41
1
10
57.3596511138189
20
-0.808119637511425
30
0
41
1
10
57.3260459118265
20
-0.820895036226204
30
0
0
SPLINE
5
119
100
AcDbEntity
8
1
62
256
6
ByLayer
370
18
48
1
60
0
100
AcDbSpline
70
4
71
3
72
12
73
8
40
0
40
0
40
0
40
0
40
0.5
40
0.5
40
0.75
40
0.75
40
1
40
1
40
1
40
1
41
1
10
57.3260459118265
20
-0.820895036226204
30
0
41
1
10
57.3121176918693
20
-0.816126926975642
30
0
41
1
10
57.297117724628
20
-0.812463560581506
30
0
41
1
10
57.2725766508886
20
-0.809072473325728
30
0
41
1
10
57.2639894776926
20
-0.808297780415529
30
0
41
1
10
57.246336002474
20
-0.807652886809308
30
0
41
1
10
57.2372671760801
20
-0.807774557924375
30
0
41
1
10
57.2279045455111
20
-0.808435220132111
30
0
0
SPLINE
5
11A
100
AcDbEntity
8
1
62
256
6
ByLayer
370
18
48
1
60
0
100
AcDbSpline
70
4
71
3
72
8
73
4
40
0
40
0
40
0
40
0
40
1
40
1
40
1
40
1
41
1
10
58.9299111601676
20
0.216486100008865
30
0
41
1
10
58.9290024264694
20
0.219396420388875
30
0
41
1
10
58.9280926996145
20
0.222307945075499
30
0
41
1
10
58.9271820234848
20
0.22522055112313
30
0
0
SPLINE
5
11B
100
AcDbEntity
8
1
62
256
6
ByLayer
370
18
48
1
60
0
100
AcDbSpline
70
4
71
3
72
10
73
6
40
0
40
0
40
0
40
0
40
0.428363387195502
40
0.428363387195502
40
1
40
1
40
1
40
1
41
1
10
58.9149511000554
20
0.214588051350262
30
0
41
1
10
58.9164439323682
20
0.215823789058504
30
0
41
1
10
58.9180705612188
20
0.217191498020782
30
0
41
1
10
58.92208578
20
0.220642113359986
30
0
41
1
10
58.9245583217535
20
0.222818948969575
30
0
41
1
10
58.9271820234941
20
0.225220551109516
30
0
0
SPLINE
5
11C
100
AcDbEntity
8
1
62
256
6
ByLayer
370
18
48
1
60
0
100
AcDbSpline
70
4
71
3
72
8
73
4
40
0
40
0
40
0
40
0
40
1
40
1
40
1
40
1
41
1
10
58.9271820234864
20
0.225220551117957
30
0
41
1
10
58.9265811929712
20
0.227315190962173
30
0
41
1
10
58.925966673386
20
0.229436565918803
30
0
41
1
10
58.9253397784084
20
0.231582409817975
30
0
0
SPLINE
5
11D
100
AcDbEntity
8
1
62
256
6
ByLayer
370
18
48
1
60
0
100
AcDbSpline
70
4
71
3
72
8
73
4
40
0
40
0
40
0
40
0
40
1
40
1
40
1
40
1
41
1
10
58.9311289544081
20
0.22890406331112
30
0
41
1
10
58.9291951279818
20
0.229788236618987
30
0
41
1
10
58.9272654485844
20
0.230681115214736
30
0
41
1
10
58.9253397784084
20
0.231582409817975
30
0
0
SPLINE
5
11E
100
AcDbEntity
8
1
62
256
6
ByLayer
370
18
48
1
60
0
100
AcDbSpline
70
4
71
3
72
8
73
4
40
0
40
0
40
0
40
0
40
1
40
1
40
1
40
1
41
1
10
58.9311289544038
20
0.228904063297165
30
0
41
1
10
58.9323724863071
20
0.230088225260971
30
0
41
1
10
58.9336480187773
20
0.231326692576118
30
0
41
1
10
58.9349292644117
20
0.232601910377071
30
0
0
SPLINE
5
11F
100
AcDbEntity
8
1
62
256
6
ByLayer
370
18
48
1
60
0
100
AcDbSpline
70
4
71
3
72
8
73
4
40
0
40
0
40
0
40
0
40
1
40
1
40
1
40
1
41
1
10
58.996107428545
20
-0.0277304406254189
30
0
41
1
10
58.9978095869145
20
-0.0296056739119592
30
0
41
1
10
58.9988465052535
20
-0.0314663296730373
30
0
41
1
10
58.9992193127038
20
-0.0333124521098114
30
0
0
SPLINE
5
120
100
AcDbEntity
8
1
62
256
6
ByLayer
370
18
48
1
60
0
100
AcDbSpline
70
4
71
3
72
8
73
4
40
0
40
0
40
0
40
0
40
1
40
1
40
1
40
1
41
1
10
58.9672952981891
20
-0.0121304841125607
30
0
41
1
10
58.9693533563325
20
-0.0128743013937083
30
0
41
1
10
58.9713138539582
20
-0.0136177331355611
30
0
41
1
10
58.9731766978623
20
-0.0143607789698592
30
0
0
SPLINE
5
121
100
AcDbEntity
8
1
62
256
6
ByLayer
370
18
48
1
60
0
100
AcDbSpline
70
4
71
3
72
8
73
4
40
0
40
0
40
0
40
0
40
1
40
1
40
1
40
1
41
1
10
58.9299111601933
20
-0.216486100092851
30
0
41
1
10
58.9298141368344
20
-0.217365563106824
30
0
41
1
10
58.9297077412146
20
-0.218224251634752
30
0
41
1
10
58.9295915710417
20
-0.219061273958261
30
0
0
SPLINE
5
122
100
AcDbEntity
8
1
62
256
6
ByLayer
370
18
48
1
60
0
100
AcDbSpline
70
4
71
3
72
8
73
4
40
0
40
0
40
0
40
0
40
1
40
1
40
1
40
1
41
1
10
57.4725480074218
20
0.765050155646094
30
0
41
1
10
57.4573266557089
20
0.77092241388911
30
0
41
1
10
57.442143819613
20
0.776878884631827
30
0
41
1
10
57.4270000000001
20
0.782920477786064
30
0
0
SPLINE
5
123
100
AcDbEntity
8
1
62
256
6
ByLayer
370
18
48
1
60
0
100
AcDbSpline
70
4
71
3
72
8
73
4
40
0
40
0
40
0
40
0
40
1
40
1
40
1
40
1
41
1
10
57.4725480074218
20
0.765050155646122
30
0
41
1
10
57.48808358982
20
0.770126646371523
30
0
41
1
10
57.5034122507767
20
0.774999372393609
30
0
41
1
10
57.5185358246104
20
0.779670140047045
30
0
0
SPLINE
5
124
100
AcDbEntity
8
1
62
256
6
ByLayer
370
18
48
1
60
0
100
AcDbSpline
70
4
71
3
72
14
73
10
40
0
40
0
40
0
40
0
40
0.25
40
0.25
40
0.5
40
0.5
40
0.75
40
0.75
40
1
40
1
40
1
40
1
41
1
10
57.3260459108973
20
0.82089503590808
30
0
41
1
10
57.3181486768631
20
0.811836982706041
30
0
41
1
10
57.3102554413475
20
0.802778177991257
30
0
41
1
10
57.294958948553
20
0.784429677037366
30
0
41
1
10
57.2875482429976
20
0.775141610161711
30
0
41
1
10
57.2739542455108
20
0.756007975127346
30
0
41
1
10
57.2677638950299
20
0.746159850934845
30
0
41
1
10
57.2578670369783
20
0.725468575228746
30
0
41
1
10
57.2542103722959
20
0.71466372491642
30
0
41
1
10
57.2525507510679
20
0.70315067238451
30
0
0
SPLINE
5
125
100
AcDbEntity
8
1
62
256
6
ByLayer
370
18
48
1
60
0
100
AcDbSpline
70
4
71
3
72
8
73
4
40
0
40
0
40
0
40
0
40
1
40
1
40
1
40
1
41
1
10
57.2525507510679
20
0.70315067238451
30
0
41
1
10
57.2446799065019
20
0.688836974171977
30
0
41
1
10
57.2384775889681
20
0.673735050182756
30
0
41
1
10
57.2363371628156
20
0.657409731577275
30
0
0
SPLINE
5
126
100
AcDbEntity
8
1
62
256
6
ByLayer
370
18
48
1
60
0
100
AcDbSpline
70
4
71
3
72
8
73
4
40
0
40
0
40
0
40
0
40
1
40
1
40
1
40
1
41
1
10
57.236337162815
20
0.657409731577445
30
0
41
1
10
57.2335575710503
20
0.654284522320211
30
0
41
1
10
57.230751190688
20
0.651175363858869
30
0
41
1
10
57.2279045455065
20
0.648091142589948
30
0
0
SPLINE
5
127
100
AcDbEntity
8
1
62
256
6
ByLayer
370
18
48
1
60
0
100
AcDbSpline
70
4
71
3
72
8
73
4
40
0
40
0
40
0
40
0
40
1
40
1
40
1
40
1
41
1
10
58.3704743701775
20
0.65268147912667
30
0
41
1
10
58.261807789067
20
0.67829427084439
30
0
41
1
10
58.1531412079565
20
0.700057046450354
30
0
41
1
10
58.044474626846
20
0.717586448526618
30
0
0
SPLINE
5
128
100
AcDbEntity
8
1
62
256
6
ByLayer
370
18
48
1
60
0
100
AcDbSpline
70
4
71
3
72
9
73
5
40
0
40
0
40
0
40
0
40
0.634641852104501
40
1
40
1
40
1
40
1
41
1
10
58.4790300760172
20
0.546652752171781
30
1E-16
41
1
10
58.4560617173448
20
0.553693065819033
30
0
41
1
10
58.4198706615608
20
0.564561842713118
30
0
41
1
10
58.3836796057767
20
0.575065072731775
30
0
41
1
10
58.3704569086652
20
0.578852747398855
30
0
0
SPLINE
5
129
100
AcDbEntity
8
1
62
256
6
ByLayer
370
18
48
1
60
0
100
AcDbSpline
70
4
71
3
72
10
73
6
40
0
40
0
40
0
40
0
40
0.5
40
0.5
40
1
40
1
40
1
40
1
41
1
10
57.427
20
0.628999830359135
30
0
41
1
10
57.4177739638747
20
0.62227583095418
30
0
41
1
10
57.4086704821377
20
0.615279396158428
30
0
41
1
10
57.3907208689155
20
0.600714443287529
30
0
41
1
10
57.3818419022166
20
0.593114229948469
30
1E-16
41
1
10
57.3732353904288
20
0.585329873734366
30
0
0
SPLINE
5
12A
100
AcDbEntity
8
1
62
256
6
ByLayer
370
18
48
1
60
0
100
AcDbSpline
70
4
71
3
72
8
73
4
40
0
40
0
40
0
40
0
40
1
40
1
40
1
40
1
41
1
10
57.2125273207437
20
0.628380137455849
30
0
41
1
10
57.2659273148862
20
0.613542866323968
30
0
41
1
10
57.3195045235202
20
0.599231484650318
30
0
41
1
10
57.3732353904288
20
0.585329873734366
30
0
0
SPLINE
5
12B
100
AcDbEntity
8
1
62
256
6
ByLayer
370
18
48
1
60
0
100
AcDbSpline
70
4
71
3
72
8
73
4
40
0
40
0
40
0
40
0
40
1
40
1
40
1
40
1
41
1
10
58.3152697826212
20
-0.8895218968743
30
0
41
1
10
58.3060826137513
20
-0.890842789693778
30
0
41
1
10
58.2967402003849
20
-0.892191174365848
30
0
41
1
10
58.2872271279182
20
-0.893607839115958
30
0
0
SPLINE
5
12C
100
AcDbEntity
8
1
62
256
6
ByLayer
370
18
48
1
60
0
100
AcDbSpline
70
4
71
1
72
4
73
2
40
0
40
0
40
1
40
1
41
1
10
57.428884548408
20
-0.550386803578306
30
0
41
1
10
57.4289510513805
20
-0.549948203222016
30
0
0
SPLINE
5
12D
100
AcDbEntity
8
1
62
256
6
ByLayer
370
18
48
1
60
0
100
AcDbSpline
70
4
71
3
72
22
73
18
40
0
40
0
40
0
40
0
40
0.125
40
0.125
40
0.25
40
0.25
40
0.375
40
0.375
40
0.5
40
0.5
40
0.625
40
0.625
40
0.75
40
0.75
40
0.875
40
0.875
40
1
40
1
40
1
40
1
41
1
10
57.6353806886423
20
-0.685477240307421
30
1E-16
41
1
10
57.6619647317539
20
-0.702547667895857
30
0
41
1
10
57.6886816605768
20
-0.718868726032099
30
0
41
1
10
57.7425135533784
20
-0.749874933603678
30
0
41
1
10
57.7697039849077
20
-0.764590801605181
30
0
41
1
10
57.8241536152232
20
-0.791997806190608
30
0
41
1
10
57.8514261734878
20
-0.804688579037503
30
0
41
1
10
57.9062157651963
20
-0.827907721089247
30
1E-16
41
1
10
57.9337097808523
20
-0.83842297722768
30
0
41
1
10
57.9885440334283
20
-0.856940993383148
30
0
41
1
10
58.0159796328731
20
-0.864977852899614
30
0
41
1
10
58.070871725236
20
-0.878399971658581
30
0
41
1
10
58.0981830490581
20
-0.883757533847842
30
0
41
1
10
58.152688952038
20
-0.891628663898217
30
0
41
1
10
58.1799639559043
20
-0.894149221001101
30
0
41
1
10
58.233928569528
20
-0.896152037481244
30
0
41
1
10
58.2606647651175
20
-0.895651868649793
30
0
41
1
10
58.2872271279111
20
-0.89360783912187
30
0
0
SPLINE
5
12E
100
AcDbEntity
8
1
62
256
6
ByLayer
370
18
48
1
60
0
100
AcDbSpline
70
4
71
3
72
10
73
6
40
0
40
0
40
0
40
0
40
0.5
40
0.5
40
1
40
1
40
1
40
1
41
1
10
57.427
20
-0.549210318600899
30
0
41
1
10
57.4178626604587
20
-0.546121143465712
30
-1E-16
41
1
10
57.408828424941
20
-0.543462838778424
30
1E-16
41
1
10
57.3909783254116
20
-0.539058801240969
30
0
41
1
10
57.3821409752845
20
-0.537311119767111
30
0
41
1
10
57.3735050278808
20
-0.536069638939892
30
0
0
SPLINE
5
12F
100
AcDbEntity
8
1
62
256
6
ByLayer
370
18
48
1
60
0
100
AcDbSpline
70
4
71
3
72
8
73
4
40
0
40
0
40
0
40
0
40
1
40
1
40
1
40
1
41
1
10
57.2170507597549
20
-0.544500155986157
30
1E-16
41
1
10
57.2690052709049
20
-0.541439606062028
30
0
41
1
10
57.3211660499178
20
-0.538596861436304
30
0
41
1
10
57.3735050278808
20
-0.536069638939892
30
0
0
SPLINE
5
130
100
AcDbEntity
8
1
62
256
6
ByLayer
370
18
48
1
60
0
100
AcDbSpline
70
4
71
3
72
8
73
4
40
0
40
0
40
0
40
0
40
1
40
1
40
1
40
1
41
1
10
58.8691218348511
20
-0.186442514027107
30
0
41
1
10
58.8660958374261
20
-0.176238411685972
30
0
41
1
10
58.8630691888926
20
-0.166033257228406
30
0
41
1
10
58.8600418697624
20
-0.155827019163951
30
0
0
SPLINE
5
131
100
AcDbEntity
8
1
62
256
6
ByLayer
370
18
48
1
60
0
100
AcDbSpline
70
4
71
3
72
8
73
4
40
0
40
0
40
0
40
0
40
1
40
1
40
1
40
1
41
1
10
58.5044173896603
20
0.517124795119571
30
0
41
1
10
58.4977097019141
20
0.519860572971794
30
0
41
1
10
58.4907197452037
20
0.522862657527725
30
0
41
1
10
58.4834230056175
20
0.52615418041708
30
0
0
SPLINE
5
132
100
AcDbEntity
8
1
62
256
6
ByLayer
370
18
48
1
60
0
100
AcDbSpline
70
4
71
3
72
8
73
4
40
0
40
0
40
0
40
0
40
1
40
1
40
1
40
1
41
1
10
58.457412757475
20
0.650943208635198
30
0
41
1
10
58.4574423475972
20
0.649288689600752
30
0
41
1
10
58.4570155792883
20
0.647981118239784
30
0
41
1
10
58.4560441021339
20
0.647087665464312
30
0
0
SPLINE
5
133
100
AcDbEntity
8
1
62
256
6
ByLayer
370
18
48
1
60
0
100
AcDbSpline
70
4
71
3
72
8
73
4
40
0
40
0
40
0
40
0
40
1
40
1
40
1
40
1
41
1
10
58.4560441008189
20
0.647087666604705
30
0
41
1
10
58.4547657706864
20
0.645911686235195
30
0
41
1
10
58.4520876628555
20
0.645833821211056
30
0
41
1
10
58.4478673743771
20
0.647062281941288
30
0
0
SPLINE
5
134
100
AcDbEntity
8
1
62
256
6
ByLayer
370
18
48
1
60
0
100
AcDbSpline
70
4
71
3
72
12
73
8
40
0
40
0
40
0
40
0
40
0.499999999999984
40
0.499999999999984
40
0.749999999999992
40
0.749999999999992
40
1
40
1
40
1
40
1
41
1
10
58.4478673618295
20
0.647062286548049
30
0
41
1
10
58.4297417128094
20
0.652340484573074
30
0
41
1
10
58.4135615249743
20
0.655954490256647
30
0
41
1
10
58.393610786205
20
0.657792462007222
30
0
41
1
10
58.387697176164
20
0.657801603084636
30
0
41
1
10
58.3776626273771
20
0.656386719858318
30
0
41
1
10
58.3735338855714
20
0.654964292719569
30
0
41
1
10
58.3704743701779
20
0.652681479125107
30
0
0
SPLINE
5
135
100
AcDbEntity
8
1
62
256
6
ByLayer
370
18
48
1
60
0
100
AcDbSpline
70
4
71
3
72
10
73
6
40
0
40
0
40
0
40
0
40
0.5
40
0.5
40
1
40
1
40
1
40
1
41
1
10
58.3704743702699
20
0.65268147908165
30
0
41
1
10
58.385600567079
20
0.636674187907374
30
0
41
1
10
58.4025681776949
20
0.619582095541773
30
0
41
1
10
58.4390718025849
20
0.584014963922669
30
0
41
1
10
58.4585888251173
20
0.56555862002179
30
0
41
1
10
58.4790300756454
20
0.546652751894783
30
1E-16
0
SPLINE
5
136
100
AcDbEntity
8
1
62
256
6
ByLayer
370
18
48
1
60
0
100
AcDbSpline
70
4
71
3
72
18
73
14
40
0
40
0
40
0
40
0
40
0.249999999999868
40
0.249999999999868
40
0.499999999999736
40
0.499999999999736
40
0.624999999999802
40
0.624999999999802
40
0.749999999999868
40
0.749999999999868
40
0.874999999999934
40
0.874999999999934
40
1
40
1
40
1
40
1
41
1
10
58.4790300917623
20
0.54665274353448
30
1E-16
41
1
10
58.4828679906772
20
0.543103157517152
30
-1E-16
41
1
10
58.4865670732724
20
0.539624835178728
30
0
41
1
10
58.4935493189254
20
0.532881731263558
30
0
41
1
10
58.4968430133496
20
0.529608355192551
30
0
41
1
10
58.5010829620059
20
0.525130756611787
30
0
41
1
10
58.5023829910552
20
0.52370651704959
30
0
41
1
10
58.5046342239153
20
0.52106832198578
30
0
41
1
10
58.5055886445379
20
0.519848568464965
30
0
41
1
10
58.5068140067456
20
0.517890669467278
30
0
41
1
10
58.5070825996349
20
0.517148339173474
30
0
41
1
10
58.506556595033
20
0.516487394955732
30
0
41
1
10
58.5057397138552
20
0.516585365292713
30
0
41
1
10
58.5044173818047
20
0.517124799264707
30
0
0
SPLINE
5
137
100
AcDbEntity
8
1
62
256
6
ByLayer
370
18
48
1
60
0
100
AcDbSpline
70
4
71
3
72
10
73
6
40
0
40
0
40
0
40
0
40
0.5
40
0.5
40
1
40
1
40
1
40
1
41
1
10
58.457412757475
20
0.650943208635198
30
0
41
1
10
58.5231532016287
20
0.592033859270515
30
0
41
1
10
58.5920272305349
20
0.532309340931818
30
0
41
1
10
58.7341156665363
20
0.411731200715082
30
0
41
1
10
58.8073321566471
20
0.350877036962544
30
0
41
1
10
58.8820263012179
20
0.289638477010357
30
0
0
SPLINE
5
138
100
AcDbEntity
8
1
62
256
6
ByLayer
370
18
48
1
60
0
100
AcDbSpline
70
4
71
3
72
10
73
6
40
0
40
0
40
0
40
0
40
0.5
40
0.5
40
1
40
1
40
1
40
1
41
1
10
58.4675450750536
20
-0.0181253110027342
30
0
41
1
10
58.52983032527
20
-0.0587723833830012
30
0
41
1
10
58.5949834327103
20
-0.0916423775660746
30
0
41
1
10
58.7293234159675
20
-0.146443560529008
30
0
41
1
10
58.7985204236776
20
-0.168347273560102
30
0
41
1
10
58.8691218348511
20
-0.186442514027107
30
0
0
SPLINE
5
139
100
AcDbEntity
8
1
62
256
6
ByLayer
370
18
48
1
60
0
100
AcDbSpline
70
4
71
3
72
12
73
8
40
0
40
0
40
0
40
0
40
0.271123020077072
40
0.271123020077072
40
0.542253603509108
40
0.542253603509108
40
1
40
1
40
1
40
1
41
1
10
58.4644275956133
20
-0.0364117767953474
30
0
41
1
10
58.464297059663
20
-0.0370329502146376
30
0
41
1
10
58.4641523339386
20
-0.0376520749986753
30
0
41
1
10
58.4638346697322
20
-0.0388829454439019
30
0
41
1
10
58.4636615807554
20
-0.0394952227541694
30
0
41
1
10
58.4631588843343
20
-0.0411272866020624
30
0
41
1
10
58.4628026683682
20
-0.0421401722439896
30
0
41
1
10
58.4624082641066
20
-0.0431333068530932
30
0
0
SPLINE
5
13A
100
AcDbEntity
8
1
62
256
6
ByLayer
370
18
48
1
60
0
100
AcDbSpline
70
4
71
3
72
12
73
8
40
0
40
0
40
0
40
0
40
0.261989066130622
40
0.261989066130622
40
0.534634091090814
40
0.534634091090814
40
1
40
1
40
1
40
1
41
1
10
58.9559385619105
20
-0.292353703352234
30
0
41
1
10
58.9547521319556
20
-0.291663036893084
30
0
41
1
10
58.953570382886
20
-0.290984717338347
30
0
41
1
10
58.9511687238278
20
-0.28962655054201
30
0
41
1
10
58.949949211278
20
-0.288947760764245
30
0
41
1
10
58.9466628877038
20
-0.287149020794686
30
0
41
1
10
58.9446064590162
20
-0.28605639263867
30
0
41
1
10
58.9425666650681
20
-0.285007309390551
30
0
0
SPLINE
5
13B
100
AcDbEntity
8
1
62
256
6
ByLayer
370
18
48
1
60
0
100
AcDbSpline
70
4
71
1
72
4
73
2
40
0
40
0
40
1
40
1
41
1
10
57.4289510513805
20
-0.549948203222016
30
0
41
1
10
57.4473130533177
20
-0.486155486379431
30
0
0
SPLINE
5
13C
100
AcDbEntity
8
1
62
256
6
ByLayer
370
18
48
1
60
0
100
AcDbSpline
70
4
71
3
72
29
73
25
40
0
40
0
40
0
40
0
40
0.0426968734593294
40
0.0866155709685427
40
0.138403730369267
40
0.175375116847753
40
0.212330771455874
40
0.264026608833338
40
0.308189435812725
40
0.344890071054126
40
0.37070436295325
40
0.413463812077379
40
0.442325089442053
40
0.444945014837932
40
0.445520613451705
40
0.446393740961966
40
0.453393175760593
40
0.518909833134749
40
0.603565529391815
40
0.716245540956582
40
0.828679744054832
40
0.941647204959445
40
0.997978655246303
40
1
40
1
40
1
40
1
41
1
10
57.4289510513805
20
-0.549948203222016
30
0
41
1
10
57.4524190032279
20
-0.564314277966474
30
0
41
1
10
57.4998812105631
20
-0.595253718531751
30
0
41
1
10
57.5729055701992
20
-0.644296087539232
30
0
41
1
10
57.6432017834567
20
-0.69072046953778
30
0
41
1
10
57.710890855567
20
-0.731818105657908
30
0
41
1
10
57.7784582069841
20
-0.769268040676138
30
0
41
1
10
57.8503745986653
20
-0.804562051584298
30
0
41
1
10
57.9235353465053
20
-0.834758275091616
30
0
41
1
10
57.9828124138531
20
-0.855028074157786
30
0
41
1
10
58.041148178493
20
-0.87157061036703
30
0
41
1
10
58.0951816371886
20
-0.883314324395485
30
0
41
1
10
58.1359698214174
20
-0.889162027584604
30
0
41
1
10
58.1534709230185
20
-0.8910943209099
30
0
41
1
10
58.155736736995
20
-0.891335494192134
30
0
41
1
10
58.1599120767535
20
-0.891776040170413
30
0
41
1
10
58.1958170359802
20
-0.895228289045292
30
0
41
1
10
58.2744766147059
20
-0.896433099225959
30
0
41
1
10
58.4113158852398
20
-0.874770944542519
30
0
41
1
10
58.57637636829
20
-0.806768234858936
30
0
41
1
10
58.7425763159489
20
-0.676461329570941
30
0
41
1
10
58.852434672861
20
-0.530947991692386
30
0
41
1
10
58.902476644669
20
-0.432090173660043
30
0
41
1
10
58.9175079792075
20
-0.397499663555067
30
0
41
1
10
58.9180262477336
20
-0.396300356205927
30
0
0
SPLINE
5
13D
100
AcDbEntity
8
1
62
256
6
ByLayer
370
18
48
1
60
0
100
AcDbSpline
70
4
71
3
72
14
73
10
40
0
40
0
40
0
40
0
40
0.25
40
0.25
40
0.5
40
0.5
40
0.75
40
0.75
40
1
40
1
40
1
40
1
41
1
10
57.428884548408
20
-0.550386803578306
30
0
41
1
10
57.4458637316114
20
-0.560779171716433
30
0
41
1
10
57.4628226073641
20
-0.571643275658857
30
0
41
1
10
57.4968577181065
20
-0.593874436304333
30
-1E-16
41
1
10
57.5139308290562
20
-0.605247940101208
30
0
41
1
10
57.5483288302035
20
-0.628203604440017
30
0
41
1
10
57.5657065698775
20
-0.639820352214116
30
-1E-16
41
1
10
57.6004875491694
20
-0.662841893760628
30
0
41
1
10
57.6178963325305
20
-0.674250008983364
30
0
41
1
10
57.6353806886431
20
-0.685477240307733
30
1E-16
0
SPLINE
5
13E
100
AcDbEntity
8
1
62
256
6
ByLayer
370
18
48
1
60
0
100
AcDbSpline
70
4
71
3
72
8
73
4
40
0
40
0
40
0
40
0
40
1
40
1
40
1
40
1
41
1
10
57.4288845484081
20
-0.550386803579528
30
0
41
1
10
57.4282565472299
20
-0.549993547416591
30
0
41
1
10
57.4276283621729
20
-0.549601381683004
30
0
41
1
10
57.427
20
-0.549210318600984
30
0
0
SPLINE
5
13F
100
AcDbEntity
8
1
62
256
6
ByLayer
370
18
48
1
60
0
100
AcDbSpline
70
4
71
3
72
18
73
14
40
0
40
0
40
0
40
0
40
0.25
40
0.25
40
0.5
40
0.5
40
0.625
40
0.625
40
0.75
40
0.75
40
0.875
40
0.875
40
1
40
1
40
1
40
1
41
1
10
58.4790300917623
20
-0.555448377677664
30
0
41
1
10
58.4828679907163
20
-0.558525028708971
30
0
41
1
10
58.4865670733477
20
-0.561813103596961
30
0
41
1
10
58.4935493190631
20
-0.569022740176507
30
0
41
1
10
58.4968430135125
20
-0.572946243346451
30
0
41
1
10
58.5010829621833
20
-0.579487356519849
30
0
41
1
10
58.5023829912338
20
-0.581783030077673
30
0
41
1
10
58.5046342240803
20
-0.586729408231037
30
0
41
1
10
58.505588644685
20
-0.589398639190193
30
0
41
1
10
58.5068140068229
20
-0.595039615566179
30
0
41
1
10
58.5070825996565
20
-0.598045393561137
30
0
41
1
10
58.5065565948991
20
-0.604106356932874
30
0
41
1
10
58.5057397138687
20
-0.60716642015737
30
0
41
1
10
58.5044173818046
20
-0.609968274195211
30
0
0
SPLINE
5
140
100
AcDbEntity
8
1
62
256
6
ByLayer
370
18
48
1
60
0
100
AcDbSpline
70
4
71
3
72
12
73
8
40
0
40
0
40
0
40
0
40
0.499999999999949
40
0.499999999999949
40
0.749999999999974
40
0.749999999999974
40
1
40
1
40
1
40
1
41
1
10
58.3596685602311
20
-0.418914263019616
30
0
41
1
10
58.3755672257845
20
-0.446440545282201
30
0
41
1
10
58.3940088643292
20
-0.471366513052374
30
0
41
1
10
58.4242031423986
20
-0.505349593878378
30
0
41
1
10
58.4347075892453
20
-0.516120388800857
30
0
41
1
10
58.4563745296779
20
-0.536560472667617
30
0
41
1
10
58.4675494842191
20
-0.546244359061035
30
-1E-16
41
1
10
58.479030075643
20
-0.555448373092361
30
0
0
SPLINE
5
141
100
AcDbEntity
8
1
62
256
6
ByLayer
370
18
48
1
60
0
100
AcDbSpline
70
4
71
3
72
12
73
8
40
0
40
0
40
0
40
0
40
0.499999999999986
40
0.499999999999986
40
0.749999999999993
40
0.749999999999993
40
1
40
1
40
1
40
1
41
1
10
58.4624082525206
20
-0.0431333012808182
30
0
41
1
10
58.4383843531102
20
-0.103610267807738
30
0
41
1
10
58.4167837267998
20
-0.165242598694078
30
1E-16
41
1
10
58.3901353143171
20
-0.259476731313868
30
1E-16
41
1
10
58.3822396707086
20
-0.291131406511113
30
0
41
1
10
58.3689467364789
20
-0.354726057016819
30
1E-16
41
1
10
58.3635351429486
20
-0.386705951057081
30
0
41
1
10
58.3596685685497
20
-0.418914265250493
30
0
0
SPLINE
5
142
100
AcDbEntity
8
1
62
256
6
ByLayer
370
18
48
1
60
0
100
AcDbSpline
70
4
71
3
72
10
73
6
40
0
40
0
40
0
40
0
40
0.367540597536302
40
0.578360398357534
40
1
40
1
40
1
40
1
41
1
10
58.3596685597561
20
-0.418914262971867
30
0
41
1
10
58.2454040398373
20
-0.376259933778897
30
0
41
1
10
58.065597853252
20
-0.304822100020971
30
0
41
1
10
57.7547083333333
20
-0.173426308413781
30
0
41
1
10
57.5580833333334
20
-0.0864319643154374
30
0
41
1
10
57.427
20
-0.0279390154443035
30
0
0
SPLINE
5
143
100
AcDbEntity
8
1
62
256
6
ByLayer
370
18
48
1
60
0
100
AcDbSpline
70
4
71
3
72
8
73
4
40
0
40
0
40
0
40
0
40
1
40
1
40
1
40
1
41
1
10
57.2279045455161
20
0.648091142600407
30
0
41
1
10
57.2221276566212
20
0.641832124542901
30
1E-16
41
1
10
57.2169716907602
20
0.635276844467967
30
0
41
1
10
57.2125273207436
20
0.628380137455849
30
0
0
SPLINE
5
144
100
AcDbEntity
8
1
62
256
6
ByLayer
370
18
48
1
60
0
100
AcDbSpline
70
4
71
3
72
28
73
24
40
0
40
0
40
0
40
0
40
0.250000000000204
40
0.250000000000204
40
0.375000000000306
40
0.375000000000306
40
0.500000000000408
40
0.500000000000408
40
0.56250000000057
40
0.56250000000057
40
0.593750000000581
40
0.593750000000581
40
0.625000000000592
40
0.625000000000592
40
0.656250000000603
40
0.656250000000603
40
0.687500000000614
40
0.687500000000614
40
0.750000000000636
40
0.750000000000636
40
0.875000000000318
40
0.875000000000318
40
1
40
1
40
1
40
1
41
1
10
56.7561420591894
20
-0.810954596259933
30
0
41
1
10
56.7483281776716
20
-0.810239833260908
30
0
41
1
10
56.740639212887
20
-0.809451482446377
30
0
41
1
10
56.7295899650225
20
-0.808082332719238
30
0
41
1
10
56.7259938695718
20
-0.807595453827275
30
0
41
1
10
56.7191306520446
20
-0.806521732957833
30
0
41
1
10
56.7158157615019
20
-0.805935788174736
30
0
41
1
10
56.711654301742
20
-0.804912998454796
30
0
41
1
10
56.7103762648892
20
-0.804541660410422
30
0
41
1
10
56.7090508112349
20
-0.803925438117517
30
0
41
1
10
56.7087073345893
20
-0.803707741989172
30
0
41
1
10
56.7084136204775
20
-0.803254700005709
30
0
41
1
10
56.7084787557828
20
-0.803017601673758
30
0
41
1
10
56.7091874689226
20
-0.802577024563533
30
0
41
1
10
56.7098394020533
20
-0.802371990063818
30
0
41
1
10
56.711500674507
20
-0.802031829610144
30
0
41
1
10
56.7124757912116
20
-0.801896727249925
30
0
41
1
10
56.7155961683823
20
-0.801558341784414
30
0
41
1
10
56.7178601120948
20
-0.80142420342986
30
0
41
1
10
56.7247505631838
20
-0.801131130374841
30
0
41
1
10
56.7294113809842
20
-0.801087075099503
30
0
41
1
10
56.7386799933134
20
-0.801091325086588
30
0
41
1
10
56.7433167710952
20
-0.801149146655234
30
0
41
1
10
56.7479548748303
20
-0.80123640418023
30
0
0
SPLINE
5
145
100
AcDbEntity
8
1
62
256
6
ByLayer
370
18
48
1
60
0
100
AcDbSpline
70
4
71
3
72
12
73
8
40
0
40
0
40
0
40
0
40
0.5
40
0.5
40
0.75
40
0.75
40
1
40
1
40
1
40
1
41
1
10
56.7479548748323
20
-0.801236404173011
30
0
41
1
10
56.7902646081807
20
-0.802032385207696
30
0
41
1
10
56.8325554066295
20
-0.802545683409591
30
0
41
1
10
56.8959348604769
20
-0.802578511436622
30
0
41
1
10
56.9170517061559
20
-0.802464409593313
30
0
41
1
10
56.9592553933795
20
-0.801832511767003
30
0
41
1
10
56.9803426043715
20
-0.80132299707833
30
0
41
1
10
57.0014040641876
20
-0.800429181825109
30
0
0
SPLINE
5
146
100
AcDbEntity
8
1
62
256
6
ByLayer
370
18
48
1
60
0
100
AcDbSpline
70
4
71
3
72
17
73
13
40
0
40
0
40
0
40
0
40
0.249999999999961
40
0.249999999999961
40
0.374999999999968
40
0.374999999999968
40
0.499999999999974
40
0.62499999999998
40
0.62499999999998
40
0.749999999999987
40
0.749999999999987
40
1
40
1
40
1
40
1
41
1
10
57.0014040641877
20
-0.800429181825734
30
0
41
1
10
56.977761467195
20
-0.794831565349369
30
0
41
1
10
56.9565457209106
20
-0.787672931481382
30
0
41
1
10
56.9290730654128
20
-0.773679952965466
30
0
41
1
10
56.9206283004897
20
-0.768458966425584
30
0
41
1
10
56.905391805241
20
-0.756758886108514
30
0
41
1
10
56.8920712540889
20
-0.744006637881768
30
0
41
1
10
56.8824828248967
20
-0.729002430963476
30
0
41
1
10
56.8747186233691
20
-0.712788165302726
30
0
41
1
10
56.8717440619717
20
-0.704056290698304
30
0
41
1
10
56.8655447071444
20
-0.676022608117563
30
0
41
1
10
56.8651145576716
20
-0.655439680986063
30
0
41
1
10
56.867722127602
20
-0.632946933990894
30
0
0
SPLINE
5
147
100
AcDbEntity
8
1
62
256
6
ByLayer
370
18
48
1
60
0
100
AcDbSpline
70
4
71
3
72
10
73
6
40
0
40
0
40
0
40
0
40
0.5
40
0.5
40
1
40
1
40
1
40
1
41
1
10
56.8677221276021
20
-0.632946933990922
30
0
41
1
10
56.8682024920522
20
-0.628803338102529
30
0
41
1
10
56.869760661599
20
-0.624777781225475
30
0
41
1
10
56.8749936177412
20
-0.616985388422819
30
0
41
1
10
56.8785629808856
20
-0.613379357560518
30
0
41
1
10
56.8828041930307
20
-0.610062513564031
30
0
0
SPLINE
5
148
100
AcDbEntity
8
1
62
256
6
ByLayer
370
18
48
1
60
0
100
AcDbSpline
70
4
71
3
72
24
73
20
40
0
40
0
40
0
40
0
40
0.0624999999999666
40
0.0624999999999666
40
0.124999999999933
40
0.124999999999933
40
0.1874999999999
40
0.1874999999999
40
0.249999999999866
40
0.249999999999866
40
0.374999999999908
40
0.374999999999908
40
0.49999999999995
40
0.49999999999995
40
0.624999999999992
40
0.624999999999992
40
0.750000000000033
40
0.750000000000033
40
1
40
1
40
1
40
1
41
1
10
56.8828041930324
20
-0.610062513563548
30
0
41
1
10
56.8877068116328
20
-0.606228416018894
30
0
41
1
10
56.8930858193502
20
-0.602774393910494
30
0
41
1
10
56.9044874350244
20
-0.596393387871984
30
0
41
1
10
56.9105140153632
20
-0.593469357163485
30
-1E-16
41
1
10
56.9230506160957
20
-0.588026592940281
30
0
41
1
10
56.9295897393113
20
-0.585499511360837
30
0
41
1
10
56.9429190300257
20
-0.580819576663629
30
0
41
1
10
56.9496750256107
20
-0.578676340888109
30
0
41
1
10
56.9701520344379
20
-0.572704628826557
30
0
41
1
10
56.9840788359843
20
-0.569327605791727
30
0
41
1
10
57.0122985764798
20
-0.563402626620473
30
0
41
1
10
57.0265942894089
20
-0.56086024422271
30
0
41
1
10
57.0554628694989
20
-0.556418976907935
30
0
41
1
10
57.0700628688476
20
-0.554519556981205
30
0
41
1
10
57.099308033528
20
-0.551268553261053
30
0
41
1
10
57.1139642483835
20
-0.549914851002058
30
0
41
1
10
57.1580155091806
20
-0.546531835280177
30
-1E-16
41
1
10
57.187492223894
20
-0.545173817133332
30
-1E-16
41
1
10
57.2170507597549
20
-0.544500155986157
30
1E-16
0
SPLINE
5
149
100
AcDbEntity
8
1
62
256
6
ByLayer
370
18
48
1
60
0
100
AcDbSpline
70
4
71
3
72
8
73
4
40
0
40
0
40
0
40
0
40
1
40
1
40
1
40
1
41
1
10
57.2279045455161
20
-0.528531072139799
30
0
41
1
10
57.2239923465046
20
-0.533826993414294
30
0
41
1
10
57.2203655062708
20
-0.539149379025702
30
0
41
1
10
57.2170507597549
20
-0.544500155986157
30
1E-16
0
SPLINE
5
14A
100
AcDbEntity
8
1
62
256
6
ByLayer
370
18
48
1
60
0
100
AcDbSpline
70
4
71
3
72
28
73
24
40
0
40
0
40
0
40
0
40
0.250000000000849
40
0.250000000000849
40
0.375000000001126
40
0.375000000001126
40
0.500000000001404
40
0.500000000001404
40
0.562500000001432
40
0.562500000001432
40
0.593750000001446
40
0.593750000001446
40
0.62500000000146
40
0.62500000000146
40
0.656250000001473
40
0.656250000001473
40
0.687500000001487
40
0.687500000001487
40
0.75000000000119
40
0.75000000000119
40
0.875000000000595
40
0.875000000000595
40
1
40
1
40
1
40
1
41
1
10
56.7561420591895
20
0.0790324793839829
30
0
41
1
10
56.7483281776717
20
0.0841205454096041
30
0
41
1
10
56.7406392128871
20
0.0894017754721688
30
0
41
1
10
56.7295899650227
20
0.0979372843416684
30
0
41
1
10
56.725993869572
20
0.10088058376769
30
0
41
1
10
56.7191306520447
20
0.107140214515567
30
0
41
1
10
56.715815761502
20
0.110454833148509
30
0
41
1
10
56.7116543017422
20
0.116006120931786
30
0
41
1
10
56.7103762648893
20
0.117987200804862
30
-1E-16
41
1
10
56.709050811235
20
0.121200702969418
30
0
41
1
10
56.7087073345894
20
0.122324512386228
30
0
41
1
10
56.7084136204776
20
0.124636101785228
30
0
41
1
10
56.7084787557829
20
0.12583194516597
30
0
41
1
10
56.7091874689227
20
0.128030992157591
30
0
41
1
10
56.7098394020534
20
0.129042498355432
30
0
41
1
10
56.711500674507
20
0.130709318502994
30
0
41
1
10
56.7124757912116
20
0.131365368995489
30
0
41
1
10
56.7155961683823
20
0.133002783277874
30
0
41
1
10
56.7178601120948
20
0.13364332007788
30
0
41
1
10
56.7247505631838
20
0.135042570485069
30
0
41
1
10
56.7294113809843
20
0.135248971114237
30
0
41
1
10
56.7386799933136
20
0.135228818035159
30
0
41
1
10
56.7433167710952
20
0.13495491030443
30
0
41
1
10
56.7479548748303
20
0.134539390426369
30
0
0
SPLINE
5
14B
100
AcDbEntity
8
1
62
256
6
ByLayer
370
18
48
1
60
0
100
AcDbSpline
70
4
71
3
72
14
73
10
40
0
40
0
40
0
40
0
40
0.25
40
0.25
40
0.5
40
0.5
40
0.75
40
0.75
40
1
40
1
40
1
40
1
41
1
10
56.7479548748324
20
0.134539390415398
30
0
41
1
10
56.771285021014
20
0.132449282035594
30
0
41
1
10
56.7946010289412
20
0.130752814532485
30
0
41
1
10
56.8411932500672
20
0.128472157744
30
0
41
1
10
56.8644696638751
20
0.127882436076334
30
0
41
1
10
56.9109631355462
20
0.128363960424963
30
0
41
1
10
56.9341807405423
20
0.129420214233164
30
0
41
1
10
56.9805188596936
20
0.13424452097442
30
0
41
1
10
57.0036413522409
20
0.137958762157012
30
0
41
1
10
57.0266715708007
20
0.144235794341483
30
0
0
SPLINE
5
14C
100
AcDbEntity
8
1
62
256
6
ByLayer
370
18
48
1
60
0
100
AcDbSpline
70
4
71
3
72
20
73
16
40
0
40
0
40
0
40
0
40
0.250000000000023
40
0.250000000000023
40
0.375000000000015
40
0.375000000000015
40
0.500000000000006
40
0.624999999999998
40
0.624999999999998
40
0.687499999999998
40
0.687499999999998
40
0.749999999999998
40
0.874999999999999
40
0.874999999999999
40
1
40
1
40
1
40
1
41
1
10
57.0266715708039
20
0.144235794374339
30
0
41
1
10
56.999980798692
20
0.174867563047798
30
0
41
1
10
56.9767507670841
20
0.20724617688083
30
0
41
1
10
56.9481879270841
20
0.258775580779201
30
-1E-16
41
1
10
56.9396713746519
20
0.276589743817738
30
0
41
1
10
56.9253599701368
20
0.312140377663013
30
0
41
1
10
56.9136452078923
20
0.34775894642749
30
0
41
1
10
56.9068967055132
20
0.383351475906295
30
0
41
1
10
56.9036360897787
20
0.40997441215049
30
0
41
1
10
56.9028538537835
20
0.418824842055272
30
0
41
1
10
56.9018852026794
20
0.43621847589074
30
0
41
1
10
56.9013128545217
20
0.461953676111932
30
0
41
1
10
56.9031866439177
20
0.486641455553865
30
0
41
1
10
56.9076128399271
20
0.518641818117402
30
0
41
1
10
56.9108035360714
20
0.534210868169481
30
0
41
1
10
56.9148206079027
20
0.549136904497885
30
0
0
SPLINE
5
14D
100
AcDbEntity
8
1
62
256
6
ByLayer
370
18
48
1
60
0
100
AcDbSpline
70
4
71
3
72
8
73
4
40
0
40
0
40
0
40
0
40
1
40
1
40
1
40
1
41
1
10
56.9148206079027
20
0.549136904497857
30
0
41
1
10
56.9153084436003
20
0.550949531618187
30
0
41
1
10
56.9162762158285
20
0.552605200850792
30
0
41
1
10
56.9176589016905
20
0.554127249950881
30
0
0
SPLINE
5
14E
100
AcDbEntity
8
1
62
256
6
ByLayer
370
18
48
1
60
0
100
AcDbSpline
70
4
71
3
72
20
73
16
40
0
40
0
40
0
40
0
40
0.124999999999912
40
0.124999999999912
40
0.187499999999919
40
0.187499999999919
40
0.249999999999925
40
0.249999999999925
40
0.374999999999937
40
0.374999999999937
40
0.49999999999995
40
0.49999999999995
40
0.749999999999975
40
0.749999999999975
40
1
40
1
40
1
40
1
41
1
10
56.9176589016905
20
0.554127249950795
30
0
41
1
10
56.925277615767
20
0.562513867057987
30
0
41
1
10
56.9347872867598
20
0.569295534728468
30
0
41
1
10
56.9506132047123
20
0.578192299154608
30
0
41
1
10
56.9561943348494
20
0.580945456529236
30
0
41
1
10
56.9676184402724
20
0.586015912880185
30
0
41
1
10
56.9734598048238
20
0.588336720301925
30
0
41
1
10
56.991284250494
20
0.594808726669896
30
0
41
1
10
57.0035632565633
20
0.598477257149938
30
0
41
1
10
57.0286565522837
20
0.604967729949038
30
0
41
1
10
57.0415147184679
20
0.607790000084862
30
0
41
1
10
57.0802802599134
20
0.615241903119795
30
0
41
1
10
57.1064516910914
20
0.618912380346785
30
0
41
1
10
57.1592025987195
20
0.624719083441903
30
0
41
1
10
57.1857872707247
20
0.626832479898951
30
0
41
1
10
57.2125273207437
20
0.628380137455878
30
0
0
SPLINE
5
14F
100
AcDbEntity
8
1
62
256
6
ByLayer
370
18
48
1
60
0
100
AcDbSpline
70
4
71
3
72
8
73
4
40
0
40
0
40
0
40
0
40
1
40
1
40
1
40
1
41
1
10
58.5044173896603
20
-0.609968273091596
30
0
41
1
10
58.4977097018995
20
-0.624184208696249
30
0
41
1
10
58.490719745173
20
-0.638144234675565
30
0
41
1
10
58.4834230055694
20
-0.651826125205872
30
0
0
SPLINE
5
150
100
AcDbEntity
8
1
62
256
6
ByLayer
370
18
48
1
60
0
100
AcDbSpline
70
4
71
3
72
8
73
4
40
0
40
0
40
0
40
0
40
1
40
1
40
1
40
1
41
1
10
57.4725480081085
20
-0.239315226789273
30
0
41
1
10
57.4573266561654
20
-0.238494754658348
30
0
41
1
10
57.4421438198407
20
-0.23760576673817
30
0
41
1
10
57.4270000000001
20
-0.23664640597633
30
0
0
SPLINE
5
151
100
AcDbEntity
8
1
62
256
6
ByLayer
370
18
48
1
60
0
100
AcDbSpline
70
4
71
3
72
8
73
4
40
0
40
0
40
0
40
0
40
1
40
1
40
1
40
1
41
1
10
57.4725480081084
20
-0.239315226789273
30
0
41
1
10
57.488083875189
20
-0.255979144823073
30
0
41
1
10
57.5034125277571
20
-0.272878091876379
30
0
41
1
10
57.5185358252758
20
-0.290009958889385
30
0
0
SPLINE
5
152
100
AcDbEntity
8
1
62
256
6
ByLayer
370
18
48
1
60
0
100
AcDbSpline
70
4
71
3
72
10
73
6
40
0
40
0
40
0
40
0
40
0.5
40
0.5
40
1
40
1
40
1
40
1
41
1
10
58.9425666650426
20
-0.28500732265897
30
0
41
1
10
58.9324489520654
20
-0.272635311561515
30
0
41
1
10
58.9225026568118
20
-0.260761938878971
30
0
41
1
10
58.9030001484844
20
-0.238135508313547
30
0
41
1
10
58.8934403824679
20
-0.227371241613895
30
0
41
1
10
58.8839658444342
20
-0.216847795277005
30
0
0
SPLINE
5
153
100
AcDbEntity
8
1
62
256
6
ByLayer
370
18
48
1
60
0
100
AcDbSpline
70
4
71
3
72
28
73
24
40
0
40
0
40
0
40
0
40
0.125000000000013
40
0.125000000000013
40
0.18750000000002
40
0.18750000000002
40
0.250000000000026
40
0.250000000000026
40
0.37500000000004
40
0.37500000000004
40
0.437500000000046
40
0.437500000000046
40
0.500000000000053
40
0.500000000000053
40
0.625000000000027
40
0.625000000000027
40
0.750000000000002
40
0.750000000000002
40
0.81249999999999
40
0.81249999999999
40
0.874999999999977
40
0.874999999999977
40
1
40
1
40
1
40
1
41
1
10
58.8839658444344
20
-0.216847795276038
30
0
41
1
10
58.8774536166617
20
-0.244285877739372
30
0
41
1
10
58.8691877006293
20
-0.271081898830346
30
0
41
1
10
58.854535707664
20
-0.310451017250614
30
0
41
1
10
58.8492876600159
20
-0.323440770528947
30
0
41
1
10
58.8379984821586
20
-0.34912991323128
30
0
41
1
10
58.8319288622071
20
-0.361879189234514
30
0
41
1
10
58.8127476727593
20
-0.399075502306658
30
0
41
1
10
58.7986237727028
20
-0.422588073377767
30
0
41
1
10
58.7755133987555
20
-0.456006524038685
30
0
41
1
10
58.7674911894492
20
-0.466839532127835
30
0
41
1
10
58.7508203247908
20
-0.487903228163248
30
0
41
1
10
58.7421388358682
20
-0.498158597458399
30
0
41
1
10
58.7152371505212
20
-0.527720433343177
30
0
41
1
10
58.6964293767268
20
-0.545535270516893
30
0
41
1
10
58.6571429152755
20
-0.5775429730366
30
0
41
1
10
58.6366822217473
20
-0.591774843521449
30
0
41
1
10
58.6046327037768
20
-0.610177932594553
30
0
41
1
10
58.5937923867348
20
-0.615777768016585
30
0
41
1
10
58.5720566394533
20
-0.625832157842467
30
0
41
1
10
58.5611233509371
20
-0.630309009766904
30
0
41
1
10
58.5281422245432
20
-0.642214596877778
30
0
41
1
10
58.5059125611799
20
-0.648113613014488
30
0
41
1
10
58.4834230055544
20
-0.651826125192258
30
0
0
SPLINE
5
154
100
AcDbEntity
8
1
62
256
6
ByLayer
370
18
48
1
60
0
100
AcDbSpline
70
4
71
3
72
31
73
27
40
0
40
0
40
0
40
0
40
0.0625000000000594
40
0.0625000000000594
40
0.125000000000119
40
0.125000000000119
40
0.250000000000205
40
0.250000000000205
40
0.312500000000232
40
0.312500000000232
40
0.32812500000023
40
0.32812500000023
40
0.335937500000229
40
0.335937500000229
40
0.343750000000229
40
0.343750000000229
40
0.375000000000226
40
0.500000000000181
40
0.500000000000181
40
0.625000000000136
40
0.625000000000136
40
0.75000000000009
40
0.75000000000009
40
0.875000000000045
40
0.875000000000045
40
1
40
1
40
1
40
1
41
1
10
58.4834230055541
20
-0.651826125199676
30
0
41
1
10
58.4628657385954
20
-0.661259797101593
30
0
41
1
10
58.4419161342166
20
-0.669207792287807
30
0
41
1
10
58.3992103609684
20
-0.682282020627582
30
0
41
1
10
58.3773499446526
20
-0.687431500605811
30
-1E-16
41
1
10
58.3120121152729
20
-0.698492341930262
30
0
41
1
10
58.268373935907
20
-0.700187634884543
30
0
41
1
10
58.2022891119862
20
-0.695114514122764
30
0
41
1
10
58.1804773965071
20
-0.692184744221692
30
0
41
1
10
58.1534631437275
20
-0.687186185632527
30
-1E-16
41
1
10
58.1480712850726
20
-0.686122469960623
30
1E-16
41
1
10
58.1400014901843
20
-0.684415199098879
30
0
41
1
10
58.137322499844
20
-0.683775855680068
30
0
41
1
10
58.1319299929241
20
-0.68272201398517
30
0
41
1
10
58.129241872853
20
-0.68214329647526
30
0
41
1
10
58.1158035884568
20
-0.679236558120522
30
0
41
1
10
58.062252412306
20
-0.666334729258324
30
0
41
1
10
58.0095380899638
20
-0.647416137834028
30
0
41
1
10
57.9256418833488
20
-0.610066213156273
30
0
41
1
10
57.8850250124975
20
-0.588303171404817
30
0
41
1
10
57.8057121800721
20
-0.539569336888917
30
0
41
1
10
57.7670142303634
20
-0.512605878228953
30
0
41
1
10
57.6909715253879
20
-0.454163623057411
30
0
41
1
10
57.6544957527667
20
-0.423341217817381
30
0
41
1
10
57.5844868280437
20
-0.358724141137117
30
0
41
1
10
57.5508019891068
20
-0.32508086102979
30
0
41
1
10
57.5185358252758
20
-0.290009958889357
30
0
0
SPLINE
5
155
100
AcDbEntity
8
1
62
256
6
ByLayer
370
18
48
1
60
0
100
AcDbSpline
70
4
71
1
72
4
73
2
40
0
40
0
40
1
40
1
41
1
10
57.4473130533177
20
-0.486155486379431
30
0
41
1
10
57.5185358252758
20
-0.290009958889357
30
0
0
SPLINE
5
156
100
AcDbEntity
8
1
62
256
6
ByLayer
370
18
48
1
60
0
100
AcDbSpline
70
4
71
3
72
29
73
25
40
0
40
0
40
0
40
0
40
0.0399479150991396
40
0.0810389893913602
40
0.129492864986056
40
0.164083917877714
40
0.198660251766062
40
0.247027749318336
40
0.288347235261282
40
0.322684968727985
40
0.346837255712486
40
0.386843717659255
40
0.413846815647564
40
0.416298062045742
40
0.41683660181906
40
0.417653514647206
40
0.424202303924338
40
0.485500793820917
40
0.564706091369393
40
0.670131411086236
40
0.775326748255049
40
0.881021010423483
40
0.933725665615962
40
1
40
1
40
1
40
1
41
1
10
57.4473130533177
20
-0.486155486379431
30
0
41
1
10
57.4698420607735
20
-0.500006765490582
30
0
41
1
10
57.5149398335205
20
-0.530125403699799
30
0
41
1
10
57.5857772856602
20
-0.579434132238163
30
0
41
1
10
57.6534309506255
20
-0.626477029927941
30
0
41
1
10
57.7186212422337
20
-0.668586708228816
30
0
41
1
10
57.784409989425
20
-0.707496334996762
30
0
41
1
10
57.8547929677879
20
-0.7446136985333
30
0
41
1
10
57.9257279877369
20
-0.776868389144681
30
0
41
1
10
57.9832396381246
20
-0.799043509799418
30
0
41
1
10
58.0400873828692
20
-0.817629385619568
30
0
41
1
10
58.0926496818529
20
-0.831434197590426
30
-1E-16
41
1
10
58.1323514820438
20
-0.838991210260502
30
0
41
1
10
58.1494268782415
20
-0.841664986551706
30
0
41
1
10
58.1515752261172
20
-0.842017808148682
30
0
41
1
10
58.1561383429289
20
-0.842562096377691
30
0
41
1
10
58.1954184652033
20
-0.847000562592626
30
0
41
1
10
58.2793139821192
20
-0.849946166299588
30
0
41
1
10
58.4182843383055
20
-0.830700911091412
30
0
41
1
10
58.5756033963576
20
-0.768625760316468
30
0
41
1
10
58.7288532587016
20
-0.653857628856514
30
0
41
1
10
58.8320908605954
20
-0.525613707636097
30
0
41
1
10
58.9010711651681
20
-0.399716642997305
30
0
41
1
10
58.9294790154406
20
-0.327097270832809
30
0
41
1
10
58.9425666614998
20
-0.285007321682286
30
0
0
SPLINE
5
157
100
AcDbEntity
8
1
62
256
6
ByLayer
370
18
48
1
60
0
100
AcDbSpline
70
4
71
3
72
8
73
4
40
0
40
0
40
0
40
0
40
1
40
1
40
1
40
1
41
1
10
57.4270000000001
20
-0.23664640597633
30
0
41
1
10
57.3933024522106
20
-0.235876845790529
30
0
41
1
10
57.3596511137369
20
-0.235290661407163
30
0
41
1
10
57.3260459117036
20
-0.234887563629826
30
0
0
SPLINE
5
158
100
AcDbEntity
8
1
62
256
6
ByLayer
370
18
48
1
60
0
100
AcDbSpline
70
4
71
3
72
14
73
10
40
0
40
0
40
0
40
0
40
0.25
40
0.25
40
0.5
40
0.5
40
0.75
40
0.75
40
1
40
1
40
1
40
1
41
1
10
57.3260459117036
20
-0.234887563629826
30
0
41
1
10
57.3181486776989
20
-0.252935953611058
30
0
41
1
10
57.3102554422088
20
-0.27098688587435
30
0
41
1
10
57.29495894945
20
-0.307166582805451
30
1E-16
41
1
10
57.2875482439053
20
-0.32529712034426
30
0
41
1
10
57.2739542464097
20
-0.3617060059876
30
0
41
1
10
57.2677638959095
20
-0.37999200877411
30
0
41
1
10
57.25786703776
20
-0.416652056983963
30
0
41
1
10
57.254210372996
20
-0.434939616006801
30
0
41
1
10
57.2525507516517
20
-0.453162600025877
30
0
0
SPLINE
5
159
100
AcDbEntity
8
1
62
256
6
ByLayer
370
18
48
1
60
0
100
AcDbSpline
70
4
71
3
72
12
73
8
40
0
40
0
40
0
40
0
40
0.499999999999861
40
0.499999999999861
40
0.74999999999993
40
0.74999999999993
40
1
40
1
40
1
40
1
41
1
10
57.3260459117036
20
-0.234887563629826
30
0
41
1
10
57.3121176917602
20
-0.221082949971191
30
0
41
1
10
57.2971177245358
20
-0.208210473607522
30
0
41
1
10
57.2725766508263
20
-0.190676997298851
30
0
41
1
10
57.2639894776412
20
-0.185100040807555
30
0
41
1
10
57.2463360024473
20
-0.174919307970129
30
0
41
1
10
57.2372671760663
20
-0.170303185427713
30
0
41
1
10
57.2279045455111
20
-0.166262615490893
30
-1E-16
0
SPLINE
5
15A
100
AcDbEntity
8
1
62
256
6
ByLayer
370
18
48
1
60
0
100
AcDbSpline
70
4
71
3
72
8
73
4
40
0
40
0
40
0
40
0
40
1
40
1
40
1
40
1
41
1
10
57.236337162889
20
-0.516948603374175
30
0
41
1
10
57.2335575711048
20
-0.520815633378902
30
0
41
1
10
57.2307511907186
20
-0.524677584920312
30
0
41
1
10
57.2279045455065
20
-0.528531072152902
30
0
0
SPLINE
5
15B
100
AcDbEntity
8
1
62
256
6
ByLayer
370
18
48
1
60
0
100
AcDbSpline
70
4
71
3
72
8
73
4
40
0
40
0
40
0
40
0
40
1
40
1
40
1
40
1
41
1
10
57.2525507516518
20
-0.453162600025877
30
0
41
1
10
57.2446799069771
20
-0.474420567071519
30
0
41
1
10
57.2384775892691
20
-0.495873395412985
30
1E-16
41
1
10
57.2363371628896
20
-0.516948603374232
30
0
0
SPLINE
5
15C
100
AcDbEntity
8
1
62
256
6
ByLayer
370
18
48
1
60
0
100
AcDbSpline
70
4
71
3
72
8
73
4
40
0
40
0
40
0
40
0
40
1
40
1
40
1
40
1
41
1
10
58.9125914251192
20
0.221668439685544
30
0
41
1
10
58.9026858843768
20
0.244209246673904
30
0
41
1
10
58.8924886467658
20
0.266870524758616
30
0
41
1
10
58.8820263012186
20
0.289638477006719
30
0
0
SPLINE
5
15D
100
AcDbEntity
8
1
62
256
6
ByLayer
370
18
48
1
60
0
100
AcDbSpline
70
4
71
3
72
28
73
24
40
0
40
0
40
0
40
0
40
0.124999999999996
40
0.124999999999996
40
0.187499999999994
40
0.187499999999994
40
0.249999999999992
40
0.249999999999992
40
0.375000000000016
40
0.375000000000016
40
0.437500000000011
40
0.437500000000011
40
0.500000000000005
40
0.500000000000005
40
0.624999999999995
40
0.624999999999995
40
0.687500000000011
40
0.687500000000011
40
0.750000000000027
40
0.750000000000027
40
0.875000000000014
40
0.875000000000014
40
1
40
1
40
1
40
1
41
1
10
58.8820263012178
20
0.28963847701155
30
0
41
1
10
58.8752781989653
20
0.290155791615518
30
0
41
1
10
58.866822027217
20
0.292109924936426
30
0
41
1
10
58.8519512915731
20
0.296880378269719
30
0
41
1
10
58.8466279746658
20
0.298778747284444
30
0
41
1
10
58.835179454655
20
0.30325002759605
30
0
41
1
10
58.8291092010595
20
0.305802226524406
30
0
41
1
10
58.8099327209948
20
0.314382117119322
30
0
41
1
10
58.7958254783034
20
0.321348425019522
30
0
41
1
10
58.7727378258564
20
0.333613194934429
30
0
41
1
10
58.7647241727151
20
0.338000835050053
30
0
41
1
10
58.7480581817301
20
0.34737784689068
30
0
41
1
10
58.7393824837701
20
0.352384448500004
30
0
41
1
10
58.7127969311424
20
0.368102422109956
30
0
41
1
10
58.6941856889622
20
0.379591490616349
30
0
41
1
10
58.6649785054732
20
0.398294057022241
30
0
41
1
10
58.6550315287247
20
0.404768741924954
30
1E-16
41
1
10
58.634689242144
20
0.418228516042063
30
0
41
1
10
58.6242440276337
20
0.425248369437526
30
0
41
1
10
58.5925767635975
20
0.446857745649424
30
0
41
1
10
58.5711452086369
20
0.461910244686067
30
0
41
1
10
58.5277182285246
20
0.493153830850105
30
0
41
1
10
58.5056785496671
20
0.509378717005575
30
0
41
1
10
58.4834230056177
20
0.526154180417052
30
0
0
SPLINE
5
15E
100
AcDbEntity
8
1
62
256
6
ByLayer
370
18
48
1
60
0
100
AcDbSpline
70
4
71
3
72
31
73
27
40
0
40
0
40
0
40
0
40
0.0624999999998645
40
0.0624999999998645
40
0.124999999999729
40
0.124999999999729
40
0.249999999999491
40
0.249999999999491
40
0.312499999999372
40
0.312499999999372
40
0.328124999999358
40
0.328124999999358
40
0.335937499999352
40
0.335937499999352
40
0.343749999999345
40
0.343749999999345
40
0.374999999999384
40
0.499999999999507
40
0.499999999999507
40
0.624999999999631
40
0.624999999999631
40
0.749999999999754
40
0.749999999999754
40
0.874999999999877
40
0.874999999999877
40
1
40
1
40
1
40
1
41
1
10
58.4834230056176
20
0.526154180417052
30
0
41
1
10
58.4628657386407
20
0.534237157369347
30
0
41
1
10
58.4419161342431
20
0.542846983940308
30
-1E-16
41
1
10
58.3992103609562
20
0.560906763433735
30
0
41
1
10
58.3773499446197
20
0.570406222342228
30
0
41
1
10
58.3120121151768
20
0.599171382422554
30
0
41
1
10
58.2683739357694
20
0.618855794452458
30
0
41
1
10
58.2022891117859
20
0.647879382557562
30
0
41
1
10
58.1804773962861
20
0.657331633295627
30
0
41
1
10
58.1534631434811
20
0.668765009417569
30
0
41
1
10
58.1480712848211
20
0.671034126942601
30
0
41
1
10
58.1400014899253
20
0.67440426246182
30
0
41
1
10
58.1373224995816
20
0.675505629512116
30
0
41
1
10
58.1319299926574
20
0.677780009013475
30
0
41
1
10
58.1292418725838
20
0.678901132190276
30
0
41
1
10
58.1158035881752
20
0.684503280601007
30
0
41
1
10
58.0622524119776
20
0.706520383594494
30
0
41
1
10
58.0095380895812
20
0.726410278838443
30
0
41
1
10
57.9256418829027
20
0.754410925134096
30
0
41
1
10
57.8850250120215
20
0.766108872147441
30
0
41
1
10
57.8057121795368
20
0.784346139110824
30
0
41
1
10
57.7670142297994
20
0.79089554708429
30
0
41
1
10
57.6909715247679
20
0.798292076594834
30
0
41
1
10
57.6544957521419
20
0.799050970858701
30
0
41
1
10
57.5844868273948
20
0.794150457960683
30
0
41
1
10
57.5508019884492
20
0.78865495385844
30
0
41
1
10
57.5185358246104
20
0.779670140047045
30
0
0
SPLINE
5
15F
100
AcDbEntity
8
1
62
256
6
ByLayer
370
18
48
1
60
0
100
AcDbSpline
70
4
71
1
72
4
73
2
40
0
40
0
40
1
40
1
41
1
10
57.4473130531155
20
0.675250075249977
30
0
41
1
10
57.5185358246104
20
0.779670140047045
30
0
0
SPLINE
5
160
100
AcDbEntity
8
1
62
256
6
ByLayer
370
18
48
1
60
0
100
AcDbSpline
70
4
71
3
72
8
73
4
40
0
40
0
40
0
40
0
40
1
40
1
40
1
40
1
41
1
10
58.9720907055047
20
0.0616568755523588
30
0
41
1
10
58.9731547692986
20
0.0589426658751506
30
0
41
1
10
58.974219692778
20
0.0562504603329046
30
0
41
1
10
58.975285809852
20
0.0535935965055785
30
0
0
SPLINE
5
161
100
AcDbEntity
8
1
62
256
6
ByLayer
370
18
48
1
60
0
100
AcDbSpline
70
4
71
3
72
28
73
24
40
0
40
0
40
0
40
0
40
0.124999999999973
40
0.124999999999973
40
0.249999999999946
40
0.249999999999946
40
0.312499999999951
40
0.312499999999951
40
0.374999999999955
40
0.374999999999955
40
0.43749999999996
40
0.43749999999996
40
0.499999999999964
40
0.499999999999964
40
0.562499999999969
40
0.562499999999969
40
0.624999999999973
40
0.624999999999973
40
0.749999999999982
40
0.749999999999982
40
0.874999999999991
40
0.874999999999991
40
1
40
1
40
1
40
1
41
1
10
58.9302270261051
20
0.174068917463075
30
0
41
1
10
58.9303099595401
20
0.170600821526079
30
0
41
1
10
58.9305152952742
20
0.166741071015821
30
0
41
1
10
58.9314103102312
20
0.157804904903145
30
0
41
1
10
58.9320970925837
20
0.152759912628653
30
0
41
1
10
58.9337732050222
20
0.144121279941885
30
0
41
1
10
58.9344316289614
20
0.141109863458809
30
0
41
1
10
58.9360095056137
20
0.134755346610291
30
0
41
1
10
58.936945966222
20
0.131361677051984
30
0
41
1
10
58.9390467973789
20
0.124534265012244
30
0
41
1
10
58.9402360232095
20
0.121020439367641
30
0
41
1
10
58.9427620173161
20
0.114186496832417
30
0
41
1
10
58.9440930863328
20
0.11087280301777
30
0
41
1
10
58.9468213595261
20
0.104528052494516
30
0
41
1
10
58.9481761173623
20
0.101590909267031
30
0
41
1
10
58.9508593268833
20
0.0960648184758099
30
0
41
1
10
58.9521940408447
20
0.0934669668874619
30
0
41
1
10
58.9560283304928
20
0.0863061245732695
30
0
41
1
10
58.9584079058799
20
0.0822586989262106
30
0
41
1
10
58.9628850671559
20
0.075015745621613
30
0
41
1
10
58.9649283316586
20
0.0719146330997376
30
0
41
1
10
58.9687209343289
20
0.0663482690064257
30
0
41
1
10
58.9704685461772
20
0.0638900323876328
30
0
41
1
10
58.9720907055063
20
0.061656875553922
30
0
0
SPLINE
5
162
100
AcDbEntity
8
1
62
256
6
ByLayer
370
18
48
1
60
0
100
AcDbSpline
70
4
71
3
72
10
73
6
40
0
40
0
40
0
40
0
40
0.637541908824008
40
0.637541908824008
40
1
40
1
40
1
40
1
41
1
10
58.9302270261031
20
0.174068917472198
30
0
41
1
10
58.9267316702067
20
0.183615947308084
30
0
41
1
10
58.9232353588486
20
0.193162990396957
30
0
41
1
10
58.9177498672349
20
0.208137778653281
30
0
41
1
10
58.9157613089952
20
0.213565516249901
30
0
41
1
10
58.9137724599313
20
0.218993257316129
30
0
0
SPLINE
5
163
100
AcDbEntity
8
1
62
256
6
ByLayer
370
18
48
1
60
0
100
AcDbSpline
70
4
71
3
72
8
73
4
40
0
40
0
40
0
40
0
40
1
40
1
40
1
40
1
41
1
10
58.9125914316848
20
0.221668424745246
30
0
41
1
10
58.9129860569149
20
0.220770425183929
30
0
41
1
10
58.9133797541531
20
0.219878628531006
30
0
41
1
10
58.9137724599316
20
0.21899325731502
30
0
0
SPLINE
5
164
100
AcDbEntity
8
1
62
256
6
ByLayer
370
18
48
1
60
0
100
AcDbSpline
70
4
71
3
72
8
73
4
40
0
40
0
40
0
40
0
40
1
40
1
40
1
40
1
41
1
10
58.9672952981908
20
-0.0121304841126744
30
0
41
1
10
58.9628932898859
20
-0.0118334465042835
30
0
41
1
10
58.9585273211648
20
-0.011530897237094
30
0
41
1
10
58.9541837198854
20
-0.011224927239283
30
0
0
SPLINE
5
165
100
AcDbEntity
8
1
62
256
6
ByLayer
370
18
48
1
60
0
100
AcDbSpline
70
4
71
3
72
8
73
4
40
0
40
0
40
0
40
0
40
1
40
1
40
1
40
1
41
1
10
58.9672952981894
20
-0.0121304841129017
30
0
41
1
10
58.9663025311101
20
-0.0110598872604442
30
0
41
1
10
58.9652773046801
20
-0.0100643012807211
30
0
41
1
10
58.9642195684879
20
-0.0091383979966224
30
0
0
SPLINE
5
166
100
AcDbEntity
8
1
62
256
6
ByLayer
370
18
48
1
60
0
100
AcDbSpline
70
4
71
3
72
8
73
4
40
0
40
0
40
0
40
0
40
1
40
1
40
1
40
1
41
1
10
58.8571286285642
20
-0.146653308689935
30
0
41
1
10
58.8582118066094
20
-0.149873767112894
30
0
41
1
10
58.859183203088
20
-0.152932128958781
30
0
41
1
10
58.8600418697635
20
-0.155827019167617
30
0
0
SPLINE
5
167
100
AcDbEntity
8
1
62
256
6
ByLayer
370
18
48
1
60
0
100
AcDbSpline
70
4
71
3
72
30
73
26
40
0
40
0
40
0
40
0
40
0.0624999999999473
40
0.0624999999999473
40
0.124999999999895
40
0.124999999999895
40
0.249999999999789
40
0.249999999999789
40
0.374999999999683
40
0.374999999999683
40
0.437499999999668
40
0.437499999999668
40
0.499999999999652
40
0.499999999999652
40
0.624999999999739
40
0.624999999999739
40
0.749999999999826
40
0.749999999999826
40
0.81249999999987
40
0.81249999999987
40
0.874999999999913
40
0.874999999999913
40
0.937499999999956
40
0.937499999999956
40
1
40
1
40
1
40
1
41
1
10
58.8571286285638
20
-0.146653308689878
30
0
41
1
10
58.8559305131937
20
-0.143091123550903
30
0
41
1
10
58.8549213302112
20
-0.139405174908518
30
0
41
1
10
58.8533140512299
20
-0.131780628206315
30
0
41
1
10
58.8527218761831
20
-0.127850482667384
30
0
41
1
10
58.8516402453672
20
-0.116021924263833
30
0
41
1
10
58.8518101951362
20
-0.107970519352222
30
0
41
1
10
58.8540934390151
20
-0.0915933720816042
30
0
41
1
10
58.8561546043984
20
-0.0836257869450492
30
0
41
1
10
58.8606195404412
20
-0.0720128576554089
30
0
41
1
10
58.8623543335
20
-0.068174105361976
30
0
41
1
10
58.8662130887779
20
-0.0608069179816084
30
0
41
1
10
58.8683390242744
20
-0.0572635858848685
30
0
41
1
10
58.8753004318909
20
-0.0470467795624927
30
0
41
1
10
58.8807968309517
20
-0.0407176880746363
30
0
41
1
10
58.8929144843738
20
-0.0297683646727762
30
0
41
1
10
58.8995936390758
20
-0.0250548162131565
30
0
41
1
10
58.9104907528612
20
-0.0193337570057395
30
0
41
1
10
58.9142271272781
20
-0.0176746338838427
30
0
41
1
10
58.9219444735381
20
-0.014863838258492
30
0
41
1
10
58.9259619178938
20
-0.0137044537933093
30
0
41
1
10
58.9341411169605
20
-0.0119822053811163
30
0
41
1
10
58.938261536799
20
-0.0114248156766052
30
0
41
1
10
58.9465399641182
20
-0.0109087877610818
30
0
41
1
10
58.9504690630989
20
-0.0109632610548829
30
0
41
1
10
58.954183719933
20
-0.0112249272319787
30
0
0
SPLINE
5
168
100
AcDbEntity
8
1
62
256
6
ByLayer
370
18
48
1
60
0
100
AcDbSpline
70
4
71
3
72
14
73
10
40
0
40
0
40
0
40
0
40
0.25
40
0.25
40
0.5
40
0.5
40
0.75
40
0.75
40
1
40
1
40
1
40
1
41
1
10
58.9752858098521
20
0.0535935965055216
30
0
41
1
10
58.9760707447162
20
0.0512154217224747
30
0
41
1
10
58.9768223837406
20
0.0491052922452013
30
0
41
1
10
58.9782149449529
20
0.0457806887875734
30
0
41
1
10
58.9788338291523
20
0.0446378028212848
30
0
41
1
10
58.9797750786256
20
0.0439388866537342
30
0
41
1
10
58.9800826631905
20
0.0444111666883771
30
0
41
1
10
58.9803781580046
20
0.0466857815033563
30
0
41
1
10
58.9803733838517
20
0.0484540431712048
30
0
41
1
10
58.9802740364745
20
0.0505480168813506
30
0
0
SPLINE
5
169
100
AcDbEntity
8
1
62
256
6
ByLayer
370
18
48
1
60
0
100
AcDbSpline
70
4
71
3
72
30
73
26
40
0
40
0
40
0
40
0
40
0.0372441924169194
40
0.0755541736425073
40
0.120728632969748
40
0.152978522019492
40
0.185214688266728
40
0.23030861572475
40
0.268831549430957
40
0.300845264023625
40
0.323362895326184
40
0.360661672053376
40
0.385837168058858
40
0.388122511167921
40
0.388624601924985
40
0.389386225115648
40
0.395491784501335
40
0.452641519271328
40
0.526486107509031
40
0.624776115425308
40
0.72285170628827
40
0.821392454325269
40
0.870529995397393
40
0.943095643182247
40
1
40
1
40
1
40
1
41
1
10
57.4473130531155
20
0.675250075249977
30
0
41
1
10
57.4698420605784
20
0.684631447540795
30
0
41
1
10
57.5149398333352
20
0.698041838389599
30
0
41
1
10
57.585777285503
20
0.707122682706398
30
0
41
1
10
57.6534309504909
20
0.705017764036114
30
0
41
1
10
57.718621242123
20
0.696243656417238
30
0
41
1
10
57.7844099893393
20
0.682729293552029
30
0
41
1
10
57.85479296773
20
0.662519982945042
30
0
41
1
10
57.9257279877064
20
0.636233778420916
30
0
41
1
10
57.9832396381116
20
0.611454696260125
30
0
41
1
10
58.040087382859
20
0.584726735960203
30
0
41
1
10
58.0926496818341
20
0.557775688250047
30
0
41
1
10
58.1323514820135
20
0.535972907704092
30
0
41
1
10
58.1494268782079
20
0.526384682684096
30
0
41
1
10
58.1515752260831
20
0.525134028001304
30
0
41
1
10
58.1561383428962
20
0.522832441733499
30
0
41
1
10
58.1954184651718
20
0.5028017082237
30
0
41
1
10
58.2793139820864
20
0.458137723970111
30
0
41
1
10
58.4182843382587
20
0.379758935525757
30
0
41
1
10
58.5756033962978
20
0.288270697755394
30
0
41
1
10
58.7288532586275
20
0.197554591732086
30
0
41
1
10
58.8320908605146
20
0.135229778920007
30
0
41
1
10
58.9046201219016
20
0.0920135173599874
30
0
41
1
10
58.9490904115046
20
0.0663683176221355
30
0
41
1
10
58.9691470111935
20
0.0563416775848964
30
0
41
1
10
58.9752858098522
20
0.0535935965055501
30
0
0
SPLINE
5
16A
100
AcDbEntity
8
1
62
256
6
ByLayer
370
18
48
1
60
0
100
AcDbSpline
70
4
71
1
72
4
73
2
40
0
40
0
40
1
40
1
41
1
10
57.4289510513804
20
0.630302838329982
30
0
41
1
10
57.4473130531155
20
0.675250075249977
30
0
0
SPLINE
5
16B
100
AcDbEntity
8
1
62
256
6
ByLayer
370
18
48
1
60
0
100
AcDbSpline
70
4
71
3
72
8
73
4
40
0
40
0
40
0
40
0
40
1
40
1
40
1
40
1
41
1
10
58.9642195684879
20
-0.0091383979966224
30
0
41
1
10
58.9619754390208
20
-0.0072993489715998
30
0
41
1
10
58.9596874763891
20
-0.0057277746674913
30
0
41
1
10
58.9573530671575
20
-0.0044070632357318
30
0
0
SPLINE
5
16C
100
AcDbEntity
8
1
62
256
6
ByLayer
370
18
48
1
60
0
100
AcDbSpline
70
4
71
3
72
9
73
5
40
0
40
0
40
0
40
0
40
0.473894405605979
40
1
40
1
40
1
40
1
41
1
10
58.9642195684879
20
-0.0091383979966224
30
0
41
1
10
58.9657378983622
20
-0.0100236521293766
30
0
41
1
10
58.9688386438561
20
-0.011831525273891
30
0
41
1
10
58.9717208143315
20
-0.0135119595083495
30
0
41
1
10
58.9731766894495
20
-0.0143607998127493
30
0
0
SPLINE
5
16D
100
AcDbEntity
8
1
62
256
6
ByLayer
370
18
48
1
60
0
100
AcDbSpline
70
4
71
3
72
16
73
12
40
0
40
0
40
0
40
0
40
0.109333991627647
40
0.21911027431338
40
0.329340403704443
40
0.440029472013604
40
0.551175467443899
40
0.662768585953593
40
0.774790496173847
40
0.887213558545096
40
1
40
1
40
1
40
1
41
1
10
58.9731766827665
20
-0.0143607959162466
30
0
41
1
10
58.9743376698648
20
-0.0148517267931254
30
0
41
1
10
58.9766643406264
20
-0.0158355745197127
30
0
41
1
10
58.9798740862847
20
-0.0173134727203603
30
0
41
1
10
58.9828833239644
20
-0.0187952501874236
30
0
41
1
10
58.9856677869936
20
-0.0202800920970674
30
0
41
1
10
58.9882286967983
20
-0.021767298695238
30
0
41
1
10
58.9905621635796
20
-0.0232563742821696
30
0
41
1
10
58.992658705078
20
-0.0247469204690844
30
0
41
1
10
58.9945366791944
20
-0.026239006334464
30
0
41
1
10
58.9955832801014
20
-0.027232754907061
30
0
41
1
10
58.9961074249084
20
-0.0277304309078374
30
0
0
SPLINE
5
16E
100
AcDbEntity
8
1
62
256
6
ByLayer
370
18
48
1
60
0
100
AcDbSpline
70
4
71
3
72
9
73
5
40
0
40
0
40
0
40
0
40
0.60505179238428
40
1
40
1
40
1
40
1
41
1
10
58.9961074283081
20
-0.0277304503651976
30
0
41
1
10
58.9971347530447
20
-0.0283294273092736
30
0
41
1
10
58.9984530765604
20
-0.0290980701124681
30
0
41
1
10
58.9991450116187
20
-0.0295015005971777
30
0
41
1
10
58.9993207110409
20
-0.0296039417372072
30
0
0
SPLINE
5
16F
100
AcDbEntity
8
1
62
256
6
ByLayer
370
18
48
1
60
0
100
AcDbSpline
70
4
71
3
72
8
73
4
40
0
40
0
40
0
40
0
40
1
40
1
40
1
40
1
41
1
10
58.4675450750537
20
-0.0181253110027626
30
0
41
1
10
58.4667397202734
20
-0.0242182625166549
30
-1E-16
41
1
10
58.4657091991582
20
-0.0303136578527301
30
0
41
1
10
58.4644275847452
20
-0.0364117763075171
30
0
0
SPLINE
5
170
100
AcDbEntity
8
1
62
256
6
ByLayer
370
18
48
1
60
0
100
AcDbSpline
70
4
71
3
72
8
73
4
40
0
40
0
40
0
40
0
40
1
40
1
40
1
40
1
41
1
10
58.432361589241
20
0.0273967725678119
30
0
41
1
10
58.4440284614318
20
0.0121993352183836
30
0
41
1
10
58.4557551702202
20
-0.0029763482825729
30
0
41
1
10
58.4675450750536
20
-0.0181253110027342
30
0
0
SPLINE
5
171
100
AcDbEntity
8
1
62
256
6
ByLayer
370
18
48
1
60
0
100
AcDbSpline
70
4
71
3
72
26
73
22
40
0
40
0
40
0
40
0
40
0.125000000000044
40
0.125000000000044
40
0.187500000000043
40
0.187500000000043
40
0.250000000000042
40
0.250000000000042
40
0.375000000000041
40
0.375000000000041
40
0.50000000000004
40
0.50000000000004
40
0.625000000000038
40
0.625000000000038
40
0.750000000000037
40
0.750000000000037
40
0.875000000000035
40
0.875000000000035
40
0.937500000000018
40
0.937500000000018
40
1
40
1
40
1
40
1
41
1
10
58.4323615813843
20
0.0273967828020147
30
0
41
1
10
58.4215828039175
20
0.041437375092471
30
0
41
1
10
58.4123345680974
20
0.056228217070867
30
0
41
1
10
58.4004444058069
20
0.0792616916140787
30
0
41
1
10
58.3968114837088
20
0.0870806234006523
30
0
41
1
10
58.3901492410995
20
0.102950559503768
30
0
41
1
10
58.3871126562368
20
0.111029830973877
30
0
41
1
10
58.3789464415374
20
0.135092645689781
30
0
41
1
10
58.3746981075825
20
0.15101862856784
30
0
41
1
10
58.3676809329303
20
0.18228098727613
30
0
41
1
10
58.3649048239938
20
0.197699333798482
30
0
41
1
10
58.3600593420175
20
0.226869743255918
30
0
41
1
10
58.3579695060201
20
0.240719719771192
30
0
41
1
10
58.3534683403545
20
0.267035775952877
30
0
41
1
10
58.3510837776099
20
0.279493876186677
30
0
41
1
10
58.3446433576389
20
0.303324446065744
30
0
41
1
10
58.3406260083669
20
0.314567731510237
30
0
41
1
10
58.3315268253038
20
0.330992170359309
30
0
41
1
10
58.3279581992895
20
0.336411753126896
30
0
41
1
10
58.319543337397
20
0.347290812181313
30
0
41
1
10
58.3147398590814
20
0.352694565984336
30
0
41
1
10
58.3095323764452
20
0.358034416245943
30
0
0
SPLINE
5
172
100
AcDbEntity
8
1
62
256
6
ByLayer
370
18
48
1
60
0
100
AcDbSpline
70
4
71
3
72
8
73
4
40
0
40
0
40
0
40
0
40
1
40
1
40
1
40
1
41
1
10
57.4288845484097
20
0.629857118317659
30
0
41
1
10
57.4282565472309
20
0.629572483529472
30
0
41
1
10
57.4276283621734
20
0.629286722156905
30
0
41
1
10
57.427
20
0.628999830359191
30
0
0
SPLINE
5
173
100
AcDbEntity
8
1
62
256
6
ByLayer
370
18
48
1
60
0
100
AcDbSpline
70
4
71
3
72
8
73
4
40
0
40
0
40
0
40
0
40
1
40
1
40
1
40
1
41
1
10
58.3095323764793
20
0.358034416232613
30
0
41
1
10
58.3019920654269
20
0.365766591880373
30
0
41
1
10
58.2945562341273
20
0.373581901760446
30
0
41
1
10
58.2872271278427
20
0.381478213584785
30
0
0
SPLINE
5
174
100
AcDbEntity
8
1
62
256
6
ByLayer
370
18
48
1
60
0
100
AcDbSpline
70
4
71
3
72
8
73
4
40
0
40
0
40
0
40
0
40
1
40
1
40
1
40
1
41
1
10
58.3152697826215
20
0.367095405007603
30
0
41
1
10
58.3060826137516
20
0.372354780411086
30
0
41
1
10
58.2967402003854
20
0.377169007158756
30
0
41
1
10
58.2872271279189
20
0.381478213575008
30
0
0
SPLINE
5
175
100
AcDbEntity
8
1
62
256
6
ByLayer
370
18
48
1
60
0
100
AcDbSpline
70
4
71
3
72
29
73
25
40
0
40
0
40
0
40
0
40
0.0426968734684052
40
0.0866155709838553
40
0.138403730391564
40
0.175375116875475
40
0.212330771490217
40
0.264026608879188
40
0.308189435869054
40
0.344890071122883
40
0.37070436302029
40
0.413463812134395
40
0.442325089495912
40
0.444945014891723
40
0.445520613505436
40
0.446393741015849
40
0.45339317581702
40
0.518909833203818
40
0.603565529453508
40
0.716245540990108
40
0.828679744060991
40
0.941647204955817
40
0.997978655245284
40
1
40
1
40
1
40
1
41
1
10
57.4289510513804
20
0.630302838329982
30
0
41
1
10
57.4524190032283
20
0.640030865160497
30
1E-16
41
1
10
57.4998812105597
20
0.653788668310114
30
0
41
1
10
57.5729055701992
20
0.661841800048194
30
0
41
1
10
57.6432017834573
20
0.658260041876389
30
0
41
1
10
57.7108908555674
20
0.64772847688775
30
0
41
1
10
57.7784582069867
20
0.632176582153534
30
0
41
1
10
57.8503745986633
20
0.609685909264869
30
0
41
1
10
57.9235353465128
20
0.581042949514483
30
0
41
1
10
57.9828124138413
20
0.554311973695064
30
0
41
1
10
58.0411481784856
20
0.525639676564481
30
0
41
1
10
58.0951816371946
20
0.496890439320367
30
-1E-16
41
1
10
58.1359698214157
20
0.473732587487916
30
0
41
1
10
58.1534709230167
20
0.463563501647684
30
0
41
1
10
58.155736736993
20
0.46224331264321
30
0
41
1
10
58.1599120767517
20
0.459809026055382
30
0
41
1
10
58.1958170359717
20
0.438874572603709
30
0
41
1
10
58.2744766146885
20
0.393012751846356
30
0
41
1
10
58.4113158852246
20
0.31322922660695
30
0
41
1
10
58.5763763682899
20
0.216991590611656
30
0
41
1
10
58.7425763159613
20
0.120089554423146
30
1E-16
41
1
10
58.852434672866
20
0.0560372025617255
30
0
41
1
10
58.9024766446692
20
0.0268604872578635
30
0
41
1
10
58.9175079792075
20
0.0180965461576079
30
0
41
1
10
58.9180262477338
20
0.0177943724020224
30
0
0
SPLINE
5
176
100
AcDbEntity
8
1
62
256
6
ByLayer
370
18
48
1
60
0
100
AcDbSpline
70
4
71
1
72
4
73
2
40
0
40
0
40
1
40
1
41
1
10
57.4288845484095
20
0.629857118315471
30
0
41
1
10
57.4289510513804
20
0.630302838329982
30
0
0
SPLINE
5
177
100
AcDbEntity
8
1
62
256
6
ByLayer
370
18
48
1
60
0
100
AcDbSpline
70
4
71
3
72
14
73
10
40
0
40
0
40
0
40
0
40
0.25
40
0.25
40
0.5
40
0.5
40
0.75
40
0.75
40
1
40
1
40
1
40
1
41
1
10
57.4288845484094
20
0.629857118315471
30
0
41
1
10
57.4458637316127
20
0.63689607715537
30
0
41
1
10
57.4628226073652
20
0.642408883152029
30
0
41
1
10
57.4968577181077
20
0.651060565049818
30
0
41
1
10
57.5139308290572
20
0.654193875233261
30
0
41
1
10
57.5483288302043
20
0.658384603625763
30
0
41
1
10
57.5657065698782
20
0.659436302761264
30
0
41
1
10
57.6004875491698
20
0.659705621561045
30
0
41
1
10
57.6178963325308
20
0.658927569264534
30
0
41
1
10
57.6353806886432
20
0.65734410795352
30
0
0
SPLINE
5
178
100
AcDbEntity
8
1
62
256
6
ByLayer
370
18
48
1
60
0
100
AcDbSpline
70
4
71
3
72
22
73
18
40
0
40
0
40
0
40
0
40
0.125
40
0.125
40
0.25
40
0.25
40
0.375
40
0.375
40
0.5
40
0.5
40
0.625
40
0.625
40
0.75
40
0.75
40
0.875
40
0.875
40
1
40
1
40
1
40
1
41
1
10
57.6353806886425
20
0.65734410795389
30
0
41
1
10
57.661964731754
20
0.6549365243431
30
0
41
1
10
57.6886816605771
20
0.65099879598182
30
0
41
1
10
57.7425135533787
20
0.640309075702447
30
1E-16
41
1
10
57.7697039849079
20
0.633526813778275
30
0
41
1
10
57.8241536152235
20
0.617495111937245
30
0
41
1
10
57.8514261734882
20
0.608238212942666
30
0
41
1
10
57.9062157651967
20
0.587476198711613
30
0
41
1
10
57.9337097808527
20
0.575976291442402
30
0
41
1
10
57.9885440334288
20
0.551184175591146
30
0
41
1
10
58.0159796328736
20
0.537850310125123
30
0
41
1
10
58.0708717252365
20
0.50960428787505
30
0
41
1
10
58.0981830490587
20
0.494771990974442
30
0
41
1
10
58.1526889520386
20
0.463913442102864
30
0
41
1
10
58.1799639559049
20
0.447841157211173
30
-1E-16
41
1
10
58.2339285695286
20
0.415089543957805
30
0
41
1
10
58.2606647651181
20
0.398388144469095
30
0
41
1
10
58.2872271279118
20
0.381478213567277
30
0
0
SPLINE
5
179
100
AcDbEntity
8
1
62
256
6
ByLayer
370
18
48
1
60
0
100
AcDbSpline
70
4
71
3
72
8
73
4
40
0
40
0
40
0
40
0
40
1
40
1
40
1
40
1
41
1
10
58.9180262477344
20
0.0177943724016529
30
0
41
1
10
58.9332239410253
20
0.0092099861185204
30
0
41
1
10
58.9463231876192
20
0.0018331828185865
30
0
41
1
10
58.9573530671574
20
-0.0044070632357034
30
0
0
SPLINE
5
17A
100
AcDbEntity
8
1
62
256
6
ByLayer
370
18
48
1
60
0
100
AcDbSpline
70
4
71
3
72
30
73
26
40
0
40
0
40
0
40
0
40
0.0625000000000196
40
0.0625000000000196
40
0.125000000000039
40
0.125000000000039
40
0.250000000000039
40
0.250000000000039
40
0.312500000000039
40
0.312500000000039
40
0.375000000000038
40
0.375000000000038
40
0.500000000000002
40
0.500000000000002
40
0.562499999999983
40
0.562499999999983
40
0.624999999999965
40
0.624999999999965
40
0.749999999999959
40
0.749999999999959
40
0.812499999999969
40
0.812499999999969
40
0.874999999999979
40
0.874999999999979
40
1
40
1
40
1
40
1
41
1
10
58.315269782615
20
0.367095405013941
30
0
41
1
10
58.3310240413679
20
0.35807656992381
30
0
41
1
10
58.3467409263867
20
0.349063105175759
30
0
41
1
10
58.3780966079585
20
0.331043132440499
30
0
41
1
10
58.3937717784814
20
0.322015362383553
30
0
41
1
10
58.4403688485383
20
0.29512057610529
30
0
41
1
10
58.4708398669487
20
0.277461449161478
30
0
41
1
10
58.5156655982933
20
0.251390670332171
30
0
41
1
10
58.5304662550461
20
0.242766187486467
30
0
41
1
10
58.5595646893319
20
0.225775928444733
30
0
41
1
10
58.573886694018
20
0.217395011541527
30
0
41
1
10
58.6161704606768
20
0.192602651240747
30
0
41
1
10
58.6435359518356
20
0.176503403028931
30
0
41
1
10
58.682776967342
20
0.153444727781419
30
0
41
1
10
58.6955722399493
20
0.145929943336256
30
0
41
1
10
58.7205869421798
20
0.131256357512598
30
0
41
1
10
58.7328267389346
20
0.124085108704918
30
0
41
1
10
58.7684715566095
20
0.103239082204766
30
0
41
1
10
58.7908149485402
20
0.0902503505022878
30
0
41
1
10
58.8222508480962
20
0.0721488443469696
30
1E-16
41
1
10
58.8323713968383
20
0.0663479753347076
30
0
41
1
10
58.8517421401344
20
0.0552863270273747
30
0
41
1
10
58.8610145956014
20
0.0500126577619255
30
0
41
1
10
58.8875851109862
20
0.0349390690428493
30
0
41
1
10
58.9036441492636
20
0.025883868250645
30
0
41
1
10
58.9180262477344
20
0.0177943724016814
30
0
0
SPLINE
5
17B
100
AcDbEntity
8
1
62
256
6
ByLayer
370
18
48
1
60
0
100
AcDbSpline
70
4
71
3
72
8
73
4
40
0
40
0
40
0
40
0
40
1
40
1
40
1
40
1
41
1
10
58.9993207110074
20
-0.0296039412131961
30
0
41
1
10
58.9992871261926
20
-0.0308401182284115
30
0
41
1
10
58.9992533271624
20
-0.0320762882021199
30
0
41
1
10
58.9992193127038
20
-0.0333124521100672
30
0
0
SPLINE
5
17C
100
AcDbEntity
8
1
62
256
6
ByLayer
370
18
48
1
60
0
100
AcDbSpline
70
4
71
3
72
8
73
4
40
0
40
0
40
0
40
0
40
1
40
1
40
1
40
1
41
1
10
58.9938191089569
20
-0.0002077851484614
30
0
41
1
10
58.9956676488619
20
-0.0100040096120324
30
0
41
1
10
58.9975016192923
20
-0.0198027313283831
30
0
41
1
10
58.99932071089
20
-0.0296039407266449
30
0
0
SPLINE
5
17D
100
AcDbEntity
8
1
62
256
6
ByLayer
370
18
48
1
60
0
100
AcDbSpline
70
4
71
3
72
8
73
4
40
0
40
0
40
0
40
0
40
1
40
1
40
1
40
1
41
1
10
58.9992193127032
20
0.0333124521100956
30
0
41
1
10
58.9992533271413
20
0.0320762889549542
30
0
41
1
10
58.9992871262833
20
0.0308401181276849
30
0
41
1
10
58.9993207111071
20
0.0296039408378874
30
0
0
SPLINE
5
17E
100
AcDbEntity
8
1
62
256
6
ByLayer
370
18
48
1
60
0
100
AcDbSpline
70
4
71
3
72
8
73
4
40
0
40
0
40
0
40
0
40
1
40
1
40
1
40
1
41
1
10
58.9548999143052
20
-0.289711649944422
30
0
41
1
10
58.9552461922319
20
-0.290592342229758
30
0
41
1
10
58.9555924080784
20
-0.291473026869483
30
0
41
1
10
58.955938561917
20
-0.292353703367752
30
0
0
SPLINE
5
17F
100
AcDbEntity
8
1
62
256
6
ByLayer
370
18
48
1
60
0
100
AcDbSpline
70
4
71
3
72
8
73
4
40
0
40
0
40
0
40
0
40
1
40
1
40
1
40
1
41
1
10
58.9180262477342
20
-0.396300356204449
30
0
41
1
10
58.9325794295247
20
-0.362454759079384
30
0
41
1
10
58.9452075180646
20
-0.327799627193201
30
0
41
1
10
58.9559385619042
20
-0.292353703374005
30
0
0
SPLINE
5
180
100
AcDbEntity
8
1
62
256
6
ByLayer
370
18
48
1
60
0
100
AcDbSpline
70
4
71
3
72
30
73
26
40
0
40
0
40
0
40
0
40
0.0624999999999973
40
0.0624999999999973
40
0.124999999999995
40
0.124999999999995
40
0.24999999999995
40
0.24999999999995
40
0.312499999999946
40
0.312499999999946
40
0.374999999999943
40
0.374999999999943
40
0.499999999999973
40
0.499999999999973
40
0.562499999999988
40
0.562499999999988
40
0.625000000000002
40
0.625000000000002
40
0.750000000000002
40
0.750000000000002
40
0.812500000000001
40
0.812500000000001
40
0.875000000000001
40
0.875000000000001
40
1
40
1
40
1
40
1
41
1
10
58.3152697826143
20
-0.889521896878136
30
0
41
1
10
58.3310240413675
20
-0.887256815267278
30
0
41
1
10
58.3467409263867
20
-0.884431984907849
30
0
41
1
10
58.3780966079594
20
-0.877646348964305
30
0
41
1
10
58.3937717784828
20
-0.873673804451442
30
0
41
1
10
58.440368848539
20
-0.860108330458445
30
0
41
1
10
58.4708398669495
20
-0.848908213876001
30
0
41
1
10
58.5156655982946
20
-0.828882228709858
30
0
41
1
10
58.5304662550472
20
-0.821660372849408
30
0
41
1
10
58.5595646893326
20
-0.806218235637232
30
0
41
1
10
58.5738866940188
20
-0.797985922585781
30
0
41
1
10
58.6161704606777
20
-0.771746550419493
30
0
41
1
10
58.6435359518367
20
-0.752154924262271
30
0
41
1
10
58.6827769673428
20
-0.720097458555529
30
0
41
1
10
58.69557223995
20
-0.708955860896936
30
0
41
1
10
58.7205869421807
20
-0.685745588001197
30
0
41
1
10
58.7328267389357
20
-0.673653262896124
30
0
41
1
10
58.7684715566099
20
-0.636128754956417
30
0
41
1
10
58.7908149485407
20
-0.609482451431262
30
0
41
1
10
58.8222508480972
20
-0.567102898432182
30
0
41
1
10
58.8323713968389
20
-0.552581567008133
30
0
41
1
10
58.8517421401347
20
-0.522982117721909
30
0
41
1
10
58.8610145956016
20
-0.507874681386738
30
0
41
1
10
58.8875851109861
20
-0.461631354736284
30
0
41
1
10
58.9036441492635
20
-0.429579671461198
30
0
41
1
10
58.9180262477342
20
-0.396300356204563
30
0
0
SPLINE
5
181
100
AcDbEntity
8
1
62
256
6
ByLayer
370
18
48
1
60
0
100
AcDbSpline
70
4
71
3
72
8
73
4
40
0
40
0
40
0
40
0
40
1
40
1
40
1
40
1
41
1
10
57.4270000000001
20
0.782920477786064
30
0
41
1
10
57.3933024519412
20
0.795461389351999
30
0
41
1
10
57.3596511131988
20
0.808119637075094
30
0
41
1
10
57.3260459108973
20
0.820895035908109
30
0
0
SPLINE
5
182
100
AcDbEntity
8
1
62
256
6
ByLayer
370
18
48
1
60
0
100
AcDbSpline
70
4
71
3
72
12
73
8
40
0
40
0
40
0
40
0
40
0.50000000000014
40
0.50000000000014
40
0.75000000000007
40
0.75000000000007
40
1
40
1
40
1
40
1
41
1
10
57.3260459108973
20
0.820895035908109
30
0
41
1
10
57.3121176910458
20
0.816126926761086
30
0
41
1
10
57.2971177239315
20
0.812463560448919
30
0
41
1
10
57.2725766504182
20
0.809072473278889
30
0
41
1
10
57.2639894773054
20
0.808297780391229
30
0
41
1
10
57.2463360022722
20
0.807652886812122
30
0
41
1
10
57.2372671759759
20
0.807774557931737
30
0
41
1
10
57.2279045455111
20
0.808435220132111
30
0
0
SPLINE
5
183
100
AcDbEntity
8
1
62
256
6
ByLayer
370
18
48
1
60
0
100
AcDbSpline
70
4
71
3
72
8
73
4
40
0
40
0
40
0
40
0
40
1
40
1
40
1
40
1
41
1
10
58.9548999143176
20
-0.289711649933992
30
0
41
1
10
58.9522899098689
20
-0.283073598225457
30
0
41
1
10
58.9498207530144
20
-0.276556436009571
30
0
41
1
10
58.9474848551259
20
-0.270153649959184
30
0
0
SPLINE
5
184
100
AcDbEntity
8
1
62
256
6
ByLayer
370
18
48
1
60
0
100
AcDbSpline
70
4
71
3
72
10
73
6
40
0
40
0
40
0
40
0
40
0.591756699561343
40
0.591756699561343
40
1
40
1
40
1
40
1
41
1
10
58.9802740364742
20
0.0505480168827717
30
0
41
1
10
58.9829710010054
20
0.0464312135414957
30
0
41
1
10
58.9849370051338
20
0.0432243600063771
30
0
41
1
10
58.9871541315317
20
0.0385714946221469
30
0
41
1
10
58.9877427179505
20
0.0368948070251349
30
0
41
1
10
58.9880202992453
20
0.0353563538727713
30
0
0
SPLINE
5
185
100
AcDbEntity
8
1
62
256
6
ByLayer
370
18
48
1
60
0
100
AcDbSpline
70
4
71
3
72
8
73
4
40
0
40
0
40
0
40
0
40
1
40
1
40
1
40
1
41
1
10
58.9548999143051
20
0.289711649944337
30
0
41
1
10
58.9552461922297
20
0.290592342224301
30
0
41
1
10
58.9555924080742
20
0.291473026858625
30
0
41
1
10
58.9559385619107
20
0.292353703351551
30
0
0
SPLINE
5
186
100
AcDbEntity
8
1
62
256
6
ByLayer
370
18
48
1
60
0
100
AcDbSpline
70
4
71
3
72
12
73
8
40
0
40
0
40
0
40
0
40
0.5000000000001
40
0.5000000000001
40
0.750000000000051
40
0.750000000000051
40
1
40
1
40
1
40
1
41
1
10
58.9548999143051
20
0.289711649944337
30
0
41
1
10
58.9508892252785
20
0.27951122244761
30
0
41
1
10
58.9472111229988
20
0.269596254147842
30
0
41
1
10
58.9421515460628
20
0.255116539583213
30
0
41
1
10
58.9405396716746
20
0.250344512425215
30
0
41
1
10
58.9375667555533
20
0.241216972627853
30
0
41
1
10
58.9361924304025
20
0.236824524491112
30
0
41
1
10
58.9349292644116
20
0.232601910377156
30
0
0
SPLINE
5
187
100
AcDbEntity
8
1
62
256
6
ByLayer
370
18
48
1
60
0
100
AcDbSpline
70
4
71
3
72
22
73
18
40
0
40
0
40
0
40
0
40
0.0214058509468958
40
0.0214058509468958
40
0.217124680757488
40
0.217124680757488
40
0.314984095662784
40
0.314984095662784
40
0.41284351056808
40
0.41284351056808
40
0.60856234037872
40
0.60856234037872
40
0.70642175528404
40
0.70642175528404
40
0.80428117018936
40
0.80428117018936
40
1
40
1
40
1
40
1
41
1
10
58.5786994543837
20
0.794905316293182
30
0
41
1
10
58.5818042770958
20
0.79304127957721
30
0
41
1
10
58.5848982206459
20
0.791152672661894
30
0
41
1
10
58.6161704606778
20
0.771746550419067
30
0
41
1
10
58.6435359518364
20
0.752154924262243
30
0
41
1
10
58.6827769673417
20
0.720097458556239
30
0
41
1
10
58.6955722399488
20
0.708955860897873
30
0
41
1
10
58.7205869421791
20
0.685745588002419
30
0
41
1
10
58.732826738934
20
0.673653262897375
30
0
41
1
10
58.7684715566073
20
0.636128754958804
30
0
41
1
10
58.7908149485378
20
0.609482451434332
30
0
41
1
10
58.8222508480943
20
0.567102898435877
30
0
41
1
10
58.8323713968357
20
0.552581567012453
30
0
41
1
10
58.8517421401311
20
0.522982117727366
30
0
41
1
10
58.8610145955978
20
0.507874681392764
30
0
41
1
10
58.887585110982
20
0.461631354743872
30
0
41
1
10
58.9036441492594
20
0.429579671469668
30
0
41
1
10
58.9180262477301
20
0.396300356213857
30
0
0
SPLINE
5
188
100
AcDbEntity
8
1
62
256
6
ByLayer
370
18
48
1
60
0
100
AcDbSpline
70
4
71
3
72
8
73
4
40
0
40
0
40
0
40
0
40
1
40
1
40
1
40
1
41
1
10
58.9180262477302
20
0.396300356213772
30
0
41
1
10
58.9325794295253
20
0.362454759079043
30
0
41
1
10
58.9452075180688
20
0.327799627182657
30
0
41
1
10
58.9559385619109
20
0.292353703352802
30
0
0
SPLINE
5
189
100
AcDbEntity
8
1
62
256
6
ByLayer
370
18
48
1
60
0
100
AcDbSpline
70
4
71
3
72
10
73
6
40
0
40
0
40
0
40
0
40
0.711599099531256
40
0.711599099531256
40
1
40
1
40
1
40
1
41
1
10
58.9993207110074
20
0.0296039412132245
30
0
41
1
10
58.9980773011445
20
0.0229044872696136
30
0
41
1
10
58.9968269401873
20
0.0162061964686586
30
0
41
1
10
58.995060195355
20
0.006794824936236
30
0
41
1
10
58.9945495387509
20
0.0040807676094516
30
0
41
1
10
58.9940377630831
20
0.0013669013480921
30
0
0
LINE
5
7F
100
AcDbEntity
8
80
62
256
6
ByLayer
370
18
48
1
60
0
100
AcDbLine
10
0
20
0
30
0
11
-3
21
0
31
0
39
0
210
0
220
0
230
1
0
LINE
5
80
100
AcDbEntity
8
81
62
256
6
ByLayer
370
18
48
1
60
0
100
AcDbLine
10
59
20
0
30
0
11
62
21
0
31
0
39
0
210
0
220
0
230
1
0
LINE
5
81
100
AcDbEntity
8
SK4
62
256
6
ByLayer
370
18
48
0.05
60
0
100
AcDbLine
10
-39
20
0
30
0
11
62
21
0
31
0
39
0
210
0
220
0
230
1
0
LINE
5
83
100
AcDbEntity
8
4
62
256
6
ByLayer
370
18
48
0.05
60
0
100
AcDbLine
10
0
20
0
30
0
11
62
21
0
31
0
39
0
210
0
220
0
230
1
0
LINE
5
85
100
AcDbEntity
8
81
62
256
6
ByLayer
370
13
48
1
60
0
100
AcDbLine
10
-36
20
0
30
0
11
-36
21
-0.9885
31
0
39
0
210
0
220
0
230
1
0
LINE
5
86
100
AcDbEntity
8
81
62
256
6
ByLayer
370
18
48
1
60
0
100
AcDbLine
10
-36.9885
20
0
30
0
11
-37.5615
21
0
31
0
39
0
210
0
220
0
230
1
0
LINE
5
87
100
AcDbEntity
8
81
62
256
6
ByLayer
370
18
48
1
60
0
100
AcDbLine
10
-36
20
-1.687388
30
0
11
-36
21
-1.987388
31
0
39
0
210
0
220
0
230
1
0
LINE
5
88
100
AcDbEntity
8
81
62
256
6
ByLayer
370
13
48
1
60
0
100
AcDbLine
10
-36
20
-0.9885
30
0
11
-36
21
-0.805483
31
0
39
0
210
0
220
0
230
1
0
LINE
5
89
100
AcDbEntity
8
81
62
256
6
ByLayer
370
18
48
1
60
0
100
AcDbLine
10
-38.357485
20
0
30
0
11
-37.987388
21
0
31
0
39
0
210
0
220
0
230
1
0
LINE
5
8A
100
AcDbEntity
8
81
62
256
6
ByLayer
370
18
48
1
60
0
100
AcDbLine
10
58.9885
20
0
30
0
11
58
21
0
31
0
39
0
210
0
220
0
230
1
0
LINE
5
8B
100
AcDbEntity
8
81
62
256
6
ByLayer
370
18
48
1
60
0
100
AcDbLine
10
-36
20
-1.562261
30
0
11
-36
21
-1.5615
31
0
39
0
210
0
220
0
230
1
0
LINE
5
8C
100
AcDbEntity
8
81
62
256
6
ByLayer
370
13
48
1
60
0
100
AcDbLine
10
-36
20
-0.758763
30
0
11
-36
21
-0.804835
31
0
39
0
210
0
220
0
230
1
0
LINE
5
8D
100
AcDbEntity
8
81
62
256
6
ByLayer
370
18
48
1
60
0
100
AcDbLine
10
-37.687388
20
0
30
0
11
-37.562261
21
0
31
0
39
0
210
0
220
0
230
1
0
LINE
5
8E
100
AcDbEntity
8
81
62
256
6
ByLayer
370
18
48
1
60
0
100
AcDbLine
10
-36
20
0
30
0
11
-36.9885
21
0
31
0
39
0
210
0
220
0
230
1
0
LINE
5
8F
100
AcDbEntity
8
81
62
256
6
ByLayer
370
18
48
1
60
0
100
AcDbLine
10
56.631015
20
0
30
0
11
57.001112
21
0
31
0
39
0
210
0
220
0
230
1
0
LINE
5
90
100
AcDbEntity
8
81
62
256
6
ByLayer
370
13
48
1
60
0
100
AcDbLine
10
-36
20
-0.804835
30
0
11
-36
21
-0.805483
31
0
39
0
210
0
220
0
230
1
0
LINE
5
91
100
AcDbEntity
8
81
62
256
6
ByLayer
370
13
48
1
60
0
100
AcDbLine
10
-36
20
-0.819555
30
0
11
-36
21
-0.758763
31
0
39
0
210
0
220
0
230
1
0
LINE
5
92
100
AcDbEntity
8
81
62
256
6
ByLayer
370
18
48
1
60
0
100
AcDbLine
10
-36
20
0
30
0
11
-36
21
-0.9885
31
0
39
0
210
0
220
0
230
1
0
LINE
5
93
100
AcDbEntity
8
81
62
256
6
ByLayer
370
18
48
1
60
0
100
AcDbLine
10
-36.9885
20
0
30
0
11
-37.5615
21
0
31
0
39
0
210
0
220
0
230
1
0
LINE
5
94
100
AcDbEntity
8
81
62
256
6
ByLayer
370
18
48
1
60
0
100
AcDbLine
10
57.301112
20
0
30
0
11
57.426239
21
0
31
0
39
0
210
0
220
0
230
1
0
LINE
5
95
100
AcDbEntity
8
81
62
256
6
ByLayer
370
18
48
1
60
0
100
AcDbLine
10
-37.562261
20
0
30
0
11
-37.5615
21
0
31
0
39
0
210
0
220
0
230
1
0
LINE
5
96
100
AcDbEntity
8
81
62
256
6
ByLayer
370
18
48
1
60
0
100
AcDbLine
10
57.301112
20
0
30
0
11
57.001112
21
0
31
0
39
0
210
0
220
0
230
1
0
LINE
5
97
100
AcDbEntity
8
81
62
256
6
ByLayer
370
18
48
1
60
0
100
AcDbLine
10
-36
20
0
30
0
11
-36
21
0.9885
31
0
39
0
210
0
220
0
230
1
0
LINE
5
98
100
AcDbEntity
8
81
62
256
6
ByLayer
370
18
48
1
60
0
100
AcDbLine
10
-36
20
-0.9885
30
0
11
-36
21
-1.5615
31
0
39
0
210
0
220
0
230
1
0
LINE
5
99
100
AcDbEntity
8
81
62
256
6
ByLayer
370
18
48
1
60
0
100
AcDbLine
10
-38.357485
20
0
30
0
11
-37.987388
21
0
31
0
39
0
210
0
220
0
230
1
0
LINE
5
9A
100
AcDbEntity
8
81
62
256
6
ByLayer
370
18
48
1
60
0
100
AcDbLine
10
58
20
0
30
0
11
57.427
21
0
31
0
39
0
210
0
220
0
230
1
0
LINE
5
9B
100
AcDbEntity
8
81
62
256
6
ByLayer
370
18
48
1
60
0
100
AcDbLine
10
-37.687388
20
0
30
0
11
-37.987388
21
0
31
0
39
0
210
0
220
0
230
1
0
LINE
5
9C
100
AcDbEntity
8
81
62
256
6
ByLayer
370
18
48
1
60
0
100
AcDbLine
10
57.426239
20
0
30
0
11
57.427
21
0
31
0
39
0
210
0
220
0
230
1
0
LINE
5
9D
100
AcDbEntity
8
81
62
256
6
ByLayer
370
18
48
1
60
0
100
AcDbLine
10
-36
20
0.9885
30
0
11
-36
21
0.805483
31
0
39
0
210
0
220
0
230
1
0
LINE
5
9E
100
AcDbEntity
8
81
62
256
6
ByLayer
370
18
48
1
60
0
100
AcDbLine
10
-36
20
-2.357485
30
0
11
-36
21
-1.987388
31
0
39
0
210
0
220
0
230
1
0
LINE
5
9F
100
AcDbEntity
8
81
62
256
6
ByLayer
370
18
48
1
60
0
100
AcDbLine
10
-37.687388
20
0
30
0
11
-37.562261
21
0
31
0
39
0
210
0
220
0
230
1
0
LINE
5
A0
100
AcDbEntity
8
81
62
256
6
ByLayer
370
18
48
1
60
0
100
AcDbLine
10
-36
20
0.804835
30
0
11
-36
21
0.805483
31
0
39
0
210
0
220
0
230
1
0
LINE
5
A1
100
AcDbEntity
8
81
62
256
6
ByLayer
370
18
48
1
60
0
100
AcDbLine
10
-37.687388
20
0
30
0
11
-37.987388
21
0
31
0
39
0
210
0
220
0
230
1
0
LINE
5
A2
100
AcDbEntity
8
81
62
256
6
ByLayer
370
18
48
1
60
0
100
AcDbLine
10
-36
20
0.819555
30
0
11
-36
21
0.758763
31
0
39
0
210
0
220
0
230
1
0
LINE
5
A3
100
AcDbEntity
8
81
62
256
6
ByLayer
370
18
48
1
60
0
100
AcDbLine
10
-36
20
-1.687388
30
0
11
-36
21
-1.562261
31
0
39
0
210
0
220
0
230
1
0
LINE
5
A4
100
AcDbEntity
8
81
62
256
6
ByLayer
370
18
48
1
60
0
100
AcDbLine
10
-36
20
0
30
0
11
-36.9885
21
0
31
0
39
0
210
0
220
0
230
1
0
LINE
5
A5
100
AcDbEntity
8
81
62
256
6
ByLayer
370
18
48
1
60
0
100
AcDbLine
10
-37.562261
20
0
30
0
11
-37.5615
21
0
31
0
39
0
210
0
220
0
230
1
0
LINE
5
A6
100
AcDbEntity
8
81
62
256
6
ByLayer
370
18
48
1
60
0
100
AcDbLine
10
-36
20
0.758763
30
0
11
-36
21
0.804835
31
0
39
0
210
0
220
0
230
1
0
LINE
5
A7
100
AcDbEntity
8
1
62
256
6
ByLayer
370
18
48
1
60
0
100
AcDbLine
10
58.994036
20
-0.001371
30
0
11
58.994265
21
-8.4E-05
31
0
39
0
210
0
220
0
230
1
0
LINE
5
A8
100
AcDbEntity
8
1
62
256
6
ByLayer
370
18
48
1
60
0
100
AcDbLine
10
28.955082
20
3
30
0
11
0
21
3
31
0
39
0
210
0
220
0
230
1
0
LINE
5
A9
100
AcDbEntity
8
1
62
256
6
ByLayer
370
18
48
1
60
0
100
AcDbLine
10
0
20
-3
30
0
11
28.955082
21
-3
31
0
39
0
210
0
220
0
230
1
0
LINE
5
AA
100
AcDbEntity
8
1
62
256
6
ByLayer
370
18
48
1
60
0
100
AcDbLine
10
56.953136
20
0.819
30
0
11
53.99862
21
0.819
31
0
39
0
210
0
220
0
230
1
0
LINE
5
AB
100
AcDbEntity
8
1
62
256
6
ByLayer
370
18
48
1
60
0
100
AcDbLine
10
53.99862
20
-0.819
30
0
11
56.953136
21
-0.819
31
0
39
0
210
0
220
0
230
1
0
LINE
5
AC
100
AcDbEntity
8
1
62
256
6
ByLayer
370
18
48
1
60
0
100
AcDbLine
10
53.91171
20
0.822784
30
0
11
28.955082
21
3
31
0
39
0
210
0
220
0
230
1
0
LINE
5
AD
100
AcDbEntity
8
1
62
256
6
ByLayer
370
18
48
1
60
0
100
AcDbLine
10
28.955082
20
-3
30
0
11
53.91171
21
-0.822784
31
0
39
0
210
0
220
0
230
1
0
LINE
5
AE
100
AcDbEntity
8
SK1
62
256
6
ByLayer
370
18
48
1
60
0
100
AcDbLine
10
-36
20
-2.6
30
0
11
-35.6
21
-3
31
0
39
0
210
0
220
0
230
1
0
LINE
5
B0
100
AcDbEntity
8
SK1
62
256
6
ByLayer
370
18
48
1
60
0
100
AcDbLine
10
-35.6
20
3
30
0
11
-36
21
2.6
31
0
39
0
210
0
220
0
230
1
0
LINE
5
B1
100
AcDbEntity
8
SK1
62
256
6
ByLayer
370
18
48
1
60
0
100
AcDbLine
10
0
20
3
30
0
11
-35.6
21
3
31
0
39
0
210
0
220
0
230
1
0
LINE
5
B2
100
AcDbEntity
8
SK1
62
256
6
ByLayer
370
18
48
1
60
0
100
AcDbLine
10
-35.6
20
-3
30
0
11
0
21
-3
31
0
39
0
210
0
220
0
230
1
0
LINE
5
B3
100
AcDbEntity
8
1
62
256
6
ByLayer
370
18
48
1
60
0
100
AcDbLine
10
0
20
-3
30
0
11
0
21
3
31
0
39
0
210
0
220
0
230
1
0
LINE
5
B4
100
AcDbEntity
8
1
62
256
6
ByLayer
370
18
48
1
60
0
100
AcDbLine
10
57.427
20
-0.542549
30
0
11
57.427
21
-0.571068
31
0
39
0
210
0
220
0
230
1
0
LINE
5
B5
100
AcDbEntity
8
1
62
256
6
ByLayer
370
18
48
1
60
0
100
AcDbLine
10
58.933103
20
0.226878
30
0
11
58.929592
21
0.219061
31
0
39
0
210
0
220
0
230
1
0
LINE
5
B6
100
AcDbEntity
8
1
62
256
6
ByLayer
370
18
48
1
60
0
100
AcDbLine
10
58.973865
20
0.056242
30
0
11
58.980274
21
0.050548
31
0
39
0
210
0
220
0
230
1
0
LINE
5
B7
100
AcDbEntity
8
1
62
256
6
ByLayer
370
18
48
1
60
0
100
AcDbLine
10
58.98802
20
-0.035356
30
0
11
58.988207
21
-0.033358
31
0
39
0
210
0
220
0
230
1
0
LINE
5
B8
100
AcDbEntity
8
1
62
256
6
ByLayer
370
18
48
1
60
0
100
AcDbLine
10
57.39467
20
0.650873
30
0
11
57.472548
21
0.76505
31
0
39
0
210
0
220
0
230
1
0
LINE
5
B9
100
AcDbEntity
8
1
62
256
6
ByLayer
370
18
48
1
60
0
100
AcDbLine
10
57.001404
20
-0.800429
30
0
11
57.427
21
-0.769933
31
0
39
0
210
0
220
0
230
1
0
LINE
5
BA
100
AcDbEntity
8
1
62
256
6
ByLayer
370
18
48
1
60
0
100
AcDbLine
10
57.427
20
-0.769933
30
0
11
57.427
21
-0.592872
31
0
39
0
210
0
220
0
230
1
0
LINE
5
BB
100
AcDbEntity
8
1
62
256
6
ByLayer
370
18
48
1
60
0
100
AcDbLine
10
57.447313
20
0.67525
30
0
11
57.39467
21
0.650873
31
0
39
0
210
0
220
0
230
1
0
LINE
5
BC
100
AcDbEntity
8
1
62
256
6
ByLayer
370
18
48
1
60
0
100
AcDbLine
10
57.376308
20
0.605926
30
0
11
57.39467
21
0.650873
31
0
39
0
210
0
220
0
230
1
0
LINE
5
BD
100
AcDbEntity
8
1
62
256
6
ByLayer
370
18
48
1
60
0
100
AcDbLine
10
57.428951
20
0.630303
30
0
11
57.376308
21
0.605926
31
0
39
0
210
0
220
0
230
1
0
LINE
5
BE
100
AcDbEntity
8
1
62
256
6
ByLayer
370
18
48
1
60
0
100
AcDbLine
10
57.373235
20
0.58533
30
0
11
57.376308
21
0.605926
31
0
39
0
210
0
220
0
230
1
0
LINE
5
BF
100
AcDbEntity
8
1
62
256
6
ByLayer
370
18
48
1
60
0
100
AcDbLine
10
57.427
20
-0.592872
30
0
11
57.427
21
-0.571068
31
0
39
0
210
0
220
0
230
1
0
LINE
5
C0
100
AcDbEntity
8
1
62
256
6
ByLayer
370
18
48
1
60
0
100
AcDbLine
10
57.373505
20
-0.53607
30
0
11
57.376308
21
-0.517581
31
0
39
0
210
0
220
0
230
1
0
LINE
5
C1
100
AcDbEntity
8
1
62
256
6
ByLayer
370
18
48
1
60
0
100
AcDbLine
10
57.427
20
0.328857
30
0
11
57.427
21
0.335068
31
0
39
0
210
0
220
0
230
1
0
LINE
5
C2
100
AcDbEntity
8
1
62
256
6
ByLayer
370
18
48
1
60
0
100
AcDbLine
10
57.428951
20
-0.549948
30
0
11
57.376308
21
-0.517581
31
0
39
0
210
0
220
0
230
1
0
LINE
5
C3
100
AcDbEntity
8
1
62
256
6
ByLayer
370
18
48
1
60
0
100
AcDbLine
10
58.869122
20
-0.186443
30
0
11
58.883966
21
-0.216848
31
0
39
0
210
0
220
0
230
1
0
LINE
5
C4
100
AcDbEntity
8
1
62
256
6
ByLayer
370
18
48
1
60
0
100
AcDbLine
10
57.376308
20
-0.517581
30
0
11
57.39467
21
-0.453788
31
0
39
0
210
0
220
0
230
1
0
LINE
5
C5
100
AcDbEntity
8
1
62
256
6
ByLayer
370
18
48
1
60
0
100
AcDbLine
10
57.447313
20
-0.486155
30
0
11
57.39467
21
-0.453788
31
0
39
0
210
0
220
0
230
1
0
LINE
5
C6
100
AcDbEntity
8
1
62
256
6
ByLayer
370
18
48
1
60
0
100
AcDbLine
10
57.39467
20
-0.453788
30
0
11
57.472548
21
-0.239315
31
0
39
0
210
0
220
0
230
1
0
LINE
5
C7
100
AcDbEntity
8
1
62
256
6
ByLayer
370
18
48
1
60
0
100
AcDbLine
10
57.427
20
-0.027939
30
0
11
57.427
21
0.328857
31
0
39
0
210
0
220
0
230
1
0
LINE
5
C8
100
AcDbEntity
8
1
62
256
6
ByLayer
370
18
48
1
60
0
100
AcDbLine
10
57.427
20
-0.157507
30
0
11
57.427
21
-0.027939
31
0
39
0
210
0
220
0
230
1
0
LINE
5
C9
100
AcDbEntity
8
1
62
256
6
ByLayer
370
18
48
1
60
0
100
AcDbLine
10
57.026672
20
0.144236
30
0
11
57.427
21
-0.027939
31
0
39
0
210
0
220
0
230
1
0
LINE
5
CA
100
AcDbEntity
8
1
62
256
6
ByLayer
370
18
48
1
60
0
100
AcDbLine
10
57.427
20
-0.209493
30
0
11
57.427
21
-0.157507
31
0
39
0
210
0
220
0
230
1
0
LINE
5
CB
100
AcDbEntity
8
1
62
256
6
ByLayer
370
18
48
1
60
0
100
AcDbLine
10
57.427
20
-0.209493
30
0
11
57.427
21
-0.236646
31
0
39
0
210
0
220
0
230
1
0
LINE
5
CC
100
AcDbEntity
8
1
62
256
6
ByLayer
370
18
48
1
60
0
100
AcDbLine
10
57.427
20
0.335068
30
0
11
57.427
21
0.629
31
0
39
0
210
0
220
0
230
1
0
LINE
5
CD
100
AcDbEntity
8
1
62
256
6
ByLayer
370
18
48
1
60
0
100
AcDbLine
10
58.996473
20
-0.033238
30
0
11
58.999219
21
-0.033312
31
0
39
0
210
0
220
0
230
1
0
LINE
5
CE
100
AcDbEntity
8
1
62
256
6
ByLayer
370
18
48
1
60
0
100
AcDbLine
10
58.996473
20
0.033238
30
0
11
58.999219
21
0.033312
31
0
39
0
210
0
220
0
230
1
0
LINE
5
CF
100
AcDbEntity
8
1
62
256
6
ByLayer
370
18
48
1
60
0
100
AcDbLine
10
58.993819
20
-0.000208
30
0
11
58.994276
21
5E-06
31
0
39
0
210
0
220
0
230
1
0
LINE
5
D0
100
AcDbEntity
8
1
62
256
6
ByLayer
370
18
48
1
60
0
100
AcDbLine
10
28.955082
20
-3
30
0
11
28.955082
21
3
31
0
39
0
210
0
220
0
230
1
0
LINE
5
D1
100
AcDbEntity
8
SK1
62
256
6
ByLayer
370
18
48
1
60
0
100
AcDbLine
10
-36
20
2.6
30
0
11
-36
21
-2.6
31
0
39
0
210
0
220
0
230
1
0
LINE
5
D2
100
AcDbEntity
8
SK1
62
256
6
ByLayer
370
18
48
1
60
0
100
AcDbLine
10
0
20
-3
30
0
11
0
21
3
31
0
39
0
210
0
220
0
230
1
0
LINE
5
D3
100
AcDbEntity
8
SK1
62
256
6
ByLayer
370
18
48
1
60
0
100
AcDbLine
10
-35.6
20
3
30
0
11
-35.6
21
-3
31
0
39
0
210
0
220
0
230
1
0
LINE
5
D4
100
AcDbEntity
8
81
62
256
6
ByLayer
370
18
48
1
60
0
100
AcDbLine
10
56.631015
20
0.819555
30
0
11
56.631015
21
0.818992
31
0
39
0
210
0
220
0
230
1
0
LINE
5
D5
100
AcDbEntity
8
81
62
256
6
ByLayer
370
18
48
1
60
0
100
AcDbLine
10
56.631015
20
-0.818992
30
0
11
56.631015
21
-0.819555
31
0
39
0
210
0
220
0
230
1
0
LINE
5
D6
100
AcDbEntity
8
81
62
256
6
ByLayer
370
18
48
1
60
0
100
AcDbLine
10
57.426239
20
-0.804835
30
0
11
57.427
21
-0.805483
31
0
39
0
210
0
220
0
230
1
0
LINE
5
D7
100
AcDbEntity
8
81
62
256
6
ByLayer
370
18
48
1
60
0
100
AcDbLine
10
57.427
20
0.805483
30
0
11
57.426239
21
0.804835
31
0
39
0
210
0
220
0
230
1
0
LINE
5
D8
100
AcDbEntity
8
SK2
62
256
6
ByLayer
370
13
48
1
60
0
100
AcDbLine
10
-42.5
20
-10.5
30
0
11
-42.5
21
21.133313
31
0
39
0
210
0
220
0
230
1
0
LINE
5
DA
100
AcDbEntity
8
SK2
62
256
6
ByLayer
370
13
48
1
60
0
100
AcDbLine
10
-37.5875
20
-3
30
0
11
-44.5
21
-3
31
0
39
0
210
0
220
0
230
1
0
LINE
5
DB
100
AcDbEntity
8
SK2
62
256
6
ByLayer
370
13
48
1
60
0
100
AcDbLine
10
-37.5875
20
3
30
0
11
-44.5
21
3
31
0
39
0
210
0
220
0
230
1
0
LINE
5
DC
100
AcDbEntity
8
1
62
256
6
ByLayer
370
18
48
1
60
1
100
AcDbLine
10
-42.5
20
-3
30
0
11
-42.039216
21
-6.499998
31
0
39
0
210
0
220
0
230
1
0
LINE
5
DD
100
AcDbEntity
8
1
62
256
6
ByLayer
370
18
48
1
60
1
100
AcDbLine
10
-42.039216
20
-6.499998
30
0
11
-42.960784
21
-6.500002
31
0
39
0
210
0
220
0
230
1
0
LINE
5
DE
100
AcDbEntity
8
1
62
256
6
ByLayer
370
18
48
1
60
1
100
AcDbLine
10
-42.960784
20
-6.500002
30
0
11
-42.5
21
-3
31
0
39
0
210
0
220
0
230
1
0
LINE
5
DF
100
AcDbEntity
8
1
62
256
6
ByLayer
370
18
48
1
60
1
100
AcDbLine
10
-42.5
20
3
30
0
11
-42.960784
21
6.499998
31
0
39
0
210
0
220
0
230
1
0
LINE
5
E0
100
AcDbEntity
8
1
62
256
6
ByLayer
370
18
48
1
60
1
100
AcDbLine
10
-42.960784
20
6.499998
30
0
11
-42.039216
21
6.500002
31
0
39
0
210
0
220
0
230
1
0
LINE
5
E1
100
AcDbEntity
8
1
62
256
6
ByLayer
370
18
48
1
60
1
100
AcDbLine
10
-42.039216
20
6.500002
30
0
11
-42.5
21
3
31
0
39
0
210
0
220
0
230
1
0
LINE
5
E2
100
AcDbEntity
8
SK2
62
256
6
ByLayer
370
13
48
1
60
0
100
AcDbLine
10
58.5
20
-30.819555
30
0
11
58.5
21
8.319555
31
0
39
0
210
0
220
0
230
1
0
LINE
5
E3
100
AcDbEntity
8
SK2
62
256
6
ByLayer
370
13
48
1
60
0
100
AcDbLine
10
55.5875
20
-0.819555
30
0
11
60.5
21
-0.819555
31
0
39
0
210
0
220
0
230
1
0
LINE
5
E4
100
AcDbEntity
8
SK2
62
256
6
ByLayer
370
13
48
1
60
0
100
AcDbLine
10
55.5875
20
0.819555
30
0
11
60.5
21
0.819555
31
0
39
0
210
0
220
0
230
1
0
LINE
5
E5
100
AcDbEntity
8
1
62
256
6
ByLayer
370
18
48
1
60
1
100
AcDbLine
10
58.5
20
-0.819555
30
0
11
58.960784
21
-4.319554
31
0
39
0
210
0
220
0
230
1
0
LINE
5
E6
100
AcDbEntity
8
1
62
256
6
ByLayer
370
18
48
1
60
1
100
AcDbLine
10
58.960784
20
-4.319554
30
0
11
58.039216
21
-4.319557
31
0
39
0
210
0
220
0
230
1
0
LINE
5
E7
100
AcDbEntity
8
1
62
256
6
ByLayer
370
18
48
1
60
1
100
AcDbLine
10
58.039216
20
-4.319557
30
0
11
58.5
21
-0.819555
31
0
39
0
210
0
220
0
230
1
0
LINE
5
E8
100
AcDbEntity
8
1
62
256
6
ByLayer
370
18
48
1
60
1
100
AcDbLine
10
58.5
20
0.819555
30
0
11
58.039216
21
4.319554
31
0
39
0
210
0
220
0
230
1
0
LINE
5
E9
100
AcDbEntity
8
1
62
256
6
ByLayer
370
18
48
1
60
1
100
AcDbLine
10
58.039216
20
4.319554
30
0
11
58.960784
21
4.319557
31
0
39
0
210
0
220
0
230
1
0
LINE
5
EA
100
AcDbEntity
8
1
62
256
6
ByLayer
370
18
48
1
60
1
100
AcDbLine
10
58.960784
20
4.319557
30
0
11
58.5
21
0.819555
31
0
39
0
210
0
220
0
230
1
0
LINE
5
EB
100
AcDbEntity
8
2
62
256
6
ByLayer
370
13
48
1
60
0
100
AcDbLine
10
74.5
20
-8.5
30
0
11
74.5
21
17.272684
31
0
39
0
210
0
220
0
230
1
0
LINE
5
ED
100
AcDbEntity
8
2
62
256
6
ByLayer
370
13
48
1
60
0
100
AcDbLine
10
59.5875
20
-1
30
0
11
76.5
21
-1
31
0
39
0
210
0
220
0
230
1
0
LINE
5
EE
100
AcDbEntity
8
2
62
256
6
ByLayer
370
13
48
1
60
0
100
AcDbLine
10
59.5875
20
1
30
0
11
76.5
21
1
31
0
39
0
210
0
220
0
230
1
0
LINE
5
EF
100
AcDbEntity
8
1
62
256
6
ByLayer
370
18
48
1
60
1
100
AcDbLine
10
74.5
20
-1
30
0
11
74.960784
21
-4.499998
31
0
39
0
210
0
220
0
230
1
0
LINE
5
F0
100
AcDbEntity
8
1
62
256
6
ByLayer
370
18
48
1
60
1
100
AcDbLine
10
74.960784
20
-4.499998
30
0
11
74.039216
21
-4.500002
31
0
39
0
210
0
220
0
230
1
0
LINE
5
F1
100
AcDbEntity
8
1
62
256
6
ByLayer
370
18
48
1
60
1
100
AcDbLine
10
74.039216
20
-4.500002
30
0
11
74.5
21
-1
31
0
39
0
210
0
220
0
230
1
0
LINE
5
F2
100
AcDbEntity
8
1
62
256
6
ByLayer
370
18
48
1
60
1
100
AcDbLine
10
74.5
20
1
30
0
11
74.039216
21
4.499998
31
0
39
0
210
0
220
0
230
1
0
LINE
5
F3
100
AcDbEntity
8
1
62
256
6
ByLayer
370
18
48
1
60
1
100
AcDbLine
10
74.039216
20
4.499998
30
0
11
74.960784
21
4.500002
31
0
39
0
210
0
220
0
230
1
0
LINE
5
F4
100
AcDbEntity
8
1
62
256
6
ByLayer
370
18
48
1
60
1
100
AcDbLine
10
74.960784
20
4.500002
30
0
11
74.5
21
1
31
0
39
0
210
0
220
0
230
1
0
LINE
5
F5
100
AcDbEntity
8
SK2
62
256
6
ByLayer
370
13
48
1
60
0
100
AcDbLine
10
27.373565
20
3.137689
30
0
11
13.201734
21
4.371508
31
0
39
0
210
0
220
0
230
1
0
LINE
5
F6
100
AcDbEntity
8
SK2
62
256
6
ByLayer
370
13
48
1
60
0
100
AcDbLine
10
-34.4125
20
0
30
0
11
17.011798
21
0
31
0
39
0
210
0
220
0
230
1
0
LINE
5
F7
100
AcDbEntity
8
1
62
256
6
ByLayer
370
18
48
1
60
1
100
AcDbLine
10
15.194197
20
4.198041
30
0
11
15.102467
21
7.727049
31
0
39
0
210
0
220
0
230
1
0
LINE
5
F8
100
AcDbEntity
8
1
62
256
6
ByLayer
370
18
48
1
60
1
100
AcDbLine
10
15.102467
20
7.727049
30
0
11
16.018967
21
7.630546
31
0
39
0
210
0
220
0
230
1
0
LINE
5
F9
100
AcDbEntity
8
1
62
256
6
ByLayer
370
18
48
1
60
1
100
AcDbLine
10
16.018967
20
7.630546
30
0
11
15.194197
21
4.198041
31
0
39
0
210
0
220
0
230
1
0
LINE
5
FA
100
AcDbEntity
8
1
62
256
6
ByLayer
370
18
48
1
60
1
100
AcDbLine
10
15.011798
20
0
30
0
11
15.535748
21
-3.491101
31
0
39
0
210
0
220
0
230
1
0
LINE
5
FB
100
AcDbEntity
8
1
62
256
6
ByLayer
370
18
48
1
60
1
100
AcDbLine
10
15.535748
20
-3.491101
30
0
11
14.614331
21
-3.507756
31
0
39
0
210
0
220
0
230
1
0
LINE
5
FC
100
AcDbEntity
8
1
62
256
6
ByLayer
370
18
48
1
60
1
100
AcDbLine
10
14.614331
20
-3.507756
30
0
11
15.011798
21
0
31
0
39
0
210
0
220
0
230
1
0
LINE
5
18E
100
AcDbEntity
8
1
62
256
6
ByLayer
370
18
48
1
60
1
100
AcDbLine
10
-42.5
20
-3
30
0
11
-42.039216
21
-6.499998
31
0
39
0
210
0
220
0
230
1
0
LINE
5
18F
100
AcDbEntity
8
1
62
256
6
ByLayer
370
18
48
1
60
1
100
AcDbLine
10
-42.039216
20
-6.499998
30
0
11
-42.960784
21
-6.500002
31
0
39
0
210
0
220
0
230
1
0
LINE
5
190
100
AcDbEntity
8
1
62
256
6
ByLayer
370
18
48
1
60
1
100
AcDbLine
10
-42.960784
20
-6.500002
30
0
11
-42.5
21
-3
31
0
39
0
210
0
220
0
230
1
0
LINE
5
192
100
AcDbEntity
8
1
62
256
6
ByLayer
370
18
48
1
60
1
100
AcDbLine
10
-42.5
20
3
30
0
11
-42.960784
21
6.499998
31
0
39
0
210
0
220
0
230
1
0
LINE
5
193
100
AcDbEntity
8
1
62
256
6
ByLayer
370
18
48
1
60
1
100
AcDbLine
10
-42.960784
20
6.499998
30
0
11
-42.039216
21
6.500002
31
0
39
0
210
0
220
0
230
1
0
LINE
5
194
100
AcDbEntity
8
1
62
256
6
ByLayer
370
18
48
1
60
1
100
AcDbLine
10
-42.039216
20
6.500002
30
0
11
-42.5
21
3
31
0
39
0
210
0
220
0
230
1
0
LINE
5
198
100
AcDbEntity
8
1
62
256
6
ByLayer
370
18
48
1
60
1
100
AcDbLine
10
58.5
20
-0.819555
30
0
11
58.960784
21
-4.319554
31
0
39
0
210
0
220
0
230
1
0
LINE
5
199
100
AcDbEntity
8
1
62
256
6
ByLayer
370
18
48
1
60
1
100
AcDbLine
10
58.960784
20
-4.319554
30
0
11
58.039216
21
-4.319557
31
0
39
0
210
0
220
0
230
1
0
LINE
5
19A
100
AcDbEntity
8
1
62
256
6
ByLayer
370
18
48
1
60
1
100
AcDbLine
10
58.039216
20
-4.319557
30
0
11
58.5
21
-0.819555
31
0
39
0
210
0
220
0
230
1
0
LINE
5
19C
100
AcDbEntity
8
1
62
256
6
ByLayer
370
18
48
1
60
1
100
AcDbLine
10
58.5
20
0.819555
30
0
11
58.039216
21
4.319554
31
0
39
0
210
0
220
0
230
1
0
LINE
5
19D
100
AcDbEntity
8
1
62
256
6
ByLayer
370
18
48
1
60
1
100
AcDbLine
10
58.039216
20
4.319554
30
0
11
58.960784
21
4.319557
31
0
39
0
210
0
220
0
230
1
0
LINE
5
19E
100
AcDbEntity
8
1
62
256
6
ByLayer
370
18
48
1
60
1
100
AcDbLine
10
58.960784
20
4.319557
30
0
11
58.5
21
0.819555
31
0
39
0
210
0
220
0
230
1
0
LINE
5
1A2
100
AcDbEntity
8
1
62
256
6
ByLayer
370
18
48
1
60
1
100
AcDbLine
10
74.5
20
-1
30
0
11
74.960784
21
-4.499998
31
0
39
0
210
0
220
0
230
1
0
LINE
5
1A3
100
AcDbEntity
8
1
62
256
6
ByLayer
370
18
48
1
60
1
100
AcDbLine
10
74.960784
20
-4.499998
30
0
11
74.039216
21
-4.500002
31
0
39
0
210
0
220
0
230
1
0
LINE
5
1A4
100
AcDbEntity
8
1
62
256
6
ByLayer
370
18
48
1
60
1
100
AcDbLine
10
74.039216
20
-4.500002
30
0
11
74.5
21
-1
31
0
39
0
210
0
220
0
230
1
0
LINE
5
1A6
100
AcDbEntity
8
1
62
256
6
ByLayer
370
18
48
1
60
1
100
AcDbLine
10
74.5
20
1
30
0
11
74.039216
21
4.499998
31
0
39
0
210
0
220
0
230
1
0
LINE
5
1A7
100
AcDbEntity
8
1
62
256
6
ByLayer
370
18
48
1
60
1
100
AcDbLine
10
74.039216
20
4.499998
30
0
11
74.960784
21
4.500002
31
0
39
0
210
0
220
0
230
1
0
LINE
5
1A8
100
AcDbEntity
8
1
62
256
6
ByLayer
370
18
48
1
60
1
100
AcDbLine
10
74.960784
20
4.500002
30
0
11
74.5
21
1
31
0
39
0
210
0
220
0
230
1
0
LINE
5
1AB
100
AcDbEntity
8
1
62
256
6
ByLayer
370
18
48
1
60
1
100
AcDbLine
10
15.194197
20
4.198041
30
0
11
15.102467
21
7.727049
31
0
39
0
210
0
220
0
230
1
0
LINE
5
1AC
100
AcDbEntity
8
1
62
256
6
ByLayer
370
18
48
1
60
1
100
AcDbLine
10
15.102467
20
7.727049
30
0
11
16.018967
21
7.630546
31
0
39
0
210
0
220
0
230
1
0
LINE
5
1AD
100
AcDbEntity
8
1
62
256
6
ByLayer
370
18
48
1
60
1
100
AcDbLine
10
16.018967
20
7.630546
30
0
11
15.194197
21
4.198041
31
0
39
0
210
0
220
0
230
1
0
LINE
5
1AF
100
AcDbEntity
8
1
62
256
6
ByLayer
370
18
48
1
60
1
100
AcDbLine
10
15.011798
20
0
30
0
11
15.535748
21
-3.491101
31
0
39
0
210
0
220
0
230
1
0
LINE
5
1B0
100
AcDbEntity
8
1
62
256
6
ByLayer
370
18
48
1
60
1
100
AcDbLine
10
15.535748
20
-3.491101
30
0
11
14.614331
21
-3.507756
31
0
39
0
210
0
220
0
230
1
0
LINE
5
1B1
100
AcDbEntity
8
1
62
256
6
ByLayer
370
18
48
1
60
1
100
AcDbLine
10
14.614331
20
-3.507756
30
0
11
15.011798
21
0
31
0
39
0
210
0
220
0
230
1
0
MTEXT
5
18A
100
AcDbEntity
8
SK2
62
256
6
ByLayer
370
18
48
1
60
0
100
AcDbMText
10
-43.841114
20
7.658437
30
0
210
0
220
0
230
1
1
%%c
40
3
41
0
44
1.084337
50
90
71
7
72
5
7
iso_b_vert
0
MTEXT
5
18D
100
AcDbEntity
8
SK2
62
256
6
ByLayer
370
18
48
1
60
0
100
AcDbMText
10
-43.841114
20
13.635
30
0
210
0
220
0
230
1
1
\W0.6903;6 h6
40
3
41
0
44
1.084337
50
90
71
7
72
5
7
iso_b_vert
0
MTEXT
5
196
100
AcDbEntity
8
SK2
62
256
6
ByLayer
370
18
48
1
60
0
100
AcDbMText
10
57.158886
20
-29.161118
30
0
210
0
220
0
230
1
1
%%c
40
3
41
0
44
1.084337
50
90
71
7
72
5
7
iso_b_vert
0
MTEXT
5
197
100
AcDbEntity
8
SK2
62
256
6
ByLayer
370
18
48
1
60
0
100
AcDbMText
10
57.158886
20
-23.184555
30
0
210
0
220
0
230
1
1
\W0.6756;1.64
40
3
41
0
44
1.084337
50
90
71
7
72
5
7
iso_b_vert
0
MTEXT
5
1A0
100
AcDbEntity
8
2
62
256
6
ByLayer
370
18
48
1
60
0
100
AcDbMText
10
73.158886
20
7.658437
30
0
210
0
220
0
230
1
1
%%c
40
3
41
0
44
1.084337
50
90
71
7
72
5
7
iso_b_vert
0
MTEXT
5
1A1
100
AcDbEntity
8
2
62
256
6
ByLayer
370
18
48
1
60
0
100
AcDbMText
10
73.158886
20
13.635
30
0
210
0
220
0
230
1
1
\W0.5966;(2)
40
3
41
0
44
1.084337
50
90
71
7
72
5
7
iso_b_vert
0
MTEXT
5
1AA
100
AcDbEntity
8
SK2
62
256
6
ByLayer
370
18
48
1
60
0
100
AcDbMText
10
15.505508
20
10.789979
30
0
210
0
220
0
230
1
1
\W0.7635;(5%%d)
40
3
41
0
44
1.084337
50
74.1949933682854
71
7
72
5
7
iso_b_vert
0
MTEXT
5
1B3
100
AcDbEntity
8
SK6
62
256
6
ByLayer
370
18
48
1
60
0
100
AcDbMText
10
-14.615996
20
-42.114886
30
0
210
0
220
0
230
1
1
\W0.7695;2L484-0200-RI0600   R2AH
40
3
41
0
44
1.084337
50
0
71
7
72
5
7
iso_b_vert
0
HATCH
5
191
100
AcDbEntity
8
SK2
62
256
6
ByLayer
370
13
48
1
60
0
100
AcDbHatch
10
0
20
0
30
0
210
0
220
0
230
1
2
ANSI31
70
0
71
0
91
1
92
5
93
3
72
1
10
-42.5
20
-3
11
-42.0392162584472
21
-6.49999830744682
72
1
10
-42.0392162584472
20
-6.49999830744682
11
-42.9607837415528
21
-6.50000169255318
72
1
10
-42.9607837415528
20
-6.50000169255318
11
-42.5
21
-3
97
0
75
0
76
1
52
0
41
0.0062
77
0
78
1
53
45
43
0
44
0
45
-0.0139193969876572
46
0.0139193969876572
79
0
47
0
98
1
10
0
20
0
0
HATCH
5
195
100
AcDbEntity
8
SK2
62
256
6
ByLayer
370
13
48
1
60
0
100
AcDbHatch
10
0
20
0
30
0
210
0
220
0
230
1
2
ANSI31
70
0
71
0
91
1
92
5
93
3
72
1
10
-42.5
20
3
11
-42.9607837415528
21
6.49999830744682
72
1
10
-42.9607837415528
20
6.49999830744682
11
-42.0392162584472
21
6.50000169255318
72
1
10
-42.0392162584472
20
6.50000169255318
11
-42.5
21
3
97
0
75
0
76
1
52
0
41
0.0062
77
0
78
1
53
45
43
0
44
0
45
-0.0139193969876572
46
0.0139193969876572
79
0
47
0
98
1
10
0
20
0
0
HATCH
5
19B
100
AcDbEntity
8
SK2
62
256
6
ByLayer
370
13
48
1
60
0
100
AcDbHatch
10
0
20
0
30
0
210
0
220
0
230
1
2
ANSI31
70
0
71
0
91
1
92
5
93
3
72
1
10
58.5
20
-0.81955536725718
11
58.9607837415528
21
-4.319553674704
72
1
10
58.9607837415528
20
-4.319553674704
11
58.0392162584472
21
-4.31955705981036
72
1
10
58.0392162584472
20
-4.31955705981036
11
58.5
21
-0.81955536725718
97
0
75
0
76
1
52
0
41
0.0062
77
0
78
1
53
45
43
0
44
0
45
-0.0139193969876572
46
0.0139193969876572
79
0
47
0
98
1
10
0
20
0
0
HATCH
5
19F
100
AcDbEntity
8
SK2
62
256
6
ByLayer
370
13
48
1
60
0
100
AcDbHatch
10
0
20
0
30
0
210
0
220
0
230
1
2
ANSI31
70
0
71
0
91
1
92
5
93
3
72
1
10
58.5
20
0.819555367257124
11
58.0392162584472
21
4.31955367470394
72
1
10
58.0392162584472
20
4.31955367470394
11
58.9607837415528
21
4.31955705981031
72
1
10
58.9607837415528
20
4.31955705981031
11
58.5
21
0.819555367257124
97
0
75
0
76
1
52
0
41
0.0062
77
0
78
1
53
45
43
0
44
0
45
-0.0139193969876572
46
0.0139193969876572
79
0
47
0
98
1
10
0
20
0
0
HATCH
5
1A5
100
AcDbEntity
8
2
62
256
6
ByLayer
370
13
48
1
60
0
100
AcDbHatch
10
0
20
0
30
0
210
0
220
0
230
1
2
ANSI31
70
0
71
0
91
1
92
5
93
3
72
1
10
74.5
20
-1
11
74.9607837415528
21
-4.49999830744682
72
1
10
74.9607837415528
20
-4.49999830744682
11
74.0392162584472
21
-4.50000169255318
72
1
10
74.0392162584472
20
-4.50000169255318
11
74.5
21
-1
97
0
75
0
76
1
52
0
41
0.0062
77
0
78
1
53
45
43
0
44
0
45
-0.0139193969876572
46
0.0139193969876572
79
0
47
0
98
1
10
0
20
0
0
HATCH
5
1A9
100
AcDbEntity
8
2
62
256
6
ByLayer
370
13
48
1
60
0
100
AcDbHatch
10
0
20
0
30
0
210
0
220
0
230
1
2
ANSI31
70
0
71
0
91
1
92
5
93
3
72
1
10
74.5
20
1
11
74.0392162584472
21
4.49999830744682
72
1
10
74.0392162584472
20
4.49999830744682
11
74.9607837415528
21
4.50000169255318
72
1
10
74.9607837415528
20
4.50000169255318
11
74.5
21
1
97
0
75
0
76
1
52
0
41
0.0062
77
0
78
1
53
45
43
0
44
0
45
-0.0139193969876572
46
0.0139193969876572
79
0
47
0
98
1
10
0
20
0
0
HATCH
5
1AE
100
AcDbEntity
8
SK2
62
256
6
ByLayer
370
13
48
1
60
0
100
AcDbHatch
10
0
20
0
30
0
210
0
220
0
230
1
2
ANSI31
70
0
71
0
91
1
92
5
93
3
72
1
10
15.1941969672982
20
4.19804141707394
11
15.1024666737451
21
7.72704911922685
72
1
10
15.1024666737451
20
7.72704911922685
11
16.0189674954322
21
7.63054590800706
72
1
10
16.0189674954322
20
7.63054590800706
11
15.1941969672982
21
4.19804141707394
97
0
75
0
76
1
52
0
41
0.0062
77
0
78
1
53
45
43
0
44
0
45
-0.0139193969876572
46
0.0139193969876572
79
0
47
0
98
1
10
0
20
0
0
HATCH
5
1B2
100
AcDbEntity
8
SK2
62
256
6
ByLayer
370
13
48
1
60
0
100
AcDbHatch
10
0
20
0
30
0
210
0
220
0
230
1
2
ANSI31
70
0
71
0
91
1
92
5
93
3
72
1
10
15.0117983447533
20
0
11
15.5357483584551
21
-3.49110099993567
72
1
10
15.5357483584551
20
-3.49110099993567
11
14.6143313896487
21
-3.50775619505612
72
1
10
14.6143313896487
20
-3.50775619505612
11
15.0117983447533
21
0
97
0
75
0
76
1
52
0
41
0.0062
77
0
78
1
53
45
43
0
44
0
45
-0.0139193969876572
46
0.0139193969876572
79
0
47
0
98
1
10
0
20
0
0
DIMENSION
5
1B6
100
AcDbEntity
8
2
62
256
6
ByLayer
370
18
48
1
60
0
100
AcDbDimension
2
_U0
10
54
20
10.85
30
0
11
56.5
21
10.85
31
0
70
32
71
1
72
1
41
1
210
0
220
0
230
1
3
Standard
100
AcDbAlignedDimension
13
59
23
0
33
0
14
54
24
0.819555
34
0
50
0
100
AcDbRotatedDimension
1001
ACAD
1000
DSTYLE
1002
{
1070
   371
1070
    13
1070
   372
1070
    13
1070
     3
1000

1070
   170
1070
     0
1070
   144
1040
1.0
1070
   277
1070
     2
1070
   284
1070
     8
1070
   278
1070
    46
1070
   146
1040
1.166667
1070
   345
1005
16
1070
   347
1005
16
1070
   346
1005
16
1070
   344
1005
0
1070
   343
1005
0
1070
   172
1070
     1
1070
    76
1070
     0
1070
    75
1070
     0
1070
   282
1070
     0
1070
   281
1070
     0
1070
    71
1070
     0
1070
    74
1070
     0
1070
   279
1070
     0
1070
   173
1070
     1
1070
   340
1005
18B
1070
   271
1070
     2
1070
   272
1070
     2
1070
    77
1070
     1
1070
    73
1070
     1
1070
   171
1070
     3
1070
   274
1070
     4
1070
   177
1070
     2
1070
   176
1070
     2
1070
   178
1070
     2
1070
    78
1070
     8
1070
    48
1040
-0.1
1070
    41
1040
3.5
1070
   147
1040
1.5
1070
    42
1040
1.5875
1070
    44
1040
2.0
1070
   140
1040
3.0
1002
}
1001
ACAD_DSTYLE_DIM_LINETYPE
1070
   380
1005
16
1001
ACAD_DSTYLE_DIM_EXT1_LINETYPE
1070
   381
1005
16
1001
ACAD_DSTYLE_DIM_EXT2_LINETYPE
1070
   382
1005
16
0
DIMENSION
5
1D0
100
AcDbEntity
8
2
62
256
6
ByLayer
370
18
48
1
60
0
100
AcDbDimension
2
_U1
10
28.955082
20
20.85
30
0
11
43.977541
21
20.85
31
0
70
32
71
1
72
1
41
1
210
0
220
0
230
1
3
Standard
100
AcDbAlignedDimension
13
59
23
0
33
0
14
28.955082
24
3
34
0
50
0
100
AcDbRotatedDimension
1001
ACAD
1000
DSTYLE
1002
{
1070
   371
1070
    13
1070
   372
1070
    13
1070
     3
1000

1070
   170
1070
     0
1070
   144
1040
1.0
1070
   277
1070
     2
1070
   284
1070
     8
1070
   278
1070
    46
1070
   146
1040
1.166667
1070
   345
1005
16
1070
   347
1005
16
1070
   346
1005
16
1070
   344
1005
0
1070
   343
1005
0
1070
   172
1070
     1
1070
    76
1070
     0
1070
    75
1070
     0
1070
   282
1070
     0
1070
   281
1070
     0
1070
    71
1070
     0
1070
    74
1070
     0
1070
   279
1070
     0
1070
   173
1070
     1
1070
   340
1005
18B
1070
   271
1070
     2
1070
   272
1070
     2
1070
    77
1070
     1
1070
    73
1070
     1
1070
   171
1070
     3
1070
   274
1070
     4
1070
   177
1070
     2
1070
   176
1070
     2
1070
   178
1070
     2
1070
    78
1070
     8
1070
    48
1040
-0.1
1070
    41
1040
3.5
1070
   147
1040
1.5
1070
    42
1040
1.5875
1070
    44
1040
2.0
1070
   140
1040
3.0
1002
}
1001
ACAD_DSTYLE_DIM_LINETYPE
1070
   380
1005
16
1001
ACAD_DSTYLE_DIM_EXT1_LINETYPE
1070
   381
1005
16
1001
ACAD_DSTYLE_DIM_EXT2_LINETYPE
1070
   382
1005
16
0
DIMENSION
5
1E8
100
AcDbEntity
8
SK2
62
256
6
ByLayer
370
18
48
1
60
0
100
AcDbDimension
2
_U2
10
-36
20
30.85
30
0
11
11.5
21
30.85
31
0
70
32
71
1
72
1
41
1
210
0
220
0
230
1
3
Standard
100
AcDbAlignedDimension
13
59
23
0
33
0
14
-36
24
0
34
0
50
0
100
AcDbRotatedDimension
1001
ACAD
1000
DSTYLE
1002
{
1070
   371
1070
    13
1070
   372
1070
    13
1070
     3
1000

1070
   170
1070
     0
1070
   144
1040
1.0
1070
   277
1070
     2
1070
   284
1070
     8
1070
   278
1070
    46
1070
   146
1040
1.166667
1070
   345
1005
16
1070
   347
1005
16
1070
   346
1005
16
1070
   344
1005
0
1070
   343
1005
0
1070
   172
1070
     1
1070
    76
1070
     0
1070
    75
1070
     0
1070
   282
1070
     0
1070
   281
1070
     0
1070
    71
1070
     0
1070
    74
1070
     0
1070
   279
1070
     0
1070
   173
1070
     1
1070
   340
1005
18B
1070
   271
1070
     2
1070
   272
1070
     2
1070
    77
1070
     1
1070
    73
1070
     1
1070
   171
1070
     3
1070
   274
1070
     4
1070
   177
1070
     2
1070
   176
1070
     2
1070
   178
1070
     2
1070
    78
1070
     8
1070
    48
1040
-0.1
1070
    41
1040
3.5
1070
   147
1040
1.5
1070
    42
1040
1.5875
1070
    44
1040
2.0
1070
   140
1040
3.0
1002
}
1001
ACAD_DSTYLE_DIM_LINETYPE
1070
   380
1005
16
1001
ACAD_DSTYLE_DIM_EXT1_LINETYPE
1070
   381
1005
16
1001
ACAD_DSTYLE_DIM_EXT2_LINETYPE
1070
   382
1005
16
0
DIMENSION
5
200
100
AcDbEntity
8
SK2
62
256
6
ByLayer
370
18
48
1
60
0
100
AcDbDimension
2
_U3
10
0.4
20
-12.85
30
0
11
-17.8
21
-12.85
31
0
70
32
71
1
72
1
41
1
210
0
220
0
230
1
3
Standard
100
AcDbAlignedDimension
13
-36
23
0
33
0
14
0.4
24
-3
34
0
50
0
100
AcDbRotatedDimension
1001
ACAD
1000
DSTYLE
1002
{
1070
   371
1070
    13
1070
   372
1070
    13
1070
     3
1000

1070
   170
1070
     0
1070
   144
1040
1.0
1070
   277
1070
     2
1070
   284
1070
     8
1070
   278
1070
    46
1070
   146
1040
1.166667
1070
   345
1005
16
1070
   347
1005
16
1070
   346
1005
16
1070
   344
1005
0
1070
   343
1005
0
1070
   172
1070
     1
1070
    76
1070
     0
1070
    75
1070
     0
1070
   282
1070
     0
1070
   281
1070
     0
1070
    71
1070
     0
1070
    74
1070
     0
1070
   279
1070
     0
1070
   173
1070
     1
1070
   340
1005
18B
1070
   271
1070
     2
1070
   272
1070
     2
1070
    77
1070
     1
1070
    73
1070
     1
1070
   171
1070
     3
1070
   274
1070
     4
1070
   177
1070
     2
1070
   176
1070
     2
1070
   178
1070
     2
1070
    78
1070
     8
1070
    48
1040
-0.1
1070
    41
1040
3.5
1070
   147
1040
1.5
1070
    42
1040
1.5875
1070
    44
1040
2.0
1070
   140
1040
3.0
1002
}
1001
ACAD_DSTYLE_DIM_LINETYPE
1070
   380
1005
16
1001
ACAD_DSTYLE_DIM_EXT1_LINETYPE
1070
   381
1005
16
1001
ACAD_DSTYLE_DIM_EXT2_LINETYPE
1070
   382
1005
16
0
DIMENSION
5
218
100
AcDbEntity
8
SK2
62
256
6
ByLayer
370
18
48
1
60
0
100
AcDbDimension
2
_U4
10
57.427
20
-11.5
30
0
11
74.857143
21
-11.5
31
0
70
32
71
1
72
1
41
1
210
0
220
0
230
1
3
Standard
100
AcDbAlignedDimension
13
59
23
0
33
0
14
57.427
24
0.819555
34
0
50
0
100
AcDbRotatedDimension
1001
ACAD
1000
DSTYLE
1002
{
1070
   371
1070
    13
1070
   372
1070
    13
1070
     3
1000

1070
   170
1070
     0
1070
   144
1040
1.0
1070
   277
1070
     2
1070
   284
1070
     8
1070
   278
1070
    46
1070
   146
1040
1.166667
1070
   345
1005
16
1070
   347
1005
16
1070
   346
1005
16
1070
   344
1005
0
1070
   343
1005
0
1070
   172
1070
     1
1070
    76
1070
     0
1070
    75
1070
     0
1070
   282
1070
     0
1070
   281
1070
     0
1070
    71
1070
     0
1070
    74
1070
     0
1070
   279
1070
     0
1070
   173
1070
     1
1070
   340
1005
18B
1070
   271
1070
     2
1070
   272
1070
     2
1070
    77
1070
     1
1070
    73
1070
     1
1070
   171
1070
     3
1070
   274
1070
     4
1070
   177
1070
     2
1070
   176
1070
     2
1070
   178
1070
     2
1070
    78
1070
     8
1070
    48
1040
-0.1
1070
    41
1040
3.5
1070
   147
1040
1.5
1070
    42
1040
1.5875
1070
    44
1040
2.0
1070
   140
1040
3.0
1002
}
1001
ACAD_DSTYLE_DIM_LINETYPE
1070
   380
1005
16
1001
ACAD_DSTYLE_DIM_EXT1_LINETYPE
1070
   381
1005
16
1001
ACAD_DSTYLE_DIM_EXT2_LINETYPE
1070
   382
1005
16
0
ENDSEC
0
SECTION
2
OBJECTS
0
DICTIONARY
5
2a2
330
0
100
AcDbDictionary
280
0
281
1
3
ACAD_GROUP
350
2a3
3
ACAD_MLINESTYLE
350
2a4
0
DICTIONARY
5
2a3
330
0
100
AcDbDictionary
280
0
281
1
0
DICTIONARY
5
2a4
330
0
100
AcDbDictionary
280
0
281
1
3
Standard
350
18
0
MLINESTYLE
5
18
330
2a4
100
AcDbMlineStyle
2
Standard
70
0
3

62
256
51
90
52
90
71
2
49
-0.5
62
256
6
ByLayer
49
0.5
62
256
6
ByLayer
0
RASTERVARIABLES
5
290
330

100
AcDbRasterVariables
90
0
70
1
71
1
72
1
0
ENDSEC
0
EOF
