0
SECTION
2
HEADER
9
$ACADVER
1
AC1015
9
$DWGCODEPAGE
3
ANSI_1252
9
$HANDSEED
5
2fc
9
$ANGBASE
50
0
9
$ANGDIR
70
0
9
$ATTMODE
70
1
9
$AUNITS
70
0
9
$AUPREC
70
0
9
$CECOLOR
62
256
9
$CELTSCALE
40
1
9
$CELTYPE
6
ByLayer
9
$CELWEIGHT
370
18
9
$CLAYER
8
0
9
$CMLJUST
70
0
9
$CMLSCALE
40
1
9
$CMLSTYLE
2
Standard
9
$DIMSTYLE
2
Standard
9
$TEXTSIZE
40
0.2
9
$TEXTSTYLE
7
Standard
9
$LUNITS
70
2
9
$LUPREC
70
4
9
$EXTNAMES
290
1
9
$INSUNITS
70
4
9
$LTSCALE
40
1
9
$LWDISPLAY
290
1
9
$PDMODE
70
0
9
$PDSIZE
40
0
9
$PLINEGEN
70
0
0
ENDSEC
0
SECTION
2
CLASSES
0
CLASS
1
RASTERVARIABLES
2
AcDbRasterVariables
3
ISM
90
0
280
0
281
0
0
ENDSEC
0
SECTION
2
TABLES
0
TABLE
2
VPORT
5
2f2
100
AcDbSymbolTable
0
VPORT
5
1
100
AcDbSymbolTableRecord
100
AcDbViewportTableRecord
2
*Active
70
0
10
0
20
0
11
1
21
1
12
-1
22
1
13
0
23
0
14
0.5
24
0.5
15
10
25
10
16
0
26
0
36
1
17
0
27
0
37
0
0
ENDTAB
0
TABLE
2
LTYPE
5
2f3
100
AcDbSymbolTable
0
LTYPE
5
14
100
AcDbSymbolTableRecord
100
AcDbLinetypeTableRecord
70
0
2
ByBlock
3

72
65
73
0
40
0
0
LTYPE
5
15
100
AcDbSymbolTableRecord
100
AcDbLinetypeTableRecord
70
0
2
ByLayer
3

72
65
73
0
40
0
0
LTYPE
5
16
100
AcDbSymbolTableRecord
100
AcDbLinetypeTableRecord
70
0
2
Continuous
3
Solid line
72
65
73
0
40
0
0
LTYPE
5
6E
100
AcDbSymbolTableRecord
100
AcDbLinetypeTableRecord
70
0
2
CENTER
3
____ _ ____ _ ____ _ ____
72
65
73
4
40
47.5
49
22
74
0
49
-8.5
74
0
49
8.5
74
0
49
-8.5
74
0
0
LTYPE
5
6F
100
AcDbSymbolTableRecord
100
AcDbLinetypeTableRecord
70
0
2
DASHED
3
__ __ __ __ __ __ __ __ __
72
65
73
2
40
25.72
49
12.86
74
0
49
-12.86
74
0
0
ENDTAB
0
TABLE
2
LAYER
5
2f4
100
AcDbSymbolTable
0
LAYER
5
10
100
AcDbSymbolTableRecord
100
AcDbLayerTableRecord
2
0
70
0
62
7
6
Continuous
290
1
370
-3
390
0
0
LAYER
5
71
100
AcDbSymbolTableRecord
100
AcDbLayerTableRecord
2
81
70
0
62
-3
6
Continuous
290
1
370
-3
390
0
0
LAYER
5
73
100
AcDbSymbolTableRecord
100
AcDbLayerTableRecord
2
80
70
0
62
-6
6
Continuous
290
1
370
-3
390
0
0
LAYER
5
75
100
AcDbSymbolTableRecord
100
AcDbLayerTableRecord
2
1
70
0
62
4
6
Continuous
290
1
370
-3
390
0
0
LAYER
5
82
100
AcDbSymbolTableRecord
100
AcDbLayerTableRecord
2
4
70
0
62
-2
6
CENTER
290
1
370
-3
390
0
0
LAYER
5
101
100
AcDbSymbolTableRecord
100
AcDbLayerTableRecord
2
2
70
0
62
7
6
Continuous
290
1
370
-3
390
0
0
LAYER
5
206
100
AcDbSymbolTableRecord
100
AcDbLayerTableRecord
2
Defpoints
70
0
62
7
6
Continuous
290
0
370
-3
390
0
0
LAYER
5
2de
100
AcDbSymbolTableRecord
100
AcDbLayerTableRecord
2
SK4
70
0
62
2
6
CENTER
290
1
370
-3
390
0
0
LAYER
5
2df
100
AcDbSymbolTableRecord
100
AcDbLayerTableRecord
2
SK1
70
0
62
4
6
Continuous
290
1
370
-3
390
0
0
LAYER
5
2e0
100
AcDbSymbolTableRecord
100
AcDbLayerTableRecord
2
SK2
70
0
62
7
6
Continuous
290
1
370
-3
390
0
0
LAYER
5
2e1
100
AcDbSymbolTableRecord
100
AcDbLayerTableRecord
2
SK6
70
0
62
5
6
Continuous
290
1
370
-3
390
0
0
ENDTAB
0
TABLE
2
STYLE
5
2f5
100
AcDbSymbolTable
0
STYLE
5
11
100
AcDbSymbolTableRecord
100
AcDbTextStyleTableRecord
2
Standard
3
txt
70
0
71
0
40
0
41
1
42
0
50
0
0
STYLE
5
1D8
100
AcDbSymbolTableRecord
100
AcDbTextStyleTableRecord
2
iso_b_vert
3
simplex.shx
70
0
71
0
40
0
41
1
42
0
50
0
0
STYLE
5
1D9
100
AcDbSymbolTableRecord
100
AcDbTextStyleTableRecord
2
DWGDirectTextStyle
3
simplex
70
0
71
0
40
0
41
1
42
0
50
0
0
ENDTAB
0
TABLE
2
DIMSTYLE
5
2f6
100
AcDbSymbolTable
100
AcDbDimStyleTable
0
DIMSTYLE
105
27
100
AcDbSymbolTableRecord
100
AcDbDimStyleTableRecord
2
Standard
70
0
3
<>
41
0.18
42
0.0625
44
0.18
140
0.18
147
0.09
73
0
74
0
77
1
271
2
275
0
278
52
280
0
340
11
0
ENDTAB
0
TABLE
2
VIEW
5
2f7
100
AcDbSymbolTable
0
ENDTAB
0
TABLE
2
UCS
5
2f8
100
AcDbSymbolTable
0
ENDTAB
0
TABLE
2
APPID
5
2f9
100
AcDbSymbolTable
0
APPID
5
12
100
AcDbSymbolTableRecord
100
AcDbRegAppTableRecord
2
ACAD
70
0
0
APPID
5
202
100
AcDbSymbolTableRecord
100
AcDbRegAppTableRecord
2
ACAD_DSTYLE_DIMBREAK
70
0
0
APPID
5
29D
100
AcDbSymbolTableRecord
100
AcDbRegAppTableRecord
2
ACAD_DSTYLE_DIM_LINETYPE
70
0
0
APPID
5
29E
100
AcDbSymbolTableRecord
100
AcDbRegAppTableRecord
2
ACAD_DSTYLE_DIM_EXT1_LINETYPE
70
0
0
APPID
5
29F
100
AcDbSymbolTableRecord
100
AcDbRegAppTableRecord
2
ACAD_DSTYLE_DIM_EXT2_LINETYPE
70
0
0
APPID
5
2DA
100
AcDbSymbolTableRecord
100
AcDbRegAppTableRecord
2
ACAD_MLEADERVER
70
0
0
ENDTAB
0
TABLE
2
BLOCK_RECORD
5
2fa
100
AcDbSymbolTable
0
BLOCK_RECORD
5
1F
100
AcDbSymbolTableRecord
100
AcDbBlockTableRecord
2
*Model_Space
340
0
70
0
0
BLOCK_RECORD
5
1B
100
AcDbSymbolTableRecord
100
AcDbBlockTableRecord
2
*Paper_Space
340
0
70
0
0
BLOCK_RECORD
5
23
100
AcDbSymbolTableRecord
100
AcDbBlockTableRecord
2
*Paper_Space0
340
0
70
0
0
BLOCK_RECORD
5
207
100
AcDbSymbolTableRecord
100
AcDbBlockTableRecord
2
*D1
340
0
70
0
0
BLOCK_RECORD
5
214
100
AcDbSymbolTableRecord
100
AcDbBlockTableRecord
2
_U0
340
0
70
0
0
BLOCK_RECORD
5
220
100
AcDbSymbolTableRecord
100
AcDbBlockTableRecord
2
*D3
340
0
70
0
0
BLOCK_RECORD
5
22C
100
AcDbSymbolTableRecord
100
AcDbBlockTableRecord
2
_U1
340
0
70
0
0
BLOCK_RECORD
5
238
100
AcDbSymbolTableRecord
100
AcDbBlockTableRecord
2
*D5
340
0
70
0
0
BLOCK_RECORD
5
244
100
AcDbSymbolTableRecord
100
AcDbBlockTableRecord
2
_U2
340
0
70
0
0
BLOCK_RECORD
5
250
100
AcDbSymbolTableRecord
100
AcDbBlockTableRecord
2
*D7
340
0
70
0
0
BLOCK_RECORD
5
25C
100
AcDbSymbolTableRecord
100
AcDbBlockTableRecord
2
_U3
340
0
70
0
0
BLOCK_RECORD
5
268
100
AcDbSymbolTableRecord
100
AcDbBlockTableRecord
2
*D9
340
0
70
0
0
BLOCK_RECORD
5
276
100
AcDbSymbolTableRecord
100
AcDbBlockTableRecord
2
_U4
340
0
70
0
0
ENDTAB
0
ENDSEC
0
SECTION
2
BLOCKS
0
BLOCK
5
20
100
AcDbEntity
8
0
100
AcDbBlockBegin
2
*Model_Space
70
0
10
0
20
0
30
0
3
*Model_Space
0
ENDBLK
5
21
100
AcDbEntity
8
0
100
AcDbBlockEnd
0
BLOCK
5
1C
100
AcDbEntity
8
0
100
AcDbBlockBegin
2
*Paper_Space
70
0
10
0
20
0
30
0
3
*Paper_Space
0
ENDBLK
5
1D
100
AcDbEntity
8
0
100
AcDbBlockEnd
0
BLOCK
5
24
100
AcDbEntity
8
0
100
AcDbBlockBegin
2
*Paper_Space0
70
0
10
0
20
0
30
0
3
*Paper_Space0
0
ENDBLK
5
25
100
AcDbEntity
8
0
100
AcDbBlockEnd
0
BLOCK
5
208
100
AcDbEntity
8
0
100
AcDbBlockBegin
2
*D1
70
1
10
0
20
0
30
0
3
*D1
0
LINE
5
20A
100
AcDbEntity
8
0
62
256
6
ByLayer
370
-2
48
1
60
0
100
AcDbLine
10
54
20
1.5875
30
0
11
54
21
13.85
31
0
39
0
210
0
220
0
230
1
0
LINE
5
20B
100
AcDbEntity
8
0
62
256
6
ByLayer
370
-2
48
1
60
0
100
AcDbLine
10
44
20
3.225911
30
0
11
44
21
13.85
31
0
39
0
210
0
220
0
230
1
0
LINE
5
20C
100
AcDbEntity
8
0
62
256
6
ByLayer
370
-2
48
1
60
0
100
AcDbLine
10
57.5
20
11.85
30
0
11
61
21
11.85
31
0
39
0
210
0
220
0
230
1
0
LINE
5
20D
100
AcDbEntity
8
0
62
256
6
ByLayer
370
-2
48
1
60
0
100
AcDbLine
10
40.5
20
11.85
30
0
11
37
21
11.85
31
0
39
0
210
0
220
0
230
1
0
SOLID
5
20E
100
AcDbEntity
8
0
62
256
6
ByLayer
370
-1
48
1
60
0
100
AcDbTrace
10
57.5
20
12.433333
30
0
11
57.5
21
11.266667
31
0
12
54
22
11.85
32
0
13
54
23
11.85
33
0
39
0
210
0
220
0
230
1
0
SOLID
5
20F
100
AcDbEntity
8
0
62
256
6
ByLayer
370
-1
48
1
60
0
100
AcDbTrace
10
40.5
20
11.266667
30
0
11
40.5
21
12.433333
31
0
12
44
22
11.85
32
0
13
44
23
11.85
33
0
39
0
210
0
220
0
230
1
0
MTEXT
5
210
100
AcDbEntity
8
0
62
256
6
ByLayer
370
18
48
1
60
0
100
AcDbMText
10
49
20
17.85
30
0
210
0
220
0
230
1
1
\A1;10
40
3
41
0
44
1
50
0
71
5
72
5
7
iso_b_vert
0
POINT
5
211
100
AcDbEntity
8
Defpoints
62
0
6
ByLayer
370
-1
48
1
60
0
100
AcDbPoint
10
54
20
0
30
0
39
0
210
0
220
0
230
1
50
360
0
POINT
5
212
100
AcDbEntity
8
Defpoints
62
0
6
ByLayer
370
-1
48
1
60
0
100
AcDbPoint
10
44
20
1.638411
30
0
39
0
210
0
220
0
230
1
50
360
0
POINT
5
213
100
AcDbEntity
8
Defpoints
62
0
6
ByLayer
370
-1
48
1
60
0
100
AcDbPoint
10
44
20
11.85
30
0
39
0
210
0
220
0
230
1
50
360
0
ENDBLK
5
209
100
AcDbEntity
8
0
100
AcDbBlockEnd
0
BLOCK
5
21B
100
AcDbEntity
8
0
100
AcDbBlockBegin
2
_U0
70
0
10
0
20
0
30
0
3
_U0
0
MTEXT
5
215
100
AcDbEntity
8
2
62
256
6
ByLayer
370
18
48
1
60
0
100
AcDbMText
10
47.742115
20
12.735114
30
0
210
0
220
0
230
1
1
\W0.5321;10
40
3
41
0
44
1.084337
50
0
71
7
72
5
7
iso_b_vert
0
LINE
5
216
100
AcDbEntity
8
2
62
256
6
ByLayer
370
13
48
1
60
0
100
AcDbLine
10
54
20
1.5875
30
0
11
54
21
13.85
31
0
39
0
210
0
220
0
230
1
0
LINE
5
217
100
AcDbEntity
8
2
62
256
6
ByLayer
370
13
48
1
60
0
100
AcDbLine
10
44
20
3.225911
30
0
11
44
21
13.85
31
0
39
0
210
0
220
0
230
1
0
LINE
5
218
100
AcDbEntity
8
2
62
256
6
ByLayer
370
13
48
1
60
0
100
AcDbLine
10
54
20
11.85
30
0
11
44
21
11.85
31
0
39
0
210
0
220
0
230
1
0
SOLID
5
219
100
AcDbEntity
8
2
62
256
6
ByLayer
370
18
48
1
60
0
100
AcDbTrace
10
54
20
11.85
30
0
11
50.500002
21
11.389216
31
0
12
50.499998
22
12.310784
32
0
13
50.499998
23
12.310784
33
0
39
0
210
0
220
0
230
1
0
SOLID
5
21A
100
AcDbEntity
8
2
62
256
6
ByLayer
370
18
48
1
60
0
100
AcDbTrace
10
44
20
11.85
30
0
11
47.499998
21
12.310784
31
0
12
47.500002
22
11.389216
32
0
13
47.500002
23
11.389216
33
0
39
0
210
0
220
0
230
1
0
ENDBLK
5
21C
100
AcDbEntity
8
0
100
AcDbBlockEnd
0
BLOCK
5
221
100
AcDbEntity
8
0
100
AcDbBlockBegin
2
*D3
70
1
10
0
20
0
30
0
3
*D3
0
LINE
5
223
100
AcDbEntity
8
0
62
256
6
ByLayer
370
-2
48
1
60
0
100
AcDbLine
10
54
20
1.5875
30
0
11
54
21
23.85
31
0
39
0
210
0
220
0
230
1
0
LINE
5
224
100
AcDbEntity
8
0
62
256
6
ByLayer
370
-2
48
1
60
0
100
AcDbLine
10
13.959452
20
5.5875
30
0
11
13.959452
21
23.85
31
0
39
0
210
0
220
0
230
1
0
LINE
5
225
100
AcDbEntity
8
0
62
256
6
ByLayer
370
-2
48
1
60
0
100
AcDbLine
10
50.5
20
21.85
30
0
11
17.459452
21
21.85
31
0
39
0
210
0
220
0
230
1
0
SOLID
5
226
100
AcDbEntity
8
0
62
256
6
ByLayer
370
-1
48
1
60
0
100
AcDbTrace
10
50.5
20
21.266667
30
0
11
50.5
21
22.433333
31
0
12
54
22
21.85
32
0
13
54
23
21.85
33
0
39
0
210
0
220
0
230
1
0
SOLID
5
227
100
AcDbEntity
8
0
62
256
6
ByLayer
370
-1
48
1
60
0
100
AcDbTrace
10
17.459452
20
22.433333
30
0
11
17.459452
21
21.266667
31
0
12
13.959452
22
21.85
32
0
13
13.959452
23
21.85
33
0
39
0
210
0
220
0
230
1
0
MTEXT
5
228
100
AcDbEntity
8
0
62
256
6
ByLayer
370
18
48
1
60
0
100
AcDbMText
10
33.979726
20
27.85
30
0
210
0
220
0
230
1
1
\A1;40.04
40
3
41
0
44
1
50
0
71
5
72
5
7
iso_b_vert
0
POINT
5
229
100
AcDbEntity
8
Defpoints
62
0
6
ByLayer
370
-1
48
1
60
0
100
AcDbPoint
10
54
20
0
30
0
39
0
210
0
220
0
230
1
50
360
0
POINT
5
22A
100
AcDbEntity
8
Defpoints
62
0
6
ByLayer
370
-1
48
1
60
0
100
AcDbPoint
10
13.959452
20
4
30
0
39
0
210
0
220
0
230
1
50
360
0
POINT
5
22B
100
AcDbEntity
8
Defpoints
62
0
6
ByLayer
370
-1
48
1
60
0
100
AcDbPoint
10
13.959452
20
21.85
30
0
39
0
210
0
220
0
230
1
50
360
0
ENDBLK
5
222
100
AcDbEntity
8
0
100
AcDbBlockEnd
0
BLOCK
5
233
100
AcDbEntity
8
0
100
AcDbBlockBegin
2
_U1
70
0
10
0
20
0
30
0
3
_U1
0
MTEXT
5
22D
100
AcDbEntity
8
2
62
256
6
ByLayer
370
18
48
1
60
0
100
AcDbMText
10
32.188955
20
22.735114
30
0
210
0
220
0
230
1
1
\W0.7361;40
40
3
41
0
44
1.084337
50
0
71
7
72
5
7
iso_b_vert
0
LINE
5
22E
100
AcDbEntity
8
2
62
256
6
ByLayer
370
13
48
1
60
0
100
AcDbLine
10
54
20
1.5875
30
0
11
54
21
23.85
31
0
39
0
210
0
220
0
230
1
0
LINE
5
22F
100
AcDbEntity
8
2
62
256
6
ByLayer
370
13
48
1
60
0
100
AcDbLine
10
13.959452
20
5.5875
30
0
11
13.959452
21
23.85
31
0
39
0
210
0
220
0
230
1
0
LINE
5
230
100
AcDbEntity
8
2
62
256
6
ByLayer
370
13
48
1
60
0
100
AcDbLine
10
54
20
21.85
30
0
11
13.959452
21
21.85
31
0
39
0
210
0
220
0
230
1
0
SOLID
5
231
100
AcDbEntity
8
2
62
256
6
ByLayer
370
18
48
1
60
0
100
AcDbTrace
10
54
20
21.85
30
0
11
50.500002
21
21.389216
31
0
12
50.499998
22
22.310784
32
0
13
50.499998
23
22.310784
33
0
39
0
210
0
220
0
230
1
0
SOLID
5
232
100
AcDbEntity
8
2
62
256
6
ByLayer
370
18
48
1
60
0
100
AcDbTrace
10
13.959452
20
21.85
30
0
11
17.45945
21
22.310784
31
0
12
17.459453
22
21.389216
32
0
13
17.459453
23
21.389216
33
0
39
0
210
0
220
0
230
1
0
ENDBLK
5
234
100
AcDbEntity
8
0
100
AcDbBlockEnd
0
BLOCK
5
239
100
AcDbEntity
8
0
100
AcDbBlockBegin
2
*D5
70
1
10
0
20
0
30
0
3
*D5
0
LINE
5
23B
100
AcDbEntity
8
0
62
256
6
ByLayer
370
-2
48
1
60
0
100
AcDbLine
10
54
20
1.5875
30
0
11
54
21
33.85
31
0
39
0
210
0
220
0
230
1
0
LINE
5
23C
100
AcDbEntity
8
0
62
256
6
ByLayer
370
-2
48
1
60
0
100
AcDbLine
10
-36
20
1.5875
30
0
11
-36
21
33.85
31
0
39
0
210
0
220
0
230
1
0
LINE
5
23D
100
AcDbEntity
8
0
62
256
6
ByLayer
370
-2
48
1
60
0
100
AcDbLine
10
50.5
20
31.85
30
0
11
-32.5
21
31.85
31
0
39
0
210
0
220
0
230
1
0
SOLID
5
23E
100
AcDbEntity
8
0
62
256
6
ByLayer
370
-1
48
1
60
0
100
AcDbTrace
10
50.5
20
31.266667
30
0
11
50.5
21
32.433333
31
0
12
54
22
31.85
32
0
13
54
23
31.85
33
0
39
0
210
0
220
0
230
1
0
SOLID
5
23F
100
AcDbEntity
8
0
62
256
6
ByLayer
370
-1
48
1
60
0
100
AcDbTrace
10
-32.5
20
32.433333
30
0
11
-32.5
21
31.266667
31
0
12
-36
22
31.85
32
0
13
-36
23
31.85
33
0
39
0
210
0
220
0
230
1
0
MTEXT
5
240
100
AcDbEntity
8
0
62
256
6
ByLayer
370
18
48
1
60
0
100
AcDbMText
10
9
20
37.85
30
0
210
0
220
0
230
1
1
\A1;90
40
3
41
0
44
1
50
0
71
5
72
5
7
iso_b_vert
0
POINT
5
241
100
AcDbEntity
8
Defpoints
62
0
6
ByLayer
370
-1
48
1
60
0
100
AcDbPoint
10
54
20
0
30
0
39
0
210
0
220
0
230
1
50
360
0
POINT
5
242
100
AcDbEntity
8
Defpoints
62
0
6
ByLayer
370
-1
48
1
60
0
100
AcDbPoint
10
-36
20
0
30
0
39
0
210
0
220
0
230
1
50
360
0
POINT
5
243
100
AcDbEntity
8
Defpoints
62
0
6
ByLayer
370
-1
48
1
60
0
100
AcDbPoint
10
-36
20
31.85
30
0
39
0
210
0
220
0
230
1
50
360
0
ENDBLK
5
23A
100
AcDbEntity
8
0
100
AcDbBlockEnd
0
BLOCK
5
24B
100
AcDbEntity
8
0
100
AcDbBlockBegin
2
_U2
70
0
10
0
20
0
30
0
3
_U2
0
MTEXT
5
245
100
AcDbEntity
8
SK2
62
256
6
ByLayer
370
18
48
1
60
0
100
AcDbMText
10
7.367172
20
32.735114
30
0
210
0
220
0
230
1
1
\W0.6740;90
40
3
41
0
44
1.084337
50
0
71
7
72
5
7
iso_b_vert
0
LINE
5
246
100
AcDbEntity
8
SK2
62
256
6
ByLayer
370
13
48
1
60
0
100
AcDbLine
10
54
20
1.5875
30
0
11
54
21
33.85
31
0
39
0
210
0
220
0
230
1
0
LINE
5
247
100
AcDbEntity
8
SK2
62
256
6
ByLayer
370
13
48
1
60
0
100
AcDbLine
10
-36
20
1.5875
30
0
11
-36
21
33.85
31
0
39
0
210
0
220
0
230
1
0
LINE
5
248
100
AcDbEntity
8
SK2
62
256
6
ByLayer
370
13
48
1
60
0
100
AcDbLine
10
54
20
31.85
30
0
11
-36
21
31.85
31
0
39
0
210
0
220
0
230
1
0
SOLID
5
249
100
AcDbEntity
8
SK2
62
256
6
ByLayer
370
18
48
1
60
0
100
AcDbTrace
10
54
20
31.85
30
0
11
50.500002
21
31.389216
31
0
12
50.499998
22
32.310784
32
0
13
50.499998
23
32.310784
33
0
39
0
210
0
220
0
230
1
0
SOLID
5
24A
100
AcDbEntity
8
SK2
62
256
6
ByLayer
370
18
48
1
60
0
100
AcDbTrace
10
-36
20
31.85
30
0
11
-32.500002
21
32.310784
31
0
12
-32.499998
22
31.389216
32
0
13
-32.499998
23
31.389216
33
0
39
0
210
0
220
0
230
1
0
ENDBLK
5
24C
100
AcDbEntity
8
0
100
AcDbBlockEnd
0
BLOCK
5
251
100
AcDbEntity
8
0
100
AcDbBlockBegin
2
*D7
70
1
10
0
20
0
30
0
3
*D7
0
LINE
5
253
100
AcDbEntity
8
0
62
256
6
ByLayer
370
-2
48
1
60
0
100
AcDbLine
10
-36
20
-1.5875
30
0
11
-36
21
-16.028121
31
0
39
0
210
0
220
0
230
1
0
LINE
5
254
100
AcDbEntity
8
0
62
256
6
ByLayer
370
-2
48
1
60
0
100
AcDbLine
10
0.4
20
-5.5875
30
0
11
0.4
21
-16.028121
31
0
39
0
210
0
220
0
230
1
0
LINE
5
255
100
AcDbEntity
8
0
62
256
6
ByLayer
370
-2
48
1
60
0
100
AcDbLine
10
-32.5
20
-14.028121
30
0
11
-3.1
21
-14.028121
31
0
39
0
210
0
220
0
230
1
0
SOLID
5
256
100
AcDbEntity
8
0
62
256
6
ByLayer
370
-1
48
1
60
0
100
AcDbTrace
10
-32.5
20
-13.444788
30
0
11
-32.5
21
-14.611454
31
0
12
-36
22
-14.028121
32
0
13
-36
23
-14.028121
33
0
39
0
210
0
220
0
230
1
0
SOLID
5
257
100
AcDbEntity
8
0
62
256
6
ByLayer
370
-1
48
1
60
0
100
AcDbTrace
10
-3.1
20
-14.611454
30
0
11
-3.1
21
-13.444788
31
0
12
0.4
22
-14.028121
32
0
13
0.4
23
-14.028121
33
0
39
0
210
0
220
0
230
1
0
MTEXT
5
258
100
AcDbEntity
8
0
62
256
6
ByLayer
370
18
48
1
60
0
100
AcDbMText
10
-17.8
20
-8.028121
30
0
210
0
220
0
230
1
1
\A1;36.4
40
3
41
0
44
1
50
0
71
5
72
5
7
iso_b_vert
0
POINT
5
259
100
AcDbEntity
8
Defpoints
62
0
6
ByLayer
370
-1
48
1
60
0
100
AcDbPoint
10
-36
20
0
30
0
39
0
210
0
220
0
230
1
50
360
0
POINT
5
25A
100
AcDbEntity
8
Defpoints
62
0
6
ByLayer
370
-1
48
1
60
0
100
AcDbPoint
10
0.4
20
-4
30
0
39
0
210
0
220
0
230
1
50
360
0
POINT
5
25B
100
AcDbEntity
8
Defpoints
62
0
6
ByLayer
370
-1
48
1
60
0
100
AcDbPoint
10
0.4
20
-14.028121
30
0
39
0
210
0
220
0
230
1
50
360
0
ENDBLK
5
252
100
AcDbEntity
8
0
100
AcDbBlockEnd
0
BLOCK
5
263
100
AcDbEntity
8
0
100
AcDbBlockBegin
2
_U3
70
0
10
0
20
0
30
0
3
_U3
0
MTEXT
5
25D
100
AcDbEntity
8
SK2
62
256
6
ByLayer
370
18
48
1
60
0
100
AcDbMText
10
-25.364913
20
-13.143006
30
0
210
0
220
0
230
1
1
\W0.7245;(MIN. 36)
40
3
41
0
44
1.084337
50
0
71
7
72
5
7
iso_b_vert
0
LINE
5
25E
100
AcDbEntity
8
SK2
62
256
6
ByLayer
370
13
48
1
60
0
100
AcDbLine
10
-36
20
-1.5875
30
0
11
-36
21
-16.028121
31
0
39
0
210
0
220
0
230
1
0
LINE
5
25F
100
AcDbEntity
8
SK2
62
256
6
ByLayer
370
13
48
1
60
0
100
AcDbLine
10
0.4
20
-5.5875
30
0
11
0.4
21
-16.028121
31
0
39
0
210
0
220
0
230
1
0
LINE
5
260
100
AcDbEntity
8
SK2
62
256
6
ByLayer
370
13
48
1
60
0
100
AcDbLine
10
-36
20
-14.028121
30
0
11
0.4
21
-14.028121
31
0
39
0
210
0
220
0
230
1
0
SOLID
5
261
100
AcDbEntity
8
SK2
62
256
6
ByLayer
370
18
48
1
60
0
100
AcDbTrace
10
-36
20
-14.028121
30
0
11
-32.500002
21
-13.567337
31
0
12
-32.499998
22
-14.488905
32
0
13
-32.499998
23
-14.488905
33
0
39
0
210
0
220
0
230
1
0
SOLID
5
262
100
AcDbEntity
8
SK2
62
256
6
ByLayer
370
18
48
1
60
0
100
AcDbTrace
10
0.4
20
-14.028121
30
0
11
-3.099998
21
-14.488905
31
0
12
-3.100002
22
-13.567337
32
0
13
-3.100002
23
-13.567337
33
0
39
0
210
0
220
0
230
1
0
ENDBLK
5
264
100
AcDbEntity
8
0
100
AcDbBlockEnd
0
BLOCK
5
269
100
AcDbEntity
8
0
100
AcDbBlockBegin
2
*D9
70
1
10
0
20
0
30
0
3
*D9
0
LINE
5
26B
100
AcDbEntity
8
0
62
256
6
ByLayer
370
-2
48
1
60
0
100
AcDbLine
10
54
20
-1.5875
30
0
11
54
21
-13.5
31
0
39
0
210
0
220
0
230
1
0
LINE
5
26C
100
AcDbEntity
8
0
62
256
6
ByLayer
370
-2
48
1
60
0
100
AcDbLine
10
50.853
20
0.050911
30
0
11
50.853
21
-13.5
31
0
39
0
210
0
220
0
230
1
0
LINE
5
26D
100
AcDbEntity
8
0
62
256
6
ByLayer
370
-2
48
1
60
0
100
AcDbLine
10
54
20
-11.5
30
0
11
79.142857
21
-11.5
31
0
39
0
210
0
220
0
230
1
0
LINE
5
26E
100
AcDbEntity
8
0
62
256
6
ByLayer
370
-2
48
1
60
0
100
AcDbLine
10
57.5
20
-11.5
30
0
11
61
21
-11.5
31
0
39
0
210
0
220
0
230
1
0
LINE
5
26F
100
AcDbEntity
8
0
62
256
6
ByLayer
370
-2
48
1
60
0
100
AcDbLine
10
47.353
20
-11.5
30
0
11
43.853
21
-11.5
31
0
39
0
210
0
220
0
230
1
0
SOLID
5
270
100
AcDbEntity
8
0
62
256
6
ByLayer
370
-1
48
1
60
0
100
AcDbTrace
10
57.5
20
-10.916667
30
0
11
57.5
21
-12.083333
31
0
12
54
22
-11.5
32
0
13
54
23
-11.5
33
0
39
0
210
0
220
0
230
1
0
SOLID
5
271
100
AcDbEntity
8
0
62
256
6
ByLayer
370
-1
48
1
60
0
100
AcDbTrace
10
47.353
20
-12.083333
30
0
11
47.353
21
-10.916667
31
0
12
50.853
22
-11.5
32
0
13
50.853
23
-11.5
33
0
39
0
210
0
220
0
230
1
0
MTEXT
5
272
100
AcDbEntity
8
0
62
256
6
ByLayer
370
18
48
1
60
0
100
AcDbMText
10
70.071429
20
-5.5
30
0
210
0
220
0
230
1
1
\A1;3.15
40
3
41
0
44
1
50
0
71
5
72
5
7
iso_b_vert
0
POINT
5
273
100
AcDbEntity
8
Defpoints
62
0
6
ByLayer
370
-1
48
1
60
0
100
AcDbPoint
10
54
20
0
30
0
39
0
210
0
220
0
230
1
50
360
0
POINT
5
274
100
AcDbEntity
8
Defpoints
62
0
6
ByLayer
370
-1
48
1
60
0
100
AcDbPoint
10
50.853
20
1.638411
30
0
39
0
210
0
220
0
230
1
50
360
0
POINT
5
275
100
AcDbEntity
8
Defpoints
62
0
6
ByLayer
370
-1
48
1
60
0
100
AcDbPoint
10
50.853
20
-11.5
30
0
39
0
210
0
220
0
230
1
50
360
0
ENDBLK
5
26A
100
AcDbEntity
8
0
100
AcDbBlockEnd
0
BLOCK
5
27D
100
AcDbEntity
8
0
100
AcDbBlockBegin
2
_U4
70
0
10
0
20
0
30
0
3
_U4
0
MTEXT
5
277
100
AcDbEntity
8
SK2
62
256
6
ByLayer
370
18
48
1
60
0
100
AcDbMText
10
64.159
20
-10.614886
30
0
210
0
220
0
230
1
1
\W0.6563;3.15
40
3
41
0
44
1.084337
50
0
71
7
72
5
7
iso_b_vert
0
LINE
5
278
100
AcDbEntity
8
SK2
62
256
6
ByLayer
370
13
48
1
60
0
100
AcDbLine
10
54
20
-1.5875
30
0
11
54
21
-13.5
31
0
39
0
210
0
220
0
230
1
0
LINE
5
279
100
AcDbEntity
8
SK2
62
256
6
ByLayer
370
13
48
1
60
0
100
AcDbLine
10
50.853
20
0.050911
30
0
11
50.853
21
-13.5
31
0
39
0
210
0
220
0
230
1
0
LINE
5
27A
100
AcDbEntity
8
SK2
62
256
6
ByLayer
370
13
48
1
60
0
100
AcDbLine
10
43.353
20
-11.5
30
0
11
70.291027
21
-11.5
31
0
39
0
210
0
220
0
230
1
0
SOLID
5
27B
100
AcDbEntity
8
SK2
62
256
6
ByLayer
370
18
48
1
60
0
100
AcDbTrace
10
54
20
-11.5
30
0
11
57.499998
21
-11.039216
31
0
12
57.500002
22
-11.960784
32
0
13
57.500002
23
-11.960784
33
0
39
0
210
0
220
0
230
1
0
SOLID
5
27C
100
AcDbEntity
8
SK2
62
256
6
ByLayer
370
18
48
1
60
0
100
AcDbTrace
10
50.853
20
-11.5
30
0
11
47.353002
21
-11.960784
31
0
12
47.352998
22
-11.039216
32
0
13
47.352998
23
-11.039216
33
0
39
0
210
0
220
0
230
1
0
ENDBLK
5
27E
100
AcDbEntity
8
0
100
AcDbBlockEnd
0
ENDSEC
0
SECTION
2
ENTITIES
0
ARC
5
112
100
AcDbEntity
8
1
62
256
6
ByLayer
370
18
48
1
60
0
100
AcDbCircle
39
0
10
43.998749
20
2.6385
30
0
40
1
210
0
220
0
230
1
100
AcDbArc
50
265.499148
51
270
0
ARC
5
113
100
AcDbEntity
8
1
62
256
6
ByLayer
370
18
48
1
60
0
100
AcDbCircle
39
0
10
43.998749
20
-2.6385
30
0
40
1
210
0
220
0
230
1
100
AcDbArc
50
90
51
94.500852
0
ARC
5
114
100
AcDbEntity
8
81
62
256
6
ByLayer
370
18
48
1
60
0
100
AcDbCircle
39
0
10
50.409481
20
-4.203493
30
0
40
2.63457201705402
210
0
220
0
230
1
100
AcDbArc
50
90
51
103.188732
0
ARC
5
115
100
AcDbEntity
8
81
62
256
6
ByLayer
370
18
48
1
60
0
100
AcDbCircle
39
0
10
50.709481
20
-1.789782
30
0
40
0.220860750471014
210
0
220
0
230
1
100
AcDbArc
50
49.732301
51
90
0
ARC
5
116
100
AcDbEntity
8
81
62
256
6
ByLayer
370
18
48
1
60
0
100
AcDbCircle
39
0
10
50.709481
20
1.789782
30
0
40
0.220860750471014
210
0
220
0
230
1
100
AcDbArc
50
270
51
310.267699
0
ARC
5
117
100
AcDbEntity
8
81
62
256
6
ByLayer
370
18
48
1
60
0
100
AcDbCircle
39
0
10
52
20
0
30
0
40
1.9865
210
0
220
0
230
1
100
AcDbArc
50
81.388766
51
125.267699
0
ARC
5
118
100
AcDbEntity
8
81
62
256
6
ByLayer
370
18
48
1
60
0
100
AcDbCircle
39
0
10
52
20
0
30
0
40
1.9865
210
0
220
0
230
1
100
AcDbArc
50
66.779418
51
77.063124
0
ARC
5
119
100
AcDbEntity
8
81
62
256
6
ByLayer
370
18
48
1
60
0
100
AcDbCircle
39
0
10
52
20
0
30
0
40
1.9865
210
0
220
0
230
1
100
AcDbArc
50
1.240949
51
54.131313
0
ARC
5
11A
100
AcDbEntity
8
81
62
256
6
ByLayer
370
18
48
1
60
0
100
AcDbCircle
39
0
10
52
20
0
30
0
40
1.9865
210
0
220
0
230
1
100
AcDbArc
50
282.964271
51
358.191452
0
ARC
5
11B
100
AcDbEntity
8
81
62
256
6
ByLayer
370
18
48
1
60
0
100
AcDbCircle
39
0
10
52
20
0
30
0
40
1.9865
210
0
220
0
230
1
100
AcDbArc
50
279.57423
51
281.582424
0
ARC
5
11C
100
AcDbEntity
8
81
62
256
6
ByLayer
370
18
48
1
60
0
100
AcDbCircle
39
0
10
52
20
0
30
0
40
1.9865
210
0
220
0
230
1
100
AcDbArc
50
276.826138
51
277.879181
0
ARC
5
11D
100
AcDbEntity
8
81
62
256
6
ByLayer
370
18
48
1
60
0
100
AcDbCircle
39
0
10
52
20
0
30
0
40
1.9865
210
0
220
0
230
1
100
AcDbArc
50
234.732301
51
254.446318
0
ARC
5
11E
100
AcDbEntity
8
SK2
62
256
6
ByLayer
370
13
48
1
60
0
100
AcDbCircle
39
0
10
64.841379
20
0
30
0
40
64.5679531970153
210
0
220
0
230
1
100
AcDbArc
50
175.50503
51
186.625596
0
ARC
5
11F
100
AcDbEntity
8
SK2
62
256
6
ByLayer
370
13
48
1
60
0
100
AcDbCircle
39
0
10
64.841379
20
0
30
0
40
64.5679531970153
210
0
220
0
230
1
100
AcDbArc
50
164.6554
51
175.50503
0
ELLIPSE
5
120
100
AcDbEntity
8
1
62
256
6
ByLayer
370
18
48
1
60
0
100
AcDbEllipse
10
53.856571
20
0.365366
30
0
11
0.0640578862385348
21
0.100712216135975
31
0
210
0
220
0
230
1
40
0.08864
41
1.31232531440009
42
2.50690275991531
0
ELLIPSE
5
121
100
AcDbEntity
8
1
62
256
6
ByLayer
370
18
48
1
60
0
100
AcDbEllipse
10
53.86098
20
-0.459107
30
0
11
0.0600414455399418
21
-0.101278905774011
31
0
210
0
220
0
230
1
40
0.117396
41
2.23612880564063
42
-1.90902816784853
0
ELLIPSE
5
122
100
AcDbEntity
8
1
62
256
6
ByLayer
370
18
48
1
60
0
100
AcDbEllipse
10
50.538269
20
-8.789973
30
0
11
4.96231007388736
21
5.86904985701099
31
0
210
0
220
0
230
1
40
0.89409
41
0.728003258671972
42
0.774146774429816
0
ELLIPSE
5
123
100
AcDbEntity
8
1
62
256
6
ByLayer
370
18
48
1
60
0
100
AcDbEllipse
10
50.580463
20
3.011195
30
0
11
-7.3037489889535
21
2.71851529768154
31
0
210
0
220
0
230
1
40
0.196608
41
1.63044595109353
42
1.6726222994908
0
ELLIPSE
5
124
100
AcDbEntity
8
1
62
256
6
ByLayer
370
18
48
1
60
0
100
AcDbEllipse
10
50.538316
20
2.897962
30
0
11
-7.20305902898014
21
2.68103766846338
31
0
210
0
220
0
230
1
40
0.196608
41
1.62717644803455
42
1.67331161111888
0
ELLIPSE
5
125
100
AcDbEntity
8
1
62
256
6
ByLayer
370
18
48
1
60
0
100
AcDbEllipse
10
50.580417
20
-8.825608
30
0
11
5.0316759704044
21
5.95109066038139
31
0
210
0
220
0
230
1
40
0.89409
41
0.728694789350688
42
0.770883097767063
0
ELLIPSE
5
126
100
AcDbEntity
8
1
62
256
6
ByLayer
370
18
48
1
60
0
100
AcDbEllipse
10
50.538269
20
-5.773472
30
0
11
-6.78269560405335
21
3.61459649701616
31
0
210
0
220
0
230
1
40
0.686386
41
-1.24960204382011
42
-1.20345852806221
0
ELLIPSE
5
127
100
AcDbEntity
8
1
62
256
6
ByLayer
370
18
48
1
60
0
100
AcDbEllipse
10
53.968491
20
0
30
0
11
5.10464274167511
21
-0.0937929283803176
31
0
210
0
220
0
230
1
40
0.320456
41
-2.6247195827642
42
-2.27189934418657
0
ELLIPSE
5
128
100
AcDbEntity
8
1
62
256
6
ByLayer
370
18
48
1
60
0
100
AcDbEllipse
10
53.968491
20
0
30
0
11
5.10101475958071
21
-1.49836051039805
31
0
210
0
220
0
230
1
40
0.129978
41
-2.59244655233239
42
-2.23962631374472
0
ELLIPSE
5
129
100
AcDbEntity
8
1
62
256
6
ByLayer
370
18
48
1
60
0
100
AcDbEllipse
10
50.580417
20
-5.694384
30
0
11
-6.87750784963488
21
3.66512331271882
31
0
210
0
220
0
230
1
40
0.686386
41
-1.24891051314138
42
-1.20672220472498
0
ELLIPSE
5
12A
100
AcDbEntity
8
1
62
256
6
ByLayer
370
18
48
1
60
0
100
AcDbEllipse
10
53.968491
20
0
30
0
11
5.09956407327913
21
-1.41371975332871
31
0
210
0
220
0
230
1
40
0.162425
41
2.32278511225676
42
2.61160143898654
0
ELLIPSE
5
12B
100
AcDbEntity
8
1
62
256
6
ByLayer
370
18
48
1
60
0
100
AcDbEllipse
10
53.968491
20
0
30
0
11
5.09937492807322
21
1.39974436035556
31
0
210
0
220
0
230
1
40
0.167021
41
-2.59496444097381
42
-2.3236014322733
0
POINT
5
70
100
AcDbEntity
8
81
62
256
6
ByLayer
370
18
48
1
60
0
100
AcDbPoint
10
54
20
0
30
0
39
0
210
0
220
0
230
1
50
360
0
POINT
5
72
100
AcDbEntity
8
80
62
256
6
ByLayer
370
18
48
1
60
0
100
AcDbPoint
10
0
20
0
30
0
39
0
210
0
220
0
230
1
50
360
0
POINT
5
74
100
AcDbEntity
8
1
62
256
6
ByLayer
370
18
48
1
60
1
100
AcDbPoint
10
54
20
0
30
0
39
0
210
0
220
0
230
1
50
360
0
POINT
5
76
100
AcDbEntity
8
1
62
256
6
ByLayer
370
18
48
1
60
1
100
AcDbPoint
10
44
20
1.638411
30
0
39
0
210
0
220
0
230
1
50
360
0
POINT
5
77
100
AcDbEntity
8
1
62
256
6
ByLayer
370
18
48
1
60
1
100
AcDbPoint
10
54
20
0
30
0
39
0
210
0
220
0
230
1
50
360
0
POINT
5
78
100
AcDbEntity
8
1
62
256
6
ByLayer
370
18
48
1
60
1
100
AcDbPoint
10
13.959452
20
4
30
0
39
0
210
0
220
0
230
1
50
360
0
POINT
5
79
100
AcDbEntity
8
1
62
256
6
ByLayer
370
18
48
1
60
1
100
AcDbPoint
10
54
20
0
30
0
39
0
210
0
220
0
230
1
50
360
0
POINT
5
7A
100
AcDbEntity
8
1
62
256
6
ByLayer
370
18
48
1
60
1
100
AcDbPoint
10
-36
20
0
30
0
39
0
210
0
220
0
230
1
50
360
0
POINT
5
7B
100
AcDbEntity
8
1
62
256
6
ByLayer
370
18
48
1
60
1
100
AcDbPoint
10
-36
20
0
30
0
39
0
210
0
220
0
230
1
50
360
0
POINT
5
7C
100
AcDbEntity
8
1
62
256
6
ByLayer
370
18
48
1
60
1
100
AcDbPoint
10
0.4
20
-4
30
0
39
0
210
0
220
0
230
1
50
360
0
POINT
5
7D
100
AcDbEntity
8
1
62
256
6
ByLayer
370
18
48
1
60
1
100
AcDbPoint
10
54
20
0
30
0
39
0
210
0
220
0
230
1
50
360
0
POINT
5
7E
100
AcDbEntity
8
1
62
256
6
ByLayer
370
18
48
1
60
1
100
AcDbPoint
10
50.853
20
1.638411
30
0
39
0
210
0
220
0
230
1
50
360
0
SPLINE
5
12C
100
AcDbEntity
8
1
62
256
6
ByLayer
370
18
48
1
60
0
100
AcDbSpline
70
4
71
2
72
6
73
3
40
0
40
0
40
0
40
1
40
1
40
1
41
1
10
53.9921832456329
20
8.19741965188E-05
30
0
41
1
10
53.988014436554
20
0.0224219936449686
30
0
41
1
10
53.9838677339535
20
0.0447562734076428
30
0
0
SPLINE
5
12D
100
AcDbEntity
8
1
62
256
6
ByLayer
370
18
48
1
60
0
100
AcDbSpline
70
4
71
1
72
4
73
2
40
0
40
0
40
1
40
1
41
1
10
52.6982402631069
20
1.37009385330924
30
0
41
1
10
52.7581234613296
20
1.29693826562655
30
0
0
SPLINE
5
12E
100
AcDbEntity
8
1
62
256
6
ByLayer
370
18
48
1
60
0
100
AcDbSpline
70
4
71
1
72
4
73
2
40
0
40
0
40
1
40
1
41
1
10
52.6150348121985
20
1.14325699455657
30
0
41
1
10
52.4131031419572
20
1.19830812764502
30
0
0
SPLINE
5
12F
100
AcDbEntity
8
1
62
256
6
ByLayer
370
18
48
1
60
0
100
AcDbSpline
70
4
71
3
72
8
73
4
40
0
40
0
40
0
40
0
40
1
40
1
40
1
40
1
41
1
10
53.9839114088793
20
-0.0388201218365793
30
0
41
1
10
53.9865403656276
20
-0.03907690993492
30
0
41
1
10
53.9891282893029
20
-0.039333825652335
30
0
41
1
10
53.9916756015695
20
-0.0395908617441023
30
0
0
SPLINE
5
130
100
AcDbEntity
8
1
62
256
6
ByLayer
370
18
48
1
60
0
100
AcDbSpline
70
4
71
3
72
8
73
4
40
0
40
0
40
0
40
0
40
1
40
1
40
1
40
1
41
1
10
53.8976945680672
20
0.558329808736943
30
0
41
1
10
53.9057982118975
20
0.533456656289474
30
0
41
1
10
53.9133528605074
20
0.508482944857747
30
0
41
1
10
53.9203567673108
20
0.483408354521089
30
0
0
SPLINE
5
131
100
AcDbEntity
8
1
62
256
6
ByLayer
370
18
48
1
60
0
100
AcDbSpline
70
4
71
3
72
8
73
4
40
0
40
0
40
0
40
0
40
1
40
1
40
1
40
1
41
1
10
53.8643137670624
20
0.396597839014475
30
0
41
1
10
53.8646868315246
20
0.398924237587011
30
0
41
1
10
53.8650132632346
20
0.401179707974507
30
0
41
1
10
53.8652913570238
20
0.403361656623588
30
0
0
SPLINE
5
132
100
AcDbEntity
8
1
62
256
6
ByLayer
370
18
48
1
60
0
100
AcDbSpline
70
4
71
3
72
8
73
4
40
0
40
0
40
0
40
0
40
1
40
1
40
1
40
1
41
1
10
53.8186735963865
20
0.511995894341254
30
0
41
1
10
53.8319467018458
20
0.479030150040359
30
0
41
1
10
53.8450411123587
20
0.446006801840497
30
0
41
1
10
53.8579638342402
20
0.412928108289464
30
0
0
SPLINE
5
133
100
AcDbEntity
8
1
62
256
6
ByLayer
370
18
48
1
60
0
100
AcDbSpline
70
4
71
3
72
8
73
4
40
0
40
0
40
0
40
0
40
1
40
1
40
1
40
1
41
1
10
53.8652913570211
20
0.40336165663129
30
0
41
1
10
53.844430117299
20
0.456137320543291
30
0
41
1
10
53.8228261012803
20
0.508692147285529
30
0
41
1
10
53.8004168396959
20
0.560992023415309
30
0
0
SPLINE
5
134
100
AcDbEntity
8
1
62
256
6
ByLayer
370
18
48
1
60
0
100
AcDbSpline
70
4
71
3
72
8
73
4
40
0
40
0
40
0
40
0
40
1
40
1
40
1
40
1
41
1
10
53.8976945680672
20
0.558329808736943
30
0
41
1
10
53.8979652090891
20
0.558380703766602
30
0
41
1
10
53.8982337320768
20
0.558439440673055
30
0
41
1
10
53.8984999274609
20
0.558506404648142
30
0
0
SPLINE
5
135
100
AcDbEntity
8
1
62
256
6
ByLayer
370
18
48
1
60
0
100
AcDbSpline
70
4
71
3
72
8
73
4
40
0
40
0
40
0
40
0
40
1
40
1
40
1
40
1
41
1
10
53.7996202446732
20
0.561090992006626
30
0
41
1
10
53.7998878251332
20
0.561056764729045
30
0
41
1
10
53.800153363275
20
0.561023780759598
30
0
41
1
10
53.8004168378105
20
0.560992033138007
30
0
0
SPLINE
5
136
100
AcDbEntity
8
1
62
256
6
ByLayer
370
18
48
1
60
0
100
AcDbSpline
70
4
71
3
72
8
73
4
40
0
40
0
40
0
40
0
40
1
40
1
40
1
40
1
41
1
10
53.8976945680672
20
0.558329808736943
30
0
41
1
10
53.8652686984923
20
0.559218310915441
30
0
41
1
10
53.8328427874021
20
0.560105682219842
30
0
41
1
10
53.8004168391437
20
0.56099202811302
30
0
0
SPLINE
5
137
100
AcDbEntity
8
1
62
256
6
ByLayer
370
18
48
1
60
0
100
AcDbSpline
70
4
71
3
72
8
73
4
40
0
40
0
40
0
40
0
40
1
40
1
40
1
40
1
41
1
10
53.8643137670624
20
0.396597839014475
30
0
41
1
10
53.8622008113639
20
0.402056843959144
30
0
41
1
10
53.8600843124568
20
0.407500254177052
30
0
41
1
10
53.8579638342402
20
0.412928108289464
30
0
0
SPLINE
5
138
100
AcDbEntity
8
1
62
256
6
ByLayer
370
18
48
1
60
0
100
AcDbSpline
70
4
71
3
72
8
73
4
40
0
40
0
40
0
40
0
40
1
40
1
40
1
40
1
41
1
10
53.8173023640283
20
0.511316359823098
30
0
41
1
10
53.8177594138866
20
0.511542917305349
30
0
41
1
10
53.818216491397
20
0.511769428715411
30
0
41
1
10
53.8186735963854
20
0.511995894342476
30
0
0
SPLINE
5
139
100
AcDbEntity
8
1
62
256
6
ByLayer
370
18
48
1
60
0
100
AcDbSpline
70
4
71
3
72
8
73
4
40
0
40
0
40
0
40
0
40
1
40
1
40
1
40
1
41
1
10
53.7996202446732
20
0.561090992006598
30
0
41
1
10
53.8059902935714
20
0.544686448424073
30
0
41
1
10
53.8123426527104
20
0.528321878607215
30
0
41
1
10
53.8186735963865
20
0.511995894341226
30
0
0
SPLINE
5
13A
100
AcDbEntity
8
1
62
256
6
ByLayer
370
18
48
1
60
0
100
AcDbSpline
70
4
71
3
72
8
73
4
40
0
40
0
40
0
40
0
40
1
40
1
40
1
40
1
41
1
10
53.8984999274608
20
0.558506404648114
30
0
41
1
10
53.8655372933835
20
0.559371110214414
30
0
41
1
10
53.8325772438232
20
0.560232757484386
30
0
41
1
10
53.7996202446731
20
0.561090992006626
30
0
0
SPLINE
5
13B
100
AcDbEntity
8
1
62
256
6
ByLayer
370
18
48
1
60
0
100
AcDbSpline
70
4
71
3
72
18
73
14
40
0
40
0
40
0
40
0
40
0.249999999999996
40
0.249999999999996
40
0.374999999999994
40
0.374999999999994
40
0.499999999999992
40
0.499999999999992
40
0.749999999999987
40
0.749999999999987
40
0.874999999999994
40
0.874999999999994
40
1
40
1
40
1
40
1
41
1
10
53.3417123807037
20
1.42602350310085
30
0
41
1
10
53.4048404620112
20
1.36460253765853
30
0
41
1
10
53.4642521931548
20
1.29976658202384
30
0
41
1
10
53.5478310622477
20
1.19742207057638
30
0
41
1
10
53.5748157677002
20
1.16235526150885
30
0
41
1
10
53.6262727373885
20
1.09137263540009
30
0
41
1
10
53.650822221642
20
1.05537797268798
30
0
41
1
10
53.7210054775988
20
0.945918122062892
30
0
41
1
10
53.7631805670724
20
0.870978589006853
30
0
41
1
10
53.8194534057622
20
0.75560249576796
30
0
41
1
10
53.8370436686814
20
0.716648743502674
30
0
41
1
10
53.8698213101745
20
0.637722561893128
30
0
41
1
10
53.8848466237113
20
0.598135744702489
30
0
41
1
10
53.8984999274609
20
0.558506404648142
30
0
0
SPLINE
5
13C
100
AcDbEntity
8
1
62
256
6
ByLayer
370
18
48
1
60
0
100
AcDbSpline
70
4
71
3
72
12
73
8
40
0
40
0
40
0
40
0
40
0.261269359213794
40
0.400060232484716
40
0.818488448299789
40
0.958573699095284
40
1
40
1
40
1
40
1
41
1
10
52.7123157112295
20
1.85369160234282
30
0
41
1
10
52.7688588448986
20
1.82907350931581
30
0
41
1
10
52.8557337089674
20
1.78622405147584
30
0
41
1
10
53.0323389491236
20
1.68222458486923
30
0
41
1
10
53.1795242795415
20
1.57450755002984
30
0
41
1
10
53.2986263200822
20
1.46744782061992
30
0
41
1
10
53.3337464126663
20
1.4337738545172
30
0
41
1
10
53.3417123807021
20
1.42602350310241
30
0
0
SPLINE
5
13D
100
AcDbEntity
8
1
62
256
6
ByLayer
370
18
48
1
60
0
100
AcDbSpline
70
4
71
3
72
8
73
4
40
0
40
0
40
0
40
0
40
1
40
1
40
1
40
1
41
1
10
50.696559883707
20
1.56873160629189
30
0
41
1
10
50.6826365489501
20
1.56825095493738
30
0
41
1
10
50.6680233567867
20
1.56879399713057
30
0
41
1
10
50.6527178244287
20
1.57063433793712
30
0
0
SPLINE
5
13E
100
AcDbEntity
8
1
62
256
6
ByLayer
370
18
48
1
60
0
100
AcDbSpline
70
4
71
3
72
12
73
8
40
0
40
0
40
0
40
0
40
0.250000000000272
40
0.250000000000272
40
0.500000000000544
40
0.500000000000544
40
1
40
1
40
1
40
1
41
1
10
53.8173023640135
20
0.511316359833273
30
0
41
1
10
53.8144971290225
20
0.509925817937074
30
0
41
1
10
53.811271306481
20
0.509639001492758
30
0
41
1
10
53.805011462378
20
0.509637751346844
30
0
41
1
10
53.8018994989116
20
0.509978964092852
30
0
41
1
10
53.7925867162515
20
0.511442453197844
30
0
41
1
10
53.7865567511456
20
0.51298544174432
30
0
41
1
10
53.7806080906195
20
0.514711701644359
30
0
0
SPLINE
5
13F
100
AcDbEntity
8
1
62
256
6
ByLayer
370
18
48
1
60
0
100
AcDbSpline
70
4
71
3
72
8
73
4
40
0
40
0
40
0
40
0
40
1
40
1
40
1
40
1
41
1
10
52.4780689646328
20
1.85210562119195
30
0
41
1
10
52.4490404191928
20
1.88671357321218
30
0
41
1
10
52.4211191256117
20
1.92210002145365
30
0
41
1
10
52.3941537967407
20
1.95812298422064
30
0
0
SPLINE
5
140
100
AcDbEntity
8
1
62
256
6
ByLayer
370
18
48
1
60
0
100
AcDbSpline
70
4
71
3
72
16
73
12
40
0
40
0
40
0
40
0
40
0.285775440229543
40
0.285775440229543
40
0.464331580172157
40
0.464331580172157
40
0.642887720114771
40
0.642887720114771
40
0.821443860057386
40
0.821443860057386
40
1
40
1
40
1
40
1
41
1
10
53.6960187683592
20
0.496883409103162
30
0
41
1
10
53.7025765715827
20
0.501023745585883
30
0
41
1
10
53.7096336708595
20
0.504987718200425
30
0
41
1
10
53.7220895348807
20
0.510610254490075
30
0
41
1
10
53.7271392061162
20
0.51256601387999
30
0
41
1
10
53.7374359033342
20
0.515671542563211
30
0
41
1
10
53.7427229149903
20
0.516840756485777
30
0
41
1
10
53.7536031033102
20
0.518136167612283
30
0
41
1
10
53.7591315316031
20
0.518235371822044
30
0
41
1
10
53.7699588069742
20
0.517286791201485
30
0
41
1
10
53.7753133571858
20
0.516248196452437
30
0
41
1
10
53.7806080906183
20
0.5147117016447
30
0
0
SPLINE
5
141
100
AcDbEntity
8
1
62
256
6
ByLayer
370
18
48
1
60
0
100
AcDbSpline
70
4
71
1
72
4
73
2
40
0
40
0
40
1
40
1
41
1
10
50.8557960014097
20
-1.53654148997697
30
0
41
1
10
50.8558717332226
20
-1.53638562358742
30
0
0
SPLINE
5
142
100
AcDbEntity
8
1
62
256
6
ByLayer
370
18
48
1
60
0
100
AcDbSpline
70
4
71
3
72
8
73
4
40
0
40
0
40
0
40
0
40
1
40
1
40
1
40
1
41
1
10
52.9234144419753
20
1.19508194942912
30
0
41
1
10
52.9581112221881
20
1.14075613624956
30
0
41
1
10
52.994072705613
20
1.08715522508464
30
0
41
1
10
53.0313636917251
20
1.03431635766807
30
0
0
SPLINE
5
143
100
AcDbEntity
8
1
62
256
6
ByLayer
370
18
48
1
60
0
100
AcDbSpline
70
4
71
3
72
8
73
4
40
0
40
0
40
0
40
0
40
1
40
1
40
1
40
1
41
1
10
53.9839114088793
20
-0.0388201218364088
30
0
41
1
10
53.986734135472
20
-0.0402377544064905
30
0
41
1
10
53.989522717809
20
-0.0416550376894236
30
0
41
1
10
53.9922773528297
20
-0.043071967099678
30
0
0
SPLINE
5
144
100
AcDbEntity
8
1
62
256
6
ByLayer
370
18
48
1
60
0
100
AcDbSpline
70
4
71
3
72
16
73
12
40
0
40
0
40
0
40
0
40
0.250000000000017
40
0.250000000000017
40
0.500000000000034
40
0.500000000000034
40
0.625000000000043
40
0.625000000000043
40
0.750000000000052
40
0.750000000000052
40
1
40
1
40
1
40
1
41
1
10
50.8557960014097
20
-1.53654148997697
30
0
41
1
10
50.8896188889593
20
-1.56097747978461
30
0
41
1
10
50.9233895724454
20
-1.58484588919276
30
0
41
1
10
50.9911730746757
20
-1.6312466223518
30
0
41
1
10
51.0251815609401
20
-1.65378235777803
30
0
41
1
10
51.0765570272504
20
-1.68644619134332
30
0
41
1
10
51.0937426689572
20
-1.69714327075337
30
0
41
1
10
51.1282604199758
20
-1.71813469372333
30
0
41
1
10
51.1455953384173
20
-1.72843159028963
30
0
41
1
10
51.1975454255946
20
-1.758514145731
30
0
41
1
10
51.2322165785826
20
-1.77754970381488
30
0
41
1
10
51.2670372806809
20
-1.79553567716204
30
0
0
SPLINE
5
145
100
AcDbEntity
8
1
62
256
6
ByLayer
370
18
48
1
60
0
100
AcDbSpline
70
4
71
3
72
8
73
4
40
0
40
0
40
0
40
0
40
1
40
1
40
1
40
1
41
1
10
50.8557960014097
20
-1.53654148997705
30
0
41
1
10
50.8548642299076
20
-1.53583775138498
30
0
41
1
10
50.8539322298276
20
-1.53513446401493
30
0
41
1
10
50.853
20
-1.53443163017891
30
0
0
SPLINE
5
146
100
AcDbEntity
8
1
62
256
6
ByLayer
370
18
48
1
60
0
100
AcDbSpline
70
4
71
3
72
8
73
4
40
0
40
0
40
0
40
0
40
1
40
1
40
1
40
1
41
1
10
52.9234144419674
20
1.1950819494246
30
0
41
1
10
52.8909583226379
20
1.19094556405182
30
0
41
1
10
52.8584156567423
20
1.18742241994431
30
0
41
1
10
52.825795087524
20
1.1844512738453
30
0
0
SPLINE
5
147
100
AcDbEntity
8
1
62
256
6
ByLayer
370
18
48
1
60
0
100
AcDbSpline
70
4
71
3
72
8
73
4
40
0
40
0
40
0
40
0
40
1
40
1
40
1
40
1
41
1
10
52.7576319640801
20
1.3063805935011
30
0
41
1
10
52.811110084929
20
1.26673910570307
30
0
41
1
10
52.866151663874
20
1.22981444273592
30
0
41
1
10
52.9234144419725
20
1.19508194942884
30
0
0
SPLINE
5
148
100
AcDbEntity
8
1
62
256
6
ByLayer
370
18
48
1
60
0
100
AcDbSpline
70
4
71
3
72
26
73
22
40
0
40
0
40
0
40
0
40
0.124999999999976
40
0.124999999999976
40
0.187499999999979
40
0.187499999999979
40
0.249999999999983
40
0.249999999999983
40
0.37499999999999
40
0.37499999999999
40
0.499999999999998
40
0.499999999999998
40
0.625000000000005
40
0.625000000000005
40
0.750000000000012
40
0.750000000000012
40
0.875000000000019
40
0.875000000000019
40
0.93750000000001
40
0.93750000000001
40
1
40
1
40
1
40
1
41
1
10
52.7576319113715
20
1.30638063257214
30
0
41
1
10
52.7383090996392
20
1.32070396784377
30
0
41
1
10
52.721415230431
20
1.33672607376067
30
0
41
1
10
52.6987471069034
20
1.3631964889891
30
0
41
1
10
52.6916422197734
20
1.37242970321651
30
0
41
1
10
52.6782103194876
20
1.39171769852371
30
0
41
1
10
52.6718628269931
20
1.40181039617559
30
0
41
1
10
52.6539699653424
20
1.43303144904769
30
0
41
1
10
52.643605078884
20
1.45499916768671
30
0
41
1
10
52.6247090348102
20
1.50096482810372
30
0
41
1
10
52.6161839233831
20
1.52496526246423
30
0
41
1
10
52.599812040501
20
1.57462850929281
30
0
41
1
10
52.5919518792859
20
1.60037323878555
30
0
41
1
10
52.5758163018191
20
1.65246028317833
30
0
41
1
10
52.5675671583247
20
1.67883275450515
30
0
41
1
10
52.5489848579239
20
1.73125405112532
30
0
41
1
10
52.538667503427
20
1.75731920773441
30
0
41
1
10
52.51907738971
20
1.79456685628705
30
0
41
1
10
52.5118346084304
20
1.80665535989263
30
0
41
1
10
52.4958221264674
20
1.83006928589032
30
0
41
1
10
52.4871494192977
20
1.84127993115226
30
0
41
1
10
52.4780689646294
20
1.85210562119212
30
0
0
SPLINE
5
149
100
AcDbEntity
8
1
62
256
6
ByLayer
370
18
48
1
60
0
100
AcDbSpline
70
4
71
1
72
4
73
2
40
0
40
0
40
1
40
1
41
1
10
50.8558717332226
20
-1.53638562358742
30
0
41
1
10
50.8959319034417
20
-1.46992861262123
30
0
0
SPLINE
5
14A
100
AcDbEntity
8
1
62
256
6
ByLayer
370
18
48
1
60
0
100
AcDbSpline
70
4
71
3
72
8
73
4
40
0
40
0
40
0
40
0
40
1
40
1
40
1
40
1
41
1
10
53.8726235049216
20
-0.511618797092098
30
0
41
1
10
53.8787414788042
20
-0.52322278324533
30
0
41
1
10
53.8848336437846
20
-0.534796203462093
30
0
41
1
10
53.8909011729459
20
-0.546340447045793
30
0
0
SPLINE
5
14B
100
AcDbEntity
8
1
62
256
6
ByLayer
370
18
48
1
60
0
100
AcDbSpline
70
4
71
3
72
8
73
4
40
0
40
0
40
0
40
0
40
1
40
1
40
1
40
1
41
1
10
50.853
20
-1.53443163017863
30
0
41
1
10
50.8173105688648
20
-1.51004887132848
30
0
41
1
10
50.7818924838788
20
-1.48694903753042
30
0
41
1
10
50.7468046694689
20
-1.46541072356959
30
0
0
SPLINE
5
14C
100
AcDbEntity
8
1
62
256
6
ByLayer
370
18
48
1
60
0
100
AcDbSpline
70
4
71
3
72
8
73
4
40
0
40
0
40
0
40
0
40
1
40
1
40
1
40
1
41
1
10
50.4082698811124
20
-1.49585229415987
30
0
41
1
10
50.5200585494814
20
-1.48383279470241
30
0
41
1
10
50.6329096156284
20
-1.47367062721301
30
0
41
1
10
50.7468046694688
20
-1.46541072356959
30
0
0
SPLINE
5
14D
100
AcDbEntity
8
1
62
256
6
ByLayer
370
18
48
1
60
0
100
AcDbSpline
70
4
71
3
72
8
73
4
40
0
40
0
40
0
40
0
40
1
40
1
40
1
40
1
41
1
10
50.8530000000001
20
1.51574444028083
30
0
41
1
10
50.8007785347636
20
1.53319410805034
30
0
41
1
10
50.7486318866307
20
1.55085665975622
30
0
41
1
10
50.696559883707
20
1.56873160629189
30
0
0
SPLINE
5
14E
100
AcDbEntity
8
1
62
256
6
ByLayer
370
18
48
1
60
0
100
AcDbSpline
70
4
71
3
72
10
73
6
40
0
40
0
40
0
40
0
40
0.5
40
0.5
40
1
40
1
40
1
40
1
41
1
10
50.696559883707
20
1.56873160629192
30
0
41
1
10
50.6901999111863
20
1.5640946141838
30
0
41
1
10
50.6835291196014
20
1.55964516050682
30
0
41
1
10
50.6691499908764
20
1.55137357922064
30
0
41
1
10
50.6614794411825
20
1.54752849806826
30
0
41
1
10
50.6527178244218
20
1.54434434812086
30
0
0
SPLINE
5
14F
100
AcDbEntity
8
1
62
256
6
ByLayer
370
18
48
1
60
0
100
AcDbSpline
70
4
71
3
72
8
73
4
40
0
40
0
40
0
40
0
40
1
40
1
40
1
40
1
41
1
10
52.9687755559357
20
-1.54787043044652
30
0
41
1
10
52.9542424482855
20
-1.58843552407782
30
0
41
1
10
52.9385312109741
20
-1.62901998427748
30
0
41
1
10
52.9213467365618
20
-1.6696286656362
30
0
0
SPLINE
5
150
100
AcDbEntity
8
1
62
256
6
ByLayer
370
18
48
1
60
0
100
AcDbSpline
70
4
71
3
72
8
73
4
40
0
40
0
40
0
40
0
40
1
40
1
40
1
40
1
41
1
10
50.9228506901393
20
-1.18527769157547
30
0
41
1
10
50.9531684481765
20
-1.21954309118331
30
0
41
1
10
50.983032597739
20
-1.25401605841842
30
0
41
1
10
51.0124488894748
20
-1.28869396183009
30
0
0
SPLINE
5
151
100
AcDbEntity
8
1
62
256
6
ByLayer
370
18
48
1
60
0
100
AcDbSpline
70
4
71
3
72
20
73
16
40
0
40
0
40
0
40
0
40
0.250000000000077
40
0.250000000000077
40
0.500000000000154
40
0.500000000000154
40
0.625000000000116
40
0.625000000000116
40
0.750000000000077
40
0.750000000000077
40
0.812500000000058
40
0.812500000000058
40
0.875000000000039
40
0.875000000000039
40
1
40
1
40
1
40
1
41
1
10
52.921561557513
20
-1.49058673481474
30
0
41
1
10
52.9281749045931
20
-1.49247441920178
30
0
41
1
10
52.9345531563681
20
-1.49472079259371
30
0
41
1
10
52.9466116313505
20
-1.50027853383364
30
0
41
1
10
52.9523271901991
20
-1.50360147546209
30
0
41
1
10
52.9597464711085
20
-1.50979717066045
30
0
41
1
10
52.9620327464766
20
-1.51206939356453
30
0
41
1
10
52.9660642726282
20
-1.51721328477251
30
0
41
1
10
52.9678287232781
20
-1.52010925662262
30
0
41
1
10
52.9697618777425
20
-1.52508920054456
30
0
41
1
10
52.970279137324
20
-1.52683746713265
30
0
41
1
10
52.9710016308268
20
-1.53055069427933
30
0
41
1
10
52.9712064281062
20
-1.53253705603399
30
0
41
1
10
52.9712279741265
20
-1.53872824197174
30
0
41
1
10
52.9704524143974
20
-1.54319031670039
30
0
41
1
10
52.9687755414792
20
-1.54787043098398
30
0
0
SPLINE
5
152
100
AcDbEntity
8
1
62
256
6
ByLayer
370
18
48
1
60
0
100
AcDbSpline
70
4
71
3
72
8
73
4
40
0
40
0
40
0
40
0
40
1
40
1
40
1
40
1
41
1
10
53.8072217691063
20
-0.673875158191606
30
0
41
1
10
53.7861080337786
20
-0.715178681797767
30
0
41
1
10
53.7641702407128
20
-0.755675621826299
30
0
41
1
10
53.7414272627584
20
-0.795384450927116
30
0
0
SPLINE
5
153
100
AcDbEntity
8
1
62
256
6
ByLayer
370
18
48
1
60
0
100
AcDbSpline
70
4
71
3
72
26
73
22
40
0
40
0
40
0
40
0
40
0.124999999999994
40
0.124999999999994
40
0.187499999999998
40
0.187499999999998
40
0.250000000000003
40
0.250000000000003
40
0.375000000000011
40
0.375000000000011
40
0.437500000000015
40
0.437500000000015
40
0.500000000000019
40
0.500000000000019
40
0.750000000000035
40
0.750000000000035
40
0.812500000000026
40
0.812500000000026
40
0.875000000000018
40
0.875000000000018
40
1
40
1
40
1
40
1
41
1
10
53.741427262756
20
-0.795384450931181
30
0
41
1
10
53.7220814973769
20
-0.840611807239839
30
0
41
1
10
53.7003652290674
20
-0.885842767727581
30
0
41
1
10
53.6639184014388
20
-0.953695096201926
30
0
41
1
10
53.6511062024122
20
-0.976333569388515
30
0
41
1
10
53.6245833646237
20
-1.02090579007032
30
0
41
1
10
53.6108271166235
20
-1.04292867947356
30
0
41
1
10
53.5681177450217
20
-1.10823101574479
30
0
41
1
10
53.5377335175137
20
-1.15074919673819
30
0
41
1
10
53.4890791109981
20
-1.21288911259876
30
0
41
1
10
53.4723455734431
20
-1.2333282533121
30
0
41
1
10
53.437835300851
20
-1.27365161301714
30
0
41
1
10
53.4200037842215
20
-1.29359789934509
30
0
41
1
10
53.3296301952391
20
-1.39032893100458
30
0
41
1
10
53.2525664479694
20
-1.45921871126359
30
0
41
1
10
53.1504153480536
20
-1.53495224279567
30
0
41
1
10
53.1296725586795
20
-1.54957607199219
30
0
41
1
10
53.0882566621242
20
-1.57729107960137
30
0
41
1
10
53.0675014051994
20
-1.59044550699011
30
0
41
1
10
53.0050973085806
20
-1.62785306267526
30
0
41
1
10
52.9633114216125
20
-1.65006946593036
30
0
41
1
10
52.9213467365757
20
-1.66962866563597
30
0
0
SPLINE
5
154
100
AcDbEntity
8
1
62
256
6
ByLayer
370
18
48
1
60
0
100
AcDbSpline
70
4
71
3
72
52
73
48
40
0
40
0
40
0
40
0
40
0.0312500000000091
40
0.0312500000000091
40
0.0625000000000182
40
0.0625000000000182
40
0.125000000000052
40
0.125000000000052
40
0.187500000000087
40
0.187500000000087
40
0.218750000000104
40
0.218750000000104
40
0.250000000000121
40
0.250000000000121
40
0.312500000000172
40
0.312500000000172
40
0.32031250000018
40
0.32031250000018
40
0.328125000000188
40
0.328125000000188
40
0.343750000000189
40
0.343750000000189
40
0.375000000000189
40
0.375000000000189
40
0.437500000000191
40
0.437500000000191
40
0.468750000000183
40
0.468750000000183
40
0.500000000000176
40
0.500000000000176
40
0.625000000000146
40
0.625000000000146
40
0.687500000000131
40
0.687500000000131
40
0.718750000000123
40
0.718750000000123
40
0.750000000000116
40
0.750000000000116
40
0.812500000000087
40
0.812500000000087
40
0.875000000000058
40
0.875000000000058
40
0.937500000000029
40
0.937500000000029
40
0.968750000000015
40
0.968750000000015
40
1
40
1
40
1
40
1
41
1
10
52.9213467365754
20
-1.66962866563446
30
0
41
1
10
52.9006895659425
20
-1.68131279737361
30
0
41
1
10
52.8798039693058
20
-1.69253557801946
30
0
41
1
10
52.8375594697578
20
-1.71403627483431
30
0
41
1
10
52.8161449852758
20
-1.72433840024522
30
0
41
1
10
52.751546853078
20
-1.75360843010029
30
0
41
1
10
52.7083796713142
20
-1.7707901593495
30
0
41
1
10
52.6216961644115
20
-1.80074397534602
30
0
41
1
10
52.5781819064832
20
-1.8135247378824
30
0
41
1
10
52.512525994277
20
-1.82937849899426
30
0
41
1
10
52.4905123117072
20
-1.83411928763118
30
0
41
1
10
52.4467192202514
20
-1.84239878396284
30
0
41
1
10
52.4249383527599
20
-1.8459392014523
30
0
41
1
10
52.3598866578492
20
-1.85485013670728
30
0
41
1
10
52.3168982178895
20
-1.85856987968177
30
0
41
1
10
52.2688464950903
20
-1.86026881657853
30
0
41
1
10
52.2635118302354
20
-1.86042229397796
30
0
41
1
10
52.2528509948875
20
-1.86065821702033
30
0
41
1
10
52.2475357553025
20
-1.86064751877424
30
0
41
1
10
52.2314908938543
20
-1.86145420064739
30
0
41
1
10
52.2208233849645
20
-1.86175443524635
30
0
41
1
10
52.1888416129224
20
-1.86247135117074
30
0
41
1
10
52.1675824439177
20
-1.86241097618142
30
0
41
1
10
52.103946307583
20
-1.86071902343164
30
0
41
1
10
52.0617081637328
20
-1.85760506903654
30
0
41
1
10
51.9985168744961
20
-1.84985550766456
30
0
41
1
10
51.9774479743486
20
-1.84676786270393
30
0
41
1
10
51.9356852305057
20
-1.83967344268206
30
0
41
1
10
51.9149552291227
20
-1.83565911058739
30
0
41
1
10
51.8120130503192
20
-1.81325981607492
30
0
41
1
10
51.731988866594
20
-1.78769725983975
30
0
41
1
10
51.6143850752384
20
-1.73855955685019
30
0
41
1
10
51.5755850920883
20
-1.72039885613952
30
0
41
1
10
51.5179014593701
20
-1.69046245931258
30
0
41
1
10
51.4987651806306
20
-1.68003376775323
30
0
41
1
10
51.4609459663089
20
-1.65848328280612
30
0
41
1
10
51.4422218829774
20
-1.64734302655114
30
0
41
1
10
51.3865677221215
20
-1.61286538327926
30
0
41
1
10
51.3501502291935
20
-1.58847991310563
30
0
41
1
10
51.2787942164516
20
-1.53664248960342
30
0
41
1
10
51.2438464806553
20
-1.50920385792497
30
0
41
1
10
51.175322248231
20
-1.45132026108499
30
0
41
1
10
51.1417381674701
20
-1.42088710284381
30
0
41
1
10
51.092355910432
20
-1.37296176761791
30
0
41
1
10
51.0760385054693
20
-1.35658637355692
30
0
41
1
10
51.0438781511799
20
-1.3231418265249
30
0
41
1
10
51.0280368988237
20
-1.30609082031566
30
0
41
1
10
51.0124488894748
20
-1.28869396183006
30
0
0
SPLINE
5
155
100
AcDbEntity
8
1
62
256
6
ByLayer
370
18
48
1
60
0
100
AcDbSpline
70
4
71
1
72
4
73
2
40
0
40
0
40
1
40
1
41
1
10
50.8959319034417
20
-1.46992861262123
30
0
41
1
10
51.0124488894748
20
-1.28869396183009
30
0
0
SPLINE
5
156
100
AcDbEntity
8
1
62
256
6
ByLayer
370
18
48
1
60
0
100
AcDbSpline
70
4
71
3
72
30
73
26
40
0
40
0
40
0
40
0
40
0.027466109298008
40
0.0623243382432065
40
0.10478182056613
40
0.169370234069654
40
0.234513474128382
40
0.277986130584421
40
0.32135288009844
40
0.386290500607775
40
0.515664978190095
40
0.587268790244019
40
0.615896995885524
40
0.673088697507913
40
0.723397330505523
40
0.768467933219434
40
0.818143082955809
40
0.833988451196769
40
0.841360393688273
40
0.843063733487505
40
0.844757158014709
40
0.848018223768235
40
0.89307815099789
40
0.954981878244106
40
1
40
1
40
1
40
1
41
1
10
50.8959319034417
20
-1.46992861262123
30
0
41
1
10
50.910753133533
20
-1.48062904071753
30
0
41
1
10
50.9442064994364
20
-1.50469874154896
30
0
41
1
10
50.9998768878544
20
-1.54416195311049
30
0
41
1
10
51.0746504637468
20
-1.59571455505207
30
0
41
1
10
51.1645723680557
20
-1.65439474111386
30
0
41
1
10
51.2547546828132
20
-1.70855772237715
30
0
41
1
10
51.3342012590516
20
-1.75235090145768
30
0
41
1
10
51.4144281292578
20
-1.79277276639505
30
0
41
1
10
51.5411569565194
20
-1.84922838853612
30
0
41
1
10
51.6855474331603
20
-1.89832318928953
30
0
41
1
10
51.8116342314928
20
-1.92734713626564
30
0
41
1
10
51.898296809831
20
-1.94251498704125
30
0
41
1
10
51.9734746462832
20
-1.95204857125606
30
0
41
1
10
52.0579154367209
20
-1.95762479651398
30
0
41
1
10
52.1380442196388
20
-1.95861357887426
30
0
41
1
10
52.1989854312671
20
-1.95609175270519
30
0
41
1
10
52.2389112727306
20
-1.9529643544935
30
0
41
1
10
52.2525621420217
20
-1.95171244896392
30
0
41
1
10
52.2584466088745
20
-1.95114259619302
30
0
41
1
10
52.2620692400851
20
-1.95078738504196
30
0
41
1
10
52.2904388656071
20
-1.94788547917412
30
0
41
1
10
52.3525667451527
20
-1.93985022497361
30
0
41
1
10
52.4375835940503
20
-1.9237263272106
30
0
41
1
10
52.4969736606197
20
-1.90886507915872
30
0
41
1
10
52.5218877689168
20
-1.90199743040554
30
0
0
SPLINE
5
157
100
AcDbEntity
8
1
62
256
6
ByLayer
370
18
48
1
60
0
100
AcDbSpline
70
4
71
3
72
8
73
4
40
0
40
0
40
0
40
0
40
1
40
1
40
1
40
1
41
1
10
50.9228506901393
20
-1.18527769157547
30
0
41
1
10
50.899529251735
20
-1.18716829951015
30
0
41
1
10
50.8762452613006
20
-1.18908965006395
30
0
41
1
10
50.8529999999999
20
-1.19103926934329
30
0
0
SPLINE
5
158
100
AcDbEntity
8
1
62
256
6
ByLayer
370
18
48
1
60
0
100
AcDbSpline
70
4
71
3
72
10
73
6
40
0
40
0
40
0
40
0
40
0.5
40
0.5
40
1
40
1
40
1
40
1
41
1
10
50.853
20
1.25958644325402
30
0
41
1
10
50.8351626775039
20
1.24905990526395
30
0
41
1
10
50.8173872340999
20
1.23805673214161
30
0
41
1
10
50.7819713814059
20
1.21501026071664
30
0
41
1
10
50.7642986020736
20
1.20294390607759
30
0
41
1
10
50.7467791998367
20
1.19035191086519
30
0
0
SPLINE
5
159
100
AcDbEntity
8
1
62
256
6
ByLayer
370
18
48
1
60
0
100
AcDbSpline
70
4
71
3
72
8
73
4
40
0
40
0
40
0
40
0
40
1
40
1
40
1
40
1
41
1
10
50.4081810000265
20
1.32701480143209
30
0
41
1
10
50.5199900689512
20
1.2787242096652
30
0
41
1
10
50.632862266437
20
1.23317795396716
30
0
41
1
10
50.7467791998366
20
1.19035191086519
30
0
0
SPLINE
5
15A
100
AcDbEntity
8
1
62
256
6
ByLayer
370
18
48
1
60
0
100
AcDbSpline
70
4
71
3
72
10
73
6
40
0
40
0
40
0
40
0
40
0.5
40
0.5
40
1
40
1
40
1
40
1
41
1
10
52.8603658287035
20
-1.46131376203127
30
0
41
1
10
52.8690862672406
20
-1.4682175639073
30
0
41
1
10
52.8787856771683
20
-1.4738849943669
30
0
41
1
10
52.8993759280179
20
-1.48346258963264
30
0
41
1
10
52.9102659716039
20
-1.48736181511057
30
0
41
1
10
52.9215615625092
20
-1.49058673626121
30
0
0
SPLINE
5
15B
100
AcDbEntity
8
1
62
256
6
ByLayer
370
18
48
1
60
0
100
AcDbSpline
70
4
71
3
72
10
73
6
40
0
40
0
40
0
40
0
40
0.5
40
0.5
40
1
40
1
40
1
40
1
41
1
10
50.6965479951125
20
-1.20838250344408
30
0
41
1
10
50.6901896185104
20
-1.21477375328823
30
0
41
1
10
50.6835205102446
20
-1.221137747992
30
0
41
1
10
50.6691451664074
20
-1.23377591128934
30
0
41
1
10
50.6614766648638
20
-1.24005325488267
30
0
41
1
10
50.6527178244218
20
-1.2462372549688
30
0
0
SPLINE
5
15C
100
AcDbEntity
8
1
62
256
6
ByLayer
370
18
48
1
60
0
100
AcDbSpline
70
4
71
3
72
10
73
6
40
0
40
0
40
0
40
0
40
0.5
40
0.5
40
1
40
1
40
1
40
1
41
1
10
52.9154494649235
20
-1.19733847159037
30
0
41
1
10
52.9025791422319
20
-1.24226175184253
30
0
41
1
10
52.8912702382221
20
-1.28689303325331
30
0
41
1
10
52.8725953446268
20
-1.37513310545899
30
0
41
1
10
52.8652499767419
20
-1.41863135726362
30
0
41
1
10
52.8603658222762
20
-1.4613137616808
30
0
0
SPLINE
5
15D
100
AcDbEntity
8
1
62
256
6
ByLayer
370
18
48
1
60
0
100
AcDbSpline
70
4
71
3
72
11
73
7
40
0
40
0
40
0
40
0
40
0.118154013415737
40
0.412102675610492
40
0.608068450406994
40
1
40
1
40
1
40
1
41
1
10
52.860365829102
20
-1.46131376274127
30
0
41
1
10
52.781306386068
20
-1.4523724142243
30
0
41
1
10
52.505559443034
20
-1.41722167647515
30
0
41
0.999999999999999
10
52.0986874999999
20
-1.3453322171863
30
0
41
1
10
51.508625
20
-1.20909693374722
30
0
41
1
10
51.11525
20
-1.09429421489602
30
0
41
1
10
50.853
20
-1.00848150796679
30
0
0
SPLINE
5
15E
100
AcDbEntity
8
1
62
256
6
ByLayer
370
18
48
1
60
0
100
AcDbSpline
70
4
71
3
72
9
73
5
40
0
40
0
40
0
40
0
40
0.535276944460728
40
1
40
1
40
1
40
1
41
1
10
52.8603658290987
20
1.06950228095636
30
0
41
1
10
52.7813063860658
20
1.09390211852494
30
0
41
1
10
52.6336081826384
20
1.13793542404613
30
0
41
1
10
52.4859099792111
20
1.1788725169709
30
0
41
1
10
52.4172712188167
20
1.19719628167789
30
0
0
SPLINE
5
15F
100
AcDbEntity
8
1
62
256
6
ByLayer
370
18
48
1
60
0
100
AcDbSpline
70
4
71
3
72
14
73
10
40
0
40
0
40
0
40
0
40
0.25
40
0.25
40
0.5
40
0.5
40
0.75
40
0.75
40
1
40
1
40
1
40
1
41
1
10
52.9012789346494
20
-1.1451967883612
30
0
41
1
10
52.9042664693427
20
-1.14810990229532
30
0
41
1
10
52.9069854791621
20
-1.15128256036175
30
0
41
1
10
52.9117101910662
20
-1.15831733088817
30
0
41
1
10
52.9137300779944
20
-1.16220289889077
30
0
41
1
10
52.9166791105461
20
-1.17085905229669
30
0
41
1
10
52.9175966568246
20
-1.17561154359908
30
0
41
1
10
52.9178182713365
20
-1.18599002660014
30
0
41
1
10
52.9171276547278
20
-1.19147935299679
30
0
41
1
10
52.9154494550638
20
-1.19733847218402
30
0
0
SPLINE
5
160
100
AcDbEntity
8
1
62
256
6
ByLayer
370
18
48
1
60
0
100
AcDbSpline
70
4
71
3
72
8
73
4
40
0
40
0
40
0
40
0
40
1
40
1
40
1
40
1
41
1
10
52.8757962082204
20
0.127503321820626
30
0
41
1
10
52.899820444949
20
0.119882203989846
30
0
41
1
10
52.9244597559492
20
0.112332425103915
30
0
41
1
10
52.9497517892111
20
0.104858351737704
30
0
0
SPLINE
5
161
100
AcDbEntity
8
1
62
256
6
ByLayer
370
18
48
1
60
0
100
AcDbSpline
70
4
71
3
72
8
73
4
40
0
40
0
40
0
40
0
40
1
40
1
40
1
40
1
41
1
10
53.6400691119045
20
-0.22409063503116
30
0
41
1
10
53.64049865711
20
-0.224400724583802
30
0
41
1
10
53.6409282553671
20
-0.224710739144058
30
0
41
1
10
53.6413579066313
20
-0.225020678774797
30
0
0
SPLINE
5
162
100
AcDbEntity
8
1
62
256
6
ByLayer
370
18
48
1
60
0
100
AcDbSpline
70
4
71
3
72
8
73
4
40
0
40
0
40
0
40
0
40
1
40
1
40
1
40
1
41
1
10
53.6400691119046
20
-0.224090635031189
30
0
41
1
10
53.6294146579934
20
-0.200049624477401
30
0
41
1
10
53.6187110895849
20
-0.175941096460974
30
0
41
1
10
53.6079549607759
20
-0.151760313915702
30
0
0
SPLINE
5
163
100
AcDbEntity
8
1
62
256
6
ByLayer
370
18
48
1
60
0
100
AcDbSpline
70
4
71
3
72
8
73
4
40
0
40
0
40
0
40
0
40
1
40
1
40
1
40
1
41
1
10
52.825795087524
20
1.18445127384527
30
0
41
1
10
52.8525213994962
20
1.15721368511498
30
0
41
1
10
52.8779301615882
20
1.1307239974943
30
0
41
1
10
52.9012789330909
20
1.1054036540252
30
0
0
SPLINE
5
164
100
AcDbEntity
8
1
62
256
6
ByLayer
370
18
48
1
60
0
100
AcDbSpline
70
4
71
3
72
14
73
10
40
0
40
0
40
0
40
0
40
0.25
40
0.25
40
0.5
40
0.5
40
0.75
40
0.75
40
1
40
1
40
1
40
1
41
1
10
52.9012789346495
20
1.10540365360606
30
0
41
1
10
52.9042664693428
20
1.10216388613861
30
0
41
1
10
52.9069854791622
20
1.09909775985906
30
0
41
1
10
52.9117101910662
20
1.09342676988447
30
0
41
1
10
52.9137300779944
20
1.09080435298677
30
0
41
1
10
52.9166791105461
20
1.08630300780464
30
0
41
1
10
52.9175966568247
20
1.08443818767708
30
0
41
1
10
52.9178182713366
20
1.08190657936166
30
0
41
1
10
52.9171276547278
20
1.08126600932005
30
0
41
1
10
52.9154494550638
20
1.08139590568555
30
0
0
SPLINE
5
165
100
AcDbEntity
8
1
62
256
6
ByLayer
370
18
48
1
60
0
100
AcDbSpline
70
4
71
3
72
10
73
6
40
0
40
0
40
0
40
0
40
0.5
40
0.5
40
1
40
1
40
1
40
1
41
1
10
52.9154494649235
20
1.08139590110517
30
0
41
1
10
52.9025791422319
20
1.08239458082519
30
0
41
1
10
52.891270238222
20
1.0821091247652
30
0
41
1
10
52.8725953446267
20
1.07835980151242
30
0
41
1
10
52.8652499767419
20
1.07490302433527
30
0
41
1
10
52.8603658222762
20
1.06950228310805
30
0
0
SPLINE
5
166
100
AcDbEntity
8
1
62
256
6
ByLayer
370
18
48
1
60
0
100
AcDbSpline
70
4
71
3
72
10
73
6
40
0
40
0
40
0
40
0
40
0.5
40
0.5
40
1
40
1
40
1
40
1
41
1
10
52.8603658287003
20
1.06950227961863
30
0
41
1
10
52.8690862672378
20
1.0604062018497
30
0
41
1
10
52.8787856771673
20
1.05074248585785
30
0
41
1
10
52.8993759280172
20
1.03078117866187
30
0
41
1
10
52.910265971601
20
1.02048674113257
30
0
41
1
10
52.9215615625066
20
1.00999370972136
30
0
0
SPLINE
5
167
100
AcDbEntity
8
1
62
256
6
ByLayer
370
18
48
1
60
0
100
AcDbSpline
70
4
71
3
72
20
73
16
40
0
40
0
40
0
40
0
40
0.249999999999962
40
0.249999999999962
40
0.499999999999924
40
0.499999999999924
40
0.624999999999981
40
0.624999999999981
40
0.750000000000039
40
0.750000000000039
40
0.812500000000029
40
0.812500000000029
40
0.875000000000019
40
0.875000000000019
40
1
40
1
40
1
40
1
41
1
10
52.921561557513
20
1.0099937143859
30
0
41
1
10
52.9281749045931
20
1.0038503502077
30
0
41
1
10
52.9345531563681
20
0.997829371681974
30
0
41
1
10
52.9466116313506
20
0.986150793644924
30
0
41
1
10
52.9523271901992
20
0.980460034246306
30
0
41
1
10
52.9597464711087
20
0.972648563274163
30
0
41
1
10
52.9620327464766
20
0.970159588832416
30
0
41
1
10
52.9660642726282
20
0.965514242798747
30
0
41
1
10
52.9678287232781
20
0.963335791726166
30
0
41
1
10
52.9697618777425
20
0.96054161615902
30
0
41
1
10
52.9702791373241
20
0.959700228558688
30
0
41
1
10
52.9710016308269
20
0.958238366507828
30
0
41
1
10
52.9712064281062
20
0.957613444305025
30
0
41
1
10
52.9712279741264
20
0.956198908043177
30
0
41
1
10
52.9704524143974
20
0.95586338928544
30
0
41
1
10
52.9687755414792
20
0.956257965261045
30
0
0
SPLINE
5
168
100
AcDbEntity
8
1
62
256
6
ByLayer
370
18
48
1
60
0
100
AcDbSpline
70
4
71
3
72
14
73
10
40
0
40
0
40
0
40
0
40
0.499999999999979
40
0.499999999999979
40
0.624999999999974
40
0.624999999999974
40
0.749999999999968
40
0.749999999999968
40
1
40
1
40
1
40
1
41
1
10
53.0313636917249
20
1.03431635766785
30
0
41
1
10
53.1282155517136
20
0.953670914001464
30
0
41
1
10
53.2280421857737
20
0.873196958480065
30
0
41
1
10
53.3557296066353
20
0.772771929673809
30
0
41
1
10
53.3814129684551
20
0.752695333387209
30
0
41
1
10
53.4330534545135
20
0.712557922519892
30
0
41
1
10
53.4590520333352
20
0.69246537056182
30
0
41
1
10
53.5370420100514
20
0.632509277582443
30
0
41
1
10
53.5890525874854
20
0.592945208653219
30
0
41
1
10
53.6410774506461
20
0.553717730484721
30
0
0
SPLINE
5
169
100
AcDbEntity
8
1
62
256
6
ByLayer
370
18
48
1
60
0
100
AcDbSpline
70
4
71
3
72
8
73
4
40
0
40
0
40
0
40
0
40
1
40
1
40
1
40
1
41
1
10
50.8530000000001
20
-1.19103926934329
30
0
41
1
10
50.8007749622426
20
-1.19639137966601
30
0
41
1
10
50.7486243498064
20
-1.20217277990099
30
0
41
1
10
50.6965479951125
20
-1.20838250344408
30
0
0
SPLINE
5
16A
100
AcDbEntity
8
1
62
256
6
ByLayer
370
18
48
1
60
0
100
AcDbSpline
70
4
71
3
72
10
73
6
40
0
40
0
40
0
40
0
40
0.5
40
0.5
40
1
40
1
40
1
40
1
41
1
10
50.6965479951125
20
-1.20838250344408
30
0
41
1
10
50.6895908287653
20
-1.20438586180089
30
0
41
1
10
50.6824307090937
20
-1.20076071921446
30
0
41
1
10
50.667830840944
20
-1.19442247512782
30
0
41
1
10
50.660367868844
20
-1.1916948237631
30
0
41
1
10
50.6527178244285
20
-1.18947372258492
30
0
0
SPLINE
5
16B
100
AcDbEntity
8
1
62
256
6
ByLayer
370
18
48
1
60
0
100
AcDbSpline
70
4
71
3
72
11
73
7
40
0
40
0
40
0
40
0
40
0.122649886685629
40
0.415099924457086
40
0.610066616304724
40
1
40
1
40
1
40
1
41
1
10
52.8706523295959
20
-0.384132581103472
30
0
41
1
10
52.7881640530639
20
-0.349225896911633
30
0
41
1
10
52.5089882765319
20
-0.229976681037158
30
0
41
0.999999999999999
10
52.0986874999999
20
-0.0507041086648599
30
0
41
1
10
51.508625
20
0.207549384722938
30
0
41
1
10
51.11525
20
0.376820571274578
30
0
41
1
10
50.853
20
0.485830402369089
30
0
0
SPLINE
5
16C
100
AcDbEntity
8
1
62
256
6
ByLayer
370
18
48
1
60
0
100
AcDbSpline
70
4
71
3
72
8
73
4
40
0
40
0
40
0
40
0
40
1
40
1
40
1
40
1
41
1
10
52.9687755559366
20
0.956257957133317
30
0
41
1
10
52.9542432739622
20
0.95967667693705
30
0
41
1
10
52.9385329934743
20
0.964109496645335
30
0
41
1
10
52.921349657622
20
0.969810429706513
30
0
0
SPLINE
5
16D
100
AcDbEntity
8
1
62
256
6
ByLayer
370
18
48
1
60
0
100
AcDbSpline
70
4
71
3
72
8
73
4
40
0
40
0
40
0
40
0
40
1
40
1
40
1
40
1
41
1
10
50.9228455532386
20
1.49119750544136
30
0
41
1
10
50.8995258329393
20
1.49927926826936
30
0
41
1
10
50.8762435549179
20
1.5074607954532
30
0
41
1
10
50.8529999999999
20
1.51574444028088
30
0
0
SPLINE
5
16E
100
AcDbEntity
8
1
62
256
6
ByLayer
370
18
48
1
60
0
100
AcDbSpline
70
4
71
3
72
8
73
4
40
0
40
0
40
0
40
0
40
1
40
1
40
1
40
1
41
1
10
50.9228455532386
20
1.49119750544136
30
0
41
1
10
50.9531641311993
20
1.50004399350891
30
0
41
1
10
50.9830268879137
20
1.50845905594858
30
0
41
1
10
51.0124397899268
20
1.516448339975
30
0
0
SPLINE
5
16F
100
AcDbEntity
8
1
62
256
6
ByLayer
370
18
48
1
60
0
100
AcDbSpline
70
4
71
3
72
18
73
14
40
0
40
0
40
0
40
0
40
0.250000000000001
40
0.250000000000001
40
0.500000000000001
40
0.500000000000001
40
0.625000000000001
40
0.625000000000001
40
0.750000000000001
40
0.750000000000001
40
0.875
40
0.875
40
1
40
1
40
1
40
1
41
1
10
52.9300316375453
20
-0.0732976310633831
30
0
41
1
10
52.9338371720252
20
-0.0803687980047982
30
0
41
1
10
52.9373233553091
20
-0.087560082024936
30
0
41
1
10
52.9434127928093
20
-0.102274744641733
30
0
41
1
10
52.9460419416755
20
-0.109862547967822
30
0
41
1
10
52.9488833494387
20
-0.121402596811265
30
0
41
1
10
52.9496376856095
20
-0.125243105442422
30
0
41
1
10
52.9506748768124
20
-0.132909023754479
30
0
41
1
10
52.9509570790617
20
-0.13677043597599
30
0
41
1
10
52.9509232029914
20
-0.144271675298484
30
0
41
1
10
52.9506127367201
20
-0.14790292400582
30
0
41
1
10
52.9493292877092
20
-0.154895991726477
30
0
41
1
10
52.9483461689895
20
-0.158262310743197
30
0
41
1
10
52.947038027001
20
-0.161366794064151
30
0
0
SPLINE
5
170
100
AcDbEntity
8
1
62
256
6
ByLayer
370
18
48
1
60
0
100
AcDbSpline
70
4
71
3
72
8
73
4
40
0
40
0
40
0
40
0
40
1
40
1
40
1
40
1
41
1
10
52.9470380382926
20
-0.161366799721009
30
0
41
1
10
52.9171138862232
20
-0.232365502355918
30
0
41
1
10
52.8908987845624
20
-0.306338910673702
30
0
41
1
10
52.8706523236296
20
-0.384132578569421
30
0
0
SPLINE
5
171
100
AcDbEntity
8
1
62
256
6
ByLayer
370
18
48
1
60
0
100
AcDbSpline
70
4
71
3
72
8
73
4
40
0
40
0
40
0
40
0
40
1
40
1
40
1
40
1
41
1
10
52.8706523292484
20
-0.38413258166031
30
0
41
1
10
52.8859196694747
20
-0.409356234191847
30
0
41
1
10
52.9032418857927
20
-0.432959438477894
30
0
41
1
10
52.9215615615538
20
-0.455323601182045
30
0
0
SPLINE
5
172
100
AcDbEntity
8
1
62
256
6
ByLayer
370
18
48
1
60
0
100
AcDbSpline
70
4
71
3
72
20
73
16
40
0
40
0
40
0
40
0
40
0.250000000000077
40
0.250000000000077
40
0.500000000000154
40
0.500000000000154
40
0.625000000000115
40
0.625000000000115
40
0.750000000000077
40
0.750000000000077
40
0.812500000000058
40
0.812500000000058
40
0.87500000000004
40
0.87500000000004
40
1
40
1
40
1
40
1
41
1
10
52.9215615575131
20
-0.455323596203556
30
0
41
1
10
52.9281749045932
20
-0.463396302475729
30
0
41
1
10
52.9345531563682
20
-0.471700428729037
30
0
41
1
10
52.9466116313506
20
-0.488995797310309
30
0
41
1
10
52.9523271901992
20
-0.498031983997748
30
0
41
1
10
52.9597464711086
20
-0.512053297610578
30
0
41
1
10
52.9620327464766
20
-0.516815953824334
30
0
41
1
10
52.9660642726282
20
-0.526598676701013
30
0
41
1
10
52.9678287232783
20
-0.531665096916413
30
0
41
1
10
52.9697618777426
20
-0.53941600823623
30
0
41
1
10
52.9702791373241
20
-0.541996130157656
30
0
41
1
10
52.9710016308269
20
-0.547147746068134
30
0
41
1
10
52.9712064281062
20
-0.549744914243121
30
0
41
1
10
52.9712279741265
20
-0.557301347808334
30
0
41
1
10
52.9704524143975
20
-0.562056630794643
30
0
41
1
10
52.9687755414792
20
-0.566290383046237
30
0
0
SPLINE
5
173
100
AcDbEntity
8
1
62
256
6
ByLayer
370
18
48
1
60
0
100
AcDbSpline
70
4
71
3
72
14
73
10
40
0
40
0
40
0
40
0
40
0.499999999999963
40
0.499999999999963
40
0.624999999999963
40
0.624999999999963
40
0.749999999999963
40
0.749999999999963
40
1
40
1
40
1
40
1
41
1
10
52.9497517892112
20
0.104858351737704
30
0
41
1
10
53.0578907126644
20
0.0201787712734927
30
0
41
1
10
53.1706581504312
20
-0.047189253165385
30
0
41
1
10
53.3160933541105
20
-0.114658511107933
30
0
41
1
10
53.3454052212163
20
-0.127311467748939
30
0
41
1
10
53.4044494285012
20
-0.151044728843033
30
0
41
1
10
53.4340897182808
20
-0.162085678571174
30
0
41
1
10
53.5228866108388
20
-0.192806461207169
30
0
41
1
10
53.5821114203254
20
-0.210170235921851
30
0
41
1
10
53.6413579066313
20
-0.225020678774797
30
0
0
SPLINE
5
174
100
AcDbEntity
8
1
62
256
6
ByLayer
370
18
48
1
60
0
100
AcDbSpline
70
4
71
3
72
8
73
4
40
0
40
0
40
0
40
0
40
1
40
1
40
1
40
1
41
1
10
50.6965479951126
20
0.388276428366083
30
0
41
1
10
50.6827079346136
20
0.395663810808855
30
0
41
1
10
50.6681759856144
20
0.402594501025987
30
0
41
1
10
50.6527178244218
20
0.408913829863309
30
0
0
SPLINE
5
175
100
AcDbEntity
8
1
62
256
6
ByLayer
370
18
48
1
60
0
100
AcDbSpline
70
4
71
3
72
14
73
10
40
0
40
0
40
0
40
0
40
0.25
40
0.25
40
0.5
40
0.5
40
0.75
40
0.75
40
1
40
1
40
1
40
1
41
1
10
50.6527178244221
20
1.54434434812094
30
0
41
1
10
50.6326804124416
20
1.53706234457681
30
0
41
1
10
50.6136436360071
20
1.52910266852786
30
0
41
1
10
50.5780138857936
20
1.51148767459497
30
0
41
1
10
50.5614770260081
20
1.50185393330247
30
0
41
1
10
50.531809627303
20
1.48068366197853
30
0
41
1
10
50.5186296988281
20
1.46909829864489
30
0
41
1
10
50.4968046055429
20
1.44387923917034
30
0
41
1
10
50.4882135675902
20
1.43034037918349
30
0
41
1
10
50.4823386909927
20
1.41571012801893
30
0
0
SPLINE
5
176
100
AcDbEntity
8
1
62
256
6
ByLayer
370
18
48
1
60
0
100
AcDbSpline
70
4
71
3
72
12
73
8
40
0
40
0
40
0
40
0
40
0.500000000000258
40
0.500000000000258
40
0.750000000000129
40
0.750000000000129
40
1
40
1
40
1
40
1
41
1
10
49.464003806251
20
-1.62001285165113
30
0
41
1
10
49.4772000005322
20
-1.61991844325365
30
0
41
1
10
49.4903045777776
20
-1.61973086514166
30
0
41
1
10
49.5096802716452
20
-1.61914937247843
30
0
41
1
10
49.5161328639195
20
-1.61890234841383
30
0
41
1
10
49.5286502482839
20
-1.61824292454048
30
0
41
1
10
49.534705202137
20
-1.61783509455572
30
0
41
1
10
49.5403933393116
20
-1.61727812723979
30
0
0
SPLINE
5
177
100
AcDbEntity
8
1
62
256
6
ByLayer
370
18
48
1
60
0
100
AcDbSpline
70
4
71
3
72
12
73
8
40
0
40
0
40
0
40
0
40
0.500000000000025
40
0.500000000000025
40
0.750000000000012
40
0.750000000000012
40
1
40
1
40
1
40
1
41
1
10
49.5403933393116
20
-1.61727812723979
30
0
41
1
10
49.4659653605757
20
-1.6073930349292
30
0
41
1
10
49.39591775813
20
-1.5935638252744
30
0
41
1
10
49.2990015053269
20
-1.56439794976453
30
0
41
1
10
49.2680599126665
20
-1.55326109297022
30
0
41
1
10
49.2092512111913
20
-1.52754257358473
30
0
41
1
10
49.1813825919736
20
-1.51296410550699
30
0
41
1
10
49.1552703236001
20
-1.4962500398006
30
0
0
SPLINE
5
178
100
AcDbEntity
8
1
62
256
6
ByLayer
370
18
48
1
60
0
100
AcDbSpline
70
4
71
3
72
20
73
16
40
0
40
0
40
0
40
0
40
0.124999999999954
40
0.124999999999954
40
0.249999999999908
40
0.249999999999908
40
0.374999999999861
40
0.374999999999861
40
0.499999999999815
40
0.499999999999815
40
0.624999999999769
40
0.624999999999769
40
0.749999999999723
40
0.749999999999723
40
1
40
1
40
1
40
1
41
1
10
49.1552703236
20
-1.4962500398006
30
0
41
1
10
49.1530155400295
20
-1.49480678714204
30
0
41
1
10
49.1509774291774
20
-1.49331114647603
30
0
41
1
10
49.1475443457342
20
-1.49016938171653
30
0
41
1
10
49.1461332180275
20
-1.48850154886594
30
0
41
1
10
49.1444515689015
20
-1.48505702271973
30
0
41
1
10
49.1441863314354
20
-1.48324693447196
30
0
41
1
10
49.1453386134403
20
-1.47971244231439
30
0
41
1
10
49.1467961115129
20
-1.47796642989994
30
0
41
1
10
49.1511510864767
20
-1.47487340245772
30
0
41
1
10
49.1540471239012
20
-1.47349880782602
30
0
41
1
10
49.1604639754617
20
-1.47116141698035
30
0
41
1
10
49.1640578748695
20
-1.47016302359833
30
0
41
1
10
49.1751444898716
20
-1.4676160961636
30
0
41
1
10
49.1831026032389
20
-1.46644015921419
30
0
41
1
10
49.1912296635318
20
-1.46553304486412
30
0
0
SPLINE
5
179
100
AcDbEntity
8
1
62
256
6
ByLayer
370
18
48
1
60
0
100
AcDbSpline
70
4
71
3
72
22
73
18
40
0
40
0
40
0
40
0
40
0.0625000000000021
40
0.0625000000000021
40
0.125000000000004
40
0.125000000000004
40
0.250000000000008
40
0.250000000000008
40
0.375000000000013
40
0.375000000000013
40
0.500000000000017
40
0.500000000000017
40
0.625000000000021
40
0.625000000000021
40
0.750000000000025
40
0.750000000000025
40
1
40
1
40
1
40
1
41
1
10
49.1912296635318
20
-1.46553304486409
30
0
41
1
10
49.2161612084665
20
-1.46275027208219
30
0
41
1
10
49.2412690911561
20
-1.46050731841808
30
0
41
1
10
49.2917231049655
20
-1.45678133285665
30
0
41
1
10
49.317070811947
20
-1.45530244014446
30
0
41
1
10
49.3933848686704
20
-1.45175335081862
30
0
41
1
10
49.4446739172874
20
-1.4505616848302
30
0
41
1
10
49.5468915402895
20
-1.44976854698126
30
0
41
1
10
49.5979454962664
20
-1.45017159059526
30
0
41
1
10
49.699972659974
20
-1.4521455472271
30
0
41
1
10
49.7509455217649
20
-1.45372072166759
30
0
41
1
10
49.8528261625908
20
-1.45777434281013
30
0
41
1
10
49.9037372986642
20
-1.46025522888613
30
0
41
1
10
50.0052424415924
20
-1.46590858964387
30
0
41
1
10
50.0558731400583
20
-1.46908313851151
30
0
41
1
10
50.2074512379471
20
-1.47940919385465
30
0
41
1
10
50.3081244971963
20
-1.48736002378141
30
0
41
1
10
50.4082698811125
20
-1.49585229416013
30
0
0
SPLINE
5
17A
100
AcDbEntity
8
1
62
256
6
ByLayer
370
18
48
1
60
0
100
AcDbSpline
70
4
71
3
72
8
73
4
40
0
40
0
40
0
40
0
40
1
40
1
40
1
40
1
41
1
10
50.4178771880287
20
-1.49173582766733
30
0
41
1
10
50.4146446812283
20
-1.49310757321098
30
0
41
1
10
50.4114419220622
20
-1.4944797570019
30
0
41
1
10
50.4082698811124
20
-1.49585229415987
30
0
0
SPLINE
5
17B
100
AcDbEntity
8
1
62
256
6
ByLayer
370
18
48
1
60
0
100
AcDbSpline
70
4
71
3
72
10
73
6
40
0
40
0
40
0
40
0
40
0.5
40
0.5
40
1
40
1
40
1
40
1
41
1
10
50.4822391895712
20
-1.4223120458399
30
0
41
1
10
50.4677304428758
20
-1.43403010669329
30
0
41
1
10
50.4547730138578
20
-1.4457770372797
30
0
41
1
10
50.4329536629957
20
-1.46905284124071
30
0
41
1
10
50.4241152430035
20
-1.48056810865097
30
0
41
1
10
50.4178771880288
20
-1.49173582766735
30
0
0
SPLINE
5
17C
100
AcDbEntity
8
1
62
256
6
ByLayer
370
18
48
1
60
0
100
AcDbSpline
70
4
71
3
72
14
73
10
40
0
40
0
40
0
40
0
40
0.25
40
0.25
40
0.500000000000001
40
0.500000000000001
40
0.75
40
0.75
40
1
40
1
40
1
40
1
41
1
10
50.6527178244221
20
-1.24623725496863
30
0
41
1
10
50.6326648304938
20
-1.26039526104262
30
0
41
1
10
50.6136134175714
20
-1.27475192315904
30
0
41
1
10
50.5779570315417
20
-1.30391666382729
30
0
41
1
10
50.5614085386465
20
-1.3186835528785
30
0
41
1
10
50.5317218038004
20
-1.34839401349666
30
0
41
1
10
50.5185341677077
20
-1.36339796099813
30
0
41
1
10
50.4967018675659
20
-1.39318818838294
30
0
41
1
10
50.4881104031433
20
-1.40787435219775
30
0
41
1
10
50.4822391895711
20
-1.4223120458399
30
0
0
SPLINE
5
17D
100
AcDbEntity
8
1
62
256
6
ByLayer
370
18
48
1
60
0
100
AcDbSpline
70
4
71
3
72
32
73
28
40
0
40
0
40
0
40
0
40
0.250000000000002
40
0.250000000000002
40
0.375000000000002
40
0.375000000000002
40
0.500000000000003
40
0.500000000000003
40
0.562500000000002
40
0.562500000000002
40
0.625000000000002
40
0.625000000000002
40
0.687500000000002
40
0.687500000000002
40
0.718750000000001
40
0.718750000000001
40
0.750000000000001
40
0.750000000000001
40
0.781250000000001
40
0.781250000000001
40
0.812500000000001
40
0.812500000000001
40
0.875000000000001
40
0.875000000000001
40
0.9375
40
0.9375
40
1
40
1
40
1
40
1
41
1
10
49.5158213451844
20
-0.726819580364548
30
0
41
1
10
49.5029329113006
20
-0.719238134762634
30
0
41
1
10
49.4902618839713
20
-0.711388605963464
30
0
41
1
10
49.4718595002904
20
-0.698891267453263
30
0
41
1
10
49.4658274982217
20
-0.694603328588698
30
0
41
1
10
49.4540816219512
20
-0.685652194318209
30
0
41
1
10
49.4483606872065
20
-0.680997070530225
30
0
41
1
10
49.4402189868289
20
-0.67350229947192
30
0
41
1
10
49.4375793848393
20
-0.670917531851615
30
0
41
1
10
49.4325401147874
20
-0.665470440380403
30
0
41
1
10
49.4301479473223
20
-0.662620956263311
30
0
41
1
10
49.4259381338057
20
-0.656593829471035
30
0
41
1
10
49.4240804790815
20
-0.65338912682742
30
0
41
1
10
49.4223525075128
20
-0.648240044814344
30
0
41
1
10
49.4219594105408
20
-0.646450444947931
30
0
41
1
10
49.4217951569196
20
-0.642859504143132
30
0
41
1
10
49.422036837989
20
-0.641029333386058
30
0
41
1
10
49.4233148855271
20
-0.637617681722702
30
0
41
1
10
49.4243471446773
20
-0.636043933644515
30
0
41
1
10
49.4269579014865
20
-0.633316053101396
30
0
41
1
10
49.4284875314635
20
-0.632184355279435
30
0
41
1
10
49.4334389212701
20
-0.629271493945055
30
0
41
1
10
49.4371262270821
20
-0.627992044725289
30
0
41
1
10
49.4446340842431
20
-0.62604653148918
30
0
41
1
10
49.4484947249202
20
-0.625392533452896
30
0
41
1
10
49.4562162959038
20
-0.624447611739811
30
0
41
1
10
49.460102029669
20
-0.624157784417434
30
0
41
1
10
49.4640038062508
20
-0.62398547791193
30
0
0
SPLINE
5
17E
100
AcDbEntity
8
1
62
256
6
ByLayer
370
18
48
1
60
0
100
AcDbSpline
70
4
71
3
72
16
73
12
40
0
40
0
40
0
40
0
40
0.249999999999899
40
0.249999999999899
40
0.499999999999799
40
0.499999999999799
40
0.749999999999699
40
0.749999999999699
40
0.874999999999849
40
0.874999999999849
40
1
40
1
40
1
40
1
41
1
10
49.4640038062507
20
-0.623985477911901
30
0
41
1
10
49.4717956787664
20
-0.623641380730419
30
0
41
1
10
49.4795594809072
20
-0.623082024847491
30
0
41
1
10
49.495005107568
20
-0.621333859071399
30
0
41
1
10
49.5027153115978
20
-0.62014554302246
30
0
41
1
10
49.5178757068159
20
-0.616773492627772
30
0
41
1
10
49.5252806881797
20
-0.614619241441744
30
0
41
1
10
49.5359024719395
20
-0.610084903493089
30
0
41
1
10
49.5393753852227
20
-0.60833736089657
30
0
41
1
10
49.5458544591964
20
-0.604325891179684
30
0
41
1
10
49.5488856452035
20
-0.602056171511833
30
0
41
1
10
49.551624998454
20
-0.599415486676605
30
0
0
SPLINE
5
17F
100
AcDbEntity
8
1
62
256
6
ByLayer
370
18
48
1
60
0
100
AcDbSpline
70
4
71
3
72
20
73
16
40
0
40
0
40
0
40
0
40
0.125
40
0.125
40
0.25
40
0.25
40
0.375
40
0.375
40
0.5
40
0.5
40
0.625
40
0.625
40
0.75
40
0.75
40
1
40
1
40
1
40
1
41
1
10
49.2223489609243
20
-0.168196972931412
30
0
41
1
10
49.2209222590729
20
-0.165053149467525
30
0
41
1
10
49.2197301462839
20
-0.161834297020135
30
0
41
1
10
49.2180174183374
20
-0.155182260219419
30
0
41
1
10
49.2175057540547
20
-0.151733411739485
30
0
41
1
10
49.217492410412
20
-0.144890697566495
30
0
41
1
10
49.2180114457658
20
-0.14140579130887
30
0
41
1
10
49.2201608573288
20
-0.134928006161061
30
0
41
1
10
49.2218158623529
20
-0.131839611310426
30
0
41
1
10
49.2259480595432
20
-0.12632414788763
30
0
41
1
10
49.2284314931948
20
-0.123861791491777
30
0
41
1
10
49.2338011836402
20
-0.11955106142824
30
0
41
1
10
49.2366801177355
20
-0.117693123590328
30
0
41
1
10
49.2457163595707
20
-0.112731676341696
30
0
41
1
10
49.2522222586946
20
-0.110257699283977
30
0
41
1
10
49.2588496047239
20
-0.10828236160441
30
0
0
SPLINE
5
180
100
AcDbEntity
8
1
62
256
6
ByLayer
370
18
48
1
60
0
100
AcDbSpline
70
4
71
3
72
8
73
4
40
0
40
0
40
0
40
0
40
1
40
1
40
1
40
1
41
1
10
50.4178771880284
20
-0.130394752202619
30
0
41
1
10
50.412722587202
20
-0.135665805631135
30
0
41
1
10
50.4076436056846
20
-0.140993636930716
30
0
41
1
10
50.4026442629218
20
-0.14638121331123
30
0
0
SPLINE
5
181
100
AcDbEntity
8
1
62
256
6
ByLayer
370
18
48
1
60
0
100
AcDbSpline
70
4
71
3
72
10
73
6
40
0
40
0
40
0
40
0
40
0.5
40
0.5
40
1
40
1
40
1
40
1
41
1
10
50.4822391895709
20
0.0219141019767619
30
0
41
1
10
50.4677304428755
20
-0.0016868364498066
30
0
41
1
10
50.4547730138575
20
-0.0262440451292605
30
0
41
1
10
50.4329536629954
20
-0.0771535676485655
30
0
41
1
10
50.4241152430032
20
-0.10348357184165
30
0
41
1
10
50.4178771880284
20
-0.130394752202619
30
0
0
SPLINE
5
182
100
AcDbEntity
8
1
62
256
6
ByLayer
370
18
48
1
60
0
100
AcDbSpline
70
4
71
3
72
32
73
28
40
0
40
0
40
0
40
0
40
0.250000000000135
40
0.250000000000135
40
0.375000000000112
40
0.375000000000112
40
0.500000000000089
40
0.500000000000089
40
0.562500000000076
40
0.562500000000076
40
0.625000000000064
40
0.625000000000064
40
0.687500000000052
40
0.687500000000052
40
0.718750000000047
40
0.718750000000047
40
0.750000000000041
40
0.750000000000041
40
0.781250000000036
40
0.781250000000036
40
0.812500000000031
40
0.812500000000031
40
0.875000000000021
40
0.875000000000021
40
0.93750000000001
40
0.93750000000001
40
1
40
1
40
1
40
1
41
1
10
49.5158213451839
20
0.931987073505155
30
0
41
1
10
49.5029329113001
20
0.938944579099285
30
0
41
1
10
49.4902618839707
20
0.946085484160278
30
0
41
1
10
49.4718595002898
20
0.957336692474257
30
0
41
1
10
49.4658274982211
20
0.961178437646026
30
0
41
1
10
49.4540816219506
20
0.969153728098973
30
0
41
1
10
49.4483606872058
20
0.973280443651049
30
0
41
1
10
49.4402189868282
20
0.979882882301297
30
0
41
1
10
49.4375793848387
20
0.982153399610638
30
0
41
1
10
49.4325401147867
20
0.986922032980914
30
0
41
1
10
49.4301479473217
20
0.989408892995783
30
0
41
1
10
49.4259381338051
20
0.994649163515362
30
0
41
1
10
49.4240804790809
20
0.997426124261892
30
0
41
1
10
49.4223525075122
20
1.00186854386615
30
0
41
1
10
49.4219594105401
20
1.00340940912443
30
0
41
1
10
49.4217951569189
20
1.00649442011138
30
0
41
1
10
49.4220368379884
20
1.00806322195243
30
0
41
1
10
49.4233148855265
20
1.01098173701465
30
0
41
1
10
49.4243471446766
20
1.01232496752567
30
0
41
1
10
49.426957901486
20
1.01464990146511
30
0
41
1
10
49.4284875314629
20
1.01561263187742
30
0
41
1
10
49.4334389212695
20
1.01808835363732
30
0
41
1
10
49.4371262270815
20
1.0191725922345
30
0
41
1
10
49.4446340842425
20
1.02082060513007
30
0
41
1
10
49.4484947249196
20
1.02137377651943
30
0
41
1
10
49.4562162959031
20
1.02217286292873
30
0
41
1
10
49.4601020296684
20
1.02241777321743
30
0
41
1
10
49.4640038062502
20
1.02256337787361
30
0
0
SPLINE
5
183
100
AcDbEntity
8
1
62
256
6
ByLayer
370
18
48
1
60
0
100
AcDbSpline
70
4
71
3
72
12
73
8
40
0
40
0
40
0
40
0
40
0.499999999999999
40
0.499999999999999
40
0.749999999999999
40
0.749999999999999
40
1
40
1
40
1
40
1
41
1
10
49.4640038062501
20
1.02256337787361
30
0
41
1
10
49.4772000005313
20
1.02305582722093
30
0
41
1
10
49.4903045777768
20
1.02403937910418
30
0
41
1
10
49.5096802716445
20
1.02701291154253
30
0
41
1
10
49.5161328639187
20
1.02826947709889
30
0
41
1
10
49.5286502482831
20
1.03156794535408
30
0
41
1
10
49.5347052021362
20
1.03359049348228
30
0
41
1
10
49.5403933393109
20
1.03627974949109
30
0
0
SPLINE
5
184
100
AcDbEntity
8
1
62
256
6
ByLayer
370
18
48
1
60
0
100
AcDbSpline
70
4
71
3
72
12
73
8
40
0
40
0
40
0
40
0
40
0.499999999999975
40
0.499999999999975
40
0.749999999999987
40
0.749999999999987
40
1
40
1
40
1
40
1
41
1
10
49.5403933393109
20
1.03627974949106
30
0
41
1
10
49.465965360575
20
1.08400884082823
30
0
41
1
10
49.3959177581292
20
1.13235302543055
30
0
41
1
10
49.2990015053261
20
1.20519556100223
30
0
41
1
10
49.2680599126658
20
1.22952608349118
30
0
41
1
10
49.2092512111905
20
1.27810546712254
30
0
41
1
10
49.1813825919728
20
1.30235550831904
30
0
41
1
10
49.1552703235994
20
1.32643164384439
30
0
0
SPLINE
5
185
100
AcDbEntity
8
1
62
256
6
ByLayer
370
18
48
1
60
0
100
AcDbSpline
70
4
71
3
72
20
73
16
40
0
40
0
40
0
40
0
40
0.125
40
0.125
40
0.25
40
0.25
40
0.375
40
0.375
40
0.5
40
0.5
40
0.625
40
0.625
40
0.75
40
0.75
40
1
40
1
40
1
40
1
41
1
10
49.1552703235994
20
1.32643164384442
30
0
41
1
10
49.1530155400288
20
1.32851060818589
30
0
41
1
10
49.1509774291766
20
1.33064090534609
30
0
41
1
10
49.1475443457335
20
1.33505834586794
30
0
41
1
10
49.1461332180267
20
1.33737524483055
30
0
41
1
10
49.1444515689007
20
1.34209378100928
30
0
41
1
10
49.1441863314345
20
1.34454006375401
30
0
41
1
10
49.1453386134395
20
1.34925169198647
30
0
41
1
10
49.1467961115122
20
1.35154557926771
30
0
41
1
10
49.1511510864759
20
1.35556497364001
30
0
41
1
10
49.1540471239004
20
1.35732812994817
30
0
41
1
10
49.1604639754609
20
1.36030470482552
30
0
41
1
10
49.1640578748688
20
1.36156372274971
30
0
41
1
10
49.1751444898708
20
1.36475968935693
30
0
41
1
10
49.1831026032381
20
1.3662127478365
30
0
41
1
10
49.191229663531
20
1.36733043435009
30
0
0
SPLINE
5
186
100
AcDbEntity
8
1
62
256
6
ByLayer
370
18
48
1
60
0
100
AcDbSpline
70
4
71
3
72
22
73
18
40
0
40
0
40
0
40
0
40
0.0625000000000127
40
0.0625000000000127
40
0.125000000000025
40
0.125000000000025
40
0.250000000000017
40
0.250000000000017
40
0.375000000000008
40
0.375000000000008
40
0.5
40
0.5
40
0.624999999999992
40
0.624999999999992
40
0.749999999999983
40
0.749999999999983
40
1
40
1
40
1
40
1
41
1
10
49.191229663531
20
1.36733043435001
30
0
41
1
10
49.2161593645302
20
1.37075892996719
30
0
41
1
10
49.2412653776594
20
1.373458522633
30
0
41
1
10
49.2917156237372
20
1.37790170174537
30
0
41
1
10
49.3170614320822
20
1.37963812940555
30
0
41
1
10
49.3933697633177
20
1.3837823049052
30
0
41
1
10
49.4446550007783
20
1.38514048319917
30
0
41
1
10
49.5468650967345
20
1.38605040583758
30
0
41
1
10
49.5979152943359
20
1.38559115345421
30
0
41
1
10
49.699934948585
20
1.38331821202846
30
0
41
1
10
49.7509040593417
20
1.3814980168695
30
0
41
1
10
49.8527772039628
20
1.3767298961771
30
0
41
1
10
49.9036846569146
20
1.3737784314404
30
0
41
1
10
50.0051824735265
20
1.36689505778693
30
0
41
1
10
50.0558095193745
20
1.36296050785941
30
0
41
1
10
50.2073766864005
20
1.34980025672669
30
0
41
1
10
50.3080427376434
20
1.33921948148753
30
0
41
1
10
50.4081810000266
20
1.3270148014324
30
0
0
SPLINE
5
187
100
AcDbEntity
8
1
62
256
6
ByLayer
370
18
48
1
60
0
100
AcDbSpline
70
4
71
3
72
8
73
4
40
0
40
0
40
0
40
0
40
1
40
1
40
1
40
1
41
1
10
50.417934295257
20
1.33295456873137
30
0
41
1
10
50.4146522209067
20
1.33099726413837
30
0
41
1
10
50.4114007841209
20
1.32901761807329
30
0
41
1
10
50.4081810000264
20
1.32701480143211
30
0
0
SPLINE
5
188
100
AcDbEntity
8
1
62
256
6
ByLayer
370
18
48
1
60
0
100
AcDbSpline
70
4
71
3
72
10
73
6
40
0
40
0
40
0
40
0
40
0.5
40
0.5
40
1
40
1
40
1
40
1
41
1
10
50.4823386909927
20
1.41571012801893
30
0
41
1
10
50.4678242904236
20
1.40382837801295
30
0
41
1
10
50.454860548272
20
1.39102815669045
30
0
41
1
10
50.4330270601591
20
1.36343646033583
30
0
41
1
10
50.4241808018166
20
1.34865372940337
30
0
41
1
10
50.417934295257
20
1.33295456873134
30
0
0
SPLINE
5
189
100
AcDbEntity
8
1
62
256
6
ByLayer
370
18
48
1
60
0
100
AcDbSpline
70
4
71
3
72
14
73
10
40
0
40
0
40
0
40
0
40
0.25
40
0.25
40
0.5
40
0.5
40
0.75
40
0.75
40
1
40
1
40
1
40
1
41
1
10
50.6527178244221
20
0.32619338079374
30
0
41
1
10
50.6326648304938
20
0.304822349425308
30
0
41
1
10
50.6136134175714
20
0.282569530975223
30
0
41
1
10
50.5779570315416
20
0.235902445326417
30
0
41
1
10
50.5614085386464
20
0.211550937025038
30
0
41
1
10
50.5317218038003
20
0.160748413804612
30
0
41
1
10
50.5185341677077
20
0.134188080310537
30
0
41
1
10
50.4967018675657
20
0.079213078017176
30
0
41
1
10
50.4881104031431
20
0.0509925581251309
30
0
41
1
10
50.4822391895709
20
0.0219141019767619
30
0
0
SPLINE
5
18A
100
AcDbEntity
8
1
62
256
6
ByLayer
370
18
48
1
60
0
100
AcDbSpline
70
4
71
3
72
8
73
4
40
0
40
0
40
0
40
0
40
1
40
1
40
1
40
1
41
1
10
50.8530000000001
20
0.351925212590317
30
0
41
1
10
50.8007745595752
20
0.364251956407031
30
0
41
1
10
50.7486239485931
20
0.37636886761635
30
0
41
1
10
50.6965479951126
20
0.388276428366083
30
0
0
SPLINE
5
18B
100
AcDbEntity
8
1
62
256
6
ByLayer
370
18
48
1
60
0
100
AcDbSpline
70
4
71
3
72
10
73
6
40
0
40
0
40
0
40
0
40
0.5
40
0.5
40
1
40
1
40
1
40
1
41
1
10
50.6965479951126
20
0.388276428366083
30
0
41
1
10
50.6901896215915
20
0.377269984481302
30
0
41
1
10
50.6835205157568
20
0.366479892699402
30
0
41
1
10
50.6691451734056
20
0.345622011288498
30
0
41
1
10
50.6614766713834
20
0.335527926738962
30
0
41
1
10
50.6527178244218
20
0.326193380793455
30
0
0
SPLINE
5
18C
100
AcDbEntity
8
1
62
256
6
ByLayer
370
18
48
1
60
0
100
AcDbSpline
70
4
71
3
72
10
73
6
40
0
40
0
40
0
40
0
40
0.5
40
0.5
40
1
40
1
40
1
40
1
41
1
10
50.853
20
-0.246649960154201
30
0
41
1
10
50.8351091565011
20
-0.245458576427239
30
0
41
1
10
50.8172890139457
20
-0.245089596866251
30
0
41
1
10
50.7818028435517
20
-0.24614432363316
30
0
41
1
10
50.7641008144868
20
-0.247573015168655
30
0
41
1
10
50.7465794219822
20
-0.249989759902633
30
0
0
SPLINE
5
18D
100
AcDbEntity
8
1
62
256
6
ByLayer
370
18
48
1
60
0
100
AcDbSpline
70
4
71
3
72
8
73
4
40
0
40
0
40
0
40
0
40
1
40
1
40
1
40
1
41
1
10
50.4026442629218
20
-0.146381213311258
30
0
41
1
10
50.5162041616231
20
-0.181880648629459
30
0
41
1
10
50.6308671684457
20
-0.216361784176314
30
0
41
1
10
50.7465794219821
20
-0.249989759902633
30
0
0
SPLINE
5
18E
100
AcDbEntity
8
1
62
256
6
ByLayer
370
18
48
1
60
0
100
AcDbSpline
70
4
71
3
72
20
73
16
40
0
40
0
40
0
40
0
40
0.0625000000000202
40
0.0625000000000202
40
0.12500000000004
40
0.12500000000004
40
0.250000000000045
40
0.250000000000045
40
0.37500000000005
40
0.37500000000005
40
0.500000000000054
40
0.500000000000054
40
0.750000000000027
40
0.750000000000027
40
1
40
1
40
1
40
1
41
1
10
49.2588496048015
20
-0.108282361731
30
0
41
1
10
49.282154160556
20
-0.101336237729413
30
0
41
1
10
49.3056049263131
20
-0.0957346042301594
30
0
41
1
10
49.3526970393106
20
-0.0862857981931029
30
0
41
1
10
49.3763399392572
20
-0.0824528578563104
30
0
41
1
10
49.4474811573763
20
-0.0729119907937843
30
0
41
1
10
49.4951884628499
20
-0.0691296117729792
30
0
41
1
10
49.5909628621185
20
-0.0648833250941721
30
0
41
1
10
49.6391015687051
20
-0.0644546908310133
30
0
41
1
10
49.7353239173192
20
-0.0661045934317031
30
0
41
1
10
49.7833322213574
20
-0.0681861088155813
30
0
41
1
10
49.9271149577396
20
-0.0773870099692999
30
0
41
1
10
50.0226501920486
20
-0.0874264831534219
30
0
41
1
10
50.2132647940195
20
-0.11305215921459
30
0
41
1
10
50.3081886552571
20
-0.12865540039067
30
0
41
1
10
50.4026442629218
20
-0.14638121331123
30
0
0
SPLINE
5
18F
100
AcDbEntity
8
1
62
256
6
ByLayer
370
18
48
1
60
0
100
AcDbSpline
70
4
71
3
72
12
73
8
40
0
40
0
40
0
40
0
40
0.5
40
0.5
40
0.75
40
0.75
40
1
40
1
40
1
40
1
41
1
10
49.551624998454
20
-0.599415486676605
30
0
41
1
10
49.483597094219
20
-0.5399860721609
30
0
41
1
10
49.4210562112566
20
-0.475331806693959
30
0
41
1
10
49.3376296766992
20
-0.368059033545535
30
0
41
1
10
49.3115580503654
20
-0.330577376671812
30
0
41
1
10
49.2633732404236
20
-0.251588996819777
30
0
41
1
10
49.2416148749362
20
-0.210650574899717
30
0
41
1
10
49.2223489609243
20
-0.168196972931412
30
0
0
SPLINE
5
190
100
AcDbEntity
8
1
62
256
6
ByLayer
370
18
48
1
60
0
100
AcDbSpline
70
4
71
3
72
8
73
4
40
0
40
0
40
0
40
0
40
1
40
1
40
1
40
1
41
1
10
53.8386523230022
20
0.300833134507854
30
0
41
1
10
53.8081216910208
20
0.352282777231437
30
0
41
1
10
53.7756911705553
20
0.404648508002253
30
0
41
1
10
53.7414347198157
20
0.457894665656141
30
0
0
SPLINE
5
191
100
AcDbEntity
8
1
62
256
6
ByLayer
370
18
48
1
60
0
100
AcDbSpline
70
4
71
3
72
26
73
22
40
0
40
0
40
0
40
0
40
0.124999999999981
40
0.124999999999981
40
0.187499999999971
40
0.187499999999971
40
0.249999999999961
40
0.249999999999961
40
0.499999999999905
40
0.499999999999905
40
0.562499999999908
40
0.562499999999908
40
0.624999999999911
40
0.624999999999911
40
0.74999999999994
40
0.74999999999994
40
0.812499999999955
40
0.812499999999955
40
0.87499999999997
40
0.87499999999997
40
1
40
1
40
1
40
1
41
1
10
53.7414347198144
20
0.457894665655942
30
0
41
1
10
53.722064549517
20
0.464431122541811
30
0
41
1
10
53.7004012581257
20
0.472994189745464
30
0
41
1
10
53.6642618539044
20
0.489059690972368
30
0
41
1
10
53.6516084358409
20
0.494951267186934
30
0
41
1
10
53.6250559957316
20
0.507835257199218
30
0
41
1
10
53.6111217093861
20
0.51484769345322
30
0
41
1
10
53.5394212374145
20
0.55211108022425
30
0
41
1
10
53.4748207470517
20
0.589318239144859
30
0
41
1
10
53.3845406234457
20
0.645562470439103
30
0
41
1
10
53.3659271603661
20
0.657353344206001
30
0
41
1
10
53.3282828862596
20
0.681583775847656
30
0
41
1
10
53.3092105583061
20
0.694047622689567
30
0
41
1
10
53.2512619711328
20
0.732458623201239
30
0
41
1
10
53.2116582100548
20
0.759419521640325
30
0
41
1
10
53.150837068112
20
0.801833312439953
30
0
41
1
10
53.1303254419302
20
0.816302763851695
30
0
41
1
10
53.0888125907369
20
0.845923903080831
30
0
41
1
10
53.067796061847
20
0.861088384474357
30
0
41
1
10
53.0050094522468
20
0.906883813206974
30
0
41
1
10
52.9631706016795
20
0.93804709035723
30
0
41
1
10
52.921349657636
20
0.969810429694604
30
0
0
SPLINE
5
192
100
AcDbEntity
8
1
62
256
6
ByLayer
370
18
48
1
60
0
100
AcDbSpline
70
4
71
3
72
52
73
48
40
0
40
0
40
0
40
0
40
0.0312499999999504
40
0.0312499999999504
40
0.0624999999999007
40
0.0624999999999007
40
0.124999999999817
40
0.124999999999817
40
0.187499999999734
40
0.187499999999734
40
0.218749999999701
40
0.218749999999701
40
0.249999999999667
40
0.249999999999667
40
0.312499999999584
40
0.312499999999584
40
0.320312499999582
40
0.320312499999582
40
0.32812499999958
40
0.32812499999958
40
0.343749999999575
40
0.343749999999575
40
0.374999999999583
40
0.374999999999583
40
0.437499999999616
40
0.437499999999616
40
0.46874999999964
40
0.46874999999964
40
0.499999999999664
40
0.499999999999664
40
0.624999999999744
40
0.624999999999744
40
0.687499999999785
40
0.687499999999785
40
0.718749999999805
40
0.718749999999805
40
0.749999999999825
40
0.749999999999825
40
0.812499999999866
40
0.812499999999866
40
0.874999999999906
40
0.874999999999906
40
0.937499999999947
40
0.937499999999947
40
0.968749999999973
40
0.968749999999973
40
1
40
1
40
1
40
1
41
1
10
52.9213496576357
20
0.969810429701198
30
0
41
1
10
52.9006911895463
20
0.977627155568257
30
0
41
1
10
52.8798046135712
20
0.985759785384005
30
0
41
1
10
52.8375590159932
20
1.00260824141125
30
0
41
1
10
52.8161440543284
20
1.01134744914756
30
0
41
1
10
52.7515465098187
20
1.03820616465563
30
0
41
1
10
52.7083797559369
20
1.05680566765614
30
0
41
1
10
52.6216954762231
20
1.09488407392709
30
0
41
1
10
52.5781797380079
20
1.11436484854656
30
0
41
1
10
52.5125231116143
20
1.14391139945184
30
0
41
1
10
52.4905098104264
20
1.15384346322077
30
0
41
1
10
52.4467168242433
20
1.17358824915723
30
0
41
1
10
52.424935048509
20
1.18340175889577
30
0
41
1
10
52.3598841310162
20
1.21259511715314
30
0
41
1
10
52.3169011378353
20
1.23173651782758
30
0
41
1
10
52.2688477139261
20
1.25272836556417
30
0
41
1
10
52.2635129617726
20
1.25505274894829
30
0
41
1
10
52.2528524378285
20
1.25968402076376
30
0
41
1
10
52.2475309842175
20
1.26198190051076
30
0
41
1
10
52.2314958959025
20
1.26901689802511
30
0
41
1
10
52.2208206257227
20
1.27368128434844
30
0
41
1
10
52.1888405740638
20
1.2875791497776
30
0
41
1
10
52.1675808683258
20
1.29671816825899
30
0
41
1
10
52.1039436117673
20
1.32371201777272
30
0
41
1
10
52.0617052189681
20
1.34115137272414
30
0
41
1
10
51.998513232743
20
1.36622904402148
30
0
41
1
10
51.9774467996289
20
1.37441982894035
30
0
41
1
10
51.9356824174938
20
1.39029898293663
30
0
41
1
10
51.91494683042
20
1.39800213014641
30
0
41
1
10
51.8119931397908
20
1.43522039294371
30
0
41
1
10
51.7319600853309
20
1.46080335957421
30
0
41
1
10
51.6143465750993
20
1.49188379674706
30
0
41
1
10
51.5755471967298
20
1.50103461062952
30
0
41
1
10
51.5178478526546
20
1.51282071407431
30
0
41
1
10
51.4987068889413
20
1.51642196803291
30
0
41
1
10
51.4608903451745
20
1.52289931472814
30
0
41
1
10
51.4421767181252
20
1.52578240243594
30
0
41
1
10
51.3865363011618
20
1.53341027425145
30
0
41
1
10
51.3501156678399
20
1.53712972825141
30
0
41
1
10
51.2787665571505
20
1.54149897073336
30
0
41
1
10
51.2438140991731
20
1.54217208910444
30
0
41
1
10
51.1753052051169
20
1.54035312561067
30
0
41
1
10
51.1417270489288
20
1.53788401782799
30
0
41
1
10
51.0923368795575
20
1.53174286436337
30
0
41
1
10
51.07602195513
20
1.52927795600942
30
0
41
1
10
51.0438696021911
20
1.52349292249639
30
0
41
1
10
51.028042501822
20
1.52017511940932
30
0
41
1
10
51.0124397899267
20
1.51644833997497
30
0
0
SPLINE
5
193
100
AcDbEntity
8
1
62
256
6
ByLayer
370
18
48
1
60
0
100
AcDbSpline
70
4
71
1
72
4
73
2
40
0
40
0
40
1
40
1
41
1
10
50.8959467409392
20
1.35287967407936
30
0
41
1
10
51.0124397899267
20
1.51644833997497
30
0
0
SPLINE
5
194
100
AcDbEntity
8
1
62
256
6
ByLayer
370
18
48
1
60
0
100
AcDbSpline
70
4
71
3
72
18
73
14
40
0
40
0
40
0
40
0
40
0.250000000000011
40
0.250000000000011
40
0.500000000000023
40
0.500000000000023
40
0.750000000000034
40
0.750000000000034
40
0.875000000000017
40
0.875000000000017
40
0.937500000000008
40
0.937500000000008
40
1
40
1
40
1
40
1
41
1
10
53.8305068253124
20
0.276599959452568
30
0
41
1
10
53.8290582537874
20
0.272383765617121
30
0
41
1
10
53.8278499617123
20
0.267624493919698
30
0
41
1
10
53.8261563789517
20
0.256665212068668
30
0
41
1
10
53.825658066603
20
0.250486818753672
30
0
41
1
10
53.8259127426057
20
0.235842998668431
30
0
41
1
10
53.8266806230361
20
0.227318035716308
30
0
41
1
10
53.8295924987006
20
0.212648013700658
30
0
41
1
10
53.830837975485
20
0.207539308874004
30
0
41
1
10
53.8332471039571
20
0.199448203880024
30
0
41
1
10
53.8341494278614
20
0.196658226326576
30
0
41
1
10
53.83609883955
20
0.191102808990365
30
0
41
1
10
53.8371499377322
20
0.188320596807245
30
0
41
1
10
53.8382804891064
20
0.185533362887924
30
0
0
SPLINE
5
195
100
AcDbEntity
8
1
62
256
6
ByLayer
370
18
48
1
60
0
100
AcDbSpline
70
4
71
3
72
8
73
4
40
0
40
0
40
0
40
0
40
1
40
1
40
1
40
1
41
1
10
53.8305068253124
20
0.27659995945254
30
0
41
1
10
53.8333441296109
20
0.284858181215526
30
0
41
1
10
53.836067306654
20
0.292950786729193
30
0
41
1
10
53.838652323005
20
0.300833134493416
30
0
0
SPLINE
5
196
100
AcDbEntity
8
1
62
256
6
ByLayer
370
18
48
1
60
0
100
AcDbSpline
70
4
71
3
72
18
73
14
40
0
40
0
40
0
40
0
40
0.0312500000001639
40
0.0312500000001639
40
0.0625000000003277
40
0.0625000000003277
40
0.125000000000416
40
0.125000000000416
40
0.250000000000356
40
0.250000000000356
40
0.500000000000237
40
0.500000000000237
40
1
40
1
40
1
40
1
41
1
10
53.8755951736897
20
0.0047438347137074
30
0
41
1
10
53.8740288473602
20
0.0046992249886557
30
0
41
1
10
53.8722437994526
20
0.0047063736482755
30
0
41
1
10
53.8686414294359
20
0.0047595639266262
30
0
41
1
10
53.8668404667227
20
0.0048062704051119
30
0
41
1
10
53.8614378899003
20
0.0049745551811498
30
0
41
1
10
53.8578525236116
20
0.0051242551231212
30
0
41
1
10
53.8473452152159
20
0.0056049682793002
30
0
41
1
10
53.8405246639321
20
0.0059756783570037
30
0
41
1
10
53.8202403592611
20
0.0071361431436969
30
0
41
1
10
53.8070254298236
20
0.0079777369525686
30
0
41
1
10
53.7678687417764
20
0.0105513229576388
30
0
41
1
10
53.7423110418353
20
0.0123508276436723
30
0
41
1
10
53.7169346290353
20
0.0141781112362764
30
0
0
SPLINE
5
197
100
AcDbEntity
8
1
62
256
6
ByLayer
370
18
48
1
60
0
100
AcDbSpline
70
4
71
3
72
8
73
4
40
0
40
0
40
0
40
0
40
1
40
1
40
1
40
1
41
1
10
53.6070936859532
20
-0.149865273045236
30
0
41
1
10
53.6073952899317
20
-0.150515827801314
30
0
41
1
10
53.6076823580768
20
-0.151147477577808
30
0
41
1
10
53.6079549607776
20
-0.151760313919453
30
0
0
SPLINE
5
198
100
AcDbEntity
8
1
62
256
6
ByLayer
370
18
48
1
60
0
100
AcDbSpline
70
4
71
3
72
32
73
28
40
0
40
0
40
0
40
0
40
0.0625000000000436
40
0.0625000000000436
40
0.125000000000087
40
0.125000000000087
40
0.250000000000145
40
0.250000000000145
40
0.375000000000203
40
0.375000000000203
40
0.437500000000212
40
0.437500000000212
40
0.50000000000022
40
0.50000000000022
40
0.562500000000229
40
0.562500000000229
40
0.625000000000238
40
0.625000000000238
40
0.750000000000255
40
0.750000000000255
40
0.812500000000191
40
0.812500000000191
40
0.875000000000127
40
0.875000000000127
40
0.937500000000064
40
0.937500000000064
40
1
40
1
40
1
40
1
41
1
10
53.6070936859522
20
-0.149865273045066
30
0
41
1
10
53.6056758777857
20
-0.146807084453854
30
0
41
1
10
53.6042809220016
20
-0.143431580692379
30
0
41
1
10
53.6017290244021
20
-0.136097712558609
30
0
41
1
10
53.600564577381
20
-0.132106371790286
30
0
41
1
10
53.5977202145186
20
-0.119573259377091
30
0
41
1
10
53.5966676286568
20
-0.11043812358696
30
0
41
1
10
53.5969666263971
20
-0.0911223477474721
30
0
41
1
10
53.5982922886152
20
-0.0812914908375717
30
0
41
1
10
53.602299068601
20
-0.0664327940687031
30
0
41
1
10
53.6039757806253
20
-0.0614801855650171
30
0
41
1
10
53.6079284843556
20
-0.0518848640633109
30
0
41
1
10
53.6102142440504
20
-0.0472010184732312
30
0
41
1
10
53.6154271944991
20
-0.0380823946932196
30
0
41
1
10
53.6183813178758
20
-0.0336164940725041
30
0
41
1
10
53.6248017584176
20
-0.0252007169763715
30
0
41
1
10
53.628272252365
20
-0.0212318160202187
30
0
41
1
10
53.6394751926631
20
-0.0100577457031932
30
0
41
1
10
53.648102972927
20
-0.0035483689840419
30
0
41
1
10
53.6619571629438
20
0.0040157392887181
30
0
41
1
10
53.6667521655483
20
0.0061976882847432
30
0
41
1
10
53.6767092814494
20
0.0098473682676854
30
0
41
1
10
53.6818660928662
20
0.0113005479679487
30
0
41
1
10
53.692088823019
20
0.0133772066480731
30
0
41
1
10
53.6972120332118
20
0.0140212553577896
30
0
41
1
10
53.7073785508399
20
0.0145928863477991
30
0
41
1
10
53.7122514986159
20
0.0145153301932055
30
0
41
1
10
53.7169346290356
20
0.0141781112394028
30
0
0
SPLINE
5
199
100
AcDbEntity
8
1
62
256
6
ByLayer
370
18
48
1
60
0
100
AcDbSpline
70
4
71
3
72
10
73
6
40
0
40
0
40
0
40
0
40
0.5
40
0.5
40
1
40
1
40
1
40
1
41
1
10
52.8100056015865
20
0.125582558475117
30
0
41
1
10
52.8312345424237
20
0.0935007562577539
30
0
41
1
10
52.8519521052326
20
0.060974267119235
30
0
41
1
10
52.8920837633336
20
-0.0052121876134663
30
0
41
1
10
52.9115028371146
20
-0.0388678239862372
30
0
41
1
10
52.9300316356342
20
-0.0732976308212017
30
0
0
SPLINE
5
19A
100
AcDbEntity
8
1
62
256
6
ByLayer
370
18
48
1
60
0
100
AcDbSpline
70
4
71
3
72
8
73
4
40
0
40
0
40
0
40
0
40
1
40
1
40
1
40
1
41
1
10
52.8757962082085
20
0.127503321819177
30
0
41
1
10
52.8539465281736
20
0.126802935094474
30
0
41
1
10
52.8320141983825
20
0.126164269485059
30
0
41
1
10
52.8100056015903
20
0.125582558482478
30
0
0
SPLINE
5
19B
100
AcDbEntity
8
1
62
256
6
ByLayer
370
18
48
1
60
0
100
AcDbSpline
70
4
71
3
72
8
73
4
40
0
40
0
40
0
40
0
40
1
40
1
40
1
40
1
41
1
10
52.7576319640799
20
0.255232085780108
30
0
41
1
10
52.7961292406834
20
0.211885128233803
30
0
41
1
10
52.8354328048146
20
0.169199990001715
30
0
41
1
10
52.8757962082163
20
0.127503321826936
30
0
0
SPLINE
5
19C
100
AcDbEntity
8
1
62
256
6
ByLayer
370
18
48
1
60
0
100
AcDbSpline
70
4
71
3
72
26
73
22
40
0
40
0
40
0
40
0
40
0.124999999999972
40
0.124999999999972
40
0.187499999999974
40
0.187499999999974
40
0.249999999999976
40
0.249999999999976
40
0.37499999999998
40
0.37499999999998
40
0.499999999999984
40
0.499999999999984
40
0.624999999999988
40
0.624999999999988
40
0.749999999999992
40
0.749999999999992
40
0.874999999999995
40
0.874999999999995
40
0.937499999999998
40
0.937499999999998
40
1
40
1
40
1
40
1
41
1
10
52.7576319113714
20
0.255232145128588
30
0
41
1
10
52.738309099639
20
0.276989142027105
30
0
41
1
10
52.7214152304302
20
0.29997627867823
30
0
41
1
10
52.6987471069025
20
0.335582788028972
30
0
41
1
10
52.6916422197731
20
0.347642332900108
30
0
41
1
10
52.6782103194874
20
0.372044086665056
30
0
41
1
10
52.6718628269929
20
0.384430612107622
30
0
41
1
10
52.6539699653422
20
0.421530726002601
30
0
41
1
10
52.6436050788837
20
0.446066315542481
30
0
41
1
10
52.6247090348098
20
0.494258097512898
30
0
41
1
10
52.6161839233827
20
0.517915406462691
30
0
41
1
10
52.5998120405006
20
0.564033582331717
30
0
41
1
10
52.5919518792854
20
0.586553651771226
30
0
41
1
10
52.5758163018186
20
0.629839102035106
30
0
41
1
10
52.5675671583012
20
0.650618716594551
30
0
41
1
10
52.548984857894
20
0.690691195767442
30
0
41
1
10
52.5386675034261
20
0.70996682159398
30
0
41
1
10
52.519077389709
20
0.738433737820714
30
0
41
1
10
52.5118346084296
20
0.747859449670614
30
0
41
1
10
52.4958221264664
20
0.766702186512532
30
0
41
1
10
52.4871494192972
20
0.776021338740776
30
0
41
1
10
52.4780689646289
20
0.785229091831638
30
0
0
SPLINE
5
19D
100
AcDbEntity
8
1
62
256
6
ByLayer
370
18
48
1
60
0
100
AcDbSpline
70
4
71
3
72
8
73
4
40
0
40
0
40
0
40
0
40
1
40
1
40
1
40
1
41
1
10
50.8557738926814
20
1.26085624062998
30
0
41
1
10
50.854849458584
20
1.26043420507889
30
0
41
1
10
50.8539248258723
20
1.2600109403088
30
0
41
1
10
50.853
20
1.25958644325436
30
0
0
SPLINE
5
19E
100
AcDbEntity
8
1
62
256
6
ByLayer
370
18
48
1
60
0
100
AcDbSpline
70
4
71
3
72
24
73
20
40
0
40
0
40
0
40
0
40
0.249999999999946
40
0.249999999999946
40
0.374999999999945
40
0.374999999999945
40
0.499999999999945
40
0.499999999999945
40
0.562499999999945
40
0.562499999999945
40
0.624999999999945
40
0.624999999999945
40
0.687499999999945
40
0.687499999999945
40
0.749999999999945
40
0.749999999999945
40
0.874999999999972
40
0.874999999999972
40
1
40
1
40
1
40
1
41
1
10
53.970493613416
20
0.0384794311846406
30
0
41
1
10
53.9726157744546
20
0.0326177008611239
30
0
41
1
10
53.9745949984127
20
0.027475040292984
30
0
41
1
10
53.9771467322343
20
0.0219891986082814
30
0
41
1
10
53.9779102578689
20
0.0205768829164015
30
0
41
1
10
53.9791975737563
20
0.0189565317305664
30
0
41
1
10
53.9797159536951
20
0.0187749905861381
30
0
41
1
10
53.9801974749343
20
0.0198086685079204
30
0
41
1
10
53.9803111267577
20
0.0203788197164556
30
0
41
1
10
53.9804286713778
20
0.021957249577099
30
0
41
1
10
53.9804341800703
20
0.0229605069947922
30
0
41
1
10
53.9803431627636
20
0.0253858045515187
30
0
41
1
10
53.9802449508468
20
0.0268243666775163
30
0
41
1
10
53.9799588276609
20
0.0300193991343463
30
0
41
1
10
53.9797721377641
20
0.0317720014284362
30
0
41
1
10
53.9791019376395
20
0.0374297429159753
30
0
41
1
10
53.9785113784561
20
0.0417048812048222
30
0
41
1
10
53.9771848905814
20
0.0506292910435207
30
0
41
1
10
53.9764368463468
20
0.0553621594103504
30
0
41
1
10
53.9756439888269
20
0.0602021794126699
30
0
0
SPLINE
5
19F
100
AcDbEntity
8
1
62
256
6
ByLayer
370
18
48
1
60
0
100
AcDbSpline
70
4
71
3
72
8
73
4
40
0
40
0
40
0
40
0
40
1
40
1
40
1
40
1
41
1
10
53.970493613416
20
0.0384794311846122
30
0
41
1
10
53.9660703390897
20
0.0506971850573166
30
0
41
1
10
53.9613828327127
20
0.0631151222379174
30
0
41
1
10
53.9564470088315
20
0.0757085147012617
30
0
0
SPLINE
5
1A0
100
AcDbEntity
8
1
62
256
6
ByLayer
370
18
48
1
60
0
100
AcDbSpline
70
4
71
3
72
8
73
4
40
0
40
0
40
0
40
0
40
1
40
1
40
1
40
1
41
1
10
53.9564470088315
20
0.0757085147012901
30
0
41
1
10
53.9450580101828
20
0.0827974896297121
30
0
41
1
10
53.9303199487033
20
0.089700294073964
30
0
41
1
10
53.9123223012597
20
0.0964219019483323
30
0
0
SPLINE
5
1A1
100
AcDbEntity
8
1
62
256
6
ByLayer
370
18
48
1
60
0
100
AcDbSpline
70
4
71
3
72
22
73
18
40
0
40
0
40
0
40
0
40
0.0625000000000294
40
0.0625000000000294
40
0.125000000000059
40
0.125000000000059
40
0.25000000000005
40
0.25000000000005
40
0.375000000000042
40
0.375000000000042
40
0.500000000000034
40
0.500000000000034
40
0.625000000000025
40
0.625000000000025
40
0.750000000000017
40
0.750000000000017
40
1
40
1
40
1
40
1
41
1
10
53.8382804891121
20
0.185533362884712
30
0
41
1
10
53.8397739697394
20
0.181157067274086
30
0
41
1
10
53.8413605720085
20
0.177047383360929
30
0
41
1
10
53.8446703082502
20
0.16924540887689
30
0
41
1
10
53.8464077580398
20
0.165527514767689
30
0
41
1
10
53.8516716207685
20
0.155106603961201
30
0
41
1
10
53.8552108750955
20
0.14916087130959
30
0
41
1
10
53.8622679790067
20
0.138521877657837
30
0
41
1
10
53.8657550590906
20
0.133896549561001
30
0
41
1
10
53.8724815495886
20
0.125770155248773
30
0
41
1
10
53.8757491965492
20
0.122234221452885
30
0
41
1
10
53.8821082759283
20
0.115942195093851
30
0
41
1
10
53.8852089876807
20
0.113182026831169
30
0
41
1
10
53.8911845710323
20
0.108335135623321
30
0
41
1
10
53.8940606896965
20
0.106245893519457
30
0
41
1
10
53.9023857692335
20
0.100785241243756
30
0
41
1
10
53.9075332649412
20
0.0982104703892901
30
0
41
1
10
53.9123223012597
20
0.0964219019483323
30
0
0
SPLINE
5
1A2
100
AcDbEntity
8
1
62
256
6
ByLayer
370
18
48
1
60
0
100
AcDbSpline
70
4
71
3
72
35
73
31
40
0
40
0
40
0
40
0
40
0.0413071686341668
40
0.0838340952981902
40
0.105316802259328
40
0.137611820433793
40
0.148353631510606
40
0.169807355592454
40
0.237465002502405
40
0.290620242189084
40
0.326031331478108
40
0.349092593179474
40
0.369167956219463
40
0.408846617472629
40
0.41668785798906
40
0.41767546993613
40
0.418652462750873
40
0.419192808644891
40
0.420056873061494
40
0.433532358308429
40
0.461686951543507
40
0.530873415100711
40
0.608277462854071
40
0.635791172139584
40
0.718726910741774
40
0.746491257980846
40
0.830054266047162
40
0.857935658876279
40
0.913530855207398
40
1
40
1
40
1
40
1
41
1
10
50.8959467409392
20
1.35287967407936
30
0
41
1
10
50.941051154966
20
1.37154055321631
30
0
41
1
10
51.0309716431907
20
1.39816567905987
30
0
41
1
10
51.142134520107
20
1.41200456099412
30
0
41
1
10
51.243491635523
20
1.41385679994809
30
0
41
1
10
51.3114277723674
20
1.40927540705786
30
0
41
1
10
51.3801045190837
20
1.40132134456718
30
0
41
1
10
51.4870130811986
20
1.38528819212172
30
0
41
1
10
51.642178123916
20
1.34812322580296
30
0
41
1
10
51.8154910299308
20
1.28744819430275
30
0
41
1
10
51.9397757792502
20
1.23476105078285
30
0
41
1
10
52.0275743609474
20
1.19444361535707
30
0
41
1
10
52.1200440629005
20
1.14937317774511
30
0
41
1
10
52.1953581419848
20
1.11006088357078
30
0
41
1
10
52.2489719141542
20
1.08073222355583
30
0
41
1
10
52.2598151310793
20
1.07476489484392
30
0
41
1
10
52.2625824611966
20
1.07322902027829
30
0
41
1
10
52.2652887090152
20
1.07185968141747
30
0
41
1
10
52.2823238234993
20
1.0634587780709
30
0
41
1
10
52.3307719181139
20
1.03917857148872
30
0
41
1
10
52.4562259600295
20
0.974583635873927
30
0
41
1
10
52.6518609480915
20
0.86892875813453
30
0
41
1
10
52.8406850404815
20
0.76289253228407
30
0
41
1
10
53.036961064718
20
0.651406050466022
30
0
41
1
10
53.1746939732554
20
0.572327949999192
30
0
41
1
10
53.3550457443594
20
0.467930508285576
30
0
41
1
10
53.4738168296968
20
0.398450459912453
30
0
41
1
10
53.6012125919599
20
0.323516031675155
30
0
41
1
10
53.7186548233058
20
0.25438935175427
30
0
41
1
10
53.7980383476041
20
0.208233575436992
30
0
41
1
10
53.8382804891138
20
0.185533362883717
30
0
0
SPLINE
5
1A3
100
AcDbEntity
8
1
62
256
6
ByLayer
370
18
48
1
60
0
100
AcDbSpline
70
4
71
1
72
4
73
2
40
0
40
0
40
1
40
1
41
1
10
50.8558717330285
20
1.26141087708152
30
0
41
1
10
50.8959467409392
20
1.35287967407936
30
0
0
SPLINE
5
1A4
100
AcDbEntity
8
1
62
256
6
ByLayer
370
18
48
1
60
0
100
AcDbSpline
70
4
71
3
72
8
73
4
40
0
40
0
40
0
40
0
40
1
40
1
40
1
40
1
41
1
10
52.4418687719223
20
0.852576754302902
30
0
41
1
10
52.4305139286351
20
0.859093028649681
30
0
41
1
10
52.4188500605063
20
0.864987399127102
30
0
41
1
10
52.4068838289745
20
0.870272927543851
30
0
0
SPLINE
5
1A5
100
AcDbEntity
8
1
62
256
6
ByLayer
370
18
48
1
60
0
100
AcDbSpline
70
4
71
3
72
12
73
8
40
0
40
0
40
0
40
0
40
0.5
40
0.5
40
0.75
40
0.75
40
1
40
1
40
1
40
1
41
1
10
53.9197760378211
20
0.0059582076370646
30
0
41
1
10
53.9417261419023
20
-0.0015769130156968
30
0
41
1
10
53.9592782008237
20
-0.0090737220015171
30
0
41
1
10
53.9789565768532
20
-0.0202610093890598
30
0
41
1
10
53.9844091046953
20
-0.0239842124035761
30
0
41
1
10
53.9930271755161
20
-0.0313871824422165
30
0
41
1
10
53.9961943648162
20
-0.0350674116742482
30
0
41
1
10
53.9982195627892
20
-0.0387263824157742
30
0
0
SPLINE
5
1A6
100
AcDbEntity
8
1
62
256
6
ByLayer
370
18
48
1
60
0
100
AcDbSpline
70
4
71
3
72
8
73
4
40
0
40
0
40
0
40
0
40
1
40
1
40
1
40
1
41
1
10
53.9994443203761
20
-0.0395908617441023
30
0
41
1
10
53.999216722943
20
-0.0393025996826282
30
0
41
1
10
53.9988083679372
20
-0.039014439964518
30
0
41
1
10
53.9982195627892
20
-0.0387263824157742
30
0
0
SPLINE
5
1A7
100
AcDbEntity
8
1
62
256
6
ByLayer
370
18
48
1
60
0
100
AcDbSpline
70
4
71
3
72
8
73
4
40
0
40
0
40
0
40
0
40
1
40
1
40
1
40
1
41
1
10
53.9841903262283
20
0.0425761600529597
30
0
41
1
10
53.983582924416
20
0.048524491029184
30
0
41
1
10
53.9807310546529
20
0.0543997301684556
30
0
41
1
10
53.9756439888269
20
0.0602021794127268
30
0
0
SPLINE
5
1A8
100
AcDbEntity
8
1
62
256
6
ByLayer
370
18
48
1
60
0
100
AcDbSpline
70
4
71
3
72
8
73
4
40
0
40
0
40
0
40
0
40
1
40
1
40
1
40
1
41
1
10
53.8755951737054
20
0.0047438347112632
30
0
41
1
10
53.8902418634182
20
0.0051609794586511
30
0
41
1
10
53.9049754316815
20
0.0055647525256575
30
0
41
1
10
53.9197760378221
20
0.0059582076370646
30
0
0
SPLINE
5
1A9
100
AcDbEntity
8
1
62
256
6
ByLayer
370
18
48
1
60
0
100
AcDbSpline
70
4
71
3
72
21
73
17
40
0
40
0
40
0
40
0
40
0.250000000000006
40
0.250000000000006
40
0.312500000000007
40
0.312500000000007
40
0.375000000000009
40
0.500000000000013
40
0.500000000000013
40
0.75000000000002
40
0.75000000000002
40
0.812500000000018
40
0.812500000000018
40
0.875000000000016
40
0.875000000000016
40
1
40
1
40
1
40
1
41
1
10
53.3419262203796
20
0.336009457011556
30
0
41
1
10
53.4093645741548
20
0.29772683482625
30
0
41
1
10
53.4725661759448
20
0.261749742702364
30
0
41
1
10
53.5462856265679
20
0.21968359611256
30
0
41
1
10
53.5607865166004
20
0.211402457524258
30
0
41
1
10
53.5891068952059
20
0.195219317332203
30
0
41
1
10
53.63056034112
20
0.17151710011521
30
0
41
1
10
53.6690045304207
20
0.149511517494318
30
0
41
1
10
53.7419439543076
20
0.107746022520843
30
0
41
1
10
53.7853131490921
20
0.0828826495223041
30
0
41
1
10
53.8328244916531
20
0.0556803747368519
30
0
41
1
10
53.8419899702524
20
0.0504350819587671
30
0
41
1
10
53.8596357369055
20
0.0403404474819524
30
0
41
1
10
53.8680923315727
20
0.035504509818935
30
0
41
1
10
53.892247731843
20
0.0216937884842707
30
0
41
1
10
53.9067863774894
20
0.0133846685015726
30
0
41
1
10
53.9197760378202
20
0.0059582076375762
30
0
0
SPLINE
5
1AA
100
AcDbEntity
8
1
62
256
6
ByLayer
370
18
48
1
60
0
100
AcDbSpline
70
4
71
3
72
12
73
8
40
0
40
0
40
0
40
0
40
0.261522594769803
40
0.400214683008645
40
0.8182801156628
40
0.958235628647844
40
1
40
1
40
1
40
1
41
1
10
52.7120797402291
20
0.695890432640681
30
0
41
1
10
52.7687141121308
20
0.663530750243865
30
0
41
1
10
52.8556758311911
20
0.613842661958756
30
0
41
1
10
53.0323428158609
20
0.512898863312159
30
0
41
1
10
53.1795256572046
20
0.428801708227354
30
0
41
1
10
53.2986977869067
20
0.360709270169451
30
0
41
1
10
53.3338886418059
20
0.340601959502578
30
0
41
1
10
53.3419262203793
20
0.336009457011727
30
0
0
SPLINE
5
1AB
100
AcDbEntity
8
1
62
256
6
ByLayer
370
18
48
1
60
0
100
AcDbSpline
70
4
71
3
72
10
73
6
40
0
40
0
40
0
40
0
40
0.5
40
0.5
40
1
40
1
40
1
40
1
41
1
10
52.4418687719374
20
0.852576754291789
30
0
41
1
10
52.4872269987815
20
0.826546747312364
30
0
41
1
10
52.5324444529557
20
0.800364225044262
30
0
41
1
10
52.6224706984168
20
0.748045671767272
30
0
41
1
10
52.6673173197799
20
0.721886555823545
30
0
41
1
10
52.7120797402281
20
0.695890432641278
30
0
0
SPLINE
5
1AC
100
AcDbEntity
8
1
62
256
6
ByLayer
370
18
48
1
60
0
100
AcDbSpline
70
4
71
3
72
8
73
4
40
0
40
0
40
0
40
0
40
1
40
1
40
1
40
1
41
1
10
50.8557960014097
20
-0.24744569627984
30
0
41
1
10
50.8548642008236
20
-0.24717871935195
30
0
41
1
10
50.8539321984915
20
-0.246913470513988
30
0
41
1
10
50.853
20
-0.246649960154116
30
0
0
SPLINE
5
1AD
100
AcDbEntity
8
1
62
256
6
ByLayer
370
18
48
1
60
0
100
AcDbSpline
70
4
71
3
72
22
73
18
40
0
40
0
40
0
40
0
40
0.249999999999993
40
0.249999999999993
40
0.37499999999999
40
0.37499999999999
40
0.437499999999988
40
0.437499999999988
40
0.499999999999986
40
0.499999999999986
40
0.74999999999998
40
0.74999999999998
40
0.87499999999999
40
0.87499999999999
40
0.937499999999995
40
0.937499999999995
40
1
40
1
40
1
40
1
41
1
10
51.267037280681
20
-0.448003918711635
30
0
41
1
10
51.3593717757666
20
-0.503495200338506
30
0
41
1
10
51.4518120250896
20
-0.559795290997187
30
0
41
1
10
51.5916822431904
20
-0.643542066382793
30
0
41
1
10
51.6385080846119
20
-0.67134108629466
30
0
41
1
10
51.7091910960014
20
-0.71262112149924
30
0
41
1
10
51.7328259306183
20
-0.726311645300541
30
0
41
1
10
51.7802687377329
20
-0.753510624391453
30
0
41
1
10
51.8041300500542
20
-0.767048615393776
30
0
41
1
10
51.9231349672089
20
-0.833719288058433
30
0
41
1
10
52.0174020549224
20
-0.883845219162254
30
0
41
1
10
52.1586133281317
20
-0.952515549076821
30
0
41
1
10
52.2056502805823
20
-0.974315256186173
30
0
41
1
10
52.2763031188318
20
-1.0051181004051
30
0
41
1
10
52.2998703922569
20
-1.01507049953963
30
0
41
1
10
52.347062975763
20
-1.03429570183494
30
0
41
1
10
52.3706801994434
20
-1.04356078800546
30
0
41
1
10
52.3941537967437
20
-1.05239125215724
30
0
0
SPLINE
5
1AE
100
AcDbEntity
8
1
62
256
6
ByLayer
370
18
48
1
60
0
100
AcDbSpline
70
4
71
3
72
8
73
4
40
0
40
0
40
0
40
0
40
1
40
1
40
1
40
1
41
1
10
52.4068566872523
20
-1.05459579609862
30
0
41
1
10
52.4026589933846
20
-1.05377302040111
30
0
41
1
10
52.3984252791334
20
-1.05303628939396
30
0
41
1
10
52.3941537967437
20
-1.05239125215712
30
0
0
SPLINE
5
1AF
100
AcDbEntity
8
1
62
256
6
ByLayer
370
18
48
1
60
0
100
AcDbSpline
70
4
71
1
72
4
73
2
40
0
40
0
40
1
40
1
41
1
10
50.8557960014097
20
-0.247445696279868
30
0
41
1
10
50.8558717332226
20
-0.246857506625446
30
0
0
SPLINE
5
1B0
100
AcDbEntity
8
1
62
256
6
ByLayer
370
18
48
1
60
0
100
AcDbSpline
70
4
71
3
72
16
73
12
40
0
40
0
40
0
40
0
40
0.249999999999983
40
0.249999999999983
40
0.499999999999966
40
0.499999999999966
40
0.624999999999957
40
0.624999999999957
40
0.749999999999948
40
0.749999999999948
40
1
40
1
40
1
40
1
41
1
10
50.8557960014096
20
-0.24744569627984
30
0
41
1
10
50.8896188889593
20
-0.25747620538678
30
0
41
1
10
50.9233895724454
20
-0.26997085307022
30
0
41
1
10
50.9911730746758
20
-0.298435981110572
30
0
41
1
10
51.0251815609402
20
-0.31442124084279
30
0
41
1
10
51.0765570272504
20
-0.340369573262365
30
0
41
1
10
51.0937426689572
20
-0.349350626060641
30
0
41
1
10
51.1282604199758
20
-0.367892467405824
30
0
41
1
10
51.1455953384173
20
-0.377455911948004
30
0
41
1
10
51.1975454255946
20
-0.406730162041185
30
0
41
1
10
51.2322165785828
20
-0.427077359329615
30
0
41
1
10
51.267037280681
20
-0.44800391871172
30
0
0
SPLINE
5
1B1
100
AcDbEntity
8
1
62
256
6
ByLayer
370
18
48
1
60
0
100
AcDbSpline
70
4
71
3
72
8
73
4
40
0
40
0
40
0
40
0
40
1
40
1
40
1
40
1
41
1
10
52.4780689646314
20
0.785229091830672
30
0
41
1
10
52.4490414329746
20
0.814663694442828
30
0
41
1
10
52.4211210756406
20
0.844680057971345
30
0
41
1
10
52.3941566170745
20
0.875256188934429
30
0
0
SPLINE
5
1B2
100
AcDbEntity
8
1
62
256
6
ByLayer
370
18
48
1
60
0
100
AcDbSpline
70
4
71
3
72
8
73
4
40
0
40
0
40
0
40
0
40
1
40
1
40
1
40
1
41
1
10
52.4068838289747
20
0.870272927544391
30
0
41
1
10
52.4026781408012
20
0.872035840482027
30
0
41
1
10
52.3984363213508
20
0.873698603908792
30
0
41
1
10
52.3941566170761
20
0.875256188931161
30
0
0
SPLINE
5
1B3
100
AcDbEntity
8
1
62
256
6
ByLayer
370
18
48
1
60
0
100
AcDbSpline
70
4
71
3
72
27
73
23
40
0
40
0
40
0
40
0
40
0.0893973894168688
40
0.181434591418211
40
0.227927681684019
40
0.297820884520959
40
0.321068419988254
40
0.36749878521548
40
0.513924144489199
40
0.628963248328585
40
0.705600283582267
40
0.755509697878364
40
0.798957000288881
40
0.884829957668372
40
0.901800049183648
40
0.903937448883127
40
0.906051866549721
40
0.907221288563007
40
0.90909130545563
40
0.938255086030151
40
0.99918753960984
40
1
40
1
40
1
40
1
41
1
10
50.8558717330285
20
1.26141087708152
30
0
41
1
10
50.9029890041796
20
1.28092809907699
30
0
41
1
10
50.9978241177774
20
1.30846285963719
30
0
41
1
10
51.1128661387916
20
1.32099160142937
30
0
41
1
10
51.2179479258456
20
1.32105502213136
30
0
41
1
10
51.2888399281064
20
1.31500100868388
30
0
41
1
10
51.3605193898472
20
1.30541245607842
30
0
41
1
10
51.4714787417089
20
1.28649425935959
30
0
41
1
10
51.6306560636627
20
1.2445083017021
30
0
41
1
10
51.8090543395864
20
1.17821666648817
30
0
41
1
10
51.9381805306724
20
1.12134566122393
30
0
41
1
10
52.0282816275929
20
1.07802896957094
30
0
41
1
10
52.1232354936648
20
1.02981730354853
30
0
41
1
10
52.2004236893747
20
0.987918107663717
30
0
41
1
10
52.2554133280278
20
0.956804535882327
30
0
41
1
10
52.2665168979757
20
0.950474349497512
30
0
41
1
10
52.2694171967457
20
0.948818447010865
30
0
41
1
10
52.2719135950261
20
0.947392051382849
30
0
41
1
10
52.2874067234409
20
0.938539610172086
30
0
41
1
10
52.3318563316064
20
0.913142058093285
30
0
41
1
10
52.3761999651275
20
0.88780504026704
30
0
41
1
10
52.4064852954717
20
0.870500641182787
30
0
41
1
10
52.4068838289745
20
0.87027292754388
30
0
0
SPLINE
5
1B4
100
AcDbEntity
8
1
62
256
6
ByLayer
370
18
48
1
60
0
100
AcDbSpline
70
4
71
1
72
4
73
2
40
0
40
0
40
1
40
1
41
1
10
50.8557738926812
20
1.2608562406287
30
0
41
1
10
50.8558717330285
20
1.26141087708152
30
0
0
SPLINE
5
1B5
100
AcDbEntity
8
1
62
256
6
ByLayer
370
18
48
1
60
0
100
AcDbSpline
70
4
71
3
72
16
73
12
40
0
40
0
40
0
40
0
40
0.25
40
0.25
40
0.5
40
0.5
40
0.625
40
0.625
40
0.75
40
0.75
40
1
40
1
40
1
40
1
41
1
10
50.8557738926812
20
1.2608562406287
30
0
41
1
10
50.8895962189129
20
1.27488474426579
30
0
41
1
10
50.9233721507249
20
1.28589711836253
30
0
41
1
10
50.9911609634359
20
1.30318540811328
30
0
41
1
10
51.0251681118187
20
1.30945134777463
30
0
41
1
10
51.076546341233
20
1.31576941114085
30
0
41
1
10
51.093733355628
20
1.31735889316405
30
0
41
1
10
51.1282532061793
20
1.31957036352276
30
0
41
1
10
51.1455894362885
20
1.32019272185224
30
0
41
1
10
51.1975429081041
20
1.32069142266118
30
0
41
1
10
51.2322168637001
20
1.31919924714694
30
0
41
1
10
51.267040497167
20
1.3161041471389
30
0
0
SPLINE
5
1B6
100
AcDbEntity
8
1
62
256
6
ByLayer
370
18
48
1
60
0
100
AcDbSpline
70
4
71
3
72
22
73
18
40
0
40
0
40
0
40
0
40
0.25
40
0.25
40
0.374999999999987
40
0.374999999999987
40
0.437499999999993
40
0.437499999999993
40
0.5
40
0.5
40
0.75
40
0.75
40
0.874999999999986
40
0.874999999999986
40
0.937499999999993
40
0.937499999999993
40
1
40
1
40
1
40
1
41
1
10
51.2670404971606
20
1.31610414714137
30
0
41
1
10
51.3593743941167
20
1.30789753152189
30
0
41
1
10
51.4518121204181
20
1.29055948074148
30
0
41
1
10
51.5916829336529
20
1.25310262835248
30
0
41
1
10
51.6385099278899
20
1.23869069812449
30
0
41
1
10
51.7091922323412
20
1.21438492608448
30
0
41
1
10
51.7328268869165
20
1.20583380859429
30
0
41
1
10
51.7802698008336
20
1.18785596164921
30
0
41
1
10
51.8041313454443
20
1.17840665913684
30
0
41
1
10
51.9231341325507
20
1.12935786895824
30
0
41
1
10
52.0174014079488
20
1.08444664883521
30
0
41
1
10
52.1586134577145
20
1.01052455504436
30
0
41
1
10
52.2056509958789
20
0.984784081928495
30
0
41
1
10
52.2763052388238
20
0.944717202741089
30
0
41
1
10
52.299873008344
20
0.931118662275054
30
0
41
1
10
52.3470667179306
20
0.903465174450332
30
0
41
1
10
52.3706830283226
20
0.889410679141406
30
0
41
1
10
52.3941566170767
20
0.875256188933093
30
0
0
SPLINE
5
1B7
100
AcDbEntity
8
1
62
256
6
ByLayer
370
18
48
1
60
0
100
AcDbSpline
70
4
71
3
72
20
73
16
40
0
40
0
40
0
40
0
40
0.250000000000015
40
0.250000000000015
40
0.375000000000023
40
0.375000000000023
40
0.50000000000003
40
0.50000000000003
40
0.750000000000023
40
0.750000000000023
40
0.875000000000019
40
0.875000000000019
40
0.93750000000001
40
0.93750000000001
40
1
40
1
40
1
40
1
41
1
10
53.3417123807123
20
-1.06474047511566
30
0
41
1
10
53.4034027158172
20
-1.04059122603314
30
0
41
1
10
53.4615425115905
20
-1.01133255199994
30
0
41
1
10
53.5434666611094
20
-0.959805299589334
30
0
41
1
10
53.5699533588244
20
-0.941283183281058
30
0
41
1
10
53.6205545780884
20
-0.902079496692579
30
0
41
1
10
53.6447263147928
20
-0.881377554173241
30
0
41
1
10
53.7139296728325
20
-0.816028009568612
30
0
41
1
10
53.7556560166417
20
-0.768147925554814
30
0
41
1
10
53.8115829489738
20
-0.689762681490919
30
0
41
1
10
53.8291131156128
20
-0.662536838533924
30
0
41
1
10
53.8536972357701
20
-0.620005469332
30
0
41
1
10
53.8616096447318
20
-0.605536682418091
30
0
41
1
10
53.8767470427939
20
-0.576242218320402
30
0
41
1
10
53.8839870699664
20
-0.561391820414968
30
0
41
1
10
53.8909011729323
20
-0.546340447049488
30
0
0
SPLINE
5
1B8
100
AcDbEntity
8
1
62
256
6
ByLayer
370
18
48
1
60
0
100
AcDbSpline
70
4
71
3
72
8
73
4
40
0
40
0
40
0
40
0
40
1
40
1
40
1
40
1
41
1
10
53.8909011729365
20
-0.546340447030616
30
0
41
1
10
53.8740561118958
20
-0.529460652977548
30
0
41
1
10
53.857032358509
20
-0.512263684898926
30
0
41
1
10
53.8398237742479
20
-0.494737554943896
30
0
0
SPLINE
5
1B9
100
AcDbEntity
8
1
62
256
6
ByLayer
370
18
48
1
60
0
100
AcDbSpline
70
4
71
1
72
4
73
2
40
0
40
0
40
1
40
1
41
1
10
50.8558717332226
20
-0.246857506625446
30
0
41
1
10
50.8959319034416
20
-0.0886955059248749
30
0
0
SPLINE
5
1BA
100
AcDbEntity
8
1
62
256
6
ByLayer
370
18
48
1
60
0
100
AcDbSpline
70
4
71
3
72
29
73
25
40
0
40
0
40
0
40
0
40
0.0294215188884312
40
0.0667614285953234
40
0.112241609444036
40
0.181428300836366
40
0.251209318851673
40
0.297776947673589
40
0.344231129663246
40
0.413791889345443
40
0.552376994149343
40
0.629078535158636
40
0.659744884143229
40
0.721008265542666
40
0.774898548285513
40
0.823177886817885
40
0.876389586383075
40
0.893363042504467
40
0.901259819689158
40
0.903084426280938
40
0.904898411697324
40
0.908391644270521
40
0.956659547291529
40
1
40
1
40
1
40
1
41
1
10
50.8558717332226
20
-0.246857506625446
30
0
41
1
10
50.871382234615
20
-0.251457236067324
30
0
41
1
10
50.9063598196261
20
-0.263039316631421
30
0
41
1
10
50.9649585333911
20
-0.286193928775759
30
0
41
1
10
51.0430166658208
20
-0.322032682518909
30
0
41
1
10
51.1361345578028
20
-0.370889097821163
30
0
41
1
10
51.2296474129487
20
-0.424985735114234
30
0
41
1
10
51.3126846219703
20
-0.475118962545054
30
0
41
1
10
51.3962449494565
20
-0.525653837523947
30
0
41
1
10
51.5271748125301
20
-0.604874303049172
30
0
41
1
10
51.6751702755216
20
-0.693246284067669
30
0
41
1
10
51.8052269236771
20
-0.767683895904895
30
0
41
1
10
51.8951291220799
20
-0.817581394069236
30
0
41
1
10
51.9728152880727
20
-0.859436846688595
30
0
41
1
10
52.0594262630188
20
-0.903991114170935
30
0
41
1
10
52.1416968367277
20
-0.944298404726169
30
0
41
1
10
52.2041137910482
20
-0.973183188400384
30
0
41
1
10
52.2451183523569
20
-0.991313245490915
30
0
41
1
10
52.259082560238
20
-0.997380819633491
30
0
41
1
10
52.2651436567864
20
-0.999996140710351
30
0
41
1
10
52.2688940515319
20
-1.00161178229925
30
0
41
1
10
52.2946779374558
20
-1.01265448602445
30
0
41
1
10
52.3407947685388
20
-1.03127887033531
30
0
41
1
10
52.3855868665429
20
-1.04738828511714
30
0
41
1
10
52.4068566872523
20
-1.05459579609865
30
0
0
SPLINE
5
1BB
100
AcDbEntity
8
1
62
256
6
ByLayer
370
18
48
1
60
0
100
AcDbSpline
70
4
71
3
72
8
73
4
40
0
40
0
40
0
40
0
40
1
40
1
40
1
40
1
41
1
10
52.4418693305301
20
-1.06335546622944
30
0
41
1
10
52.4305056576124
20
-1.05971767545657
30
0
41
1
10
52.418832663137
20
-1.05679887273982
30
0
41
1
10
52.4068566872523
20
-1.05459579609868
30
0
0
SPLINE
5
1BC
100
AcDbEntity
8
1
62
256
6
ByLayer
370
18
48
1
60
0
100
AcDbSpline
70
4
71
3
72
10
73
6
40
0
40
0
40
0
40
0
40
0.5
40
0.5
40
1
40
1
40
1
40
1
41
1
10
52.4418693305299
20
-1.0633554662293
30
0
41
1
10
52.4872619358609
20
-1.07788675395881
30
0
41
1
10
52.5325258434593
20
-1.0906432050831
30
0
41
1
10
52.6226315871013
20
-1.11223885254375
30
0
41
1
10
52.667516426165
20
-1.12109555164443
30
0
41
1
10
52.7123157114358
20
-1.12778548518762
30
0
0
SPLINE
5
1BD
100
AcDbEntity
8
1
62
256
6
ByLayer
370
18
48
1
60
0
100
AcDbSpline
70
4
71
3
72
12
73
8
40
0
40
0
40
0
40
0
40
0.261269359223304
40
0.40006023249038
40
0.818488448290991
40
0.958573699081114
40
1
40
1
40
1
40
1
41
1
10
52.7123157112223
20
-1.12778548515575
30
0
41
1
10
52.7688588448957
20
-1.13564863534904
30
0
41
1
10
52.8557337089678
20
-1.14280478900289
30
0
41
1
10
53.0323389491256
20
-1.14079725058147
30
0
41
1
10
53.1795242795441
20
-1.11850162477614
30
0
41
1
10
53.2986263200878
20
-1.0809617072342
30
0
41
1
10
53.3337464126746
20
-1.06782932497367
30
0
41
1
10
53.3417123807134
20
-1.06474047511523
30
0
0
SPLINE
5
1BE
100
AcDbEntity
8
1
62
256
6
ByLayer
370
18
48
1
60
0
100
AcDbSpline
70
4
71
3
72
12
73
8
40
0
40
0
40
0
40
0
40
0.390056175792775
40
0.390056175792775
40
0.780112353870482
40
0.780112353870482
40
1
40
1
40
1
40
1
41
1
10
53.8398237748301
20
-0.494737565827705
30
0
41
1
10
53.8248352504258
20
-0.476737308023814
30
0
41
1
10
53.8098493904132
20
-0.458742114515616
30
0
41
1
10
53.7798835091661
20
-0.422762866579944
30
0
41
1
10
53.7649034867584
20
-0.404778799968597
30
0
41
1
10
53.7414837378414
20
-0.376666056152374
30
0
41
1
10
53.7330418259075
20
-0.366533218192927
30
0
41
1
10
53.7246009887914
20
-0.35640242643035
30
0
0
SPLINE
5
1BF
100
AcDbEntity
8
1
62
256
6
ByLayer
370
18
48
1
60
0
100
AcDbSpline
70
4
71
3
72
27
73
23
40
0
40
0
40
0
40
0
40
0.250000000000006
40
0.250000000000006
40
0.281250000000012
40
0.281250000000012
40
0.312500000000017
40
0.375000000000029
40
0.375000000000029
40
0.500000000000051
40
0.500000000000051
40
0.562500000000051
40
0.562500000000051
40
0.62500000000005
40
0.62500000000005
40
0.750000000000025
40
0.750000000000025
40
0.874999999999999
40
0.874999999999999
40
0.937499999999999
40
0.937499999999999
40
1
40
1
40
1
40
1
41
1
10
53.7246009887964
20
-0.356402426432453
30
0
41
1
10
53.6845029240679
20
-0.428106310869879
30
0
41
1
10
53.6360467674849
20
-0.490480371412815
30
0
41
1
10
53.5717270073137
20
-0.549704468253964
30
0
41
1
10
53.5644298846572
20
-0.556139300481874
30
0
41
1
10
53.5496595418091
20
-0.568596613998039
30
0
41
1
10
53.5272102514921
20
-0.586694065447801
30
0
41
1
10
53.5038785782104
20
-0.603023847294054
30
0
41
1
10
53.4560374411553
20
-0.633323954225403
30
0
41
1
10
53.422598661324
20
-0.650429565454829
30
0
41
1
10
53.3701129502128
20
-0.67142524028543
30
0
41
1
10
53.3522240131059
20
-0.677635102866702
30
0
41
1
10
53.3156333049619
20
-0.688426485360424
30
0
41
1
10
53.2968662411674
20
-0.693015553889666
30
0
41
1
10
53.2401936195998
20
-0.70411754560493
30
0
41
1
10
53.2017152984488
20
-0.708070344974487
30
0
41
1
10
53.1234384528744
20
-0.70944000898433
30
0
41
1
10
53.0836333247174
20
-0.706824180498927
30
0
41
1
10
53.022901373948
20
-0.697829637642656
30
0
41
1
10
53.0024539217069
20
-0.693972031811853
30
0
41
1
10
52.9618165214965
20
-0.684705508555027
30
0
41
1
10
52.9415540439068
20
-0.67929281695487
30
0
41
1
10
52.9213467365757
20
-0.67311528314238
30
0
0
SPLINE
5
1C0
100
AcDbEntity
8
1
62
256
6
ByLayer
370
18
48
1
60
0
100
AcDbSpline
70
4
71
1
72
4
73
2
40
0
40
0
40
1
40
1
41
1
10
50.8959319034416
20
-0.0886955059248749
30
0
41
1
10
51.0124488894744
20
0.255976806613802
30
0
0
SPLINE
5
1C1
100
AcDbEntity
8
1
62
256
6
ByLayer
370
18
48
1
60
0
100
AcDbSpline
70
4
71
3
72
38
73
34
40
0
40
0
40
0
40
0
40
0.0135787729581045
40
0.0308120829754665
40
0.0518023334169906
40
0.0837337363367868
40
0.115939435981608
40
0.137431571087478
40
0.158871347619207
40
0.19097539248853
40
0.25493591337949
40
0.290335608917012
40
0.30448890235828
40
0.33276349789576
40
0.35763522245859
40
0.379917354764014
40
0.40447589607694
40
0.412309574136211
40
0.415954135958403
40
0.416796237915871
40
0.417633437933036
40
0.419245652862564
40
0.441522507391097
40
0.472126647510675
40
0.530234675665756
40
0.60755037432712
40
0.635031174671528
40
0.717880586784934
40
0.745617675813489
40
0.829109411959521
40
0.85696658850028
40
0.912513514643938
40
1
40
1
40
1
40
1
41
1
10
50.8959319034416
20
-0.0886955059248749
30
0
41
1
10
50.9107531335285
20
-0.0930865191888586
30
0
41
1
10
50.9442064994335
20
-0.10423364300442
30
0
41
1
10
50.9998768878615
20
-0.126644363725688
30
0
41
1
10
51.0746504637401
20
-0.161793392982616
30
0
41
1
10
51.1645723680581
20
-0.210099570812133
30
0
41
1
10
51.2547546828131
20
-0.263747509917408
30
0
41
1
10
51.3342012590511
20
-0.313520733606055
30
0
41
1
10
51.4144281292576
20
-0.363826638953412
30
0
41
1
10
51.5411569565171
20
-0.443087825991995
30
0
41
1
10
51.685547433158
20
-0.531950500832096
30
0
41
1
10
51.8116342314894
20
-0.607142701557279
30
0
41
1
10
51.8982968098278
20
-0.657728585745218
30
0
41
1
10
51.9734746462823
20
-0.700324130243303
30
0
41
1
10
52.0579154367207
20
-0.745892684600278
30
0
41
1
10
52.1380442196375
20
-0.787317864188623
30
0
41
1
10
52.1989854312674
20
-0.817139304528098
30
0
41
1
10
52.2389112727315
20
-0.835975959601001
30
0
41
1
10
52.2525621420238
20
-0.84226793016623
30
0
41
1
10
52.2584466088768
20
-0.844984623114271
30
0
41
1
10
52.2620692400875
20
-0.84668210264806
30
0
41
1
10
52.2904388656091
20
-0.85792429610845
30
0
41
1
10
52.3525667451528
20
-0.881664503727933
30
0
41
1
10
52.4781495368065
20
-0.924074178774021
30
0
41
1
10
52.6637901527191
20
-0.9720238013266
30
0
41
1
10
52.8406683705391
20
-0.993748158532128
30
0
41
1
10
53.0369682472794
20
-0.994716019161189
30
0
41
1
10
53.1746887761566
20
-0.976764259431349
30
0
41
1
10
53.3550511723175
20
-0.925879464779683
30
0
41
1
10
53.4738093776573
20
-0.871335151807557
30
0
41
1
10
53.6012104982287
20
-0.784976792462516
30
0
41
1
10
53.7194064690443
20
-0.680554872541478
30
0
41
1
10
53.7992718315777
20
-0.570590207176252
30
0
41
1
10
53.8398237717738
20
-0.494737566428284
30
0
0
SPLINE
5
1C2
100
AcDbEntity
8
1
62
256
6
ByLayer
370
18
48
1
60
0
100
AcDbSpline
70
4
71
3
72
8
73
4
40
0
40
0
40
0
40
0
40
1
40
1
40
1
40
1
41
1
10
52.9687755559357
20
-0.566290390722173
30
0
41
1
10
52.9542424482856
20
-0.602987723239011
30
0
41
1
10
52.9385312109744
20
-0.638679945244803
30
0
41
1
10
52.921346736562
20
-0.673115283130727
30
0
0
SPLINE
5
1C3
100
AcDbEntity
8
1
62
256
6
ByLayer
370
18
48
1
60
0
100
AcDbSpline
70
4
71
3
72
8
73
4
40
0
40
0
40
0
40
0
40
1
40
1
40
1
40
1
41
1
10
50.9228506901391
20
0.332835625142309
30
0
41
1
10
50.8995292517348
20
0.339126868999898
30
0
41
1
10
50.8762452613006
20
0.345488456169846
30
0
41
1
10
50.8529999999999
20
0.351925212590345
30
0
0
SPLINE
5
1C4
100
AcDbEntity
8
1
62
256
6
ByLayer
370
18
48
1
60
0
100
AcDbSpline
70
4
71
3
72
8
73
4
40
0
40
0
40
0
40
0
40
1
40
1
40
1
40
1
41
1
10
50.9228506901391
20
0.332835625142309
30
0
41
1
10
50.9531670820465
20
0.307854961652509
30
0
41
1
10
50.9830312777359
20
0.282232701161263
30
0
41
1
10
51.0124488894745
20
0.25597680661383
30
0
0
SPLINE
5
1C5
100
AcDbEntity
8
1
62
256
6
ByLayer
370
18
48
1
60
0
100
AcDbSpline
70
4
71
3
72
52
73
48
40
0
40
0
40
0
40
0
40
0.0312499999999828
40
0.0312499999999828
40
0.0624999999999656
40
0.0624999999999656
40
0.124999999999931
40
0.124999999999931
40
0.187499999999897
40
0.187499999999897
40
0.218749999999871
40
0.218749999999871
40
0.249999999999846
40
0.249999999999846
40
0.312499999999795
40
0.312499999999795
40
0.320312499999797
40
0.320312499999797
40
0.328124999999799
40
0.328124999999799
40
0.343749999999802
40
0.343749999999802
40
0.37499999999981
40
0.37499999999981
40
0.437499999999826
40
0.437499999999826
40
0.468749999999841
40
0.468749999999841
40
0.499999999999857
40
0.499999999999857
40
0.624999999999904
40
0.624999999999904
40
0.687499999999927
40
0.687499999999927
40
0.718749999999939
40
0.718749999999939
40
0.749999999999951
40
0.749999999999951
40
0.81249999999996
40
0.81249999999996
40
0.874999999999969
40
0.874999999999969
40
0.937499999999978
40
0.937499999999978
40
0.968749999999989
40
0.968749999999989
40
1
40
1
40
1
40
1
41
1
10
52.9213467365754
20
-0.67311528313428
30
0
41
1
10
52.9006895659425
20
-0.67678608261258
30
0
41
1
10
52.879803969306
20
-0.679681063147086
30
0
41
1
10
52.8375594697581
20
-0.683946521135567
30
0
41
1
10
52.816144985276
20
-0.685317502715122
30
0
41
1
10
52.751546853078
20
-0.687162627988869
30
0
41
1
10
52.7083796713142
20
-0.6853845001325
30
0
41
1
10
52.6216961644114
20
-0.67657549354675
30
0
41
1
10
52.578181906483
20
-0.669551104490409
30
0
41
1
10
52.5125259942768
20
-0.655402328367813
30
0
41
1
10
52.490512311707
20
-0.650063640427845
30
0
41
1
10
52.4467192202511
20
-0.638318199661001
30
0
41
1
10
52.4249383527597
20
-0.631913092059648
30
0
41
1
10
52.3598866578489
20
-0.611249805708184
30
0
41
1
10
52.3168982178893
20
-0.5955911482624
30
0
41
1
10
52.26884649509
20
-0.576075394197687
30
0
41
1
10
52.2635118302351
20
-0.573879985460394
30
0
41
1
10
52.2528509948873
20
-0.569435557889847
30
0
41
1
10
52.2475357553022
20
-0.567116618076341
30
0
41
1
10
52.231490893854
20
-0.560790736898213
30
0
41
1
10
52.2208233849642
20
-0.556392997133543
30
0
41
1
10
52.1888416129221
20
-0.543063292881385
30
0
41
1
10
52.1675824439174
20
-0.533774833648295
30
0
41
1
10
52.1039463075827
20
-0.504840676153208
30
0
41
1
10
52.0617081637326
20
-0.484146115584878
30
0
41
1
10
51.9985168744959
20
-0.451148602905448
30
0
41
1
10
51.9774479743485
20
-0.439816207614911
30
0
41
1
10
51.9356852305055
20
-0.416757783835635
30
0
41
1
10
51.9149552291225
20
-0.405010371397253
30
0
41
1
10
51.8120130503186
20
-0.345260729071242
30
0
41
1
10
51.7319888665934
20
-0.294127531537868
30
0
41
1
10
51.6143850752379
20
-0.214099168822969
30
0
41
1
10
51.5755850920878
20
-0.186873987816199
30
0
41
1
10
51.5179014593696
20
-0.14535152891338
30
0
41
1
10
51.4987651806301
20
-0.131399186313928
30
0
41
1
10
51.4609459663082
20
-0.103528297875755
30
0
41
1
10
51.4422218829767
20
-0.089581680793259
30
0
41
1
10
51.3865677221207
20
-0.0477443409225486
30
0
41
1
10
51.3501502291928
20
-0.0198582915477346
30
0
41
1
10
51.2787942164506
20
0.0358622319741926
30
0
41
1
10
51.2438464806542
20
0.0636918317332231
30
0
41
1
10
51.1753222482304
20
0.119156655353663
30
0
41
1
10
51.1417381674694
20
0.14678862583014
30
0
41
1
10
51.0923559104317
20
0.188008936766124
30
0
41
1
10
51.0760385054691
20
0.20172888970464
30
0
41
1
10
51.0438781511794
20
0.228996150508379
30
0
41
1
10
51.0280368988235
20
0.2425344758758
30
0
41
1
10
51.0124488894744
20
0.25597680661383
30
0
0
SPLINE
5
1C6
100
AcDbEntity
8
1
62
256
6
ByLayer
370
18
48
1
60
0
100
AcDbSpline
70
4
71
3
72
8
73
4
40
0
40
0
40
0
40
0
40
1
40
1
40
1
40
1
41
1
10
53.9922773528298
20
-0.0430719671001896
30
0
41
1
10
53.9920769714677
20
-0.041911571899135
30
0
41
1
10
53.991876388787
20
-0.0407512032774093
30
0
41
1
10
53.9916756015695
20
-0.0395908617438181
30
0
0
SPLINE
5
1C7
100
AcDbEntity
8
1
62
256
6
ByLayer
370
18
48
1
60
0
100
AcDbSpline
70
4
71
3
72
8
73
4
40
0
40
0
40
0
40
0
40
1
40
1
40
1
40
1
41
1
10
53.9916408529595
20
0.0002241465981569
30
0
41
1
10
53.9942823691205
20
-0.0130414234025409
30
0
41
1
10
53.9968833649612
20
-0.026313213100849
30
0
41
1
10
53.9994443203761
20
-0.0395908617441023
30
0
0
SPLINE
5
1C8
100
AcDbEntity
8
1
62
256
6
ByLayer
370
18
48
1
60
0
100
AcDbSpline
70
4
71
3
72
8
73
4
40
0
40
0
40
0
40
0
40
1
40
1
40
1
40
1
41
1
10
53.9921644584559
20
0.042799684115721
30
0
41
1
10
53.9920016399501
20
0.0418664385635736
30
0
41
1
10
53.991838688229
20
0.0409332104349573
30
0
41
1
10
53.9916756015695
20
0.0399999999999068
30
0
0
SPLINE
5
1C9
100
AcDbEntity
8
1
62
256
6
ByLayer
370
18
48
1
60
0
100
AcDbSpline
70
4
71
3
72
8
73
4
40
0
40
0
40
0
40
0
40
1
40
1
40
1
40
1
41
1
10
53.9994614923237
20
0.0400000000000205
30
0
41
1
10
53.9994659127377
20
0.0397652324327282
30
0
41
1
10
53.9994703184582
20
0.0395304645373926
30
0
41
1
10
53.9994747094854
20
0.0392956963108304
30
0
0
SPLINE
5
1CA
100
AcDbEntity
8
1
62
256
6
ByLayer
370
18
48
1
60
0
100
AcDbSpline
70
4
71
3
72
8
73
4
40
0
40
0
40
0
40
0
40
1
40
1
40
1
40
1
41
1
10
51.2670372806809
20
-1.79553567716201
30
0
41
1
10
51.2849041247094
20
-1.80476445970382
30
0
41
1
10
51.3027749313337
20
-1.81367451656968
30
0
41
1
10
51.3206547780491
20
-1.82226775092011
30
0
0
SPLINE
5
1CB
100
AcDbEntity
8
1
62
256
6
ByLayer
370
18
48
1
60
0
100
AcDbSpline
70
4
71
3
72
10
73
6
40
0
40
0
40
0
40
0
40
0.115240888422039
40
0.115240888422039
40
1
40
1
40
1
40
1
41
1
10
52.3142479376541
20
-1.9729300258339
30
0
41
1
10
52.3173204370999
20
-1.97237698739417
30
0
41
1
10
52.3203934010338
20
-1.97181420315246
30
0
41
1
10
52.3470632446044
20
-1.96684589240593
30
0
41
1
10
52.3706803194893
20
-1.96186785979441
30
0
41
1
10
52.394153796742
20
-1.95634698905778
30
0
0
SPLINE
5
1CC
100
AcDbEntity
8
1
62
256
6
ByLayer
370
18
48
1
60
0
100
AcDbSpline
70
4
71
3
72
10
73
6
40
0
40
0
40
0
40
0
40
0.5
40
0.5
40
1
40
1
40
1
40
1
41
1
10
50.6965479951122
20
-1.57703718798126
30
0
41
1
10
50.6895973652119
20
-1.57671953019462
30
0
41
1
10
50.6824308118255
20
-1.57666487509749
30
0
41
1
10
50.6678289960629
20
-1.57714330452583
30
0
41
1
10
50.6603661925119
20
-1.5776743235279
30
0
41
1
10
50.6527178244278
20
-1.57853980809349
30
0
0
SPLINE
5
1CD
100
AcDbEntity
8
1
62
256
6
ByLayer
370
18
48
1
60
0
100
AcDbSpline
70
4
71
3
72
29
73
25
40
0
40
0
40
0
40
0
40
0.0294215188866776
40
0.0667614285964837
40
0.112241609443768
40
0.181428300836286
40
0.251209318851322
40
0.297776947673369
40
0.344231129663137
40
0.413791889344883
40
0.5523769941496
40
0.629078535159466
40
0.659744884143752
40
0.721008265541799
40
0.774898548284156
40
0.823177886817096
40
0.87638958638145
40
0.893363042501847
40
0.90125981968612
40
0.903084426277822
40
0.904898411694167
40
0.908391644267336
40
0.956659547290491
40
1
40
1
40
1
40
1
41
1
10
50.8558717332226
20
-1.53638562358742
30
0
41
1
10
50.8713822346196
20
-1.54759147676697
30
0
41
1
10
50.9063598196283
20
-1.57262410907734
30
0
41
1
10
50.9649585333864
20
-1.61339884864202
30
0
41
1
10
51.0430166658241
20
-1.66554115110054
30
0
41
1
10
51.1361345578017
20
-1.7236365782216
30
0
41
1
10
51.229647412949
20
-1.7765127656092
30
0
41
1
10
51.3126846219703
20
-1.81889846613709
30
0
41
1
10
51.3962449494557
20
-1.85750963380613
30
0
41
1
10
51.5271748125317
20
-1.9101946221665
30
0
41
1
10
51.6751702755217
20
-1.95413620096485
30
0
41
1
10
51.8052269236764
20
-1.97820202764345
30
0
41
1
10
51.8951291220789
20
-1.9897243389743
30
0
41
1
10
51.9728152880736
20
-1.99591045393603
30
0
41
1
10
52.0594262630192
20
-1.99751986873085
30
0
41
1
10
52.1416968367243
20
-1.99460183694603
30
0
41
1
10
52.2041137910433
20
-1.98900183789638
30
0
41
1
10
52.2451183523532
20
-1.98379670439746
30
0
41
1
10
52.259082560234
20
-1.98183606567295
30
0
41
1
10
52.2651436567822
20
-1.98095465636291
30
0
41
1
10
52.2688940515277
20
-1.98040210313576
30
0
41
1
10
52.2946779374534
20
-1.97652643702298
30
0
41
1
10
52.3407947685324
20
-1.96845676076532
30
0
41
1
10
52.3855868665392
20
-1.95861836171605
30
0
41
1
10
52.4068566872496
20
-1.95349980996909
30
0
0
SPLINE
5
1CE
100
AcDbEntity
8
1
62
256
6
ByLayer
370
18
48
1
60
0
100
AcDbSpline
70
4
71
3
72
10
73
6
40
0
40
0
40
0
40
0
40
0.5
40
0.5
40
1
40
1
40
1
40
1
41
1
10
52.4418693305297
20
-1.9442793771656
30
0
41
1
10
52.4872619358298
20
-1.93237885692611
30
0
41
1
10
52.5325258433988
20
-1.9185248585313
30
0
41
1
10
52.6226315869812
20
-1.88691391477317
30
0
41
1
10
52.6675164260153
20
-1.86914784601316
30
0
41
1
10
52.7123157112565
20
-1.84935987870301
30
0
0
SPLINE
5
1CF
100
AcDbEntity
8
1
62
256
6
ByLayer
370
18
48
1
60
0
100
AcDbSpline
70
4
71
3
72
8
73
4
40
0
40
0
40
0
40
0
40
1
40
1
40
1
40
1
41
1
10
52.4418693305302
20
-1.94427937716554
30
0
41
1
10
52.4305056576116
20
-1.94725857650138
30
0
41
1
10
52.4188326631354
20
-1.95032891921829
30
0
41
1
10
52.4068566872497
20
-1.95349980996909
30
0
0
SPLINE
5
1D0
100
AcDbEntity
8
1
62
256
6
ByLayer
370
18
48
1
60
0
100
AcDbSpline
70
4
71
3
72
8
73
4
40
0
40
0
40
0
40
0
40
1
40
1
40
1
40
1
41
1
10
52.4068566872497
20
-1.95349980996909
30
0
41
1
10
52.4026589933823
20
-1.95446359954181
30
0
41
1
10
52.3984252791314
20
-1.95541246187707
30
0
41
1
10
52.394153796742
20
-1.95634698905778
30
0
0
SPLINE
5
1D1
100
AcDbEntity
8
1
62
256
6
ByLayer
370
18
48
1
60
0
100
AcDbSpline
70
4
71
3
72
18
73
14
40
0
40
0
40
0
40
0
40
0.0816789690816258
40
0.0816789690816258
40
0.183714639183652
40
0.183714639183652
40
0.591857319591804
40
0.591857319591804
40
0.795928659795902
40
0.795928659795902
40
0.897964329897951
40
0.897964329897951
40
1
40
1
40
1
40
1
41
1
10
51.6997406752221
20
1.95165277538001
30
0
41
1
10
51.7186251116111
20
1.95617057799558
30
0
41
1
10
51.7375584865911
20
1.96035100262725
30
0
41
1
10
51.7802687377328
20
1.96898348481361
30
0
41
1
10
51.8041300500541
20
1.97325064633645
30
0
41
1
10
51.9231349672087
20
1.99172519475849
30
0
41
1
10
52.0174020549221
20
1.99749077434717
30
0
41
1
10
52.1586133281313
20
1.99287712145994
30
0
41
1
10
52.2056502805819
20
1.98911552622286
30
0
41
1
10
52.2763031188314
20
1.98006298910687
30
0
41
1
10
52.2998703922566
20
1.97647915280271
30
0
41
1
10
52.3470629757626
20
1.96815769056047
30
0
41
1
10
52.3706801994431
20
1.96341342745723
30
0
41
1
10
52.3941537967433
20
1.95812298422368
30
0
0
SPLINE
5
1D2
100
AcDbEntity
8
1
62
256
6
ByLayer
370
18
48
1
60
0
100
AcDbSpline
70
4
71
3
72
8
73
4
40
0
40
0
40
0
40
0
40
1
40
1
40
1
40
1
41
1
10
52.4068566872517
20
1.95534777254775
30
0
41
1
10
52.4026589933841
20
1.95628567370795
30
0
41
1
10
52.398425279133
20
1.95721051127052
30
0
41
1
10
52.3941537967433
20
1.95812298422368
30
0
0
SPLINE
5
1D3
100
AcDbEntity
8
1
62
256
6
ByLayer
370
18
48
1
60
0
100
AcDbSpline
70
4
71
3
72
14
73
10
40
0
40
0
40
0
40
0
40
0.0136201931446975
40
0.0866644897603948
40
0.103541894551816
40
0.120321054671567
40
0.152633061236701
40
0.599105709915377
40
1
40
1
40
1
40
1
41
1
10
52.2475471272706
20
1.98373806105604
30
0
41
1
10
52.2483186850021
20
1.98364202952891
30
0
41
1
10
52.2532269971401
20
1.98302720274847
30
0
41
1
10
52.2590825602334
20
1.98226390314997
30
0
41
1
10
52.265143656782
20
1.98144334170888
30
0
41
1
10
52.2688940515273
20
1.98092845701754
30
0
41
1
10
52.2946779374535
20
1.97731122368631
30
0
41
1
10
52.3407947685314
20
1.96969247892213
30
0
41
1
10
52.3855868665401
20
1.96027220701629
30
0
41
1
10
52.4068566872516
20
1.95534777254778
30
0
0
SPLINE
5
1D4
100
AcDbEntity
8
1
62
256
6
ByLayer
370
18
48
1
60
0
100
AcDbSpline
70
4
71
3
72
8
73
4
40
0
40
0
40
0
40
0
40
1
40
1
40
1
40
1
41
1
10
52.4418693305305
20
1.94639273568535
30
0
41
1
10
52.4305056576125
20
1.94927007092488
30
0
41
1
10
52.4188326631368
20
1.95225200082933
30
0
41
1
10
52.4068566872517
20
1.95534777254775
30
0
0
SPLINE
5
1D5
100
AcDbEntity
8
1
62
256
6
ByLayer
370
18
48
1
60
0
100
AcDbSpline
70
4
71
3
72
10
73
6
40
0
40
0
40
0
40
0
40
0.5
40
0.5
40
1
40
1
40
1
40
1
41
1
10
52.44186933053
20
1.94639273568544
30
0
41
1
10
52.4872619358252
20
1.93489911528883
30
0
41
1
10
52.5325258433894
20
1.92143579667541
30
0
41
1
10
52.6226315869622
20
1.89056639813398
30
0
41
1
10
52.6675164259915
20
1.87315163371386
30
0
41
1
10
52.712315711228
20
1.8536916023435
30
0
0
SPLINE
5
1D6
100
AcDbEntity
8
1
62
256
6
ByLayer
370
18
48
1
60
0
100
AcDbSpline
70
4
71
3
72
8
73
4
40
0
40
0
40
0
40
0
40
1
40
1
40
1
40
1
41
1
10
53.9994747094028
20
0.0392957005798564
30
0
41
1
10
53.9970325864174
20
0.0265168598954517
30
0
41
1
10
53.9945480411627
20
0.0137442966756964
30
0
41
1
10
53.992020433633
20
0.0009781135046012
30
0
0
LINE
5
7F
100
AcDbEntity
8
80
62
256
6
ByLayer
370
18
48
1
60
0
100
AcDbLine
10
0
20
0
30
0
11
-3
21
0
31
0
39
0
210
0
220
0
230
1
0
LINE
5
80
100
AcDbEntity
8
81
62
256
6
ByLayer
370
18
48
1
60
0
100
AcDbLine
10
54
20
0
30
0
11
57
21
0
31
0
39
0
210
0
220
0
230
1
0
LINE
5
81
100
AcDbEntity
8
4
62
256
6
ByLayer
370
18
48
0.05
60
0
100
AcDbLine
10
0
20
0
30
0
11
57
21
0
31
0
39
0
210
0
220
0
230
1
0
LINE
5
83
100
AcDbEntity
8
SK4
62
256
6
ByLayer
370
18
48
0.05
60
0
100
AcDbLine
10
-39
20
0
30
0
11
57
21
0
31
0
39
0
210
0
220
0
230
1
0
LINE
5
85
100
AcDbEntity
8
81
62
256
6
ByLayer
370
18
48
1
60
0
100
AcDbLine
10
-36
20
0
30
0
11
-36
21
1.9865
31
0
39
0
210
0
220
0
230
1
0
LINE
5
86
100
AcDbEntity
8
81
62
256
6
ByLayer
370
18
48
1
60
0
100
AcDbLine
10
-36
20
1.621258
30
0
11
-36
21
1.621904
31
0
39
0
210
0
220
0
230
1
0
LINE
5
87
100
AcDbEntity
8
81
62
256
6
ByLayer
370
18
48
1
60
0
100
AcDbLine
10
-39.277019
20
0
30
0
11
-39.577019
21
0
31
0
39
0
210
0
220
0
230
1
0
LINE
5
88
100
AcDbEntity
8
81
62
256
6
ByLayer
370
18
48
1
60
0
100
AcDbLine
10
-37.9865
20
0
30
0
11
-39.1335
21
0
31
0
39
0
210
0
220
0
230
1
0
LINE
5
89
100
AcDbEntity
8
81
62
256
6
ByLayer
370
18
48
1
60
0
100
AcDbLine
10
50.709481
20
0
30
0
11
50.852237
21
0
31
0
39
0
210
0
220
0
230
1
0
LINE
5
8A
100
AcDbEntity
8
81
62
256
6
ByLayer
370
18
48
1
60
0
100
AcDbLine
10
-39.277019
20
0
30
0
11
-39.134263
21
0
31
0
39
0
210
0
220
0
230
1
0
LINE
5
8B
100
AcDbEntity
8
81
62
256
6
ByLayer
370
18
48
1
60
0
100
AcDbLine
10
-39.134263
20
0
30
0
11
-39.1335
21
0
31
0
39
0
210
0
220
0
230
1
0
LINE
5
8C
100
AcDbEntity
8
81
62
256
6
ByLayer
370
18
48
1
60
0
100
AcDbLine
10
-40.178121
20
0
30
0
11
-39.577019
21
0
31
0
39
0
210
0
220
0
230
1
0
LINE
5
8D
100
AcDbEntity
8
81
62
256
6
ByLayer
370
18
48
1
60
0
100
AcDbLine
10
52
20
0
30
0
11
50.853
21
0
31
0
39
0
210
0
220
0
230
1
0
LINE
5
8E
100
AcDbEntity
8
81
62
256
6
ByLayer
370
18
48
1
60
0
100
AcDbLine
10
-36
20
-1.9865
30
0
11
-36
21
-3.1335
31
0
39
0
210
0
220
0
230
1
0
LINE
5
8F
100
AcDbEntity
8
81
62
256
6
ByLayer
370
18
48
1
60
0
100
AcDbLine
10
-36
20
-3.277019
30
0
11
-36
21
-3.134263
31
0
39
0
210
0
220
0
230
1
0
LINE
5
90
100
AcDbEntity
8
81
62
256
6
ByLayer
370
18
48
1
60
0
100
AcDbLine
10
-36
20
1.9865
30
0
11
-36
21
1.621904
31
0
39
0
210
0
220
0
230
1
0
LINE
5
91
100
AcDbEntity
8
81
62
256
6
ByLayer
370
18
48
1
60
0
100
AcDbLine
10
-36
20
-3.277019
30
0
11
-36
21
-3.577019
31
0
39
0
210
0
220
0
230
1
0
LINE
5
92
100
AcDbEntity
8
81
62
256
6
ByLayer
370
18
48
1
60
0
100
AcDbLine
10
-39.277019
20
0
30
0
11
-39.134263
21
0
31
0
39
0
210
0
220
0
230
1
0
LINE
5
93
100
AcDbEntity
8
81
62
256
6
ByLayer
370
13
48
1
60
0
100
AcDbLine
10
-36
20
-1.9865
30
0
11
-36
21
-1.621904
31
0
39
0
210
0
220
0
230
1
0
LINE
5
94
100
AcDbEntity
8
81
62
256
6
ByLayer
370
18
48
1
60
0
100
AcDbLine
10
-36
20
0
30
0
11
-37.9865
21
0
31
0
39
0
210
0
220
0
230
1
0
LINE
5
95
100
AcDbEntity
8
81
62
256
6
ByLayer
370
13
48
1
60
0
100
AcDbLine
10
-36
20
-1.638411
30
0
11
-36
21
-1.568921
31
0
39
0
210
0
220
0
230
1
0
LINE
5
96
100
AcDbEntity
8
81
62
256
6
ByLayer
370
18
48
1
60
0
100
AcDbLine
10
-36
20
1.638411
30
0
11
-36
21
1.568921
31
0
39
0
210
0
220
0
230
1
0
LINE
5
97
100
AcDbEntity
8
81
62
256
6
ByLayer
370
18
48
1
60
0
100
AcDbLine
10
-36
20
-3.134263
30
0
11
-36
21
-3.1335
31
0
39
0
210
0
220
0
230
1
0
LINE
5
98
100
AcDbEntity
8
81
62
256
6
ByLayer
370
18
48
1
60
0
100
AcDbLine
10
-36
20
0
30
0
11
-37.9865
21
0
31
0
39
0
210
0
220
0
230
1
0
LINE
5
99
100
AcDbEntity
8
81
62
256
6
ByLayer
370
18
48
1
60
0
100
AcDbLine
10
-37.9865
20
0
30
0
11
-39.1335
21
0
31
0
39
0
210
0
220
0
230
1
0
LINE
5
9A
100
AcDbEntity
8
81
62
256
6
ByLayer
370
18
48
1
60
0
100
AcDbLine
10
-36
20
1.568921
30
0
11
-36
21
1.621258
31
0
39
0
210
0
220
0
230
1
0
LINE
5
9B
100
AcDbEntity
8
81
62
256
6
ByLayer
370
18
48
1
60
0
100
AcDbLine
10
-36
20
-4.178121
30
0
11
-36
21
-3.577019
31
0
39
0
210
0
220
0
230
1
0
LINE
5
9C
100
AcDbEntity
8
81
62
256
6
ByLayer
370
13
48
1
60
0
100
AcDbLine
10
-36
20
-1.621258
30
0
11
-36
21
-1.621904
31
0
39
0
210
0
220
0
230
1
0
LINE
5
9D
100
AcDbEntity
8
81
62
256
6
ByLayer
370
18
48
1
60
0
100
AcDbLine
10
-40.178121
20
0
30
0
11
-39.577019
21
0
31
0
39
0
210
0
220
0
230
1
0
LINE
5
9E
100
AcDbEntity
8
81
62
256
6
ByLayer
370
18
48
1
60
0
100
AcDbLine
10
-36
20
0
30
0
11
-36
21
-1.9865
31
0
39
0
210
0
220
0
230
1
0
LINE
5
9F
100
AcDbEntity
8
81
62
256
6
ByLayer
370
18
48
1
60
0
100
AcDbLine
10
-39.134263
20
0
30
0
11
-39.1335
21
0
31
0
39
0
210
0
220
0
230
1
0
LINE
5
A0
100
AcDbEntity
8
81
62
256
6
ByLayer
370
18
48
1
60
0
100
AcDbLine
10
50.709481
20
0
30
0
11
50.409481
21
0
31
0
39
0
210
0
220
0
230
1
0
LINE
5
A1
100
AcDbEntity
8
81
62
256
6
ByLayer
370
18
48
1
60
0
100
AcDbLine
10
53.9865
20
0
30
0
11
52
21
0
31
0
39
0
210
0
220
0
230
1
0
LINE
5
A2
100
AcDbEntity
8
81
62
256
6
ByLayer
370
13
48
1
60
0
100
AcDbLine
10
-36
20
0
30
0
11
-36
21
-1.9865
31
0
39
0
210
0
220
0
230
1
0
LINE
5
A3
100
AcDbEntity
8
81
62
256
6
ByLayer
370
13
48
1
60
0
100
AcDbLine
10
-36
20
-1.568921
30
0
11
-36
21
-1.621258
31
0
39
0
210
0
220
0
230
1
0
LINE
5
A4
100
AcDbEntity
8
81
62
256
6
ByLayer
370
18
48
1
60
0
100
AcDbLine
10
-39.277019
20
0
30
0
11
-39.577019
21
0
31
0
39
0
210
0
220
0
230
1
0
LINE
5
A5
100
AcDbEntity
8
81
62
256
6
ByLayer
370
18
48
1
60
0
100
AcDbLine
10
50.852237
20
0
30
0
11
50.853
21
0
31
0
39
0
210
0
220
0
230
1
0
LINE
5
A6
100
AcDbEntity
8
81
62
256
6
ByLayer
370
18
48
1
60
0
100
AcDbLine
10
49.808379
20
0
30
0
11
50.409481
21
0
31
0
39
0
210
0
220
0
230
1
0
LINE
5
A7
100
AcDbEntity
8
1
62
256
6
ByLayer
370
18
48
1
60
0
100
AcDbLine
10
53.98377
20
-0.045283
30
0
11
53.984223
21
-0.042849
31
0
39
0
210
0
220
0
230
1
0
LINE
5
A8
100
AcDbEntity
8
1
62
256
6
ByLayer
370
18
48
1
60
0
100
AcDbLine
10
53.991951
20
-0.001362
30
0
11
53.992183
21
-0.000119
31
0
39
0
210
0
220
0
230
1
0
LINE
5
A9
100
AcDbEntity
8
1
62
256
6
ByLayer
370
18
48
1
60
0
100
AcDbLine
10
13.959452
20
4
30
0
11
0
21
4
31
0
39
0
210
0
220
0
230
1
0
LINE
5
AA
100
AcDbEntity
8
1
62
256
6
ByLayer
370
18
48
1
60
0
100
AcDbLine
10
0
20
-4
30
0
11
13.959452
21
-4
31
0
39
0
210
0
220
0
230
1
0
LINE
5
AB
100
AcDbEntity
8
1
62
256
6
ByLayer
370
18
48
1
60
0
100
AcDbLine
10
49.684598
20
1.6385
30
0
11
43.998749
21
1.6385
31
0
39
0
210
0
220
0
230
1
0
LINE
5
AC
100
AcDbEntity
8
1
62
256
6
ByLayer
370
18
48
1
60
0
100
AcDbLine
10
43.998749
20
-1.6385
30
0
11
49.7337
21
-1.6385
31
0
39
0
210
0
220
0
230
1
0
LINE
5
AD
100
AcDbEntity
8
1
62
256
6
ByLayer
370
18
48
1
60
0
100
AcDbLine
10
43.920275
20
1.641584
30
0
11
13.959452
21
4
31
0
39
0
210
0
220
0
230
1
0
LINE
5
AE
100
AcDbEntity
8
1
62
256
6
ByLayer
370
18
48
1
60
0
100
AcDbLine
10
13.959452
20
-4
30
0
11
43.920275
21
-1.641584
31
0
39
0
210
0
220
0
230
1
0
LINE
5
AF
100
AcDbEntity
8
SK1
62
256
6
ByLayer
370
18
48
1
60
0
100
AcDbLine
10
0
20
4
30
0
11
-35.4
21
4
31
0
39
0
210
0
220
0
230
1
0
LINE
5
B1
100
AcDbEntity
8
SK1
62
256
6
ByLayer
370
18
48
1
60
0
100
AcDbLine
10
-35.4
20
-4
30
0
11
0
21
-4
31
0
39
0
210
0
220
0
230
1
0
LINE
5
B2
100
AcDbEntity
8
SK1
62
256
6
ByLayer
370
18
48
1
60
0
100
AcDbLine
10
-36
20
-3.4
30
0
11
-35.4
21
-4
31
0
39
0
210
0
220
0
230
1
0
LINE
5
B3
100
AcDbEntity
8
SK1
62
256
6
ByLayer
370
18
48
1
60
0
100
AcDbLine
10
-35.4
20
4
30
0
11
-36
21
3.4
31
0
39
0
210
0
220
0
230
1
0
LINE
5
B4
100
AcDbEntity
8
1
62
256
6
ByLayer
370
18
48
1
60
0
100
AcDbLine
10
53.696472
20
-0.795239
30
0
11
53.741427
21
-0.795384
31
0
39
0
210
0
220
0
230
1
0
LINE
5
B5
100
AcDbEntity
8
1
62
256
6
ByLayer
370
18
48
1
60
0
100
AcDbLine
10
0
20
-4
30
0
11
0
21
4
31
0
39
0
210
0
220
0
230
1
0
LINE
5
B6
100
AcDbEntity
8
1
62
256
6
ByLayer
370
18
48
1
60
0
100
AcDbLine
10
53.999461
20
0.04
30
0
11
53.991676
21
0.04
31
0
39
0
210
0
220
0
230
1
0
LINE
5
B7
100
AcDbEntity
8
1
62
256
6
ByLayer
370
18
48
1
60
0
100
AcDbLine
10
53.920357
20
0.483408
30
0
11
53.865291
21
0.403362
31
0
39
0
210
0
220
0
230
1
0
LINE
5
B8
100
AcDbEntity
8
1
62
256
6
ByLayer
370
18
48
1
60
0
100
AcDbLine
10
53.983911
20
-0.03882
30
0
11
53.99822
21
-0.038726
31
0
39
0
210
0
220
0
230
1
0
LINE
5
B9
100
AcDbEntity
8
1
62
256
6
ByLayer
370
18
48
1
60
0
100
AcDbLine
10
49.540393
20
-1.617278
30
0
11
50.435468
21
-1.528001
31
0
39
0
210
0
220
0
230
1
0
LINE
5
BA
100
AcDbEntity
8
1
62
256
6
ByLayer
370
18
48
1
60
0
100
AcDbLine
10
50.746805
20
-1.465411
30
0
11
50.751099
21
-1.456572
31
0
39
0
210
0
220
0
230
1
0
LINE
5
BB
100
AcDbEntity
8
1
62
256
6
ByLayer
370
18
48
1
60
0
100
AcDbLine
10
50.855872
20
-1.536386
30
0
11
50.751099
21
-1.456572
31
0
39
0
210
0
220
0
230
1
0
LINE
5
BC
100
AcDbEntity
8
1
62
256
6
ByLayer
370
18
48
1
60
0
100
AcDbLine
10
53.872624
20
-0.511619
30
0
11
53.829841
21
-0.43215
31
0
39
0
210
0
220
0
230
1
0
LINE
5
BD
100
AcDbEntity
8
1
62
256
6
ByLayer
370
18
48
1
60
0
100
AcDbLine
10
53.833269
20
-0.391041
30
0
11
53.89764
21
-0.479887
31
0
39
0
210
0
220
0
230
1
0
LINE
5
BE
100
AcDbEntity
8
1
62
256
6
ByLayer
370
18
48
1
60
0
100
AcDbLine
10
50.751099
20
-1.456572
30
0
11
50.791159
21
-1.390115
31
0
39
0
210
0
220
0
230
1
0
LINE
5
BF
100
AcDbEntity
8
1
62
256
6
ByLayer
370
18
48
1
60
0
100
AcDbLine
10
50.791176
20
1.306319
30
0
11
50.922846
21
1.491198
31
0
39
0
210
0
220
0
230
1
0
LINE
5
C0
100
AcDbEntity
8
1
62
256
6
ByLayer
370
18
48
1
60
0
100
AcDbLine
10
50.895932
20
-1.469929
30
0
11
50.791159
21
-1.390115
31
0
39
0
210
0
220
0
230
1
0
LINE
5
C1
100
AcDbEntity
8
1
62
256
6
ByLayer
370
18
48
1
60
0
100
AcDbLine
10
50.895947
20
1.35288
30
0
11
50.791176
21
1.306319
31
0
39
0
210
0
220
0
230
1
0
LINE
5
C2
100
AcDbEntity
8
1
62
256
6
ByLayer
370
18
48
1
60
0
100
AcDbLine
10
50.751101
20
1.21485
30
0
11
50.791176
21
1.306319
31
0
39
0
210
0
220
0
230
1
0
LINE
5
C3
100
AcDbEntity
8
1
62
256
6
ByLayer
370
18
48
1
60
0
100
AcDbLine
10
50.855872
20
1.261411
30
0
11
50.751101
21
1.21485
31
0
39
0
210
0
220
0
230
1
0
LINE
5
C4
100
AcDbEntity
8
1
62
256
6
ByLayer
370
18
48
1
60
0
100
AcDbLine
10
50.746779
20
1.190352
30
0
11
50.751101
21
1.21485
31
0
39
0
210
0
220
0
230
1
0
LINE
5
C5
100
AcDbEntity
8
1
62
256
6
ByLayer
370
18
48
1
60
0
100
AcDbLine
10
50.791159
20
-1.390115
30
0
11
50.922851
21
-1.185278
31
0
39
0
210
0
220
0
230
1
0
LINE
5
C6
100
AcDbEntity
8
1
62
256
6
ByLayer
370
18
48
1
60
0
100
AcDbLine
10
50.853
20
0.614479
30
0
11
50.853
21
0.670457
31
0
39
0
210
0
220
0
230
1
0
LINE
5
C7
100
AcDbEntity
8
1
62
256
6
ByLayer
370
18
48
1
60
0
100
AcDbLine
10
53.650066
20
0.536957
30
0
11
53.741435
21
0.457895
31
0
39
0
210
0
220
0
230
1
0
LINE
5
C8
100
AcDbEntity
8
1
62
256
6
ByLayer
370
18
48
1
60
0
100
AcDbLine
10
53.650066
20
0.536957
30
0
11
53.641077
21
0.553718
31
0
39
0
210
0
220
0
230
1
0
LINE
5
C9
100
AcDbEntity
8
1
62
256
6
ByLayer
370
18
48
1
60
0
100
AcDbLine
10
53.031364
20
1.034316
30
0
11
52.825795
21
1.184451
31
0
39
0
210
0
220
0
230
1
0
LINE
5
CA
100
AcDbEntity
8
1
62
256
6
ByLayer
370
18
48
1
60
0
100
AcDbLine
10
49.540393
20
1.03628
30
0
11
50.853
21
0.48583
31
0
39
0
210
0
220
0
230
1
0
LINE
5
CB
100
AcDbEntity
8
1
62
256
6
ByLayer
370
18
48
1
60
0
100
AcDbLine
10
50.853
20
-1.14714
30
0
11
50.853
21
-1.191039
31
0
39
0
210
0
220
0
230
1
0
LINE
5
CC
100
AcDbEntity
8
1
62
256
6
ByLayer
370
18
48
1
60
0
100
AcDbLine
10
50.853
20
0.48583
30
0
11
50.853
21
0.614479
31
0
39
0
210
0
220
0
230
1
0
LINE
5
CD
100
AcDbEntity
8
1
62
256
6
ByLayer
370
18
48
1
60
0
100
AcDbLine
10
50.853
20
0.44008
30
0
11
50.853
21
0.48583
31
0
39
0
210
0
220
0
230
1
0
LINE
5
CE
100
AcDbEntity
8
1
62
256
6
ByLayer
370
18
48
1
60
0
100
AcDbLine
10
50.853
20
-1.060594
30
0
11
50.853
21
-1.008482
31
0
39
0
210
0
220
0
230
1
0
LINE
5
CF
100
AcDbEntity
8
1
62
256
6
ByLayer
370
18
48
1
60
0
100
AcDbLine
10
50.853
20
-1.14714
30
0
11
50.853
21
-1.060594
31
0
39
0
210
0
220
0
230
1
0
LINE
5
D0
100
AcDbEntity
8
1
62
256
6
ByLayer
370
18
48
1
60
0
100
AcDbLine
10
50.853
20
0.371233
30
0
11
50.853
21
0.44008
31
0
39
0
210
0
220
0
230
1
0
LINE
5
D1
100
AcDbEntity
8
1
62
256
6
ByLayer
370
18
48
1
60
0
100
AcDbLine
10
53.64206
20
-0.227411
30
0
11
53.724601
21
-0.356402
31
0
39
0
210
0
220
0
230
1
0
LINE
5
D2
100
AcDbEntity
8
1
62
256
6
ByLayer
370
18
48
1
60
0
100
AcDbLine
10
53.64206
20
-0.227411
30
0
11
53.641358
21
-0.225021
31
0
39
0
210
0
220
0
230
1
0
LINE
5
D3
100
AcDbEntity
8
1
62
256
6
ByLayer
370
18
48
1
60
0
100
AcDbLine
10
52.949752
20
0.104858
30
0
11
52.810006
21
0.125583
31
0
39
0
210
0
220
0
230
1
0
LINE
5
D4
100
AcDbEntity
8
1
62
256
6
ByLayer
370
18
48
1
60
0
100
AcDbLine
10
50.895932
20
-0.088696
30
0
11
50.791159
21
-0.056725
31
0
39
0
210
0
220
0
230
1
0
LINE
5
D5
100
AcDbEntity
8
1
62
256
6
ByLayer
370
18
48
1
60
0
100
AcDbLine
10
50.855872
20
-0.246858
30
0
11
50.751099
21
-0.214887
31
0
39
0
210
0
220
0
230
1
0
LINE
5
D6
100
AcDbEntity
8
1
62
256
6
ByLayer
370
18
48
1
60
0
100
AcDbLine
10
50.746579
20
-0.24999
30
0
11
50.751099
21
-0.214887
31
0
39
0
210
0
220
0
230
1
0
LINE
5
D7
100
AcDbEntity
8
1
62
256
6
ByLayer
370
18
48
1
60
0
100
AcDbLine
10
50.853
20
-0.680766
30
0
11
50.853
21
-0.609378
31
0
39
0
210
0
220
0
230
1
0
LINE
5
D8
100
AcDbEntity
8
1
62
256
6
ByLayer
370
18
48
1
60
0
100
AcDbLine
10
50.751099
20
-0.214887
30
0
11
50.791159
21
-0.056725
31
0
39
0
210
0
220
0
230
1
0
LINE
5
D9
100
AcDbEntity
8
1
62
256
6
ByLayer
370
18
48
1
60
0
100
AcDbLine
10
50.791159
20
-0.056725
30
0
11
50.922851
21
0.332836
31
0
39
0
210
0
220
0
230
1
0
LINE
5
DA
100
AcDbEntity
8
1
62
256
6
ByLayer
370
18
48
1
60
0
100
AcDbLine
10
49.551625
20
-0.599415
30
0
11
50.853
21
-1.008482
31
0
39
0
210
0
220
0
230
1
0
LINE
5
DB
100
AcDbEntity
8
1
62
256
6
ByLayer
370
18
48
1
60
0
100
AcDbLine
10
50.853
20
-1.008482
30
0
11
50.853
21
-0.680766
31
0
39
0
210
0
220
0
230
1
0
LINE
5
DC
100
AcDbEntity
8
1
62
256
6
ByLayer
370
18
48
1
60
0
100
AcDbLine
10
50.853
20
0.670457
30
0
11
50.853
21
1.259586
31
0
39
0
210
0
220
0
230
1
0
LINE
5
DD
100
AcDbEntity
8
1
62
256
6
ByLayer
370
18
48
1
60
0
100
AcDbLine
10
50.853
20
-0.609378
30
0
11
50.853
21
-0.24665
31
0
39
0
210
0
220
0
230
1
0
LINE
5
DE
100
AcDbEntity
8
1
62
256
6
ByLayer
370
18
48
1
60
0
100
AcDbLine
10
50.853
20
0.371233
30
0
11
50.853
21
0.351925
31
0
39
0
210
0
220
0
230
1
0
LINE
5
DF
100
AcDbEntity
8
1
62
256
6
ByLayer
370
18
48
1
60
0
100
AcDbLine
10
53.984073
20
-0.042845
30
0
11
53.992277
21
-0.043072
31
0
39
0
210
0
220
0
230
1
0
LINE
5
E0
100
AcDbEntity
8
1
62
256
6
ByLayer
370
18
48
1
60
0
100
AcDbLine
10
53.999444
20
-0.039591
30
0
11
53.991676
21
-0.039591
31
0
39
0
210
0
220
0
230
1
0
LINE
5
E1
100
AcDbEntity
8
1
62
256
6
ByLayer
370
18
48
1
60
0
100
AcDbLine
10
53.986043
20
0.042628
30
0
11
53.992164
21
0.0428
31
0
39
0
210
0
220
0
230
1
0
LINE
5
E2
100
AcDbEntity
8
1
62
256
6
ByLayer
370
18
48
1
60
0
100
AcDbLine
10
53.991641
20
0.000224
30
0
11
53.992194
21
-4E-06
31
0
39
0
210
0
220
0
230
1
0
LINE
5
E3
100
AcDbEntity
8
1
62
256
6
ByLayer
370
18
48
1
60
0
100
AcDbLine
10
13.959452
20
-4
30
0
11
13.959452
21
4
31
0
39
0
210
0
220
0
230
1
0
LINE
5
E4
100
AcDbEntity
8
SK1
62
256
6
ByLayer
370
18
48
1
60
0
100
AcDbLine
10
0
20
-4
30
0
11
0
21
4
31
0
39
0
210
0
220
0
230
1
0
LINE
5
E5
100
AcDbEntity
8
SK1
62
256
6
ByLayer
370
18
48
1
60
0
100
AcDbLine
10
-35.4
20
4
30
0
11
-35.4
21
-4
31
0
39
0
210
0
220
0
230
1
0
LINE
5
E6
100
AcDbEntity
8
SK1
62
256
6
ByLayer
370
18
48
1
60
0
100
AcDbLine
10
-36
20
3.4
30
0
11
-36
21
-3.4
31
0
39
0
210
0
220
0
230
1
0
LINE
5
E7
100
AcDbEntity
8
81
62
256
6
ByLayer
370
18
48
1
60
0
100
AcDbLine
10
49.808379
20
1.638411
30
0
11
49.808379
21
1.636926
31
0
39
0
210
0
220
0
230
1
0
LINE
5
E8
100
AcDbEntity
8
81
62
256
6
ByLayer
370
18
48
1
60
0
100
AcDbLine
10
49.808379
20
-1.590539
30
0
11
49.808379
21
-1.638411
31
0
39
0
210
0
220
0
230
1
0
LINE
5
E9
100
AcDbEntity
8
81
62
256
6
ByLayer
370
18
48
1
60
0
100
AcDbLine
10
50.709481
20
-1.568921
30
0
11
50.409481
21
-1.568921
31
0
39
0
210
0
220
0
230
1
0
LINE
5
EA
100
AcDbEntity
8
81
62
256
6
ByLayer
370
18
48
1
60
0
100
AcDbLine
10
50.688008
20
1.568921
30
0
11
50.709481
21
1.568921
31
0
39
0
210
0
220
0
230
1
0
LINE
5
EB
100
AcDbEntity
8
81
62
256
6
ByLayer
370
18
48
1
60
0
100
AcDbLine
10
50.852237
20
-1.621258
30
0
11
50.853
21
-1.621904
31
0
39
0
210
0
220
0
230
1
0
LINE
5
EC
100
AcDbEntity
8
81
62
256
6
ByLayer
370
18
48
1
60
0
100
AcDbLine
10
50.853
20
1.621904
30
0
11
50.852237
21
1.621258
31
0
39
0
210
0
220
0
230
1
0
LINE
5
ED
100
AcDbEntity
8
SK2
62
256
6
ByLayer
370
13
48
1
60
0
100
AcDbLine
10
-42.5
20
-4
30
0
11
-42.5
21
22.133313
31
0
39
0
210
0
220
0
230
1
0
LINE
5
EF
100
AcDbEntity
8
SK2
62
256
6
ByLayer
370
13
48
1
60
0
100
AcDbLine
10
-37.5875
20
-4
30
0
11
-44.5
21
-4
31
0
39
0
210
0
220
0
230
1
0
LINE
5
F0
100
AcDbEntity
8
SK2
62
256
6
ByLayer
370
13
48
1
60
0
100
AcDbLine
10
-37.5875
20
4
30
0
11
-44.5
21
4
31
0
39
0
210
0
220
0
230
1
0
LINE
5
F1
100
AcDbEntity
8
1
62
256
6
ByLayer
370
18
48
1
60
1
100
AcDbLine
10
-42.5
20
-4
30
0
11
-42.960784
21
-0.500002
31
0
39
0
210
0
220
0
230
1
0
LINE
5
F2
100
AcDbEntity
8
1
62
256
6
ByLayer
370
18
48
1
60
1
100
AcDbLine
10
-42.960784
20
-0.500002
30
0
11
-42.039216
21
-0.499998
31
0
39
0
210
0
220
0
230
1
0
LINE
5
F3
100
AcDbEntity
8
1
62
256
6
ByLayer
370
18
48
1
60
1
100
AcDbLine
10
-42.039216
20
-0.499998
30
0
11
-42.5
21
-4
31
0
39
0
210
0
220
0
230
1
0
LINE
5
F4
100
AcDbEntity
8
1
62
256
6
ByLayer
370
18
48
1
60
1
100
AcDbLine
10
-42.5
20
4
30
0
11
-42.039216
21
0.500002
31
0
39
0
210
0
220
0
230
1
0
LINE
5
F5
100
AcDbEntity
8
1
62
256
6
ByLayer
370
18
48
1
60
1
100
AcDbLine
10
-42.039216
20
0.500002
30
0
11
-42.960784
21
0.499998
31
0
39
0
210
0
220
0
230
1
0
LINE
5
F6
100
AcDbEntity
8
1
62
256
6
ByLayer
370
18
48
1
60
1
100
AcDbLine
10
-42.960784
20
0.499998
30
0
11
-42.5
21
4
31
0
39
0
210
0
220
0
230
1
0
LINE
5
F7
100
AcDbEntity
8
SK2
62
256
6
ByLayer
370
13
48
1
60
0
100
AcDbLine
10
48.5
20
-31.638411
30
0
11
48.5
21
9.138411
31
0
39
0
210
0
220
0
230
1
0
LINE
5
F8
100
AcDbEntity
8
SK2
62
256
6
ByLayer
370
13
48
1
60
0
100
AcDbLine
10
45.5875
20
-1.638411
30
0
11
50.5
21
-1.638411
31
0
39
0
210
0
220
0
230
1
0
LINE
5
F9
100
AcDbEntity
8
SK2
62
256
6
ByLayer
370
13
48
1
60
0
100
AcDbLine
10
45.5875
20
1.638411
30
0
11
50.5
21
1.638411
31
0
39
0
210
0
220
0
230
1
0
LINE
5
FA
100
AcDbEntity
8
1
62
256
6
ByLayer
370
18
48
1
60
1
100
AcDbLine
10
48.5
20
-1.638411
30
0
11
48.960784
21
-5.138409
31
0
39
0
210
0
220
0
230
1
0
LINE
5
FB
100
AcDbEntity
8
1
62
256
6
ByLayer
370
18
48
1
60
1
100
AcDbLine
10
48.960784
20
-5.138409
30
0
11
48.039216
21
-5.138413
31
0
39
0
210
0
220
0
230
1
0
LINE
5
FC
100
AcDbEntity
8
1
62
256
6
ByLayer
370
18
48
1
60
1
100
AcDbLine
10
48.039216
20
-5.138413
30
0
11
48.5
21
-1.638411
31
0
39
0
210
0
220
0
230
1
0
LINE
5
FD
100
AcDbEntity
8
1
62
256
6
ByLayer
370
18
48
1
60
1
100
AcDbLine
10
48.5
20
1.638411
30
0
11
48.039216
21
5.138409
31
0
39
0
210
0
220
0
230
1
0
LINE
5
FE
100
AcDbEntity
8
1
62
256
6
ByLayer
370
18
48
1
60
1
100
AcDbLine
10
48.039216
20
5.138409
30
0
11
48.960784
21
5.138413
31
0
39
0
210
0
220
0
230
1
0
LINE
5
FF
100
AcDbEntity
8
1
62
256
6
ByLayer
370
18
48
1
60
1
100
AcDbLine
10
48.960784
20
5.138413
30
0
11
48.5
21
1.638411
31
0
39
0
210
0
220
0
230
1
0
LINE
5
100
100
AcDbEntity
8
2
62
256
6
ByLayer
370
13
48
1
60
0
100
AcDbLine
10
68.5
20
-9.5
30
0
11
68.5
21
18.58857
31
0
39
0
210
0
220
0
230
1
0
LINE
5
102
100
AcDbEntity
8
2
62
256
6
ByLayer
370
13
48
1
60
0
100
AcDbLine
10
53.5875
20
-2
30
0
11
70.5
21
-2
31
0
39
0
210
0
220
0
230
1
0
LINE
5
103
100
AcDbEntity
8
2
62
256
6
ByLayer
370
13
48
1
60
0
100
AcDbLine
10
53.5875
20
2
30
0
11
70.5
21
2
31
0
39
0
210
0
220
0
230
1
0
LINE
5
104
100
AcDbEntity
8
1
62
256
6
ByLayer
370
18
48
1
60
1
100
AcDbLine
10
68.5
20
-2
30
0
11
68.960784
21
-5.499998
31
0
39
0
210
0
220
0
230
1
0
LINE
5
105
100
AcDbEntity
8
1
62
256
6
ByLayer
370
18
48
1
60
1
100
AcDbLine
10
68.960784
20
-5.499998
30
0
11
68.039216
21
-5.500002
31
0
39
0
210
0
220
0
230
1
0
LINE
5
106
100
AcDbEntity
8
1
62
256
6
ByLayer
370
18
48
1
60
1
100
AcDbLine
10
68.039216
20
-5.500002
30
0
11
68.5
21
-2
31
0
39
0
210
0
220
0
230
1
0
LINE
5
107
100
AcDbEntity
8
1
62
256
6
ByLayer
370
18
48
1
60
1
100
AcDbLine
10
68.5
20
2
30
0
11
68.039216
21
5.499998
31
0
39
0
210
0
220
0
230
1
0
LINE
5
108
100
AcDbEntity
8
1
62
256
6
ByLayer
370
18
48
1
60
1
100
AcDbLine
10
68.039216
20
5.499998
30
0
11
68.960784
21
5.500002
31
0
39
0
210
0
220
0
230
1
0
LINE
5
109
100
AcDbEntity
8
1
62
256
6
ByLayer
370
18
48
1
60
1
100
AcDbLine
10
68.960784
20
5.500002
30
0
11
68.5
21
2
31
0
39
0
210
0
220
0
230
1
0
LINE
5
10A
100
AcDbEntity
8
SK2
62
256
6
ByLayer
370
13
48
1
60
0
100
AcDbLine
10
12.376835
20
4.124415
30
0
11
-1.521826
21
5.217035
31
0
39
0
210
0
220
0
230
1
0
LINE
5
10B
100
AcDbEntity
8
SK2
62
256
6
ByLayer
370
13
48
1
60
0
100
AcDbLine
10
-34.4125
20
0
30
0
11
2.273426
21
0
31
0
39
0
210
0
220
0
230
1
0
LINE
5
10C
100
AcDbEntity
8
1
62
256
6
ByLayer
370
18
48
1
60
1
100
AcDbLine
10
0.472023
20
5.060292
30
0
11
0.334734
21
8.587821
31
0
39
0
210
0
220
0
230
1
0
LINE
5
10D
100
AcDbEntity
8
1
62
256
6
ByLayer
370
18
48
1
60
1
100
AcDbLine
10
0.334734
20
8.587821
30
0
11
1.252405
21
8.50316
31
0
39
0
210
0
220
0
230
1
0
LINE
5
10E
100
AcDbEntity
8
1
62
256
6
ByLayer
370
18
48
1
60
1
100
AcDbLine
10
1.252405
20
8.50316
30
0
11
0.472023
21
5.060292
31
0
39
0
210
0
220
0
230
1
0
LINE
5
10F
100
AcDbEntity
8
1
62
256
6
ByLayer
370
18
48
1
60
1
100
AcDbLine
10
0.273426
20
0
30
0
11
0.781585
21
-3.493434
31
0
39
0
210
0
220
0
230
1
0
LINE
5
110
100
AcDbEntity
8
1
62
256
6
ByLayer
370
18
48
1
60
1
100
AcDbLine
10
0.781585
20
-3.493434
30
0
11
-0.139898
21
-3.505923
31
0
39
0
210
0
220
0
230
1
0
LINE
5
111
100
AcDbEntity
8
1
62
256
6
ByLayer
370
18
48
1
60
1
100
AcDbLine
10
-0.139898
20
-3.505923
30
0
11
0.273426
21
0
31
0
39
0
210
0
220
0
230
1
0
LINE
5
1DB
100
AcDbEntity
8
1
62
256
6
ByLayer
370
18
48
1
60
1
100
AcDbLine
10
-42.5
20
-4
30
0
11
-42.960784
21
-0.500002
31
0
39
0
210
0
220
0
230
1
0
LINE
5
1DC
100
AcDbEntity
8
1
62
256
6
ByLayer
370
18
48
1
60
1
100
AcDbLine
10
-42.960784
20
-0.500002
30
0
11
-42.039216
21
-0.499998
31
0
39
0
210
0
220
0
230
1
0
LINE
5
1DD
100
AcDbEntity
8
1
62
256
6
ByLayer
370
18
48
1
60
1
100
AcDbLine
10
-42.039216
20
-0.499998
30
0
11
-42.5
21
-4
31
0
39
0
210
0
220
0
230
1
0
LINE
5
1DF
100
AcDbEntity
8
1
62
256
6
ByLayer
370
18
48
1
60
1
100
AcDbLine
10
-42.5
20
4
30
0
11
-42.039216
21
0.500002
31
0
39
0
210
0
220
0
230
1
0
LINE
5
1E0
100
AcDbEntity
8
1
62
256
6
ByLayer
370
18
48
1
60
1
100
AcDbLine
10
-42.039216
20
0.500002
30
0
11
-42.960784
21
0.499998
31
0
39
0
210
0
220
0
230
1
0
LINE
5
1E1
100
AcDbEntity
8
1
62
256
6
ByLayer
370
18
48
1
60
1
100
AcDbLine
10
-42.960784
20
0.499998
30
0
11
-42.5
21
4
31
0
39
0
210
0
220
0
230
1
0
LINE
5
1E5
100
AcDbEntity
8
1
62
256
6
ByLayer
370
18
48
1
60
1
100
AcDbLine
10
48.5
20
-1.638411
30
0
11
48.960784
21
-5.138409
31
0
39
0
210
0
220
0
230
1
0
LINE
5
1E6
100
AcDbEntity
8
1
62
256
6
ByLayer
370
18
48
1
60
1
100
AcDbLine
10
48.960784
20
-5.138409
30
0
11
48.039216
21
-5.138413
31
0
39
0
210
0
220
0
230
1
0
LINE
5
1E7
100
AcDbEntity
8
1
62
256
6
ByLayer
370
18
48
1
60
1
100
AcDbLine
10
48.039216
20
-5.138413
30
0
11
48.5
21
-1.638411
31
0
39
0
210
0
220
0
230
1
0
LINE
5
1E9
100
AcDbEntity
8
1
62
256
6
ByLayer
370
18
48
1
60
1
100
AcDbLine
10
48.5
20
1.638411
30
0
11
48.039216
21
5.138409
31
0
39
0
210
0
220
0
230
1
0
LINE
5
1EA
100
AcDbEntity
8
1
62
256
6
ByLayer
370
18
48
1
60
1
100
AcDbLine
10
48.039216
20
5.138409
30
0
11
48.960784
21
5.138413
31
0
39
0
210
0
220
0
230
1
0
LINE
5
1EB
100
AcDbEntity
8
1
62
256
6
ByLayer
370
18
48
1
60
1
100
AcDbLine
10
48.960784
20
5.138413
30
0
11
48.5
21
1.638411
31
0
39
0
210
0
220
0
230
1
0
LINE
5
1EF
100
AcDbEntity
8
1
62
256
6
ByLayer
370
18
48
1
60
1
100
AcDbLine
10
68.5
20
-2
30
0
11
68.960784
21
-5.499998
31
0
39
0
210
0
220
0
230
1
0
LINE
5
1F0
100
AcDbEntity
8
1
62
256
6
ByLayer
370
18
48
1
60
1
100
AcDbLine
10
68.960784
20
-5.499998
30
0
11
68.039216
21
-5.500002
31
0
39
0
210
0
220
0
230
1
0
LINE
5
1F1
100
AcDbEntity
8
1
62
256
6
ByLayer
370
18
48
1
60
1
100
AcDbLine
10
68.039216
20
-5.500002
30
0
11
68.5
21
-2
31
0
39
0
210
0
220
0
230
1
0
LINE
5
1F3
100
AcDbEntity
8
1
62
256
6
ByLayer
370
18
48
1
60
1
100
AcDbLine
10
68.5
20
2
30
0
11
68.039216
21
5.499998
31
0
39
0
210
0
220
0
230
1
0
LINE
5
1F4
100
AcDbEntity
8
1
62
256
6
ByLayer
370
18
48
1
60
1
100
AcDbLine
10
68.039216
20
5.499998
30
0
11
68.960784
21
5.500002
31
0
39
0
210
0
220
0
230
1
0
LINE
5
1F5
100
AcDbEntity
8
1
62
256
6
ByLayer
370
18
48
1
60
1
100
AcDbLine
10
68.960784
20
5.500002
30
0
11
68.5
21
2
31
0
39
0
210
0
220
0
230
1
0
LINE
5
1F8
100
AcDbEntity
8
1
62
256
6
ByLayer
370
18
48
1
60
1
100
AcDbLine
10
0.472023
20
5.060292
30
0
11
0.334734
21
8.587821
31
0
39
0
210
0
220
0
230
1
0
LINE
5
1F9
100
AcDbEntity
8
1
62
256
6
ByLayer
370
18
48
1
60
1
100
AcDbLine
10
0.334734
20
8.587821
30
0
11
1.252405
21
8.50316
31
0
39
0
210
0
220
0
230
1
0
LINE
5
1FA
100
AcDbEntity
8
1
62
256
6
ByLayer
370
18
48
1
60
1
100
AcDbLine
10
1.252405
20
8.50316
30
0
11
0.472023
21
5.060292
31
0
39
0
210
0
220
0
230
1
0
LINE
5
1FC
100
AcDbEntity
8
1
62
256
6
ByLayer
370
18
48
1
60
1
100
AcDbLine
10
0.273426
20
0
30
0
11
0.781585
21
-3.493434
31
0
39
0
210
0
220
0
230
1
0
LINE
5
1FD
100
AcDbEntity
8
1
62
256
6
ByLayer
370
18
48
1
60
1
100
AcDbLine
10
0.781585
20
-3.493434
30
0
11
-0.139898
21
-3.505923
31
0
39
0
210
0
220
0
230
1
0
LINE
5
1FE
100
AcDbEntity
8
1
62
256
6
ByLayer
370
18
48
1
60
1
100
AcDbLine
10
-0.139898
20
-3.505923
30
0
11
0.273426
21
0
31
0
39
0
210
0
220
0
230
1
0
MTEXT
5
1D7
100
AcDbEntity
8
SK2
62
256
6
ByLayer
370
18
48
1
60
0
100
AcDbMText
10
-43.841114
20
8.658438
30
0
210
0
220
0
230
1
1
%%c
40
3
41
0
44
1.084337
50
90
71
7
72
5
7
iso_b_vert
0
MTEXT
5
1DA
100
AcDbEntity
8
SK2
62
256
6
ByLayer
370
18
48
1
60
0
100
AcDbMText
10
-43.841114
20
14.635
30
0
210
0
220
0
230
1
1
\W0.6903;8 h6
40
3
41
0
44
1.084337
50
90
71
7
72
5
7
iso_b_vert
0
MTEXT
5
1E3
100
AcDbEntity
8
SK2
62
256
6
ByLayer
370
18
48
1
60
0
100
AcDbMText
10
47.158886
20
-29.979974
30
0
210
0
220
0
230
1
1
%%c
40
3
41
0
44
1.084337
50
90
71
7
72
5
7
iso_b_vert
0
MTEXT
5
1E4
100
AcDbEntity
8
SK2
62
256
6
ByLayer
370
18
48
1
60
0
100
AcDbMText
10
47.158886
20
-24.003411
30
0
210
0
220
0
230
1
1
\W0.7346;3.28
40
3
41
0
44
1.084337
50
90
71
7
72
5
7
iso_b_vert
0
MTEXT
5
1ED
100
AcDbEntity
8
2
62
256
6
ByLayer
370
18
48
1
60
0
100
AcDbMText
10
67.158886
20
8.658437
30
0
210
0
220
0
230
1
1
%%c
40
3
41
0
44
1.084337
50
90
71
7
72
5
7
iso_b_vert
0
MTEXT
5
1EE
100
AcDbEntity
8
2
62
256
6
ByLayer
370
18
48
1
60
0
100
AcDbMText
10
67.158886
20
14.635
30
0
210
0
220
0
230
1
1
\W0.6488;(4)
40
3
41
0
44
1.084337
50
90
71
7
72
5
7
iso_b_vert
0
MTEXT
5
1F7
100
AcDbEntity
8
SK2
62
256
6
ByLayer
370
18
48
1
60
0
100
AcDbMText
10
0.681812
20
11.8668
30
0
210
0
220
0
230
1
1
\W0.7635;(5%%d)
40
3
41
0
44
1.084337
50
77.1735446267063
71
7
72
5
7
iso_b_vert
0
MTEXT
5
200
100
AcDbEntity
8
SK6
62
256
6
ByLayer
370
18
48
1
60
0
100
AcDbMText
10
-18.691857
20
-42.203946
30
0
210
0
220
0
230
1
1
\W0.7820;2L466-0400-RA0800   R2AH
40
3
41
0
44
1.084337
50
0
71
7
72
5
7
iso_b_vert
0
HATCH
5
1DE
100
AcDbEntity
8
SK2
62
256
6
ByLayer
370
13
48
1
60
0
100
AcDbHatch
10
0
20
0
30
0
210
0
220
0
230
1
2
ANSI31
70
0
71
0
91
1
92
5
93
3
72
1
10
-42.5
20
-4
11
-42.9607837415528
21
-0.500001692553184
72
1
10
-42.9607837415528
20
-0.500001692553184
11
-42.0392162584472
21
-0.499998307446816
72
1
10
-42.0392162584472
20
-0.499998307446816
11
-42.5
21
-4
97
0
75
0
76
1
52
0
41
0.0062
77
0
78
1
53
45
43
0
44
0
45
-0.0139193969876572
46
0.0139193969876572
79
0
47
0
98
1
10
0
20
0
0
HATCH
5
1E2
100
AcDbEntity
8
SK2
62
256
6
ByLayer
370
13
48
1
60
0
100
AcDbHatch
10
0
20
0
30
0
210
0
220
0
230
1
2
ANSI31
70
0
71
0
91
1
92
5
93
3
72
1
10
-42.5
20
4.00000000000003
11
-42.0392162584472
21
0.500001692553212
72
1
10
-42.0392162584472
20
0.500001692553212
11
-42.9607837415528
21
0.499998307446845
72
1
10
-42.9607837415528
20
0.499998307446845
11
-42.5
21
4.00000000000003
97
0
75
0
76
1
52
0
41
0.0062
77
0
78
1
53
45
43
0
44
0
45
-0.0139193969876572
46
0.0139193969876572
79
0
47
0
98
1
10
0
20
0
0
HATCH
5
1E8
100
AcDbEntity
8
SK2
62
256
6
ByLayer
370
13
48
1
60
0
100
AcDbHatch
10
0
20
0
30
0
210
0
220
0
230
1
2
ANSI31
70
0
71
0
91
1
92
5
93
3
72
1
10
48.5
20
-1.63841112056772
11
48.9607837415528
21
-5.13840942801454
72
1
10
48.9607837415528
20
-5.13840942801454
11
48.0392162584472
21
-5.13841281312091
72
1
10
48.0392162584472
20
-5.13841281312091
11
48.5
21
-1.63841112056772
97
0
75
0
76
1
52
0
41
0.0062
77
0
78
1
53
45
43
0
44
0
45
-0.0139193969876572
46
0.0139193969876572
79
0
47
0
98
1
10
0
20
0
0
HATCH
5
1EC
100
AcDbEntity
8
SK2
62
256
6
ByLayer
370
13
48
1
60
0
100
AcDbHatch
10
0
20
0
30
0
210
0
220
0
230
1
2
ANSI31
70
0
71
0
91
1
92
5
93
3
72
1
10
48.5
20
1.63841112056767
11
48.0392162584472
21
5.13840942801448
72
1
10
48.0392162584472
20
5.13840942801448
11
48.9607837415528
21
5.13841281312085
72
1
10
48.9607837415528
20
5.13841281312085
11
48.5
21
1.63841112056767
97
0
75
0
76
1
52
0
41
0.0062
77
0
78
1
53
45
43
0
44
0
45
-0.0139193969876572
46
0.0139193969876572
79
0
47
0
98
1
10
0
20
0
0
HATCH
5
1F2
100
AcDbEntity
8
2
62
256
6
ByLayer
370
13
48
1
60
0
100
AcDbHatch
10
0
20
0
30
0
210
0
220
0
230
1
2
ANSI31
70
0
71
0
91
1
92
5
93
3
72
1
10
68.5
20
-2
11
68.9607837415528
21
-5.49999830744682
72
1
10
68.9607837415528
20
-5.49999830744682
11
68.0392162584472
21
-5.50000169255318
72
1
10
68.0392162584472
20
-5.50000169255318
11
68.5
21
-2
97
0
75
0
76
1
52
0
41
0.0062
77
0
78
1
53
45
43
0
44
0
45
-0.0139193969876572
46
0.0139193969876572
79
0
47
0
98
1
10
0
20
0
0
HATCH
5
1F6
100
AcDbEntity
8
2
62
256
6
ByLayer
370
13
48
1
60
0
100
AcDbHatch
10
0
20
0
30
0
210
0
220
0
230
1
2
ANSI31
70
0
71
0
91
1
92
5
93
3
72
1
10
68.5
20
2
11
68.0392162584472
21
5.49999830744682
72
1
10
68.0392162584472
20
5.49999830744682
11
68.9607837415528
21
5.50000169255318
72
1
10
68.9607837415528
20
5.50000169255318
11
68.5
21
2
97
0
75
0
76
1
52
0
41
0.0062
77
0
78
1
53
45
43
0
44
0
45
-0.0139193969876572
46
0.0139193969876572
79
0
47
0
98
1
10
0
20
0
0
HATCH
5
1FB
100
AcDbEntity
8
SK2
62
256
6
ByLayer
370
13
48
1
60
0
100
AcDbHatch
10
0
20
0
30
0
210
0
220
0
230
1
2
ANSI31
70
0
71
0
91
1
92
5
93
3
72
1
10
0.472022508917774
20
5.06029233430635
11
0.334734377961496
21
8.58782146639135
72
1
10
0.334734377961496
20
8.58782146639135
11
1.25240482102143
21
8.50315988205057
72
1
10
1.25240482102143
20
8.50315988205057
11
0.472022508917774
21
5.06029233430635
97
0
75
0
76
1
52
0
41
0.0062
77
0
78
1
53
45
43
0
44
0
45
-0.0139193969876572
46
0.0139193969876572
79
0
47
0
98
1
10
0
20
0
0
HATCH
5
1FF
100
AcDbEntity
8
SK2
62
256
6
ByLayer
370
13
48
1
60
0
100
AcDbHatch
10
0
20
0
30
0
210
0
220
0
230
1
2
ANSI31
70
0
71
0
91
1
92
5
93
3
72
1
10
0.27342554251365
20
0
11
0.78158456255747
21
-3.4934344446344
72
1
10
0.78158456255747
20
-3.4934344446344
11
-0.139898296191774
21
-3.50592311791237
72
1
10
-0.139898296191774
20
-3.50592311791237
11
0.27342554251365
21
0
97
0
75
0
76
1
52
0
41
0.0062
77
0
78
1
53
45
43
0
44
0
45
-0.0139193969876572
46
0.0139193969876572
79
0
47
0
98
1
10
0
20
0
0
DIMENSION
5
203
100
AcDbEntity
8
2
62
256
6
ByLayer
370
18
48
1
60
0
100
AcDbDimension
2
_U0
10
44
20
11.85
30
0
11
49
21
11.85
31
0
70
32
71
1
72
1
41
1
210
0
220
0
230
1
3
Standard
100
AcDbAlignedDimension
13
54
23
0
33
0
14
44
24
1.638411
34
0
50
0
100
AcDbRotatedDimension
1001
ACAD
1000
DSTYLE
1002
{
1070
   371
1070
    13
1070
   372
1070
    13
1070
     3
1000

1070
   170
1070
     0
1070
   144
1040
1.0
1070
   277
1070
     2
1070
   284
1070
     8
1070
   278
1070
    46
1070
   146
1040
1.166667
1070
   345
1005
16
1070
   347
1005
16
1070
   346
1005
16
1070
   344
1005
0
1070
   343
1005
0
1070
   172
1070
     1
1070
    76
1070
     0
1070
    75
1070
     0
1070
   282
1070
     0
1070
   281
1070
     0
1070
    71
1070
     0
1070
    74
1070
     0
1070
   279
1070
     0
1070
   173
1070
     1
1070
   340
1005
1D8
1070
   271
1070
     2
1070
   272
1070
     2
1070
    77
1070
     1
1070
    73
1070
     1
1070
   171
1070
     3
1070
   274
1070
     4
1070
   177
1070
     2
1070
   176
1070
     2
1070
   178
1070
     2
1070
    78
1070
     8
1070
    48
1040
-0.1
1070
    41
1040
3.5
1070
   147
1040
1.5
1070
    42
1040
1.5875
1070
    44
1040
2.0
1070
   140
1040
3.0
1002
}
1001
ACAD_DSTYLE_DIM_LINETYPE
1070
   380
1005
16
1001
ACAD_DSTYLE_DIM_EXT1_LINETYPE
1070
   381
1005
16
1001
ACAD_DSTYLE_DIM_EXT2_LINETYPE
1070
   382
1005
16
0
DIMENSION
5
21D
100
AcDbEntity
8
2
62
256
6
ByLayer
370
18
48
1
60
0
100
AcDbDimension
2
_U1
10
13.959452
20
21.85
30
0
11
33.979726
21
21.85
31
0
70
32
71
1
72
1
41
1
210
0
220
0
230
1
3
Standard
100
AcDbAlignedDimension
13
54
23
0
33
0
14
13.959452
24
4
34
0
50
0
100
AcDbRotatedDimension
1001
ACAD
1000
DSTYLE
1002
{
1070
   371
1070
    13
1070
   372
1070
    13
1070
     3
1000

1070
   170
1070
     0
1070
   144
1040
1.0
1070
   277
1070
     2
1070
   284
1070
     8
1070
   278
1070
    46
1070
   146
1040
1.166667
1070
   345
1005
16
1070
   347
1005
16
1070
   346
1005
16
1070
   344
1005
0
1070
   343
1005
0
1070
   172
1070
     1
1070
    76
1070
     0
1070
    75
1070
     0
1070
   282
1070
     0
1070
   281
1070
     0
1070
    71
1070
     0
1070
    74
1070
     0
1070
   279
1070
     0
1070
   173
1070
     1
1070
   340
1005
1D8
1070
   271
1070
     2
1070
   272
1070
     2
1070
    77
1070
     1
1070
    73
1070
     1
1070
   171
1070
     3
1070
   274
1070
     4
1070
   177
1070
     2
1070
   176
1070
     2
1070
   178
1070
     2
1070
    78
1070
     8
1070
    48
1040
-0.1
1070
    41
1040
3.5
1070
   147
1040
1.5
1070
    42
1040
1.5875
1070
    44
1040
2.0
1070
   140
1040
3.0
1002
}
1001
ACAD_DSTYLE_DIM_LINETYPE
1070
   380
1005
16
1001
ACAD_DSTYLE_DIM_EXT1_LINETYPE
1070
   381
1005
16
1001
ACAD_DSTYLE_DIM_EXT2_LINETYPE
1070
   382
1005
16
0
DIMENSION
5
235
100
AcDbEntity
8
SK2
62
256
6
ByLayer
370
18
48
1
60
0
100
AcDbDimension
2
_U2
10
-36
20
31.85
30
0
11
9
21
31.85
31
0
70
32
71
1
72
1
41
1
210
0
220
0
230
1
3
Standard
100
AcDbAlignedDimension
13
54
23
0
33
0
14
-36
24
0
34
0
50
0
100
AcDbRotatedDimension
1001
ACAD
1000
DSTYLE
1002
{
1070
   371
1070
    13
1070
   372
1070
    13
1070
     3
1000

1070
   170
1070
     0
1070
   144
1040
1.0
1070
   277
1070
     2
1070
   284
1070
     8
1070
   278
1070
    46
1070
   146
1040
1.166667
1070
   345
1005
16
1070
   347
1005
16
1070
   346
1005
16
1070
   344
1005
0
1070
   343
1005
0
1070
   172
1070
     1
1070
    76
1070
     0
1070
    75
1070
     0
1070
   282
1070
     0
1070
   281
1070
     0
1070
    71
1070
     0
1070
    74
1070
     0
1070
   279
1070
     0
1070
   173
1070
     1
1070
   340
1005
1D8
1070
   271
1070
     2
1070
   272
1070
     2
1070
    77
1070
     1
1070
    73
1070
     1
1070
   171
1070
     3
1070
   274
1070
     4
1070
   177
1070
     2
1070
   176
1070
     2
1070
   178
1070
     2
1070
    78
1070
     8
1070
    48
1040
-0.1
1070
    41
1040
3.5
1070
   147
1040
1.5
1070
    42
1040
1.5875
1070
    44
1040
2.0
1070
   140
1040
3.0
1002
}
1001
ACAD_DSTYLE_DIM_LINETYPE
1070
   380
1005
16
1001
ACAD_DSTYLE_DIM_EXT1_LINETYPE
1070
   381
1005
16
1001
ACAD_DSTYLE_DIM_EXT2_LINETYPE
1070
   382
1005
16
0
DIMENSION
5
24D
100
AcDbEntity
8
SK2
62
256
6
ByLayer
370
18
48
1
60
0
100
AcDbDimension
2
_U3
10
0.4
20
-14.028121
30
0
11
-17.8
21
-14.028121
31
0
70
32
71
1
72
1
41
1
210
0
220
0
230
1
3
Standard
100
AcDbAlignedDimension
13
-36
23
0
33
0
14
0.4
24
-4
34
0
50
0
100
AcDbRotatedDimension
1001
ACAD
1000
DSTYLE
1002
{
1070
   371
1070
    13
1070
   372
1070
    13
1070
     3
1000

1070
   170
1070
     0
1070
   144
1040
1.0
1070
   277
1070
     2
1070
   284
1070
     8
1070
   278
1070
    46
1070
   146
1040
1.166667
1070
   345
1005
16
1070
   347
1005
16
1070
   346
1005
16
1070
   344
1005
0
1070
   343
1005
0
1070
   172
1070
     1
1070
    76
1070
     0
1070
    75
1070
     0
1070
   282
1070
     0
1070
   281
1070
     0
1070
    71
1070
     0
1070
    74
1070
     0
1070
   279
1070
     0
1070
   173
1070
     1
1070
   340
1005
1D8
1070
   271
1070
     2
1070
   272
1070
     2
1070
    77
1070
     1
1070
    73
1070
     1
1070
   171
1070
     3
1070
   274
1070
     4
1070
   177
1070
     2
1070
   176
1070
     2
1070
   178
1070
     2
1070
    78
1070
     8
1070
    48
1040
-0.1
1070
    41
1040
3.5
1070
   147
1040
1.5
1070
    42
1040
1.5875
1070
    44
1040
2.0
1070
   140
1040
3.0
1002
}
1001
ACAD_DSTYLE_DIM_LINETYPE
1070
   380
1005
16
1001
ACAD_DSTYLE_DIM_EXT1_LINETYPE
1070
   381
1005
16
1001
ACAD_DSTYLE_DIM_EXT2_LINETYPE
1070
   382
1005
16
0
DIMENSION
5
265
100
AcDbEntity
8
SK2
62
256
6
ByLayer
370
18
48
1
60
0
100
AcDbDimension
2
_U4
10
50.853
20
-11.5
30
0
11
70.071429
21
-11.5
31
0
70
32
71
1
72
1
41
1
210
0
220
0
230
1
3
Standard
100
AcDbAlignedDimension
13
54
23
0
33
0
14
50.853
24
1.638411
34
0
50
0
100
AcDbRotatedDimension
1001
ACAD
1000
DSTYLE
1002
{
1070
   371
1070
    13
1070
   372
1070
    13
1070
     3
1000

1070
   170
1070
     0
1070
   144
1040
1.0
1070
   277
1070
     2
1070
   284
1070
     8
1070
   278
1070
    46
1070
   146
1040
1.166667
1070
   345
1005
16
1070
   347
1005
16
1070
   346
1005
16
1070
   344
1005
0
1070
   343
1005
0
1070
   172
1070
     1
1070
    76
1070
     0
1070
    75
1070
     0
1070
   282
1070
     0
1070
   281
1070
     0
1070
    71
1070
     0
1070
    74
1070
     0
1070
   279
1070
     0
1070
   173
1070
     1
1070
   340
1005
1D8
1070
   271
1070
     2
1070
   272
1070
     2
1070
    77
1070
     1
1070
    73
1070
     1
1070
   171
1070
     3
1070
   274
1070
     4
1070
   177
1070
     2
1070
   176
1070
     2
1070
   178
1070
     2
1070
    78
1070
     8
1070
    48
1040
-0.1
1070
    41
1040
3.5
1070
   147
1040
1.5
1070
    42
1040
1.5875
1070
    44
1040
2.0
1070
   140
1040
3.0
1002
}
1001
ACAD_DSTYLE_DIM_LINETYPE
1070
   380
1005
16
1001
ACAD_DSTYLE_DIM_EXT1_LINETYPE
1070
   381
1005
16
1001
ACAD_DSTYLE_DIM_EXT2_LINETYPE
1070
   382
1005
16
0
ENDSEC
0
SECTION
2
OBJECTS
0
DICTIONARY
5
2ef
330
0
100
AcDbDictionary
280
0
281
1
3
ACAD_GROUP
350
2f0
3
ACAD_MLINESTYLE
350
2f1
0
DICTIONARY
5
2f0
330
0
100
AcDbDictionary
280
0
281
1
0
DICTIONARY
5
2f1
330
0
100
AcDbDictionary
280
0
281
1
3
Standard
350
18
0
MLINESTYLE
5
18
330
2f1
100
AcDbMlineStyle
2
Standard
70
0
3

62
256
51
90
52
90
71
2
49
-0.5
62
256
6
ByLayer
49
0.5
62
256
6
ByLayer
0
RASTERVARIABLES
5
2dd
330

100
AcDbRasterVariables
90
0
70
1
71
1
72
1
0
ENDSEC
0
EOF
