0
SECTION
2
HEADER
9
$ACADVER
1
AC1015
9
$DWGCODEPAGE
3
ANSI_1252
9
$HANDSEED
5
2f6
9
$ANGBASE
50
0
9
$ANGDIR
70
0
9
$ATTMODE
70
1
9
$AUNITS
70
0
9
$AUPREC
70
0
9
$CECOLOR
62
256
9
$CELTSCALE
40
1
9
$CELTYPE
6
ByLayer
9
$CELWEIGHT
370
18
9
$CLAYER
8
0
9
$CMLJUST
70
0
9
$CMLSCALE
40
1
9
$CMLSTYLE
2
Standard
9
$DIMSTYLE
2
Standard
9
$TEXTSIZE
40
0.2
9
$TEXTSTYLE
7
Standard
9
$LUNITS
70
2
9
$LUPREC
70
4
9
$EXTNAMES
290
1
9
$INSUNITS
70
4
9
$LTSCALE
40
1
9
$LWDISPLAY
290
1
9
$PDMODE
70
0
9
$PDSIZE
40
0
9
$PLINEGEN
70
0
0
ENDSEC
0
SECTION
2
CLASSES
0
CLASS
1
RASTERVARIABLES
2
AcDbRasterVariables
3
ISM
90
0
280
0
281
0
0
ENDSEC
0
SECTION
2
TABLES
0
TABLE
2
VPORT
5
2ec
100
AcDbSymbolTable
0
VPORT
5
1
100
AcDbSymbolTableRecord
100
AcDbViewportTableRecord
2
*Active
70
0
10
0
20
0
11
1
21
1
12
-1
22
1
13
0
23
0
14
0.5
24
0.5
15
10
25
10
16
0
26
0
36
1
17
0
27
0
37
0
0
ENDTAB
0
TABLE
2
LTYPE
5
2ed
100
AcDbSymbolTable
0
LTYPE
5
14
100
AcDbSymbolTableRecord
100
AcDbLinetypeTableRecord
70
0
2
ByBlock
3

72
65
73
0
40
0
0
LTYPE
5
15
100
AcDbSymbolTableRecord
100
AcDbLinetypeTableRecord
70
0
2
ByLayer
3

72
65
73
0
40
0
0
LTYPE
5
16
100
AcDbSymbolTableRecord
100
AcDbLinetypeTableRecord
70
0
2
Continuous
3
Solid line
72
65
73
0
40
0
0
LTYPE
5
6E
100
AcDbSymbolTableRecord
100
AcDbLinetypeTableRecord
70
0
2
CENTER
3
____ _ ____ _ ____ _ ____
72
65
73
4
40
47.5
49
22
74
0
49
-8.5
74
0
49
8.5
74
0
49
-8.5
74
0
0
LTYPE
5
6F
100
AcDbSymbolTableRecord
100
AcDbLinetypeTableRecord
70
0
2
DASHED
3
__ __ __ __ __ __ __ __ __
72
65
73
2
40
25.72
49
12.86
74
0
49
-12.86
74
0
0
ENDTAB
0
TABLE
2
LAYER
5
2ee
100
AcDbSymbolTable
0
LAYER
5
10
100
AcDbSymbolTableRecord
100
AcDbLayerTableRecord
2
0
70
0
62
7
6
Continuous
290
1
370
-3
390
0
0
LAYER
5
71
100
AcDbSymbolTableRecord
100
AcDbLayerTableRecord
2
81
70
0
62
-3
6
Continuous
290
1
370
-3
390
0
0
LAYER
5
73
100
AcDbSymbolTableRecord
100
AcDbLayerTableRecord
2
80
70
0
62
-6
6
Continuous
290
1
370
-3
390
0
0
LAYER
5
75
100
AcDbSymbolTableRecord
100
AcDbLayerTableRecord
2
1
70
0
62
4
6
Continuous
290
1
370
-3
390
0
0
LAYER
5
82
100
AcDbSymbolTableRecord
100
AcDbLayerTableRecord
2
4
70
0
62
-2
6
CENTER
290
1
370
-3
390
0
0
LAYER
5
101
100
AcDbSymbolTableRecord
100
AcDbLayerTableRecord
2
2
70
0
62
7
6
Continuous
290
1
370
-3
390
0
0
LAYER
5
201
100
AcDbSymbolTableRecord
100
AcDbLayerTableRecord
2
Defpoints
70
0
62
7
6
Continuous
290
0
370
-3
390
0
0
LAYER
5
2d8
100
AcDbSymbolTableRecord
100
AcDbLayerTableRecord
2
SK4
70
0
62
2
6
CENTER
290
1
370
-3
390
0
0
LAYER
5
2d9
100
AcDbSymbolTableRecord
100
AcDbLayerTableRecord
2
SK1
70
0
62
4
6
Continuous
290
1
370
-3
390
0
0
LAYER
5
2da
100
AcDbSymbolTableRecord
100
AcDbLayerTableRecord
2
SK2
70
0
62
7
6
Continuous
290
1
370
-3
390
0
0
LAYER
5
2db
100
AcDbSymbolTableRecord
100
AcDbLayerTableRecord
2
SK6
70
0
62
5
6
Continuous
290
1
370
-3
390
0
0
ENDTAB
0
TABLE
2
STYLE
5
2ef
100
AcDbSymbolTable
0
STYLE
5
11
100
AcDbSymbolTableRecord
100
AcDbTextStyleTableRecord
2
Standard
3
txt
70
0
71
0
40
0
41
1
42
0
50
0
0
STYLE
5
1D3
100
AcDbSymbolTableRecord
100
AcDbTextStyleTableRecord
2
iso_b_vert
3
simplex.shx
70
0
71
0
40
0
41
1
42
0
50
0
0
STYLE
5
1D4
100
AcDbSymbolTableRecord
100
AcDbTextStyleTableRecord
2
DWGDirectTextStyle
3
simplex
70
0
71
0
40
0
41
1
42
0
50
0
0
ENDTAB
0
TABLE
2
DIMSTYLE
5
2f0
100
AcDbSymbolTable
100
AcDbDimStyleTable
0
DIMSTYLE
105
27
100
AcDbSymbolTableRecord
100
AcDbDimStyleTableRecord
2
Standard
70
0
3
<>
41
0.18
42
0.0625
44
0.18
140
0.18
147
0.09
73
0
74
0
77
1
271
2
275
0
278
52
280
0
340
11
0
ENDTAB
0
TABLE
2
VIEW
5
2f1
100
AcDbSymbolTable
0
ENDTAB
0
TABLE
2
UCS
5
2f2
100
AcDbSymbolTable
0
ENDTAB
0
TABLE
2
APPID
5
2f3
100
AcDbSymbolTable
0
APPID
5
12
100
AcDbSymbolTableRecord
100
AcDbRegAppTableRecord
2
ACAD
70
0
0
APPID
5
1FD
100
AcDbSymbolTableRecord
100
AcDbRegAppTableRecord
2
ACAD_DSTYLE_DIMBREAK
70
0
0
APPID
5
297
100
AcDbSymbolTableRecord
100
AcDbRegAppTableRecord
2
ACAD_DSTYLE_DIM_LINETYPE
70
0
0
APPID
5
298
100
AcDbSymbolTableRecord
100
AcDbRegAppTableRecord
2
ACAD_DSTYLE_DIM_EXT1_LINETYPE
70
0
0
APPID
5
299
100
AcDbSymbolTableRecord
100
AcDbRegAppTableRecord
2
ACAD_DSTYLE_DIM_EXT2_LINETYPE
70
0
0
APPID
5
2D4
100
AcDbSymbolTableRecord
100
AcDbRegAppTableRecord
2
ACAD_MLEADERVER
70
0
0
ENDTAB
0
TABLE
2
BLOCK_RECORD
5
2f4
100
AcDbSymbolTable
0
BLOCK_RECORD
5
1F
100
AcDbSymbolTableRecord
100
AcDbBlockTableRecord
2
*Model_Space
340
0
70
0
0
BLOCK_RECORD
5
1B
100
AcDbSymbolTableRecord
100
AcDbBlockTableRecord
2
*Paper_Space
340
0
70
0
0
BLOCK_RECORD
5
23
100
AcDbSymbolTableRecord
100
AcDbBlockTableRecord
2
*Paper_Space0
340
0
70
0
0
BLOCK_RECORD
5
202
100
AcDbSymbolTableRecord
100
AcDbBlockTableRecord
2
*D1
340
0
70
0
0
BLOCK_RECORD
5
20E
100
AcDbSymbolTableRecord
100
AcDbBlockTableRecord
2
_U0
340
0
70
0
0
BLOCK_RECORD
5
21A
100
AcDbSymbolTableRecord
100
AcDbBlockTableRecord
2
*D3
340
0
70
0
0
BLOCK_RECORD
5
226
100
AcDbSymbolTableRecord
100
AcDbBlockTableRecord
2
_U1
340
0
70
0
0
BLOCK_RECORD
5
232
100
AcDbSymbolTableRecord
100
AcDbBlockTableRecord
2
*D5
340
0
70
0
0
BLOCK_RECORD
5
23E
100
AcDbSymbolTableRecord
100
AcDbBlockTableRecord
2
_U2
340
0
70
0
0
BLOCK_RECORD
5
24A
100
AcDbSymbolTableRecord
100
AcDbBlockTableRecord
2
*D7
340
0
70
0
0
BLOCK_RECORD
5
256
100
AcDbSymbolTableRecord
100
AcDbBlockTableRecord
2
_U3
340
0
70
0
0
BLOCK_RECORD
5
262
100
AcDbSymbolTableRecord
100
AcDbBlockTableRecord
2
*D9
340
0
70
0
0
BLOCK_RECORD
5
270
100
AcDbSymbolTableRecord
100
AcDbBlockTableRecord
2
_U4
340
0
70
0
0
ENDTAB
0
ENDSEC
0
SECTION
2
BLOCKS
0
BLOCK
5
20
100
AcDbEntity
8
0
100
AcDbBlockBegin
2
*Model_Space
70
0
10
0
20
0
30
0
3
*Model_Space
0
ENDBLK
5
21
100
AcDbEntity
8
0
100
AcDbBlockEnd
0
BLOCK
5
1C
100
AcDbEntity
8
0
100
AcDbBlockBegin
2
*Paper_Space
70
0
10
0
20
0
30
0
3
*Paper_Space
0
ENDBLK
5
1D
100
AcDbEntity
8
0
100
AcDbBlockEnd
0
BLOCK
5
24
100
AcDbEntity
8
0
100
AcDbBlockBegin
2
*Paper_Space0
70
0
10
0
20
0
30
0
3
*Paper_Space0
0
ENDBLK
5
25
100
AcDbEntity
8
0
100
AcDbBlockEnd
0
BLOCK
5
203
100
AcDbEntity
8
0
100
AcDbBlockBegin
2
*D1
70
1
10
0
20
0
30
0
3
*D1
0
LINE
5
205
100
AcDbEntity
8
0
62
256
6
ByLayer
370
-2
48
1
60
0
100
AcDbLine
10
60
20
1.5875
30
0
11
60
21
15.041937
31
0
39
0
210
0
220
0
230
1
0
LINE
5
206
100
AcDbEntity
8
0
62
256
6
ByLayer
370
-2
48
1
60
0
100
AcDbLine
10
25
20
5.683178
30
0
11
25
21
15.041937
31
0
39
0
210
0
220
0
230
1
0
LINE
5
207
100
AcDbEntity
8
0
62
256
6
ByLayer
370
-2
48
1
60
0
100
AcDbLine
10
56.5
20
13.041937
30
0
11
28.5
21
13.041937
31
0
39
0
210
0
220
0
230
1
0
SOLID
5
208
100
AcDbEntity
8
0
62
256
6
ByLayer
370
-1
48
1
60
0
100
AcDbTrace
10
56.5
20
12.458604
30
0
11
56.5
21
13.625271
31
0
12
60
22
13.041937
32
0
13
60
23
13.041937
33
0
39
0
210
0
220
0
230
1
0
SOLID
5
209
100
AcDbEntity
8
0
62
256
6
ByLayer
370
-1
48
1
60
0
100
AcDbTrace
10
28.5
20
13.625271
30
0
11
28.5
21
12.458604
31
0
12
25
22
13.041937
32
0
13
25
23
13.041937
33
0
39
0
210
0
220
0
230
1
0
MTEXT
5
20A
100
AcDbEntity
8
0
62
256
6
ByLayer
370
18
48
1
60
0
100
AcDbMText
10
42.5
20
19.041937
30
0
210
0
220
0
230
1
1
\A1;35
40
3
41
0
44
1
50
0
71
5
72
5
7
iso_b_vert
0
POINT
5
20B
100
AcDbEntity
8
Defpoints
62
0
6
ByLayer
370
-1
48
1
60
0
100
AcDbPoint
10
60
20
0
30
0
39
0
210
0
220
0
230
1
50
360
0
POINT
5
20C
100
AcDbEntity
8
Defpoints
62
0
6
ByLayer
370
-1
48
1
60
0
100
AcDbPoint
10
25
20
4.095678
30
0
39
0
210
0
220
0
230
1
50
360
0
POINT
5
20D
100
AcDbEntity
8
Defpoints
62
0
6
ByLayer
370
-1
48
1
60
0
100
AcDbPoint
10
25
20
13.041937
30
0
39
0
210
0
220
0
230
1
50
360
0
ENDBLK
5
204
100
AcDbEntity
8
0
100
AcDbBlockEnd
0
BLOCK
5
215
100
AcDbEntity
8
0
100
AcDbBlockBegin
2
_U0
70
0
10
0
20
0
30
0
3
_U0
0
MTEXT
5
20F
100
AcDbEntity
8
2
62
256
6
ByLayer
370
18
48
1
60
0
100
AcDbMText
10
40.867172
20
13.927052
30
0
210
0
220
0
230
1
1
\W0.6740;35
40
3
41
0
44
1.084337
50
0
71
7
72
5
7
iso_b_vert
0
LINE
5
210
100
AcDbEntity
8
2
62
256
6
ByLayer
370
13
48
1
60
0
100
AcDbLine
10
60
20
1.5875
30
0
11
60
21
15.041937
31
0
39
0
210
0
220
0
230
1
0
LINE
5
211
100
AcDbEntity
8
2
62
256
6
ByLayer
370
13
48
1
60
0
100
AcDbLine
10
25
20
5.683178
30
0
11
25
21
15.041937
31
0
39
0
210
0
220
0
230
1
0
LINE
5
212
100
AcDbEntity
8
2
62
256
6
ByLayer
370
13
48
1
60
0
100
AcDbLine
10
60
20
13.041937
30
0
11
25
21
13.041937
31
0
39
0
210
0
220
0
230
1
0
SOLID
5
213
100
AcDbEntity
8
2
62
256
6
ByLayer
370
18
48
1
60
0
100
AcDbTrace
10
60
20
13.041937
30
0
11
56.500002
21
12.581154
31
0
12
56.499998
22
13.502721
32
0
13
56.499998
23
13.502721
33
0
39
0
210
0
220
0
230
1
0
SOLID
5
214
100
AcDbEntity
8
2
62
256
6
ByLayer
370
18
48
1
60
0
100
AcDbTrace
10
25
20
13.041937
30
0
11
28.499998
21
13.502721
31
0
12
28.500002
22
12.581154
32
0
13
28.500002
23
12.581154
33
0
39
0
210
0
220
0
230
1
0
ENDBLK
5
216
100
AcDbEntity
8
0
100
AcDbBlockEnd
0
BLOCK
5
21B
100
AcDbEntity
8
0
100
AcDbBlockBegin
2
*D3
70
1
10
0
20
0
30
0
3
*D3
0
LINE
5
21D
100
AcDbEntity
8
0
62
256
6
ByLayer
370
-2
48
1
60
0
100
AcDbLine
10
60
20
1.5875
30
0
11
60
21
25.041937
31
0
39
0
210
0
220
0
230
1
0
LINE
5
21E
100
AcDbEntity
8
0
62
256
6
ByLayer
370
-2
48
1
60
0
100
AcDbLine
10
-0.018657
20
6.5875
30
0
11
-0.018657
21
25.041937
31
0
39
0
210
0
220
0
230
1
0
LINE
5
21F
100
AcDbEntity
8
0
62
256
6
ByLayer
370
-2
48
1
60
0
100
AcDbLine
10
56.5
20
23.041937
30
0
11
3.481343
21
23.041937
31
0
39
0
210
0
220
0
230
1
0
SOLID
5
220
100
AcDbEntity
8
0
62
256
6
ByLayer
370
-1
48
1
60
0
100
AcDbTrace
10
56.5
20
22.458604
30
0
11
56.5
21
23.625271
31
0
12
60
22
23.041937
32
0
13
60
23
23.041937
33
0
39
0
210
0
220
0
230
1
0
SOLID
5
221
100
AcDbEntity
8
0
62
256
6
ByLayer
370
-1
48
1
60
0
100
AcDbTrace
10
3.481343
20
23.625271
30
0
11
3.481343
21
22.458604
31
0
12
-0.018657
22
23.041937
32
0
13
-0.018657
23
23.041937
33
0
39
0
210
0
220
0
230
1
0
MTEXT
5
222
100
AcDbEntity
8
0
62
256
6
ByLayer
370
18
48
1
60
0
100
AcDbMText
10
29.990672
20
29.041937
30
0
210
0
220
0
230
1
1
\A1;60.02
40
3
41
0
44
1
50
0
71
5
72
5
7
iso_b_vert
0
POINT
5
223
100
AcDbEntity
8
Defpoints
62
0
6
ByLayer
370
-1
48
1
60
0
100
AcDbPoint
10
60
20
0
30
0
39
0
210
0
220
0
230
1
50
360
0
POINT
5
224
100
AcDbEntity
8
Defpoints
62
0
6
ByLayer
370
-1
48
1
60
0
100
AcDbPoint
10
-0.018657
20
5
30
0
39
0
210
0
220
0
230
1
50
360
0
POINT
5
225
100
AcDbEntity
8
Defpoints
62
0
6
ByLayer
370
-1
48
1
60
0
100
AcDbPoint
10
-0.018657
20
23.041937
30
0
39
0
210
0
220
0
230
1
50
360
0
ENDBLK
5
21C
100
AcDbEntity
8
0
100
AcDbBlockEnd
0
BLOCK
5
22D
100
AcDbEntity
8
0
100
AcDbBlockBegin
2
_U1
70
0
10
0
20
0
30
0
3
_U1
0
MTEXT
5
227
100
AcDbEntity
8
2
62
256
6
ByLayer
370
18
48
1
60
0
100
AcDbMText
10
28.357843
20
23.927052
30
0
210
0
220
0
230
1
1
\W0.6740;60
40
3
41
0
44
1.084337
50
0
71
7
72
5
7
iso_b_vert
0
LINE
5
228
100
AcDbEntity
8
2
62
256
6
ByLayer
370
13
48
1
60
0
100
AcDbLine
10
60
20
1.5875
30
0
11
60
21
25.041937
31
0
39
0
210
0
220
0
230
1
0
LINE
5
229
100
AcDbEntity
8
2
62
256
6
ByLayer
370
13
48
1
60
0
100
AcDbLine
10
-0.018657
20
6.5875
30
0
11
-0.018657
21
25.041937
31
0
39
0
210
0
220
0
230
1
0
LINE
5
22A
100
AcDbEntity
8
2
62
256
6
ByLayer
370
13
48
1
60
0
100
AcDbLine
10
60
20
23.041937
30
0
11
-0.018657
21
23.041937
31
0
39
0
210
0
220
0
230
1
0
SOLID
5
22B
100
AcDbEntity
8
2
62
256
6
ByLayer
370
18
48
1
60
0
100
AcDbTrace
10
60
20
23.041937
30
0
11
56.500002
21
22.581154
31
0
12
56.499998
22
23.502721
32
0
13
56.499998
23
23.502721
33
0
39
0
210
0
220
0
230
1
0
SOLID
5
22C
100
AcDbEntity
8
2
62
256
6
ByLayer
370
18
48
1
60
0
100
AcDbTrace
10
-0.018657
20
23.041937
30
0
11
3.481341
21
23.502721
31
0
12
3.481345
22
22.581154
32
0
13
3.481345
23
22.581154
33
0
39
0
210
0
220
0
230
1
0
ENDBLK
5
22E
100
AcDbEntity
8
0
100
AcDbBlockEnd
0
BLOCK
5
233
100
AcDbEntity
8
0
100
AcDbBlockBegin
2
*D5
70
1
10
0
20
0
30
0
3
*D5
0
LINE
5
235
100
AcDbEntity
8
0
62
256
6
ByLayer
370
-2
48
1
60
0
100
AcDbLine
10
60
20
1.5875
30
0
11
60
21
35.041937
31
0
39
0
210
0
220
0
230
1
0
LINE
5
236
100
AcDbEntity
8
0
62
256
6
ByLayer
370
-2
48
1
60
0
100
AcDbLine
10
-40
20
1.5875
30
0
11
-40
21
35.041937
31
0
39
0
210
0
220
0
230
1
0
LINE
5
237
100
AcDbEntity
8
0
62
256
6
ByLayer
370
-2
48
1
60
0
100
AcDbLine
10
56.5
20
33.041937
30
0
11
-36.5
21
33.041937
31
0
39
0
210
0
220
0
230
1
0
SOLID
5
238
100
AcDbEntity
8
0
62
256
6
ByLayer
370
-1
48
1
60
0
100
AcDbTrace
10
56.5
20
32.458604
30
0
11
56.5
21
33.625271
31
0
12
60
22
33.041937
32
0
13
60
23
33.041937
33
0
39
0
210
0
220
0
230
1
0
SOLID
5
239
100
AcDbEntity
8
0
62
256
6
ByLayer
370
-1
48
1
60
0
100
AcDbTrace
10
-36.5
20
33.625271
30
0
11
-36.5
21
32.458604
31
0
12
-40
22
33.041937
32
0
13
-40
23
33.041937
33
0
39
0
210
0
220
0
230
1
0
MTEXT
5
23A
100
AcDbEntity
8
0
62
256
6
ByLayer
370
18
48
1
60
0
100
AcDbMText
10
10
20
39.041937
30
0
210
0
220
0
230
1
1
\A1;100
40
3
41
0
44
1
50
0
71
5
72
5
7
iso_b_vert
0
POINT
5
23B
100
AcDbEntity
8
Defpoints
62
0
6
ByLayer
370
-1
48
1
60
0
100
AcDbPoint
10
60
20
0
30
0
39
0
210
0
220
0
230
1
50
360
0
POINT
5
23C
100
AcDbEntity
8
Defpoints
62
0
6
ByLayer
370
-1
48
1
60
0
100
AcDbPoint
10
-40
20
0
30
0
39
0
210
0
220
0
230
1
50
360
0
POINT
5
23D
100
AcDbEntity
8
Defpoints
62
0
6
ByLayer
370
-1
48
1
60
0
100
AcDbPoint
10
-40
20
33.041937
30
0
39
0
210
0
220
0
230
1
50
360
0
ENDBLK
5
234
100
AcDbEntity
8
0
100
AcDbBlockEnd
0
BLOCK
5
245
100
AcDbEntity
8
0
100
AcDbBlockBegin
2
_U2
70
0
10
0
20
0
30
0
3
_U2
0
MTEXT
5
23F
100
AcDbEntity
8
SK2
62
256
6
ByLayer
370
18
48
1
60
0
100
AcDbMText
10
7.621201
20
33.927052
30
0
210
0
220
0
230
1
1
\W0.6217;100
40
3
41
0
44
1.084337
50
0
71
7
72
5
7
iso_b_vert
0
LINE
5
240
100
AcDbEntity
8
SK2
62
256
6
ByLayer
370
13
48
1
60
0
100
AcDbLine
10
60
20
1.5875
30
0
11
60
21
35.041937
31
0
39
0
210
0
220
0
230
1
0
LINE
5
241
100
AcDbEntity
8
SK2
62
256
6
ByLayer
370
13
48
1
60
0
100
AcDbLine
10
-40
20
1.5875
30
0
11
-40
21
35.041937
31
0
39
0
210
0
220
0
230
1
0
LINE
5
242
100
AcDbEntity
8
SK2
62
256
6
ByLayer
370
13
48
1
60
0
100
AcDbLine
10
60
20
33.041937
30
0
11
-40
21
33.041937
31
0
39
0
210
0
220
0
230
1
0
SOLID
5
243
100
AcDbEntity
8
SK2
62
256
6
ByLayer
370
18
48
1
60
0
100
AcDbTrace
10
60
20
33.041937
30
0
11
56.500002
21
32.581154
31
0
12
56.499998
22
33.502721
32
0
13
56.499998
23
33.502721
33
0
39
0
210
0
220
0
230
1
0
SOLID
5
244
100
AcDbEntity
8
SK2
62
256
6
ByLayer
370
18
48
1
60
0
100
AcDbTrace
10
-40
20
33.041937
30
0
11
-36.500002
21
33.502721
31
0
12
-36.499998
22
32.581154
32
0
13
-36.499998
23
32.581154
33
0
39
0
210
0
220
0
230
1
0
ENDBLK
5
246
100
AcDbEntity
8
0
100
AcDbBlockEnd
0
BLOCK
5
24B
100
AcDbEntity
8
0
100
AcDbBlockBegin
2
*D7
70
1
10
0
20
0
30
0
3
*D7
0
LINE
5
24D
100
AcDbEntity
8
0
62
256
6
ByLayer
370
-2
48
1
60
0
100
AcDbLine
10
-40
20
-1.5875
30
0
11
-40
21
-21.492226
31
0
39
0
210
0
220
0
230
1
0
LINE
5
24E
100
AcDbEntity
8
0
62
256
6
ByLayer
370
-2
48
1
60
0
100
AcDbLine
10
0.6
20
-6.5875
30
0
11
0.6
21
-21.492226
31
0
39
0
210
0
220
0
230
1
0
LINE
5
24F
100
AcDbEntity
8
0
62
256
6
ByLayer
370
-2
48
1
60
0
100
AcDbLine
10
-36.5
20
-19.492226
30
0
11
-2.9
21
-19.492226
31
0
39
0
210
0
220
0
230
1
0
SOLID
5
250
100
AcDbEntity
8
0
62
256
6
ByLayer
370
-1
48
1
60
0
100
AcDbTrace
10
-36.5
20
-18.908893
30
0
11
-36.5
21
-20.07556
31
0
12
-40
22
-19.492226
32
0
13
-40
23
-19.492226
33
0
39
0
210
0
220
0
230
1
0
SOLID
5
251
100
AcDbEntity
8
0
62
256
6
ByLayer
370
-1
48
1
60
0
100
AcDbTrace
10
-2.9
20
-20.07556
30
0
11
-2.9
21
-18.908893
31
0
12
0.6
22
-19.492226
32
0
13
0.6
23
-19.492226
33
0
39
0
210
0
220
0
230
1
0
MTEXT
5
252
100
AcDbEntity
8
0
62
256
6
ByLayer
370
18
48
1
60
0
100
AcDbMText
10
-19.7
20
-13.492226
30
0
210
0
220
0
230
1
1
\A1;40.6
40
3
41
0
44
1
50
0
71
5
72
5
7
iso_b_vert
0
POINT
5
253
100
AcDbEntity
8
Defpoints
62
0
6
ByLayer
370
-1
48
1
60
0
100
AcDbPoint
10
-40
20
0
30
0
39
0
210
0
220
0
230
1
50
360
0
POINT
5
254
100
AcDbEntity
8
Defpoints
62
0
6
ByLayer
370
-1
48
1
60
0
100
AcDbPoint
10
0.6
20
-5
30
0
39
0
210
0
220
0
230
1
50
360
0
POINT
5
255
100
AcDbEntity
8
Defpoints
62
0
6
ByLayer
370
-1
48
1
60
0
100
AcDbPoint
10
0.6
20
-19.492226
30
0
39
0
210
0
220
0
230
1
50
360
0
ENDBLK
5
24C
100
AcDbEntity
8
0
100
AcDbBlockEnd
0
BLOCK
5
25D
100
AcDbEntity
8
0
100
AcDbBlockBegin
2
_U3
70
0
10
0
20
0
30
0
3
_U3
0
MTEXT
5
257
100
AcDbEntity
8
SK2
62
256
6
ByLayer
370
18
48
1
60
0
100
AcDbMText
10
-27.422856
20
-18.607112
30
0
210
0
220
0
230
1
1
\W0.7399;(MIN. 40)
40
3
41
0
44
1.084337
50
0
71
7
72
5
7
iso_b_vert
0
LINE
5
258
100
AcDbEntity
8
SK2
62
256
6
ByLayer
370
13
48
1
60
0
100
AcDbLine
10
-40
20
-1.5875
30
0
11
-40
21
-21.492226
31
0
39
0
210
0
220
0
230
1
0
LINE
5
259
100
AcDbEntity
8
SK2
62
256
6
ByLayer
370
13
48
1
60
0
100
AcDbLine
10
0.6
20
-6.5875
30
0
11
0.6
21
-21.492226
31
0
39
0
210
0
220
0
230
1
0
LINE
5
25A
100
AcDbEntity
8
SK2
62
256
6
ByLayer
370
13
48
1
60
0
100
AcDbLine
10
-40
20
-19.492226
30
0
11
0.6
21
-19.492226
31
0
39
0
210
0
220
0
230
1
0
SOLID
5
25B
100
AcDbEntity
8
SK2
62
256
6
ByLayer
370
18
48
1
60
0
100
AcDbTrace
10
-40
20
-19.492226
30
0
11
-36.500002
21
-19.031443
31
0
12
-36.499998
22
-19.95301
32
0
13
-36.499998
23
-19.95301
33
0
39
0
210
0
220
0
230
1
0
SOLID
5
25C
100
AcDbEntity
8
SK2
62
256
6
ByLayer
370
18
48
1
60
0
100
AcDbTrace
10
0.6
20
-19.492226
30
0
11
-2.899998
21
-19.95301
31
0
12
-2.900002
22
-19.031443
32
0
13
-2.900002
23
-19.031443
33
0
39
0
210
0
220
0
230
1
0
ENDBLK
5
25E
100
AcDbEntity
8
0
100
AcDbBlockEnd
0
BLOCK
5
263
100
AcDbEntity
8
0
100
AcDbBlockBegin
2
*D9
70
1
10
0
20
0
30
0
3
*D9
0
LINE
5
265
100
AcDbEntity
8
0
62
256
6
ByLayer
370
-2
48
1
60
0
100
AcDbLine
10
60
20
-1.5875
30
0
11
60
21
-13.5
31
0
39
0
210
0
220
0
230
1
0
LINE
5
266
100
AcDbEntity
8
0
62
256
6
ByLayer
370
-2
48
1
60
0
100
AcDbLine
10
52.132
20
2.508178
30
0
11
52.132
21
-13.5
31
0
39
0
210
0
220
0
230
1
0
LINE
5
267
100
AcDbEntity
8
0
62
256
6
ByLayer
370
-2
48
1
60
0
100
AcDbLine
10
60
20
-11.5
30
0
11
85.142857
21
-11.5
31
0
39
0
210
0
220
0
230
1
0
LINE
5
268
100
AcDbEntity
8
0
62
256
6
ByLayer
370
-2
48
1
60
0
100
AcDbLine
10
63.5
20
-11.5
30
0
11
67
21
-11.5
31
0
39
0
210
0
220
0
230
1
0
LINE
5
269
100
AcDbEntity
8
0
62
256
6
ByLayer
370
-2
48
1
60
0
100
AcDbLine
10
48.632
20
-11.5
30
0
11
45.132
21
-11.5
31
0
39
0
210
0
220
0
230
1
0
SOLID
5
26A
100
AcDbEntity
8
0
62
256
6
ByLayer
370
-1
48
1
60
0
100
AcDbTrace
10
63.5
20
-10.916667
30
0
11
63.5
21
-12.083333
31
0
12
60
22
-11.5
32
0
13
60
23
-11.5
33
0
39
0
210
0
220
0
230
1
0
SOLID
5
26B
100
AcDbEntity
8
0
62
256
6
ByLayer
370
-1
48
1
60
0
100
AcDbTrace
10
48.632
20
-12.083333
30
0
11
48.632
21
-10.916667
31
0
12
52.132
22
-11.5
32
0
13
52.132
23
-11.5
33
0
39
0
210
0
220
0
230
1
0
MTEXT
5
26C
100
AcDbEntity
8
0
62
256
6
ByLayer
370
18
48
1
60
0
100
AcDbMText
10
76.071429
20
-5.5
30
0
210
0
220
0
230
1
1
\A1;7.87
40
3
41
0
44
1
50
0
71
5
72
5
7
iso_b_vert
0
POINT
5
26D
100
AcDbEntity
8
Defpoints
62
0
6
ByLayer
370
-1
48
1
60
0
100
AcDbPoint
10
60
20
0
30
0
39
0
210
0
220
0
230
1
50
360
0
POINT
5
26E
100
AcDbEntity
8
Defpoints
62
0
6
ByLayer
370
-1
48
1
60
0
100
AcDbPoint
10
52.132
20
4.095678
30
0
39
0
210
0
220
0
230
1
50
360
0
POINT
5
26F
100
AcDbEntity
8
Defpoints
62
0
6
ByLayer
370
-1
48
1
60
0
100
AcDbPoint
10
52.132
20
-11.5
30
0
39
0
210
0
220
0
230
1
50
360
0
ENDBLK
5
264
100
AcDbEntity
8
0
100
AcDbBlockEnd
0
BLOCK
5
277
100
AcDbEntity
8
0
100
AcDbBlockBegin
2
_U4
70
0
10
0
20
0
30
0
3
_U4
0
MTEXT
5
271
100
AcDbEntity
8
SK2
62
256
6
ByLayer
370
18
48
1
60
0
100
AcDbMText
10
70.159
20
-10.614886
30
0
210
0
220
0
230
1
1
\W0.7346;7.87
40
3
41
0
44
1.084337
50
0
71
7
72
5
7
iso_b_vert
0
LINE
5
272
100
AcDbEntity
8
SK2
62
256
6
ByLayer
370
13
48
1
60
0
100
AcDbLine
10
60
20
-1.5875
30
0
11
60
21
-13.5
31
0
39
0
210
0
220
0
230
1
0
LINE
5
273
100
AcDbEntity
8
SK2
62
256
6
ByLayer
370
13
48
1
60
0
100
AcDbLine
10
52.132
20
2.508178
30
0
11
52.132
21
-13.5
31
0
39
0
210
0
220
0
230
1
0
LINE
5
274
100
AcDbEntity
8
SK2
62
256
6
ByLayer
370
13
48
1
60
0
100
AcDbLine
10
52.132
20
-11.5
30
0
11
77.040913
21
-11.5
31
0
39
0
210
0
220
0
230
1
0
SOLID
5
275
100
AcDbEntity
8
SK2
62
256
6
ByLayer
370
18
48
1
60
0
100
AcDbTrace
10
60
20
-11.5
30
0
11
56.500002
21
-11.960784
31
0
12
56.499998
22
-11.039216
32
0
13
56.499998
23
-11.039216
33
0
39
0
210
0
220
0
230
1
0
SOLID
5
276
100
AcDbEntity
8
SK2
62
256
6
ByLayer
370
18
48
1
60
0
100
AcDbTrace
10
52.132
20
-11.5
30
0
11
55.631998
21
-11.039216
31
0
12
55.632002
22
-11.960784
32
0
13
55.632002
23
-11.960784
33
0
39
0
210
0
220
0
230
1
0
ENDBLK
5
278
100
AcDbEntity
8
0
100
AcDbBlockEnd
0
ENDSEC
0
SECTION
2
ENTITIES
0
ARC
5
112
100
AcDbEntity
8
1
62
256
6
ByLayer
370
18
48
1
60
0
100
AcDbCircle
39
0
10
24.999417
20
5.096
30
0
40
1
210
0
220
0
230
1
100
AcDbArc
50
267.929087
51
270
0
ARC
5
113
100
AcDbEntity
8
1
62
256
6
ByLayer
370
18
48
1
60
0
100
AcDbCircle
39
0
10
24.999417
20
-5.096
30
0
40
1
210
0
220
0
230
1
100
AcDbArc
50
90
51
92.070913
0
ARC
5
114
100
AcDbEntity
8
81
62
256
6
ByLayer
370
18
48
1
60
0
100
AcDbCircle
39
0
10
51.92021
20
-4.325815
30
0
40
0.32740930531291
210
0
220
0
230
1
100
AcDbArc
50
49.86945
51
90
0
ARC
5
115
100
AcDbEntity
8
81
62
256
6
ByLayer
370
18
48
1
60
0
100
AcDbCircle
39
0
10
51.92021
20
4.325815
30
0
40
0.32740930531291
210
0
220
0
230
1
100
AcDbArc
50
270
51
310.13055
0
ARC
5
116
100
AcDbEntity
8
81
62
256
6
ByLayer
370
18
48
1
60
0
100
AcDbCircle
39
0
10
51.62021
20
-12.448212
30
0
40
8.44980590837632
210
0
220
0
230
1
100
AcDbArc
50
90
51
98.702138
0
ARC
5
117
100
AcDbEntity
8
81
62
256
6
ByLayer
370
18
48
1
60
0
100
AcDbCircle
39
0
10
51.62021
20
12.448212
30
0
40
8.44980590837632
210
0
220
0
230
1
100
AcDbArc
50
261.297862
51
270
0
ARC
5
118
100
AcDbEntity
8
81
62
256
6
ByLayer
370
18
48
1
60
0
100
AcDbCircle
39
0
10
55
20
0
30
0
40
4.984
210
0
220
0
230
1
100
AcDbArc
50
82.793407
51
125.13055
0
ARC
5
119
100
AcDbEntity
8
81
62
256
6
ByLayer
370
18
48
1
60
0
100
AcDbCircle
39
0
10
55
20
0
30
0
40
4.984
210
0
220
0
230
1
100
AcDbArc
50
6E-06
51
76.787145
0
ARC
5
11A
100
AcDbEntity
8
81
62
256
6
ByLayer
370
18
48
1
60
0
100
AcDbCircle
39
0
10
55
20
0
30
0
40
4.984
210
0
220
0
230
1
100
AcDbArc
50
276.491005
51
359.292236
0
ARC
5
11B
100
AcDbEntity
8
81
62
256
6
ByLayer
370
18
48
1
60
0
100
AcDbCircle
39
0
10
55
20
0
30
0
40
4.984
210
0
220
0
230
1
100
AcDbArc
50
234.86945
51
262.949532
0
ARC
5
11C
100
AcDbEntity
8
SK2
62
256
6
ByLayer
370
13
48
1
60
0
100
AcDbCircle
39
0
10
138.309556
20
0
30
0
40
151.160762775953
210
0
220
0
230
1
100
AcDbArc
50
177.929893
51
182.840461
0
ARC
5
11D
100
AcDbEntity
8
SK2
62
256
6
ByLayer
370
13
48
1
60
0
100
AcDbCircle
39
0
10
138.309556
20
0
30
0
40
151.160762775953
210
0
220
0
230
1
100
AcDbArc
50
172.966485
51
177.929893
0
ELLIPSE
5
11E
100
AcDbEntity
8
1
62
256
6
ByLayer
370
18
48
1
60
0
100
AcDbEllipse
10
59.660121
20
0.905092
30
0
11
0.160144715598254
21
0.251780540342444
31
0
210
0
220
0
230
1
40
0.08864
41
1.26787702828103
42
2.04839113065903
0
ELLIPSE
5
11F
100
AcDbEntity
8
1
62
256
6
ByLayer
370
18
48
1
60
0
100
AcDbEllipse
10
59.658965
20
-1.116818
30
0
11
0.150103613849779
21
-0.253197264434952
31
0
210
0
220
0
230
1
40
0.117396
41
2.23612880564019
42
-1.90902816784805
0
ELLIPSE
5
120
100
AcDbEntity
8
1
62
256
6
ByLayer
370
18
48
1
60
0
100
AcDbEllipse
10
59.660121
20
-0.891594
30
0
11
0.159811039385991
21
-0.251549692485718
31
0
210
0
220
0
230
1
40
0.097768
41
2.89150552121627
42
-1.31182663470507
0
ELLIPSE
5
121
100
AcDbEntity
8
1
62
256
6
ByLayer
370
18
48
1
60
0
100
AcDbEllipse
10
50.282904
20
-15.04164
30
0
11
7.69710941628382
21
9.09751954670144
31
0
210
0
220
0
230
1
40
0.894028
41
0.615339735198299
42
0.717535198490872
0
ELLIPSE
5
122
100
AcDbEntity
8
1
62
256
6
ByLayer
370
18
48
1
60
0
100
AcDbEllipse
10
50.388211
20
6.351735
30
0
11
-11.4172735480883
21
4.24940752219457
31
0
210
0
220
0
230
1
40
0.196411
41
1.69458362286381
42
1.78267918371795
0
ELLIPSE
5
123
100
AcDbEntity
8
1
62
256
6
ByLayer
370
18
48
1
60
0
100
AcDbEllipse
10
50.282904
20
6.068797
30
0
11
-11.1683364954526
21
4.1567553684586
31
0
210
0
220
0
230
1
40
0.196411
41
1.68407632861295
42
1.78627179190556
0
ELLIPSE
5
124
100
AcDbEntity
8
1
62
256
6
ByLayer
370
18
48
1
60
0
100
AcDbEllipse
10
50.388211
20
-15.130737
30
0
11
7.86867442354216
21
9.30029904776462
31
0
210
0
220
0
230
1
40
0.894028
41
0.618932343385897
42
0.707027904240117
0
ELLIPSE
5
125
100
AcDbEntity
8
1
62
256
6
ByLayer
370
18
48
1
60
0
100
AcDbEllipse
10
50.282904
20
-8.758765
30
0
11
-10.5161257533312
21
5.60548431529254
31
0
210
0
220
0
230
1
40
0.686524
41
-1.36249295011692
42
-1.26029748682436
0
ELLIPSE
5
126
100
AcDbEntity
8
1
62
256
6
ByLayer
370
18
48
1
60
0
100
AcDbEllipse
10
59.920745
20
0
30
0
11
12.7608588378291
21
-0.23473060593358
31
0
210
0
220
0
230
1
40
0.320454
41
-2.62451863203886
42
-2.27000660483499
0
ELLIPSE
5
127
100
AcDbEntity
8
1
62
256
6
ByLayer
370
18
48
1
60
0
100
AcDbEllipse
10
59.920745
20
0
30
0
11
12.7517918158033
21
-3.74576173912035
31
0
210
0
220
0
230
1
40
0.129962
41
-2.59225606851683
42
-2.23774404130582
0
ELLIPSE
5
128
100
AcDbEntity
8
1
62
256
6
ByLayer
370
18
48
1
60
0
100
AcDbEllipse
10
50.388211
20
-8.561204
30
0
11
-10.7505253303183
21
5.73042796689314
31
0
210
0
220
0
230
1
40
0.686524
41
-1.35890034192933
42
-1.2708047810751
0
ELLIPSE
5
129
100
AcDbEntity
8
1
62
256
6
ByLayer
370
18
48
1
60
0
100
AcDbEllipse
10
59.920745
20
0
30
0
11
12.748161930317
21
-3.53396956981764
31
0
210
0
220
0
230
1
40
0.16244
41
2.32090148197075
42
2.61154595602008
0
ELLIPSE
5
12A
100
AcDbEntity
8
1
62
256
6
ByLayer
370
18
48
1
60
0
100
AcDbEllipse
10
59.920745
20
0
30
0
11
12.7476891622963
21
3.49902964833668
31
0
210
0
220
0
230
1
40
0.167036
41
-2.67622966626686
42
-2.46564400546887
0
POINT
5
70
100
AcDbEntity
8
81
62
256
6
ByLayer
370
18
48
1
60
0
100
AcDbPoint
10
60
20
0
30
0
39
0
210
0
220
0
230
1
50
360
0
POINT
5
72
100
AcDbEntity
8
80
62
256
6
ByLayer
370
18
48
1
60
0
100
AcDbPoint
10
0
20
0
30
0
39
0
210
0
220
0
230
1
50
360
0
POINT
5
74
100
AcDbEntity
8
1
62
256
6
ByLayer
370
18
48
1
60
1
100
AcDbPoint
10
60
20
0
30
0
39
0
210
0
220
0
230
1
50
360
0
POINT
5
76
100
AcDbEntity
8
1
62
256
6
ByLayer
370
18
48
1
60
1
100
AcDbPoint
10
25
20
4.095678
30
0
39
0
210
0
220
0
230
1
50
360
0
POINT
5
77
100
AcDbEntity
8
1
62
256
6
ByLayer
370
18
48
1
60
1
100
AcDbPoint
10
60
20
0
30
0
39
0
210
0
220
0
230
1
50
360
0
POINT
5
78
100
AcDbEntity
8
1
62
256
6
ByLayer
370
18
48
1
60
1
100
AcDbPoint
10
-0.018657
20
5
30
0
39
0
210
0
220
0
230
1
50
360
0
POINT
5
79
100
AcDbEntity
8
1
62
256
6
ByLayer
370
18
48
1
60
1
100
AcDbPoint
10
60
20
0
30
0
39
0
210
0
220
0
230
1
50
360
0
POINT
5
7A
100
AcDbEntity
8
1
62
256
6
ByLayer
370
18
48
1
60
1
100
AcDbPoint
10
-40
20
0
30
0
39
0
210
0
220
0
230
1
50
360
0
POINT
5
7B
100
AcDbEntity
8
1
62
256
6
ByLayer
370
18
48
1
60
1
100
AcDbPoint
10
-40
20
0
30
0
39
0
210
0
220
0
230
1
50
360
0
POINT
5
7C
100
AcDbEntity
8
1
62
256
6
ByLayer
370
18
48
1
60
1
100
AcDbPoint
10
0.6
20
-5
30
0
39
0
210
0
220
0
230
1
50
360
0
POINT
5
7D
100
AcDbEntity
8
1
62
256
6
ByLayer
370
18
48
1
60
1
100
AcDbPoint
10
60
20
0
30
0
39
0
210
0
220
0
230
1
50
360
0
POINT
5
7E
100
AcDbEntity
8
1
62
256
6
ByLayer
370
18
48
1
60
1
100
AcDbPoint
10
52.132
20
4.095678
30
0
39
0
210
0
220
0
230
1
50
360
0
SPLINE
5
12B
100
AcDbEntity
8
1
62
256
6
ByLayer
370
18
48
1
60
0
100
AcDbSpline
70
4
71
1
72
4
73
2
40
0
40
0
40
1
40
1
41
1
10
59.9880035383617
20
7.08560207272E-05
30
0
41
1
10
59.975470652126
20
0.064536096963792
30
0
0
SPLINE
5
12C
100
AcDbEntity
8
1
62
256
6
ByLayer
370
18
48
1
60
0
100
AcDbSpline
70
4
71
2
72
6
73
3
40
0
40
0
40
0
40
1
40
1
40
1
41
1
10
56.8658579644634
20
2.79059392163188
30
0
41
1
10
56.5355431059865
20
2.86309615504422
30
0
41
1
10
56.0727890723455
20
2.9850680515209
30
0
0
SPLINE
5
12D
100
AcDbEntity
8
1
62
256
6
ByLayer
370
18
48
1
60
0
100
AcDbSpline
70
4
71
3
72
8
73
4
40
0
40
0
40
0
40
0
40
1
40
1
40
1
40
1
41
1
10
59.6216147827492
20
-0.725961417504919
30
0
41
1
10
59.6063974794186
20
-0.75109862505542
30
0
41
1
10
59.5909724243838
20
-0.77635323572386
30
0
41
1
10
59.5753480712449
20
-0.801713639014054
30
0
0
SPLINE
5
12E
100
AcDbEntity
8
1
62
256
6
ByLayer
370
18
48
1
60
0
100
AcDbSpline
70
4
71
3
72
8
73
4
40
0
40
0
40
0
40
0
40
1
40
1
40
1
40
1
41
1
10
59.9817910293516
20
-0.0588170630418858
30
0
41
1
10
59.9837164775033
20
-0.0590067791036404
30
0
41
1
10
59.9856331332029
20
-0.059196522343484
30
0
41
1
10
59.9875410434483
20
-0.059386292616125
30
0
0
SPLINE
5
12F
100
AcDbEntity
8
1
62
256
6
ByLayer
370
18
48
1
60
0
100
AcDbSpline
70
4
71
3
72
8
73
4
40
0
40
0
40
0
40
0
40
1
40
1
40
1
40
1
41
1
10
59.7430429184136
20
1.4226345671245
30
0
41
1
10
59.7696677737803
20
1.34438829870629
30
0
41
1
10
59.7942687716491
20
1.26568601046088
30
0
41
1
10
59.8168441700464
20
1.18652730988316
30
0
0
SPLINE
5
130
100
AcDbEntity
8
1
62
256
6
ByLayer
370
18
48
1
60
0
100
AcDbSpline
70
4
71
3
72
8
73
4
40
0
40
0
40
0
40
0
40
1
40
1
40
1
40
1
41
1
10
59.4919387545754
20
1.32855455188542
30
0
41
1
10
59.5756166052206
20
1.35996567908757
30
0
41
1
10
59.659320144761
20
1.39132101098633
30
0
41
1
10
59.7430429184133
20
1.42263456712496
30
0
0
SPLINE
5
131
100
AcDbEntity
8
1
62
256
6
ByLayer
370
18
48
1
60
0
100
AcDbSpline
70
4
71
3
72
8
73
4
40
0
40
0
40
0
40
0
40
1
40
1
40
1
40
1
41
1
10
59.6606107712338
20
1.64278493768788
30
0
41
1
10
59.6899286410918
20
1.56965875483132
30
0
41
1
10
59.7174048758508
20
1.4962777865795
30
0
41
1
10
59.7430429184135
20
1.42263456712462
30
0
0
SPLINE
5
132
100
AcDbEntity
8
1
62
256
6
ByLayer
370
18
48
1
60
0
100
AcDbSpline
70
4
71
3
72
10
73
6
40
0
40
0
40
0
40
0
40
0.120771950051439
40
0.773579680152571
40
1
40
1
40
1
40
1
41
1
10
59.2910262030573
20
2.38902604140546
30
0
41
1
10
59.3084269096861
20
2.35976034530461
30
0
41
1
10
59.4179975850468
20
2.1715623834562
30
0
41
1
10
59.5437419735391
20
1.92261039672607
30
0
41
1
10
59.6375747475858
20
1.70023051919048
30
0
41
1
10
59.6606107712338
20
1.64278493768788
30
0
0
SPLINE
5
133
100
AcDbEntity
8
1
62
256
6
ByLayer
370
18
48
1
60
0
100
AcDbSpline
70
4
71
3
72
51
73
47
40
0
40
0
40
0
40
0
40
0.0097397430011686
40
0.0204023257606953
40
0.0319926847332785
40
0.0445161984798563
40
0.0579787030290561
40
0.072386512297045
40
0.0877464338620945
40
0.104065284413693
40
0.121349463850666
40
0.139605409597922
40
0.158839613909325
40
0.179058602717459
40
0.200268921767754
40
0.22247713211298
40
0.245689817345617
40
0.269913605275922
40
0.295155207121637
40
0.321421437215599
40
0.348717394761563
40
0.377045094964132
40
0.406405366852109
40
0.436798001273691
40
0.468221759825444
40
0.50067439184475
40
0.55136148979236
40
0.609984726650476
40
0.676540207303277
40
0.750990963154692
40
0.763060601851871
40
0.77559849885875
40
0.788604065952618
40
0.802076675534477
40
0.816015917472018
40
0.830421421694119
40
0.845292771993776
40
0.860629501000214
40
0.876431085059771
40
0.892696939092327
40
0.909426411513294
40
0.926618779326138
40
0.944273243506626
40
0.962388924817494
40
0.980964860211358
40
1
40
1
40
1
40
1
41
1
10
56.7282610858958
20
4.65899889095735
30
0
41
1
10
56.7381779694075
20
4.65481938821623
30
0
41
1
10
56.7589513602364
20
4.64606437523162
30
0
41
1
10
56.7914710473416
20
4.63201480990313
30
0
41
1
10
56.8267695749313
20
4.61646015186054
30
0
41
1
10
56.8648428035804
20
4.59929374500683
30
0
41
1
10
56.9056904128237
20
4.58043380234932
30
0
41
1
10
56.9493086858238
20
4.5597821566414
30
0
41
1
10
56.9956916416667
20
4.53723660066728
30
0
41
1
10
57.0448293093767
20
4.51268879749927
30
0
41
1
10
57.0967072901008
20
4.48602671387974
30
0
41
1
10
57.151305870233
20
4.45713261301526
30
0
41
1
10
57.2086000302658
20
4.42588339424816
30
0
41
1
10
57.2685588016823
20
4.39215054740717
30
0
41
1
10
57.331144585052
20
4.35580031855091
30
0
41
1
10
57.3963124202635
20
4.31669382068924
30
0
41
1
10
57.4640092398599
20
4.27468719411331
30
0
41
1
10
57.5341730338393
20
4.22963165101936
30
0
41
1
10
57.6067321564846
20
4.1813740146155
30
0
41
1
10
57.6816019416989
20
4.12975667731874
30
0
41
1
10
57.7586836895655
20
4.07462674899517
30
0
41
1
10
57.837865505165
20
4.01584188295732
30
0
41
1
10
57.9190175242633
20
3.95326038223357
30
0
41
1
10
58.0019935468058
20
3.88674274397459
30
0
41
1
10
58.0866305315552
20
3.81615085290292
30
0
41
1
10
58.18796599854
20
3.72812983184355
30
0
41
1
10
58.3108184379848
20
3.61570942919107
30
0
41
1
10
58.4588014881321
20
3.47080463795814
30
0
41
1
10
58.6205792860026
20
3.29960615982989
30
0
41
1
10
58.7389431996522
20
3.16294828734638
30
0
41
1
10
58.8130943443329
20
3.07259567304203
30
0
41
1
10
58.8409852959931
20
3.0380800729524
30
0
41
1
10
58.8696273008428
20
3.00205729805703
30
0
41
1
10
58.8989835044266
20
2.96450801502306
30
0
41
1
10
58.9290163632422
20
2.92541401174819
30
0
41
1
10
58.959686845931
20
2.88475701696115
30
0
41
1
10
58.9909540256926
20
2.84251911338893
30
0
41
1
10
59.0227749976103
20
2.79868289020516
30
0
41
1
10
59.0551048316738
20
2.75323156879844
30
0
41
1
10
59.0878963975351
20
2.70614906055235
30
0
41
1
10
59.1211007381318
20
2.65742027690118
30
0
41
1
10
59.1546652800441
20
2.60703048275235
30
0
41
1
10
59.188540449574
20
2.55496838429085
30
0
41
1
10
59.2226536323534
20
2.50121473154195
30
0
41
1
10
59.2570098104389
20
2.44578713196782
30
0
41
1
10
59.2795954871845
20
2.40809978347232
30
0
41
1
10
59.2910262030571
20
2.3890260414058
30
0
0
SPLINE
5
134
100
AcDbEntity
8
1
62
256
6
ByLayer
370
18
48
1
60
0
100
AcDbSpline
70
4
71
3
72
9
73
5
40
0
40
0
40
0
40
0
40
0.639375944371644
40
1
40
1
40
1
40
1
41
1
10
56.1773132453754
20
4.84939946455267
30
0
41
1
10
56.2935012555499
20
4.817688013685
30
0
41
1
10
56.4766504023646
20
4.75938694538041
30
0
41
1
10
56.6614875059049
20
4.6869727300145
30
0
41
1
10
56.7282610858891
20
4.65899889096016
30
0
0
SPLINE
5
135
100
AcDbEntity
8
1
62
256
6
ByLayer
370
18
48
1
60
0
100
AcDbSpline
70
4
71
1
72
4
73
2
40
0
40
0
40
1
40
1
41
1
10
52.1351041349554
20
-3.84048740886541
30
0
41
1
10
52.1352042989775
20
-3.84028024229491
30
0
0
SPLINE
5
136
100
AcDbEntity
8
1
62
256
6
ByLayer
370
18
48
1
60
0
100
AcDbSpline
70
4
71
3
72
8
73
4
40
0
40
0
40
0
40
0
40
1
40
1
40
1
40
1
41
1
10
57.3277064756982
20
2.99127703267271
30
0
41
1
10
57.4243210732375
20
2.84171376870995
30
0
41
1
10
57.5245484005833
20
2.69425532809856
30
0
41
1
10
57.6286834933453
20
2.54907360242052
30
0
0
SPLINE
5
137
100
AcDbEntity
8
1
62
256
6
ByLayer
370
18
48
1
60
0
100
AcDbSpline
70
4
71
3
72
8
73
4
40
0
40
0
40
0
40
0
40
1
40
1
40
1
40
1
41
1
10
59.9817910293516
20
-0.0588170630418574
30
0
41
1
10
59.9838743253075
20
-0.0598643245900234
30
0
41
1
10
59.9859502874055
20
-0.0609115107480704
30
0
41
1
10
59.9880189425292
20
-0.0619586217923143
30
0
0
SPLINE
5
138
100
AcDbEntity
8
1
62
256
6
ByLayer
370
18
48
1
60
0
100
AcDbSpline
70
4
71
3
72
12
73
8
40
0
40
0
40
0
40
0
40
0.250000000000003
40
0.250000000000003
40
0.500000000000006
40
0.500000000000006
40
1
40
1
40
1
40
1
41
1
10
59.9290275974421
20
-0.11902825878957
30
0
41
1
10
59.9212272889689
20
-0.124015928583475
30
0
41
1
10
59.9124618207993
20
-0.128969630538052
30
0
41
1
10
59.8930894963488
20
-0.13877439834053
30
0
41
1
10
59.8824751588221
20
-0.143630546998054
30
0
41
1
10
59.8478973610047
20
-0.15806276497392
30
0
41
1
10
59.8212058255271
20
-0.167502940543614
30
0
41
1
10
59.7909454022949
20
-0.176765338925321
30
0
0
SPLINE
5
139
100
AcDbEntity
8
1
62
256
6
ByLayer
370
18
48
1
60
0
100
AcDbSpline
70
4
71
3
72
12
73
8
40
0
40
0
40
0
40
0
40
0.249999999999835
40
0.249999999999835
40
0.49999999999967
40
0.49999999999967
40
1
40
1
40
1
40
1
41
1
10
59.4919387545626
20
1.3285545518944
30
0
41
1
10
59.4870010886
20
1.32670104284227
30
0
41
1
10
59.4818324790212
20
1.32600764892516
30
0
41
1
10
59.4713217465933
20
1.32549248253352
30
0
41
1
10
59.4660276041359
20
1.32572935118026
30
0
41
1
10
59.4504179383895
20
1.32716512084647
30
0
41
1
10
59.4401727380295
20
1.32908007790616
30
0
41
1
10
59.4299923110961
20
1.33137978553117
30
0
0
SPLINE
5
13A
100
AcDbEntity
8
1
62
256
6
ByLayer
370
18
48
1
60
0
100
AcDbSpline
70
4
71
3
72
24
73
20
40
0
40
0
40
0
40
0
40
0.137412564396613
40
0.137412564396613
40
0.223671307956842
40
0.223671307956842
40
0.309930051517071
40
0.309930051517071
40
0.482447538637681
40
0.482447538637681
40
0.568706282198068
40
0.568706282198068
40
0.654965025758455
40
0.654965025758455
40
0.827482512879227
40
0.827482512879227
40
0.913741256439614
40
0.913741256439614
40
1
40
1
40
1
40
1
41
1
10
59.2268961883983
20
1.26185693949219
30
0
41
1
10
59.2340705135823
20
1.26757086294754
30
0
41
1
10
59.2415648100892
20
1.27325942372536
30
0
41
1
10
59.2543372493138
20
1.28238042996466
30
0
41
1
10
59.2594025465578
20
1.28586375349744
30
0
41
1
10
59.2698398589174
20
1.29271930053349
30
0
41
1
10
59.2752155825374
20
1.29609215610725
30
0
41
1
10
59.2915886800835
20
1.30580805416417
30
0
41
1
10
59.3029079913753
20
1.31181265167419
30
0
41
1
10
59.3206455295491
20
1.3196894692494
30
0
41
1
10
59.3266854107494
20
1.32212456100174
30
0
41
1
10
59.3390593606342
20
1.32650886282136
30
0
41
1
10
59.3454063668967
20
1.32845724462754
30
0
41
1
10
59.364527611185
20
1.33328462738959
30
0
41
1
10
59.3775070005941
20
1.33518992977522
30
0
41
1
10
59.3973588936598
20
1.33557875336595
30
0
41
1
10
59.404034358001
20
1.33528972293263
30
0
41
1
10
59.4171296392708
20
1.33391092649367
30
0
41
1
10
59.4235978032551
20
1.33282427293227
30
0
41
1
10
59.4299923110961
20
1.33137978553145
30
0
0
SPLINE
5
13B
100
AcDbEntity
8
1
62
256
6
ByLayer
370
18
48
1
60
0
100
AcDbSpline
70
4
71
3
72
12
73
8
40
0
40
0
40
0
40
0
40
0.5
40
0.5
40
0.75
40
0.75
40
1
40
1
40
1
40
1
41
1
10
59.5909737069371
20
-0.625722081378427
30
0
41
1
10
59.5873972410114
20
-0.614469355067627
30
0
41
1
10
59.5844699235935
20
-0.601805753884832
30
0
41
1
10
59.5815554700749
20
-0.579967754836815
30
0
41
1
10
59.5808327562967
20
-0.572210282068681
30
0
41
1
10
59.5800362406367
20
-0.555506890154248
30
0
41
1
10
59.5799597030939
20
-0.546565534065451
30
0
41
1
10
59.5803336278013
20
-0.536830591345023
30
0
0
SPLINE
5
13C
100
AcDbEntity
8
1
62
256
6
ByLayer
370
18
48
1
60
0
100
AcDbSpline
70
4
71
3
72
39
73
35
40
0
40
0
40
0
40
0
40
0.0625000000000115
40
0.0625000000000115
40
0.0937500000000193
40
0.0937500000000193
40
0.125000000000027
40
0.125000000000027
40
0.156250000000035
40
0.156250000000035
40
0.187500000000043
40
0.21875000000005
40
0.21875000000005
40
0.250000000000058
40
0.250000000000058
40
0.281250000000066
40
0.281250000000066
40
0.312500000000074
40
0.312500000000074
40
0.375000000000067
40
0.375000000000067
40
0.43750000000006
40
0.43750000000006
40
0.500000000000053
40
0.500000000000053
40
0.562500000000046
40
0.562500000000046
40
0.625000000000039
40
0.625000000000039
40
0.750000000000026
40
0.750000000000026
40
0.875000000000013
40
0.875000000000013
40
1
40
1
40
1
40
1
41
1
10
59.580333627802
20
-0.536830591344597
30
0
41
1
10
59.5799798792577
20
-0.525140589633565
30
0
41
1
10
59.5801965179262
20
-0.512743551634912
30
0
41
1
10
59.5816663606772
20
-0.492759267771788
30
0
41
1
10
59.5823553117964
20
-0.485835112237282
30
0
41
1
10
59.584132129883
20
-0.471860622467546
30
0
41
1
10
59.5852216683468
20
-0.464767570392127
30
0
41
1
10
59.5878356354852
20
-0.450352159196427
30
0
41
1
10
59.589371376698
20
-0.442982317162489
30
0
41
1
10
59.5928725775201
20
-0.428199666881994
30
0
41
1
10
59.5967395348805
20
-0.413621439892978
30
0
41
1
10
59.6012923387652
20
-0.399429299893228
30
0
41
1
10
59.6061724560463
20
-0.385423297731762
30
0
41
1
10
59.6087436102104
20
-0.378610953558649
30
0
41
1
10
59.6140351299004
20
-0.365516008910049
30
0
41
1
10
59.6167676087348
20
-0.359198979221816
30
0
41
1
10
59.6223795221335
20
-0.346972453641683
30
0
41
1
10
59.6252456227452
20
-0.341095469226531
30
0
41
1
10
59.6338448301726
20
-0.324348809451834
30
0
41
1
10
59.6396377884848
20
-0.31422136720002
30
0
41
1
10
59.6512684929139
20
-0.295494638789393
30
0
41
1
10
59.6571126621841
20
-0.286903352981227
30
0
41
1
10
59.6685083942468
20
-0.271314785225968
30
0
41
1
10
59.6741041926367
20
-0.264247556112082
30
0
41
1
10
59.6851073140909
20
-0.251236265263174
30
0
41
1
10
59.6905144822753
20
-0.245294947061268
30
0
41
1
10
59.7011487314094
20
-0.234334284899603
30
0
41
1
10
59.7063873350559
20
-0.229307193062056
30
0
41
1
10
59.7216638531283
20
-0.215553680080234
30
0
41
1
10
59.7313242858999
20
-0.208070173737269
30
0
41
1
10
59.7497689859197
20
-0.195512153512311
30
0
41
1
10
59.7585510180259
20
-0.190450031713681
30
0
41
1
10
59.7753269474458
20
-0.182241404621294
30
0
41
1
10
59.7833200717015
20
-0.179099372696299
30
0
41
1
10
59.7909454022949
20
-0.176765338925321
30
0
0
SPLINE
5
13D
100
AcDbEntity
8
1
62
256
6
ByLayer
370
18
48
1
60
0
100
AcDbSpline
70
4
71
3
72
18
73
14
40
0
40
0
40
0
40
0
40
0.12500000000001
40
0.12500000000001
40
0.25000000000002
40
0.25000000000002
40
0.500000000000013
40
0.500000000000013
40
0.62500000000001
40
0.62500000000001
40
0.750000000000006
40
0.750000000000006
40
1
40
1
40
1
40
1
41
1
10
52.1351041349554
20
-3.84048740886541
30
0
41
1
10
52.1773076542869
20
-3.87100585028992
30
0
41
1
10
52.2196824585743
20
-3.90131858272628
30
0
41
1
10
52.3048478985869
20
-3.96142165712308
30
0
41
1
10
52.347499178783
20
-3.99111497728455
30
0
41
1
10
52.4753633690102
20
-4.07871539684342
30
0
41
1
10
52.5606872955081
20
-4.13527756910585
30
0
41
1
10
52.6893088188297
20
-4.21709805427963
30
0
41
1
10
52.732287324027
20
-4.24386680053951
30
0
41
1
10
52.8185232146837
20
-4.29635114819649
30
0
41
1
10
52.8618323769414
20
-4.32209866342555
30
0
41
1
10
52.991808430793
20
-4.39741502449689
30
0
41
1
10
53.0785291516822
20
-4.44505442363769
30
0
41
1
10
53.1656039448557
20
-4.49005464467831
30
0
0
SPLINE
5
13E
100
AcDbEntity
8
1
62
256
6
ByLayer
370
18
48
1
60
0
100
AcDbSpline
70
4
71
3
72
8
73
4
40
0
40
0
40
0
40
0
40
1
40
1
40
1
40
1
41
1
10
52.1351041349554
20
-3.84048740886541
30
0
41
1
10
52.1340695371868
20
-3.83970545560328
30
0
41
1
10
52.1330348256208
20
-3.83892372587422
30
0
41
1
10
52.1319999999999
20
-3.83814222018887
30
0
0
SPLINE
5
13F
100
AcDbEntity
8
1
62
256
6
ByLayer
370
18
48
1
60
0
100
AcDbSpline
70
4
71
3
72
8
73
4
40
0
40
0
40
0
40
0
40
1
40
1
40
1
40
1
41
1
10
57.3277064756889
20
2.99127703266728
30
0
41
1
10
57.2398381726972
20
2.97977652789197
30
0
41
1
10
57.151704785212
20
2.97007322752165
30
0
41
1
10
57.0633354267769
20
2.9619697492503
30
0
0
SPLINE
5
140
100
AcDbEntity
8
1
62
256
6
ByLayer
370
18
48
1
60
0
100
AcDbSpline
70
4
71
3
72
8
73
4
40
0
40
0
40
0
40
0
40
1
40
1
40
1
40
1
41
1
10
56.8785655103187
20
3.29061825981822
30
0
41
1
10
57.0233916131318
20
3.18381217118431
30
0
41
1
10
57.1725588949103
20
3.08459907234499
30
0
41
1
10
57.3277064756948
20
2.99127703267237
30
0
0
SPLINE
5
141
100
AcDbEntity
8
1
62
256
6
ByLayer
370
18
48
1
60
0
100
AcDbSpline
70
4
71
1
72
4
73
2
40
0
40
0
40
1
40
1
41
1
10
52.1352042989775
20
-3.84028024229491
30
0
41
1
10
52.2352394314971
20
-3.67397769942465
30
0
0
SPLINE
5
142
100
AcDbEntity
8
1
62
256
6
ByLayer
370
18
48
1
60
0
100
AcDbSpline
70
4
71
3
72
8
73
4
40
0
40
0
40
0
40
0
40
1
40
1
40
1
40
1
41
1
10
59.7164995352547
20
-1.30089755610533
30
0
41
1
10
59.7220483332524
20
-1.31144873609395
30
0
41
1
10
59.7275890690154
20
-1.32199035042126
30
0
41
1
10
59.7331218513789
20
-1.33252252821768
30
0
0
SPLINE
5
143
100
AcDbEntity
8
1
62
256
6
ByLayer
370
18
48
1
60
0
100
AcDbSpline
70
4
71
3
72
8
73
4
40
0
40
0
40
0
40
0
40
1
40
1
40
1
40
1
41
1
10
59.6772730933514
20
-0.971115860648013
30
0
41
1
10
59.677579072677
20
-0.973905723892585
30
0
41
1
10
59.6778594962029
20
-0.976656704998987
30
0
41
1
10
59.6781137656227
20
-0.9793678936677
30
0
0
SPLINE
5
144
100
AcDbEntity
8
1
62
256
6
ByLayer
370
18
48
1
60
0
100
AcDbSpline
70
4
71
3
72
8
73
4
40
0
40
0
40
0
40
0
40
1
40
1
40
1
40
1
41
1
10
59.5909737069366
20
-0.625722081378996
30
0
41
1
10
59.6019511266134
20
-0.660260617962848
30
0
41
1
10
59.612207712487
20
-0.693736938246701
30
0
41
1
10
59.6216147827492
20
-0.725961417504919
30
0
0
SPLINE
5
145
100
AcDbEntity
8
1
62
256
6
ByLayer
370
18
48
1
60
0
100
AcDbSpline
70
4
71
3
72
10
73
6
40
0
40
0
40
0
40
0
40
0.5
40
0.5
40
1
40
1
40
1
40
1
41
1
10
50.5897708016358
20
-3.70455134428184
30
0
41
1
10
50.7975442246921
20
-3.68924530703433
30
0
41
1
10
51.0076839142444
20
-3.67795317517914
30
0
41
1
10
51.4321740305085
20
-3.66384943649916
30
0
41
1
10
51.6465174386218
20
-3.66104193501553
30
0
41
1
10
51.8625361941735
20
-3.66281573415532
30
0
0
SPLINE
5
146
100
AcDbEntity
8
1
62
256
6
ByLayer
370
18
48
1
60
0
100
AcDbSpline
70
4
71
3
72
8
73
4
40
0
40
0
40
0
40
0
40
1
40
1
40
1
40
1
41
1
10
52.132
20
-3.83814222018825
30
0
41
1
10
52.0414304366089
20
-3.77615278940655
30
0
41
1
10
51.9515579118883
20
-3.71746764935193
30
0
41
1
10
51.8625361941735
20
-3.66281573415532
30
0
0
SPLINE
5
147
100
AcDbEntity
8
1
62
256
6
ByLayer
370
18
48
1
60
0
100
AcDbSpline
70
4
71
3
72
8
73
4
40
0
40
0
40
0
40
0
40
1
40
1
40
1
40
1
41
1
10
52.1320000000001
20
3.78048624627007
30
0
41
1
10
51.9711578739921
20
3.82707191968768
30
0
41
1
10
51.8105295295257
20
3.87497899628502
30
0
41
1
10
51.6501147973124
20
3.92420642967534
30
0
0
SPLINE
5
148
100
AcDbEntity
8
1
62
256
6
ByLayer
370
18
48
1
60
0
100
AcDbSpline
70
4
71
3
72
8
73
4
40
0
40
0
40
0
40
0
40
1
40
1
40
1
40
1
41
1
10
57.4219671866629
20
-3.86967506255311
30
0
41
1
10
57.3851758403154
20
-3.97236706119571
30
0
41
1
10
57.3453561772811
20
-4.07513254731794
30
0
41
1
10
57.3017322521173
20
-4.17799035305708
30
0
0
SPLINE
5
149
100
AcDbEntity
8
1
62
256
6
ByLayer
370
18
48
1
60
0
100
AcDbSpline
70
4
71
3
72
8
73
4
40
0
40
0
40
0
40
0
40
1
40
1
40
1
40
1
41
1
10
52.3026380187305
20
-2.96138029457657
30
0
41
1
10
52.3784267040162
20
-3.04712543030365
30
0
41
1
10
52.4530806992349
20
-3.13338993774224
30
0
41
1
10
52.5266144984838
20
-3.22016718263652
30
0
0
SPLINE
5
14A
100
AcDbEntity
8
1
62
256
6
ByLayer
370
18
48
1
60
0
100
AcDbSpline
70
4
71
3
72
24
73
20
40
0
40
0
40
0
40
0
40
0.249999999999964
40
0.249999999999964
40
0.499999999999928
40
0.499999999999928
40
0.624999999999909
40
0.624999999999909
40
0.687499999999924
40
0.687499999999924
40
0.749999999999939
40
0.749999999999939
40
0.812499999999954
40
0.812499999999954
40
0.87499999999997
40
0.87499999999997
40
0.937499999999985
40
0.937499999999985
40
1
40
1
40
1
40
1
41
1
10
57.3039336901993
20
-3.72646542883214
30
0
41
1
10
57.3204667930475
20
-3.73118480611211
30
0
41
1
10
57.336412115055
20
-3.73680088767716
30
0
41
1
10
57.366557585324
20
-3.75069544585062
30
0
41
1
10
57.3808465011092
20
-3.75900315010287
30
0
41
1
10
57.399394027777
20
-3.77449232547028
30
0
41
1
10
57.4051093615501
20
-3.78017273626429
30
0
41
1
10
57.4126678610842
20
-3.78981681667503
30
0
41
1
10
57.4150165421782
20
-3.793220675784
30
0
41
1
10
57.4192812143332
20
-3.80050755736741
30
0
41
1
10
57.4212088285582
20
-3.80441951162536
30
0
41
1
10
57.424431472821
20
-3.81272048684531
30
0
41
1
10
57.4257248019074
20
-3.81709148413668
30
0
41
1
10
57.4275312830944
20
-3.8263744860817
30
0
41
1
10
57.4280434559546
20
-3.83133975444011
30
0
41
1
10
57.4280796568085
20
-3.84166056232652
30
0
41
1
10
57.4276131998208
20
-3.84699639979695
30
0
41
1
10
57.4256147009723
20
-3.85805386867511
30
0
41
1
10
57.4240631935303
20
-3.86382465233123
30
0
41
1
10
57.421967176707
20
-3.86967506283472
30
0
0
SPLINE
5
14B
100
AcDbEntity
8
1
62
256
6
ByLayer
370
18
48
1
60
0
100
AcDbSpline
70
4
71
3
72
8
73
4
40
0
40
0
40
0
40
0
40
1
40
1
40
1
40
1
41
1
10
59.7574185424803
20
-1.17815830197978
30
0
41
1
10
59.7418798802149
20
-1.21467115277306
30
0
41
1
10
59.7260821025312
20
-1.25097852661639
30
0
41
1
10
59.7100299437102
20
-1.28708417776585
30
0
0
SPLINE
5
14C
100
AcDbEntity
8
1
62
256
6
ByLayer
370
18
48
1
60
0
100
AcDbSpline
70
4
71
3
72
8
73
4
40
0
40
0
40
0
40
0
40
1
40
1
40
1
40
1
41
1
10
59.4518333779349
20
-1.81150909866164
30
0
41
1
10
59.427067496118
20
-1.85717891800212
30
0
41
1
10
59.4018938767936
20
-1.90244182368372
30
0
41
1
10
59.376315563874
20
-1.94730085346876
30
0
0
SPLINE
5
14D
100
AcDbEntity
8
1
62
256
6
ByLayer
370
18
48
1
60
0
100
AcDbSpline
70
4
71
3
72
30
73
26
40
0
40
0
40
0
40
0
40
0.124999999999997
40
0.124999999999997
40
0.156250000000001
40
0.156250000000001
40
0.187500000000004
40
0.250000000000005
40
0.250000000000005
40
0.375000000000013
40
0.375000000000013
40
0.437500000000013
40
0.437500000000013
40
0.500000000000013
40
0.500000000000013
40
0.625000000000005
40
0.625000000000005
40
0.749999999999996
40
0.749999999999996
40
0.781249999999997
40
0.781249999999997
40
0.812499999999997
40
0.874999999999998
40
0.874999999999998
40
1
40
1
40
1
40
1
41
1
10
59.3763155638746
20
-1.94730085346754
30
0
41
1
10
59.3286500093896
20
-2.06240806830053
30
0
41
1
10
59.2746914615365
20
-2.1775990033556
30
0
41
1
10
59.1990164701809
20
-2.32169711930237
30
0
41
1
10
59.1834544692655
20
-2.35055267990387
30
0
41
1
10
59.1515615725208
20
-2.4081417563734
30
0
41
1
10
59.1027472433594
20
-2.49402330772486
30
0
41
1
10
59.0510265481372
20
-2.57840823982645
30
0
41
1
10
58.9437510209976
20
-2.74520373374557
30
0
41
1
10
58.8671524830363
20
-2.85378402543122
30
0
41
1
10
58.7443028920934
20
-3.0125597299639
30
0
41
1
10
58.7020264917863
20
-3.06480187112393
30
0
41
1
10
58.6147501097062
20
-3.16788365824363
30
0
41
1
10
58.5695980994945
20
-3.21888496227618
30
0
41
1
10
58.4321922684272
20
-3.36724718430898
30
0
41
1
10
58.3374057199462
20
-3.46063097071578
30
0
41
1
10
58.1417276168203
20
-3.63680166858026
30
0
41
1
10
58.0408167551562
20
-3.7195550675298
30
0
41
1
10
57.9107568896614
20
-3.81619036887614
30
0
41
1
10
57.8844990457915
20
-3.83520939093177
30
0
41
1
10
57.8319716069013
20
-3.87228266770438
30
0
41
1
10
57.7530753520112
20
-3.9265161560501
30
0
41
1
10
57.6738698560477
20
-3.97669958106957
30
0
41
1
10
57.5150625031794
20
-4.07187537771188
30
0
41
1
10
57.4086645981424
20
-4.1284325942367
30
0
41
1
10
57.3017322521266
20
-4.17799035305686
30
0
0
SPLINE
5
14E
100
AcDbEntity
8
1
62
256
6
ByLayer
370
18
48
1
60
0
100
AcDbSpline
70
4
71
3
72
63
73
59
40
0
40
0
40
0
40
0
40
0.0312499999999221
40
0.0468749999998801
40
0.0468749999998801
40
0.0624999999998381
40
0.0624999999998381
40
0.124999999999676
40
0.124999999999676
40
0.187499999999514
40
0.187499999999514
40
0.203124999999473
40
0.203124999999473
40
0.218749999999433
40
0.218749999999433
40
0.249999999999352
40
0.249999999999352
40
0.312499999999196
40
0.312499999999196
40
0.328124999999158
40
0.328124999999158
40
0.335937499999141
40
0.335937499999141
40
0.339843749999137
40
0.339843749999137
40
0.340820312499135
40
0.340820312499135
40
0.341796874999134
40
0.341796874999134
40
0.343749999999138
40
0.343749999999138
40
0.374999999999179
40
0.374999999999179
40
0.437499999999262
40
0.437499999999262
40
0.453124999999281
40
0.453124999999281
40
0.4687499999993
40
0.4687499999993
40
0.499999999999338
40
0.499999999999338
40
0.624999999999497
40
0.624999999999497
40
0.687499999999576
40
0.687499999999576
40
0.703124999999596
40
0.703124999999596
40
0.718749999999616
40
0.749999999999655
40
0.81249999999974
40
0.81249999999974
40
0.874999999999825
40
0.874999999999825
40
0.93749999999991
40
0.93749999999991
40
0.968749999999955
40
0.968749999999955
40
1
40
1
40
1
40
1
41
1
10
57.3017322521264
20
-4.1779903530558
30
0
41
1
10
57.2499969485815
20
-4.20722304132903
30
0
41
1
10
57.1715125663976
20
-4.24931210835371
30
0
41
1
10
57.0916829300684
20
-4.28874193240199
30
0
41
1
10
57.038161587543
20
-4.31443526411601
30
0
41
1
10
57.0112103975301
20
-4.32700352814064
30
0
41
1
10
56.8765034405149
20
-4.38798026660766
30
0
41
1
10
56.7684702507792
20
-4.43101285320691
30
0
41
1
10
56.5514699290353
20
-4.50594282077634
30
0
41
1
10
56.4425046378519
20
-4.53784591748237
30
0
41
1
10
56.3054715886112
20
-4.5708322312413
30
0
41
1
10
56.2780235463021
20
-4.57708368297307
30
0
41
1
10
56.2230379530079
20
-4.58889174957864
30
0
41
1
10
56.1955498352826
20
-4.59443686279405
30
0
41
1
10
56.1133892438297
20
-4.60995085733384
30
0
41
1
10
56.0588974447961
20
-4.6188267058738
30
0
41
1
10
55.8961409578113
20
-4.64119171135377
30
0
41
1
10
55.7885946526848
20
-4.65040663524746
30
0
41
1
10
55.6549991726998
20
-4.65511033868736
30
0
41
1
10
55.6283216527412
20
-4.65571417814195
30
0
41
1
10
55.5883598051558
20
-4.65613604692388
30
0
41
1
10
55.5750479969107
20
-4.65619845748171
30
0
41
1
10
55.5550963252605
20
-4.65614405376482
30
0
41
1
10
55.548447925081
20
-4.65610570891459
30
0
41
1
10
55.540139157963
20
-4.6560404741667
30
0
41
1
10
55.5384832111343
20
-4.65597606915074
30
0
41
1
10
55.5351437161654
20
-4.65609069474789
30
0
41
1
10
55.5334750630501
20
-4.65613840459065
30
0
41
1
10
55.5284719072107
20
-4.65625678625233
30
0
41
1
10
55.5251374150354
20
-4.65632740707525
30
0
41
1
10
55.4684543547776
20
-4.65749894259898
30
0
41
1
10
55.4152454353272
20
-4.65736790334932
30
0
41
1
10
55.2559778758155
20
-4.65309088627416
30
0
41
1
10
55.1502666019891
20
-4.64516162068219
30
0
41
1
10
55.0184527552144
20
-4.62891716818356
30
0
41
1
10
54.9920794250436
20
-4.6253548903961
30
0
41
1
10
54.9394919631266
20
-4.61763577538392
30
0
41
1
10
54.9132968044516
20
-4.6134781306655
30
0
41
1
10
54.8350048490479
20
-4.60009248415011
30
0
41
1
10
54.7831999412199
20
-4.5899556208164
30
0
41
1
10
54.5259354583876
20
-4.53339400021054
30
0
41
1
10
54.3256944102767
20
-4.46946027853261
30
0
41
1
10
54.0312164091989
20
-4.34681521480326
30
0
41
1
10
53.9340454122897
20
-4.30146547035292
30
0
41
1
10
53.8136441658374
20
-4.23912267905598
30
0
41
1
10
53.7896103839824
20
-4.22636625033584
30
0
41
1
10
53.741842864866
20
-4.20039586599364
30
0
41
1
10
53.6705682222103
20
-4.16071525302795
30
0
41
1
10
53.5067941843281
20
-4.06315864483852
30
0
41
1
10
53.370510215373
20
-3.9712420673543
30
0
41
1
10
53.1922605763195
20
-3.8413187528146
30
0
41
1
10
53.1048811041162
20
-3.77265195811779
30
0
41
1
10
52.9335723224191
20
-3.62771237829637
30
0
41
1
10
52.8496378866313
20
-3.55144733981203
30
0
41
1
10
52.7262483141211
20
-3.43127092526828
30
0
41
1
10
52.6854888728404
20
-3.39018339269921
30
0
41
1
10
52.6051631016614
20
-3.30640458994029
30
0
41
1
10
52.5655927819799
20
-3.26369690390152
30
0
41
1
10
52.5266144984838
20
-3.22016718263652
30
0
0
SPLINE
5
14F
100
AcDbEntity
8
1
62
256
6
ByLayer
370
18
48
1
60
0
100
AcDbSpline
70
4
71
1
72
4
73
2
40
0
40
0
40
1
40
1
41
1
10
52.2352394314971
20
-3.67397769942465
30
0
41
1
10
52.5266144984838
20
-3.22016718263652
30
0
0
SPLINE
5
150
100
AcDbEntity
8
1
62
256
6
ByLayer
370
18
48
1
60
0
100
AcDbSpline
70
4
71
3
72
31
73
27
40
0
40
0
40
0
40
0
40
0.0407486167512603
40
0.0963336199560377
40
0.167163689042291
40
0.238734417748031
40
0.31747578986264
40
0.381894872726686
40
0.474929243816639
40
0.553458684049708
40
0.652997780183807
40
0.681347954495535
40
0.699133749931356
40
0.756872500414212
40
0.809958215735229
40
0.816357083946423
40
0.818025005725122
40
0.818444320732578
40
0.818972359088045
40
0.819434473180866
40
0.821352227066886
40
0.82625135305885
40
0.829700259991805
40
0.866021257564668
40
0.957712610560775
40
1
40
1
40
1
40
1
41
1
10
52.2352394314971
20
-3.67397769942465
30
0
41
1
10
52.2911134867238
20
-3.71434958123933
30
0
41
1
10
52.422105754789
20
-3.80842226456443
30
0
41
1
10
52.6459160280141
20
-3.96447758159997
30
0
41
1
10
52.9079844511103
20
-4.13635061956265
30
0
41
1
10
53.1989790712883
20
-4.31067368468996
30
0
41
1
10
53.484637572149
20
-4.46061201240505
30
0
41
1
10
53.8025513998028
20
-4.60244566890159
30
0
41
1
10
54.1237399115044
20
-4.71829802065287
30
0
41
1
10
54.4965578216797
20
-4.81752876193042
30
0
41
1
10
54.7831586421745
20
-4.86542246992875
30
0
41
1
10
54.9862305323246
20
-4.88463207586142
30
0
41
1
10
55.1313143672957
20
-4.89454505519001
30
0
41
1
10
55.3112899505466
20
-4.89908713007702
30
0
41
1
10
55.4748054587532
20
-4.89282737965485
30
0
41
1
10
55.5598684176892
20
-4.88666383418496
30
0
41
1
10
55.5716801952777
20
-4.88575481634038
30
0
41
1
10
55.5752851108762
20
-4.8854743771179
30
0
41
1
10
55.5773635837039
20
-4.88530356568828
30
0
41
1
10
55.5815345282186
20
-4.88496927571694
30
0
41
1
10
55.5920386673289
20
-4.88410317046001
30
0
41
1
10
55.6067935802968
20
-4.882838934012
30
0
41
1
10
55.6710534069356
20
-4.87699718946865
30
0
41
1
10
55.8590980719231
20
-4.85574657786299
30
0
41
1
10
56.101094061936
20
-4.81052470648152
30
0
41
1
10
56.2895597728508
20
-4.76093036887482
30
0
41
1
10
56.3488174400647
20
-4.7439091693501
30
0
0
SPLINE
5
151
100
AcDbEntity
8
1
62
256
6
ByLayer
370
18
48
1
60
0
100
AcDbSpline
70
4
71
3
72
8
73
4
40
0
40
0
40
0
40
0
40
1
40
1
40
1
40
1
41
1
10
59.7811263749922
20
-1.1919569986492
30
0
41
1
10
59.7732169988885
20
-1.18734609654797
30
0
41
1
10
59.7653155506381
20
-1.18274847337841
30
0
41
1
10
59.7574185424803
20
-1.17815830197978
30
0
0
SPLINE
5
152
100
AcDbEntity
8
1
62
256
6
ByLayer
370
18
48
1
60
0
100
AcDbSpline
70
4
71
3
72
12
73
8
40
0
40
0
40
0
40
0
40
0.5
40
0.5
40
0.75
40
0.75
40
1
40
1
40
1
40
1
41
1
10
52.132
20
3.15188136376736
30
0
41
1
10
52.086747704787
20
3.12519136645821
30
0
41
1
10
52.0416524694058
20
3.09727385850655
30
0
41
1
10
51.9742670041376
20
3.05338596661628
30
0
41
1
10
51.9518481602967
20
3.03842077281934
30
0
41
1
10
51.9071012122759
20
3.00778120390589
30
0
41
1
10
51.8847501528469
20
2.99208982105114
30
0
41
1
10
51.8625361941736
20
2.97608641429866
30
0
0
SPLINE
5
153
100
AcDbEntity
8
1
62
256
6
ByLayer
370
18
48
1
60
0
100
AcDbSpline
70
4
71
3
72
10
73
6
40
0
40
0
40
0
40
0
40
0.5
40
0.5
40
1
40
1
40
1
40
1
41
1
10
50.5897708015995
20
3.36559536843842
30
0
41
1
10
50.7975442246616
20
3.28821119502356
30
0
41
1
10
51.0076839142198
20
3.21742475810333
30
0
41
1
10
51.432174030496
20
3.08804423875043
30
0
41
1
10
51.6465174386155
20
3.02943599352048
30
0
41
1
10
51.8625361941735
20
2.97608641429866
30
0
0
SPLINE
5
154
100
AcDbEntity
8
1
62
256
6
ByLayer
370
18
48
1
60
0
100
AcDbSpline
70
4
71
3
72
8
73
4
40
0
40
0
40
0
40
0
40
1
40
1
40
1
40
1
41
1
10
52.3026380187305
20
-2.96138029457654
30
0
41
1
10
52.2457031380678
20
-2.96102853094311
30
0
41
1
10
52.1888215998187
20
-2.96091757580919
30
0
41
1
10
52.132
20
-2.96103650329567
30
0
0
SPLINE
5
155
100
AcDbEntity
8
1
62
256
6
ByLayer
370
18
48
1
60
0
100
AcDbSpline
70
4
71
3
72
10
73
6
40
0
40
0
40
0
40
0
40
0.5
40
0.5
40
1
40
1
40
1
40
1
41
1
10
57.1509238161545
20
-3.65328887356588
30
0
41
1
10
57.1727289830813
20
-3.67054690443675
30
0
41
1
10
57.1969811818772
20
-3.68471441429429
30
0
41
1
10
57.2484641973905
20
-3.70865676557
30
0
41
1
10
57.2756916998884
20
-3.71840377140941
30
0
41
1
10
57.3039336909192
20
-3.72646542904553
30
0
0
SPLINE
5
156
100
AcDbEntity
8
1
62
256
6
ByLayer
370
18
48
1
60
0
100
AcDbSpline
70
4
71
3
72
10
73
6
40
0
40
0
40
0
40
0
40
0.5
40
0.5
40
1
40
1
40
1
40
1
41
1
10
57.2911427855195
20
-2.99641936030204
30
0
41
1
10
57.2588026187759
20
-3.10810667835111
30
0
41
1
10
57.2302498457446
20
-3.21910103477649
30
0
41
1
10
57.182734770989
20
-3.43865480486096
30
0
41
1
10
57.1638230774227
20
-3.54694823379887
30
0
41
1
10
57.1509238157416
20
-3.6532888736549
30
0
0
SPLINE
5
157
100
AcDbEntity
8
1
62
256
6
ByLayer
370
18
48
1
60
0
100
AcDbSpline
70
4
71
3
72
12
73
8
40
0
40
0
40
0
40
0
40
0.0202082796818038
40
0.216166623745443
40
0.412124967809082
40
0.608083311872722
40
1
40
1
40
1
40
1
41
1
10
57.150923816179
20
-3.65328887360954
30
0
41
1
10
57.1171158774527
20
-3.64946492281689
30
0
41
1
10
56.7554746053929
20
-3.60766977970746
30
0
41
1
10
56.066
20
-3.50987817010741
30
0
41
1
10
55.0824999999999
20
-3.32542016188182
30
0
41
1
10
53.7711666666666
20
-3.02264100419322
30
0
41
1
10
52.7876666666666
20
-2.73559693022583
30
0
41
1
10
52.132
20
-2.52104117520045
30
0
0
SPLINE
5
158
100
AcDbEntity
8
1
62
256
6
ByLayer
370
18
48
1
60
0
100
AcDbSpline
70
4
71
3
72
10
73
6
40
0
40
0
40
0
40
0
40
0.0824565097660666
40
0.882031800955996
40
1
40
1
40
1
40
1
41
1
10
57.150923816179
20
2.67374669390045
30
0
41
1
10
57.1171158774527
20
2.68418032163143
30
0
41
1
10
56.7554746053929
20
2.79513860756427
30
0
41
1
10
56.3454652705054
20
2.91296663123481
30
0
41
1
10
55.9692638743441
20
3.0126624778209
30
0
41
1
10
55.9208958115162
20
3.02533946242178
30
0
0
SPLINE
5
159
100
AcDbEntity
8
1
62
256
6
ByLayer
370
18
48
1
60
0
100
AcDbSpline
70
4
71
3
72
18
73
14
40
0
40
0
40
0
40
0
40
0.249999999999999
40
0.249999999999999
40
0.375
40
0.375
40
0.500000000000001
40
0.500000000000001
40
0.625000000000002
40
0.625000000000002
40
0.750000000000003
40
0.750000000000003
40
1
40
1
40
1
40
1
41
1
10
57.2555640200167
20
-2.86532231011046
30
0
41
1
10
57.2631002309298
20
-2.87262341127439
30
0
41
1
10
57.2699585335311
20
-2.88058152756915
30
0
41
1
10
57.2788938592714
20
-2.89382915782863
30
0
41
1
10
57.2816452082974
20
-2.89846512847831
30
0
41
1
10
57.2866034198025
20
-2.90826477529953
30
0
41
1
10
57.2888189580135
20
-2.91345458816002
30
0
41
1
10
57.2925269935586
20
-2.92433629812061
30
0
41
1
10
57.2940214934373
20
-2.93002041206248
30
0
41
1
10
57.2961610051892
20
-2.9419634251615
30
0
41
1
10
57.2968064041163
20
-2.94827108768735
30
0
41
1
10
57.2971870639774
20
-2.96785902642151
30
0
41
1
10
57.2954124744196
20
-2.9816739996489
30
0
41
1
10
57.2911427841293
20
-2.99641936042681
30
0
0
SPLINE
5
15A
100
AcDbEntity
8
1
62
256
6
ByLayer
370
18
48
1
60
0
100
AcDbSpline
70
4
71
3
72
8
73
4
40
0
40
0
40
0
40
0
40
1
40
1
40
1
40
1
41
1
10
57.2065201308686
20
0.319591264403613
30
0
41
1
10
57.2755631285102
20
0.297992393232136
30
0
41
1
10
57.3464789325536
20
0.276614484649826
30
0
41
1
10
57.419385796665
20
0.255471490785396
30
0
0
SPLINE
5
15B
100
AcDbEntity
8
1
62
256
6
ByLayer
370
18
48
1
60
0
100
AcDbSpline
70
4
71
3
72
8
73
4
40
0
40
0
40
0
40
0
40
1
40
1
40
1
40
1
41
1
10
59.1114939922973
20
-0.52819168200125
30
0
41
1
10
59.0857276704209
20
-0.469682707308891
30
0
41
1
10
59.0598406834031
20
-0.411007435105574
30
0
41
1
10
59.0338231076002
20
-0.352152188887857
30
0
0
SPLINE
5
15C
100
AcDbEntity
8
1
62
256
6
ByLayer
370
18
48
1
60
0
100
AcDbSpline
70
4
71
3
72
10
73
6
40
0
40
0
40
0
40
0
40
0.5
40
0.5
40
1
40
1
40
1
40
1
41
1
10
57.0633354267768
20
2.9619697492503
30
0
41
1
10
57.0973660907888
20
2.92733438494318
30
0
41
1
10
57.1305354854767
20
2.8931874517784
30
0
41
1
10
57.1947689962764
20
2.82608750190118
30
0
41
1
10
57.2258369280216
20
2.79313232131989
30
0
41
1
10
57.2555640120758
20
2.76093754372789
30
0
0
SPLINE
5
15D
100
AcDbEntity
8
1
62
256
6
ByLayer
370
18
48
1
60
0
100
AcDbSpline
70
4
71
3
72
18
73
14
40
0
40
0
40
0
40
0
40
0.249999999999999
40
0.249999999999999
40
0.375
40
0.375
40
0.500000000000001
40
0.500000000000001
40
0.625000000000002
40
0.625000000000002
40
0.750000000000003
40
0.750000000000003
40
1
40
1
40
1
40
1
41
1
10
57.2555640200167
20
2.76093753532442
30
0
41
1
10
57.2631002309297
20
2.75277573670226
30
0
41
1
10
57.2699585335311
20
2.74505190726933
30
0
41
1
10
57.2788938592715
20
2.7343397188942
30
0
41
1
10
57.2816452082972
20
2.73091570501072
30
0
41
1
10
57.2866034198024
20
2.72441944811177
30
0
41
1
10
57.2888189580134
20
2.72133381128322
30
0
41
1
10
57.2925269935586
20
2.71567445936032
30
0
41
1
10
57.2940214934373
20
2.71310076775549
30
0
41
1
10
57.2961610051892
20
2.70855823800142
30
0
41
1
10
57.2968064041163
20
2.70657807068417
30
0
41
1
10
57.2971870639773
20
2.70183252702583
30
0
41
1
10
57.2954124744197
20
2.70025197751013
30
0
41
1
10
57.2911427841294
20
2.70061886524189
30
0
0
SPLINE
5
15E
100
AcDbEntity
8
1
62
256
6
ByLayer
370
18
48
1
60
0
100
AcDbSpline
70
4
71
3
72
10
73
6
40
0
40
0
40
0
40
0
40
0.5
40
0.5
40
1
40
1
40
1
40
1
41
1
10
57.2911427855195
20
2.70061886460118
30
0
41
1
10
57.2588026187758
20
2.70339765446181
30
0
41
1
10
57.2302498457445
20
2.70305818689573
30
0
41
1
10
57.182734770989
20
2.69463654259599
30
0
41
1
10
57.1638230774227
20
2.68657058140661
30
0
41
1
10
57.1509238157416
20
2.67374669402068
30
0
0
SPLINE
5
15F
100
AcDbEntity
8
1
62
256
6
ByLayer
370
18
48
1
60
0
100
AcDbSpline
70
4
71
3
72
10
73
6
40
0
40
0
40
0
40
0
40
0.5
40
0.5
40
1
40
1
40
1
40
1
41
1
10
57.1509238161545
20
2.67374669381812
30
0
41
1
10
57.1727289830813
20
2.65100331235726
30
0
41
1
10
57.1969811818773
20
2.62684109158047
30
0
41
1
10
57.2484641973905
20
2.57693180481806
30
0
41
1
10
57.2756916998884
20
2.5511938801053
30
0
41
1
10
57.3039336909191
20
2.52495884142172
30
0
0
SPLINE
5
160
100
AcDbEntity
8
1
62
256
6
ByLayer
370
18
48
1
60
0
100
AcDbSpline
70
4
71
3
72
24
73
20
40
0
40
0
40
0
40
0
40
0.249999999999964
40
0.249999999999964
40
0.499999999999928
40
0.499999999999928
40
0.62499999999991
40
0.62499999999991
40
0.687499999999925
40
0.687499999999925
40
0.74999999999994
40
0.74999999999994
40
0.812499999999955
40
0.812499999999955
40
0.87499999999997
40
0.87499999999997
40
0.937499999999985
40
0.937499999999985
40
1
40
1
40
1
40
1
41
1
10
57.3039336901993
20
2.52495884210063
30
0
41
1
10
57.3204667930474
20
2.50960062314258
30
0
41
1
10
57.3364121150549
20
2.49454840928175
30
0
41
1
10
57.3665575853239
20
2.46535253801591
30
0
41
1
10
57.3808465011092
20
2.45112554429551
30
0
41
1
10
57.399394027777
20
2.4315974650996
30
0
41
1
10
57.4051093615501
20
2.42537536877177
30
0
41
1
10
57.4126678610842
20
2.41666603542561
30
0
41
1
10
57.4150165421781
20
2.41386795981663
30
0
41
1
10
57.4192812143331
20
2.40853786731671
30
0
41
1
10
57.4212088285582
20
2.40598927813136
30
0
41
1
10
57.424431472821
20
2.40133145526943
30
0
41
1
10
57.4257248019074
20
2.39922775594056
30
0
41
1
10
57.4275312830943
20
2.39557290175412
30
0
41
1
10
57.4280434559547
20
2.39401058431898
30
0
41
1
10
57.4280796568084
20
2.39165228438733
30
0
41
1
10
57.4276131998207
20
2.39085251757956
30
0
41
1
10
57.4256147009721
20
2.39008728128775
30
0
41
1
10
57.4240631935301
20
2.39012755910548
30
0
41
1
10
57.4219671767068
20
2.39062065446967
30
0
0
SPLINE
5
161
100
AcDbEntity
8
1
62
256
6
ByLayer
370
18
48
1
60
0
100
AcDbSpline
70
4
71
3
72
16
73
12
40
0
40
0
40
0
40
0
40
0.250000000000009
40
0.250000000000009
40
0.500000000000018
40
0.500000000000018
40
0.625000000000013
40
0.625000000000013
40
0.750000000000009
40
0.750000000000009
40
1
40
1
40
1
40
1
41
1
10
57.6286834933412
20
2.54907360241708
30
0
41
1
10
57.7455877316405
20
2.4521492318996
30
0
41
1
10
57.8641119071016
20
2.35532967871734
30
0
41
1
10
58.1041838780056
20
2.16188621437951
30
0
41
1
10
58.2257319187379
20
2.06526231909527
30
0
41
1
10
58.4101989326846
20
1.92046526441766
30
0
41
1
10
58.4720458123207
20
1.87222273567178
30
0
41
1
10
58.596439212647
20
1.77578294815265
30
0
41
1
10
58.6590812856598
20
1.72751534131603
30
0
41
1
10
58.8467495760516
20
1.58373034401416
30
0
41
1
10
58.9718348536196
20
1.48897696216841
30
0
41
1
10
59.0968987407566
20
1.39510037018383
30
0
0
SPLINE
5
162
100
AcDbEntity
8
1
62
256
6
ByLayer
370
18
48
1
60
0
100
AcDbSpline
70
4
71
3
72
8
73
4
40
0
40
0
40
0
40
0
40
1
40
1
40
1
40
1
41
1
10
52.1320000000001
20
-2.9610365032957
30
0
41
1
10
51.9711612347195
20
-2.96437219106627
30
0
41
1
10
51.810532880577
20
-2.97024351945117
30
0
41
1
10
51.6501147973097
20
-2.97864879815853
30
0
0
SPLINE
5
163
100
AcDbEntity
8
1
62
256
6
ByLayer
370
18
48
1
60
0
100
AcDbSpline
70
4
71
3
72
12
73
8
40
0
40
0
40
0
40
0
40
0.0252030394684027
40
0.220162431574722
40
0.415121823681042
40
0.610081215787361
40
1
40
1
40
1
40
1
41
1
10
57.1766402677726
20
-0.960345652331227
30
0
41
1
10
57.134260178515
20
-0.94241167990873
30
0
41
1
10
56.7640467559242
20
-0.785444846574762
30
0
41
1
10
56.066
20
-0.484752401135609
30
0
41
1
10
55.0824999999999
20
-0.0548868020313478
30
0
41
1
10
53.7711666666666
20
0.519046008814143
30
0
41
1
10
52.7876666666666
20
0.942246188493272
30
0
41
1
10
52.132
20
1.21478301663129
30
0
0
SPLINE
5
164
100
AcDbEntity
8
1
62
256
6
ByLayer
370
18
48
1
60
0
100
AcDbSpline
70
4
71
3
72
8
73
4
40
0
40
0
40
0
40
0
40
1
40
1
40
1
40
1
41
1
10
57.4219671866629
20
2.39062064886215
30
0
41
1
10
57.385175840316
20
2.3992759777702
30
0
41
1
10
57.3453561772823
20
2.41053295039194
30
0
41
1
10
57.3017322521193
20
2.42505819184902
30
0
0
SPLINE
5
165
100
AcDbEntity
8
1
62
256
6
ByLayer
370
18
48
1
60
0
100
AcDbSpline
70
4
71
3
72
8
73
4
40
0
40
0
40
0
40
0
40
1
40
1
40
1
40
1
41
1
10
52.3026380187299
20
3.72838614117561
30
0
41
1
10
52.2457031380674
20
3.74549710745003
30
0
41
1
10
52.1888215998186
20
3.76286026504266
30
0
41
1
10
52.1320000000001
20
3.78048624627007
30
0
0
SPLINE
5
166
100
AcDbEntity
8
1
62
256
6
ByLayer
370
18
48
1
60
0
100
AcDbSpline
70
4
71
3
72
8
73
4
40
0
40
0
40
0
40
0
40
1
40
1
40
1
40
1
41
1
10
52.3026380187299
20
3.72838614117561
30
0
41
1
10
52.3784319067055
20
3.75058791515903
30
0
41
1
10
52.4530857248585
20
3.77171003176846
30
0
41
1
10
52.5266144984832
20
3.79176672010576
30
0
0
SPLINE
5
167
100
AcDbEntity
8
1
62
256
6
ByLayer
370
18
48
1
60
0
100
AcDbSpline
70
4
71
3
72
22
73
18
40
0
40
0
40
0
40
0
40
0.249999999999999
40
0.249999999999999
40
0.374999999999999
40
0.374999999999999
40
0.499999999999999
40
0.499999999999999
40
0.624999999999999
40
0.624999999999999
40
0.687499999999998
40
0.687499999999998
40
0.749999999999998
40
0.749999999999998
40
0.874999999999999
40
0.874999999999999
40
1
40
1
40
1
40
1
41
1
10
57.3276552997543
20
-0.188056606192873
30
0
41
1
10
57.3372491542239
20
-0.205824139715105
30
0
41
1
10
57.3460367135231
20
-0.22389748308791
30
0
41
1
10
57.3575439952145
20
-0.251642430859249
30
0
41
1
10
57.3610981504049
20
-0.260997553445151
30
0
41
1
10
57.3675090422369
20
-0.279972313975264
30
0
41
1
10
57.3703803779893
20
-0.289652239821237
30
0
41
1
10
57.3751357197605
20
-0.308992629040546
30
0
41
1
10
57.3770253308112
20
-0.318648034673828
30
0
41
1
10
57.3789635806742
20
-0.333103987870601
30
0
41
1
10
57.3794596494089
20
-0.337918093260583
30
0
41
1
10
57.3801135942222
20
-0.347536056274123
30
0
41
1
10
57.3802693856429
20
-0.352345237583108
30
0
41
1
10
57.3801711832179
20
-0.366479062283247
30
0
41
1
10
57.3793626739873
20
-0.375599565164322
30
0
41
1
10
57.3760683925838
20
-0.393158761792932
30
0
41
1
10
57.373558795194
20
-0.401599695131694
30
0
41
1
10
57.3702320655212
20
-0.409376932858635
30
0
0
SPLINE
5
168
100
AcDbEntity
8
1
62
256
6
ByLayer
370
18
48
1
60
0
100
AcDbSpline
70
4
71
3
72
10
73
6
40
0
40
0
40
0
40
0
40
0.5
40
0.5
40
1
40
1
40
1
40
1
41
1
10
57.3702320675375
20
-0.409376933851178
30
0
41
1
10
57.3326372379366
20
-0.497267633458051
30
0
41
1
10
57.2972940632636
20
-0.586954594833287
30
0
41
1
10
57.2322902854752
20
-0.770485224195312
30
0
41
1
10
57.2026634118364
20
-0.86421634169136
30
0
41
1
10
57.1766402677706
20
-0.960345652330375
30
0
0
SPLINE
5
169
100
AcDbEntity
8
1
62
256
6
ByLayer
370
18
48
1
60
0
100
AcDbSpline
70
4
71
3
72
10
73
6
40
0
40
0
40
0
40
0
40
0.5
40
0.5
40
1
40
1
40
1
40
1
41
1
10
57.1766402682458
20
-0.960345652590803
30
0
41
1
10
57.1957283090095
20
-0.991876878035214
30
0
41
1
10
57.2161441709345
20
-1.02238933304517
30
0
41
1
10
57.2588014259182
20
-1.08165162268435
30
0
41
1
10
57.2810310150581
20
-1.11037632973537
30
0
41
1
10
57.3039336907807
20
-1.13833329380054
30
0
0
SPLINE
5
16A
100
AcDbEntity
8
1
62
256
6
ByLayer
370
18
48
1
60
0
100
AcDbSpline
70
4
71
3
72
24
73
20
40
0
40
0
40
0
40
0
40
0.25
40
0.25
40
0.5
40
0.5
40
0.625
40
0.625
40
0.6875
40
0.6875
40
0.75
40
0.75
40
0.8125
40
0.8125
40
0.875
40
0.875
40
0.9375
40
0.9375
40
1
40
1
40
1
40
1
41
1
10
57.3039336901994
20
-1.13833329307292
30
0
41
1
10
57.3204667929944
20
-1.15851502991205
30
0
41
1
10
57.3364121155108
20
-1.17927525803674
30
0
41
1
10
57.366557585652
20
-1.22251330283626
30
0
41
1
10
57.3808465013722
20
-1.2451042122627
30
0
41
1
10
57.3993940279491
20
-1.28015683003795
30
0
41
1
10
57.4051093616934
20
-1.29206298242264
30
0
41
1
10
57.4126678611873
20
-1.31040418216125
30
0
41
1
10
57.4150165422683
20
-1.31659906831081
30
0
41
1
10
57.4192812143991
20
-1.32919440382915
30
0
41
1
10
57.4212088286125
20
-1.33564022580961
30
0
41
1
10
57.4244314728535
20
-1.34856034120665
30
0
41
1
10
57.4257248019304
20
-1.35501120604047
30
0
41
1
10
57.4275312831026
20
-1.36789038156238
30
0
41
1
10
57.4280434559574
20
-1.37438268450271
30
0
41
1
10
57.4280796568061
20
-1.38697962975175
30
0
41
1
10
57.4276131998188
20
-1.39306859339226
30
0
41
1
10
57.4256147009781
20
-1.40478579177454
30
0
41
1
10
57.4240631935237
20
-1.41045687174002
30
0
41
1
10
57.4219671767072
20
-1.41574945279081
30
0
0
SPLINE
5
16B
100
AcDbEntity
8
1
62
256
6
ByLayer
370
18
48
1
60
0
100
AcDbSpline
70
4
71
3
72
16
73
12
40
0
40
0
40
0
40
0
40
0.249999999999996
40
0.249999999999996
40
0.499999999999993
40
0.499999999999993
40
0.624999999999991
40
0.624999999999991
40
0.749999999999989
40
0.749999999999989
40
1
40
1
40
1
40
1
41
1
10
57.4193857966649
20
0.25547149078551
30
0
41
1
10
57.5522564392371
20
0.154731915810544
30
0
41
1
10
57.6876700479512
20
0.0636284536055598
30
0
41
1
10
57.9632098797652
20
-0.100720866287418
30
0
41
1
10
58.1033365937043
20
-0.173964864028449
30
0
41
1
10
58.3168574282113
20
-0.271209531117307
30
0
41
1
10
58.388586905385
20
-0.301518067173419
30
0
41
1
10
58.5331320723009
20
-0.358019132143994
30
0
41
1
10
58.6054746636521
20
-0.384011660071508
30
0
41
1
10
58.8223705591113
20
-0.455653987255033
30
0
41
1
10
58.9669421364425
20
-0.49511090673002
30
0
41
1
10
59.1114939922973
20
-0.52819168200125
30
0
0
SPLINE
5
16C
100
AcDbEntity
8
1
62
256
6
ByLayer
370
18
48
1
60
0
100
AcDbSpline
70
4
71
3
72
12
73
8
40
0
40
0
40
0
40
0
40
0.5
40
0.5
40
0.75
40
0.75
40
1
40
1
40
1
40
1
41
1
10
52.132
20
-0.615723798566592
30
0
41
1
10
52.0866006493082
20
-0.612627674404592
30
0
41
1
10
52.0413807368153
20
-0.611648832984741
30
0
41
1
10
51.9738446116594
20
-0.613646601040472
30
0
41
1
10
51.9513816193775
20
-0.61489128302162
30
0
41
1
10
51.90655915798
20
-0.618602169564923
30
0
41
1
10
51.8841871384967
20
-0.621071417194344
30
0
41
1
10
51.8619658721545
20
-0.62417391948162
30
0
0
SPLINE
5
16D
100
AcDbEntity
8
1
62
256
6
ByLayer
370
18
48
1
60
0
100
AcDbSpline
70
4
71
3
72
10
73
6
40
0
40
0
40
0
40
0
40
0.5
40
0.5
40
1
40
1
40
1
40
1
41
1
10
50.5600584211528
20
-0.289101125460036
30
0
41
1
10
50.7725030248098
20
-0.349367706388875
30
0
41
1
10
50.987459943624
20
-0.4067351817977
30
0
41
1
10
51.4217144787063
20
-0.517619437014389
30
0
41
1
10
51.6410035536046
20
-0.57115902909689
30
0
41
1
10
51.8619658721544
20
-0.62417391948162
30
0
0
SPLINE
5
16E
100
AcDbEntity
8
1
62
256
6
ByLayer
370
18
48
1
60
0
100
AcDbSpline
70
4
71
3
72
20
73
16
40
0
40
0
40
0
40
0
40
0.125
40
0.125
40
0.25
40
0.25
40
0.5
40
0.5
40
0.625
40
0.625
40
0.75
40
0.75
40
0.875
40
0.875
40
1
40
1
40
1
40
1
41
1
10
51.6501147973123
20
3.92420642967539
30
0
41
1
10
51.6133297580066
20
3.91637368581681
30
0
41
1
10
51.5770812357856
20
3.90804137131426
30
0
41
1
10
51.5060700590876
20
3.89028497818992
30
0
41
1
10
51.4713042234865
20
3.88086211200806
30
0
41
1
10
51.3695083542834
20
3.85069501798659
30
0
41
1
10
51.3048361255125
20
3.82802788393775
30
0
41
1
10
51.2153218501176
20
3.78912910822703
30
0
41
1
10
51.1867670747512
20
3.77535543059582
30
0
41
1
10
51.1327645617375
20
3.74597221717792
30
0
41
1
10
51.1073128151322
20
3.73035660681066
30
0
41
1
10
51.0603246433422
20
3.69714971863687
30
0
41
1
10
51.0387230492773
20
3.67950153392846
30
0
41
1
10
51.0004276841899
20
3.64223440676159
30
0
41
1
10
50.9836695420053
20
3.62258083767537
30
0
41
1
10
50.9696757155376
20
3.60174046076659
30
0
0
SPLINE
5
16F
100
AcDbEntity
8
1
62
256
6
ByLayer
370
18
48
1
60
0
100
AcDbSpline
70
4
71
3
72
36
73
32
40
0
40
0
40
0
40
0
40
0.249999999999972
40
0.249999999999972
40
0.374999999999957
40
0.374999999999957
40
0.499999999999943
40
0.499999999999943
40
0.562499999999968
40
0.562499999999968
40
0.624999999999993
40
0.624999999999993
40
0.687500000000017
40
0.687500000000017
40
0.718750000000017
40
0.718750000000017
40
0.750000000000017
40
0.750000000000017
40
0.76562500000003
40
0.76562500000003
40
0.781250000000044
40
0.781250000000044
40
0.812500000000013
40
0.812500000000013
40
0.843749999999983
40
0.843749999999983
40
0.874999999999952
40
0.874999999999952
40
0.937499999999976
40
0.937499999999976
40
1
40
1
40
1
40
1
41
1
10
48.7909379700914
20
-4.0824652413105
30
0
41
1
10
48.7586962660267
20
-4.08074693860527
30
0
41
1
10
48.7269977135189
20
-4.07881436449728
30
0
41
1
10
48.6809587937913
20
-4.07544855824847
30
0
41
1
10
48.6658675521213
20
-4.07424806032469
30
0
41
1
10
48.6364793595802
20
-4.07163326918882
30
0
41
1
10
48.6221648274106
20
-4.07022220931003
30
0
41
1
10
48.6017902243788
20
-4.06784872944607
30
0
41
1
10
48.5951840909969
20
-4.06701426936741
30
0
41
1
10
48.5825701149699
20
-4.06521622247357
30
0
41
1
10
48.576579211756
20
-4.06425653852341
30
0
41
1
10
48.5660308049366
20
-4.06217842748148
30
0
41
1
10
48.5613724266411
20
-4.0610505498866
30
0
41
1
10
48.5570211608857
20
-4.05919105331714
30
0
41
1
10
48.5560252797873
20
-4.05853675336957
30
0
41
1
10
48.5555848953793
20
-4.05720701087893
30
0
41
1
10
48.5561720484783
20
-4.056520079851
30
0
41
1
10
48.558544567426
20
-4.05554850323603
30
0
41
1
10
48.5595932514653
20
-4.0552297643433
30
0
41
1
10
48.5620840759094
20
-4.05463441919082
30
0
41
1
10
48.5635317072623
20
-4.05435410401617
30
0
41
1
10
48.568413401727
20
-4.05356047338657
30
0
41
1
10
48.5722361715238
20
-4.05311651751387
30
0
41
1
10
48.580484489306
20
-4.05235179110878
30
0
41
1
10
48.5849129680019
20
-4.05203186598058
30
0
41
1
10
48.5939112679737
20
-4.05148907677545
30
0
41
1
10
48.5985265563022
20
-4.05126294719153
30
0
41
1
10
48.6126097277418
20
-4.05067847639688
30
0
41
1
10
48.6222666982946
20
-4.05041458973716
30
0
41
1
10
48.6415810784853
20
-4.05003298566399
30
0
41
1
10
48.6513008120624
20
-4.04991552020707
30
0
41
1
10
48.6610607409868
20
-4.04984570366759
30
0
0
SPLINE
5
170
100
AcDbEntity
8
1
62
256
6
ByLayer
370
18
48
1
60
0
100
AcDbSpline
70
4
71
3
72
16
73
12
40
0
40
0
40
0
40
0
40
0.24999999999995
40
0.24999999999995
40
0.4999999999999
40
0.4999999999999
40
0.624999999999875
40
0.624999999999875
40
0.749999999999851
40
0.749999999999851
40
1
40
1
40
1
40
1
41
1
10
48.6610607409867
20
-4.04984570366756
30
0
41
1
10
48.6775531574607
20
-4.04972772704548
30
0
41
1
10
48.6939842917339
20
-4.0495467743585
30
0
41
1
10
48.7266797261322
20
-4.04901064545209
30
0
41
1
10
48.7429449232201
20
-4.04865656367045
30
0
41
1
10
48.7671602269169
20
-4.04792990333476
30
0
41
1
10
48.7752012645518
20
-4.04765471890261
30
0
41
1
10
48.7912054565337
20
-4.0470193095322
30
0
41
1
10
48.7991819844623
20
-4.04665821130337
30
0
41
1
10
48.8226454665779
20
-4.04542207686356
30
0
41
1
10
48.8377780729022
20
-4.0444027095829
30
0
41
1
10
48.8519926123883
20
-4.04301036474143
30
0
0
SPLINE
5
171
100
AcDbEntity
8
1
62
256
6
ByLayer
370
18
48
1
60
0
100
AcDbSpline
70
4
71
3
72
14
73
10
40
0
40
0
40
0
40
0
40
0.25
40
0.25
40
0.5
40
0.5
40
0.75
40
0.75
40
1
40
1
40
1
40
1
41
1
10
48.8519926123882
20
-4.04301036474143
30
0
41
1
10
48.7589077880255
20
-4.03065930527467
30
0
41
1
10
48.6685739348362
20
-4.01581123508421
30
0
41
1
10
48.494017374762
20
-3.98019965464385
30
0
41
1
10
48.4097935462073
20
-3.95943890074614
30
0
41
1
10
48.2481705424022
20
-3.91083071278072
30
0
41
1
10
48.1707693689689
20
-3.88298779665138
30
0
41
1
10
48.02365563831
20
-3.81868526847532
30
0
41
1
10
47.9539392982739
20
-3.78223365907192
30
0
41
1
10
47.8886156613827
20
-3.74043952628568
30
0
0
SPLINE
5
172
100
AcDbEntity
8
1
62
256
6
ByLayer
370
18
48
1
60
0
100
AcDbSpline
70
4
71
3
72
30
73
26
40
0
40
0
40
0
40
0
40
0.124999999999942
40
0.124999999999942
40
0.187499999999947
40
0.187499999999947
40
0.249999999999951
40
0.249999999999951
40
0.312499999999956
40
0.312499999999956
40
0.37499999999996
40
0.37499999999996
40
0.437499999999964
40
0.437499999999964
40
0.499999999999969
40
0.499999999999969
40
0.562499999999973
40
0.562499999999973
40
0.624999999999978
40
0.624999999999978
40
0.749999999999985
40
0.749999999999985
40
0.874999999999993
40
0.874999999999993
40
1
40
1
40
1
40
1
41
1
10
47.8886156613827
20
-3.74043952628565
30
0
41
1
10
47.8829770541397
20
-3.73683193933766
30
0
41
1
10
47.8778798331689
20
-3.73309340626662
30
0
41
1
10
47.8714391586988
20
-3.72720351673041
30
0
41
1
10
47.8694953016332
20
-3.72519273662573
30
0
41
1
10
47.8661281514167
20
-3.7210514193952
30
0
41
1
10
47.8647085019613
20
-3.71891871011783
30
0
41
1
10
47.8626025989988
20
-3.71461345412416
30
0
41
1
10
47.8619048405275
20
-3.7124294585648
30
0
41
1
10
47.8613964790268
20
-3.70798615142326
30
0
41
1
10
47.8615995569239
20
-3.7057268384537
30
0
41
1
10
47.8630350099995
20
-3.70130852356056
30
0
41
1
10
47.8642626270994
20
-3.69912739982655
30
0
41
1
10
47.8678330600385
20
-3.69483493709848
30
0
41
1
10
47.8701115751759
20
-3.69280011090257
30
0
41
1
10
47.8755516304692
20
-3.68893299336179
30
0
41
1
10
47.8787492435489
20
-3.68708502532232
30
0
41
1
10
47.8857374298326
20
-3.68367101209142
30
0
41
1
10
47.8895193160209
20
-3.68210060778324
30
0
41
1
10
47.9015486792853
20
-3.67771680146603
30
0
41
1
10
47.9105327202268
20
-3.6752201574279
30
0
41
1
10
47.9290096032646
20
-3.67097426036057
30
0
41
1
10
47.9385956537879
20
-3.66919314028956
30
0
41
1
10
47.9582329230654
20
-3.66609351063639
30
0
41
1
10
47.9683026020552
20
-3.66477689827852
30
0
41
1
10
47.9784615804092
20
-3.66364283829569
30
0
0
SPLINE
5
173
100
AcDbEntity
8
1
62
256
6
ByLayer
370
18
48
1
60
0
100
AcDbSpline
70
4
71
3
72
24
73
20
40
0
40
0
40
0
40
0
40
0.0625
40
0.0625
40
0.125
40
0.125
40
0.1875
40
0.1875
40
0.25
40
0.25
40
0.375
40
0.375
40
0.5
40
0.5
40
0.625
40
0.625
40
0.75
40
0.75
40
1
40
1
40
1
40
1
41
1
10
47.9784615804092
20
-3.66364283829563
30
0
41
1
10
48.0318724330654
20
-3.6576805152612
30
0
41
1
10
48.085608739762
20
-3.65271359396141
30
0
41
1
10
48.1935434171242
20
-3.64424425565332
30
0
41
1
10
48.2477439000814
20
-3.64074737745753
30
0
41
1
10
48.356503343921
20
-3.63491883808498
30
0
41
1
10
48.4110631442361
20
-3.63258940160625
30
0
41
1
10
48.5204745735948
20
-3.62889635580888
30
0
41
1
10
48.5753418389893
20
-3.62753442849254
30
0
41
1
10
48.7396868878667
20
-3.62468945948967
30
0
41
1
10
48.8491378212475
20
-3.62442623908243
30
0
41
1
10
49.0678727525246
20
-3.62633390384352
30
0
41
1
10
49.1771561149629
20
-3.62851256274999
30
0
41
1
10
49.3955881361834
20
-3.63479152478848
30
0
41
1
10
49.5047365401111
20
-3.6388949940912
30
0
41
1
10
49.7229197565185
20
-3.64865219584999
30
0
41
1
10
49.831817529028
20
-3.65430141623969
30
0
41
1
10
50.1577320738479
20
-3.6730894446089
30
0
41
1
10
50.3741055463945
20
-3.68805969720205
30
0
41
1
10
50.5897708016361
20
-3.70455134428428
30
0
0
SPLINE
5
174
100
AcDbEntity
8
1
62
256
6
ByLayer
370
18
48
1
60
0
100
AcDbSpline
70
4
71
3
72
8
73
4
40
0
40
0
40
0
40
0
40
1
40
1
40
1
40
1
41
1
10
50.7341510103273
20
-3.66256261727656
30
0
41
1
10
50.6849275592176
20
-3.67627363660401
30
0
41
1
10
50.6367541974911
20
-3.69027420960097
30
0
41
1
10
50.5897708016275
20
-3.7045513442807
30
0
0
SPLINE
5
175
100
AcDbEntity
8
1
62
256
6
ByLayer
370
18
48
1
60
0
100
AcDbSpline
70
4
71
3
72
10
73
6
40
0
40
0
40
0
40
0
40
0.5
40
0.5
40
1
40
1
40
1
40
1
41
1
10
50.9696757155369
20
-3.49010415141311
30
0
41
1
10
50.9221236645629
20
-3.51791286846714
30
0
41
1
10
50.8777675068
20
-3.54634478508953
30
0
41
1
10
50.798126498123
20
-3.60407012515302
30
0
41
1
10
50.762884673736
20
-3.63334367900683
30
0
41
1
10
50.7341510103273
20
-3.66256261727654
30
0
0
SPLINE
5
176
100
AcDbEntity
8
1
62
256
6
ByLayer
370
18
48
1
60
0
100
AcDbSpline
70
4
71
3
72
20
73
16
40
0
40
0
40
0
40
0
40
0.125000000000006
40
0.125000000000006
40
0.250000000000013
40
0.250000000000013
40
0.500000000000025
40
0.500000000000025
40
0.625000000000019
40
0.625000000000019
40
0.750000000000012
40
0.750000000000012
40
0.875000000000006
40
0.875000000000006
40
1
40
1
40
1
40
1
41
1
10
51.6501147973096
20
-2.97864879815847
30
0
41
1
10
51.6133297580039
20
-2.99741018730273
30
0
41
1
10
51.577081235783
20
-3.01654207699258
30
0
41
1
10
51.5060700590851
20
-3.05545970427528
30
0
41
1
10
51.471304223484
20
-3.07524520163514
30
0
41
1
10
51.3695083542811
20
-3.13566138836572
30
0
41
1
10
51.3048361255103
20
-3.17742569613418
30
0
41
1
10
51.2153218501157
20
-3.24204323430422
30
0
41
1
10
51.1867670747493
20
-3.26389041434422
30
0
41
1
10
51.1327645617357
20
-3.30815577612373
30
0
41
1
10
51.1073128151305
20
-3.33058052234475
30
0
41
1
10
51.0603246433407
20
-3.37579028035185
30
0
41
1
10
51.0387230492759
20
-3.39864708729755
30
0
41
1
10
51.0004276841888
20
-3.44432476430359
30
0
41
1
10
50.9836695420043
20
-3.46719785923821
30
0
41
1
10
50.9696757155369
20
-3.49010415141311
30
0
0
SPLINE
5
177
100
AcDbEntity
8
1
62
256
6
ByLayer
370
18
48
1
60
0
100
AcDbSpline
70
4
71
3
72
36
73
32
40
0
40
0
40
0
40
0
40
0.25000000000001
40
0.25000000000001
40
0.375000000000015
40
0.375000000000015
40
0.500000000000021
40
0.500000000000021
40
0.562500000000024
40
0.562500000000024
40
0.625000000000027
40
0.625000000000027
40
0.68750000000003
40
0.68750000000003
40
0.718750000000032
40
0.718750000000032
40
0.750000000000034
40
0.750000000000034
40
0.765625000000021
40
0.765625000000021
40
0.781250000000008
40
0.781250000000008
40
0.812499999999982
40
0.812499999999982
40
0.843749999999957
40
0.843749999999957
40
0.874999999999931
40
0.874999999999931
40
0.937499999999966
40
0.937499999999966
40
1
40
1
40
1
40
1
41
1
10
48.7909379700912
20
-1.81743998565699
30
0
41
1
10
48.7586962660264
20
-1.79848214617036
30
0
41
1
10
48.7269977135186
20
-1.77885428365221
30
0
41
1
10
48.680958793791
20
-1.74760599254395
30
0
41
1
10
48.6658675521211
20
-1.73688468451508
30
0
41
1
10
48.6364793595799
20
-1.71450481263028
30
0
41
1
10
48.6221648274104
20
-1.70286635358252
30
0
41
1
10
48.6017902243786
20
-1.68413042063028
30
0
41
1
10
48.5951840909967
20
-1.67766916187398
30
0
41
1
10
48.5825701149697
20
-1.66405431280773
30
0
41
1
10
48.5765792117558
20
-1.65693059833043
30
0
41
1
10
48.5660308049365
20
-1.64186573965847
30
0
41
1
10
48.5613724266409
20
-1.6338556497733
30
0
41
1
10
48.5570211608856
20
-1.62098704783463
30
0
41
1
10
48.5560252797871
20
-1.61651203226367
30
0
41
1
10
48.5555848953792
20
-1.60753196452345
30
0
41
1
10
48.5561720484783
20
-1.60295119201845
30
0
41
1
10
48.5585445674259
20
-1.59654502422694
30
0
41
1
10
48.5595932514652
20
-1.59445583725071
30
0
41
1
10
48.5620840759094
20
-1.59057267193688
30
0
41
1
10
48.5635317072623
20
-1.58875409200061
30
0
41
1
10
48.568413401727
20
-1.58362650413724
30
0
41
1
10
48.5722361715238
20
-1.58078680943277
30
0
41
1
10
48.580484489306
20
-1.5759188829156
30
0
41
1
10
48.5849129680018
20
-1.57389672476589
30
0
41
1
10
48.5939112679736
20
-1.57047726497279
30
0
41
1
10
48.5985265563022
20
-1.56905963926198
30
0
41
1
10
48.6126097277418
20
-1.56540417473002
30
0
41
1
10
48.6222666982945
20
-1.56376635898664
30
0
41
1
10
48.6415810784852
20
-1.56140031902629
30
0
41
1
10
48.6513008120623
20
-1.56067484284867
30
0
41
1
10
48.6610607409866
20
-1.56024361978683
30
0
0
SPLINE
5
178
100
AcDbEntity
8
1
62
256
6
ByLayer
370
18
48
1
60
0
100
AcDbSpline
70
4
71
3
72
16
73
12
40
0
40
0
40
0
40
0
40
0.250000000000041
40
0.250000000000041
40
0.500000000000081
40
0.500000000000081
40
0.750000000000122
40
0.750000000000122
40
0.875000000000061
40
0.875000000000061
40
1
40
1
40
1
40
1
41
1
10
48.6610607409866
20
-1.56024361978683
30
0
41
1
10
48.6805367262163
20
-1.55938311208763
30
0
41
1
10
48.6999425325749
20
-1.55798440590553
30
0
41
1
10
48.7385491616866
20
-1.55361296802278
30
0
41
1
10
48.7578213545189
20
-1.55064138051191
30
0
41
1
10
48.7957131671144
20
-1.54220905349948
30
0
41
1
10
48.8142208699103
20
-1.53682195594993
30
0
41
1
10
48.840767267576
20
-1.52548157257596
30
0
41
1
10
48.8494463756834
20
-1.52111086417372
30
0
41
1
10
48.8656358753955
20
-1.51107816540429
30
0
41
1
10
48.8732090957642
20
-1.50540154814578
30
0
41
1
10
48.8800518153462
20
-1.49879707862635
30
0
0
SPLINE
5
179
100
AcDbEntity
8
1
62
256
6
ByLayer
370
18
48
1
60
0
100
AcDbSpline
70
4
71
3
72
14
73
10
40
0
40
0
40
0
40
0
40
0.25
40
0.25
40
0.5
40
0.5
40
0.75
40
0.75
40
1
40
1
40
1
40
1
41
1
10
48.8800518153462
20
-1.49879707862638
30
0
41
1
10
48.7949666180042
20
-1.42450421712715
30
0
41
1
10
48.7133294673758
20
-1.34691877766551
30
0
41
1
10
48.557775708281
20
-1.18423949539428
30
0
41
1
10
48.4838572305237
20
-1.09914815344214
30
0
41
1
10
48.3447152672435
20
-0.920329902930035
30
0
41
1
10
48.2794881797082
20
-0.826607595760095
30
0
41
1
10
48.1589333372212
20
-0.629091925287668
30
0
41
1
10
48.1044942869544
20
-0.526721375280744
30
0
41
1
10
48.056289403702
20
-0.42055806778572
30
0
0
SPLINE
5
17A
100
AcDbEntity
8
1
62
256
6
ByLayer
370
18
48
1
60
0
100
AcDbSpline
70
4
71
3
72
24
73
20
40
0
40
0
40
0
40
0
40
0.125000000000039
40
0.125000000000039
40
0.250000000000078
40
0.250000000000078
40
0.375000000000117
40
0.375000000000117
40
0.437500000000105
40
0.437500000000105
40
0.500000000000093
40
0.500000000000093
40
0.625000000000069
40
0.625000000000069
40
0.750000000000046
40
0.750000000000046
40
0.875000000000023
40
0.875000000000023
40
1
40
1
40
1
40
1
41
1
10
48.056289403702
20
-0.42055806778572
30
0
41
1
10
48.052721020808
20
-0.412699292805399
30
0
41
1
10
48.0497387971235
20
-0.404652901771982
30
0
41
1
10
48.0454522275412
20
-0.388024155153516
30
0
41
1
10
48.0441701741037
20
-0.379402450869804
30
0
41
1
10
48.0441303823398
20
-0.362295751485164
30
0
41
1
10
48.0454243341661
20
-0.353582967293647
30
0
41
1
10
48.0494495733286
20
-0.341435548935067
30
0
41
1
10
48.0511284429651
20
-0.337509523436438
30
0
41
1
10
48.0551521697862
20
-0.329900850533392
30
0
41
1
10
48.0575073086455
20
-0.326216039024757
30
0
41
1
10
48.0652519334443
20
-0.315872031161405
30
0
41
1
10
48.0714588887183
20
-0.309714619127476
30
0
41
1
10
48.0848810445471
20
-0.298934984166891
30
0
41
1
10
48.0920776756259
20
-0.294289042672773
30
0
41
1
10
48.1071370704009
20
-0.286018110210961
30
0
41
1
10
48.1150250509541
20
-0.2823936815509
30
0
41
1
10
48.1310479381112
20
-0.276006726612962
30
0
41
1
10
48.1392152365996
20
-0.273227040050585
30
0
41
1
10
48.1474993112169
20
-0.2707574747607
30
0
0
SPLINE
5
17B
100
AcDbEntity
8
1
62
256
6
ByLayer
370
18
48
1
60
0
100
AcDbSpline
70
4
71
3
72
24
73
20
40
0
40
0
40
0
40
0
40
0.0625000000000043
40
0.0625000000000043
40
0.125000000000008
40
0.125000000000008
40
0.250000000000017
40
0.250000000000017
40
0.375000000000026
40
0.375000000000026
40
0.43750000000003
40
0.43750000000003
40
0.500000000000034
40
0.500000000000034
40
0.625000000000026
40
0.625000000000026
40
0.750000000000017
40
0.750000000000017
40
1
40
1
40
1
40
1
41
1
10
48.1474993112168
20
-0.270757474760671
30
0
41
1
10
48.1965887539248
20
-0.256123422146089
30
0
41
1
10
48.2459394311281
20
-0.243890818768591
30
0
41
1
10
48.3450021632458
20
-0.222750774300351
30
0
41
1
10
48.3947161781008
20
-0.213861292199681
30
0
41
1
10
48.5442720276001
20
-0.191003158248179
30
0
41
1
10
48.6445211882779
20
-0.180785388170534
30
0
41
1
10
48.8457419156714
20
-0.167009213462109
30
0
41
1
10
48.9467194241442
20
-0.163505285432223
30
0
41
1
10
49.0985985522208
20
-0.162056586767818
30
0
41
1
10
49.1493302784537
20
-0.162217217730216
30
0
41
1
10
49.2507014381611
20
-0.163680737417792
30
0
41
1
10
49.3013438225151
20
-0.164982755311456
30
0
41
1
10
49.4531550834299
20
-0.170418567221702
30
0
41
1
10
49.5542086778819
20
-0.176074093180006
30
0
41
1
10
49.7560605764305
20
-0.190752719178249
30
0
41
1
10
49.8568585703183
20
-0.199779899114105
30
0
41
1
10
50.1589226955992
20
-0.231207664351501
30
0
41
1
10
50.3599995750722
20
-0.257949502636961
30
0
41
1
10
50.5600584211528
20
-0.28910112545995
30
0
0
SPLINE
5
17C
100
AcDbEntity
8
1
62
256
6
ByLayer
370
18
48
1
60
0
100
AcDbSpline
70
4
71
3
72
8
73
4
40
0
40
0
40
0
40
0
40
1
40
1
40
1
40
1
41
1
10
50.7341510103275
20
-0.171761144140533
30
0
41
1
10
50.6744944653593
20
-0.20884456014403
30
0
41
1
10
50.6163774071313
20
-0.247852956661859
30
0
41
1
10
50.5600584211528
20
-0.289101125460007
30
0
0
SPLINE
5
17D
100
AcDbEntity
8
1
62
256
6
ByLayer
370
18
48
1
60
0
100
AcDbSpline
70
4
71
3
72
10
73
6
40
0
40
0
40
0
40
0
40
0.5
40
0.5
40
1
40
1
40
1
40
1
41
1
10
50.9696757155369
20
0.183077807717069
30
0
41
1
10
50.9221236645629
20
0.130001798334689
30
0
41
1
10
50.8777675068001
20
0.0740209227649018
30
0
41
1
10
50.7981264981231
20
-0.0442721576530403
30
0
41
1
10
50.7628846737362
20
-0.106555020542856
30
0
41
1
10
50.7341510103275
20
-0.171761144140533
30
0
0
SPLINE
5
17E
100
AcDbEntity
8
1
62
256
6
ByLayer
370
18
48
1
60
0
100
AcDbSpline
70
4
71
3
72
36
73
32
40
0
40
0
40
0
40
0
40
0.250000000000009
40
0.250000000000009
40
0.37500000000005
40
0.37500000000005
40
0.50000000000009
40
0.50000000000009
40
0.562500000000079
40
0.562500000000079
40
0.625000000000068
40
0.625000000000068
40
0.687500000000057
40
0.687500000000057
40
0.71875000000005
40
0.71875000000005
40
0.750000000000044
40
0.750000000000044
40
0.765625000000056
40
0.765625000000056
40
0.781250000000068
40
0.781250000000068
40
0.812500000000033
40
0.812500000000033
40
0.843749999999999
40
0.843749999999999
40
0.874999999999965
40
0.874999999999965
40
0.937499999999982
40
0.937499999999982
40
1
40
1
40
1
40
1
41
1
10
48.7909379700919
20
2.32936482142219
30
0
41
1
10
48.7586962660272
20
2.3467652859234
30
0
41
1
10
48.7269977135194
20
2.36462406349202
30
0
41
1
10
48.6809587937918
20
2.39276094345607
30
0
41
1
10
48.6658675521218
20
2.40236810645163
30
0
41
1
10
48.6364793595807
20
2.42231122574023
30
0
41
1
10
48.6221648274112
20
2.4326301686246
30
0
41
1
10
48.6017902243792
20
2.44913791644132
30
0
41
1
10
48.5951840909974
20
2.45481449671894
30
0
41
1
10
48.5825701149704
20
2.46673538766282
30
0
41
1
10
48.5765792117566
20
2.47295349608444
30
0
41
1
10
48.5660308049371
20
2.48605361485266
30
0
41
1
10
48.5613724266416
20
2.4929956404649
30
0
41
1
10
48.5570211608863
20
2.50409987161939
30
0
41
1
10
48.5560252797878
20
2.50795351085125
30
0
41
1
10
48.55558489538
20
2.51566956324564
30
0
41
1
10
48.5561720484789
20
2.51959675685311
30
0
41
1
10
48.5585445674265
20
2.52507776854128
30
0
41
1
10
48.5595932514658
20
2.52686331691257
30
0
41
1
10
48.56208407591
20
2.53017914476044
30
0
41
1
10
48.5635317072629
20
2.53173049564208
30
0
41
1
10
48.5684134017275
20
2.53610128341936
30
0
41
1
10
48.5722361715244
20
2.53851732891715
30
0
41
1
10
48.5804844893066
20
2.54265526469732
30
0
41
1
10
48.5849129680024
20
2.54437188116762
30
0
41
1
10
48.5939112679742
20
2.54727283750415
30
0
41
1
10
48.5985265563028
20
2.54847437947535
30
0
41
1
10
48.6126097277424
20
2.55157124921118
30
0
41
1
10
48.6222666982951
20
2.55295673086272
30
0
41
1
10
48.6415810784858
20
2.55495784811012
30
0
41
1
10
48.6513008120629
20
2.55557096435439
30
0
41
1
10
48.6610607409873
20
2.55593540570052
30
0
0
SPLINE
5
17F
100
AcDbEntity
8
1
62
256
6
ByLayer
370
18
48
1
60
0
100
AcDbSpline
70
4
71
3
72
16
73
12
40
0
40
0
40
0
40
0
40
0.250000000000049
40
0.250000000000049
40
0.500000000000099
40
0.500000000000099
40
0.625000000000123
40
0.625000000000123
40
0.750000000000148
40
0.750000000000148
40
1
40
1
40
1
40
1
41
1
10
48.6610607409872
20
2.55593540570052
30
0
41
1
10
48.6775531574613
20
2.55655124199472
30
0
41
1
10
48.6939842917344
20
2.55749523540507
30
0
41
1
10
48.7266797261327
20
2.56027483532171
30
0
41
1
10
48.7429449232206
20
2.56210574806997
30
0
41
1
10
48.7671602269175
20
2.56582426784468
30
0
41
1
10
48.7752012645524
20
2.56722745367583
30
0
41
1
10
48.7912054565343
20
2.57044770994173
30
0
41
1
10
48.7991819844628
20
2.57226923369117
30
0
41
1
10
48.8226454665785
20
2.57845671680869
30
0
41
1
10
48.8377780729028
20
2.58351552921587
30
0
41
1
10
48.8519926123888
20
2.59024272548277
30
0
0
SPLINE
5
180
100
AcDbEntity
8
1
62
256
6
ByLayer
370
18
48
1
60
0
100
AcDbSpline
70
4
71
3
72
14
73
10
40
0
40
0
40
0
40
0
40
0.25
40
0.25
40
0.5
40
0.5
40
0.75
40
0.75
40
1
40
1
40
1
40
1
41
1
10
48.8519926123888
20
2.59024272548277
30
0
41
1
10
48.7589077880261
20
2.64991759815956
30
0
41
1
10
48.6685739348368
20
2.70996455272757
30
0
41
1
10
48.4940173747625
20
2.83060544135728
30
0
41
1
10
48.4097935462079
20
2.89120054267238
30
0
41
1
10
48.2481705424029
20
3.01263692264496
30
0
41
1
10
48.1707693689695
20
3.07347998299323
30
0
41
1
10
48.0236556383107
20
3.1949632170053
30
0
41
1
10
47.9539392982746
20
3.25560634600655
30
0
41
1
10
47.8886156613834
20
3.31581518118
30
0
0
SPLINE
5
181
100
AcDbEntity
8
1
62
256
6
ByLayer
370
18
48
1
60
0
100
AcDbSpline
70
4
71
3
72
30
73
26
40
0
40
0
40
0
40
0
40
0.125000000000109
40
0.125000000000109
40
0.187500000000129
40
0.187500000000129
40
0.250000000000149
40
0.250000000000149
40
0.312500000000169
40
0.312500000000169
40
0.375000000000189
40
0.375000000000189
40
0.437500000000209
40
0.437500000000209
40
0.500000000000229
40
0.500000000000229
40
0.562500000000249
40
0.562500000000249
40
0.625000000000269
40
0.625000000000269
40
0.75000000000018
40
0.75000000000018
40
0.87500000000009
40
0.87500000000009
40
1
40
1
40
1
40
1
41
1
10
47.8886156613834
20
3.31581518118
30
0
41
1
10
47.8829770541403
20
3.32101228884667
30
0
41
1
10
47.8778798331697
20
3.32633771562388
30
0
41
1
10
47.8714391586995
20
3.33461989385486
30
0
41
1
10
47.8694953016339
20
3.33743019304677
30
0
41
1
10
47.8661281514174
20
3.34317966628987
30
0
41
1
10
47.864708501962
20
3.34612152241218
30
0
41
1
10
47.8626025989995
20
3.3520196908172
30
0
41
1
10
47.8619048405282
20
3.35499198385924
30
0
41
1
10
47.8613964790275
20
3.36099727215293
30
0
41
1
10
47.8615995569246
20
3.36402969392984
30
0
41
1
10
47.8630350100002
20
3.36992002878429
30
0
41
1
10
47.8642626271001
20
3.37280793495606
30
0
41
1
10
47.8678330600392
20
3.37845526377151
30
0
41
1
10
47.8701115751766
20
3.38111417138984
30
0
41
1
10
47.8755516304699
20
3.38613991859546
30
0
41
1
10
47.8787492435495
20
3.38852681259348
30
0
41
1
10
47.8857374298333
20
3.39291557522736
30
0
41
1
10
47.8895193160215
20
3.39492341767428
30
0
41
1
10
47.9015486792859
20
3.40050644641121
30
0
41
1
10
47.9105327202275
20
3.40365505129716
30
0
41
1
10
47.9290096032653
20
3.40898331548041
30
0
41
1
10
47.9385956537886
20
3.41120285025096
30
0
41
1
10
47.9582329230662
20
3.41505177000167
30
0
41
1
10
47.9683026020559
20
3.41667836514469
30
0
41
1
10
47.9784615804099
20
3.41807576982882
30
0
0
SPLINE
5
182
100
AcDbEntity
8
1
62
256
6
ByLayer
370
18
48
1
60
0
100
AcDbSpline
70
4
71
3
72
24
73
20
40
0
40
0
40
0
40
0
40
0.0625
40
0.0625
40
0.125
40
0.125
40
0.1875
40
0.1875
40
0.25
40
0.25
40
0.375
40
0.375
40
0.5
40
0.5
40
0.625
40
0.625
40
0.75
40
0.75
40
1
40
1
40
1
40
1
41
1
10
47.9784615804099
20
3.41807576982868
30
0
41
1
10
48.0318724330653
20
3.4254226282512
30
0
41
1
10
48.0856087397611
20
3.43142366642275
30
0
41
1
10
48.1935434171217
20
3.44156337679692
30
0
41
1
10
48.2477439000781
20
3.44569244500778
30
0
41
1
10
48.3565033439161
20
3.45253309926653
30
0
41
1
10
48.4110631442304
20
3.45524089086419
30
0
41
1
10
48.5204745735875
20
3.45951880359505
30
0
41
1
10
48.5753418389812
20
3.46108643017237
30
0
41
1
10
48.7396868878562
20
3.4643569052551
30
0
41
1
10
48.8491378212354
20
3.46465554772053
30
0
41
1
10
49.0678727525093
20
3.46246739869795
30
0
41
1
10
49.177156114946
20
3.45996858886568
30
0
41
1
10
49.3955881361633
20
3.45268304328644
30
0
41
1
10
49.5047365400896
20
3.4478915334787
30
0
41
1
10
49.7229197564937
20
3.43631258316668
30
0
41
1
10
49.8318175290017
20
3.42952987321033
30
0
41
1
10
50.157732073817
20
3.40651508060711
30
0
41
1
10
50.3741055463605
20
3.38762775718092
30
0
41
1
10
50.5897708015991
20
3.3655953684333
30
0
0
SPLINE
5
183
100
AcDbEntity
8
1
62
256
6
ByLayer
370
18
48
1
60
0
100
AcDbSpline
70
4
71
3
72
8
73
4
40
0
40
0
40
0
40
0
40
1
40
1
40
1
40
1
41
1
10
50.7341510103269
20
3.41940545551628
30
0
41
1
10
50.6849275592112
20
3.40254550174953
30
0
41
1
10
50.6367541974787
20
3.38466922927046
30
0
41
1
10
50.5897708016094
20
3.36559536842756
30
0
0
SPLINE
5
184
100
AcDbEntity
8
1
62
256
6
ByLayer
370
18
48
1
60
0
100
AcDbSpline
70
4
71
3
72
10
73
6
40
0
40
0
40
0
40
0
40
0.5
40
0.5
40
1
40
1
40
1
40
1
41
1
10
50.9696757155377
20
3.60174046076659
30
0
41
1
10
50.9221236645635
20
3.57643980798829
30
0
41
1
10
50.8777675068006
20
3.54887359727098
30
0
41
1
10
50.7981264981231
20
3.48831637637022
30
0
41
1
10
50.7628846737359
20
3.45533494671719
30
0
41
1
10
50.7341510103269
20
3.41940545551628
30
0
0
SPLINE
5
185
100
AcDbEntity
8
1
62
256
6
ByLayer
370
18
48
1
60
0
100
AcDbSpline
70
4
71
3
72
20
73
16
40
0
40
0
40
0
40
0
40
0.125
40
0.125
40
0.250000000000001
40
0.250000000000001
40
0.5
40
0.5
40
0.625
40
0.625
40
0.75
40
0.75
40
0.875
40
0.875
40
1
40
1
40
1
40
1
41
1
10
51.6501147973087
20
1.01496783394538
30
0
41
1
10
51.6133297580031
20
0.988487870043969
30
0
41
1
10
51.5770812357822
20
0.961136666939211
30
0
41
1
10
51.5060700590844
20
0.904684502062423
30
0
41
1
10
51.4713042234833
20
0.875585002538202
30
0
41
1
10
51.3695083542804
20
0.785320312501057
30
0
41
1
10
51.3048361255098
20
0.721091109921019
30
0
41
1
10
51.2153218501152
20
0.617849708224554
30
0
41
1
10
51.1867670747488
20
0.582315625616332
30
0
41
1
10
51.1327645617354
20
0.508828222235991
30
0
41
1
10
51.1073128151303
20
0.47086226926308
30
0
41
1
10
51.0603246433405
20
0.392578509052697
30
0
41
1
10
51.0387230492757
20
0.352132169372112
30
0
41
1
10
51.0004276841887
20
0.269284744069438
30
0
41
1
10
50.9836695420042
20
0.226796997495853
30
0
41
1
10
50.9696757155367
20
0.183077807717098
30
0
0
SPLINE
5
186
100
AcDbEntity
8
1
62
256
6
ByLayer
370
18
48
1
60
0
100
AcDbSpline
70
4
71
3
72
8
73
4
40
0
40
0
40
0
40
0
40
1
40
1
40
1
40
1
41
1
10
52.1320000000001
20
0.887253541742268
30
0
41
1
10
51.9711578739909
20
0.930999886422171
30
0
41
1
10
51.8105295295233
20
0.973571006946116
30
0
41
1
10
51.6501147973088
20
1.01496783394526
30
0
0
SPLINE
5
187
100
AcDbEntity
8
1
62
256
6
ByLayer
370
18
48
1
60
0
100
AcDbSpline
70
4
71
3
72
10
73
6
40
0
40
0
40
0
40
0
40
0.5
40
0.5
40
1
40
1
40
1
40
1
41
1
10
59.6169323919285
20
0.745080765470476
30
0
41
1
10
59.5791202126583
20
0.808839295200215
30
0
41
1
10
59.5401124620105
20
0.873224720938282
30
0
41
1
10
59.4598933609207
20
1.00299580981621
30
0
41
1
10
59.4186617633013
20
1.06841562759405
30
0
41
1
10
59.3763155638754
20
1.13436617357584
30
0
0
SPLINE
5
188
100
AcDbEntity
8
1
62
256
6
ByLayer
370
18
48
1
60
0
100
AcDbSpline
70
4
71
3
72
34
73
30
40
0
40
0
40
0
40
0
40
0.124999999999996
40
0.124999999999996
40
0.187499999999991
40
0.187499999999991
40
0.218749999999989
40
0.218749999999989
40
0.249999999999987
40
0.249999999999987
40
0.37499999999997
40
0.37499999999997
40
0.499999999999953
40
0.499999999999953
40
0.531249999999953
40
0.531249999999953
40
0.562499999999954
40
0.562499999999954
40
0.624999999999963
40
0.624999999999963
40
0.749999999999983
40
0.749999999999983
40
0.812499999999992
40
0.812499999999992
40
0.843749999999992
40
0.843749999999992
40
0.874999999999992
40
0.874999999999992
40
1
40
1
40
1
40
1
41
1
10
59.3763155638754
20
1.13436617357584
30
0
41
1
10
59.3285654015624
20
1.14965096390432
30
0
41
1
10
59.2746964760234
20
1.17031476948048
30
0
41
1
10
59.1845343913741
20
1.20953772385099
30
0
41
1
10
59.1529273546096
20
1.22397729445305
30
0
41
1
10
59.1030801189725
20
1.24777874035485
30
0
41
1
10
59.0860242184884
20
1.25608668972208
30
0
41
1
10
59.0512554378351
20
1.27334684818246
30
0
41
1
10
59.0335640870365
20
1.28228764127036
30
0
41
1
10
58.9435906163073
20
1.3285268692311
30
0
41
1
10
58.8667874803574
20
1.37040160123814
30
0
41
1
10
58.7033881544593
20
1.46406386466623
30
0
41
1
10
58.6168148720861
20
1.51582820840804
30
0
41
1
10
58.5022403829718
20
1.58696926583633
30
0
41
1
10
58.478958545137
20
1.6015519221431
30
0
41
1
10
58.4319503217407
20
1.63125021203058
30
0
41
1
10
58.4082732845057
20
1.6463342422511
30
0
41
1
10
58.3367343007175
20
1.69227617709018
30
0
41
1
10
58.2883666980923
20
1.72382091587212
30
0
41
1
10
58.1413000786381
20
1.82112258339043
30
0
41
1
10
58.0406242303006
20
1.88956464830952
30
0
41
1
10
57.885690255544
20
1.99755256819324
30
0
41
1
10
57.8333900383782
20
2.03443898913153
30
0
41
1
10
57.7539355133975
20
2.09113262737557
30
0
41
1
10
57.7273180548857
20
2.11023352835892
30
0
41
1
10
57.6741710896009
20
2.14858420767376
30
0
41
1
10
57.6475919946628
20
2.16786929721511
30
0
41
1
10
57.5146691924414
20
2.26482914181594
30
0
41
1
10
57.4082438500263
20
2.34410029285289
30
0
41
1
10
57.301732252138
20
2.42505819183302
30
0
0
SPLINE
5
189
100
AcDbEntity
8
1
62
256
6
ByLayer
370
18
48
1
60
0
100
AcDbSpline
70
4
71
3
72
63
73
59
40
0
40
0
40
0
40
0
40
0.0312500000000167
40
0.0468750000000282
40
0.0468750000000282
40
0.0625000000000397
40
0.0625000000000397
40
0.125000000000079
40
0.125000000000079
40
0.187500000000119
40
0.187500000000119
40
0.203125000000127
40
0.203125000000127
40
0.218750000000136
40
0.218750000000136
40
0.250000000000152
40
0.250000000000152
40
0.312500000000185
40
0.312500000000185
40
0.328125000000193
40
0.328125000000193
40
0.335937500000197
40
0.335937500000197
40
0.339843750000196
40
0.339843750000196
40
0.340820312500197
40
0.340820312500197
40
0.341796875000199
40
0.341796875000199
40
0.343750000000201
40
0.343750000000201
40
0.375000000000189
40
0.375000000000189
40
0.43750000000017
40
0.43750000000017
40
0.453125000000164
40
0.453125000000164
40
0.468750000000158
40
0.468750000000158
40
0.500000000000145
40
0.500000000000145
40
0.625000000000083
40
0.625000000000083
40
0.687500000000052
40
0.687500000000052
40
0.703125000000047
40
0.703125000000047
40
0.718750000000042
40
0.750000000000038
40
0.81250000000003
40
0.81250000000003
40
0.875000000000022
40
0.875000000000022
40
0.937500000000013
40
0.937500000000013
40
0.968750000000007
40
0.968750000000007
40
1
40
1
40
1
40
1
41
1
10
57.3017322521375
20
2.42505819184191
30
0
41
1
10
57.2499969485927
20
2.44466691179073
30
0
41
1
10
57.1715125664092
20
2.47527732946605
30
0
41
1
10
57.0916829300802
20
2.50753607654605
30
0
41
1
10
57.0381615875552
20
2.52939181390451
30
0
41
1
10
57.011210397542
20
2.54051141078574
30
0
41
1
10
56.8765034405259
20
2.59660357384902
30
0
41
1
10
56.7684702507895
20
2.64321886932387
30
0
41
1
10
56.5514699290448
20
2.73866992151781
30
0
41
1
10
56.4425046378612
20
2.78750831541257
30
0
41
1
10
56.3054715886207
20
2.84924179925807
30
0
41
1
10
56.2780235463117
20
2.8616229747349
30
0
41
1
10
56.2230379530176
20
2.88643724077076
30
0
41
1
10
56.1955498352919
20
2.89884799553187
30
0
41
1
10
56.1133892438383
20
2.93593045394272
30
0
41
1
10
56.0588974448043
20
2.96050761977946
30
0
41
1
10
55.8961409578184
20
3.03363837183556
30
0
41
1
10
55.7885946526913
20
3.08158505970118
30
0
41
1
10
55.6549991727058
20
3.13999560622324
30
0
41
1
10
55.6283216527472
20
3.15160275623489
30
0
41
1
10
55.5883598051617
20
3.1688962948528
30
0
41
1
10
55.5750479969165
20
3.17464188388112
30
0
41
1
10
55.5550963252664
20
3.18322332149865
30
0
41
1
10
55.5484479250868
20
3.18607869647408
30
0
41
1
10
55.5401391579688
20
3.18964334008638
30
0
41
1
10
55.5384832111401
20
3.19034388408789
30
0
41
1
10
55.5351437161711
20
3.19180353425855
30
0
41
1
10
55.5334750630559
20
3.19253105923826
30
0
41
1
10
55.5284719072165
20
3.19470767624159
30
0
41
1
10
55.5251374150411
20
3.19615676459375
30
0
41
1
10
55.4684543547832
20
3.22078431555875
30
0
41
1
10
55.4152454353327
20
3.24366635292057
30
0
41
1
10
55.2559778758207
20
3.31123183690687
30
0
41
1
10
55.1502666019943
20
3.35485809300425
30
0
41
1
10
55.0184527552198
20
3.40715947142129
30
0
41
1
10
54.992079425049
20
3.41752047359768
30
0
41
1
10
54.9394919631316
20
3.43796185712247
30
0
41
1
10
54.9132968044563
20
3.44803403957064
30
0
41
1
10
54.8350048490521
20
3.47778265163495
30
0
41
1
10
54.783199941224
20
3.49699249380498
30
0
41
1
10
54.5259354583908
20
3.58982139089247
30
0
41
1
10
54.3256944102789
20
3.65380733555517
30
0
41
1
10
54.0312164092012
20
3.73174714592804
30
0
41
1
10
53.934045412292
20
3.75472198688706
30
0
41
1
10
53.8136441658396
20
3.77933647245206
30
0
41
1
10
53.7896103839844
20
3.7840546685872
30
0
41
1
10
53.7418428648678
20
3.79303623785035
30
0
41
1
10
53.6705682222118
20
3.80584135428106
30
0
41
1
10
53.5067941843293
20
3.83106180386514
30
0
41
1
10
53.3705102153731
20
3.84465443836405
30
0
41
1
10
53.1922605763189
20
3.85533908278103
30
0
41
1
10
53.1048811041158
20
3.85694818864988
30
0
41
1
10
52.933572322418
20
3.85226342794792
30
0
41
1
10
52.8496378866295
20
3.845974703021
30
0
41
1
10
52.7262483141198
20
3.83034006946198
30
0
41
1
10
52.6854888728393
20
3.82407828929769
30
0
41
1
10
52.6051631016607
20
3.80948704359494
30
0
41
1
10
52.5655927819795
20
3.80115241920566
30
0
41
1
10
52.5266144984832
20
3.79176672010576
30
0
0
SPLINE
5
18A
100
AcDbEntity
8
1
62
256
6
ByLayer
370
18
48
1
60
0
100
AcDbSpline
70
4
71
1
72
4
73
2
40
0
40
0
40
1
40
1
41
1
10
52.2352394314969
20
3.38244948986033
30
0
41
1
10
52.5266144984832
20
3.79176672010576
30
0
0
SPLINE
5
18B
100
AcDbEntity
8
1
62
256
6
ByLayer
370
18
48
1
60
0
100
AcDbSpline
70
4
71
3
72
16
73
12
40
0
40
0
40
0
40
0
40
0.250000000000003
40
0.250000000000003
40
0.500000000000006
40
0.500000000000006
40
0.625000000000007
40
0.625000000000007
40
0.750000000000007
40
0.750000000000007
40
1
40
1
40
1
40
1
41
1
10
59.5854027502881
20
0.649899417529639
30
0
41
1
10
59.5827276180205
20
0.642102876290892
30
0
41
1
10
59.5803888390033
20
0.633555299399518
30
0
41
1
10
59.5766105340062
20
0.614625018481291
30
0
41
1
10
59.5751663726532
20
0.604250198007435
30
0
41
1
10
59.5739637589205
20
0.58686114295682
30
0
41
1
10
59.5737250338202
20
0.580757725313731
30
0
41
1
10
59.5736554936822
20
0.567801613130229
30
0
41
1
10
59.5738269200455
20
0.560972605689329
30
0
41
1
10
59.5750899539717
20
0.539541279237227
30
0
41
1
10
59.5768860897794
20
0.523950800859438
30
0
41
1
10
59.5802983060047
20
0.506231768335851
30
0
0
SPLINE
5
18C
100
AcDbEntity
8
1
62
256
6
ByLayer
370
18
48
1
60
0
100
AcDbSpline
70
4
71
3
72
8
73
4
40
0
40
0
40
0
40
0
40
1
40
1
40
1
40
1
41
1
10
59.5854027502878
20
0.649899417530122
30
0
41
1
10
59.5966753564875
20
0.682752873103709
30
0
41
1
10
59.6072330652852
20
0.7145555433477
30
0
41
1
10
59.6169323919285
20
0.745080765470533
30
0
0
SPLINE
5
18D
100
AcDbEntity
8
1
62
256
6
ByLayer
370
18
48
1
60
0
100
AcDbSpline
70
4
71
3
72
22
73
18
40
0
40
0
40
0
40
0
40
0.0312500000000684
40
0.0312500000000684
40
0.0625000000001368
40
0.0625000000001368
40
0.125000000000128
40
0.125000000000128
40
0.250000000000109
40
0.250000000000109
40
0.375000000000091
40
0.375000000000091
40
0.500000000000072
40
0.500000000000072
40
0.750000000000036
40
0.750000000000036
40
1
40
1
40
1
40
1
41
1
10
59.5501823247393
20
0.07177030490314
30
0
41
1
10
59.5474229821743
20
0.0717388973488937
30
0
41
1
10
59.5445787566581
20
0.0717493880286497
30
0
41
1
10
59.5388004215289
20
0.0718147362095749
30
0
41
1
10
59.535863695492
20
0.0718705156114083
30
0
41
1
10
59.5269684627428
20
0.072082066055259
30
0
41
1
10
59.5211325988151
20
0.0722750256473716
30
0
41
1
10
59.5037518442804
20
0.0729237533977312
30
0
41
1
10
59.4923160209623
20
0.0734517681703153
30
0
41
1
10
59.4696651407541
20
0.074576287009819
30
0
41
1
10
59.4585234893652
20
0.0751733989587535
30
0
41
1
10
59.4364375990625
20
0.0764050589094154
30
0
41
1
10
59.4254971251971
20
0.0770403208910864
30
0
41
1
10
59.3928738726477
20
0.0789836863604592
30
0
41
1
10
59.3713851595992
20
0.0803285912274134
30
0
41
1
10
59.3286858170533
20
0.0830711349666728
30
0
41
1
10
59.3074807354436
20
0.084469825905245
30
0
41
1
10
59.2863702555959
20
0.0858864565234398
30
0
0
SPLINE
5
18E
100
AcDbEntity
8
1
62
256
6
ByLayer
370
18
48
1
60
0
100
AcDbSpline
70
4
71
3
72
8
73
4
40
0
40
0
40
0
40
0
40
1
40
1
40
1
40
1
41
1
10
59.0233045172685
20
-0.330227281718891
30
0
41
1
10
59.0274647894206
20
-0.338384759372104
30
0
41
1
10
59.0309634684809
20
-0.345683301635006
30
0
41
1
10
59.0338231076017
20
-0.352152188891296
30
0
0
SPLINE
5
18F
100
AcDbEntity
8
1
62
256
6
ByLayer
370
18
48
1
60
0
100
AcDbSpline
70
4
71
3
72
43
73
39
40
0
40
0
40
0
40
0
40
0.0624999999999789
40
0.0624999999999789
40
0.124999999999958
40
0.124999999999958
40
0.249999999999915
40
0.249999999999915
40
0.281249999999904
40
0.281249999999904
40
0.312499999999893
40
0.37499999999988
40
0.37499999999988
40
0.406249999999873
40
0.406249999999873
40
0.437499999999866
40
0.437499999999866
40
0.499999999999853
40
0.499999999999853
40
0.56249999999984
40
0.56249999999984
40
0.624999999999826
40
0.624999999999826
40
0.687499999999813
40
0.687499999999813
40
0.7499999999998
40
0.7499999999998
40
0.812499999999786
40
0.812499999999786
40
0.843749999999811
40
0.843749999999811
40
0.874999999999836
40
0.874999999999836
40
0.937499999999885
40
0.937499999999885
40
0.968749999999943
40
0.968749999999943
40
1
40
1
40
1
40
1
41
1
10
59.023304517268
20
-0.330227281718862
30
0
41
1
10
59.0188331832763
20
-0.321459872812852
30
0
41
1
10
59.0146895905393
20
-0.312083748467472
30
0
41
1
10
59.0073356003908
20
-0.292186091544067
30
0
41
1
10
59.0041088674571
20
-0.281605023530858
30
0
41
1
10
58.9962825391645
20
-0.248522147623675
30
0
41
1
10
58.9936072629089
20
-0.225229258332689
30
0
41
1
10
58.9940295971274
20
-0.194726732368537
30
0
41
1
10
58.9943071642843
20
-0.188531519579527
30
0
41
1
10
58.9952503329147
20
-0.176184116327534
30
0
41
1
10
58.9972443451996
20
-0.157686783332025
30
0
41
1
10
59.0009685492702
20
-0.139276209950083
30
0
41
1
10
59.0058897714746
20
-0.120945272030781
30
0
41
1
10
59.0077302791943
20
-0.114848254338227
30
0
41
1
10
59.0118269768048
20
-0.102685074188429
30
0
41
1
10
59.0140861286982
20
-0.096617421505016
30
0
41
1
10
59.0213832408467
20
-0.078768144134898
30
0
41
1
10
59.0269705958821
20
-0.0672353224864821
30
0
41
1
10
59.0395899284427
20
-0.0449088269406559
30
0
41
1
10
59.0466236131909
20
-0.0341120993688833
30
0
41
1
10
59.062211880504
20
-0.0133197080382388
30
0
41
1
10
59.0705877689248
20
-0.0035613475184846
30
0
41
1
10
59.088493470827
20
0.0147144688416176
30
0
41
1
10
59.0980228669737
20
0.0232320352967292
30
0
41
1
10
59.1183084914844
20
0.0389812285271205
30
0
41
1
10
59.1290820445547
20
0.0462021937611041
30
0
41
1
10
59.1512594583147
20
0.0588628692200928
30
0
41
1
10
59.1627406984354
20
0.064369297877704
30
0
41
1
10
59.1806082797106
20
0.0713553042605497
30
0
41
1
10
59.1866723331284
20
0.073470855672582
30
0
41
1
10
59.1990345039435
20
0.0772584454486491
30
0
41
1
10
59.2053704176356
20
0.0789373073612296
30
0
41
1
10
59.224353529308
20
0.0831879467301064
30
0
41
1
10
59.2370325835506
20
0.085002130635246
30
0
41
1
10
59.2559809411922
20
0.0863192852233112
30
0
41
1
10
59.2623064029836
20
0.0865214539386727
30
0
41
1
10
59.2745623176432
20
0.0864981958891349
30
0
41
1
10
59.2805372706058
20
0.0862778822604469
30
0
41
1
10
59.2863702555959
20
0.0858864565234114
30
0
0
SPLINE
5
190
100
AcDbEntity
8
1
62
256
6
ByLayer
370
18
48
1
60
0
100
AcDbSpline
70
4
71
3
72
24
73
20
40
0
40
0
40
0
40
0
40
0.250000000000025
40
0.250000000000025
40
0.375000000000024
40
0.375000000000024
40
0.500000000000023
40
0.500000000000023
40
0.625000000000023
40
0.625000000000023
40
0.687500000000022
40
0.687500000000022
40
0.750000000000021
40
0.750000000000021
40
0.875000000000017
40
0.875000000000017
40
0.937500000000009
40
0.937500000000009
40
1
40
1
40
1
40
1
41
1
10
59.9378707115016
20
0.0971616064647947
30
0
41
1
10
59.942063703474
20
0.085455618485156
30
0
41
1
10
59.9459911758863
20
0.0749976266703811
30
0
41
1
10
59.9512597002793
20
0.0624769209707381
30
0
41
1
10
59.9529070089645
20
0.0588552447465815
30
0
41
1
10
59.9558377574022
20
0.053272025275561
30
0
41
1
10
59.95713278597
20
0.0512778214985019
30
0
41
1
10
59.959261537705
20
0.0495333799625826
30
0
41
1
10
59.9600588437974
20
0.049825366954849
30
0
41
1
10
59.9607668908369
20
0.0524142740293314
30
0
41
1
10
59.9609214141163
20
0.0536535387031165
30
0
41
1
10
59.9610495609328
20
0.0568289210028752
30
0
41
1
10
59.9610257413956
20
0.0587640096684652
30
0
41
1
10
59.9607002785804
20
0.0655899361153729
30
0
41
1
10
59.960129316195
20
0.0716047840065244
30
0
41
1
10
59.9588776859425
20
0.0819793458381071
30
0
41
1
10
59.9583951738539
20
0.0856715745904069
30
0
41
1
10
59.9573157012701
20
0.0934730587693196
30
0
41
1
10
59.956718596318
20
0.0975809437328508
30
0
41
1
10
59.9560848824023
20
0.101786291235413
30
0
0
SPLINE
5
191
100
AcDbEntity
8
1
62
256
6
ByLayer
370
18
48
1
60
0
100
AcDbSpline
70
4
71
3
72
8
73
4
40
0
40
0
40
0
40
0
40
1
40
1
40
1
40
1
41
1
10
59.9378707115016
20
0.0971616064647662
30
0
41
1
10
59.9340864696071
20
0.107726446660053
30
0
41
1
10
59.9302223780693
20
0.118351047940848
30
0
41
1
10
59.9262792768187
20
0.129034781685902
30
0
0
SPLINE
5
192
100
AcDbEntity
8
1
62
256
6
ByLayer
370
18
48
1
60
0
100
AcDbSpline
70
4
71
3
72
12
73
8
40
0
40
0
40
0
40
0
40
0.249999999999997
40
0.249999999999997
40
0.499999999999994
40
0.499999999999994
40
1
40
1
40
1
40
1
41
1
10
59.9262792768187
20
0.129034781685874
30
0
41
1
10
59.9183186855854
20
0.134953648612111
30
0
41
1
10
59.9094135803874
20
0.140839842292166
30
0
41
1
10
59.8898062561742
20
0.152498839660922
30
0
41
1
10
59.8790959914765
20
0.158278081565754
30
0
41
1
10
59.844289469241
20
0.175467480459844
30
0
41
1
10
59.8175264882504
20
0.18672980979656
30
0
41
1
10
59.7872664104132
20
0.197798280404896
30
0
0
SPLINE
5
193
100
AcDbEntity
8
1
62
256
6
ByLayer
370
18
48
1
60
0
100
AcDbSpline
70
4
71
3
72
33
73
29
40
0
40
0
40
0
40
0
40
0.0624999999999789
40
0.0624999999999789
40
0.0937499999999615
40
0.0937499999999615
40
0.124999999999944
40
0.156249999999927
40
0.156249999999927
40
0.187499999999909
40
0.187499999999909
40
0.249999999999875
40
0.249999999999875
40
0.281249999999869
40
0.281249999999869
40
0.312499999999864
40
0.312499999999864
40
0.374999999999878
40
0.374999999999878
40
0.437499999999892
40
0.437499999999892
40
0.499999999999906
40
0.499999999999906
40
0.624999999999935
40
0.624999999999935
40
0.749999999999963
40
0.749999999999963
40
1
40
1
40
1
40
1
41
1
10
59.5802983060047
20
0.506231768335851
30
0
41
1
10
59.5819252221826
20
0.493356633220401
30
0
41
1
10
59.5842118359078
20
0.480310033302942
30
0
41
1
10
59.5886877769657
20
0.460464719650531
30
0
41
1
10
59.5903727061383
20
0.453742050599857
30
0
41
1
10
59.5940045637641
20
0.440568498666693
30
0
41
1
10
59.5978913702883
20
0.427661466947143
30
0
41
1
10
59.6022389576155
20
0.415242658638448
30
0
41
1
10
59.6067981124672
20
0.403051919234486
30
0
41
1
10
59.6091832679853
20
0.397077325168823
30
0
41
1
10
59.6164285964044
20
0.379926263009764
30
0
41
1
10
59.6214416805737
20
0.369336110157434
30
0
41
1
10
59.6291456619152
20
0.354421458190615
30
0
41
1
10
59.6317550233962
20
0.349596401630464
30
0
41
1
10
59.6369525588794
20
0.340368258756939
30
0
41
1
10
59.639545673226
20
0.335953869876335
30
0
41
1
10
59.6473043174111
20
0.323224645079904
30
0
41
1
10
59.6524490086024
20
0.315419585068611
30
0
41
1
10
59.6626679519409
20
0.300871019598077
30
0
41
1
10
59.6677500760244
20
0.294120255704598
30
0
41
1
10
59.6777999164377
20
0.281537867921969
30
0
41
1
10
59.6827210563638
20
0.275763108511853
30
0
41
1
10
59.6972051164263
20
0.25967914968237
30
0
41
1
10
59.7064903633688
20
0.250594691848733
30
0
41
1
10
59.724412679581
20
0.234770705458658
30
0
41
1
10
59.7330484440729
20
0.228043281724183
30
0
41
1
10
59.7580499563931
20
0.21066077139605
30
0
41
1
10
59.7732727536215
20
0.20291685213175
30
0
41
1
10
59.7872664104134
20
0.197798280403788
30
0
0
SPLINE
5
194
100
AcDbEntity
8
1
62
256
6
ByLayer
370
18
48
1
60
0
100
AcDbSpline
70
4
71
3
72
40
73
36
40
0
40
0
40
0
40
0
40
0.0205047780609282
40
0.0484752527688966
40
0.0841170723558926
40
0.120131593210181
40
0.159754394869517
40
0.192170194528945
40
0.238985259268181
40
0.278501416418879
40
0.328589670631011
40
0.34285552990703
40
0.351805374518373
40
0.380859618773786
40
0.407572447272657
40
0.410792369394431
40
0.411631670667002
40
0.411842670741381
40
0.41210838060222
40
0.412340917254197
40
0.413305934497552
40
0.415771183607007
40
0.417506679848394
40
0.43578347188625
40
0.481922727478397
40
0.529125888142664
40
0.583818633144571
40
0.666683577662307
40
0.72225212563655
40
0.778000501984022
40
0.805921386877732
40
0.833851528379139
40
0.917385725646551
40
0.972390299564693
40
1
40
1
40
1
40
1
41
1
10
52.2352394314969
20
3.38244948986033
30
0
41
1
10
52.2911134867233
20
3.40565240264144
30
0
41
1
10
52.4221057547877
20
3.45242968929762
30
0
41
1
10
52.6459160280109
20
3.50644098176662
30
0
41
1
10
52.9079844511108
20
3.53649397996295
30
0
41
1
10
53.1989790712864
20
3.53440858204729
30
0
41
1
10
53.4846375721515
20
3.50356055492267
30
0
41
1
10
53.8025513997934
20
3.44526202698336
30
0
41
1
10
54.1237399115075
20
3.36083570036772
30
0
41
1
10
54.4965578216682
20
3.2343997157796
30
0
41
1
10
54.7831586421739
20
3.1167273685426
30
0
41
1
10
54.9862305323236
20
3.0242970325888
30
0
41
1
10
55.1313143672967
20
2.95624930461051
30
0
41
1
10
55.3112899505462
20
2.86753924937958
30
0
41
1
10
55.4748054587494
20
2.78174506639931
30
0
41
1
10
55.5598684176832
20
2.73580636312525
30
0
41
1
10
55.5716801952716
20
2.72942801181841
30
0
41
1
10
55.5752851108701
20
2.72741341143435
30
0
41
1
10
55.5773635836979
20
2.72647397286477
30
0
41
1
10
55.5815345282125
20
2.72442102617561
30
0
41
1
10
55.5920386673228
20
2.71936502684275
30
0
41
1
10
55.6067935802905
20
2.7121675855935
30
0
41
1
10
55.6710534069302
20
2.68085539771266
30
0
41
1
10
55.8590980719183
20
2.58745360277985
30
0
41
1
10
56.1743014913972
20
2.42494408780101
30
0
41
1
10
56.5865092508811
20
2.20414694236894
30
0
41
1
10
57.0896943907227
20
1.92715864738727
30
0
41
1
10
57.5935965014547
20
1.64461127594066
30
0
41
1
10
58.0672997959259
20
1.3762468644469
30
0
41
1
10
58.383504940897
20
1.1953274367915
30
0
41
1
10
58.6203618798568
20
1.0588896620134
30
0
41
1
10
58.9014312097168
20
0.896377422154188
30
0
41
1
10
59.1998206449723
20
0.722892319036845
30
0
41
1
10
59.4437902975983
20
0.582746375041637
30
0
41
1
10
59.5476453038022
20
0.524385381904153
30
0
41
1
10
59.5802983060086
20
0.506231768333663
30
0
0
SPLINE
5
195
100
AcDbEntity
8
1
62
256
6
ByLayer
370
18
48
1
60
0
100
AcDbSpline
70
4
71
1
72
4
73
2
40
0
40
0
40
1
40
1
41
1
10
52.1352042989774
20
3.15387337654761
30
0
41
1
10
52.2352394314969
20
3.38244948986033
30
0
0
SPLINE
5
196
100
AcDbEntity
8
1
62
256
6
ByLayer
370
18
48
1
60
0
100
AcDbSpline
70
4
71
3
72
8
73
4
40
0
40
0
40
0
40
0
40
1
40
1
40
1
40
1
41
1
10
56.1043484342975
20
2.1303623165582
30
0
41
1
10
56.0994278874175
20
2.13313857355371
30
0
41
1
10
56.0944803747315
20
2.13586920992626
30
0
41
1
10
56.0895079981191
20
2.13855359284548
30
0
0
SPLINE
5
197
100
AcDbEntity
8
1
62
256
6
ByLayer
370
18
48
1
60
0
100
AcDbSpline
70
4
71
3
72
14
73
10
40
0
40
0
40
0
40
0
40
0.499999999999998
40
0.499999999999998
40
0.624999999999998
40
0.624999999999998
40
0.749999999999999
40
0.749999999999999
40
1
40
1
40
1
40
1
41
1
10
59.7619626219026
20
0.0741562906723345
30
0
41
1
10
59.8328362270014
20
0.0517313442627767
30
0
41
1
10
59.8882441732589
20
0.0294078144781622
30
0
41
1
10
59.9379089889486
20
0.0016318979464529
30
0
41
1
10
59.9468591093046
20
-0.0039189482051825
30
0
41
1
10
59.9627273764667
20
-0.0149763078846377
30
0
41
1
10
59.9696527738737
20
-0.0204864522620767
30
0
41
1
10
59.9873988338532
20
-0.0369612069094956
30
0
41
1
10
59.9951927902501
20
-0.0478702016482657
30
0
41
1
10
59.9989349620381
20
-0.0587047451056151
30
0
0
SPLINE
5
198
100
AcDbEntity
8
1
62
256
6
ByLayer
370
18
48
1
60
0
100
AcDbSpline
70
4
71
3
72
8
73
4
40
0
40
0
40
0
40
0
40
1
40
1
40
1
40
1
41
1
10
59.9994498542169
20
-0.059386292616125
30
0
41
1
10
59.9993232722071
20
-0.0591590840939773
30
0
41
1
10
59.9991516276449
20
-0.0589319015984415
30
0
41
1
10
59.9989349620381
20
-0.0587047451055298
30
0
0
SPLINE
5
199
100
AcDbEntity
8
1
62
256
6
ByLayer
370
18
48
1
60
0
100
AcDbSpline
70
4
71
3
72
8
73
4
40
0
40
0
40
0
40
0
40
1
40
1
40
1
40
1
41
1
10
59.9760311142631
20
0.0611800266117086
30
0
41
1
10
59.9740749786931
20
0.074872289749436
30
0
41
1
10
59.9674129798299
20
0.0884072682678436
30
0
41
1
10
59.9560848824047
20
0.101786291228137
30
0
0
SPLINE
5
19A
100
AcDbEntity
8
1
62
256
6
ByLayer
370
18
48
1
60
0
100
AcDbSpline
70
4
71
3
72
8
73
4
40
0
40
0
40
0
40
0
40
1
40
1
40
1
40
1
41
1
10
59.5501823247529
20
0.0717703049008946
30
0
41
1
10
59.6207415600879
20
0.0725734284556268
30
0
41
1
10
59.6913379052209
20
0.0733680931063532
30
0
41
1
10
59.7619626219022
20
0.0741562906724482
30
0
0
SPLINE
5
19B
100
AcDbEntity
8
1
62
256
6
ByLayer
370
18
48
1
60
0
100
AcDbSpline
70
4
71
3
72
8
73
4
40
0
40
0
40
0
40
0
40
1
40
1
40
1
40
1
41
1
10
59.6606107712495
20
0.130811126822238
30
0
41
1
10
59.6972724438533
20
0.110299073391303
30
0
41
1
10
59.7310557791732
20
0.0914322856925196
30
0
41
1
10
59.7619626219029
20
0.0741562906722493
30
0
0
SPLINE
5
19C
100
AcDbEntity
8
1
62
256
6
ByLayer
370
18
48
1
60
0
100
AcDbSpline
70
4
71
3
72
10
73
6
40
0
40
0
40
0
40
0
40
0.120771949024947
40
0.773579679847112
40
1
40
1
40
1
40
1
41
1
10
59.2910262035564
20
0.338598672586414
30
0
41
1
10
59.3084269100124
20
0.328815661736741
30
0
41
1
10
59.4179975851911
20
0.267212926090849
30
0
41
1
10
59.5437419735447
20
0.196517008790749
30
0
41
1
10
59.6375747475963
20
0.143762421325363
30
0
41
1
10
59.6606107712495
20
0.130811126822266
30
0
0
SPLINE
5
19D
100
AcDbEntity
8
1
62
256
6
ByLayer
370
18
48
1
60
0
100
AcDbSpline
70
4
71
3
72
51
73
47
40
0
40
0
40
0
40
0
40
0.0097397429972733
40
0.0204023257532391
40
0.031992684722569
40
0.0445161984662144
40
0.0579787030127965
40
0.0723865122784621
40
0.0877464338414896
40
0.104065284391342
40
0.121349463826854
40
0.139605409572938
40
0.158839613883484
40
0.179058602691058
40
0.200268921741148
40
0.22247713208651
40
0.245689817319676
40
0.269913605250939
40
0.295155207098071
40
0.321421437193971
40
0.348717394742385
40
0.377045094947865
40
0.406405366839138
40
0.436798001264348
40
0.468221759819937
40
0.500674391843206
40
0.551361489679989
40
0.60998472650082
40
0.676540207190719
40
0.750990963153712
40
0.763060601836237
40
0.775598498830434
40
0.788604065913585
40
0.802076675486686
40
0.816015917417442
40
0.830421421634721
40
0.845292771931523
40
0.86062950093707
40
0.876431084997694
40
0.892696939033277
40
0.909426411459225
40
0.926618779279001
40
0.944273243468363
40
0.96238892479005
40
0.980964860196671
40
1
40
1
40
1
40
1
41
1
10
56.7282610860561
20
1.77943436698141
30
0
41
1
10
56.738177969566
20
1.77387422981659
30
0
41
1
10
56.7589513603918
20
1.76222713299876
30
0
41
1
10
56.7914710474933
20
1.74398407044563
30
0
41
1
10
56.8267695750809
20
1.72417595356544
30
0
41
1
10
56.8648428037294
20
1.70280412742355
30
0
41
1
10
56.9056904129736
20
1.67986903930475
30
0
41
1
10
56.9493086859761
20
1.65537266965637
30
0
41
1
10
56.995691641823
20
1.62931838535536
30
0
41
1
10
57.0448293095384
20
1.6017117640649
30
0
41
1
10
57.0967072902693
20
1.57256088296776
30
0
41
1
10
57.1513058704098
20
1.54187680517006
30
0
41
1
10
57.2086000304523
20
1.50967357942119
30
0
41
1
10
57.2685588018798
20
1.4759686011474
30
0
41
1
10
57.331144585262
20
1.44078299672401
30
0
41
1
10
57.3963124204874
20
1.40414203419209
30
0
41
1
10
57.4640092400991
20
1.36607554357539
30
0
41
1
10
57.5341730340954
20
1.32661838671575
30
0
41
1
10
57.606732156759
20
1.28581084773029
30
0
41
1
10
57.6816019419933
20
1.24370053474894
30
0
41
1
10
57.7586836898812
20
1.20034295749008
30
0
41
1
10
57.8378655055032
20
1.15580100816911
30
0
41
1
10
57.9190175246248
20
1.11014782822574
30
0
41
1
10
58.0019935471911
20
1.06346520192409
30
0
41
1
10
58.0866305319644
20
1.01584654084652
30
0
41
1
10
58.1879659988734
20
0.958823178821802
30
0
41
1
10
58.3108184382135
20
0.889724038924925
30
0
41
1
10
58.4588014882963
20
0.806557288047657
30
0
41
1
10
58.6205792862868
20
0.715683563029955
30
0
41
1
10
58.7389432000543
20
0.649236559795611
30
0
41
1
10
58.8130943448025
20
0.607609548068609
30
0
41
1
10
58.8409852964364
20
0.591944391962386
30
0
41
1
10
58.8696273012644
20
0.575852137810983
30
0
41
1
10
58.8989835048314
20
0.559352900595314
30
0
41
1
10
58.9290163636345
20
0.542467984757508
30
0
41
1
10
58.9596868463152
20
0.525219307257942
30
0
41
1
10
58.9909540260728
20
0.507629916362589
30
0
41
1
10
59.0227749979908
20
0.489723956101727
30
0
41
1
10
59.0551048320583
20
0.471526715583991
30
0
41
1
10
59.0878963979273
20
0.453064720181516
30
0
41
1
10
59.121100738535
20
0.434365524989857
30
0
41
1
10
59.1546652804615
20
0.415458711826204
30
0
41
1
10
59.1885404500084
20
0.396372200918705
30
0
41
1
10
59.2226536328076
20
0.377146767116784
30
0
41
1
10
59.2570098109152
20
0.357779937979984
30
0
41
1
10
59.2795954876754
20
0.345044258903073
30
0
41
1
10
59.2910262035559
20
0.338598672586642
30
0
0
SPLINE
5
19E
100
AcDbEntity
8
1
62
256
6
ByLayer
370
18
48
1
60
0
100
AcDbSpline
70
4
71
3
72
9
73
5
40
0
40
0
40
0
40
0
40
0.639375944189288
40
1
40
1
40
1
40
1
41
1
10
56.1773132453421
20
2.08918779582103
30
0
41
1
10
56.2935012555238
20
2.02386466557553
30
0
41
1
10
56.4766504024033
20
1.92089470758219
30
0
41
1
10
56.661487506012
20
1.8169757516815
30
0
41
1
10
56.7282610860546
20
1.77943436698226
30
0
0
SPLINE
5
19F
100
AcDbEntity
8
1
62
256
6
ByLayer
370
18
48
1
60
0
100
AcDbSpline
70
4
71
3
72
8
73
4
40
0
40
0
40
0
40
0
40
1
40
1
40
1
40
1
41
1
10
56.1043484342981
20
2.13036231655784
30
0
41
1
10
56.1286562977688
20
2.11664740281904
30
0
41
1
10
56.1529772293111
20
2.10292153316698
30
0
41
1
10
56.1773132453472
20
2.08918779581819
30
0
0
SPLINE
5
1A0
100
AcDbEntity
8
1
62
256
6
ByLayer
370
18
48
1
60
0
100
AcDbSpline
70
4
71
3
72
10
73
6
40
0
40
0
40
0
40
0
40
0.5
40
0.5
40
1
40
1
40
1
40
1
41
1
10
57.0235095035422
20
0.314179511970821
30
0
41
1
10
57.0772942704095
20
0.233173441324084
30
0
41
1
10
57.1297893103061
20
0.151041832206602
30
0
41
1
10
57.2314846814792
20
-0.0160966622579224
30
0
41
1
10
57.2806977497073
20
-0.101092432130116
30
0
41
1
10
57.3276552905477
20
-0.188056589810884
30
0
0
SPLINE
5
1A1
100
AcDbEntity
8
1
62
256
6
ByLayer
370
18
48
1
60
0
100
AcDbSpline
70
4
71
3
72
8
73
4
40
0
40
0
40
0
40
0
40
1
40
1
40
1
40
1
41
1
10
57.2065201308583
20
0.319591264402391
30
0
41
1
10
57.1457572039559
20
0.31760143658633
30
0
41
1
10
57.0846527441114
20
0.315800662742419
30
0
41
1
10
57.0235095035422
20
0.314179511970821
30
0
0
SPLINE
5
1A2
100
AcDbEntity
8
1
62
256
6
ByLayer
370
18
48
1
60
0
100
AcDbSpline
70
4
71
3
72
8
73
4
40
0
40
0
40
0
40
0
40
1
40
1
40
1
40
1
41
1
10
56.8785655103192
20
0.668867488543981
30
0
41
1
10
56.9853097011511
20
0.55021113556549
30
0
41
1
10
57.0944004789278
20
0.433476752102877
30
0
41
1
10
57.206520130865
20
0.319591264409098
30
0
0
SPLINE
5
1A3
100
AcDbEntity
8
1
62
256
6
ByLayer
370
18
48
1
60
0
100
AcDbSpline
70
4
71
3
72
30
73
26
40
0
40
0
40
0
40
0
40
0.124999999999987
40
0.124999999999987
40
0.187499999999988
40
0.187499999999988
40
0.249999999999988
40
0.249999999999988
40
0.374999999999979
40
0.374999999999979
40
0.49999999999997
40
0.49999999999997
40
0.562499999999969
40
0.562499999999969
40
0.624999999999969
40
0.624999999999969
40
0.749999999999974
40
0.749999999999974
40
0.812499999999981
40
0.812499999999981
40
0.874999999999987
40
0.874999999999987
40
0.937499999999993
40
0.937499999999993
40
1
40
1
40
1
40
1
41
1
10
56.8785619215163
20
0.668871477842572
30
0
41
1
10
56.8306247503337
20
0.722158263327657
30
0
41
1
10
56.7883769012876
20
0.778336894450774
30
0
41
1
10
56.7312776958614
20
0.865259876465018
30
0
41
1
10
56.7133036620952
20
0.894684098259859
30
0
41
1
10
56.6791894125855
20
0.954204273513028
30
0
41
1
10
56.6630285313549
20
0.984342940665755
30
0
41
1
10
56.6170314159699
20
1.07517390148806
30
0
41
1
10
56.5901387944375
20
1.13529048163664
30
0
41
1
10
56.5409944585966
20
1.25349955458268
30
0
41
1
10
56.5187555367222
20
1.31159502823209
30
0
41
1
10
56.4869843768658
20
1.39663621907744
30
0
41
1
10
56.4766602654861
20
1.42463548169246
30
0
41
1
10
56.4562276057946
20
1.47987007914583
30
0
41
1
10
56.4461057709806
20
1.50714371307498
30
0
41
1
10
56.4156822945386
20
1.58740449165873
30
0
41
1
10
56.3953871536692
20
1.6388074978274
30
0
41
1
10
56.3620536552694
20
1.71308886903299
30
0
41
1
10
56.3504478552564
20
1.73738431361855
30
0
41
1
10
56.3254503707661
20
1.78522199991534
30
0
41
1
10
56.312054343752
20
1.80876358815897
30
0
41
1
10
56.2823880876407
20
1.8554031166332
30
0
41
1
10
56.2660817539244
20
1.87850844799578
30
0
41
1
10
56.2297564895931
20
1.92464692671402
30
0
41
1
10
56.2099198438316
20
1.94744372973838
30
0
41
1
10
56.1887810549652
20
1.97001990449681
30
0
0
SPLINE
5
1A4
100
AcDbEntity
8
1
62
256
6
ByLayer
370
18
48
1
60
0
100
AcDbSpline
70
4
71
3
72
8
73
4
40
0
40
0
40
0
40
0
40
1
40
1
40
1
40
1
41
1
10
52.1351041349552
20
3.15330363054386
30
0
41
1
10
52.1340695222412
20
3.15283016063509
30
0
41
1
10
52.1330348101787
20
3.15235607194146
30
0
41
1
10
52.132
20
3.15188136376816
30
0
0
SPLINE
5
1A5
100
AcDbEntity
8
1
62
256
6
ByLayer
370
18
48
1
60
0
100
AcDbSpline
70
4
71
3
72
8
73
4
40
0
40
0
40
0
40
0
40
1
40
1
40
1
40
1
41
1
10
56.0895079981208
20
2.13855359284446
30
0
41
1
10
56.0607785250437
20
2.1539722311594
30
0
41
1
10
56.0310488124906
20
2.16762291962075
30
0
41
1
10
56.0008446535451
20
2.17906541656288
30
0
0
SPLINE
5
1A6
100
AcDbEntity
8
1
62
256
6
ByLayer
370
18
48
1
60
0
100
AcDbSpline
70
4
71
3
72
30
73
26
40
0
40
0
40
0
40
0
40
0.0431778116811675
40
0.102076468666624
40
0.177129013470017
40
0.252966371700051
40
0.33640184528789
40
0.404661218251123
40
0.503241756072409
40
0.586452663634849
40
0.691925700279459
40
0.721965946677625
40
0.74081202753039
40
0.801992825648334
40
0.858243201778635
40
0.865023533201336
40
0.866790886750988
40
0.867235198874201
40
0.867794715797479
40
0.868284378437971
40
0.870316457628432
40
0.875507640945752
40
0.879162151599869
40
0.917648395264712
40
1
40
1
40
1
40
1
41
1
10
52.1352042989774
20
3.15387337654761
30
0
41
1
10
52.1929480466634
20
3.17787247326078
30
0
41
1
10
52.3288255332253
20
3.22598836095076
30
0
41
1
10
52.5613448311557
20
3.28004662621297
30
0
41
1
10
52.8337408511365
20
3.30746649263668
30
0
41
1
10
53.1356707473325
20
3.29990557709255
30
0
41
1
10
53.4324198046458
20
3.26216410791392
30
0
41
1
10
53.7626862038547
20
3.1952450654928
30
0
41
1
10
54.0952425470647
20
3.10113387811356
30
0
41
1
10
54.4808426164965
20
2.96269740743324
30
0
41
1
10
54.776444873777
20
2.83538695320612
30
0
41
1
10
54.985836242716
20
2.73604246767846
30
0
41
1
10
55.134941179053
20
2.66304319729477
30
0
41
1
10
55.3197166929178
20
2.56817989946686
30
0
41
1
10
55.4873927736817
20
2.47683818776198
30
0
41
1
10
55.5746513767469
20
2.42800861397794
30
0
41
1
10
55.5866882157489
20
2.42124806148001
30
0
41
1
10
55.5904975721092
20
2.41910691926779
30
0
41
1
10
55.5922833723729
20
2.41810278557872
30
0
41
1
10
55.5961250114331
20
2.41594300308708
30
0
41
1
10
55.6056100129626
20
2.4106103127161
30
0
41
1
10
55.6191001932456
20
2.40302589435603
30
0
41
1
10
55.6776166952893
20
2.37012679419817
30
0
41
1
10
55.8327705775745
20
2.28289631082515
30
0
41
1
10
55.9850013345598
20
2.19730924815531
30
0
41
1
10
56.0895079981191
20
2.13855359284551
30
0
0
SPLINE
5
1A7
100
AcDbEntity
8
1
62
256
6
ByLayer
370
18
48
1
60
0
100
AcDbSpline
70
4
71
1
72
4
73
2
40
0
40
0
40
1
40
1
41
1
10
52.1351041349552
20
3.15330363054372
30
0
41
1
10
52.1352042989774
20
3.15387337654761
30
0
0
SPLINE
5
1A8
100
AcDbEntity
8
1
62
256
6
ByLayer
370
18
48
1
60
0
100
AcDbSpline
70
4
71
3
72
18
73
14
40
0
40
0
40
0
40
0
40
0.125
40
0.125
40
0.25
40
0.25
40
0.5
40
0.5
40
0.625
40
0.625
40
0.75
40
0.75
40
1
40
1
40
1
40
1
41
1
10
52.1351041349552
20
3.15330363054372
30
0
41
1
10
52.1773076542868
20
3.17084615052872
30
0
41
1
10
52.2196824585741
20
3.18657797607941
30
0
41
1
10
52.3048478985868
20
3.21477827082168
30
0
41
1
10
52.3474991787828
20
3.22719900397064
30
0
41
1
10
52.4753633690099
20
3.25980862409966
30
0
41
1
10
52.5606872955078
20
3.27543428211007
30
0
41
1
10
52.6893088188295
20
3.29116155079035
30
0
41
1
10
52.7322873240269
20
3.29510945479186
30
0
41
1
10
52.8185232146837
20
3.3005865963267
30
0
41
1
10
52.8618323769415
20
3.30211710240843
30
0
41
1
10
52.9918084307931
20
3.30327617286699
30
0
41
1
10
53.0785291516821
20
3.29948830640026
30
0
41
1
10
53.1656039448556
20
3.29170274393277
30
0
0
SPLINE
5
1A9
100
AcDbEntity
8
1
62
256
6
ByLayer
370
18
48
1
60
0
100
AcDbSpline
70
4
71
3
72
8
73
4
40
0
40
0
40
0
40
0
40
1
40
1
40
1
40
1
41
1
10
56.1887810549654
20
1.97001990449675
30
0
41
1
10
56.1246689853832
20
2.03849113228003
30
0
41
1
10
56.061922860356
20
2.10819216101555
30
0
41
1
10
56.0008446535514
20
2.17906541656501
30
0
0
SPLINE
5
1AA
100
AcDbEntity
8
1
62
256
6
ByLayer
370
18
48
1
60
0
100
AcDbSpline
70
4
71
3
72
29
73
25
40
0
40
0
40
0
40
0
40
0.0625000000000035
40
0.0625000000000035
40
0.125000000000007
40
0.125000000000007
40
0.250000000000025
40
0.250000000000025
40
0.281250000000024
40
0.281250000000024
40
0.312500000000023
40
0.375000000000021
40
0.375000000000021
40
0.500000000000016
40
0.500000000000016
40
0.625000000000012
40
0.625000000000012
40
0.68750000000001
40
0.68750000000001
40
0.750000000000008
40
0.750000000000008
40
0.875000000000004
40
0.875000000000004
40
1
40
1
40
1
40
1
41
1
10
53.1656039448556
20
3.29170274393283
30
0
41
1
10
53.2235193660103
20
3.28652438119235
30
0
41
1
10
53.2816806080056
20
3.27987365688372
30
0
41
1
10
53.3983449640719
20
3.26375035563456
30
0
41
1
10
53.456793526811
20
3.25428606049533
30
0
41
1
10
53.6325744686015
20
3.221843294108
30
0
41
1
10
53.7503386107053
20
3.19483026262489
30
0
41
1
10
53.8985572558579
20
3.1547833522782
30
0
41
1
10
53.9282640139153
20
3.1464552582591
30
0
41
1
10
53.9876039181322
20
3.12923363884968
30
0
41
1
10
54.0765671463779
20
3.10253633547308
30
0
41
1
10
54.165427365286
20
3.07332063484429
30
0
41
1
10
54.3431058378917
20
3.01171149486007
30
0
41
1
10
54.4615022987632
20
2.96640637455536
30
0
41
1
10
54.698681002503
20
2.8681220477404
30
0
41
1
10
54.8174622107615
20
2.81514256550929
30
0
41
1
10
54.9963004295516
20
2.73040093629442
30
0
41
1
10
55.0560243003368
20
2.70127444792868
30
0
41
1
10
55.1757615279376
20
2.64132548649212
30
0
41
1
10
55.2355018812916
20
2.61064089551331
30
0
41
1
10
55.4139434057949
20
2.51688281015007
30
0
41
1
10
55.5320767391873
20
2.45199542981061
30
0
41
1
10
55.7672058081961
20
2.31830824333218
30
0
41
1
10
55.8841936988465
20
2.24948756419212
30
0
41
1
10
56.0008446535462
20
2.17906541656475
30
0
0
SPLINE
5
1AB
100
AcDbEntity
8
1
62
256
6
ByLayer
370
18
48
1
60
0
100
AcDbSpline
70
4
71
3
72
8
73
4
40
0
40
0
40
0
40
0
40
1
40
1
40
1
40
1
41
1
10
52.1351041349554
20
-0.61660861844976
30
0
41
1
10
52.1340695222413
20
-0.616312820733754
30
0
41
1
10
52.1330348101787
20
-0.616017880007803
30
0
41
1
10
52.132
20
-0.615723798566393
30
0
0
SPLINE
5
1AC
100
AcDbEntity
8
1
62
256
6
ByLayer
370
18
48
1
60
0
100
AcDbSpline
70
4
71
3
72
29
73
25
40
0
40
0
40
0
40
0
40
0.0624999999999941
40
0.0624999999999941
40
0.124999999999988
40
0.124999999999988
40
0.249999999999976
40
0.249999999999976
40
0.281249999999973
40
0.281249999999973
40
0.31249999999997
40
0.374999999999975
40
0.374999999999975
40
0.499999999999973
40
0.499999999999973
40
0.624999999999972
40
0.624999999999972
40
0.687499999999977
40
0.687499999999977
40
0.749999999999981
40
0.749999999999981
40
0.874999999999991
40
0.874999999999991
40
1
40
1
40
1
40
1
41
1
10
53.1656039448555
20
-1.11975921913799
30
0
41
1
10
53.2235193660104
20
-1.1546134979678
30
0
41
1
10
53.2816806080062
20
-1.18973554787712
30
0
41
1
10
53.398344964073
20
-1.2602870059338
30
0
41
1
10
53.4567935268124
20
-1.29568303274249
30
0
41
1
10
53.6325744686038
20
-1.40207168593187
30
0
41
1
10
53.7503386107084
20
-1.47326685403135
30
0
41
1
10
53.8985572558618
20
-1.5620711746582
30
0
41
1
10
53.9282640139194
20
-1.57982968398264
30
0
41
1
10
53.9876039181366
20
-1.61520528348916
30
0
41
1
10
54.0765671463828
20
-1.66809485985951
30
0
41
1
10
54.1654273652911
20
-1.72041033700364
30
0
41
1
10
54.3431058378979
20
-1.82413436142267
30
0
41
1
10
54.46150229877
20
-1.89207571157658
30
0
41
1
10
54.6986810025114
20
-2.0247579937228
30
0
41
1
10
54.8174622107707
20
-2.08950098509857
30
0
41
1
10
54.996300429562
20
-2.18358429854828
30
0
41
1
10
55.0560243003476
20
-2.21443990557785
30
0
41
1
10
55.1757615279494
20
-2.27502028492017
30
0
41
1
10
55.2355018813032
20
-2.30460704364671
30
0
41
1
10
55.4139434058071
20
-2.3908973691623
30
0
41
1
10
55.5320767391999
20
-2.44523317438592
30
0
41
1
10
55.7672058082097
20
-2.54692061536366
30
0
41
1
10
55.8841936988609
20
-2.59424893922534
30
0
41
1
10
56.0008446535611
20
-2.63770738421812
30
0
0
SPLINE
5
1AD
100
AcDbEntity
8
1
62
256
6
ByLayer
370
18
48
1
60
0
100
AcDbSpline
70
4
71
3
72
8
73
4
40
0
40
0
40
0
40
0
40
1
40
1
40
1
40
1
41
1
10
56.0895079981201
20
-2.65758858033777
30
0
41
1
10
56.0607785250486
20
-2.64931264194513
30
0
41
1
10
56.0310488125011
20
-2.64257487971142
30
0
41
1
10
56.0008446535618
20
-2.63770738421715
30
0
0
SPLINE
5
1AE
100
AcDbEntity
8
1
62
256
6
ByLayer
370
18
48
1
60
0
100
AcDbSpline
70
4
71
1
72
4
73
2
40
0
40
0
40
1
40
1
41
1
10
52.1351041349554
20
-0.61660861844976
30
0
41
1
10
52.1352042989776
20
-0.6158281707973
30
0
0
SPLINE
5
1AF
100
AcDbEntity
8
1
62
256
6
ByLayer
370
18
48
1
60
0
100
AcDbSpline
70
4
71
3
72
18
73
14
40
0
40
0
40
0
40
0
40
0.124999999999997
40
0.124999999999997
40
0.249999999999993
40
0.249999999999993
40
0.499999999999986
40
0.499999999999986
40
0.624999999999996
40
0.624999999999996
40
0.750000000000007
40
0.750000000000007
40
1
40
1
40
1
40
1
41
1
10
52.1351041349554
20
-0.61660861844976
30
0
41
1
10
52.1773076542868
20
-0.629098294062601
30
0
41
1
10
52.2196824585742
20
-0.643213028260931
30
0
41
1
10
52.3048478985868
20
-0.674221190837329
30
0
41
1
10
52.3474991787828
20
-0.69106679956738
30
0
41
1
10
52.4753633690099
20
-0.744837969053748
30
0
41
1
10
52.5606872955078
20
-0.785040872958149
30
0
41
1
10
52.6893088188295
20
-0.850141117183114
30
0
41
1
10
52.7322873240269
20
-0.872648978093451
30
0
41
1
10
52.8185232146836
20
-0.919064996041044
30
0
41
1
10
52.8618323769415
20
-0.943003459343771
30
0
41
1
10
52.9918084307929
20
-1.01637887740358
30
0
41
1
10
53.078529151682
20
-1.06735645570029
30
0
41
1
10
53.1656039448555
20
-1.11975921913805
30
0
0
SPLINE
5
1B0
100
AcDbEntity
8
1
62
256
6
ByLayer
370
18
48
1
60
0
100
AcDbSpline
70
4
71
3
72
8
73
4
40
0
40
0
40
0
40
0
40
1
40
1
40
1
40
1
41
1
10
59.6606107712592
20
-1.48047861387874
30
0
41
1
10
59.6861813272939
20
-1.43213789041678
30
0
41
1
10
59.7103506727667
20
-1.38281479082329
30
0
41
1
10
59.7331218513629
20
-1.33252252822217
30
0
0
SPLINE
5
1B1
100
AcDbEntity
8
1
62
256
6
ByLayer
370
18
48
1
60
0
100
AcDbSpline
70
4
71
3
72
8
73
4
40
0
40
0
40
0
40
0
40
1
40
1
40
1
40
1
41
1
10
59.7331218513678
20
-1.33252252819963
30
0
41
1
10
59.6907331694044
20
-1.28956651567785
30
0
41
1
10
59.6479578431109
20
-1.24592238236252
30
0
41
1
10
59.6047826538174
20
-1.20156450512138
30
0
0
SPLINE
5
1B2
100
AcDbEntity
8
1
62
256
6
ByLayer
370
18
48
1
60
0
100
AcDbSpline
70
4
71
1
72
4
73
2
40
0
40
0
40
1
40
1
41
1
10
52.1352042989776
20
-0.6158281707973
30
0
41
1
10
52.2352394314972
20
-0.220382178612937
30
0
0
SPLINE
5
1B3
100
AcDbEntity
8
1
62
256
6
ByLayer
370
18
48
1
60
0
100
AcDbSpline
70
4
71
3
72
30
73
26
40
0
40
0
40
0
40
0
40
0.0431778116812032
40
0.102076468666682
40
0.177129013470353
40
0.252966371700416
40
0.336401845288494
40
0.404661218251733
40
0.503241756073073
40
0.586452663636044
40
0.691925700280452
40
0.721965946678061
40
0.740812027530608
40
0.801992825648534
40
0.85824320178057
40
0.865023533203498
40
0.866790886753165
40
0.867235198876387
40
0.867794715799672
40
0.86828437844019
40
0.870316457630684
40
0.875507640948011
40
0.879162151602126
40
0.917648395266356
40
1
40
1
40
1
40
1
41
1
10
52.1352042989776
20
-0.6158281707973
30
0
41
1
10
52.1929480466637
20
-0.632921363420223
30
0
41
1
10
52.3288255332253
20
-0.680151699818538
30
0
41
1
10
52.5613448311562
20
-0.782091213065769
30
0
41
1
10
52.8337408511363
20
-0.923812390438826
30
0
41
1
10
53.1356707473327
20
-1.09994770847851
30
0
41
1
10
53.4324198046453
20
-1.28044878131217
30
0
41
1
10
53.7626862038551
20
-1.48007243796076
30
0
41
1
10
54.0952425470657
20
-1.67942269044951
30
0
41
1
10
54.4808426164955
20
-1.90351072463847
30
0
41
1
10
54.7764448737744
20
-2.06734556521496
30
0
41
1
10
54.9858362427164
20
-2.17747280192262
30
0
41
1
10
55.1349411790545
20
-2.2542731858158
30
0
41
1
10
55.3197166929238
20
-2.34595196707628
30
0
41
1
10
55.4873927736856
20
-2.42382847460286
30
0
41
1
10
55.5746513767498
20
-2.46269486469461
30
0
41
1
10
55.5866882157521
20
-2.46802527365037
30
0
41
1
10
55.5904975721125
20
-2.46970928209686
30
0
41
1
10
55.5922833723762
20
-2.47049844024934
30
0
41
1
10
55.5961250114362
20
-2.47219253771024
30
0
41
1
10
55.605610012966
20
-2.47636758256743
30
0
41
1
10
55.6191001932482
20
-2.48225011375223
30
0
41
1
10
55.6776166952933
20
-2.50754182640915
30
0
41
1
10
55.8327705775751
20
-2.57134249404604
30
0
41
1
10
55.9850013345596
20
-2.62500269928694
30
0
41
1
10
56.0895079981174
20
-2.65758858033729
30
0
0
SPLINE
5
1B4
100
AcDbEntity
8
1
62
256
6
ByLayer
370
18
48
1
60
0
100
AcDbSpline
70
4
71
3
72
8
73
4
40
0
40
0
40
0
40
0
40
1
40
1
40
1
40
1
41
1
10
56.1043484342976
20
-2.66200806179876
30
0
41
1
10
56.0994278874173
20
-2.66048091417503
30
0
41
1
10
56.0944803747309
20
-2.65900771688103
30
0
41
1
10
56.0895079981181
20
-2.65758858033752
30
0
0
SPLINE
5
1B5
100
AcDbEntity
8
1
62
256
6
ByLayer
370
18
48
1
60
0
100
AcDbSpline
70
4
71
3
72
8
73
4
40
0
40
0
40
0
40
0
40
1
40
1
40
1
40
1
41
1
10
56.1043484342982
20
-2.66200806179896
30
0
41
1
10
56.128656297765
20
-2.66955228337329
30
0
41
1
10
56.1529772293036
20
-2.6768760400883
30
0
41
1
10
56.1773132453359
20
-2.68397444677237
30
0
0
SPLINE
5
1B6
100
AcDbEntity
8
1
62
256
6
ByLayer
370
18
48
1
60
0
100
AcDbSpline
70
4
71
3
72
9
73
5
40
0
40
0
40
0
40
0
40
0.639375944292235
40
1
40
1
40
1
40
1
41
1
10
56.1773132453413
20
-2.6839744467739
30
0
41
1
10
56.2935012555248
20
-2.71757701857237
30
0
41
1
10
56.476650402376
20
-2.76239744710776
30
0
41
1
10
56.6614875059562
20
-2.79432601900041
30
0
41
1
10
56.7282610859695
20
-2.80408286833116
30
0
0
SPLINE
5
1B7
100
AcDbEntity
8
1
62
256
6
ByLayer
370
18
48
1
60
0
100
AcDbSpline
70
4
71
3
72
51
73
47
40
0
40
0
40
0
40
0
40
0.0097397429961224
40
0.020402325751007
40
0.0319926847193725
40
0.0445161984621466
40
0.0579787030079574
40
0.0723865122729457
40
0.0877464338354075
40
0.104065284384803
40
0.121349463819975
40
0.139605409565833
40
0.158839613876258
40
0.179058602683827
40
0.200268921734018
40
0.222477132079603
40
0.245689817313077
40
0.269913605244742
40
0.295155207092363
40
0.321421437188832
40
0.348717394737875
40
0.377045094944087
40
0.406405366836206
40
0.436798001262374
40
0.468221759819072
40
0.500674391843621
40
0.551361489690815
40
0.609984726515152
40
0.676540207201459
40
0.750990963153866
40
0.763060601836551
40
0.775598498830875
40
0.788604065914138
40
0.802076675487328
40
0.81601591741815
40
0.830421421635477
40
0.845292771932308
40
0.86062950093786
40
0.876431084998474
40
0.892696939034016
40
0.909426411459906
40
0.926618779279601
40
0.944273243468854
40
0.962388924790413
40
0.980964860196863
40
1
40
1
40
1
40
1
41
1
10
56.7282610859642
20
-2.8040828683304
30
0
41
1
10
56.7381779694732
20
-2.80549226596997
30
0
41
1
10
56.7589513602975
20
-2.80844460154668
30
0
41
1
10
56.7914710473967
20
-2.81273918534723
30
0
41
1
10
56.8267695749826
20
-2.81710838505839
30
0
41
1
10
56.8648428036297
20
-2.82144634098057
30
0
41
1
10
56.905690412873
20
-2.82567245523191
30
0
41
1
10
56.949308685875
20
-2.82968855843569
30
0
41
1
10
56.9956916417217
20
-2.83339114905456
30
0
41
1
10
57.0448293094375
20
-2.83666852909087
30
0
41
1
10
57.0967072901692
20
-2.83940290301626
30
0
41
1
10
57.1513058703108
20
-2.84146792899375
30
0
41
1
10
57.208600030355
20
-2.84272905204884
30
0
41
1
10
57.2685588017847
20
-2.8430431018449
30
0
41
1
10
57.3311445851695
20
-2.84225807462354
30
0
41
1
10
57.396312420398
20
-2.84021283503537
30
0
41
1
10
57.4640092400131
20
-2.83673685708422
30
0
41
1
10
57.5341730340132
20
-2.83164980264181
30
0
41
1
10
57.606732156681
20
-2.8247616631765
30
0
41
1
10
57.6816019419197
20
-2.81587083573436
30
0
41
1
10
57.7586836898123
20
-2.80477251673236
30
0
41
1
10
57.8378655054393
20
-2.79126492569293
30
0
41
1
10
57.9190175245663
20
-2.7751367703778
30
0
41
1
10
58.0019935471384
20
-2.75617035099182
30
0
41
1
10
58.0866305319177
20
-2.73413781455915
30
0
41
1
10
58.1879659988417
20
-2.70433622119009
30
0
41
1
10
58.3108184381992
20
-2.66257923561938
30
0
41
1
10
58.4588014882951
20
-2.60291544199268
30
0
41
1
10
58.6205792862815
20
-2.52511387573046
30
0
41
1
10
58.7389432000418
20
-2.45697698547011
30
0
41
1
10
58.8130943447849
20
-2.40964526332215
30
0
41
1
10
58.8409852964201
20
-2.39132962228632
30
0
41
1
10
58.8696273012494
20
-2.37195978226544
30
0
41
1
10
58.8989835048175
20
-2.35149687838475
30
0
41
1
10
58.9290163636217
20
-2.32990196685373
30
0
41
1
10
58.9596868463036
20
-2.30713543939393
30
0
41
1
10
58.9909540260624
20
-2.28315691447259
30
0
41
1
10
59.0227749979814
20
-2.25792542190055
30
0
41
1
10
59.0551048320499
20
-2.23139947726216
30
0
41
1
10
59.0878963979198
20
-2.20353704825243
30
0
41
1
10
59.1211007385285
20
-2.17429606305711
30
0
41
1
10
59.1546652804559
20
-2.14363278947525
30
0
41
1
10
59.1885404500036
20
-2.11150851317683
30
0
41
1
10
59.2226536328036
20
-2.07786399412441
30
0
41
1
10
59.2570098109119
20
-2.04271893658117
30
0
41
1
10
59.2795954876727
20
-2.01839414601713
30
0
41
1
10
59.2910262035533
20
-2.00608325656532
30
0
0
SPLINE
5
1B8
100
AcDbEntity
8
1
62
256
6
ByLayer
370
18
48
1
60
0
100
AcDbSpline
70
4
71
3
72
10
73
6
40
0
40
0
40
0
40
0
40
0.120771949027659
40
0.773579679825375
40
1
40
1
40
1
40
1
41
1
10
59.2910262035538
20
-2.00608325656486
30
0
41
1
10
59.308426910011
20
-1.98708841636736
30
0
41
1
10
59.4179975851909
20
-1.86364321632522
30
0
41
1
10
59.5437419735492
20
-1.68966012324813
30
0
41
1
10
59.6375747476033
20
-1.52395387940186
30
0
41
1
10
59.6606107712592
20
-1.48047861387874
30
0
0
SPLINE
5
1B9
100
AcDbEntity
8
1
62
256
6
ByLayer
370
18
48
1
60
0
100
AcDbSpline
70
4
71
3
72
8
73
4
40
0
40
0
40
0
40
0
40
1
40
1
40
1
40
1
41
1
10
59.6047826532067
20
-1.2015644941298
30
0
41
1
10
59.5132558940123
20
-1.09097504512914
30
0
41
1
10
59.4218894205905
20
-0.980692161198704
30
0
41
1
10
59.3307229690298
20
-0.87079111056957
30
0
0
SPLINE
5
1BA
100
AcDbEntity
8
1
62
256
6
ByLayer
370
18
48
1
60
0
100
AcDbSpline
70
4
71
3
72
31
73
27
40
0
40
0
40
0
40
0
40
0.125000000000034
40
0.125000000000034
40
0.250000000000068
40
0.250000000000068
40
0.281250000000073
40
0.281250000000073
40
0.312500000000077
40
0.375000000000079
40
0.375000000000079
40
0.500000000000082
40
0.500000000000082
40
0.562500000000079
40
0.562500000000079
40
0.593750000000072
40
0.593750000000072
40
0.625000000000066
40
0.750000000000051
40
0.750000000000051
40
0.875000000000036
40
0.875000000000036
40
0.90625000000003
40
0.90625000000003
40
0.937500000000023
40
1
40
1
40
1
40
1
41
1
10
59.3307229690298
20
-0.87079111056957
30
0
41
1
10
59.2809413593917
20
-0.962722136158277
30
0
41
1
10
59.225697011799
20
-1.04868218310719
30
0
41
1
10
59.1043673187899
20
-1.20875265745894
30
0
41
1
10
59.0382402134558
20
-1.28281743969669
30
0
41
1
10
58.9483255320161
20
-1.36746755465265
30
0
41
1
10
58.9299695962254
20
-1.38400191905848
30
0
41
1
10
58.8928135983426
20
-1.41599550971253
30
0
41
1
10
58.8363066385305
20
-1.46247705458575
30
0
41
1
10
58.7774931571037
20
-1.50445621748071
30
0
41
1
10
58.6568179859231
20
-1.58246437217519
30
0
41
1
10
58.5723415544132
20
-1.62661034669264
30
0
41
1
10
58.439438753809
20
-1.68074989421058
30
0
41
1
10
58.3940913209443
20
-1.69675361986123
30
0
41
1
10
58.3244694195218
20
-1.7176345042474
30
0
41
1
10
58.3009467724503
20
-1.72408644444877
30
0
41
1
10
58.2536346236431
20
-1.7358743183496
30
0
41
1
10
58.1347559822312
20
-1.76254201210287
30
0
41
1
10
58.0129273364032
20
-1.77539337846105
30
0
41
1
10
57.8143727350021
20
-1.7789602518429
30
0
41
1
10
57.7132702455209
20
-1.77219542819421
30
0
41
1
10
57.5846028889485
20
-1.75301773517344
30
0
41
1
10
57.5587421277275
20
-1.74864197842561
30
0
41
1
10
57.5071768422876
20
-1.73887814551114
30
0
41
1
10
57.4299206023897
20
-1.72269507813351
30
0
41
1
10
57.3529364596121
20
-1.70194981494311
30
0
41
1
10
57.3017322521153
20
-1.68613186329154
30
0
0
SPLINE
5
1BB
100
AcDbEntity
8
1
62
256
6
ByLayer
370
18
48
1
60
0
100
AcDbSpline
70
4
71
1
72
4
73
2
40
0
40
0
40
1
40
1
41
1
10
52.2352394314972
20
-0.220382178612937
30
0
41
1
10
52.5266144984838
20
0.642165788785121
30
0
0
SPLINE
5
1BC
100
AcDbEntity
8
1
62
256
6
ByLayer
370
18
48
1
60
0
100
AcDbSpline
70
4
71
3
72
40
73
36
40
0
40
0
40
0
40
0
40
0.0203619686649371
40
0.048137637723851
40
0.083531223132938
40
0.119294914060897
40
0.158641755241462
40
0.19083178894738
40
0.237320801334375
40
0.276561740752242
40
0.326301145866285
40
0.34046764787318
40
0.34935515960281
40
0.378207050091632
40
0.404733832056593
40
0.407931328423267
40
0.408764784223757
40
0.408974314748307
40
0.409238174022685
40
0.409469091129283
40
0.410427387327965
40
0.412875466744814
40
0.414598875795143
40
0.432748375665775
40
0.478566285705798
40
0.525440691050576
40
0.579752518109785
40
0.662040334084957
40
0.717221864421314
40
0.772581970682187
40
0.800308395304505
40
0.828044012065107
40
0.910996419652853
40
0.965617903836788
40
1
40
1
40
1
40
1
41
1
10
52.2352394314972
20
-0.220382178612937
30
0
41
1
10
52.2911134867238
20
-0.236907943463791
30
0
41
1
10
52.4221057547879
20
-0.282776911170515
30
0
41
1
10
52.6459160280114
20
-0.382688730944778
30
0
41
1
10
52.9079844511117
20
-0.522452533488519
30
0
41
1
10
53.1989790712886
20
-0.697098635830571
30
0
41
1
10
53.4846375721529
20
-0.876657484114702
30
0
41
1
10
53.8025513997965
20
-1.0759174748338
30
0
41
1
10
54.1237399115106
20
-1.27584899639658
30
0
41
1
10
54.4965578216726
20
-1.50175547628089
30
0
41
1
10
54.7831586421768
20
-1.66799941514756
30
0
41
1
10
54.9862305323237
20
-1.78036013690377
30
0
41
1
10
55.1313143672954
20
-1.85889474495605
30
0
41
1
10
55.311289950544
20
-1.95298076165105
30
0
41
1
10
55.4748054587537
20
-2.03343063011351
30
0
41
1
10
55.5598684176905
20
-2.07372472012244
30
0
41
1
10
55.5716801952795
20
-2.07926664921499
30
0
41
1
10
55.5752851108777
20
-2.08102367142226
30
0
41
1
10
55.5773635837058
20
-2.08180336854389
30
0
41
1
10
55.5815345282202
20
-2.08354581766025
30
0
41
1
10
55.5920386673307
20
-2.08779474561854
30
0
41
1
10
55.6067935802986
20
-2.09381230791072
30
0
41
1
10
55.6710534069369
20
-2.11965324063039
30
0
41
1
10
55.8590980719233
20
-2.19294869000771
30
0
41
1
10
56.1743014914001
20
-2.29877123461378
30
0
41
1
10
56.5865092508821
20
-2.40226153469146
30
0
41
1
10
57.0896943907286
20
-2.47799542077974
30
0
41
1
10
57.5935965014563
20
-2.47753887389007
30
0
41
1
10
58.0672997959279
20
-2.39610726624321
30
0
41
1
10
58.3835049408986
20
-2.29230538071161
30
0
41
1
10
58.6203618798582
20
-2.18241270855208
30
0
41
1
10
58.9014312097181
20
-2.02315476067696
30
0
41
1
10
59.1998206449727
20
-1.78106258989558
30
0
41
1
10
59.4540888569149
20
-1.46341065559952
30
0
41
1
10
59.5651530409748
20
-1.27690639231505
30
0
41
1
10
59.6047826562858
20
-1.20156449353735
30
0
0
SPLINE
5
1BD
100
AcDbEntity
8
1
62
256
6
ByLayer
370
18
48
1
60
0
100
AcDbSpline
70
4
71
3
72
8
73
4
40
0
40
0
40
0
40
0
40
1
40
1
40
1
40
1
41
1
10
57.421967186663
20
-1.41574945817513
30
0
41
1
10
57.385175840315
20
-1.50864985312285
30
0
41
1
10
57.3453561772801
20
-1.59899552185942
30
0
41
1
10
57.3017322521157
20
-1.68613186329131
30
0
0
SPLINE
5
1BE
100
AcDbEntity
8
1
62
256
6
ByLayer
370
18
48
1
60
0
100
AcDbSpline
70
4
71
3
72
8
73
4
40
0
40
0
40
0
40
0
40
1
40
1
40
1
40
1
41
1
10
52.3026380187304
20
0.834296128364315
30
0
41
1
10
52.2457031380677
20
0.85192506687963
30
0
41
1
10
52.1888215998187
20
0.869570354020851
30
0
41
1
10
52.1320000000001
20
0.887253541742268
30
0
0
SPLINE
5
1BF
100
AcDbEntity
8
1
62
256
6
ByLayer
370
18
48
1
60
0
100
AcDbSpline
70
4
71
3
72
8
73
4
40
0
40
0
40
0
40
0
40
1
40
1
40
1
40
1
41
1
10
52.3026380187304
20
0.834296128364315
30
0
41
1
10
52.3784232895233
20
0.771851408329667
30
0
41
1
10
52.4530774002005
20
0.707801268665918
30
0
41
1
10
52.5266144984837
20
0.642165788785121
30
0
0
SPLINE
5
1C0
100
AcDbEntity
8
1
62
256
6
ByLayer
370
18
48
1
60
0
100
AcDbSpline
70
4
71
3
72
62
73
58
40
0
40
0
40
0
40
0
40
0.0312499999999265
40
0.0468749999998898
40
0.0468749999998898
40
0.0624999999998531
40
0.0624999999998531
40
0.124999999999719
40
0.124999999999719
40
0.187499999999585
40
0.187499999999585
40
0.203124999999554
40
0.203124999999554
40
0.218749999999524
40
0.218749999999524
40
0.249999999999464
40
0.249999999999464
40
0.312499999999335
40
0.312499999999335
40
0.328124999999305
40
0.328124999999305
40
0.33593749999929
40
0.33593749999929
40
0.339843749999282
40
0.339843749999282
40
0.340820312499282
40
0.340820312499282
40
0.341796874999282
40
0.341796874999282
40
0.343749999999281
40
0.343749999999281
40
0.374999999999302
40
0.374999999999302
40
0.437499999999352
40
0.437499999999352
40
0.453124999999366
40
0.453124999999366
40
0.46874999999938
40
0.499999999999414
40
0.499999999999414
40
0.62499999999955
40
0.62499999999955
40
0.687499999999616
40
0.687499999999616
40
0.703124999999632
40
0.703124999999632
40
0.718749999999649
40
0.749999999999687
40
0.812499999999764
40
0.812499999999764
40
0.874999999999841
40
0.874999999999841
40
0.937499999999918
40
0.937499999999918
40
0.968749999999959
40
0.968749999999959
40
1
40
1
40
1
40
1
41
1
10
57.3017322521156
20
-1.68613186329131
30
0
41
1
10
57.2499969485709
20
-1.6952622324072
30
0
41
1
10
57.1715125663873
20
-1.70600660247669
30
0
41
1
10
57.0916829300583
20
-1.71245424234746
30
0
41
1
10
57.0381615875332
20
-1.71581214059231
30
0
41
1
10
57.0112103975202
20
-1.71702190462014
30
0
41
1
10
56.8765034405047
20
-1.72072613208479
30
0
41
1
10
56.7684702507688
20
-1.71624066322568
30
0
41
1
10
56.5514699290249
20
-1.69400591908317
30
0
41
1
10
56.4425046378418
20
-1.67625963772619
30
0
41
1
10
56.3054715886015
20
-1.64656243493724
30
0
41
1
10
56.2780235462925
20
-1.6402458996032
30
0
41
1
10
56.2230379529986
20
-1.6268726689062
30
0
41
1
10
56.1955498352732
20
-1.61982714698416
30
0
41
1
10
56.1133892438201
20
-1.59773199826387
30
0
41
1
10
56.0588974447865
20
-1.58169599471114
30
0
41
1
10
55.8961409578018
20
-1.52997575027885
30
0
41
1
10
55.7885946526752
20
-1.49067391627904
30
0
41
1
10
55.6549991726904
20
-1.4363393042612
30
0
41
1
10
55.6283216527319
20
-1.42521462978112
30
0
41
1
10
55.5883598051467
20
-1.40816702645256
30
0
41
1
10
55.5750479969015
20
-1.40242619127372
30
0
41
1
10
55.5550963252514
20
-1.39370574553379
30
0
41
1
10
55.5484479250718
20
-1.39078408161362
30
0
41
1
10
55.5401391579539
20
-1.38711949552697
30
0
41
1
10
55.538483211125
20
-1.38634825318255
30
0
41
1
10
55.5351437161561
20
-1.38498757082195
30
0
41
1
10
55.5334750630409
20
-1.38430004784027
30
0
41
1
10
55.5284719072016
20
-1.38221900122338
30
0
41
1
10
55.5251374150262
20
-1.38082543082146
30
0
41
1
10
55.4684543547686
20
-1.3571130323395
30
0
41
1
10
55.4152454353183
20
-1.33387421822576
30
0
41
1
10
55.2559778758071
20
-1.26140495494047
30
0
41
1
10
55.150266601981
20
-1.20949759712079
30
0
41
1
10
55.0184527552069
20
-1.1405988910162
30
0
41
1
10
54.9920794250362
20
-1.12660922665799
30
0
41
1
10
54.9394919631192
20
-1.09832482559605
30
0
41
1
10
54.8609073029543
20
-1.0554618334634
30
0
41
1
10
54.7831999412126
20
-1.01131134861095
30
0
41
1
10
54.5259354583812
20
-0.861578149242149
30
0
41
1
10
54.3256944102702
20
-0.733677439481824
30
0
41
1
10
54.0312164091941
20
-0.533573572335399
30
0
41
1
10
53.9340454122853
20
-0.465484846010611
30
0
41
1
10
53.8136441658334
20
-0.378920969290363
30
0
41
1
10
53.7896103839784
20
-0.361530000354946
30
0
41
1
10
53.741842864862
20
-0.326754551976933
30
0
41
1
10
53.6705682222065
20
-0.274547617987508
30
0
41
1
10
53.506794184325
20
-0.152518129851074
30
0
41
1
10
53.3705102153697
20
-0.0478141913530692
30
0
41
1
10
53.1922605763164
20
0.0915708854184345
30
0
41
1
10
53.1048811041137
20
0.161160399188674
30
0
41
1
10
52.9335723224166
20
0.29988621928689
30
0
41
1
10
52.8496378866284
20
0.369020050879811
30
0
41
1
10
52.7262483141192
20
0.472177456941296
30
0
41
1
10
52.6854888728389
20
0.506520806364421
30
0
41
1
10
52.6051631016609
20
0.574706634304675
30
0
41
1
10
52.56559278198
20
0.608560150715277
30
0
41
1
10
52.5266144984838
20
0.642165788785121
30
0
0
SPLINE
5
1C1
100
AcDbEntity
8
1
62
256
6
ByLayer
370
18
48
1
60
0
100
AcDbSpline
70
4
71
3
72
8
73
4
40
0
40
0
40
0
40
0
40
1
40
1
40
1
40
1
41
1
10
59.9880189425239
20
-0.0619586217896426
30
0
41
1
10
59.9878596886256
20
-0.061101172163319
30
0
41
1
10
59.987700389014
20
-0.060243729093969
30
0
41
1
10
59.9875410434484
20
-0.059386292616125
30
0
0
SPLINE
5
1C2
100
AcDbEntity
8
1
62
256
6
ByLayer
370
18
48
1
60
0
100
AcDbSpline
70
4
71
3
72
8
73
4
40
0
40
0
40
0
40
0
40
1
40
1
40
1
40
1
41
1
10
59.9878245104699
20
0.0615106090295399
30
0
41
1
10
59.9877300375978
20
0.0610070704182135
30
0
41
1
10
59.9876355486074
20
0.0605035340726658
30
0
41
1
10
59.9875410434484
20
0.0600000000000307
30
0
0
SPLINE
5
1C3
100
AcDbEntity
8
1
62
256
6
ByLayer
370
18
48
1
60
0
100
AcDbSpline
70
4
71
3
72
8
73
4
40
0
40
0
40
0
40
0
40
1
40
1
40
1
40
1
41
1
10
59.9995155682677
20
0.0600000000000307
30
0
41
1
10
59.9995195469579
20
0.0597100032600508
30
0
41
1
10
59.9995235167271
20
0.0594200063781614
30
0
41
1
10
59.9995274775748
20
0.0591300093543339
30
0
0
SPLINE
5
1C4
100
AcDbEntity
8
1
62
256
6
ByLayer
370
18
48
1
60
0
100
AcDbSpline
70
4
71
3
72
8
73
4
40
0
40
0
40
0
40
0
40
1
40
1
40
1
40
1
41
1
10
59.9874608110308
20
0.0004400003599017
30
0
41
1
10
59.9914932060028
20
-0.0194965115816217
30
0
41
1
10
59.9954894027041
20
-0.0394386326428275
30
0
41
1
10
59.9994498542169
20
-0.0593862926161535
30
0
0
SPLINE
5
1C5
100
AcDbEntity
8
1
62
256
6
ByLayer
370
18
48
1
60
0
100
AcDbSpline
70
4
71
3
72
19
73
15
40
0
40
0
40
0
40
0
40
0.144107738611385
40
0.144107738611385
40
0.288215477222769
40
0.288215477222769
40
0.576430954445514
40
0.576430954445514
40
0.6484848237512
40
0.6484848237512
40
0.720538693056886
40
0.864646431668259
40
0.864646431668259
40
1
40
1
40
1
40
1
41
1
10
53.1656039448557
20
-4.49005464467828
30
0
41
1
10
53.2235193660103
20
-4.51998531605651
30
0
41
1
10
53.2816806080056
20
-4.54868418602865
30
0
41
1
10
53.3983449640718
20
-4.60351315336749
30
0
41
1
10
53.4567935268109
20
-4.6296179748509
30
0
41
1
10
53.6325744686012
20
-4.70400274600019
30
0
41
1
10
53.750338610705
20
-4.74837062434148
30
0
41
1
10
53.8985572558574
20
-4.79723037505138
30
0
41
1
10
53.9282640139147
20
-4.80667474495399
30
0
41
1
10
53.9876039181318
20
-4.82484366029826
30
0
41
1
10
54.0765671463775
20
-4.85103893052491
30
0
41
1
10
54.1654273652854
20
-4.8740844954616
30
0
41
1
10
54.2802818453397
20
-4.90119032654005
30
0
41
1
10
54.3358978492787
20
-4.91309707100362
30
0
41
1
10
54.3915272985573
20
-4.92378292737502
30
0
0
SPLINE
5
1C6
100
AcDbEntity
8
1
62
256
6
ByLayer
370
18
48
1
60
0
100
AcDbSpline
70
4
71
3
72
10
73
6
40
0
40
0
40
0
40
0
40
0.8881954716643
40
0.8881954716643
40
1
40
1
40
1
40
1
41
1
10
54.9887582885025
20
-4.99142126577226
30
0
41
1
10
55.0310717233043
20
-4.9928683674438
30
0
41
1
10
55.0734459387179
20
-4.99360355303841
30
0
41
1
10
55.1212360668722
20
-4.9936182690717
30
0
41
1
10
55.1265781979894
20
-4.99360848218538
30
0
41
1
10
55.1319192139455
20
-4.99358727999299
30
0
0
SPLINE
5
1C7
100
AcDbEntity
8
1
62
256
6
ByLayer
370
18
48
1
60
0
100
AcDbSpline
70
4
71
3
72
8
73
4
40
0
40
0
40
0
40
0
40
1
40
1
40
1
40
1
41
1
10
55.9541074507546
20
-4.89929513014673
30
0
41
1
10
55.9696929035026
20
-4.89576169202755
30
0
41
1
10
55.9852717809903
20
-4.89212938892831
30
0
41
1
10
56.0008446535442
20
-4.88839828061518
30
0
0
SPLINE
5
1C8
100
AcDbEntity
8
1
62
256
6
ByLayer
370
18
48
1
60
0
100
AcDbSpline
70
4
71
3
72
30
73
26
40
0
40
0
40
0
40
0
40
0.0431778116814271
40
0.102076468667451
40
0.177129013470561
40
0.252966371700969
40
0.336401845289078
40
0.404661218253143
40
0.503241756074657
40
0.586452663638199
40
0.691925700282681
40
0.721965946680237
40
0.740812027532994
40
0.80199282565156
40
0.858243201783256
40
0.86502353320613
40
0.866790886755812
40
0.867235198879035
40
0.867794715802324
40
0.868284378442824
40
0.870316457633324
40
0.875507640950683
40
0.879162151604798
40
0.917648395269354
40
1
40
1
40
1
40
1
41
1
10
52.1352042989775
20
-3.84028024229491
30
0
41
1
10
52.1929480466642
20
-3.88203781045354
30
0
41
1
10
52.3288255332253
20
-3.97885178677086
30
0
41
1
10
52.5613448311537
20
-4.13700368097054
30
0
41
1
10
52.8337408511384
20
-4.30816757777686
30
0
41
1
10
53.1356707473322
20
-4.47840824615739
30
0
41
1
10
53.4324198046477
20
-4.62226473912509
30
0
41
1
10
53.7626862038527
20
-4.75566978674439
30
0
41
1
10
54.0952425470678
20
-4.8610528125424
30
0
41
1
10
54.4808426164932
20
-4.94620149330456
30
0
41
1
10
54.7764448737747
20
-4.98182686276169
30
0
41
1
10
54.9858362427163
20
-4.99172497692288
30
0
41
1
10
55.1349411790557
20
-4.99483345176179
30
0
41
1
10
55.3197166929232
20
-4.99066488839736
30
0
41
1
10
55.4873927736876
20
-4.9761447040014
30
0
41
1
10
55.5746513767535
20
-4.96558897428321
30
0
41
1
10
55.5866882157556
20
-4.96407626739773
30
0
41
1
10
55.5904975721161
20
-4.9635929415879
30
0
41
1
10
55.5922833723797
20
-4.96336567661257
30
0
41
1
10
55.5961250114399
20
-4.96287352427285
30
0
41
1
10
55.6056100129697
20
-4.96165044777237
30
0
41
1
10
55.6191001932516
20
-4.95985492860279
30
0
41
1
10
55.6776166952977
20
-4.95183906556869
30
0
41
1
10
55.8327705775727
20
-4.92729251456288
30
0
41
1
10
55.9850013345547
20
-4.89417758967963
30
0
41
1
10
56.0895079981094
20
-4.86714826503678
30
0
0
SPLINE
5
1C9
100
AcDbEntity
8
1
62
256
6
ByLayer
370
18
48
1
60
0
100
AcDbSpline
70
4
71
3
72
8
73
4
40
0
40
0
40
0
40
0
40
1
40
1
40
1
40
1
41
1
10
56.1043484342974
20
-4.86325536285753
30
0
41
1
10
56.1286562977956
20
-4.85688339054451
30
0
41
1
10
56.1529772293656
20
-4.85027749607087
30
0
41
1
10
56.1773132454294
20
-4.8434358948752
30
0
0
SPLINE
5
1CA
100
AcDbEntity
8
1
62
256
6
ByLayer
370
18
48
1
60
0
100
AcDbSpline
70
4
71
3
72
8
73
4
40
0
40
0
40
0
40
0
40
1
40
1
40
1
40
1
41
1
10
56.0895079981157
20
4.87235231811866
30
0
41
1
10
56.0607785250454
20
4.87948585395387
30
0
41
1
10
56.0310488124993
20
4.88640266394842
30
0
41
1
10
56.0008446535612
20
4.89299680904094
30
0
0
SPLINE
5
1CB
100
AcDbEntity
8
1
62
256
6
ByLayer
370
18
48
1
60
0
100
AcDbSpline
70
4
71
3
72
12
73
8
40
0
40
0
40
0
40
0
40
0.0173191067695719
40
0.0173191067695719
40
0.508659553384786
40
0.508659553384786
40
1
40
1
40
1
40
1
41
1
10
55.2823989016451
20
4.98737303814625
30
0
41
1
10
55.2865946582516
20
4.98723013260266
30
0
41
1
10
55.2907891695611
20
4.9870801919653
30
0
41
1
10
55.4139434058068
20
4.98247005602227
30
0
41
1
10
55.5320767391995
20
4.97235423184153
30
0
41
1
10
55.7672058082091
20
4.94104335497764
30
0
41
1
10
55.8841936988602
20
4.91980342705335
30
0
41
1
10
56.0008446535606
20
4.89299680904108
30
0
0
SPLINE
5
1CC
100
AcDbEntity
8
1
62
256
6
ByLayer
370
18
48
1
60
0
100
AcDbSpline
70
4
71
3
72
8
73
4
40
0
40
0
40
0
40
0
40
1
40
1
40
1
40
1
41
1
10
56.1043484342967
20
-4.86325536285767
30
0
41
1
10
56.0994278874139
20
-4.86454521659184
30
0
41
1
10
56.0944803747249
20
-4.86584302870264
30
0
41
1
10
56.0895079981094
20
-4.86714826503678
30
0
0
SPLINE
5
1CD
100
AcDbEntity
8
1
62
256
6
ByLayer
370
18
48
1
60
0
100
AcDbSpline
70
4
71
3
72
8
73
4
40
0
40
0
40
0
40
0
40
1
40
1
40
1
40
1
41
1
10
56.0895079981114
20
-4.86714826503629
30
0
41
1
10
56.0607785250367
20
-4.87451937220771
30
0
41
1
10
56.0310488124858
20
-4.88164060499216
30
0
41
1
10
56.0008446535429
20
-4.88839828061521
30
0
0
SPLINE
5
1CE
100
AcDbEntity
8
1
62
256
6
ByLayer
370
18
48
1
60
0
100
AcDbSpline
70
4
71
3
72
10
73
6
40
0
40
0
40
0
40
0
40
0.0250100788085172
40
0.335539438399209
40
1
40
1
40
1
40
1
41
1
10
55.6230542223488
20
4.96014253108478
30
0
41
1
10
55.6268899854742
20
4.9596596541418
30
0
41
1
10
55.6783081671365
20
4.95311419635763
30
0
41
1
10
55.8327705775786
20
4.93018459175394
30
0
41
1
10
55.9850013345594
20
4.89846581586141
30
0
41
1
10
56.0895079981149
20
4.87235231811886
30
0
0
SPLINE
5
1CF
100
AcDbEntity
8
1
62
256
6
ByLayer
370
18
48
1
60
0
100
AcDbSpline
70
4
71
3
72
8
73
4
40
0
40
0
40
0
40
0
40
1
40
1
40
1
40
1
41
1
10
56.104348434297
20
4.86858585645925
30
0
41
1
10
56.0994278874155
20
4.86983256253129
30
0
41
1
10
56.0944803747279
20
4.87108822531835
30
0
41
1
10
56.0895079981137
20
4.87235231811914
30
0
0
SPLINE
5
1D0
100
AcDbEntity
8
1
62
256
6
ByLayer
370
18
48
1
60
0
100
AcDbSpline
70
4
71
3
72
8
73
4
40
0
40
0
40
0
40
0
40
1
40
1
40
1
40
1
41
1
10
56.1043484342976
20
4.86858585645911
30
0
41
1
10
56.1286562977778
20
4.86242703677325
30
0
41
1
10
56.1529772293297
20
4.85603219430638
30
0
41
1
10
56.1773132453754
20
4.84939946455265
30
0
0
SPLINE
5
1D1
100
AcDbEntity
8
1
62
256
6
ByLayer
370
18
48
1
60
0
100
AcDbSpline
70
4
71
3
72
8
73
4
40
0
40
0
40
0
40
0
40
1
40
1
40
1
40
1
41
1
10
59.999527477527
20
0.0591300077691415
30
0
41
1
10
59.9956215307487
20
0.0392645689345557
30
0
41
1
10
59.9916749715972
20
0.0194053087103327
30
0
41
1
10
59.987687224499
20
-0.0004476823430366
30
0
0
LINE
5
7F
100
AcDbEntity
8
80
62
256
6
ByLayer
370
18
48
1
60
0
100
AcDbLine
10
0
20
0
30
0
11
-3
21
0
31
0
39
0
210
0
220
0
230
1
0
LINE
5
80
100
AcDbEntity
8
81
62
256
6
ByLayer
370
18
48
1
60
0
100
AcDbLine
10
60
20
0
30
0
11
63
21
0
31
0
39
0
210
0
220
0
230
1
0
LINE
5
81
100
AcDbEntity
8
4
62
256
6
ByLayer
370
18
48
0.05
60
0
100
AcDbLine
10
0
20
0
30
0
11
63
21
0
31
0
39
0
210
0
220
0
230
1
0
LINE
5
83
100
AcDbEntity
8
SK4
62
256
6
ByLayer
370
18
48
0.05
60
0
100
AcDbLine
10
-43
20
0
30
0
11
63
21
0
31
0
39
0
210
0
220
0
230
1
0
LINE
5
85
100
AcDbEntity
8
81
62
256
6
ByLayer
370
13
48
1
60
0
100
AcDbLine
10
-40
20
-4.984
30
0
11
-40
21
-4.07613
31
0
39
0
210
0
220
0
230
1
0
LINE
5
86
100
AcDbEntity
8
81
62
256
6
ByLayer
370
13
48
1
60
0
100
AcDbLine
10
-40
20
-4.095678
30
0
11
-40
21
-3.998406
31
0
39
0
210
0
220
0
230
1
0
LINE
5
87
100
AcDbEntity
8
81
62
256
6
ByLayer
370
18
48
1
60
0
100
AcDbLine
10
-48.06379
20
0
30
0
11
-48.36379
21
0
31
0
39
0
210
0
220
0
230
1
0
LINE
5
88
100
AcDbEntity
8
81
62
256
6
ByLayer
370
18
48
1
60
0
100
AcDbLine
10
-44.984
20
0
30
0
11
-47.852
21
0
31
0
39
0
210
0
220
0
230
1
0
LINE
5
89
100
AcDbEntity
8
81
62
256
6
ByLayer
370
18
48
1
60
0
100
AcDbLine
10
51.92021
20
0
30
0
11
52.131235
21
0
31
0
39
0
210
0
220
0
230
1
0
LINE
5
8A
100
AcDbEntity
8
81
62
256
6
ByLayer
370
18
48
1
60
0
100
AcDbLine
10
-40
20
4.984
30
0
11
-40
21
4.07613
31
0
39
0
210
0
220
0
230
1
0
LINE
5
8B
100
AcDbEntity
8
81
62
256
6
ByLayer
370
18
48
1
60
0
100
AcDbLine
10
-40
20
0
30
0
11
-44.984
21
0
31
0
39
0
210
0
220
0
230
1
0
LINE
5
8C
100
AcDbEntity
8
81
62
256
6
ByLayer
370
18
48
1
60
0
100
AcDbLine
10
-40
20
0
30
0
11
-40
21
4.984
31
0
39
0
210
0
220
0
230
1
0
LINE
5
8D
100
AcDbEntity
8
81
62
256
6
ByLayer
370
18
48
1
60
0
100
AcDbLine
10
-47.852765
20
0
30
0
11
-47.852
21
0
31
0
39
0
210
0
220
0
230
1
0
LINE
5
8E
100
AcDbEntity
8
81
62
256
6
ByLayer
370
18
48
1
60
0
100
AcDbLine
10
-49.642226
20
0
30
0
11
-48.36379
21
0
31
0
39
0
210
0
220
0
230
1
0
LINE
5
8F
100
AcDbEntity
8
81
62
256
6
ByLayer
370
18
48
1
60
0
100
AcDbLine
10
-49.642226
20
0
30
0
11
-48.36379
21
0
31
0
39
0
210
0
220
0
230
1
0
LINE
5
90
100
AcDbEntity
8
81
62
256
6
ByLayer
370
18
48
1
60
0
100
AcDbLine
10
-48.06379
20
0
30
0
11
-47.852765
21
0
31
0
39
0
210
0
220
0
230
1
0
LINE
5
91
100
AcDbEntity
8
81
62
256
6
ByLayer
370
18
48
1
60
0
100
AcDbLine
10
-40
20
-8.06379
30
0
11
-40
21
-8.36379
31
0
39
0
210
0
220
0
230
1
0
LINE
5
92
100
AcDbEntity
8
81
62
256
6
ByLayer
370
18
48
1
60
0
100
AcDbLine
10
-40
20
-7.852765
30
0
11
-40
21
-7.852
31
0
39
0
210
0
220
0
230
1
0
LINE
5
93
100
AcDbEntity
8
81
62
256
6
ByLayer
370
18
48
1
60
0
100
AcDbLine
10
55
20
0
30
0
11
52.132
21
0
31
0
39
0
210
0
220
0
230
1
0
LINE
5
94
100
AcDbEntity
8
81
62
256
6
ByLayer
370
18
48
1
60
0
100
AcDbLine
10
-40
20
-9.642226
30
0
11
-40
21
-8.36379
31
0
39
0
210
0
220
0
230
1
0
LINE
5
95
100
AcDbEntity
8
81
62
256
6
ByLayer
370
13
48
1
60
0
100
AcDbLine
10
-40
20
0
30
0
11
-40
21
-4.984
31
0
39
0
210
0
220
0
230
1
0
LINE
5
96
100
AcDbEntity
8
81
62
256
6
ByLayer
370
18
48
1
60
0
100
AcDbLine
10
-40
20
4.095678
30
0
11
-40
21
3.998406
31
0
39
0
210
0
220
0
230
1
0
LINE
5
97
100
AcDbEntity
8
81
62
256
6
ByLayer
370
18
48
1
60
0
100
AcDbLine
10
52.131235
20
0
30
0
11
52.132
21
0
31
0
39
0
210
0
220
0
230
1
0
LINE
5
98
100
AcDbEntity
8
81
62
256
6
ByLayer
370
18
48
1
60
0
100
AcDbLine
10
-40
20
4.075485
30
0
11
-40
21
4.07613
31
0
39
0
210
0
220
0
230
1
0
LINE
5
99
100
AcDbEntity
8
81
62
256
6
ByLayer
370
13
48
1
60
0
100
AcDbLine
10
-40
20
-3.998406
30
0
11
-40
21
-4.075485
31
0
39
0
210
0
220
0
230
1
0
LINE
5
9A
100
AcDbEntity
8
81
62
256
6
ByLayer
370
18
48
1
60
0
100
AcDbLine
10
-40
20
0
30
0
11
-40
21
-4.984
31
0
39
0
210
0
220
0
230
1
0
LINE
5
9B
100
AcDbEntity
8
81
62
256
6
ByLayer
370
18
48
1
60
0
100
AcDbLine
10
-40
20
3.998406
30
0
11
-40
21
4.075485
31
0
39
0
210
0
220
0
230
1
0
LINE
5
9C
100
AcDbEntity
8
81
62
256
6
ByLayer
370
13
48
1
60
0
100
AcDbLine
10
-40
20
-4.075485
30
0
11
-40
21
-4.07613
31
0
39
0
210
0
220
0
230
1
0
LINE
5
9D
100
AcDbEntity
8
81
62
256
6
ByLayer
370
18
48
1
60
0
100
AcDbLine
10
-48.06379
20
0
30
0
11
-47.852765
21
0
31
0
39
0
210
0
220
0
230
1
0
LINE
5
9E
100
AcDbEntity
8
81
62
256
6
ByLayer
370
18
48
1
60
0
100
AcDbLine
10
-44.984
20
0
30
0
11
-47.852
21
0
31
0
39
0
210
0
220
0
230
1
0
LINE
5
9F
100
AcDbEntity
8
81
62
256
6
ByLayer
370
18
48
1
60
0
100
AcDbLine
10
-40
20
-8.06379
30
0
11
-40
21
-7.852765
31
0
39
0
210
0
220
0
230
1
0
LINE
5
A0
100
AcDbEntity
8
81
62
256
6
ByLayer
370
18
48
1
60
0
100
AcDbLine
10
-47.852765
20
0
30
0
11
-47.852
21
0
31
0
39
0
210
0
220
0
230
1
0
LINE
5
A1
100
AcDbEntity
8
81
62
256
6
ByLayer
370
18
48
1
60
0
100
AcDbLine
10
51.92021
20
0
30
0
11
51.62021
21
0
31
0
39
0
210
0
220
0
230
1
0
LINE
5
A2
100
AcDbEntity
8
81
62
256
6
ByLayer
370
18
48
1
60
0
100
AcDbLine
10
59.984
20
0
30
0
11
55
21
0
31
0
39
0
210
0
220
0
230
1
0
LINE
5
A3
100
AcDbEntity
8
81
62
256
6
ByLayer
370
18
48
1
60
0
100
AcDbLine
10
-40
20
-4.984
30
0
11
-40
21
-7.852
31
0
39
0
210
0
220
0
230
1
0
LINE
5
A4
100
AcDbEntity
8
81
62
256
6
ByLayer
370
18
48
1
60
0
100
AcDbLine
10
-48.06379
20
0
30
0
11
-48.36379
21
0
31
0
39
0
210
0
220
0
230
1
0
LINE
5
A5
100
AcDbEntity
8
81
62
256
6
ByLayer
370
18
48
1
60
0
100
AcDbLine
10
-40
20
0
30
0
11
-44.984
21
0
31
0
39
0
210
0
220
0
230
1
0
LINE
5
A6
100
AcDbEntity
8
81
62
256
6
ByLayer
370
18
48
1
60
0
100
AcDbLine
10
50.341774
20
0
30
0
11
51.62021
21
0
31
0
39
0
210
0
220
0
230
1
0
LINE
5
A7
100
AcDbEntity
8
1
62
256
6
ByLayer
370
18
48
1
60
0
100
AcDbLine
10
24.963281
20
4.096653
30
0
11
0
21
4.999325
31
0
39
0
210
0
220
0
230
1
0
LINE
5
A8
100
AcDbEntity
8
1
62
256
6
ByLayer
370
18
48
1
60
0
100
AcDbLine
10
0
20
-4.999325
30
0
11
24.963281
21
-4.096653
31
0
39
0
210
0
220
0
230
1
0
LINE
5
A9
100
AcDbEntity
8
1
62
256
6
ByLayer
370
18
48
1
60
0
100
AcDbLine
10
49.212043
20
4.096
30
0
11
24.999417
21
4.096
31
0
39
0
210
0
220
0
230
1
0
LINE
5
AA
100
AcDbEntity
8
1
62
256
6
ByLayer
370
18
48
1
60
0
100
AcDbLine
10
24.999417
20
-4.096
30
0
11
49.3348
21
-4.096
31
0
39
0
210
0
220
0
230
1
0
LINE
5
AB
100
AcDbEntity
8
SK1
62
256
6
ByLayer
370
18
48
1
60
0
100
AcDbLine
10
0
20
4.999325
30
0
11
-0.018657
21
5
31
0
39
0
210
0
220
0
230
1
0
LINE
5
AD
100
AcDbEntity
8
SK1
62
256
6
ByLayer
370
18
48
1
60
0
100
AcDbLine
10
-0.018657
20
-5
30
0
11
0
21
-4.999325
31
0
39
0
210
0
220
0
230
1
0
LINE
5
AE
100
AcDbEntity
8
SK1
62
256
6
ByLayer
370
18
48
1
60
0
100
AcDbLine
10
-0.018657
20
5
30
0
11
-39.4
21
5
31
0
39
0
210
0
220
0
230
1
0
LINE
5
AF
100
AcDbEntity
8
SK1
62
256
6
ByLayer
370
18
48
1
60
0
100
AcDbLine
10
-39.4
20
-5
30
0
11
-0.018657
21
-5
31
0
39
0
210
0
220
0
230
1
0
LINE
5
B0
100
AcDbEntity
8
SK1
62
256
6
ByLayer
370
18
48
1
60
0
100
AcDbLine
10
-40
20
-4.4
30
0
11
-39.4
21
-5
31
0
39
0
210
0
220
0
230
1
0
LINE
5
B1
100
AcDbEntity
8
SK1
62
256
6
ByLayer
370
18
48
1
60
0
100
AcDbLine
10
-39.4
20
5
30
0
11
-40
21
4.4
31
0
39
0
210
0
220
0
230
1
0
LINE
5
B2
100
AcDbEntity
8
1
62
256
6
ByLayer
370
18
48
1
60
0
100
AcDbLine
10
0
20
-4.999325
30
0
11
0
21
4.999325
31
0
39
0
210
0
220
0
230
1
0
LINE
5
B3
100
AcDbEntity
8
1
62
256
6
ByLayer
370
18
48
1
60
0
100
AcDbLine
10
59.983622
20
0.061393
30
0
11
59.987825
21
0.061511
31
0
39
0
210
0
220
0
230
1
0
LINE
5
B4
100
AcDbEntity
8
1
62
256
6
ByLayer
370
18
48
1
60
0
100
AcDbLine
10
59.999516
20
0.06
30
0
11
59.987541
21
0.06
31
0
39
0
210
0
220
0
230
1
0
LINE
5
B5
100
AcDbEntity
8
1
62
256
6
ByLayer
370
18
48
1
60
0
100
AcDbLine
10
59.816844
20
1.186527
30
0
11
59.686592
21
0.993749
31
0
39
0
210
0
220
0
230
1
0
LINE
5
B6
100
AcDbEntity
8
1
62
256
6
ByLayer
370
18
48
1
60
0
100
AcDbLine
10
59.975834
20
-0.061622
30
0
11
59.975194
21
-0.065957
31
0
39
0
210
0
220
0
230
1
0
LINE
5
B7
100
AcDbEntity
8
1
62
256
6
ByLayer
370
18
48
1
60
0
100
AcDbLine
10
59.981791
20
-0.058817
30
0
11
59.998935
21
-0.058705
31
0
39
0
210
0
220
0
230
1
0
LINE
5
B8
100
AcDbEntity
8
1
62
256
6
ByLayer
370
18
48
1
60
0
100
AcDbLine
10
48.851993
20
-4.04301
30
0
11
51.969127
21
-3.732171
31
0
39
0
210
0
220
0
230
1
0
LINE
5
B9
100
AcDbEntity
8
1
62
256
6
ByLayer
370
18
48
1
60
0
100
AcDbLine
10
52.135204
20
-3.84028
30
0
11
51.873277
21
-3.640601
31
0
39
0
210
0
220
0
230
1
0
LINE
5
BA
100
AcDbEntity
8
1
62
256
6
ByLayer
370
18
48
1
60
0
100
AcDbLine
10
51.862536
20
-3.662816
30
0
11
51.873277
21
-3.640601
31
0
39
0
210
0
220
0
230
1
0
LINE
5
BB
100
AcDbEntity
8
1
62
256
6
ByLayer
370
18
48
1
60
0
100
AcDbLine
10
59.33835
20
-1.947178
30
0
11
59.376316
21
-1.947301
31
0
39
0
210
0
220
0
230
1
0
LINE
5
BC
100
AcDbEntity
8
1
62
256
6
ByLayer
370
18
48
1
60
0
100
AcDbLine
10
59.7165
20
-1.300898
30
0
11
59.581117
21
-1.049426
31
0
39
0
210
0
220
0
230
1
0
LINE
5
BD
100
AcDbEntity
8
1
62
256
6
ByLayer
370
18
48
1
60
0
100
AcDbLine
10
59.589688
20
-0.946651
30
0
11
59.757419
21
-1.178158
31
0
39
0
210
0
220
0
230
1
0
LINE
5
BE
100
AcDbEntity
8
1
62
256
6
ByLayer
370
18
48
1
60
0
100
AcDbLine
10
59.511369
20
-0.644003
30
0
11
59.621615
21
-0.725961
31
0
39
0
210
0
220
0
230
1
0
LINE
5
BF
100
AcDbEntity
8
1
62
256
6
ByLayer
370
18
48
1
60
0
100
AcDbLine
10
47.978462
20
-3.663643
30
0
11
48.283682
21
-3.633206
31
0
39
0
210
0
220
0
230
1
0
LINE
5
C0
100
AcDbEntity
8
1
62
256
6
ByLayer
370
18
48
1
60
0
100
AcDbLine
10
51.873277
20
-3.640601
30
0
11
51.973312
21
-3.474299
31
0
39
0
210
0
220
0
230
1
0
LINE
5
C1
100
AcDbEntity
8
1
62
256
6
ByLayer
370
18
48
1
60
0
100
AcDbLine
10
51.973312
20
3.265756
30
0
11
52.302638
21
3.728386
31
0
39
0
210
0
220
0
230
1
0
LINE
5
C2
100
AcDbEntity
8
1
62
256
6
ByLayer
370
18
48
1
60
0
100
AcDbLine
10
52.235239
20
-3.673978
30
0
11
51.973312
21
-3.474299
31
0
39
0
210
0
220
0
230
1
0
LINE
5
C3
100
AcDbEntity
8
1
62
256
6
ByLayer
370
18
48
1
60
0
100
AcDbLine
10
52.235239
20
3.382449
30
0
11
51.973312
21
3.265756
31
0
39
0
210
0
220
0
230
1
0
LINE
5
C4
100
AcDbEntity
8
1
62
256
6
ByLayer
370
18
48
1
60
0
100
AcDbLine
10
51.873277
20
3.03718
30
0
11
51.973312
21
3.265756
31
0
39
0
210
0
220
0
230
1
0
LINE
5
C5
100
AcDbEntity
8
1
62
256
6
ByLayer
370
18
48
1
60
0
100
AcDbLine
10
52.135204
20
3.153873
30
0
11
51.873277
21
3.03718
31
0
39
0
210
0
220
0
230
1
0
LINE
5
C6
100
AcDbEntity
8
1
62
256
6
ByLayer
370
18
48
1
60
0
100
AcDbLine
10
51.862536
20
2.976086
30
0
11
51.873277
21
3.03718
31
0
39
0
210
0
220
0
230
1
0
LINE
5
C7
100
AcDbEntity
8
1
62
256
6
ByLayer
370
18
48
1
60
0
100
AcDbLine
10
51.973312
20
-3.474299
30
0
11
52.302638
21
-2.96138
31
0
39
0
210
0
220
0
230
1
0
LINE
5
C8
100
AcDbEntity
8
1
62
256
6
ByLayer
370
18
48
1
60
0
100
AcDbLine
10
52.132
20
1.536367
30
0
11
52.132
21
1.676304
31
0
39
0
210
0
220
0
230
1
0
LINE
5
C9
100
AcDbEntity
8
1
62
256
6
ByLayer
370
18
48
1
60
0
100
AcDbLine
10
59.115863
20
1.359737
30
0
11
59.376316
21
1.134366
31
0
39
0
210
0
220
0
230
1
0
LINE
5
CA
100
AcDbEntity
8
1
62
256
6
ByLayer
370
18
48
1
60
0
100
AcDbLine
10
59.115863
20
1.359737
30
0
11
59.096899
21
1.3951
31
0
39
0
210
0
220
0
230
1
0
LINE
5
CB
100
AcDbEntity
8
1
62
256
6
ByLayer
370
18
48
1
60
0
100
AcDbLine
10
57.628683
20
2.549074
30
0
11
57.063335
21
2.96197
31
0
39
0
210
0
220
0
230
1
0
LINE
5
CC
100
AcDbEntity
8
1
62
256
6
ByLayer
370
18
48
1
60
0
100
AcDbLine
10
48.851993
20
2.590243
30
0
11
52.132
21
1.214783
31
0
39
0
210
0
220
0
230
1
0
LINE
5
CD
100
AcDbEntity
8
1
62
256
6
ByLayer
370
18
48
1
60
0
100
AcDbLine
10
52.132
20
-2.867697
30
0
11
52.132
21
-2.961037
31
0
39
0
210
0
220
0
230
1
0
LINE
5
CE
100
AcDbEntity
8
1
62
256
6
ByLayer
370
18
48
1
60
0
100
AcDbLine
10
52.132
20
1.214783
30
0
11
52.132
21
1.536367
31
0
39
0
210
0
220
0
230
1
0
LINE
5
CF
100
AcDbEntity
8
1
62
256
6
ByLayer
370
18
48
1
60
0
100
AcDbLine
10
52.132
20
1.100409
30
0
11
52.132
21
1.214783
31
0
39
0
210
0
220
0
230
1
0
LINE
5
D0
100
AcDbEntity
8
1
62
256
6
ByLayer
370
18
48
1
60
0
100
AcDbLine
10
52.132
20
-2.651327
30
0
11
52.132
21
-2.521041
31
0
39
0
210
0
220
0
230
1
0
LINE
5
D1
100
AcDbEntity
8
1
62
256
6
ByLayer
370
18
48
1
60
0
100
AcDbLine
10
52.132
20
-2.867697
30
0
11
52.132
21
-2.651327
31
0
39
0
210
0
220
0
230
1
0
LINE
5
D2
100
AcDbEntity
8
1
62
256
6
ByLayer
370
18
48
1
60
0
100
AcDbLine
10
52.132
20
0.928302
30
0
11
52.132
21
1.100409
31
0
39
0
210
0
220
0
230
1
0
LINE
5
D3
100
AcDbEntity
8
1
62
256
6
ByLayer
370
18
48
1
60
0
100
AcDbLine
10
59.111494
20
-0.528192
30
0
11
59.330723
21
-0.870791
31
0
39
0
210
0
220
0
230
1
0
LINE
5
D4
100
AcDbEntity
8
1
62
256
6
ByLayer
370
18
48
1
60
0
100
AcDbLine
10
57.419386
20
0.255471
30
0
11
57.02351
21
0.31418
31
0
39
0
210
0
220
0
230
1
0
LINE
5
D5
100
AcDbEntity
8
1
62
256
6
ByLayer
370
18
48
1
60
0
100
AcDbLine
10
52.235239
20
-0.220382
30
0
11
51.973312
21
-0.140597
31
0
39
0
210
0
220
0
230
1
0
LINE
5
D6
100
AcDbEntity
8
1
62
256
6
ByLayer
370
18
48
1
60
0
100
AcDbLine
10
52.135204
20
-0.615828
30
0
11
51.873277
21
-0.536043
31
0
39
0
210
0
220
0
230
1
0
LINE
5
D7
100
AcDbEntity
8
1
62
256
6
ByLayer
370
18
48
1
60
0
100
AcDbLine
10
52.132
20
-1.70175
30
0
11
52.132
21
-1.523278
31
0
39
0
210
0
220
0
230
1
0
LINE
5
D8
100
AcDbEntity
8
1
62
256
6
ByLayer
370
18
48
1
60
0
100
AcDbLine
10
51.861966
20
-0.624174
30
0
11
51.873277
21
-0.536043
31
0
39
0
210
0
220
0
230
1
0
LINE
5
D9
100
AcDbEntity
8
1
62
256
6
ByLayer
370
18
48
1
60
0
100
AcDbLine
10
51.873277
20
-0.536043
30
0
11
51.973312
21
-0.140597
31
0
39
0
210
0
220
0
230
1
0
LINE
5
DA
100
AcDbEntity
8
1
62
256
6
ByLayer
370
18
48
1
60
0
100
AcDbLine
10
48.880052
20
-1.498797
30
0
11
52.132
21
-2.521041
31
0
39
0
210
0
220
0
230
1
0
LINE
5
DB
100
AcDbEntity
8
1
62
256
6
ByLayer
370
18
48
1
60
0
100
AcDbLine
10
52.132
20
-2.521041
30
0
11
52.132
21
-1.70175
31
0
39
0
210
0
220
0
230
1
0
LINE
5
DC
100
AcDbEntity
8
1
62
256
6
ByLayer
370
18
48
1
60
0
100
AcDbLine
10
51.973312
20
-0.140597
30
0
11
52.302638
21
0.834296
31
0
39
0
210
0
220
0
230
1
0
LINE
5
DD
100
AcDbEntity
8
1
62
256
6
ByLayer
370
18
48
1
60
0
100
AcDbLine
10
52.132
20
1.676304
30
0
11
52.132
21
3.151881
31
0
39
0
210
0
220
0
230
1
0
LINE
5
DE
100
AcDbEntity
8
1
62
256
6
ByLayer
370
18
48
1
60
0
100
AcDbLine
10
52.132
20
-1.523278
30
0
11
52.132
21
-0.615724
31
0
39
0
210
0
220
0
230
1
0
LINE
5
DF
100
AcDbEntity
8
1
62
256
6
ByLayer
370
18
48
1
60
0
100
AcDbLine
10
52.132
20
0.928302
30
0
11
52.132
21
0.887254
31
0
39
0
210
0
220
0
230
1
0
LINE
5
E0
100
AcDbEntity
8
1
62
256
6
ByLayer
370
18
48
1
60
0
100
AcDbLine
10
59.975834
20
-0.061622
30
0
11
59.988019
21
-0.061959
31
0
39
0
210
0
220
0
230
1
0
LINE
5
E1
100
AcDbEntity
8
1
62
256
6
ByLayer
370
18
48
1
60
0
100
AcDbLine
10
59.99945
20
-0.059386
30
0
11
59.987541
21
-0.059386
31
0
39
0
210
0
220
0
230
1
0
LINE
5
E2
100
AcDbEntity
8
1
62
256
6
ByLayer
370
18
48
1
60
0
100
AcDbLine
10
59.987461
20
0.00044
30
0
11
59.988006
21
-0.000115
31
0
39
0
210
0
220
0
230
1
0
LINE
5
E3
100
AcDbEntity
8
SK1
62
256
6
ByLayer
370
18
48
1
60
0
100
AcDbLine
10
0
20
-4.999325
30
0
11
0
21
4.999325
31
0
39
0
210
0
220
0
230
1
0
LINE
5
E4
100
AcDbEntity
8
SK1
62
256
6
ByLayer
370
18
48
1
60
0
100
AcDbLine
10
-0.018657
20
-5
30
0
11
-0.018657
21
5
31
0
39
0
210
0
220
0
230
1
0
LINE
5
E5
100
AcDbEntity
8
SK1
62
256
6
ByLayer
370
18
48
1
60
0
100
AcDbLine
10
-39.4
20
5
30
0
11
-39.4
21
-5
31
0
39
0
210
0
220
0
230
1
0
LINE
5
E6
100
AcDbEntity
8
SK1
62
256
6
ByLayer
370
18
48
1
60
0
100
AcDbLine
10
-40
20
4.4
30
0
11
-40
21
-4.4
31
0
39
0
210
0
220
0
230
1
0
LINE
5
E7
100
AcDbEntity
8
81
62
256
6
ByLayer
370
18
48
1
60
0
100
AcDbLine
10
50.341774
20
4.095678
30
0
11
50.341774
21
4.051905
31
0
39
0
210
0
220
0
230
1
0
LINE
5
E8
100
AcDbEntity
8
81
62
256
6
ByLayer
370
18
48
1
60
0
100
AcDbLine
10
50.341774
20
-3.89435
30
0
11
50.341774
21
-4.095678
31
0
39
0
210
0
220
0
230
1
0
LINE
5
E9
100
AcDbEntity
8
81
62
256
6
ByLayer
370
18
48
1
60
0
100
AcDbLine
10
51.92021
20
-3.998406
30
0
11
51.62021
21
-3.998406
31
0
39
0
210
0
220
0
230
1
0
LINE
5
EA
100
AcDbEntity
8
81
62
256
6
ByLayer
370
18
48
1
60
0
100
AcDbLine
10
51.62021
20
3.998406
30
0
11
51.92021
21
3.998406
31
0
39
0
210
0
220
0
230
1
0
LINE
5
EB
100
AcDbEntity
8
81
62
256
6
ByLayer
370
18
48
1
60
0
100
AcDbLine
10
52.131235
20
-4.075485
30
0
11
52.132
21
-4.07613
31
0
39
0
210
0
220
0
230
1
0
LINE
5
EC
100
AcDbEntity
8
81
62
256
6
ByLayer
370
18
48
1
60
0
100
AcDbLine
10
52.132
20
4.07613
30
0
11
52.131235
21
4.075485
31
0
39
0
210
0
220
0
230
1
0
LINE
5
ED
100
AcDbEntity
8
SK2
62
256
6
ByLayer
370
13
48
1
60
0
100
AcDbLine
10
-46.5
20
-5
30
0
11
-46.5
21
24.625256
31
0
39
0
210
0
220
0
230
1
0
LINE
5
EF
100
AcDbEntity
8
SK2
62
256
6
ByLayer
370
13
48
1
60
0
100
AcDbLine
10
-41.5875
20
-5
30
0
11
-48.5
21
-5
31
0
39
0
210
0
220
0
230
1
0
LINE
5
F0
100
AcDbEntity
8
SK2
62
256
6
ByLayer
370
13
48
1
60
0
100
AcDbLine
10
-41.5875
20
5
30
0
11
-48.5
21
5
31
0
39
0
210
0
220
0
230
1
0
LINE
5
F1
100
AcDbEntity
8
1
62
256
6
ByLayer
370
18
48
1
60
1
100
AcDbLine
10
-46.5
20
-5
30
0
11
-46.960784
21
-1.500002
31
0
39
0
210
0
220
0
230
1
0
LINE
5
F2
100
AcDbEntity
8
1
62
256
6
ByLayer
370
18
48
1
60
1
100
AcDbLine
10
-46.960784
20
-1.500002
30
0
11
-46.039216
21
-1.499998
31
0
39
0
210
0
220
0
230
1
0
LINE
5
F3
100
AcDbEntity
8
1
62
256
6
ByLayer
370
18
48
1
60
1
100
AcDbLine
10
-46.039216
20
-1.499998
30
0
11
-46.5
21
-5
31
0
39
0
210
0
220
0
230
1
0
LINE
5
F4
100
AcDbEntity
8
1
62
256
6
ByLayer
370
18
48
1
60
1
100
AcDbLine
10
-46.5
20
5
30
0
11
-46.039216
21
1.500002
31
0
39
0
210
0
220
0
230
1
0
LINE
5
F5
100
AcDbEntity
8
1
62
256
6
ByLayer
370
18
48
1
60
1
100
AcDbLine
10
-46.039216
20
1.500002
30
0
11
-46.960784
21
1.499998
31
0
39
0
210
0
220
0
230
1
0
LINE
5
F6
100
AcDbEntity
8
1
62
256
6
ByLayer
370
18
48
1
60
1
100
AcDbLine
10
-46.960784
20
1.499998
30
0
11
-46.5
21
5
31
0
39
0
210
0
220
0
230
1
0
LINE
5
F7
100
AcDbEntity
8
SK2
62
256
6
ByLayer
370
13
48
1
60
0
100
AcDbLine
10
29.5
20
4.095678
30
0
11
29.5
21
-34.095678
31
0
39
0
210
0
220
0
230
1
0
LINE
5
F8
100
AcDbEntity
8
SK2
62
256
6
ByLayer
370
13
48
1
60
0
100
AcDbLine
10
26.5875
20
-4.095678
30
0
11
31.5
21
-4.095678
31
0
39
0
210
0
220
0
230
1
0
LINE
5
F9
100
AcDbEntity
8
SK2
62
256
6
ByLayer
370
13
48
1
60
0
100
AcDbLine
10
26.5875
20
4.095678
30
0
11
31.5
21
4.095678
31
0
39
0
210
0
220
0
230
1
0
LINE
5
FA
100
AcDbEntity
8
1
62
256
6
ByLayer
370
18
48
1
60
1
100
AcDbLine
10
29.5
20
-4.095678
30
0
11
29.039216
21
-0.595679
31
0
39
0
210
0
220
0
230
1
0
LINE
5
FB
100
AcDbEntity
8
1
62
256
6
ByLayer
370
18
48
1
60
1
100
AcDbLine
10
29.039216
20
-0.595679
30
0
11
29.960784
21
-0.595676
31
0
39
0
210
0
220
0
230
1
0
LINE
5
FC
100
AcDbEntity
8
1
62
256
6
ByLayer
370
18
48
1
60
1
100
AcDbLine
10
29.960784
20
-0.595676
30
0
11
29.5
21
-4.095678
31
0
39
0
210
0
220
0
230
1
0
LINE
5
FD
100
AcDbEntity
8
1
62
256
6
ByLayer
370
18
48
1
60
1
100
AcDbLine
10
29.5
20
4.095678
30
0
11
29.960784
21
0.595679
31
0
39
0
210
0
220
0
230
1
0
LINE
5
FE
100
AcDbEntity
8
1
62
256
6
ByLayer
370
18
48
1
60
1
100
AcDbLine
10
29.960784
20
0.595679
30
0
11
29.039216
21
0.595676
31
0
39
0
210
0
220
0
230
1
0
LINE
5
FF
100
AcDbEntity
8
1
62
256
6
ByLayer
370
18
48
1
60
1
100
AcDbLine
10
29.039216
20
0.595676
30
0
11
29.5
21
4.095678
31
0
39
0
210
0
220
0
230
1
0
LINE
5
100
100
AcDbEntity
8
2
62
256
6
ByLayer
370
13
48
1
60
0
100
AcDbLine
10
71.5
20
-5
30
0
11
71.5
21
22.764627
31
0
39
0
210
0
220
0
230
1
0
LINE
5
102
100
AcDbEntity
8
2
62
256
6
ByLayer
370
13
48
1
60
0
100
AcDbLine
10
56.5875
20
-5
30
0
11
73.5
21
-5
31
0
39
0
210
0
220
0
230
1
0
LINE
5
103
100
AcDbEntity
8
2
62
256
6
ByLayer
370
13
48
1
60
0
100
AcDbLine
10
56.5875
20
5
30
0
11
73.5
21
5
31
0
39
0
210
0
220
0
230
1
0
LINE
5
104
100
AcDbEntity
8
1
62
256
6
ByLayer
370
18
48
1
60
1
100
AcDbLine
10
71.5
20
-5
30
0
11
71.039216
21
-1.500002
31
0
39
0
210
0
220
0
230
1
0
LINE
5
105
100
AcDbEntity
8
1
62
256
6
ByLayer
370
18
48
1
60
1
100
AcDbLine
10
71.039216
20
-1.500002
30
0
11
71.960784
21
-1.499998
31
0
39
0
210
0
220
0
230
1
0
LINE
5
106
100
AcDbEntity
8
1
62
256
6
ByLayer
370
18
48
1
60
1
100
AcDbLine
10
71.960784
20
-1.499998
30
0
11
71.5
21
-5
31
0
39
0
210
0
220
0
230
1
0
LINE
5
107
100
AcDbEntity
8
1
62
256
6
ByLayer
370
18
48
1
60
1
100
AcDbLine
10
71.5
20
5
30
0
11
71.960784
21
1.500002
31
0
39
0
210
0
220
0
230
1
0
LINE
5
108
100
AcDbEntity
8
1
62
256
6
ByLayer
370
18
48
1
60
1
100
AcDbLine
10
71.960784
20
1.500002
30
0
11
71.039216
21
1.499998
31
0
39
0
210
0
220
0
230
1
0
LINE
5
109
100
AcDbEntity
8
1
62
256
6
ByLayer
370
18
48
1
60
1
100
AcDbLine
10
71.039216
20
1.499998
30
0
11
71.5
21
5
31
0
39
0
210
0
220
0
230
1
0
LINE
5
10A
100
AcDbEntity
8
SK2
62
256
6
ByLayer
370
13
48
1
60
0
100
AcDbLine
10
-1.605121
20
5.057344
30
0
11
-14.751251
21
5.532523
31
0
39
0
210
0
220
0
230
1
0
LINE
5
10B
100
AcDbEntity
8
SK2
62
256
6
ByLayer
370
13
48
1
60
0
100
AcDbLine
10
-38.4125
20
0
30
0
11
-10.851207
21
0
31
0
39
0
210
0
220
0
230
1
0
LINE
5
10C
100
AcDbEntity
8
1
62
256
6
ByLayer
370
18
48
1
60
1
100
AcDbLine
10
-12.752556
20
5.460278
30
0
11
-13.066263
21
8.976512
31
0
39
0
210
0
220
0
230
1
0
LINE
5
10D
100
AcDbEntity
8
1
62
256
6
ByLayer
370
18
48
1
60
1
100
AcDbLine
10
-13.066263
20
8.976512
30
0
11
-12.145505
21
8.937896
31
0
39
0
210
0
220
0
230
1
0
LINE
5
10E
100
AcDbEntity
8
1
62
256
6
ByLayer
370
18
48
1
60
1
100
AcDbLine
10
-12.145505
20
8.937896
30
0
11
-12.752556
21
5.460278
31
0
39
0
210
0
220
0
230
1
0
LINE
5
10F
100
AcDbEntity
8
1
62
256
6
ByLayer
370
18
48
1
60
1
100
AcDbLine
10
-12.851207
20
0
30
0
11
-12.370172
21
-3.497273
31
0
39
0
210
0
220
0
230
1
0
LINE
5
110
100
AcDbEntity
8
1
62
256
6
ByLayer
370
18
48
1
60
1
100
AcDbLine
10
-12.370172
20
-3.497273
30
0
11
-13.291724
21
-3.50261
31
0
39
0
210
0
220
0
230
1
0
LINE
5
111
100
AcDbEntity
8
1
62
256
6
ByLayer
370
18
48
1
60
1
100
AcDbLine
10
-13.291724
20
-3.50261
30
0
11
-12.851207
21
0
31
0
39
0
210
0
220
0
230
1
0
LINE
5
1D6
100
AcDbEntity
8
1
62
256
6
ByLayer
370
18
48
1
60
1
100
AcDbLine
10
-46.5
20
-5
30
0
11
-46.960784
21
-1.500002
31
0
39
0
210
0
220
0
230
1
0
LINE
5
1D7
100
AcDbEntity
8
1
62
256
6
ByLayer
370
18
48
1
60
1
100
AcDbLine
10
-46.960784
20
-1.500002
30
0
11
-46.039216
21
-1.499998
31
0
39
0
210
0
220
0
230
1
0
LINE
5
1D8
100
AcDbEntity
8
1
62
256
6
ByLayer
370
18
48
1
60
1
100
AcDbLine
10
-46.039216
20
-1.499998
30
0
11
-46.5
21
-5
31
0
39
0
210
0
220
0
230
1
0
LINE
5
1DA
100
AcDbEntity
8
1
62
256
6
ByLayer
370
18
48
1
60
1
100
AcDbLine
10
-46.5
20
5
30
0
11
-46.039216
21
1.500002
31
0
39
0
210
0
220
0
230
1
0
LINE
5
1DB
100
AcDbEntity
8
1
62
256
6
ByLayer
370
18
48
1
60
1
100
AcDbLine
10
-46.039216
20
1.500002
30
0
11
-46.960784
21
1.499998
31
0
39
0
210
0
220
0
230
1
0
LINE
5
1DC
100
AcDbEntity
8
1
62
256
6
ByLayer
370
18
48
1
60
1
100
AcDbLine
10
-46.960784
20
1.499998
30
0
11
-46.5
21
5
31
0
39
0
210
0
220
0
230
1
0
LINE
5
1E0
100
AcDbEntity
8
1
62
256
6
ByLayer
370
18
48
1
60
1
100
AcDbLine
10
29.5
20
-4.095678
30
0
11
29.039216
21
-0.595679
31
0
39
0
210
0
220
0
230
1
0
LINE
5
1E1
100
AcDbEntity
8
1
62
256
6
ByLayer
370
18
48
1
60
1
100
AcDbLine
10
29.039216
20
-0.595679
30
0
11
29.960784
21
-0.595676
31
0
39
0
210
0
220
0
230
1
0
LINE
5
1E2
100
AcDbEntity
8
1
62
256
6
ByLayer
370
18
48
1
60
1
100
AcDbLine
10
29.960784
20
-0.595676
30
0
11
29.5
21
-4.095678
31
0
39
0
210
0
220
0
230
1
0
LINE
5
1E4
100
AcDbEntity
8
1
62
256
6
ByLayer
370
18
48
1
60
1
100
AcDbLine
10
29.5
20
4.095678
30
0
11
29.960784
21
0.595679
31
0
39
0
210
0
220
0
230
1
0
LINE
5
1E5
100
AcDbEntity
8
1
62
256
6
ByLayer
370
18
48
1
60
1
100
AcDbLine
10
29.960784
20
0.595679
30
0
11
29.039216
21
0.595676
31
0
39
0
210
0
220
0
230
1
0
LINE
5
1E6
100
AcDbEntity
8
1
62
256
6
ByLayer
370
18
48
1
60
1
100
AcDbLine
10
29.039216
20
0.595676
30
0
11
29.5
21
4.095678
31
0
39
0
210
0
220
0
230
1
0
LINE
5
1EA
100
AcDbEntity
8
1
62
256
6
ByLayer
370
18
48
1
60
1
100
AcDbLine
10
71.5
20
-5
30
0
11
71.039216
21
-1.500002
31
0
39
0
210
0
220
0
230
1
0
LINE
5
1EB
100
AcDbEntity
8
1
62
256
6
ByLayer
370
18
48
1
60
1
100
AcDbLine
10
71.039216
20
-1.500002
30
0
11
71.960784
21
-1.499998
31
0
39
0
210
0
220
0
230
1
0
LINE
5
1EC
100
AcDbEntity
8
1
62
256
6
ByLayer
370
18
48
1
60
1
100
AcDbLine
10
71.960784
20
-1.499998
30
0
11
71.5
21
-5
31
0
39
0
210
0
220
0
230
1
0
LINE
5
1EE
100
AcDbEntity
8
1
62
256
6
ByLayer
370
18
48
1
60
1
100
AcDbLine
10
71.5
20
5
30
0
11
71.960784
21
1.500002
31
0
39
0
210
0
220
0
230
1
0
LINE
5
1EF
100
AcDbEntity
8
1
62
256
6
ByLayer
370
18
48
1
60
1
100
AcDbLine
10
71.960784
20
1.500002
30
0
11
71.039216
21
1.499998
31
0
39
0
210
0
220
0
230
1
0
LINE
5
1F0
100
AcDbEntity
8
1
62
256
6
ByLayer
370
18
48
1
60
1
100
AcDbLine
10
71.039216
20
1.499998
30
0
11
71.5
21
5
31
0
39
0
210
0
220
0
230
1
0
LINE
5
1F3
100
AcDbEntity
8
1
62
256
6
ByLayer
370
18
48
1
60
1
100
AcDbLine
10
-12.752556
20
5.460278
30
0
11
-13.066263
21
8.976512
31
0
39
0
210
0
220
0
230
1
0
LINE
5
1F4
100
AcDbEntity
8
1
62
256
6
ByLayer
370
18
48
1
60
1
100
AcDbLine
10
-13.066263
20
8.976512
30
0
11
-12.145505
21
8.937896
31
0
39
0
210
0
220
0
230
1
0
LINE
5
1F5
100
AcDbEntity
8
1
62
256
6
ByLayer
370
18
48
1
60
1
100
AcDbLine
10
-12.145505
20
8.937896
30
0
11
-12.752556
21
5.460278
31
0
39
0
210
0
220
0
230
1
0
LINE
5
1F7
100
AcDbEntity
8
1
62
256
6
ByLayer
370
18
48
1
60
1
100
AcDbLine
10
-12.851207
20
0
30
0
11
-12.370172
21
-3.497273
31
0
39
0
210
0
220
0
230
1
0
LINE
5
1F8
100
AcDbEntity
8
1
62
256
6
ByLayer
370
18
48
1
60
1
100
AcDbLine
10
-12.370172
20
-3.497273
30
0
11
-13.291724
21
-3.50261
31
0
39
0
210
0
220
0
230
1
0
LINE
5
1F9
100
AcDbEntity
8
1
62
256
6
ByLayer
370
18
48
1
60
1
100
AcDbLine
10
-13.291724
20
-3.50261
30
0
11
-12.851207
21
0
31
0
39
0
210
0
220
0
230
1
0
MTEXT
5
1D2
100
AcDbEntity
8
SK2
62
256
6
ByLayer
370
18
48
1
60
0
100
AcDbMText
10
-47.841114
20
9.658438
30
0
210
0
220
0
230
1
1
%%c
40
3
41
0
44
1.084337
50
90
71
7
72
5
7
iso_b_vert
0
MTEXT
5
1D5
100
AcDbEntity
8
SK2
62
256
6
ByLayer
370
18
48
1
60
0
100
AcDbMText
10
-47.841114
20
15.635
30
0
210
0
220
0
230
1
1
\W0.6563;10 h6
40
3
41
0
44
1.084337
50
90
71
7
72
5
7
iso_b_vert
0
MTEXT
5
1DE
100
AcDbEntity
8
SK2
62
256
6
ByLayer
370
18
48
1
60
0
100
AcDbMText
10
28.158886
20
-32.43724
30
0
210
0
220
0
230
1
1
%%c
40
3
41
0
44
1.084337
50
90
71
7
72
5
7
iso_b_vert
0
MTEXT
5
1DF
100
AcDbEntity
8
SK2
62
256
6
ByLayer
370
18
48
1
60
0
100
AcDbMText
10
28.158886
20
-26.460678
30
0
210
0
220
0
230
1
1
\W0.6662;8.19
40
3
41
0
44
1.084337
50
90
71
7
72
5
7
iso_b_vert
0
MTEXT
5
1E8
100
AcDbEntity
8
2
62
256
6
ByLayer
370
18
48
1
60
0
100
AcDbMText
10
70.158886
20
11.658437
30
0
210
0
220
0
230
1
1
%%c
40
3
41
0
44
1.084337
50
90
71
7
72
5
7
iso_b_vert
0
MTEXT
5
1E9
100
AcDbEntity
8
2
62
256
6
ByLayer
370
18
48
1
60
0
100
AcDbMText
10
70.158886
20
17.635
30
0
210
0
220
0
230
1
1
\W0.5742;(10)
40
3
41
0
44
1.084337
50
90
71
7
72
5
7
iso_b_vert
0
MTEXT
5
1F2
100
AcDbEntity
8
SK2
62
256
6
ByLayer
370
18
48
1
60
0
100
AcDbMText
10
-12.916636
20
13.07724
30
0
210
0
220
0
230
1
1
\W0.7635;(2%%d)
40
3
41
0
44
1.084337
50
84.0426713646111
71
7
72
5
7
iso_b_vert
0
MTEXT
5
1FB
100
AcDbEntity
8
SK6
62
256
6
ByLayer
370
18
48
1
60
0
100
AcDbMText
10
-19.674024
20
-44.34003
30
0
210
0
220
0
230
1
1
\W0.7605;2L446-1000-RA1000   R2AH
40
3
41
0
44
1.084337
50
0
71
7
72
5
7
iso_b_vert
0
HATCH
5
1D9
100
AcDbEntity
8
SK2
62
256
6
ByLayer
370
13
48
1
60
0
100
AcDbHatch
10
0
20
0
30
0
210
0
220
0
230
1
2
ANSI31
70
0
71
0
91
1
92
5
93
3
72
1
10
-46.5
20
-5
11
-46.9607837415528
21
-1.50000169255318
72
1
10
-46.9607837415528
20
-1.50000169255318
11
-46.0392162584472
21
-1.49999830744682
72
1
10
-46.0392162584472
20
-1.49999830744682
11
-46.5
21
-5
97
0
75
0
76
1
52
0
41
0.0062
77
0
78
1
53
45
43
0
44
0
45
-0.0139193969876572
46
0.0139193969876572
79
0
47
0
98
1
10
0
20
0
0
HATCH
5
1DD
100
AcDbEntity
8
SK2
62
256
6
ByLayer
370
13
48
1
60
0
100
AcDbHatch
10
0
20
0
30
0
210
0
220
0
230
1
2
ANSI31
70
0
71
0
91
1
92
5
93
3
72
1
10
-46.5
20
5.00000000000003
11
-46.0392162584472
21
1.50000169255321
72
1
10
-46.0392162584472
20
1.50000169255321
11
-46.9607837415528
21
1.49999830744685
72
1
10
-46.9607837415528
20
1.49999830744685
11
-46.5
21
5.00000000000003
97
0
75
0
76
1
52
0
41
0.0062
77
0
78
1
53
45
43
0
44
0
45
-0.0139193969876572
46
0.0139193969876572
79
0
47
0
98
1
10
0
20
0
0
HATCH
5
1E3
100
AcDbEntity
8
SK2
62
256
6
ByLayer
370
13
48
1
60
0
100
AcDbHatch
10
0
20
0
30
0
210
0
220
0
230
1
2
ANSI31
70
0
71
0
91
1
92
5
93
3
72
1
10
29.5
20
-4.09567772169638
11
29.0392162584472
21
-0.59567941424956
72
1
10
29.0392162584472
20
-0.59567941424956
11
29.9607837415528
21
-0.595676029143192
72
1
10
29.9607837415528
20
-0.595676029143192
11
29.5
21
-4.09567772169638
97
0
75
0
76
1
52
0
41
0.0062
77
0
78
1
53
45
43
0
44
0
45
-0.0139193969876572
46
0.0139193969876572
79
0
47
0
98
1
10
0
20
0
0
HATCH
5
1E7
100
AcDbEntity
8
SK2
62
256
6
ByLayer
370
13
48
1
60
0
100
AcDbHatch
10
0
20
0
30
0
210
0
220
0
230
1
2
ANSI31
70
0
71
0
91
1
92
5
93
3
72
1
10
29.5
20
4.09567772169603
11
29.9607837415528
21
0.595679414249219
72
1
10
29.9607837415528
20
0.595679414249219
11
29.0392162584472
21
0.595676029142851
72
1
10
29.0392162584472
20
0.595676029142851
11
29.5
21
4.09567772169603
97
0
75
0
76
1
52
0
41
0.0062
77
0
78
1
53
45
43
0
44
0
45
-0.0139193969876572
46
0.0139193969876572
79
0
47
0
98
1
10
0
20
0
0
HATCH
5
1ED
100
AcDbEntity
8
2
62
256
6
ByLayer
370
13
48
1
60
0
100
AcDbHatch
10
0
20
0
30
0
210
0
220
0
230
1
2
ANSI31
70
0
71
0
91
1
92
5
93
3
72
1
10
71.5
20
-5
11
71.0392162584472
21
-1.50000169255318
72
1
10
71.0392162584472
20
-1.50000169255318
11
71.9607837415528
21
-1.49999830744682
72
1
10
71.9607837415528
20
-1.49999830744682
11
71.5
21
-5
97
0
75
0
76
1
52
0
41
0.0062
77
0
78
1
53
45
43
0
44
0
45
-0.0139193969876572
46
0.0139193969876572
79
0
47
0
98
1
10
0
20
0
0
HATCH
5
1F1
100
AcDbEntity
8
2
62
256
6
ByLayer
370
13
48
1
60
0
100
AcDbHatch
10
0
20
0
30
0
210
0
220
0
230
1
2
ANSI31
70
0
71
0
91
1
92
5
93
3
72
1
10
71.5
20
5
11
71.9607837415528
21
1.50000169255318
72
1
10
71.9607837415528
20
1.50000169255318
11
71.0392162584472
21
1.49999830744682
72
1
10
71.0392162584472
20
1.49999830744682
11
71.5
21
5
97
0
75
0
76
1
52
0
41
0.0062
77
0
78
1
53
45
43
0
44
0
45
-0.0139193969876572
46
0.0139193969876572
79
0
47
0
98
1
10
0
20
0
0
HATCH
5
1F6
100
AcDbEntity
8
SK2
62
256
6
ByLayer
370
13
48
1
60
0
100
AcDbHatch
10
0
20
0
30
0
210
0
220
0
230
1
2
ANSI31
70
0
71
0
91
1
92
5
93
3
72
1
10
-12.7525558770128
20
5.46027844800128
11
-13.0662632410034
21
8.97651187290185
72
1
10
-13.0662632410034
20
8.97651187290185
11
-12.1455051672838
21
8.93789587091774
72
1
10
-12.1455051672838
20
8.93789587091774
11
-12.7525558770128
21
5.46027844800128
97
0
75
0
76
1
52
0
41
0.0062
77
0
78
1
53
45
43
0
44
0
45
-0.0139193969876572
46
0.0139193969876572
79
0
47
0
98
1
10
0
20
0
0
HATCH
5
1FA
100
AcDbEntity
8
SK2
62
256
6
ByLayer
370
13
48
1
60
0
100
AcDbHatch
10
0
20
0
30
0
210
0
220
0
230
1
2
ANSI31
70
0
71
0
91
1
92
5
93
3
72
1
10
-12.8512070489033
20
2.84E-14
11
-12.3701721672283
21
-3.49727254460123
72
1
10
-12.3701721672283
20
-3.49727254460123
11
-13.291724192596
21
-3.50261019105284
72
1
10
-13.291724192596
20
-3.50261019105284
11
-12.8512070489033
21
2.84E-14
97
0
75
0
76
1
52
0
41
0.0062
77
0
78
1
53
45
43
0
44
0
45
-0.0139193969876572
46
0.0139193969876572
79
0
47
0
98
1
10
0
20
0
0
DIMENSION
5
1FE
100
AcDbEntity
8
2
62
256
6
ByLayer
370
18
48
1
60
0
100
AcDbDimension
2
_U0
10
25
20
13.041937
30
0
11
42.5
21
13.041937
31
0
70
32
71
1
72
1
41
1
210
0
220
0
230
1
3
Standard
100
AcDbAlignedDimension
13
60
23
0
33
0
14
25
24
4.095678
34
0
50
0
100
AcDbRotatedDimension
1001
ACAD
1000
DSTYLE
1002
{
1070
   371
1070
    13
1070
   372
1070
    13
1070
     3
1000

1070
   170
1070
     0
1070
   144
1040
1.0
1070
   277
1070
     2
1070
   284
1070
     8
1070
   278
1070
    46
1070
   146
1040
1.166667
1070
   345
1005
16
1070
   347
1005
16
1070
   346
1005
16
1070
   344
1005
0
1070
   343
1005
0
1070
   172
1070
     1
1070
    76
1070
     0
1070
    75
1070
     0
1070
   282
1070
     0
1070
   281
1070
     0
1070
    71
1070
     0
1070
    74
1070
     0
1070
   279
1070
     0
1070
   173
1070
     1
1070
   340
1005
1D3
1070
   271
1070
     2
1070
   272
1070
     2
1070
    77
1070
     1
1070
    73
1070
     1
1070
   171
1070
     3
1070
   274
1070
     4
1070
   177
1070
     2
1070
   176
1070
     2
1070
   178
1070
     2
1070
    78
1070
     8
1070
    48
1040
-0.1
1070
    41
1040
3.5
1070
   147
1040
1.5
1070
    42
1040
1.5875
1070
    44
1040
2.0
1070
   140
1040
3.0
1002
}
1001
ACAD_DSTYLE_DIM_LINETYPE
1070
   380
1005
16
1001
ACAD_DSTYLE_DIM_EXT1_LINETYPE
1070
   381
1005
16
1001
ACAD_DSTYLE_DIM_EXT2_LINETYPE
1070
   382
1005
16
0
DIMENSION
5
217
100
AcDbEntity
8
2
62
256
6
ByLayer
370
18
48
1
60
0
100
AcDbDimension
2
_U1
10
-0.018657
20
23.041937
30
0
11
29.990672
21
23.041937
31
0
70
32
71
1
72
1
41
1
210
0
220
0
230
1
3
Standard
100
AcDbAlignedDimension
13
60
23
0
33
0
14
-0.018657
24
5
34
0
50
0
100
AcDbRotatedDimension
1001
ACAD
1000
DSTYLE
1002
{
1070
   371
1070
    13
1070
   372
1070
    13
1070
     3
1000

1070
   170
1070
     0
1070
   144
1040
1.0
1070
   277
1070
     2
1070
   284
1070
     8
1070
   278
1070
    46
1070
   146
1040
1.166667
1070
   345
1005
16
1070
   347
1005
16
1070
   346
1005
16
1070
   344
1005
0
1070
   343
1005
0
1070
   172
1070
     1
1070
    76
1070
     0
1070
    75
1070
     0
1070
   282
1070
     0
1070
   281
1070
     0
1070
    71
1070
     0
1070
    74
1070
     0
1070
   279
1070
     0
1070
   173
1070
     1
1070
   340
1005
1D3
1070
   271
1070
     2
1070
   272
1070
     2
1070
    77
1070
     1
1070
    73
1070
     1
1070
   171
1070
     3
1070
   274
1070
     4
1070
   177
1070
     2
1070
   176
1070
     2
1070
   178
1070
     2
1070
    78
1070
     8
1070
    48
1040
-0.1
1070
    41
1040
3.5
1070
   147
1040
1.5
1070
    42
1040
1.5875
1070
    44
1040
2.0
1070
   140
1040
3.0
1002
}
1001
ACAD_DSTYLE_DIM_LINETYPE
1070
   380
1005
16
1001
ACAD_DSTYLE_DIM_EXT1_LINETYPE
1070
   381
1005
16
1001
ACAD_DSTYLE_DIM_EXT2_LINETYPE
1070
   382
1005
16
0
DIMENSION
5
22F
100
AcDbEntity
8
SK2
62
256
6
ByLayer
370
18
48
1
60
0
100
AcDbDimension
2
_U2
10
-40
20
33.041937
30
0
11
10
21
33.041937
31
0
70
32
71
1
72
1
41
1
210
0
220
0
230
1
3
Standard
100
AcDbAlignedDimension
13
60
23
0
33
0
14
-40
24
0
34
0
50
0
100
AcDbRotatedDimension
1001
ACAD
1000
DSTYLE
1002
{
1070
   371
1070
    13
1070
   372
1070
    13
1070
     3
1000

1070
   170
1070
     0
1070
   144
1040
1.0
1070
   277
1070
     2
1070
   284
1070
     8
1070
   278
1070
    46
1070
   146
1040
1.166667
1070
   345
1005
16
1070
   347
1005
16
1070
   346
1005
16
1070
   344
1005
0
1070
   343
1005
0
1070
   172
1070
     1
1070
    76
1070
     0
1070
    75
1070
     0
1070
   282
1070
     0
1070
   281
1070
     0
1070
    71
1070
     0
1070
    74
1070
     0
1070
   279
1070
     0
1070
   173
1070
     1
1070
   340
1005
1D3
1070
   271
1070
     2
1070
   272
1070
     2
1070
    77
1070
     1
1070
    73
1070
     1
1070
   171
1070
     3
1070
   274
1070
     4
1070
   177
1070
     2
1070
   176
1070
     2
1070
   178
1070
     2
1070
    78
1070
     8
1070
    48
1040
-0.1
1070
    41
1040
3.5
1070
   147
1040
1.5
1070
    42
1040
1.5875
1070
    44
1040
2.0
1070
   140
1040
3.0
1002
}
1001
ACAD_DSTYLE_DIM_LINETYPE
1070
   380
1005
16
1001
ACAD_DSTYLE_DIM_EXT1_LINETYPE
1070
   381
1005
16
1001
ACAD_DSTYLE_DIM_EXT2_LINETYPE
1070
   382
1005
16
0
DIMENSION
5
247
100
AcDbEntity
8
SK2
62
256
6
ByLayer
370
18
48
1
60
0
100
AcDbDimension
2
_U3
10
0.6
20
-19.492226
30
0
11
-19.7
21
-19.492226
31
0
70
32
71
1
72
1
41
1
210
0
220
0
230
1
3
Standard
100
AcDbAlignedDimension
13
-40
23
0
33
0
14
0.6
24
-5
34
0
50
0
100
AcDbRotatedDimension
1001
ACAD
1000
DSTYLE
1002
{
1070
   371
1070
    13
1070
   372
1070
    13
1070
     3
1000

1070
   170
1070
     0
1070
   144
1040
1.0
1070
   277
1070
     2
1070
   284
1070
     8
1070
   278
1070
    46
1070
   146
1040
1.166667
1070
   345
1005
16
1070
   347
1005
16
1070
   346
1005
16
1070
   344
1005
0
1070
   343
1005
0
1070
   172
1070
     1
1070
    76
1070
     0
1070
    75
1070
     0
1070
   282
1070
     0
1070
   281
1070
     0
1070
    71
1070
     0
1070
    74
1070
     0
1070
   279
1070
     0
1070
   173
1070
     1
1070
   340
1005
1D3
1070
   271
1070
     2
1070
   272
1070
     2
1070
    77
1070
     1
1070
    73
1070
     1
1070
   171
1070
     3
1070
   274
1070
     4
1070
   177
1070
     2
1070
   176
1070
     2
1070
   178
1070
     2
1070
    78
1070
     8
1070
    48
1040
-0.1
1070
    41
1040
3.5
1070
   147
1040
1.5
1070
    42
1040
1.5875
1070
    44
1040
2.0
1070
   140
1040
3.0
1002
}
1001
ACAD_DSTYLE_DIM_LINETYPE
1070
   380
1005
16
1001
ACAD_DSTYLE_DIM_EXT1_LINETYPE
1070
   381
1005
16
1001
ACAD_DSTYLE_DIM_EXT2_LINETYPE
1070
   382
1005
16
0
DIMENSION
5
25F
100
AcDbEntity
8
SK2
62
256
6
ByLayer
370
18
48
1
60
0
100
AcDbDimension
2
_U4
10
52.132
20
-11.5
30
0
11
76.071429
21
-11.5
31
0
70
32
71
1
72
1
41
1
210
0
220
0
230
1
3
Standard
100
AcDbAlignedDimension
13
60
23
0
33
0
14
52.132
24
4.095678
34
0
50
0
100
AcDbRotatedDimension
1001
ACAD
1000
DSTYLE
1002
{
1070
   371
1070
    13
1070
   372
1070
    13
1070
     3
1000

1070
   170
1070
     0
1070
   144
1040
1.0
1070
   277
1070
     2
1070
   284
1070
     8
1070
   278
1070
    46
1070
   146
1040
1.166667
1070
   345
1005
16
1070
   347
1005
16
1070
   346
1005
16
1070
   344
1005
0
1070
   343
1005
0
1070
   172
1070
     1
1070
    76
1070
     0
1070
    75
1070
     0
1070
   282
1070
     0
1070
   281
1070
     0
1070
    71
1070
     0
1070
    74
1070
     0
1070
   279
1070
     0
1070
   173
1070
     1
1070
   340
1005
1D3
1070
   271
1070
     2
1070
   272
1070
     2
1070
    77
1070
     1
1070
    73
1070
     1
1070
   171
1070
     3
1070
   274
1070
     4
1070
   177
1070
     2
1070
   176
1070
     2
1070
   178
1070
     2
1070
    78
1070
     8
1070
    48
1040
-0.1
1070
    41
1040
3.5
1070
   147
1040
1.5
1070
    42
1040
1.5875
1070
    44
1040
2.0
1070
   140
1040
3.0
1002
}
1001
ACAD_DSTYLE_DIM_LINETYPE
1070
   380
1005
16
1001
ACAD_DSTYLE_DIM_EXT1_LINETYPE
1070
   381
1005
16
1001
ACAD_DSTYLE_DIM_EXT2_LINETYPE
1070
   382
1005
16
0
ENDSEC
0
SECTION
2
OBJECTS
0
DICTIONARY
5
2e9
330
0
100
AcDbDictionary
280
0
281
1
3
ACAD_GROUP
350
2ea
3
ACAD_MLINESTYLE
350
2eb
0
DICTIONARY
5
2ea
330
0
100
AcDbDictionary
280
0
281
1
0
DICTIONARY
5
2eb
330
0
100
AcDbDictionary
280
0
281
1
3
Standard
350
18
0
MLINESTYLE
5
18
330
2eb
100
AcDbMlineStyle
2
Standard
70
0
3

62
256
51
90
52
90
71
2
49
-0.5
62
256
6
ByLayer
49
0.5
62
256
6
ByLayer
0
RASTERVARIABLES
5
2d7
330

100
AcDbRasterVariables
90
0
70
1
71
1
72
1
0
ENDSEC
0
EOF
