0
SECTION
2
HEADER
9
$ACADVER
1
AC1015
9
$DWGCODEPAGE
3
ANSI_1252
9
$HANDSEED
5
2fb
9
$ANGBASE
50
0
9
$ANGDIR
70
0
9
$ATTMODE
70
1
9
$AUNITS
70
0
9
$AUPREC
70
0
9
$CECOLOR
62
256
9
$CELTSCALE
40
1
9
$CELTYPE
6
ByLayer
9
$CELWEIGHT
370
18
9
$CLAYER
8
0
9
$CMLJUST
70
0
9
$CMLSCALE
40
1
9
$CMLSTYLE
2
Standard
9
$DIMSTYLE
2
Standard
9
$TEXTSIZE
40
0.2
9
$TEXTSTYLE
7
Standard
9
$LUNITS
70
2
9
$LUPREC
70
4
9
$EXTNAMES
290
1
9
$INSUNITS
70
4
9
$LTSCALE
40
1
9
$LWDISPLAY
290
1
9
$PDMODE
70
0
9
$PDSIZE
40
0
9
$PLINEGEN
70
0
0
ENDSEC
0
SECTION
2
CLASSES
0
CLASS
1
RASTERVARIABLES
2
AcDbRasterVariables
3
ISM
90
0
280
0
281
0
0
ENDSEC
0
SECTION
2
TABLES
0
TABLE
2
VPORT
5
2f1
100
AcDbSymbolTable
0
VPORT
5
1
100
AcDbSymbolTableRecord
100
AcDbViewportTableRecord
2
*Active
70
0
10
0
20
0
11
1
21
1
12
-1
22
1
13
0
23
0
14
0.5
24
0.5
15
10
25
10
16
0
26
0
36
1
17
0
27
0
37
0
0
ENDTAB
0
TABLE
2
LTYPE
5
2f2
100
AcDbSymbolTable
0
LTYPE
5
14
100
AcDbSymbolTableRecord
100
AcDbLinetypeTableRecord
70
0
2
ByBlock
3

72
65
73
0
40
0
0
LTYPE
5
15
100
AcDbSymbolTableRecord
100
AcDbLinetypeTableRecord
70
0
2
ByLayer
3

72
65
73
0
40
0
0
LTYPE
5
16
100
AcDbSymbolTableRecord
100
AcDbLinetypeTableRecord
70
0
2
Continuous
3
Solid line
72
65
73
0
40
0
0
LTYPE
5
6E
100
AcDbSymbolTableRecord
100
AcDbLinetypeTableRecord
70
0
2
CENTER
3
____ _ ____ _ ____ _ ____
72
65
73
4
40
47.5
49
22
74
0
49
-8.5
74
0
49
8.5
74
0
49
-8.5
74
0
0
LTYPE
5
6F
100
AcDbSymbolTableRecord
100
AcDbLinetypeTableRecord
70
0
2
DASHED
3
__ __ __ __ __ __ __ __ __
72
65
73
2
40
25.72
49
12.86
74
0
49
-12.86
74
0
0
ENDTAB
0
TABLE
2
LAYER
5
2f3
100
AcDbSymbolTable
0
LAYER
5
10
100
AcDbSymbolTableRecord
100
AcDbLayerTableRecord
2
0
70
0
62
7
6
Continuous
290
1
370
-3
390
0
0
LAYER
5
71
100
AcDbSymbolTableRecord
100
AcDbLayerTableRecord
2
81
70
0
62
-3
6
Continuous
290
1
370
-3
390
0
0
LAYER
5
73
100
AcDbSymbolTableRecord
100
AcDbLayerTableRecord
2
80
70
0
62
-6
6
Continuous
290
1
370
-3
390
0
0
LAYER
5
75
100
AcDbSymbolTableRecord
100
AcDbLayerTableRecord
2
1
70
0
62
4
6
Continuous
290
1
370
-3
390
0
0
LAYER
5
82
100
AcDbSymbolTableRecord
100
AcDbLayerTableRecord
2
4
70
0
62
-2
6
CENTER
290
1
370
-3
390
0
0
LAYER
5
100
100
AcDbSymbolTableRecord
100
AcDbLayerTableRecord
2
2
70
0
62
7
6
Continuous
290
1
370
-3
390
0
0
LAYER
5
205
100
AcDbSymbolTableRecord
100
AcDbLayerTableRecord
2
Defpoints
70
0
62
7
6
Continuous
290
0
370
-3
390
0
0
LAYER
5
2dd
100
AcDbSymbolTableRecord
100
AcDbLayerTableRecord
2
SK4
70
0
62
2
6
CENTER
290
1
370
-3
390
0
0
LAYER
5
2de
100
AcDbSymbolTableRecord
100
AcDbLayerTableRecord
2
SK1
70
0
62
4
6
Continuous
290
1
370
-3
390
0
0
LAYER
5
2df
100
AcDbSymbolTableRecord
100
AcDbLayerTableRecord
2
SK2
70
0
62
7
6
Continuous
290
1
370
-3
390
0
0
LAYER
5
2e0
100
AcDbSymbolTableRecord
100
AcDbLayerTableRecord
2
SK6
70
0
62
5
6
Continuous
290
1
370
-3
390
0
0
ENDTAB
0
TABLE
2
STYLE
5
2f4
100
AcDbSymbolTable
0
STYLE
5
11
100
AcDbSymbolTableRecord
100
AcDbTextStyleTableRecord
2
Standard
3
txt
70
0
71
0
40
0
41
1
42
0
50
0
0
STYLE
5
1D7
100
AcDbSymbolTableRecord
100
AcDbTextStyleTableRecord
2
iso_b_vert
3
simplex.shx
70
0
71
0
40
0
41
1
42
0
50
0
0
STYLE
5
1D8
100
AcDbSymbolTableRecord
100
AcDbTextStyleTableRecord
2
DWGDirectTextStyle
3
simplex
70
0
71
0
40
0
41
1
42
0
50
0
0
ENDTAB
0
TABLE
2
DIMSTYLE
5
2f5
100
AcDbSymbolTable
100
AcDbDimStyleTable
0
DIMSTYLE
105
27
100
AcDbSymbolTableRecord
100
AcDbDimStyleTableRecord
2
Standard
70
0
3
<>
41
0.18
42
0.0625
44
0.18
140
0.18
147
0.09
73
0
74
0
77
1
271
2
275
0
278
52
280
0
340
11
0
ENDTAB
0
TABLE
2
VIEW
5
2f6
100
AcDbSymbolTable
0
ENDTAB
0
TABLE
2
UCS
5
2f7
100
AcDbSymbolTable
0
ENDTAB
0
TABLE
2
APPID
5
2f8
100
AcDbSymbolTable
0
APPID
5
12
100
AcDbSymbolTableRecord
100
AcDbRegAppTableRecord
2
ACAD
70
0
0
APPID
5
201
100
AcDbSymbolTableRecord
100
AcDbRegAppTableRecord
2
ACAD_DSTYLE_DIMBREAK
70
0
0
APPID
5
29C
100
AcDbSymbolTableRecord
100
AcDbRegAppTableRecord
2
ACAD_DSTYLE_DIM_LINETYPE
70
0
0
APPID
5
29D
100
AcDbSymbolTableRecord
100
AcDbRegAppTableRecord
2
ACAD_DSTYLE_DIM_EXT1_LINETYPE
70
0
0
APPID
5
29E
100
AcDbSymbolTableRecord
100
AcDbRegAppTableRecord
2
ACAD_DSTYLE_DIM_EXT2_LINETYPE
70
0
0
APPID
5
2D9
100
AcDbSymbolTableRecord
100
AcDbRegAppTableRecord
2
ACAD_MLEADERVER
70
0
0
ENDTAB
0
TABLE
2
BLOCK_RECORD
5
2f9
100
AcDbSymbolTable
0
BLOCK_RECORD
5
1F
100
AcDbSymbolTableRecord
100
AcDbBlockTableRecord
2
*Model_Space
340
0
70
0
0
BLOCK_RECORD
5
1B
100
AcDbSymbolTableRecord
100
AcDbBlockTableRecord
2
*Paper_Space
340
0
70
0
0
BLOCK_RECORD
5
23
100
AcDbSymbolTableRecord
100
AcDbBlockTableRecord
2
*Paper_Space0
340
0
70
0
0
BLOCK_RECORD
5
206
100
AcDbSymbolTableRecord
100
AcDbBlockTableRecord
2
*D1
340
0
70
0
0
BLOCK_RECORD
5
213
100
AcDbSymbolTableRecord
100
AcDbBlockTableRecord
2
_U0
340
0
70
0
0
BLOCK_RECORD
5
21F
100
AcDbSymbolTableRecord
100
AcDbBlockTableRecord
2
*D3
340
0
70
0
0
BLOCK_RECORD
5
22B
100
AcDbSymbolTableRecord
100
AcDbBlockTableRecord
2
_U1
340
0
70
0
0
BLOCK_RECORD
5
237
100
AcDbSymbolTableRecord
100
AcDbBlockTableRecord
2
*D5
340
0
70
0
0
BLOCK_RECORD
5
243
100
AcDbSymbolTableRecord
100
AcDbBlockTableRecord
2
_U2
340
0
70
0
0
BLOCK_RECORD
5
24F
100
AcDbSymbolTableRecord
100
AcDbBlockTableRecord
2
*D7
340
0
70
0
0
BLOCK_RECORD
5
25B
100
AcDbSymbolTableRecord
100
AcDbBlockTableRecord
2
_U3
340
0
70
0
0
BLOCK_RECORD
5
267
100
AcDbSymbolTableRecord
100
AcDbBlockTableRecord
2
*D9
340
0
70
0
0
BLOCK_RECORD
5
275
100
AcDbSymbolTableRecord
100
AcDbBlockTableRecord
2
_U4
340
0
70
0
0
ENDTAB
0
ENDSEC
0
SECTION
2
BLOCKS
0
BLOCK
5
20
100
AcDbEntity
8
0
100
AcDbBlockBegin
2
*Model_Space
70
0
10
0
20
0
30
0
3
*Model_Space
0
ENDBLK
5
21
100
AcDbEntity
8
0
100
AcDbBlockEnd
0
BLOCK
5
1C
100
AcDbEntity
8
0
100
AcDbBlockBegin
2
*Paper_Space
70
0
10
0
20
0
30
0
3
*Paper_Space
0
ENDBLK
5
1D
100
AcDbEntity
8
0
100
AcDbBlockEnd
0
BLOCK
5
24
100
AcDbEntity
8
0
100
AcDbBlockBegin
2
*Paper_Space0
70
0
10
0
20
0
30
0
3
*Paper_Space0
0
ENDBLK
5
25
100
AcDbEntity
8
0
100
AcDbBlockEnd
0
BLOCK
5
207
100
AcDbEntity
8
0
100
AcDbBlockBegin
2
*D1
70
1
10
0
20
0
30
0
3
*D1
0
LINE
5
209
100
AcDbEntity
8
0
62
256
6
ByLayer
370
-2
48
1
60
0
100
AcDbLine
10
44
20
1.5875
30
0
11
44
21
12.85
31
0
39
0
210
0
220
0
230
1
0
LINE
5
20A
100
AcDbEntity
8
0
62
256
6
ByLayer
370
-2
48
1
60
0
100
AcDbLine
10
30
20
3.225911
30
0
11
30
21
12.85
31
0
39
0
210
0
220
0
230
1
0
LINE
5
20B
100
AcDbEntity
8
0
62
256
6
ByLayer
370
-2
48
1
60
0
100
AcDbLine
10
47.5
20
10.85
30
0
11
51
21
10.85
31
0
39
0
210
0
220
0
230
1
0
LINE
5
20C
100
AcDbEntity
8
0
62
256
6
ByLayer
370
-2
48
1
60
0
100
AcDbLine
10
26.5
20
10.85
30
0
11
23
21
10.85
31
0
39
0
210
0
220
0
230
1
0
SOLID
5
20D
100
AcDbEntity
8
0
62
256
6
ByLayer
370
-1
48
1
60
0
100
AcDbTrace
10
47.5
20
11.433333
30
0
11
47.5
21
10.266667
31
0
12
44
22
10.85
32
0
13
44
23
10.85
33
0
39
0
210
0
220
0
230
1
0
SOLID
5
20E
100
AcDbEntity
8
0
62
256
6
ByLayer
370
-1
48
1
60
0
100
AcDbTrace
10
26.5
20
10.266667
30
0
11
26.5
21
11.433333
31
0
12
30
22
10.85
32
0
13
30
23
10.85
33
0
39
0
210
0
220
0
230
1
0
MTEXT
5
20F
100
AcDbEntity
8
0
62
256
6
ByLayer
370
18
48
1
60
0
100
AcDbMText
10
37
20
16.85
30
0
210
0
220
0
230
1
1
\A1;14
40
3
41
0
44
1
50
0
71
5
72
5
7
iso_b_vert
0
POINT
5
210
100
AcDbEntity
8
Defpoints
62
0
6
ByLayer
370
-1
48
1
60
0
100
AcDbPoint
10
44
20
0
30
0
39
0
210
0
220
0
230
1
50
360
0
POINT
5
211
100
AcDbEntity
8
Defpoints
62
0
6
ByLayer
370
-1
48
1
60
0
100
AcDbPoint
10
30
20
1.638411
30
0
39
0
210
0
220
0
230
1
50
360
0
POINT
5
212
100
AcDbEntity
8
Defpoints
62
0
6
ByLayer
370
-1
48
1
60
0
100
AcDbPoint
10
30
20
10.85
30
0
39
0
210
0
220
0
230
1
50
360
0
ENDBLK
5
208
100
AcDbEntity
8
0
100
AcDbBlockEnd
0
BLOCK
5
21A
100
AcDbEntity
8
0
100
AcDbBlockBegin
2
_U0
70
0
10
0
20
0
30
0
3
_U0
0
MTEXT
5
214
100
AcDbEntity
8
2
62
256
6
ByLayer
370
18
48
1
60
0
100
AcDbMText
10
35.584172
20
11.735114
30
0
210
0
220
0
230
1
1
\W0.5785;14
40
3
41
0
44
1.084337
50
0
71
7
72
5
7
iso_b_vert
0
LINE
5
215
100
AcDbEntity
8
2
62
256
6
ByLayer
370
13
48
1
60
0
100
AcDbLine
10
44
20
1.5875
30
0
11
44
21
12.85
31
0
39
0
210
0
220
0
230
1
0
LINE
5
216
100
AcDbEntity
8
2
62
256
6
ByLayer
370
13
48
1
60
0
100
AcDbLine
10
30
20
3.225911
30
0
11
30
21
12.85
31
0
39
0
210
0
220
0
230
1
0
LINE
5
217
100
AcDbEntity
8
2
62
256
6
ByLayer
370
13
48
1
60
0
100
AcDbLine
10
44
20
10.85
30
0
11
30
21
10.85
31
0
39
0
210
0
220
0
230
1
0
SOLID
5
218
100
AcDbEntity
8
2
62
256
6
ByLayer
370
18
48
1
60
0
100
AcDbTrace
10
44
20
10.85
30
0
11
40.500002
21
10.389216
31
0
12
40.499998
22
11.310784
32
0
13
40.499998
23
11.310784
33
0
39
0
210
0
220
0
230
1
0
SOLID
5
219
100
AcDbEntity
8
2
62
256
6
ByLayer
370
18
48
1
60
0
100
AcDbTrace
10
30
20
10.85
30
0
11
33.499998
21
11.310784
31
0
12
33.500002
22
10.389216
32
0
13
33.500002
23
10.389216
33
0
39
0
210
0
220
0
230
1
0
ENDBLK
5
21B
100
AcDbEntity
8
0
100
AcDbBlockEnd
0
BLOCK
5
220
100
AcDbEntity
8
0
100
AcDbBlockBegin
2
*D3
70
1
10
0
20
0
30
0
3
*D3
0
LINE
5
222
100
AcDbEntity
8
0
62
256
6
ByLayer
370
-2
48
1
60
0
100
AcDbLine
10
44
20
1.5875
30
0
11
44
21
22.85
31
0
39
0
210
0
220
0
230
1
0
LINE
5
223
100
AcDbEntity
8
0
62
256
6
ByLayer
370
-2
48
1
60
0
100
AcDbLine
10
19.930152
20
4.5875
30
0
11
19.930152
21
22.85
31
0
39
0
210
0
220
0
230
1
0
LINE
5
224
100
AcDbEntity
8
0
62
256
6
ByLayer
370
-2
48
1
60
0
100
AcDbLine
10
40.5
20
20.85
30
0
11
23.430152
21
20.85
31
0
39
0
210
0
220
0
230
1
0
SOLID
5
225
100
AcDbEntity
8
0
62
256
6
ByLayer
370
-1
48
1
60
0
100
AcDbTrace
10
40.5
20
20.266667
30
0
11
40.5
21
21.433333
31
0
12
44
22
20.85
32
0
13
44
23
20.85
33
0
39
0
210
0
220
0
230
1
0
SOLID
5
226
100
AcDbEntity
8
0
62
256
6
ByLayer
370
-1
48
1
60
0
100
AcDbTrace
10
23.430152
20
21.433333
30
0
11
23.430152
21
20.266667
31
0
12
19.930152
22
20.85
32
0
13
19.930152
23
20.85
33
0
39
0
210
0
220
0
230
1
0
MTEXT
5
227
100
AcDbEntity
8
0
62
256
6
ByLayer
370
18
48
1
60
0
100
AcDbMText
10
31.965076
20
26.85
30
0
210
0
220
0
230
1
1
\A1;24.07
40
3
41
0
44
1
50
0
71
5
72
5
7
iso_b_vert
0
POINT
5
228
100
AcDbEntity
8
Defpoints
62
0
6
ByLayer
370
-1
48
1
60
0
100
AcDbPoint
10
44
20
0
30
0
39
0
210
0
220
0
230
1
50
360
0
POINT
5
229
100
AcDbEntity
8
Defpoints
62
0
6
ByLayer
370
-1
48
1
60
0
100
AcDbPoint
10
19.930152
20
3
30
0
39
0
210
0
220
0
230
1
50
360
0
POINT
5
22A
100
AcDbEntity
8
Defpoints
62
0
6
ByLayer
370
-1
48
1
60
0
100
AcDbPoint
10
19.930152
20
20.85
30
0
39
0
210
0
220
0
230
1
50
360
0
ENDBLK
5
221
100
AcDbEntity
8
0
100
AcDbBlockEnd
0
BLOCK
5
232
100
AcDbEntity
8
0
100
AcDbBlockBegin
2
_U1
70
0
10
0
20
0
30
0
3
_U1
0
MTEXT
5
22C
100
AcDbEntity
8
2
62
256
6
ByLayer
370
18
48
1
60
0
100
AcDbMText
10
30.174305
20
21.735114
30
0
210
0
220
0
230
1
1
\W0.7167;24
40
3
41
0
44
1.084337
50
0
71
7
72
5
7
iso_b_vert
0
LINE
5
22D
100
AcDbEntity
8
2
62
256
6
ByLayer
370
13
48
1
60
0
100
AcDbLine
10
44
20
1.5875
30
0
11
44
21
22.85
31
0
39
0
210
0
220
0
230
1
0
LINE
5
22E
100
AcDbEntity
8
2
62
256
6
ByLayer
370
13
48
1
60
0
100
AcDbLine
10
19.930152
20
4.5875
30
0
11
19.930152
21
22.85
31
0
39
0
210
0
220
0
230
1
0
LINE
5
22F
100
AcDbEntity
8
2
62
256
6
ByLayer
370
13
48
1
60
0
100
AcDbLine
10
44
20
20.85
30
0
11
19.930152
21
20.85
31
0
39
0
210
0
220
0
230
1
0
SOLID
5
230
100
AcDbEntity
8
2
62
256
6
ByLayer
370
18
48
1
60
0
100
AcDbTrace
10
44
20
20.85
30
0
11
40.500002
21
20.389216
31
0
12
40.499998
22
21.310784
32
0
13
40.499998
23
21.310784
33
0
39
0
210
0
220
0
230
1
0
SOLID
5
231
100
AcDbEntity
8
2
62
256
6
ByLayer
370
18
48
1
60
0
100
AcDbTrace
10
19.930152
20
20.85
30
0
11
23.43015
21
21.310784
31
0
12
23.430154
22
20.389216
32
0
13
23.430154
23
20.389216
33
0
39
0
210
0
220
0
230
1
0
ENDBLK
5
233
100
AcDbEntity
8
0
100
AcDbBlockEnd
0
BLOCK
5
238
100
AcDbEntity
8
0
100
AcDbBlockBegin
2
*D5
70
1
10
0
20
0
30
0
3
*D5
0
LINE
5
23A
100
AcDbEntity
8
0
62
256
6
ByLayer
370
-2
48
1
60
0
100
AcDbLine
10
44
20
1.5875
30
0
11
44
21
32.85
31
0
39
0
210
0
220
0
230
1
0
LINE
5
23B
100
AcDbEntity
8
0
62
256
6
ByLayer
370
-2
48
1
60
0
100
AcDbLine
10
-36
20
1.5875
30
0
11
-36
21
32.85
31
0
39
0
210
0
220
0
230
1
0
LINE
5
23C
100
AcDbEntity
8
0
62
256
6
ByLayer
370
-2
48
1
60
0
100
AcDbLine
10
40.5
20
30.85
30
0
11
-32.5
21
30.85
31
0
39
0
210
0
220
0
230
1
0
SOLID
5
23D
100
AcDbEntity
8
0
62
256
6
ByLayer
370
-1
48
1
60
0
100
AcDbTrace
10
40.5
20
30.266667
30
0
11
40.5
21
31.433333
31
0
12
44
22
30.85
32
0
13
44
23
30.85
33
0
39
0
210
0
220
0
230
1
0
SOLID
5
23E
100
AcDbEntity
8
0
62
256
6
ByLayer
370
-1
48
1
60
0
100
AcDbTrace
10
-32.5
20
31.433333
30
0
11
-32.5
21
30.266667
31
0
12
-36
22
30.85
32
0
13
-36
23
30.85
33
0
39
0
210
0
220
0
230
1
0
MTEXT
5
23F
100
AcDbEntity
8
0
62
256
6
ByLayer
370
18
48
1
60
0
100
AcDbMText
10
4
20
36.85
30
0
210
0
220
0
230
1
1
\A1;80
40
3
41
0
44
1
50
0
71
5
72
5
7
iso_b_vert
0
POINT
5
240
100
AcDbEntity
8
Defpoints
62
0
6
ByLayer
370
-1
48
1
60
0
100
AcDbPoint
10
44
20
0
30
0
39
0
210
0
220
0
230
1
50
360
0
POINT
5
241
100
AcDbEntity
8
Defpoints
62
0
6
ByLayer
370
-1
48
1
60
0
100
AcDbPoint
10
-36
20
0
30
0
39
0
210
0
220
0
230
1
50
360
0
POINT
5
242
100
AcDbEntity
8
Defpoints
62
0
6
ByLayer
370
-1
48
1
60
0
100
AcDbPoint
10
-36
20
30.85
30
0
39
0
210
0
220
0
230
1
50
360
0
ENDBLK
5
239
100
AcDbEntity
8
0
100
AcDbBlockEnd
0
BLOCK
5
24A
100
AcDbEntity
8
0
100
AcDbBlockBegin
2
_U2
70
0
10
0
20
0
30
0
3
_U2
0
MTEXT
5
244
100
AcDbEntity
8
SK2
62
256
6
ByLayer
370
18
48
1
60
0
100
AcDbMText
10
2.367172
20
31.735114
30
0
210
0
220
0
230
1
1
\W0.6740;80
40
3
41
0
44
1.084337
50
0
71
7
72
5
7
iso_b_vert
0
LINE
5
245
100
AcDbEntity
8
SK2
62
256
6
ByLayer
370
13
48
1
60
0
100
AcDbLine
10
44
20
1.5875
30
0
11
44
21
32.85
31
0
39
0
210
0
220
0
230
1
0
LINE
5
246
100
AcDbEntity
8
SK2
62
256
6
ByLayer
370
13
48
1
60
0
100
AcDbLine
10
-36
20
1.5875
30
0
11
-36
21
32.85
31
0
39
0
210
0
220
0
230
1
0
LINE
5
247
100
AcDbEntity
8
SK2
62
256
6
ByLayer
370
13
48
1
60
0
100
AcDbLine
10
44
20
30.85
30
0
11
-36
21
30.85
31
0
39
0
210
0
220
0
230
1
0
SOLID
5
248
100
AcDbEntity
8
SK2
62
256
6
ByLayer
370
18
48
1
60
0
100
AcDbTrace
10
44
20
30.85
30
0
11
40.500002
21
30.389216
31
0
12
40.499998
22
31.310784
32
0
13
40.499998
23
31.310784
33
0
39
0
210
0
220
0
230
1
0
SOLID
5
249
100
AcDbEntity
8
SK2
62
256
6
ByLayer
370
18
48
1
60
0
100
AcDbTrace
10
-36
20
30.85
30
0
11
-32.500002
21
31.310784
31
0
12
-32.499998
22
30.389216
32
0
13
-32.499998
23
30.389216
33
0
39
0
210
0
220
0
230
1
0
ENDBLK
5
24B
100
AcDbEntity
8
0
100
AcDbBlockEnd
0
BLOCK
5
250
100
AcDbEntity
8
0
100
AcDbBlockBegin
2
*D7
70
1
10
0
20
0
30
0
3
*D7
0
LINE
5
252
100
AcDbEntity
8
0
62
256
6
ByLayer
370
-2
48
1
60
0
100
AcDbLine
10
-36
20
-1.5875
30
0
11
-36
21
-16.028121
31
0
39
0
210
0
220
0
230
1
0
LINE
5
253
100
AcDbEntity
8
0
62
256
6
ByLayer
370
-2
48
1
60
0
100
AcDbLine
10
0.4
20
-4.5875
30
0
11
0.4
21
-16.028121
31
0
39
0
210
0
220
0
230
1
0
LINE
5
254
100
AcDbEntity
8
0
62
256
6
ByLayer
370
-2
48
1
60
0
100
AcDbLine
10
-32.5
20
-14.028121
30
0
11
-3.1
21
-14.028121
31
0
39
0
210
0
220
0
230
1
0
SOLID
5
255
100
AcDbEntity
8
0
62
256
6
ByLayer
370
-1
48
1
60
0
100
AcDbTrace
10
-32.5
20
-13.444788
30
0
11
-32.5
21
-14.611454
31
0
12
-36
22
-14.028121
32
0
13
-36
23
-14.028121
33
0
39
0
210
0
220
0
230
1
0
SOLID
5
256
100
AcDbEntity
8
0
62
256
6
ByLayer
370
-1
48
1
60
0
100
AcDbTrace
10
-3.1
20
-14.611454
30
0
11
-3.1
21
-13.444788
31
0
12
0.4
22
-14.028121
32
0
13
0.4
23
-14.028121
33
0
39
0
210
0
220
0
230
1
0
MTEXT
5
257
100
AcDbEntity
8
0
62
256
6
ByLayer
370
18
48
1
60
0
100
AcDbMText
10
-17.8
20
-8.028121
30
0
210
0
220
0
230
1
1
\A1;36.4
40
3
41
0
44
1
50
0
71
5
72
5
7
iso_b_vert
0
POINT
5
258
100
AcDbEntity
8
Defpoints
62
0
6
ByLayer
370
-1
48
1
60
0
100
AcDbPoint
10
-36
20
0
30
0
39
0
210
0
220
0
230
1
50
360
0
POINT
5
259
100
AcDbEntity
8
Defpoints
62
0
6
ByLayer
370
-1
48
1
60
0
100
AcDbPoint
10
0.4
20
-3
30
0
39
0
210
0
220
0
230
1
50
360
0
POINT
5
25A
100
AcDbEntity
8
Defpoints
62
0
6
ByLayer
370
-1
48
1
60
0
100
AcDbPoint
10
0.4
20
-14.028121
30
0
39
0
210
0
220
0
230
1
50
360
0
ENDBLK
5
251
100
AcDbEntity
8
0
100
AcDbBlockEnd
0
BLOCK
5
262
100
AcDbEntity
8
0
100
AcDbBlockBegin
2
_U3
70
0
10
0
20
0
30
0
3
_U3
0
MTEXT
5
25C
100
AcDbEntity
8
SK2
62
256
6
ByLayer
370
18
48
1
60
0
100
AcDbMText
10
-25.364913
20
-13.143006
30
0
210
0
220
0
230
1
1
\W0.7245;(MIN. 36)
40
3
41
0
44
1.084337
50
0
71
7
72
5
7
iso_b_vert
0
LINE
5
25D
100
AcDbEntity
8
SK2
62
256
6
ByLayer
370
13
48
1
60
0
100
AcDbLine
10
-36
20
-1.5875
30
0
11
-36
21
-16.028121
31
0
39
0
210
0
220
0
230
1
0
LINE
5
25E
100
AcDbEntity
8
SK2
62
256
6
ByLayer
370
13
48
1
60
0
100
AcDbLine
10
0.4
20
-4.5875
30
0
11
0.4
21
-16.028121
31
0
39
0
210
0
220
0
230
1
0
LINE
5
25F
100
AcDbEntity
8
SK2
62
256
6
ByLayer
370
13
48
1
60
0
100
AcDbLine
10
-36
20
-14.028121
30
0
11
0.4
21
-14.028121
31
0
39
0
210
0
220
0
230
1
0
SOLID
5
260
100
AcDbEntity
8
SK2
62
256
6
ByLayer
370
18
48
1
60
0
100
AcDbTrace
10
-36
20
-14.028121
30
0
11
-32.500002
21
-13.567337
31
0
12
-32.499998
22
-14.488905
32
0
13
-32.499998
23
-14.488905
33
0
39
0
210
0
220
0
230
1
0
SOLID
5
261
100
AcDbEntity
8
SK2
62
256
6
ByLayer
370
18
48
1
60
0
100
AcDbTrace
10
0.4
20
-14.028121
30
0
11
-3.099998
21
-14.488905
31
0
12
-3.100002
22
-13.567337
32
0
13
-3.100002
23
-13.567337
33
0
39
0
210
0
220
0
230
1
0
ENDBLK
5
263
100
AcDbEntity
8
0
100
AcDbBlockEnd
0
BLOCK
5
268
100
AcDbEntity
8
0
100
AcDbBlockBegin
2
*D9
70
1
10
0
20
0
30
0
3
*D9
0
LINE
5
26A
100
AcDbEntity
8
0
62
256
6
ByLayer
370
-2
48
1
60
0
100
AcDbLine
10
44
20
-1.5875
30
0
11
44
21
-13.5
31
0
39
0
210
0
220
0
230
1
0
LINE
5
26B
100
AcDbEntity
8
0
62
256
6
ByLayer
370
-2
48
1
60
0
100
AcDbLine
10
40.853
20
0.050911
30
0
11
40.853
21
-13.5
31
0
39
0
210
0
220
0
230
1
0
LINE
5
26C
100
AcDbEntity
8
0
62
256
6
ByLayer
370
-2
48
1
60
0
100
AcDbLine
10
44
20
-11.5
30
0
11
69.142857
21
-11.5
31
0
39
0
210
0
220
0
230
1
0
LINE
5
26D
100
AcDbEntity
8
0
62
256
6
ByLayer
370
-2
48
1
60
0
100
AcDbLine
10
47.5
20
-11.5
30
0
11
51
21
-11.5
31
0
39
0
210
0
220
0
230
1
0
LINE
5
26E
100
AcDbEntity
8
0
62
256
6
ByLayer
370
-2
48
1
60
0
100
AcDbLine
10
37.353
20
-11.5
30
0
11
33.853
21
-11.5
31
0
39
0
210
0
220
0
230
1
0
SOLID
5
26F
100
AcDbEntity
8
0
62
256
6
ByLayer
370
-1
48
1
60
0
100
AcDbTrace
10
47.5
20
-10.916667
30
0
11
47.5
21
-12.083333
31
0
12
44
22
-11.5
32
0
13
44
23
-11.5
33
0
39
0
210
0
220
0
230
1
0
SOLID
5
270
100
AcDbEntity
8
0
62
256
6
ByLayer
370
-1
48
1
60
0
100
AcDbTrace
10
37.353
20
-12.083333
30
0
11
37.353
21
-10.916667
31
0
12
40.853
22
-11.5
32
0
13
40.853
23
-11.5
33
0
39
0
210
0
220
0
230
1
0
MTEXT
5
271
100
AcDbEntity
8
0
62
256
6
ByLayer
370
18
48
1
60
0
100
AcDbMText
10
60.071429
20
-5.5
30
0
210
0
220
0
230
1
1
\A1;3.15
40
3
41
0
44
1
50
0
71
5
72
5
7
iso_b_vert
0
POINT
5
272
100
AcDbEntity
8
Defpoints
62
0
6
ByLayer
370
-1
48
1
60
0
100
AcDbPoint
10
44
20
0
30
0
39
0
210
0
220
0
230
1
50
360
0
POINT
5
273
100
AcDbEntity
8
Defpoints
62
0
6
ByLayer
370
-1
48
1
60
0
100
AcDbPoint
10
40.853
20
1.638411
30
0
39
0
210
0
220
0
230
1
50
360
0
POINT
5
274
100
AcDbEntity
8
Defpoints
62
0
6
ByLayer
370
-1
48
1
60
0
100
AcDbPoint
10
40.853
20
-11.5
30
0
39
0
210
0
220
0
230
1
50
360
0
ENDBLK
5
269
100
AcDbEntity
8
0
100
AcDbBlockEnd
0
BLOCK
5
27C
100
AcDbEntity
8
0
100
AcDbBlockBegin
2
_U4
70
0
10
0
20
0
30
0
3
_U4
0
MTEXT
5
276
100
AcDbEntity
8
SK2
62
256
6
ByLayer
370
18
48
1
60
0
100
AcDbMText
10
54.159
20
-10.614886
30
0
210
0
220
0
230
1
1
\W0.6563;3.15
40
3
41
0
44
1.084337
50
0
71
7
72
5
7
iso_b_vert
0
LINE
5
277
100
AcDbEntity
8
SK2
62
256
6
ByLayer
370
13
48
1
60
0
100
AcDbLine
10
44
20
-1.5875
30
0
11
44
21
-13.5
31
0
39
0
210
0
220
0
230
1
0
LINE
5
278
100
AcDbEntity
8
SK2
62
256
6
ByLayer
370
13
48
1
60
0
100
AcDbLine
10
40.853
20
0.050911
30
0
11
40.853
21
-13.5
31
0
39
0
210
0
220
0
230
1
0
LINE
5
279
100
AcDbEntity
8
SK2
62
256
6
ByLayer
370
13
48
1
60
0
100
AcDbLine
10
33.353
20
-11.5
30
0
11
60.291027
21
-11.5
31
0
39
0
210
0
220
0
230
1
0
SOLID
5
27A
100
AcDbEntity
8
SK2
62
256
6
ByLayer
370
18
48
1
60
0
100
AcDbTrace
10
44
20
-11.5
30
0
11
47.499998
21
-11.039216
31
0
12
47.500002
22
-11.960784
32
0
13
47.500002
23
-11.960784
33
0
39
0
210
0
220
0
230
1
0
SOLID
5
27B
100
AcDbEntity
8
SK2
62
256
6
ByLayer
370
18
48
1
60
0
100
AcDbTrace
10
40.853
20
-11.5
30
0
11
37.353002
21
-11.960784
31
0
12
37.352998
22
-11.039216
32
0
13
37.352998
23
-11.039216
33
0
39
0
210
0
220
0
230
1
0
ENDBLK
5
27D
100
AcDbEntity
8
0
100
AcDbBlockEnd
0
ENDSEC
0
SECTION
2
ENTITIES
0
ARC
5
111
100
AcDbEntity
8
1
62
256
6
ByLayer
370
18
48
1
60
0
100
AcDbCircle
39
0
10
29.997914
20
2.6385
30
0
40
1
210
0
220
0
230
1
100
AcDbArc
50
262.246851
51
270
0
ARC
5
112
100
AcDbEntity
8
1
62
256
6
ByLayer
370
18
48
1
60
0
100
AcDbCircle
39
0
10
29.997914
20
-2.6385
30
0
40
1
210
0
220
0
230
1
100
AcDbArc
50
90
51
97.753149
0
ARC
5
113
100
AcDbEntity
8
81
62
256
6
ByLayer
370
18
48
1
60
0
100
AcDbCircle
39
0
10
40.409481
20
-4.203493
30
0
40
2.63457201705388
210
0
220
0
230
1
100
AcDbArc
50
90
51
103.188732
0
ARC
5
114
100
AcDbEntity
8
81
62
256
6
ByLayer
370
18
48
1
60
0
100
AcDbCircle
39
0
10
40.709481
20
-1.789782
30
0
40
0.220860750471019
210
0
220
0
230
1
100
AcDbArc
50
49.732301
51
90
0
ARC
5
115
100
AcDbEntity
8
81
62
256
6
ByLayer
370
18
48
1
60
0
100
AcDbCircle
39
0
10
40.709481
20
1.789782
30
0
40
0.220860750471019
210
0
220
0
230
1
100
AcDbArc
50
270
51
310.267699
0
ARC
5
116
100
AcDbEntity
8
81
62
256
6
ByLayer
370
18
48
1
60
0
100
AcDbCircle
39
0
10
42
20
0
30
0
40
1.9865
210
0
220
0
230
1
100
AcDbArc
50
81.396611
51
125.267699
0
ARC
5
117
100
AcDbEntity
8
81
62
256
6
ByLayer
370
18
48
1
60
0
100
AcDbCircle
39
0
10
42
20
0
30
0
40
1.9865
210
0
220
0
230
1
100
AcDbArc
50
66.783341
51
77.086601
0
ARC
5
118
100
AcDbEntity
8
81
62
256
6
ByLayer
370
18
48
1
60
0
100
AcDbCircle
39
0
10
42
20
0
30
0
40
1.9865
210
0
220
0
230
1
100
AcDbArc
50
1.24092
51
54.135207
0
ARC
5
119
100
AcDbEntity
8
81
62
256
6
ByLayer
370
18
48
1
60
0
100
AcDbCircle
39
0
10
42
20
0
30
0
40
1.9865
210
0
220
0
230
1
100
AcDbArc
50
282.944716
51
358.191452
0
ARC
5
11A
100
AcDbEntity
8
81
62
256
6
ByLayer
370
18
48
1
60
0
100
AcDbCircle
39
0
10
42
20
0
30
0
40
1.9865
210
0
220
0
230
1
100
AcDbArc
50
279.566385
51
281.582424
0
ARC
5
11B
100
AcDbEntity
8
81
62
256
6
ByLayer
370
18
48
1
60
0
100
AcDbCircle
39
0
10
42
20
0
30
0
40
1.9865
210
0
220
0
230
1
100
AcDbArc
50
276.822245
51
277.879181
0
ARC
5
11C
100
AcDbEntity
8
81
62
256
6
ByLayer
370
18
48
1
60
0
100
AcDbCircle
39
0
10
42
20
0
30
0
40
1.9865
210
0
220
0
230
1
100
AcDbArc
50
234.732301
51
254.446318
0
ARC
5
11D
100
AcDbEntity
8
SK2
62
256
6
ByLayer
370
13
48
1
60
0
100
AcDbCircle
39
0
10
42.117131
20
0
30
0
40
36.7350153455489
210
0
220
0
230
1
100
AcDbArc
50
172.299486
51
191.5392
0
ARC
5
11E
100
AcDbEntity
8
SK2
62
256
6
ByLayer
370
13
48
1
60
0
100
AcDbCircle
39
0
10
42.117131
20
0
30
0
40
36.7350153455489
210
0
220
0
230
1
100
AcDbArc
50
154.949731
51
172.299486
0
ELLIPSE
5
11F
100
AcDbEntity
8
1
62
256
6
ByLayer
370
18
48
1
60
0
100
AcDbEllipse
10
43.856571
20
0.365366
30
0
11
0.0640578862397045
21
0.100712216137489
31
0
210
0
220
0
230
1
40
0.08864
41
1.31233748620827
42
2.50690844064718
0
ELLIPSE
5
120
100
AcDbEntity
8
1
62
256
6
ByLayer
370
18
48
1
60
0
100
AcDbEllipse
10
43.86098
20
-0.459107
30
0
11
0.0600414455398604
21
-0.1012789057739
31
0
210
0
220
0
230
1
40
0.117396
41
2.23612880563985
42
-1.90902816784753
0
ELLIPSE
5
121
100
AcDbEntity
8
1
62
256
6
ByLayer
370
18
48
1
60
0
100
AcDbEllipse
10
40.538316
20
-8.790012
30
0
11
4.96238378356494
21
5.86913703531428
31
0
210
0
220
0
230
1
40
0.89409
41
0.728009962066568
42
0.774145125150675
0
ELLIPSE
5
122
100
AcDbEntity
8
1
62
256
6
ByLayer
370
18
48
1
60
0
100
AcDbEllipse
10
40.580417
20
3.011071
30
0
11
-7.30363885791275
21
2.7184743060046
31
0
210
0
220
0
230
1
40
0.196608
41
1.63043847541834
42
1.67262678383466
0
ELLIPSE
5
123
100
AcDbEntity
8
1
62
256
6
ByLayer
370
18
48
1
60
0
100
AcDbEllipse
10
40.538269
20
2.897835
30
0
11
-7.2029520370211
21
2.6809978451784
31
0
210
0
220
0
230
1
40
0.196608
41
1.62717479875579
42
1.67331831451338
0
ELLIPSE
5
124
100
AcDbEntity
8
1
62
256
6
ByLayer
370
18
48
1
60
0
100
AcDbEllipse
10
40.580463
20
-8.825647
30
0
11
5.03175184268128
21
5.95118039644567
31
0
210
0
220
0
230
1
40
0.89409
41
0.728699273694655
42
0.77087562209189
0
ELLIPSE
5
125
100
AcDbEntity
8
1
62
256
6
ByLayer
370
18
48
1
60
0
100
AcDbEllipse
10
40.538269
20
-5.773472
30
0
11
-6.78269560405307
21
3.61459649701601
31
0
210
0
220
0
230
1
40
0.686386
41
-1.24960204382007
42
-1.20345852806233
0
ELLIPSE
5
126
100
AcDbEntity
8
1
62
256
6
ByLayer
370
18
48
1
60
0
100
AcDbEllipse
10
43.968491
20
0
30
0
11
5.10464274166477
21
-0.0937929283827535
31
0
210
0
220
0
230
1
40
0.320456
41
-2.62471958276391
42
-2.27189934418583
0
ELLIPSE
5
127
100
AcDbEntity
8
1
62
256
6
ByLayer
370
18
48
1
60
0
100
AcDbEllipse
10
43.968491
20
0
30
0
11
5.10101475929512
21
-1.49836051034047
31
0
210
0
220
0
230
1
40
0.129978
41
-2.59244655232033
42
-2.23962631372039
0
ELLIPSE
5
128
100
AcDbEntity
8
1
62
256
6
ByLayer
370
18
48
1
60
0
100
AcDbEllipse
10
40.580417
20
-5.694384
30
0
11
-6.87750784963471
21
3.66512331271873
31
0
210
0
220
0
230
1
40
0.686386
41
-1.24891051314132
42
-1.206722204725
0
ELLIPSE
5
129
100
AcDbEntity
8
1
62
256
6
ByLayer
370
18
48
1
60
0
100
AcDbEllipse
10
43.968491
20
0
30
0
11
5.09956407367849
21
-1.4137197534834
31
0
210
0
220
0
230
1
40
0.162425
41
2.3227851122906
42
2.61160143900622
0
ELLIPSE
5
12A
100
AcDbEntity
8
1
62
256
6
ByLayer
370
18
48
1
60
0
100
AcDbEllipse
10
43.968491
20
0
30
0
11
5.09937492764557
21
1.39974436019094
31
0
210
0
220
0
230
1
40
0.167021
41
-2.59496444095131
42
-2.32360143223671
0
POINT
5
70
100
AcDbEntity
8
81
62
256
6
ByLayer
370
18
48
1
60
0
100
AcDbPoint
10
44
20
0
30
0
39
0
210
0
220
0
230
1
50
360
0
POINT
5
72
100
AcDbEntity
8
80
62
256
6
ByLayer
370
18
48
1
60
0
100
AcDbPoint
10
0
20
0
30
0
39
0
210
0
220
0
230
1
50
360
0
POINT
5
74
100
AcDbEntity
8
1
62
256
6
ByLayer
370
18
48
1
60
1
100
AcDbPoint
10
44
20
0
30
0
39
0
210
0
220
0
230
1
50
360
0
POINT
5
76
100
AcDbEntity
8
1
62
256
6
ByLayer
370
18
48
1
60
1
100
AcDbPoint
10
30
20
1.638411
30
0
39
0
210
0
220
0
230
1
50
360
0
POINT
5
77
100
AcDbEntity
8
1
62
256
6
ByLayer
370
18
48
1
60
1
100
AcDbPoint
10
44
20
0
30
0
39
0
210
0
220
0
230
1
50
360
0
POINT
5
78
100
AcDbEntity
8
1
62
256
6
ByLayer
370
18
48
1
60
1
100
AcDbPoint
10
19.930152
20
3
30
0
39
0
210
0
220
0
230
1
50
360
0
POINT
5
79
100
AcDbEntity
8
1
62
256
6
ByLayer
370
18
48
1
60
1
100
AcDbPoint
10
44
20
0
30
0
39
0
210
0
220
0
230
1
50
360
0
POINT
5
7A
100
AcDbEntity
8
1
62
256
6
ByLayer
370
18
48
1
60
1
100
AcDbPoint
10
-36
20
0
30
0
39
0
210
0
220
0
230
1
50
360
0
POINT
5
7B
100
AcDbEntity
8
1
62
256
6
ByLayer
370
18
48
1
60
1
100
AcDbPoint
10
-36
20
0
30
0
39
0
210
0
220
0
230
1
50
360
0
POINT
5
7C
100
AcDbEntity
8
1
62
256
6
ByLayer
370
18
48
1
60
1
100
AcDbPoint
10
0.4
20
-3
30
0
39
0
210
0
220
0
230
1
50
360
0
POINT
5
7D
100
AcDbEntity
8
1
62
256
6
ByLayer
370
18
48
1
60
1
100
AcDbPoint
10
44
20
0
30
0
39
0
210
0
220
0
230
1
50
360
0
POINT
5
7E
100
AcDbEntity
8
1
62
256
6
ByLayer
370
18
48
1
60
1
100
AcDbPoint
10
40.853
20
1.638411
30
0
39
0
210
0
220
0
230
1
50
360
0
SPLINE
5
12B
100
AcDbEntity
8
1
62
256
6
ByLayer
370
18
48
1
60
0
100
AcDbSpline
70
4
71
2
72
6
73
3
40
0
40
0
40
0
40
1
40
1
40
1
41
1
10
43.9921832360693
20
8.1689819325E-05
30
0
41
1
10
43.988014421606
20
0.0224216416327181
30
0
41
1
10
43.9838677409871
20
0.0447558363679263
30
0
0
SPLINE
5
12C
100
AcDbEntity
8
1
62
256
6
ByLayer
370
18
48
1
60
0
100
AcDbSpline
70
4
71
1
72
4
73
2
40
0
40
0
40
1
40
1
41
1
10
42.6982402631069
20
1.37009385330924
30
0
41
1
10
42.7581234613296
20
1.29693826562658
30
0
0
SPLINE
5
12D
100
AcDbEntity
8
1
62
256
6
ByLayer
370
18
48
1
60
0
100
AcDbSpline
70
4
71
1
72
4
73
2
40
0
40
0
40
1
40
1
41
1
10
42.6150348121983
20
1.14325699455659
30
0
41
1
10
42.4131031419574
20
1.19830812764496
30
0
0
SPLINE
5
12E
100
AcDbEntity
8
1
62
256
6
ByLayer
370
18
48
1
60
0
100
AcDbSpline
70
4
71
3
72
8
73
4
40
0
40
0
40
0
40
0
40
1
40
1
40
1
40
1
41
1
10
43.9839114088793
20
-0.0388201218365793
30
0
41
1
10
43.9865403656275
20
-0.03907690993492
30
0
41
1
10
43.9891282893028
20
-0.039333825652335
30
0
41
1
10
43.9916756015694
20
-0.0395908617441023
30
0
0
SPLINE
5
12F
100
AcDbEntity
8
1
62
256
6
ByLayer
370
18
48
1
60
0
100
AcDbSpline
70
4
71
3
72
8
73
4
40
0
40
0
40
0
40
0
40
1
40
1
40
1
40
1
41
1
10
43.8976992327476
20
0.558315895155204
30
0
41
1
10
43.9058011650511
20
0.533447444324167
30
0
41
1
10
43.9133543347279
20
0.50847847988112
30
0
41
1
10
43.920356992146
20
0.483408681356394
30
0
0
SPLINE
5
130
100
AcDbEntity
8
1
62
256
6
ByLayer
370
18
48
1
60
0
100
AcDbSpline
70
4
71
3
72
8
73
4
40
0
40
0
40
0
40
0
40
1
40
1
40
1
40
1
41
1
10
43.8643129854896
20
0.396596671550156
30
0
41
1
10
43.8646861106175
20
0.398923168927212
30
0
41
1
10
43.8650125960875
20
0.40117872785936
30
0
41
1
10
43.8652907385486
20
0.403360757567327
30
0
0
SPLINE
5
131
100
AcDbEntity
8
1
62
256
6
ByLayer
370
18
48
1
60
0
100
AcDbSpline
70
4
71
3
72
8
73
4
40
0
40
0
40
0
40
0
40
1
40
1
40
1
40
1
41
1
10
43.818672767456
20
0.511995483660144
30
0
41
1
10
43.8319452425988
20
0.479030955951686
30
0
41
1
10
43.8450390971036
20
0.446008848821719
30
0
41
1
10
43.8579613207727
20
0.412931415474446
30
0
0
SPLINE
5
132
100
AcDbEntity
8
1
62
256
6
ByLayer
370
18
48
1
60
0
100
AcDbSpline
70
4
71
3
72
8
73
4
40
0
40
0
40
0
40
0
40
1
40
1
40
1
40
1
41
1
10
43.8652907385462
20
0.403360757574262
30
0
41
1
10
43.8444313072426
20
0.45613176927634
30
0
41
1
10
43.8228293305553
20
0.508682011960644
30
0
41
1
10
43.8004224377055
20
0.560977412114596
30
0
0
SPLINE
5
133
100
AcDbEntity
8
1
62
256
6
ByLayer
370
18
48
1
60
0
100
AcDbSpline
70
4
71
3
72
8
73
4
40
0
40
0
40
0
40
0
40
1
40
1
40
1
40
1
41
1
10
43.8976992327476
20
0.558315895155232
30
0
41
1
10
43.8979699856195
20
0.558366504617965
30
0
41
1
10
43.8982386185556
20
0.558424958223242
30
0
41
1
10
43.8985049215549
20
0.558491642295593
30
0
0
SPLINE
5
134
100
AcDbEntity
8
1
62
256
6
ByLayer
370
18
48
1
60
0
100
AcDbSpline
70
4
71
3
72
8
73
4
40
0
40
0
40
0
40
0
40
1
40
1
40
1
40
1
41
1
10
43.7996253434426
20
0.561076091023239
30
0
41
1
10
43.7998930939828
20
0.561041958406321
30
0
41
1
10
43.8001587985691
20
0.561009070997727
30
0
41
1
10
43.8004224358201
20
0.560977421836924
30
0
0
SPLINE
5
135
100
AcDbEntity
8
1
62
256
6
ByLayer
370
18
48
1
60
0
100
AcDbSpline
70
4
71
3
72
8
73
4
40
0
40
0
40
0
40
0
40
1
40
1
40
1
40
1
41
1
10
43.8976992327476
20
0.558315895155232
30
0
41
1
10
43.8652736747587
20
0.5592041780763
30
0
41
1
10
43.8328480748037
20
0.560091317526627
30
0
41
1
10
43.8004224371533
20
0.56097741681242
30
0
0
SPLINE
5
136
100
AcDbEntity
8
1
62
256
6
ByLayer
370
18
48
1
60
0
100
AcDbSpline
70
4
71
3
72
8
73
4
40
0
40
0
40
0
40
0
40
1
40
1
40
1
40
1
41
1
10
43.8643129854896
20
0.396596671550128
30
0
41
1
10
43.8621994536182
20
0.402057176257927
30
0
41
1
10
43.8600823775127
20
0.407502078021395
30
0
41
1
10
43.8579613207727
20
0.412931415474418
30
0
0
SPLINE
5
137
100
AcDbEntity
8
1
62
256
6
ByLayer
370
18
48
1
60
0
100
AcDbSpline
70
4
71
3
72
8
73
4
40
0
40
0
40
0
40
0
40
1
40
1
40
1
40
1
41
1
10
43.8173023640284
20
0.511316359822956
30
0
41
1
10
43.8177591376098
20
0.511542780356052
30
0
41
1
10
43.8182159388099
20
0.511769154872638
30
0
41
1
10
43.8186727674549
20
0.511995483661366
30
0
0
SPLINE
5
138
100
AcDbEntity
8
1
62
256
6
ByLayer
370
18
48
1
60
0
100
AcDbSpline
70
4
71
3
72
8
73
4
40
0
40
0
40
0
40
0
40
1
40
1
40
1
40
1
41
1
10
43.7996253434426
20
0.56107609102321
30
0
41
1
10
43.805993389714
20
0.544676395312138
30
0
41
1
10
43.8123437723808
20
0.528316655354615
30
0
41
1
10
43.8186727674559
20
0.511995483660144
30
0
0
SPLINE
5
139
100
AcDbEntity
8
1
62
256
6
ByLayer
370
18
48
1
60
0
100
AcDbSpline
70
4
71
3
72
8
73
4
40
0
40
0
40
0
40
0
40
1
40
1
40
1
40
1
41
1
10
43.8985049215549
20
0.558491642295536
30
0
41
1
10
43.8655423225962
20
0.559356301694038
30
0
41
1
10
43.8325823079365
20
0.560217902551756
30
0
41
1
10
43.7996253434426
20
0.561076091023239
30
0
0
SPLINE
5
13A
100
AcDbEntity
8
1
62
256
6
ByLayer
370
18
48
1
60
0
100
AcDbSpline
70
4
71
3
72
18
73
14
40
0
40
0
40
0
40
0
40
0.249999999999999
40
0.249999999999999
40
0.374999999999999
40
0.374999999999999
40
0.499999999999999
40
0.499999999999999
40
0.749999999999999
40
0.749999999999999
40
0.875
40
0.875
40
1
40
1
40
1
40
1
41
1
10
43.3419262212254
20
1.42581582742469
30
0
41
1
10
43.4050295751348
20
1.3644023235934
30
0
41
1
10
43.4644182086098
20
1.29957681957367
30
0
41
1
10
43.5479646317665
20
1.19725223602814
30
0
41
1
10
43.5749389116537
20
1.16219248810759
30
0
41
1
10
43.626376095597
20
1.0912242767246
30
0
41
1
10
43.6509160248309
20
1.05523725251061
30
0
41
1
10
43.7210723868837
20
0.945801997753904
30
0
41
1
10
43.7632319691683
20
0.870881135144941
30
0
41
1
10
43.8194843183783
20
0.755535967963084
30
0
41
1
10
43.8370682137442
20
0.716593011799347
30
0
41
1
10
43.8698341662432
20
0.637689463047764
30
0
41
1
10
43.8848555126755
20
0.598110989141531
30
0
41
1
10
43.8985049215549
20
0.558491642295593
30
0
0
SPLINE
5
13B
100
AcDbEntity
8
1
62
256
6
ByLayer
370
18
48
1
60
0
100
AcDbSpline
70
4
71
3
72
12
73
8
40
0
40
0
40
0
40
0
40
0.261522594795869
40
0.400214683035474
40
0.818280115690089
40
0.958235628676271
40
1
40
1
40
1
40
1
41
1
10
42.7120797402103
20
1.85379337133549
30
0
41
1
10
42.7687141121175
20
1.8291452601205
30
0
41
1
10
42.8556758311837
20
1.7862613876701
30
0
41
1
10
43.0323428158589
20
1.68221986877938
30
0
41
1
10
43.1795256572035
20
1.57450670570361
30
0
41
1
10
43.2986977868999
20
1.46738441709832
30
0
41
1
10
43.3338886417937
20
1.43363796672657
30
0
41
1
10
43.3419262203617
20
1.42581582826463
30
0
0
SPLINE
5
13C
100
AcDbEntity
8
1
62
256
6
ByLayer
370
18
48
1
60
0
100
AcDbSpline
70
4
71
3
72
8
73
4
40
0
40
0
40
0
40
0
40
1
40
1
40
1
40
1
41
1
10
40.6965479951109
20
1.56873119614022
30
0
41
1
10
40.6826280641222
20
1.56825126619134
30
0
41
1
10
40.6680190006072
20
1.56879452091863
30
0
41
1
10
40.6527178244287
20
1.57063433793712
30
0
0
SPLINE
5
13D
100
AcDbEntity
8
1
62
256
6
ByLayer
370
18
48
1
60
0
100
AcDbSpline
70
4
71
3
72
12
73
8
40
0
40
0
40
0
40
0
40
0.25
40
0.25
40
0.5
40
0.5
40
1
40
1
40
1
40
1
41
1
10
43.8173023640143
20
0.511316359832676
30
0
41
1
10
43.8144971290231
20
0.509925817936391
30
0
41
1
10
43.8112713064819
20
0.509639001492758
30
0
41
1
10
43.8050114623787
20
0.50963775134673
30
0
41
1
10
43.8018994989122
20
0.50997896409271
30
0
41
1
10
43.7925867162518
20
0.511442453197674
30
0
41
1
10
43.7865567511458
20
0.512985441744206
30
0
41
1
10
43.7806080906195
20
0.514711701644302
30
0
0
SPLINE
5
13E
100
AcDbEntity
8
1
62
256
6
ByLayer
370
18
48
1
60
0
100
AcDbSpline
70
4
71
3
72
8
73
4
40
0
40
0
40
0
40
0
40
1
40
1
40
1
40
1
41
1
10
42.4780689646333
20
1.85210562119192
30
0
41
1
10
42.4490414328917
20
1.88671236467681
30
0
41
1
10
42.4211210755648
20
1.92209755376399
30
0
41
1
10
42.3941566170751
20
1.95811921654575
30
0
0
SPLINE
5
13F
100
AcDbEntity
8
1
62
256
6
ByLayer
370
18
48
1
60
0
100
AcDbSpline
70
4
71
3
72
16
73
12
40
0
40
0
40
0
40
0
40
0.285775440199859
40
0.285775440199859
40
0.464331580149894
40
0.464331580149894
40
0.642887720099929
40
0.642887720099929
40
0.821443860049965
40
0.821443860049965
40
1
40
1
40
1
40
1
41
1
10
43.6960187683621
20
0.496883409104868
30
0
41
1
10
43.7025765715848
20
0.501023745586963
30
0
41
1
10
43.7096336708605
20
0.504987718200852
30
0
41
1
10
43.7220895348807
20
0.510610254490018
30
0
41
1
10
43.7271392061162
20
0.512566013879933
30
0
41
1
10
43.7374359033342
20
0.515671542563126
30
0
41
1
10
43.7427229149903
20
0.51684075648572
30
0
41
1
10
43.7536031033102
20
0.518136167612226
30
0
41
1
10
43.7591315316031
20
0.518235371821959
30
0
41
1
10
43.7699588069742
20
0.5172867912014
30
0
41
1
10
43.7753133571858
20
0.516248196452381
30
0
41
1
10
43.7806080906184
20
0.514711701644643
30
0
0
SPLINE
5
140
100
AcDbEntity
8
1
62
256
6
ByLayer
370
18
48
1
60
0
100
AcDbSpline
70
4
71
3
72
8
73
4
40
0
40
0
40
0
40
0
40
1
40
1
40
1
40
1
41
1
10
42.9234144419753
20
1.19508194942915
30
0
41
1
10
42.9581112221362
20
1.14075613633088
30
0
41
1
10
42.9940727055563
20
1.08715522516505
30
0
41
1
10
43.0313636917251
20
1.0343163576681
30
0
0
SPLINE
5
141
100
AcDbEntity
8
1
62
256
6
ByLayer
370
18
48
1
60
0
100
AcDbSpline
70
4
71
1
72
4
73
2
40
0
40
0
40
1
40
1
41
1
10
40.8557738926813
20
-1.53652450775641
30
0
41
1
10
40.8558717330286
20
-1.53632326004072
30
0
0
SPLINE
5
142
100
AcDbEntity
8
1
62
256
6
ByLayer
370
18
48
1
60
0
100
AcDbSpline
70
4
71
3
72
8
73
4
40
0
40
0
40
0
40
0
40
1
40
1
40
1
40
1
41
1
10
43.9839114088793
20
-0.0388201218364088
30
0
41
1
10
43.9867341354719
20
-0.0402377544064905
30
0
41
1
10
43.989522717809
20
-0.0416550376894236
30
0
41
1
10
43.9922773528296
20
-0.043071967099678
30
0
0
SPLINE
5
143
100
AcDbEntity
8
1
62
256
6
ByLayer
370
18
48
1
60
0
100
AcDbSpline
70
4
71
3
72
16
73
12
40
0
40
0
40
0
40
0
40
0.250000000000052
40
0.250000000000052
40
0.500000000000104
40
0.500000000000104
40
0.625000000000095
40
0.625000000000095
40
0.750000000000087
40
0.750000000000087
40
1
40
1
40
1
40
1
41
1
10
40.8557738926813
20
-1.53652450775641
30
0
41
1
10
40.889596218913
20
-1.56096882355118
30
0
41
1
10
40.9233721507249
20
-1.58483285078597
30
0
41
1
10
40.9911609634359
20
-1.63123385886729
30
0
41
1
10
41.0251681118187
20
-1.65377640776785
30
0
41
1
10
41.076546341233
20
-1.68644067908659
30
0
41
1
10
41.093733355628
20
-1.69713694496389
30
0
41
1
10
41.1282532061792
20
-1.71812766300837
30
0
41
1
10
41.1455894362884
20
-1.72842557468317
30
0
41
1
10
41.197542908104
20
-1.7585133223742
30
0
41
1
10
41.2322168636939
20
-1.7775499000341
30
0
41
1
10
41.2670404971606
20
-1.79553611604715
30
0
0
SPLINE
5
144
100
AcDbEntity
8
1
62
256
6
ByLayer
370
18
48
1
60
0
100
AcDbSpline
70
4
71
3
72
8
73
4
40
0
40
0
40
0
40
0
40
1
40
1
40
1
40
1
41
1
10
40.8557738926814
20
-1.5365245077565
30
0
41
1
10
40.8548494871914
20
-1.53582633012525
30
0
41
1
10
40.8539248566784
20
-1.53512859677866
30
0
41
1
10
40.853
20
-1.53443130997468
30
0
0
SPLINE
5
145
100
AcDbEntity
8
1
62
256
6
ByLayer
370
18
48
1
60
0
100
AcDbSpline
70
4
71
3
72
8
73
4
40
0
40
0
40
0
40
0
40
1
40
1
40
1
40
1
41
1
10
42.9234144419674
20
1.1950819494246
30
0
41
1
10
42.8909583226378
20
1.19094556405182
30
0
41
1
10
42.8584156567422
20
1.18742241994431
30
0
41
1
10
42.825795087524
20
1.1844512738453
30
0
0
SPLINE
5
146
100
AcDbEntity
8
1
62
256
6
ByLayer
370
18
48
1
60
0
100
AcDbSpline
70
4
71
3
72
8
73
4
40
0
40
0
40
0
40
0
40
1
40
1
40
1
40
1
41
1
10
42.75763196408
20
1.30638059350113
30
0
41
1
10
42.8111100849289
20
1.2667391057031
30
0
41
1
10
42.866151663874
20
1.22981444273592
30
0
41
1
10
42.9234144419724
20
1.19508194942884
30
0
0
SPLINE
5
147
100
AcDbEntity
8
1
62
256
6
ByLayer
370
18
48
1
60
0
100
AcDbSpline
70
4
71
3
72
26
73
22
40
0
40
0
40
0
40
0
40
0.125000000000031
40
0.125000000000031
40
0.18750000000003
40
0.18750000000003
40
0.250000000000029
40
0.250000000000029
40
0.375000000000029
40
0.375000000000029
40
0.500000000000028
40
0.500000000000028
40
0.625000000000028
40
0.625000000000028
40
0.750000000000027
40
0.750000000000027
40
0.875000000000027
40
0.875000000000027
40
0.937500000000013
40
0.937500000000013
40
1
40
1
40
1
40
1
41
1
10
42.7576319113715
20
1.30638063257214
30
0
41
1
10
42.7383090996392
20
1.32070396784377
30
0
41
1
10
42.7214152304309
20
1.33672607376064
30
0
41
1
10
42.6987471069033
20
1.36319648898908
30
0
41
1
10
42.6916422197733
20
1.37242970321643
30
0
41
1
10
42.6782103194876
20
1.39171769852362
30
0
41
1
10
42.6718628269932
20
1.40181039617556
30
0
41
1
10
42.6539699653425
20
1.43303144904763
30
0
41
1
10
42.6436050788841
20
1.45499916768659
30
0
41
1
10
42.6247090348103
20
1.5009648281036
30
0
41
1
10
42.6161839233833
20
1.52496526246412
30
0
41
1
10
42.5998120405011
20
1.57462850929267
30
0
41
1
10
42.591951879286
20
1.60037323878541
30
0
41
1
10
42.5758163018192
20
1.65246028317816
30
0
41
1
10
42.5675671583248
20
1.67883275450498
30
0
41
1
10
42.5489848579241
20
1.73125405112515
30
0
41
1
10
42.5386675034271
20
1.75731920773427
30
0
41
1
10
42.5190773897103
20
1.79456685628693
30
0
41
1
10
42.5118346084308
20
1.80665535989252
30
0
41
1
10
42.4958221264678
20
1.83006928589023
30
0
41
1
10
42.4871494192982
20
1.84127993115223
30
0
41
1
10
42.4780689646298
20
1.85210562119212
30
0
0
SPLINE
5
148
100
AcDbEntity
8
1
62
256
6
ByLayer
370
18
48
1
60
0
100
AcDbSpline
70
4
71
1
72
4
73
2
40
0
40
0
40
1
40
1
41
1
10
40.8558717330286
20
-1.53632326004072
30
0
41
1
10
40.8959467409392
20
-1.46986117333506
30
0
0
SPLINE
5
149
100
AcDbEntity
8
1
62
256
6
ByLayer
370
18
48
1
60
0
100
AcDbSpline
70
4
71
3
72
8
73
4
40
0
40
0
40
0
40
0
40
1
40
1
40
1
40
1
41
1
10
43.8726235049218
20
-0.511618797092609
30
0
41
1
10
43.8787414788045
20
-0.5232227832457
30
0
41
1
10
43.8848336437847
20
-0.534796203462264
30
0
41
1
10
43.8909011729459
20
-0.546340447045793
30
0
0
SPLINE
5
14A
100
AcDbEntity
8
1
62
256
6
ByLayer
370
18
48
1
60
0
100
AcDbSpline
70
4
71
3
72
8
73
4
40
0
40
0
40
0
40
0
40
1
40
1
40
1
40
1
41
1
10
40.853
20
-1.53443130997448
30
0
41
1
10
40.8173020874337
20
-1.51004296359139
30
0
41
1
10
40.7818755117424
20
-1.48693832470198
30
0
41
1
10
40.7467791998364
20
-1.46539617928229
30
0
0
SPLINE
5
14B
100
AcDbEntity
8
1
62
256
6
ByLayer
370
18
48
1
60
0
100
AcDbSpline
70
4
71
3
72
8
73
4
40
0
40
0
40
0
40
0
40
1
40
1
40
1
40
1
41
1
10
40.4081810000281
20
-1.49584475725206
30
0
41
1
10
40.5199900689522
20
-1.4838223651484
30
0
41
1
10
40.6328622664374
20
-1.47365784462065
30
0
41
1
10
40.7467791998364
20
-1.46539617928229
30
0
0
SPLINE
5
14C
100
AcDbEntity
8
1
62
256
6
ByLayer
370
18
48
1
60
0
100
AcDbSpline
70
4
71
3
72
8
73
4
40
0
40
0
40
0
40
0
40
1
40
1
40
1
40
1
41
1
10
40.8530000000001
20
1.5157400171145
30
0
41
1
10
40.8007745595746
20
1.53319098751581
30
0
41
1
10
40.7486239485919
20
1.55085487693762
30
0
41
1
10
40.6965479951109
20
1.56873119614022
30
0
0
SPLINE
5
14D
100
AcDbEntity
8
1
62
256
6
ByLayer
370
18
48
1
60
0
100
AcDbSpline
70
4
71
3
72
10
73
6
40
0
40
0
40
0
40
0
40
0.5
40
0.5
40
1
40
1
40
1
40
1
41
1
10
40.6965479951109
20
1.56873119614022
30
0
41
1
10
40.6901896185089
20
1.56409661699897
30
0
41
1
10
40.6835205102434
20
1.55964955471117
30
0
41
1
10
40.6691451664068
20
1.55138260679914
30
0
41
1
10
40.6614766648634
20
1.54753979630823
30
0
41
1
10
40.6527178244218
20
1.54435758440496
30
0
0
SPLINE
5
14E
100
AcDbEntity
8
1
62
256
6
ByLayer
370
18
48
1
60
0
100
AcDbSpline
70
4
71
3
72
8
73
4
40
0
40
0
40
0
40
0
40
1
40
1
40
1
40
1
41
1
10
42.9687755559365
20
-1.54787043044652
30
0
41
1
10
42.9542432739622
20
-1.58843321943525
30
0
41
1
10
42.9385329934745
20
-1.62901537850539
30
0
41
1
10
42.9213496576223
20
-1.66962176283624
30
0
0
SPLINE
5
14F
100
AcDbEntity
8
1
62
256
6
ByLayer
370
18
48
1
60
0
100
AcDbSpline
70
4
71
3
72
8
73
4
40
0
40
0
40
0
40
0
40
1
40
1
40
1
40
1
41
1
10
40.922845553238
20
-1.18528631428342
30
0
41
1
10
40.953162039408
20
-1.2195520480515
30
0
41
1
10
40.9830248672233
20
-1.25402538147745
30
0
41
1
10
41.0124397899266
20
-1.28870368180657
30
0
0
SPLINE
5
150
100
AcDbEntity
8
1
62
256
6
ByLayer
370
18
48
1
60
0
100
AcDbSpline
70
4
71
3
72
20
73
16
40
0
40
0
40
0
40
0
40
0.25
40
0.25
40
0.5
40
0.5
40
0.625
40
0.625
40
0.75
40
0.75
40
0.8125
40
0.8125
40
0.875
40
0.875
40
1
40
1
40
1
40
1
41
1
10
42.921561557513
20
-1.49058673481474
30
0
41
1
10
42.9281749045931
20
-1.49247441920178
30
0
41
1
10
42.9345531563681
20
-1.49472079259371
30
0
41
1
10
42.9466116313505
20
-1.50027853383364
30
0
41
1
10
42.9523271901992
20
-1.50360147546209
30
0
41
1
10
42.9597464711086
20
-1.50979717066045
30
0
41
1
10
42.9620327464766
20
-1.51206939356453
30
0
41
1
10
42.9660642726282
20
-1.51721328477251
30
0
41
1
10
42.9678287232782
20
-1.52010925662262
30
0
41
1
10
42.9697618777425
20
-1.52508920054456
30
0
41
1
10
42.970279137324
20
-1.52683746713265
30
0
41
1
10
42.9710016308268
20
-1.53055069427933
30
0
41
1
10
42.9712064281062
20
-1.53253705603399
30
0
41
1
10
42.9712279741265
20
-1.53872824197174
30
0
41
1
10
42.9704524143974
20
-1.54319031670039
30
0
41
1
10
42.9687755414792
20
-1.54787043098401
30
0
0
SPLINE
5
151
100
AcDbEntity
8
1
62
256
6
ByLayer
370
18
48
1
60
0
100
AcDbSpline
70
4
71
3
72
8
73
4
40
0
40
0
40
0
40
0
40
1
40
1
40
1
40
1
41
1
10
43.8072400515075
20
-0.673852625682542
30
0
41
1
10
43.7861230847854
20
-0.715164056207357
30
0
41
1
10
43.7641816974891
20
-0.755668528856859
30
0
41
1
10
43.7414347198165
20
-0.795384474971968
30
0
0
SPLINE
5
152
100
AcDbEntity
8
1
62
256
6
ByLayer
370
18
48
1
60
0
100
AcDbSpline
70
4
71
3
72
26
73
22
40
0
40
0
40
0
40
0
40
0.125000000000012
40
0.125000000000012
40
0.187500000000018
40
0.187500000000018
40
0.250000000000023
40
0.250000000000023
40
0.375000000000035
40
0.375000000000035
40
0.437500000000041
40
0.437500000000041
40
0.500000000000047
40
0.500000000000047
40
0.750000000000048
40
0.750000000000048
40
0.812500000000036
40
0.812500000000036
40
0.875000000000024
40
0.875000000000024
40
1
40
1
40
1
40
1
41
1
10
43.7414347198141
20
-0.795384474976061
30
0
41
1
10
43.7220897458944
20
-0.840611860232201
30
0
41
1
10
43.7003740242864
20
-0.88584298181658
30
0
41
1
10
43.6639272965325
20
-0.953695768317999
30
0
41
1
10
43.6511151193534
20
-0.976334240002984
30
0
41
1
10
43.6245922616577
20
-1.02090636428437
30
0
41
1
10
43.610835944952
20
-1.04292920228764
30
0
41
1
10
43.5681263244388
20
-1.10823144325929
30
0
41
1
10
43.5377419426643
20
-1.15074967527247
30
0
41
1
10
43.4890870432426
20
-1.2128897030523
30
0
41
1
10
43.4723532288844
20
-1.23332885044999
30
0
41
1
10
43.4378421568884
20
-1.27365215192123
30
0
41
1
10
43.4200102846076
20
-1.29359821523016
30
0
41
1
10
43.3296356448793
20
-1.39032777236497
30
0
41
1
10
43.2525708138045
20
-1.45921707867888
30
0
41
1
10
43.150417768803
20
-1.53495035727838
30
0
41
1
10
43.1296751261348
20
-1.54957406759308
30
0
41
1
10
43.0882595196734
20
-1.57728919876251
30
0
41
1
10
43.0675043919319
20
-1.59044386132274
30
0
41
1
10
43.0051005635883
20
-1.62785154686222
30
0
41
1
10
42.9633145896162
20
-1.65006567149163
30
0
41
1
10
42.9213496576362
20
-1.66962176283604
30
0
0
SPLINE
5
153
100
AcDbEntity
8
1
62
256
6
ByLayer
370
18
48
1
60
0
100
AcDbSpline
70
4
71
3
72
52
73
48
40
0
40
0
40
0
40
0
40
0.0312499999999636
40
0.0312499999999636
40
0.0624999999999272
40
0.0624999999999272
40
0.124999999999854
40
0.124999999999854
40
0.187499999999782
40
0.187499999999782
40
0.218749999999753
40
0.218749999999753
40
0.249999999999725
40
0.249999999999725
40
0.312499999999669
40
0.312499999999669
40
0.320312499999666
40
0.320312499999666
40
0.328124999999663
40
0.328124999999663
40
0.343749999999673
40
0.343749999999673
40
0.374999999999695
40
0.374999999999695
40
0.437499999999753
40
0.437499999999753
40
0.468749999999774
40
0.468749999999774
40
0.499999999999796
40
0.499999999999796
40
0.624999999999865
40
0.624999999999865
40
0.687499999999899
40
0.687499999999899
40
0.718749999999909
40
0.718749999999909
40
0.749999999999919
40
0.749999999999919
40
0.812499999999939
40
0.812499999999939
40
0.87499999999996
40
0.87499999999996
40
0.93749999999998
40
0.93749999999998
40
0.96874999999999
40
0.96874999999999
40
1
40
1
40
1
40
1
41
1
10
42.9213496576359
20
-1.66962176283451
30
0
41
1
10
42.9006911895466
20
-1.68130516606027
30
0
41
1
10
42.8798046135717
20
-1.69252785310593
30
0
41
1
10
42.8375590159937
20
-1.71403004007536
30
0
41
1
10
42.816144054329
20
-1.72433362792569
30
0
41
1
10
42.7515465098193
20
-1.75360699830134
30
0
41
1
10
42.7083797559375
20
-1.77079072561585
30
0
41
1
10
42.6216954762237
20
-1.80073771021284
30
0
41
1
10
42.5781797380086
20
-1.81350828989031
30
0
41
1
10
42.5125231116151
20
-1.82935678627126
30
0
41
1
10
42.4905098104273
20
-1.83409742552109
30
0
41
1
10
42.4467168242441
20
-1.84238334973801
30
0
41
1
10
42.4249350485098
20
-1.84593338669754
30
0
41
1
10
42.359884131017
20
-1.85484733696774
30
0
41
1
10
42.316901137836
20
-1.85852779770585
30
0
41
1
10
42.2688477139269
20
-1.86024099411401
30
0
41
1
10
42.2635129617734
20
-1.8603952171583
30
0
41
1
10
42.2528524378293
20
-1.86062847512443
30
0
41
1
10
42.2475309842183
20
-1.86067002458728
30
0
41
1
10
42.2314958959032
20
-1.86139481436297
30
0
41
1
10
42.2208206257235
20
-1.86176133086278
30
0
41
1
10
42.1888405740645
20
-1.86246403336659
30
0
41
1
10
42.1675808683266
20
-1.8624079801078
30
0
41
1
10
42.1039436117682
20
-1.86072420057187
30
0
41
1
10
42.0617052189689
20
-1.85760898601342
30
0
41
1
10
41.9985132327439
20
-1.84985541806969
30
0
41
1
10
41.9774467996299
20
-1.84675546936134
30
0
41
1
10
41.9356824174948
20
-1.83965960424504
30
0
41
1
10
41.9149468304207
20
-1.83565668927278
30
0
41
1
10
41.811993139791
20
-1.81326907489677
30
0
41
1
10
41.7319600853315
20
-1.78770780059335
30
0
41
1
10
41.6143465750996
20
-1.73854721521295
30
0
41
1
10
41.5755471967299
20
-1.72036474422262
30
0
41
1
10
41.5178478526545
20
-1.69044199588433
30
0
41
1
10
41.4987068889411
20
-1.68002629492943
30
0
41
1
10
41.4608903451745
20
-1.6584812365121
30
0
41
1
10
41.4421767181253
20
-1.64732997014912
30
0
41
1
10
41.386536301162
20
-1.6128450411631
30
0
41
1
10
41.3501156678397
20
-1.5884726301492
30
0
41
1
10
41.2787665571504
20
-1.53664042041532
30
0
41
1
10
41.2438140991728
20
-1.5092163220595
30
0
41
1
10
41.1753052051169
20
-1.45132266504717
30
0
41
1
10
41.1417270489291
20
-1.42088642810941
30
0
41
1
10
41.0923368795576
20
-1.37298165630944
30
0
41
1
10
41.07602195513
20
-1.35660497690867
30
0
41
1
10
41.0438696021909
20
-1.32315120194613
30
0
41
1
10
41.0280425018217
20
-1.30608481142292
30
0
41
1
10
41.0124397899266
20
-1.28870368180657
30
0
0
SPLINE
5
154
100
AcDbEntity
8
1
62
256
6
ByLayer
370
18
48
1
60
0
100
AcDbSpline
70
4
71
1
72
4
73
2
40
0
40
0
40
1
40
1
41
1
10
40.8959467409392
20
-1.46986117333506
30
0
41
1
10
41.0124397899266
20
-1.28870368180654
30
0
0
SPLINE
5
155
100
AcDbEntity
8
1
62
256
6
ByLayer
370
18
48
1
60
0
100
AcDbSpline
70
4
71
3
72
27
73
23
40
0
40
0
40
0
40
0
40
0.0834546871934871
40
0.16937370511171
40
0.21277616160501
40
0.278023205370014
40
0.299725358118598
40
0.3430692592277
40
0.479760975117254
40
0.587152840682176
40
0.658695419789743
40
0.705287099760999
40
0.745846237514006
40
0.826010779714704
40
0.841852782353138
40
0.843848098150238
40
0.845821959647862
40
0.846913644192014
40
0.848659351486534
40
0.875884466236861
40
0.932766427630597
40
1
40
1
40
1
40
1
41
1
10
40.8959467409392
20
-1.46986117333506
30
0
41
1
10
40.9410511549701
20
-1.50242911624932
30
0
41
1
10
41.0309716431912
20
-1.56661679680002
30
0
41
1
10
41.1421345201086
20
-1.64019323813841
30
0
41
1
10
41.2434916355224
20
-1.70190928212403
30
0
41
1
10
41.311427772367
20
-1.74015424832584
30
0
41
1
10
41.3801045190869
20
-1.77557198688945
30
0
41
1
10
41.4870130811954
20
-1.82697250799998
30
0
41
1
10
41.6421781239116
20
-1.8864659390284
30
0
41
1
10
41.8154910299401
20
-1.9297972090678
30
0
41
1
10
41.9397757792516
20
-1.94860539424806
30
0
41
1
10
42.0275743609483
20
-1.95599261714818
30
0
41
1
10
42.1200440629005
20
-1.95925272612192
30
0
41
1
10
42.1953581419868
20
-1.95675280375033
30
0
41
1
10
42.2489719141549
20
-1.95206990589625
30
0
41
1
10
42.2598151310796
20
-1.95101309968825
30
0
41
1
10
42.2625824611968
20
-1.95073396914336
30
0
41
1
10
42.2652887090153
20
-1.95045903487903
30
0
41
1
10
42.2823238234997
20
-1.94869114423037
30
0
41
1
10
42.3307719181146
20
-1.94286663528763
30
0
41
1
10
42.4155747487054
20
-1.92868141356462
30
0
41
1
10
42.4846358533711
20
-1.91226238171265
30
0
41
1
10
42.5218451205613
20
-1.90200665849477
30
0
0
SPLINE
5
156
100
AcDbEntity
8
1
62
256
6
ByLayer
370
18
48
1
60
0
100
AcDbSpline
70
4
71
3
72
8
73
4
40
0
40
0
40
0
40
0
40
1
40
1
40
1
40
1
41
1
10
40.922845553238
20
-1.18528631428342
30
0
41
1
10
40.899525832939
20
-1.18717676404594
30
0
41
1
10
40.8762435549177
20
-1.18909794777562
30
0
41
1
10
40.8529999999999
20
-1.19104739208052
30
0
0
SPLINE
5
157
100
AcDbEntity
8
1
62
256
6
ByLayer
370
18
48
1
60
0
100
AcDbSpline
70
4
71
3
72
10
73
6
40
0
40
0
40
0
40
0
40
0.5
40
0.5
40
1
40
1
40
1
40
1
41
1
10
40.853
20
1.25958685611994
30
0
41
1
10
40.8351668935246
20
1.24906268623008
30
0
41
1
10
40.8173956832677
20
1.23806203346058
30
0
41
1
10
40.7819883333833
20
1.21502094159999
30
0
41
1
10
40.7643198634962
20
1.20295747530605
30
0
41
1
10
40.7468046694685
20
1.19036847937497
30
0
0
SPLINE
5
158
100
AcDbEntity
8
1
62
256
6
ByLayer
370
18
48
1
60
0
100
AcDbSpline
70
4
71
3
72
8
73
4
40
0
40
0
40
0
40
0
40
1
40
1
40
1
40
1
41
1
10
40.4082698811143
20
1.32700396831149
30
0
41
1
10
40.5200585494826
20
1.27872338846632
30
0
41
1
10
40.6329096156288
20
1.23318628518467
30
0
41
1
10
40.7468046694685
20
1.190368479375
30
0
0
SPLINE
5
159
100
AcDbEntity
8
1
62
256
6
ByLayer
370
18
48
1
60
0
100
AcDbSpline
70
4
71
3
72
10
73
6
40
0
40
0
40
0
40
0
40
0.5
40
0.5
40
1
40
1
40
1
40
1
41
1
10
42.8603658287003
20
-1.46131376203124
30
0
41
1
10
42.8690862672378
20
-1.46821756390753
30
0
41
1
10
42.8787856771672
20
-1.47388499436633
30
0
41
1
10
42.8993759280172
20
-1.48346258963244
30
0
41
1
10
42.9102659716009
20
-1.48736181510972
30
0
41
1
10
42.9215615625065
20
-1.49058673626047
30
0
0
SPLINE
5
15A
100
AcDbEntity
8
1
62
256
6
ByLayer
370
18
48
1
60
0
100
AcDbSpline
70
4
71
3
72
10
73
6
40
0
40
0
40
0
40
0
40
0.5
40
0.5
40
1
40
1
40
1
40
1
41
1
10
40.6965598837054
20
-1.20838933348634
30
0
41
1
10
40.6901999111849
20
-1.21478370763765
30
0
41
1
10
40.6835291196002
20
-1.22115083775452
30
0
41
1
10
40.6691499908757
20
-1.23379529878159
30
0
41
1
10
40.6614794411821
20
-1.24007580689204
30
0
41
1
10
40.6527178244218
20
-1.24626297582537
30
0
0
SPLINE
5
15B
100
AcDbEntity
8
1
62
256
6
ByLayer
370
18
48
1
60
0
100
AcDbSpline
70
4
71
3
72
10
73
6
40
0
40
0
40
0
40
0
40
0.5
40
0.5
40
1
40
1
40
1
40
1
41
1
10
42.9154494649235
20
-1.19733847159037
30
0
41
1
10
42.9025791422319
20
-1.24226175184253
30
0
41
1
10
42.8912702382221
20
-1.28689303325331
30
0
41
1
10
42.8725953446267
20
-1.37513310545901
30
0
41
1
10
42.8652499767419
20
-1.41863135726362
30
0
41
1
10
42.8603658222762
20
-1.46131376168083
30
0
0
SPLINE
5
15C
100
AcDbEntity
8
1
62
256
6
ByLayer
370
18
48
1
60
0
100
AcDbSpline
70
4
71
3
72
11
73
7
40
0
40
0
40
0
40
0
40
0.118154013414289
40
0.412102675609526
40
0.60806845040635
40
1
40
1
40
1
40
1
41
1
10
42.8603658290987
20
-1.46131376274087
30
0
41
1
10
42.7813063860658
20
-1.45237241422404
30
0
41
1
10
42.5055594430329
20
-1.41722167647498
30
0
41
0.999999999999999
10
42.0986875
20
-1.3453322171863
30
0
41
1
10
41.508625
20
-1.20909693374722
30
0
41
1
10
41.11525
20
-1.09429421489602
30
0
41
1
10
40.853
20
-1.00848150796679
30
0
0
SPLINE
5
15D
100
AcDbEntity
8
1
62
256
6
ByLayer
370
18
48
1
60
0
100
AcDbSpline
70
4
71
3
72
9
73
5
40
0
40
0
40
0
40
0
40
0.535276944468216
40
1
40
1
40
1
40
1
41
1
10
42.860365829102
20
1.06950228095533
30
0
41
1
10
42.781306386068
20
1.09390211852426
30
0
41
1
10
42.6336081826406
20
1.13793542404545
30
0
41
1
10
42.4859099792133
20
1.17887251697024
30
0
41
1
10
42.41727121882
20
1.19719628167695
30
0
0
SPLINE
5
15E
100
AcDbEntity
8
1
62
256
6
ByLayer
370
18
48
1
60
0
100
AcDbSpline
70
4
71
3
72
14
73
10
40
0
40
0
40
0
40
0
40
0.25
40
0.25
40
0.5
40
0.5
40
0.75
40
0.75
40
1
40
1
40
1
40
1
41
1
10
42.9012789346494
20
-1.1451967883612
30
0
41
1
10
42.9042664693428
20
-1.14810990229532
30
0
41
1
10
42.9069854791622
20
-1.15128256036175
30
0
41
1
10
42.9117101910662
20
-1.15831733088817
30
0
41
1
10
42.9137300779944
20
-1.16220289889077
30
0
41
1
10
42.9166791105461
20
-1.17085905229669
30
0
41
1
10
42.9175966568246
20
-1.17561154359908
30
0
41
1
10
42.9178182713366
20
-1.18599002660014
30
0
41
1
10
42.9171276547278
20
-1.19147935299679
30
0
41
1
10
42.9154494550638
20
-1.19733847218402
30
0
0
SPLINE
5
15F
100
AcDbEntity
8
1
62
256
6
ByLayer
370
18
48
1
60
0
100
AcDbSpline
70
4
71
3
72
8
73
4
40
0
40
0
40
0
40
0
40
1
40
1
40
1
40
1
41
1
10
42.8757962082232
20
0.127503321819745
30
0
41
1
10
42.8998204449577
20
0.119882203987118
30
0
41
1
10
42.9244597559575
20
0.112332425101499
30
0
41
1
10
42.9497517892113
20
0.104858351737704
30
0
0
SPLINE
5
160
100
AcDbEntity
8
1
62
256
6
ByLayer
370
18
48
1
60
0
100
AcDbSpline
70
4
71
3
72
8
73
4
40
0
40
0
40
0
40
0
40
1
40
1
40
1
40
1
41
1
10
43.6400691119046
20
-0.224090635031274
30
0
41
1
10
43.6404986571138
20
-0.22440072458653
30
0
41
1
10
43.6409282553745
20
-0.224710739149401
30
0
41
1
10
43.6413579066422
20
-0.225020678782755
30
0
0
SPLINE
5
161
100
AcDbEntity
8
1
62
256
6
ByLayer
370
18
48
1
60
0
100
AcDbSpline
70
4
71
3
72
8
73
4
40
0
40
0
40
0
40
0
40
1
40
1
40
1
40
1
41
1
10
43.6400691119046
20
-0.224090635031274
30
0
41
1
10
43.6294146579975
20
-0.200049624486582
30
0
41
1
10
43.6187110895891
20
-0.175941096470382
30
0
41
1
10
43.607954960776
20
-0.151760313915673
30
0
0
SPLINE
5
162
100
AcDbEntity
8
1
62
256
6
ByLayer
370
18
48
1
60
0
100
AcDbSpline
70
4
71
3
72
8
73
4
40
0
40
0
40
0
40
0
40
1
40
1
40
1
40
1
41
1
10
42.825795087524
20
1.18445127384527
30
0
41
1
10
42.8525213994962
20
1.15721368511498
30
0
41
1
10
42.8779301615882
20
1.1307239974943
30
0
41
1
10
42.9012789330909
20
1.10540365402522
30
0
0
SPLINE
5
163
100
AcDbEntity
8
1
62
256
6
ByLayer
370
18
48
1
60
0
100
AcDbSpline
70
4
71
3
72
14
73
10
40
0
40
0
40
0
40
0
40
0.25
40
0.25
40
0.5
40
0.5
40
0.75
40
0.75
40
1
40
1
40
1
40
1
41
1
10
42.9012789346495
20
1.10540365360606
30
0
41
1
10
42.9042664693428
20
1.10216388613864
30
0
41
1
10
42.9069854791621
20
1.09909775985909
30
0
41
1
10
42.9117101910661
20
1.09342676988447
30
0
41
1
10
42.9137300779944
20
1.09080435298677
30
0
41
1
10
42.9166791105461
20
1.08630300780464
30
0
41
1
10
42.9175966568246
20
1.08443818767708
30
0
41
1
10
42.9178182713365
20
1.08190657936166
30
0
41
1
10
42.9171276547278
20
1.08126600932007
30
0
41
1
10
42.9154494550638
20
1.08139590568555
30
0
0
SPLINE
5
164
100
AcDbEntity
8
1
62
256
6
ByLayer
370
18
48
1
60
0
100
AcDbSpline
70
4
71
3
72
10
73
6
40
0
40
0
40
0
40
0
40
0.5
40
0.5
40
1
40
1
40
1
40
1
41
1
10
42.9154494649235
20
1.0813959011052
30
0
41
1
10
42.9025791422318
20
1.08239458082522
30
0
41
1
10
42.891270238222
20
1.0821091247652
30
0
41
1
10
42.8725953446268
20
1.07835980151239
30
0
41
1
10
42.865249976742
20
1.07490302433521
30
0
41
1
10
42.8603658222763
20
1.06950228310802
30
0
0
SPLINE
5
165
100
AcDbEntity
8
1
62
256
6
ByLayer
370
18
48
1
60
0
100
AcDbSpline
70
4
71
3
72
10
73
6
40
0
40
0
40
0
40
0
40
0.5
40
0.5
40
1
40
1
40
1
40
1
41
1
10
42.8603658287035
20
1.06950227961696
30
0
41
1
10
42.8690862672406
20
1.06040620184831
30
0
41
1
10
42.8787856771683
20
1.05074248585674
30
0
41
1
10
42.8993759280178
20
1.03078117866127
30
0
41
1
10
42.9102659716039
20
1.02048674112979
30
0
41
1
10
42.9215615625092
20
1.00999370971888
30
0
0
SPLINE
5
166
100
AcDbEntity
8
1
62
256
6
ByLayer
370
18
48
1
60
0
100
AcDbSpline
70
4
71
3
72
20
73
16
40
0
40
0
40
0
40
0
40
0.250000000000077
40
0.250000000000077
40
0.500000000000153
40
0.500000000000153
40
0.625000000000115
40
0.625000000000115
40
0.750000000000077
40
0.750000000000077
40
0.812500000000058
40
0.812500000000058
40
0.875000000000039
40
0.875000000000039
40
1
40
1
40
1
40
1
41
1
10
42.921561557513
20
1.00999371438587
30
0
41
1
10
42.9281749045931
20
1.00385035020767
30
0
41
1
10
42.9345531563681
20
0.997829371681945
30
0
41
1
10
42.9466116313506
20
0.986150793644896
30
0
41
1
10
42.9523271901992
20
0.980460034246278
30
0
41
1
10
42.9597464711086
20
0.972648563274134
30
0
41
1
10
42.9620327464767
20
0.970159588832388
30
0
41
1
10
42.9660642726282
20
0.965514242798719
30
0
41
1
10
42.9678287232781
20
0.963335791726109
30
0
41
1
10
42.9697618777425
20
0.960541616158963
30
0
41
1
10
42.970279137324
20
0.959700228558631
30
0
41
1
10
42.9710016308268
20
0.958238366507771
30
0
41
1
10
42.9712064281063
20
0.957613444304997
30
0
41
1
10
42.9712279741265
20
0.956198908043149
30
0
41
1
10
42.9704524143975
20
0.955863389285412
30
0
41
1
10
42.9687755414793
20
0.956257965261017
30
0
0
SPLINE
5
167
100
AcDbEntity
8
1
62
256
6
ByLayer
370
18
48
1
60
0
100
AcDbSpline
70
4
71
3
72
14
73
10
40
0
40
0
40
0
40
0
40
0.500000000000042
40
0.500000000000042
40
0.625000000000031
40
0.625000000000031
40
0.750000000000021
40
0.750000000000021
40
1
40
1
40
1
40
1
41
1
10
43.0313636917249
20
1.03431635766785
30
0
41
1
10
43.1282155794397
20
0.953670890914765
30
0
41
1
10
43.2280422101648
20
0.873196939391818
30
0
41
1
10
43.3557295912849
20
0.772771941722908
30
0
41
1
10
43.3814129433884
20
0.752695352977867
30
0
41
1
10
43.4330534065984
20
0.712557959654106
30
0
41
1
10
43.4590519751339
20
0.692465415421026
30
0
41
1
10
43.5370419975881
20
0.632509286931906
30
0
41
1
10
43.5890525883645
20
0.592945207990397
30
0
41
1
10
43.6410774506461
20
0.553717730484692
30
0
0
SPLINE
5
168
100
AcDbEntity
8
1
62
256
6
ByLayer
370
18
48
1
60
0
100
AcDbSpline
70
4
71
3
72
8
73
4
40
0
40
0
40
0
40
0
40
1
40
1
40
1
40
1
41
1
10
40.8530000000001
20
-1.19104739208052
30
0
41
1
10
40.8007789373642
20
-1.19639914215784
30
0
41
1
10
40.7486322877769
20
-1.20218011140668
30
0
41
1
10
40.6965598837054
20
-1.20838933348634
30
0
0
SPLINE
5
169
100
AcDbEntity
8
1
62
256
6
ByLayer
370
18
48
1
60
0
100
AcDbSpline
70
4
71
3
72
10
73
6
40
0
40
0
40
0
40
0
40
0.5
40
0.5
40
1
40
1
40
1
40
1
41
1
10
40.6965598837054
20
-1.20838933348634
30
0
41
1
10
40.6896010175816
20
-1.20439116096404
30
0
41
1
10
40.6824389320047
20
-1.20076458271251
30
0
41
1
10
40.6678350925293
20
-1.19442402743641
30
0
41
1
10
40.660370047655
20
-1.19169545635543
30
0
41
1
10
40.6527178244285
20
-1.18947372258492
30
0
0
SPLINE
5
16A
100
AcDbEntity
8
1
62
256
6
ByLayer
370
18
48
1
60
0
100
AcDbSpline
70
4
71
3
72
11
73
7
40
0
40
0
40
0
40
0
40
0.122649886685631
40
0.415099924457087
40
0.610066616304725
40
1
40
1
40
1
40
1
41
1
10
42.8706523295959
20
-0.384132581103472
30
0
41
1
10
42.7881640530639
20
-0.349225896911605
30
0
41
1
10
42.508988276532
20
-0.229976681037129
30
0
41
0.999999999999999
10
42.0986875
20
-0.0507041086648599
30
0
41
1
10
41.508625
20
0.207549384722966
30
0
41
1
10
41.11525
20
0.376820571274521
30
0
41
1
10
40.853
20
0.485830402369089
30
0
0
SPLINE
5
16B
100
AcDbEntity
8
1
62
256
6
ByLayer
370
18
48
1
60
0
100
AcDbSpline
70
4
71
3
72
8
73
4
40
0
40
0
40
0
40
0
40
1
40
1
40
1
40
1
41
1
10
42.9687755559357
20
0.956257957133801
30
0
41
1
10
42.9542424482856
20
0.959676871177805
30
0
41
1
10
42.9385312109743
20
0.964109999306032
30
0
41
1
10
42.9213467365621
20
0.969811398837123
30
0
0
SPLINE
5
16C
100
AcDbEntity
8
1
62
256
6
ByLayer
370
18
48
1
60
0
100
AcDbSpline
70
4
71
3
72
8
73
4
40
0
40
0
40
0
40
0
40
1
40
1
40
1
40
1
41
1
10
40.9228506901385
20
1.49119140065258
30
0
41
1
10
40.8995292517345
20
1.49927370687592
30
0
41
1
10
40.8762452613003
20
1.50745579436725
30
0
41
1
10
40.8529999999999
20
1.51574001711455
30
0
0
SPLINE
5
16D
100
AcDbEntity
8
1
62
256
6
ByLayer
370
18
48
1
60
0
100
AcDbSpline
70
4
71
3
72
8
73
4
40
0
40
0
40
0
40
0
40
1
40
1
40
1
40
1
41
1
10
40.9228506901385
20
1.49119140065258
30
0
41
1
10
40.9531705371753
20
1.50003735852957
30
0
41
1
10
40.9830346157446
20
1.50845184153525
30
0
41
1
10
41.0124488894744
20
1.51644049542125
30
0
0
SPLINE
5
16E
100
AcDbEntity
8
1
62
256
6
ByLayer
370
18
48
1
60
0
100
AcDbSpline
70
4
71
3
72
18
73
14
40
0
40
0
40
0
40
0
40
0.249999999999949
40
0.249999999999949
40
0.499999999999899
40
0.499999999999899
40
0.624999999999924
40
0.624999999999924
40
0.749999999999949
40
0.749999999999949
40
0.874999999999975
40
0.874999999999975
40
1
40
1
40
1
40
1
41
1
10
42.9300316375453
20
-0.0732976310633831
30
0
41
1
10
42.9338371720251
20
-0.0803687980047982
30
0
41
1
10
42.9373233553091
20
-0.0875600820249076
30
0
41
1
10
42.9434127928093
20
-0.102274744641761
30
0
41
1
10
42.9460419416755
20
-0.10986254796785
30
0
41
1
10
42.9488833494388
20
-0.121402596811294
30
0
41
1
10
42.9496376856094
20
-0.12524310544245
30
0
41
1
10
42.9506748768123
20
-0.132909023754507
30
0
41
1
10
42.9509570790617
20
-0.136770435976047
30
0
41
1
10
42.9509232029913
20
-0.144271675298541
30
0
41
1
10
42.9506127367201
20
-0.147902924005877
30
0
41
1
10
42.9493292877091
20
-0.154895991726534
30
0
41
1
10
42.9483461689894
20
-0.158262310743197
30
0
41
1
10
42.947038027001
20
-0.161366794064151
30
0
0
SPLINE
5
16F
100
AcDbEntity
8
1
62
256
6
ByLayer
370
18
48
1
60
0
100
AcDbSpline
70
4
71
3
72
8
73
4
40
0
40
0
40
0
40
0
40
1
40
1
40
1
40
1
41
1
10
42.9470380382981
20
-0.161366799723879
30
0
41
1
10
42.9171138862289
20
-0.232365502358903
30
0
41
1
10
42.8908987845625
20
-0.306338910673702
30
0
41
1
10
42.8706523236297
20
-0.384132578569449
30
0
0
SPLINE
5
170
100
AcDbEntity
8
1
62
256
6
ByLayer
370
18
48
1
60
0
100
AcDbSpline
70
4
71
3
72
8
73
4
40
0
40
0
40
0
40
0
40
1
40
1
40
1
40
1
41
1
10
42.8706523292484
20
-0.384132581660282
30
0
41
1
10
42.8859196694747
20
-0.409356234191819
30
0
41
1
10
42.9032418857926
20
-0.432959438477866
30
0
41
1
10
42.9215615615537
20
-0.455323601182016
30
0
0
SPLINE
5
171
100
AcDbEntity
8
1
62
256
6
ByLayer
370
18
48
1
60
0
100
AcDbSpline
70
4
71
3
72
20
73
16
40
0
40
0
40
0
40
0
40
0.250000000000078
40
0.250000000000078
40
0.500000000000156
40
0.500000000000156
40
0.625000000000117
40
0.625000000000117
40
0.750000000000078
40
0.750000000000078
40
0.812500000000059
40
0.812500000000059
40
0.87500000000004
40
0.87500000000004
40
1
40
1
40
1
40
1
41
1
10
42.9215615575131
20
-0.455323596203527
30
0
41
1
10
42.9281749045932
20
-0.463396302475701
30
0
41
1
10
42.9345531563682
20
-0.471700428729008
30
0
41
1
10
42.9466116313506
20
-0.488995797310281
30
0
41
1
10
42.9523271901992
20
-0.49803198399772
30
0
41
1
10
42.9597464711087
20
-0.512053297610549
30
0
41
1
10
42.9620327464767
20
-0.516815953824278
30
0
41
1
10
42.9660642726283
20
-0.526598676700957
30
0
41
1
10
42.9678287232782
20
-0.531665096916385
30
0
41
1
10
42.9697618777426
20
-0.539416008236174
30
0
41
1
10
42.970279137324
20
-0.5419961301576
30
0
41
1
10
42.9710016308268
20
-0.547147746068077
30
0
41
1
10
42.9712064281062
20
-0.549744914243092
30
0
41
1
10
42.9712279741264
20
-0.557301347808306
30
0
41
1
10
42.9704524143974
20
-0.562056630794586
30
0
41
1
10
42.9687755414792
20
-0.566290383046208
30
0
0
SPLINE
5
172
100
AcDbEntity
8
1
62
256
6
ByLayer
370
18
48
1
60
0
100
AcDbSpline
70
4
71
3
72
14
73
10
40
0
40
0
40
0
40
0
40
0.500000000000018
40
0.500000000000018
40
0.625000000000014
40
0.625000000000014
40
0.750000000000009
40
0.750000000000009
40
1
40
1
40
1
40
1
41
1
10
42.9497517892112
20
0.104858351737761
30
0
41
1
10
43.0578907191179
20
0.0201787662200275
30
0
41
1
10
43.1706581563693
20
-0.0471892558082629
30
0
41
1
10
43.3160933510128
20
-0.11465850969887
30
0
41
1
10
43.3454052158963
20
-0.127311465454227
30
0
41
1
10
43.4044494179291
20
-0.151044724749823
30
0
41
1
10
43.4340897157972
20
-0.16208567771173
30
0
41
1
10
43.5228866157721
20
-0.192806462914376
30
0
41
1
10
43.5821114249272
20
-0.210170237075516
30
0
41
1
10
43.6413579066363
20
-0.225020678776104
30
0
0
SPLINE
5
173
100
AcDbEntity
8
1
62
256
6
ByLayer
370
18
48
1
60
0
100
AcDbSpline
70
4
71
3
72
8
73
4
40
0
40
0
40
0
40
0
40
1
40
1
40
1
40
1
41
1
10
40.696547995112
20
0.38827642836651
30
0
41
1
10
40.6827079346131
20
0.39566381080914
30
0
41
1
10
40.6681759856142
20
0.402594501026158
30
0
41
1
10
40.6527178244218
20
0.408913829863366
30
0
0
SPLINE
5
174
100
AcDbEntity
8
1
62
256
6
ByLayer
370
18
48
1
60
0
100
AcDbSpline
70
4
71
3
72
14
73
10
40
0
40
0
40
0
40
0
40
0.25
40
0.25
40
0.5
40
0.5
40
0.75
40
0.75
40
1
40
1
40
1
40
1
41
1
10
40.652717824422
20
1.54435758440505
30
0
41
1
10
40.6326648304937
20
1.53707204513765
30
0
41
1
10
40.6136134175711
20
1.52910807552507
30
0
41
1
10
40.5779570315412
20
1.51148233540911
30
0
41
1
10
40.5614085386459
20
1.50184233951956
30
0
41
1
10
40.5317218037997
20
1.48065662851448
30
0
41
1
10
40.5185341677071
20
1.46906184020071
30
0
41
1
10
40.4967018675655
20
1.44382282536427
30
0
41
1
10
40.488110403143
20
1.43027272165278
30
0
41
1
10
40.4822391895711
20
1.41562959992183
30
0
0
SPLINE
5
175
100
AcDbEntity
8
1
62
256
6
ByLayer
370
18
48
1
60
0
100
AcDbSpline
70
4
71
3
72
12
73
8
40
0
40
0
40
0
40
0
40
0.500000000000259
40
0.500000000000259
40
0.750000000000129
40
0.750000000000129
40
1
40
1
40
1
40
1
41
1
10
39.4640038062509
20
-1.62001285165115
30
0
41
1
10
39.4772000005321
20
-1.61991844325368
30
0
41
1
10
39.4903045777776
20
-1.61973086514169
30
0
41
1
10
39.5096802716452
20
-1.61914937247846
30
0
41
1
10
39.5161328639195
20
-1.61890234841383
30
0
41
1
10
39.5286502482838
20
-1.61824292454051
30
0
41
1
10
39.5347052021368
20
-1.61783509455574
30
0
41
1
10
39.5403933393116
20
-1.61727812723981
30
0
0
SPLINE
5
176
100
AcDbEntity
8
1
62
256
6
ByLayer
370
18
48
1
60
0
100
AcDbSpline
70
4
71
3
72
12
73
8
40
0
40
0
40
0
40
0
40
0.5
40
0.5
40
0.75
40
0.75
40
1
40
1
40
1
40
1
41
1
10
39.5403933393116
20
-1.61727812723981
30
0
41
1
10
39.4659653605757
20
-1.60739303492923
30
0
41
1
10
39.3959177581298
20
-1.59356382527446
30
0
41
1
10
39.2990015053266
20
-1.56439794976458
30
0
41
1
10
39.2680599126663
20
-1.55326109297027
30
0
41
1
10
39.209251211191
20
-1.52754257358478
30
0
41
1
10
39.1813825919733
20
-1.51296410550705
30
0
41
1
10
39.1552703235998
20
-1.49625003980066
30
0
0
SPLINE
5
177
100
AcDbEntity
8
1
62
256
6
ByLayer
370
18
48
1
60
0
100
AcDbSpline
70
4
71
3
72
20
73
16
40
0
40
0
40
0
40
0
40
0.125000000000046
40
0.125000000000046
40
0.250000000000092
40
0.250000000000092
40
0.375000000000138
40
0.375000000000138
40
0.500000000000184
40
0.500000000000184
40
0.62500000000023
40
0.62500000000023
40
0.750000000000276
40
0.750000000000276
40
1
40
1
40
1
40
1
41
1
10
39.1552703235998
20
-1.49625003980063
30
0
41
1
10
39.1530155400293
20
-1.49480678714207
30
0
41
1
10
39.1509774291771
20
-1.49331114647609
30
0
41
1
10
39.1475443457338
20
-1.49016938171661
30
0
41
1
10
39.1461332180272
20
-1.48850154886603
30
0
41
1
10
39.1444515689011
20
-1.48505702271979
30
0
41
1
10
39.144186331435
20
-1.48324693447205
30
0
41
1
10
39.1453386134399
20
-1.47971244231445
30
0
41
1
10
39.1467961115126
20
-1.47796642989999
30
0
41
1
10
39.1511510864763
20
-1.4748734024578
30
0
41
1
10
39.1540471239008
20
-1.47349880782608
30
0
41
1
10
39.1604639754613
20
-1.47116141698044
30
0
41
1
10
39.1640578748691
20
-1.47016302359839
30
0
41
1
10
39.1751444898712
20
-1.46761609616365
30
0
41
1
10
39.1831026032386
20
-1.46644015921424
30
0
41
1
10
39.1912296635314
20
-1.46553304486417
30
0
0
SPLINE
5
178
100
AcDbEntity
8
1
62
256
6
ByLayer
370
18
48
1
60
0
100
AcDbSpline
70
4
71
3
72
22
73
18
40
0
40
0
40
0
40
0
40
0.0624999999999852
40
0.0624999999999852
40
0.12499999999997
40
0.12499999999997
40
0.249999999999975
40
0.249999999999975
40
0.374999999999979
40
0.374999999999979
40
0.499999999999983
40
0.499999999999983
40
0.624999999999987
40
0.624999999999987
40
0.749999999999992
40
0.749999999999992
40
1
40
1
40
1
40
1
41
1
10
39.1912296635314
20
-1.46553304486415
30
0
41
1
10
39.2161593645306
20
-1.46275047789595
30
0
41
1
10
39.2412653776599
20
-1.4605076514159
30
0
41
1
10
39.2917156237378
20
-1.4567818265927
30
0
41
1
10
39.3170614320827
20
-1.45530296620981
30
0
41
1
10
39.3933697633184
20
-1.45175387368957
30
0
41
1
10
39.444655000779
20
-1.45056207124031
30
0
41
1
10
39.5468650967353
20
-1.44976851264019
30
0
41
1
10
39.5979152943368
20
-1.45017126977569
30
0
41
1
10
39.6999349485858
20
-1.45214455427842
30
0
41
1
10
39.7509040593426
20
-1.45371934244687
30
0
41
1
10
39.8527772039638
20
-1.45777212460334
30
0
41
1
10
39.9036846569157
20
-1.46025256053946
30
0
41
1
10
40.0051824735278
20
-1.465904986444
30
0
41
1
10
40.0558095193758
20
-1.46907904951149
30
0
41
1
10
40.2073766864019
20
-1.47940362547155
30
0
41
1
10
40.308042737645
20
-1.48735344337914
30
0
41
1
10
40.4081810000282
20
-1.49584475725231
30
0
0
SPLINE
5
179
100
AcDbEntity
8
1
62
256
6
ByLayer
370
18
48
1
60
0
100
AcDbSpline
70
4
71
3
72
8
73
4
40
0
40
0
40
0
40
0
40
1
40
1
40
1
40
1
41
1
10
40.4179342952583
20
-1.49166561182434
30
0
41
1
10
40.4146522209081
20
-1.4930582346775
30
0
41
1
10
40.4114007841224
20
-1.49445131271656
30
0
41
1
10
40.4081810000281
20
-1.49584475725206
30
0
0
SPLINE
5
17A
100
AcDbEntity
8
1
62
256
6
ByLayer
370
18
48
1
60
0
100
AcDbSpline
70
4
71
3
72
10
73
6
40
0
40
0
40
0
40
0
40
0.5
40
0.5
40
1
40
1
40
1
40
1
41
1
10
40.4823386909926
20
-1.42223263404409
30
0
41
1
10
40.4678242904238
20
-1.43395165752585
30
0
41
1
10
40.4548605482723
20
-1.44569976492232
30
0
41
1
10
40.4330270601598
20
-1.46897856058257
30
0
41
1
10
40.4241808018176
20
-1.48049565391071
30
0
41
1
10
40.4179342952583
20
-1.49166561182434
30
0
0
SPLINE
5
17B
100
AcDbEntity
8
1
62
256
6
ByLayer
370
18
48
1
60
0
100
AcDbSpline
70
4
71
3
72
14
73
10
40
0
40
0
40
0
40
0
40
0.25
40
0.25
40
0.5
40
0.5
40
0.75
40
0.75
40
1
40
1
40
1
40
1
41
1
10
40.652717824422
20
-1.24626297582523
30
0
41
1
10
40.6326804124414
20
-1.26041274478936
30
0
41
1
10
40.6136436360067
20
-1.27476087298126
30
0
41
1
10
40.5780138857931
20
-1.30390782620347
30
0
41
1
10
40.5614770260076
20
-1.31866577316742
30
0
41
1
10
40.5318096273024
20
-1.34835762027379
30
0
41
1
10
40.5186296988274
20
-1.36335170295376
30
0
41
1
10
40.4968046055425
20
-1.39312481517902
30
0
41
1
10
40.4882135675898
20
-1.40780275150524
30
0
41
1
10
40.4823386909926
20
-1.42223263404409
30
0
0
SPLINE
5
17C
100
AcDbEntity
8
1
62
256
6
ByLayer
370
18
48
1
60
0
100
AcDbSpline
70
4
71
3
72
32
73
28
40
0
40
0
40
0
40
0
40
0.250000000000238
40
0.250000000000238
40
0.375000000000358
40
0.375000000000358
40
0.500000000000478
40
0.500000000000478
40
0.562500000000458
40
0.562500000000458
40
0.625000000000439
40
0.625000000000439
40
0.68750000000042
40
0.68750000000042
40
0.718750000000378
40
0.718750000000378
40
0.750000000000335
40
0.750000000000335
40
0.781250000000293
40
0.781250000000293
40
0.812500000000251
40
0.812500000000251
40
0.875000000000167
40
0.875000000000167
40
0.937500000000084
40
0.937500000000084
40
1
40
1
40
1
40
1
41
1
10
39.5158213451847
20
-0.72681958036452
30
0
41
1
10
39.502932911301
20
-0.719238134762605
30
0
41
1
10
39.4902618839716
20
-0.711388605963407
30
0
41
1
10
39.4718595002907
20
-0.698891267453206
30
0
41
1
10
39.4658274982219
20
-0.694603328588641
30
0
41
1
10
39.4540816219515
20
-0.685652194318152
30
0
41
1
10
39.4483606872068
20
-0.680997070530168
30
0
41
1
10
39.4402189868291
20
-0.673502299471892
30
0
41
1
10
39.4375793848397
20
-0.670917531851558
30
0
41
1
10
39.4325401147877
20
-0.665470440380346
30
0
41
1
10
39.4301479473227
20
-0.662620956263254
30
0
41
1
10
39.4259381338061
20
-0.656593829470978
30
0
41
1
10
39.4240804790819
20
-0.653389126827364
30
0
41
1
10
39.4223525075132
20
-0.648240044814287
30
0
41
1
10
39.4219594105411
20
-0.646450444947874
30
0
41
1
10
39.4217951569199
20
-0.642859504143104
30
0
41
1
10
39.4220368379894
20
-0.641029333386001
30
0
41
1
10
39.4233148855275
20
-0.637617681722645
30
0
41
1
10
39.4243471446776
20
-0.636043933644459
30
0
41
1
10
39.4269579014869
20
-0.633316053101368
30
0
41
1
10
39.4284875314638
20
-0.632184355279406
30
0
41
1
10
39.4334389212705
20
-0.629271493945026
30
0
41
1
10
39.4371262270825
20
-0.627992044725261
30
0
41
1
10
39.4446340842435
20
-0.626046531489152
30
0
41
1
10
39.4484947249206
20
-0.625392533452867
30
0
41
1
10
39.4562162959042
20
-0.624447611739811
30
0
41
1
10
39.4601020296692
20
-0.624157784417434
30
0
41
1
10
39.464003806251
20
-0.623985477911901
30
0
0
SPLINE
5
17D
100
AcDbEntity
8
1
62
256
6
ByLayer
370
18
48
1
60
0
100
AcDbSpline
70
4
71
3
72
16
73
12
40
0
40
0
40
0
40
0
40
0.249999999999899
40
0.249999999999899
40
0.499999999999798
40
0.499999999999798
40
0.749999999999698
40
0.749999999999698
40
0.874999999999849
40
0.874999999999849
40
1
40
1
40
1
40
1
41
1
10
39.4640038062511
20
-0.623985477911901
30
0
41
1
10
39.4717956787668
20
-0.623641380730419
30
0
41
1
10
39.4795594809076
20
-0.623082024847491
30
0
41
1
10
39.4950051075684
20
-0.62133385907137
30
0
41
1
10
39.5027153115982
20
-0.620145543022431
30
0
41
1
10
39.5178757068162
20
-0.616773492627772
30
0
41
1
10
39.52528068818
20
-0.614619241441744
30
0
41
1
10
39.5359024719398
20
-0.610084903493089
30
0
41
1
10
39.5393753852231
20
-0.60833736089657
30
0
41
1
10
39.5458544591966
20
-0.604325891179684
30
0
41
1
10
39.5488856452038
20
-0.602056171511833
30
0
41
1
10
39.5516249984542
20
-0.599415486676605
30
0
0
SPLINE
5
17E
100
AcDbEntity
8
1
62
256
6
ByLayer
370
18
48
1
60
0
100
AcDbSpline
70
4
71
3
72
20
73
16
40
0
40
0
40
0
40
0
40
0.125
40
0.125
40
0.25
40
0.25
40
0.375
40
0.375
40
0.5
40
0.5
40
0.625
40
0.625
40
0.75
40
0.75
40
1
40
1
40
1
40
1
41
1
10
39.2223489609247
20
-0.168196972931412
30
0
41
1
10
39.2209222590734
20
-0.165053149467553
30
0
41
1
10
39.2197301462844
20
-0.161834297020135
30
0
41
1
10
39.2180174183379
20
-0.155182260219448
30
0
41
1
10
39.2175057540551
20
-0.151733411739514
30
0
41
1
10
39.2174924104125
20
-0.144890697566495
30
0
41
1
10
39.2180114457663
20
-0.141405791308898
30
0
41
1
10
39.2201608573291
20
-0.134928006161061
30
0
41
1
10
39.2218158623533
20
-0.131839611310426
30
0
41
1
10
39.2259480595436
20
-0.12632414788763
30
0
41
1
10
39.2284314931951
20
-0.123861791491805
30
0
41
1
10
39.2338011836406
20
-0.11955106142824
30
0
41
1
10
39.2366801177359
20
-0.117693123590328
30
0
41
1
10
39.245716359571
20
-0.112731676341696
30
0
41
1
10
39.252222258695
20
-0.110257699283977
30
0
41
1
10
39.2588496047243
20
-0.10828236160441
30
0
0
SPLINE
5
17F
100
AcDbEntity
8
1
62
256
6
ByLayer
370
18
48
1
60
0
100
AcDbSpline
70
4
71
3
72
8
73
4
40
0
40
0
40
0
40
0
40
1
40
1
40
1
40
1
41
1
10
40.4178771880292
20
-0.130394752203046
30
0
41
1
10
40.4127225872029
20
-0.135665805631504
30
0
41
1
10
40.4076436056856
20
-0.140993636931
30
0
41
1
10
40.4026442629229
20
-0.146381213311429
30
0
0
SPLINE
5
180
100
AcDbEntity
8
1
62
256
6
ByLayer
370
18
48
1
60
0
100
AcDbSpline
70
4
71
3
72
10
73
6
40
0
40
0
40
0
40
0
40
0.5
40
0.5
40
1
40
1
40
1
40
1
41
1
10
40.4822391895711
20
0.0219141019765061
30
0
41
1
10
40.4677304428758
20
-0.0016868364500908
30
0
41
1
10
40.4547730138579
20
-0.0262440451296015
30
0
41
1
10
40.432953662996
20
-0.0771535676489634
30
0
41
1
10
40.4241152430038
20
-0.103483571842048
30
0
41
1
10
40.4178771880292
20
-0.130394752203046
30
0
0
SPLINE
5
181
100
AcDbEntity
8
1
62
256
6
ByLayer
370
18
48
1
60
0
100
AcDbSpline
70
4
71
3
72
32
73
28
40
0
40
0
40
0
40
0
40
0.249999999999867
40
0.249999999999867
40
0.374999999999889
40
0.374999999999889
40
0.499999999999912
40
0.499999999999912
40
0.562499999999923
40
0.562499999999923
40
0.624999999999934
40
0.624999999999934
40
0.687499999999945
40
0.687499999999945
40
0.71874999999995
40
0.71874999999995
40
0.749999999999956
40
0.749999999999956
40
0.781249999999961
40
0.781249999999961
40
0.812499999999967
40
0.812499999999967
40
0.874999999999978
40
0.874999999999978
40
0.937499999999989
40
0.937499999999989
40
1
40
1
40
1
40
1
41
1
10
39.5158213451844
20
0.931987073505411
30
0
41
1
10
39.5029329113007
20
0.938944579099541
30
0
41
1
10
39.4902618839713
20
0.946085484160506
30
0
41
1
10
39.4718595002904
20
0.957336692474456
30
0
41
1
10
39.4658274982217
20
0.961178437646254
30
0
41
1
10
39.4540816219512
20
0.969153728099229
30
0
41
1
10
39.4483606872065
20
0.973280443651277
30
0
41
1
10
39.4402189868289
20
0.979882882301524
30
0
41
1
10
39.4375793848393
20
0.982153399610866
30
0
41
1
10
39.4325401147874
20
0.98692203298117
30
0
41
1
10
39.4301479473224
20
0.989408892996011
30
0
41
1
10
39.4259381338058
20
0.994649163515589
30
0
41
1
10
39.4240804790816
20
0.99742612426212
30
0
41
1
10
39.4223525075129
20
1.00186854386641
30
0
41
1
10
39.4219594105408
20
1.00340940912466
30
0
41
1
10
39.4217951569196
20
1.00649442011164
30
0
41
1
10
39.422036837989
20
1.00806322195265
30
0
41
1
10
39.4233148855272
20
1.0109817370149
30
0
41
1
10
39.4243471446773
20
1.0123249675259
30
0
41
1
10
39.4269579014867
20
1.01464990146533
30
0
41
1
10
39.4284875314635
20
1.01561263187764
30
0
41
1
10
39.4334389212702
20
1.01808835363755
30
0
41
1
10
39.4371262270823
20
1.01917259223473
30
0
41
1
10
39.4446340842431
20
1.02082060513027
30
0
41
1
10
39.4484947249203
20
1.02137377651965
30
0
41
1
10
39.4562162959038
20
1.02217286292895
30
0
41
1
10
39.460102029669
20
1.02241777321765
30
0
41
1
10
39.4640038062508
20
1.02256337787384
30
0
0
SPLINE
5
182
100
AcDbEntity
8
1
62
256
6
ByLayer
370
18
48
1
60
0
100
AcDbSpline
70
4
71
3
72
12
73
8
40
0
40
0
40
0
40
0
40
0.500000000000259
40
0.500000000000259
40
0.75000000000013
40
0.75000000000013
40
1
40
1
40
1
40
1
41
1
10
39.4640038062508
20
1.02256337787384
30
0
41
1
10
39.477200000532
20
1.02305582722116
30
0
41
1
10
39.4903045777775
20
1.02403937910438
30
0
41
1
10
39.5096802716451
20
1.02701291154273
30
0
41
1
10
39.5161328639194
20
1.02826947709909
30
0
41
1
10
39.5286502482837
20
1.03156794535428
30
0
41
1
10
39.5347052021368
20
1.03359049348248
30
0
41
1
10
39.5403933393115
20
1.03627974949126
30
0
0
SPLINE
5
183
100
AcDbEntity
8
1
62
256
6
ByLayer
370
18
48
1
60
0
100
AcDbSpline
70
4
71
3
72
12
73
8
40
0
40
0
40
0
40
0
40
0.499999999999976
40
0.499999999999976
40
0.749999999999988
40
0.749999999999988
40
1
40
1
40
1
40
1
41
1
10
39.5403933393115
20
1.03627974949128
30
0
41
1
10
39.4659653605757
20
1.08400884082846
30
0
41
1
10
39.39591775813
20
1.13235302543077
30
0
41
1
10
39.299001505327
20
1.20519556100243
30
0
41
1
10
39.2680599126667
20
1.22952608349138
30
0
41
1
10
39.2092512111916
20
1.27810546712271
30
0
41
1
10
39.1813825919739
20
1.30235550831921
30
0
41
1
10
39.1552703236004
20
1.32643164384456
30
0
0
SPLINE
5
184
100
AcDbEntity
8
1
62
256
6
ByLayer
370
18
48
1
60
0
100
AcDbSpline
70
4
71
3
72
20
73
16
40
0
40
0
40
0
40
0
40
0.124999999999953
40
0.124999999999953
40
0.249999999999907
40
0.249999999999907
40
0.37499999999986
40
0.37499999999986
40
0.499999999999814
40
0.499999999999814
40
0.624999999999767
40
0.624999999999767
40
0.749999999999721
40
0.749999999999721
40
1
40
1
40
1
40
1
41
1
10
39.1552703236004
20
1.32643164384456
30
0
41
1
10
39.1530155400299
20
1.32851060818604
30
0
41
1
10
39.1509774291777
20
1.33064090534623
30
0
41
1
10
39.1475443457346
20
1.33505834586808
30
0
41
1
10
39.1461332180279
20
1.3373752448307
30
0
41
1
10
39.1444515689019
20
1.34209378100942
30
0
41
1
10
39.1441863314357
20
1.34454006375415
30
0
41
1
10
39.1453386134407
20
1.34925169198661
30
0
41
1
10
39.1467961115133
20
1.35154557926785
30
0
41
1
10
39.1511510864771
20
1.35556497364013
30
0
41
1
10
39.1540471239016
20
1.35732812994831
30
0
41
1
10
39.1604639754621
20
1.36030470482564
30
0
41
1
10
39.16405787487
20
1.36156372274982
30
0
41
1
10
39.175144489872
20
1.36475968935707
30
0
41
1
10
39.1831026032393
20
1.36621274783661
30
0
41
1
10
39.1912296635322
20
1.36733043435018
30
0
0
SPLINE
5
185
100
AcDbEntity
8
1
62
256
6
ByLayer
370
18
48
1
60
0
100
AcDbSpline
70
4
71
3
72
22
73
18
40
0
40
0
40
0
40
0
40
0.0625
40
0.0625
40
0.125
40
0.125
40
0.25
40
0.25
40
0.375
40
0.375
40
0.5
40
0.5
40
0.625
40
0.625
40
0.75
40
0.75
40
1
40
1
40
1
40
1
41
1
10
39.1912296635322
20
1.36733043435012
30
0
41
1
10
39.216161208467
20
1.3707591835574
30
0
41
1
10
39.2412690911566
20
1.37345892405105
30
0
41
1
10
39.2917231049662
20
1.37790228623612
30
0
41
1
10
39.3170708119476
20
1.37963874703021
30
0
41
1
10
39.3933848686711
20
1.38378290873891
30
0
41
1
10
39.4446739172882
20
1.38514092663661
30
0
41
1
10
39.5468915402904
20
1.38605036609502
30
0
41
1
10
39.5979454962673
20
1.38559078733786
30
0
41
1
10
39.699972659975
20
1.38331706486954
30
0
41
1
10
39.750945521766
20
1.38149641413256
30
0
41
1
10
39.852826162592
20
1.3767272665028
30
0
41
1
10
39.9037372986655
20
1.37377523332185
30
0
41
1
10
40.0052424415939
20
1.36689061852601
30
0
41
1
10
40.0558731400597
20
1.36295539456481
30
0
41
1
10
40.2074512379489
20
1.34979296125027
30
0
41
1
10
40.308124497198
20
1.33921052090841
30
0
41
1
10
40.4082698811144
20
1.3270039683118
30
0
0
SPLINE
5
186
100
AcDbEntity
8
1
62
256
6
ByLayer
370
18
48
1
60
0
100
AcDbSpline
70
4
71
3
72
8
73
4
40
0
40
0
40
0
40
0
40
1
40
1
40
1
40
1
41
1
10
40.4178771880301
20
1.33285586331797
30
0
41
1
10
40.4146446812299
20
1.3309271824491
30
0
41
1
10
40.4114419220639
20
1.32897681494282
30
0
41
1
10
40.4082698811143
20
1.32700396831149
30
0
0
SPLINE
5
187
100
AcDbEntity
8
1
62
256
6
ByLayer
370
18
48
1
60
0
100
AcDbSpline
70
4
71
3
72
10
73
6
40
0
40
0
40
0
40
0
40
0.5
40
0.5
40
1
40
1
40
1
40
1
41
1
10
40.4822391895711
20
1.41562959992186
30
0
41
1
10
40.4677304428759
20
1.40374480753198
30
0
41
1
10
40.4547730138582
20
1.39094143517622
30
0
41
1
10
40.4329536629966
20
1.36334351856584
30
0
41
1
10
40.4241152430047
20
1.34855773026894
30
0
41
1
10
40.4178771880302
20
1.33285586331797
30
0
0
SPLINE
5
188
100
AcDbEntity
8
1
62
256
6
ByLayer
370
18
48
1
60
0
100
AcDbSpline
70
4
71
3
72
14
73
10
40
0
40
0
40
0
40
0
40
0.25
40
0.25
40
0.5
40
0.5
40
0.75
40
0.75
40
1
40
1
40
1
40
1
41
1
10
40.652717824422
20
0.326193380795189
30
0
41
1
10
40.6326648304937
20
0.304822349426644
30
0
41
1
10
40.6136134175713
20
0.282569530976474
30
0
41
1
10
40.5779570315414
20
0.235902445327412
30
0
41
1
10
40.5614085386462
20
0.211550937025891
30
0
41
1
10
40.5317218038001
20
0.160748413805152
30
0
41
1
10
40.5185341677075
20
0.134188080310878
30
0
41
1
10
40.4967018675657
20
0.0792130780172045
30
0
41
1
10
40.4881104031432
20
0.0509925581250457
30
0
41
1
10
40.4822391895712
20
0.0219141019765061
30
0
0
SPLINE
5
189
100
AcDbEntity
8
1
62
256
6
ByLayer
370
18
48
1
60
0
100
AcDbSpline
70
4
71
3
72
8
73
4
40
0
40
0
40
0
40
0
40
1
40
1
40
1
40
1
41
1
10
40.8530000000001
20
0.351925212590544
30
0
41
1
10
40.8007745595749
20
0.364251956407315
30
0
41
1
10
40.7486239485926
20
0.376368867616719
30
0
41
1
10
40.696547995112
20
0.38827642836651
30
0
0
SPLINE
5
18A
100
AcDbEntity
8
1
62
256
6
ByLayer
370
18
48
1
60
0
100
AcDbSpline
70
4
71
3
72
10
73
6
40
0
40
0
40
0
40
0
40
0.5
40
0.5
40
1
40
1
40
1
40
1
41
1
10
40.696547995112
20
0.38827642836651
30
0
41
1
10
40.6901896215909
20
0.377269984481899
30
0
41
1
10
40.6835205157563
20
0.36647989270017
30
0
41
1
10
40.6691451734053
20
0.345622011289635
30
0
41
1
10
40.6614766713833
20
0.335527926740298
30
0
41
1
10
40.6527178244218
20
0.326193380794933
30
0
0
SPLINE
5
18B
100
AcDbEntity
8
1
62
256
6
ByLayer
370
18
48
1
60
0
100
AcDbSpline
70
4
71
3
72
10
73
6
40
0
40
0
40
0
40
0
40
0.5
40
0.5
40
1
40
1
40
1
40
1
41
1
10
40.853
20
-0.246649960154201
30
0
41
1
10
40.8351091565011
20
-0.245458576427211
30
0
41
1
10
40.8172890139456
20
-0.245089596866194
30
0
41
1
10
40.7818028435515
20
-0.246144323633047
30
0
41
1
10
40.7641008144866
20
-0.247573015168513
30
0
41
1
10
40.746579421982
20
-0.249989759902462
30
0
0
SPLINE
5
18C
100
AcDbEntity
8
1
62
256
6
ByLayer
370
18
48
1
60
0
100
AcDbSpline
70
4
71
3
72
8
73
4
40
0
40
0
40
0
40
0
40
1
40
1
40
1
40
1
41
1
10
40.4026442629229
20
-0.146381213311429
30
0
41
1
10
40.5162041616237
20
-0.181880648629487
30
0
41
1
10
40.6308671684459
20
-0.216361784176229
30
0
41
1
10
40.746579421982
20
-0.249989759902462
30
0
0
SPLINE
5
18D
100
AcDbEntity
8
1
62
256
6
ByLayer
370
18
48
1
60
0
100
AcDbSpline
70
4
71
3
72
20
73
16
40
0
40
0
40
0
40
0
40
0.0625000000000157
40
0.0625000000000157
40
0.125000000000031
40
0.125000000000031
40
0.250000000000027
40
0.250000000000027
40
0.375000000000022
40
0.375000000000022
40
0.500000000000018
40
0.500000000000018
40
0.750000000000009
40
0.750000000000009
40
1
40
1
40
1
40
1
41
1
10
39.258849604802
20
-0.108282361730971
30
0
41
1
10
39.2821541605564
20
-0.101336237729385
30
0
41
1
10
39.3056049263135
20
-0.095734604230131
30
0
41
1
10
39.352697039311
20
-0.0862857981930745
30
0
41
1
10
39.3763399392576
20
-0.082452857856282
30
0
41
1
10
39.4474811573768
20
-0.0729119907937559
30
0
41
1
10
39.4951884628505
20
-0.0691296117729792
30
0
41
1
10
39.5909628621191
20
-0.0648833250941721
30
0
41
1
10
39.6391015687057
20
-0.0644546908309849
30
0
41
1
10
39.7353239173199
20
-0.0661045934317315
30
0
41
1
10
39.7833322213582
20
-0.0681861088156097
30
0
41
1
10
39.9271149577404
20
-0.0773870099693568
30
0
41
1
10
40.0226501920494
20
-0.0874264831535072
30
0
41
1
10
40.2132647940204
20
-0.113052159214732
30
0
41
1
10
40.3081886552581
20
-0.128655400390812
30
0
41
1
10
40.4026442629229
20
-0.146381213311429
30
0
0
SPLINE
5
18E
100
AcDbEntity
8
1
62
256
6
ByLayer
370
18
48
1
60
0
100
AcDbSpline
70
4
71
3
72
12
73
8
40
0
40
0
40
0
40
0
40
0.500000000000023
40
0.500000000000023
40
0.750000000000011
40
0.750000000000011
40
1
40
1
40
1
40
1
41
1
10
39.5516249984542
20
-0.599415486676605
30
0
41
1
10
39.4835970942193
20
-0.5399860721609
30
0
41
1
10
39.421056211257
20
-0.47533180669393
30
0
41
1
10
39.3376296766995
20
-0.368059033545507
30
0
41
1
10
39.3115580503658
20
-0.330577376671783
30
0
41
1
10
39.263373240424
20
-0.251588996819777
30
0
41
1
10
39.2416148749366
20
-0.210650574899717
30
0
41
1
10
39.2223489609246
20
-0.168196972931412
30
0
0
SPLINE
5
18F
100
AcDbEntity
8
1
62
256
6
ByLayer
370
18
48
1
60
0
100
AcDbSpline
70
4
71
3
72
8
73
4
40
0
40
0
40
0
40
0
40
1
40
1
40
1
40
1
41
1
10
43.8386503139522
20
0.300831483824226
30
0
41
1
10
43.8081178808126
20
0.352283820701047
30
0
41
1
10
43.7756854898234
20
0.404652278862329
30
0
41
1
10
43.7414272627567
20
0.457901118285719
30
0
0
SPLINE
5
190
100
AcDbEntity
8
1
62
256
6
ByLayer
370
18
48
1
60
0
100
AcDbSpline
70
4
71
3
72
26
73
22
40
0
40
0
40
0
40
0
40
0.124999999999956
40
0.124999999999956
40
0.187499999999942
40
0.187499999999942
40
0.249999999999928
40
0.249999999999928
40
0.499999999999907
40
0.499999999999907
40
0.562499999999913
40
0.562499999999913
40
0.624999999999918
40
0.624999999999918
40
0.749999999999954
40
0.749999999999954
40
0.812499999999972
40
0.812499999999972
40
0.87499999999999
40
0.87499999999999
40
1
40
1
40
1
40
1
41
1
10
43.7414272627555
20
0.45790111828552
30
0
41
1
10
43.7220563192798
20
0.46443826035889
30
0
41
1
10
43.7003924892284
20
0.473001828829638
30
0
41
1
10
43.6642529225178
20
0.489067548571654
30
0
41
1
10
43.6515995525185
20
0.494959113456105
30
0
41
1
10
43.6250473813903
20
0.507842940723123
30
0
41
1
10
43.6111132320368
20
0.514855266336525
30
0
41
1
10
43.5394132662308
20
0.552118190287786
30
0
41
1
10
43.4748134489031
20
0.589324810361404
30
0
41
1
10
43.3845356943646
20
0.645566945914538
30
0
41
1
10
43.3659225588479
20
0.657357505901672
30
0
41
1
10
43.3282784686589
20
0.681587668653805
30
0
41
1
10
43.3092062270164
20
0.694051411723393
30
0
41
1
10
43.2512580498649
20
0.732461957045189
30
0
41
1
10
43.211655082133
20
0.759421915909343
30
0
41
1
10
43.1508348189642
20
0.801834860088576
30
0
41
1
10
43.1303234138732
20
0.816304151080629
30
0
41
1
10
43.0888109728542
20
0.845925058695315
30
0
41
1
10
43.0677942470416
20
0.861089745827371
30
0
41
1
10
43.0050070371619
20
0.906885662669026
30
0
41
1
10
42.9631678828012
20
0.938048630222568
30
0
41
1
10
42.9213467365758
20
0.969811398825385
30
0
0
SPLINE
5
191
100
AcDbEntity
8
1
62
256
6
ByLayer
370
18
48
1
60
0
100
AcDbSpline
70
4
71
3
72
52
73
48
40
0
40
0
40
0
40
0
40
0.0312499999999588
40
0.0312499999999588
40
0.0624999999999177
40
0.0624999999999177
40
0.124999999999835
40
0.124999999999835
40
0.187499999999753
40
0.187499999999753
40
0.218749999999712
40
0.218749999999712
40
0.249999999999671
40
0.249999999999671
40
0.312499999999588
40
0.312499999999588
40
0.320312499999588
40
0.320312499999588
40
0.328124999999588
40
0.328124999999588
40
0.343749999999588
40
0.343749999999588
40
0.374999999999588
40
0.374999999999588
40
0.437499999999603
40
0.437499999999603
40
0.468749999999619
40
0.468749999999619
40
0.499999999999634
40
0.499999999999634
40
0.624999999999697
40
0.624999999999697
40
0.687499999999729
40
0.687499999999729
40
0.718749999999751
40
0.718749999999751
40
0.749999999999774
40
0.749999999999774
40
0.812499999999834
40
0.812499999999834
40
0.874999999999893
40
0.874999999999893
40
0.937499999999953
40
0.937499999999953
40
0.968749999999976
40
0.968749999999976
40
1
40
1
40
1
40
1
41
1
10
42.9213467365755
20
0.969811398831894
30
0
41
1
10
42.9006895659427
20
0.977627653151018
30
0
41
1
10
42.8798039693061
20
0.98575995779521
30
0
41
1
10
42.8375594697583
20
1.00260807950445
30
0
41
1
10
42.8161449852763
20
1.01134712356156
30
0
41
1
10
42.7515468530782
20
1.03820609658749
30
0
41
1
10
42.7083796713144
20
1.05680563218422
30
0
41
1
10
42.6216961644115
20
1.09488418771724
30
0
41
1
10
42.5781819064833
20
1.11436528442022
30
0
41
1
10
42.5125259942771
20
1.14391244070077
30
0
41
1
10
42.4905123117073
20
1.15384485853576
30
0
41
1
10
42.4467192202513
20
1.1735891696502
30
0
41
1
10
42.4249383527598
20
1.18340110954765
30
0
41
1
10
42.3598866578489
20
1.21259447555224
30
0
41
1
10
42.3168982178892
20
1.23174478401768
30
0
41
1
10
42.2688464950898
20
1.25273380564374
30
0
41
1
10
42.2635118302349
20
1.25505805643502
30
0
41
1
10
42.252850994887
20
1.25969002695402
30
0
41
1
10
42.247535755302
20
1.26197569532556
30
0
41
1
10
42.2314908938538
20
1.26903000141414
30
0
41
1
10
42.220823384964
20
1.27367877116299
30
0
41
1
10
42.1888416129218
20
1.28758010370313
30
0
41
1
10
42.1675824439171
20
1.29671812120497
30
0
41
1
10
42.1039463075824
20
1.3237097710203
30
0
41
1
10
42.0617081637322
20
1.34114916229484
30
0
41
1
10
41.9985168744955
20
1.36622750601418
30
0
41
1
10
41.977447974348
20
1.37442251220077
30
0
41
1
10
41.935685230505
20
1.39030150028029
30
0
41
1
10
41.914955229122
20
1.39799924975893
30
0
41
1
10
41.8120130503183
20
1.43520943955994
30
0
41
1
10
41.731988866593
20
1.46078771149996
30
0
41
1
10
41.6143850752375
20
1.49187249346647
30
0
41
1
10
41.5755850920874
20
1.50103183380844
30
0
41
1
10
41.5179014593692
20
1.51280724167154
30
0
41
1
10
41.4987651806296
20
1.51640188939555
30
0
41
1
10
41.4609459663077
20
1.52287844870054
30
0
41
1
10
41.4422218829762
20
1.52577006123391
30
0
41
1
10
41.3865677221205
20
1.53340662679744
30
0
41
1
10
41.3501502291925
20
1.53711978292455
30
0
41
1
10
41.2787942164505
20
1.54148973305519
30
0
41
1
10
41.2438464806543
20
1.5421547563939
30
0
41
1
10
41.1753222482302
20
1.54034599291219
30
0
41
1
10
41.1417381674692
20
1.5378805559979
30
0
41
1
10
41.0923559104314
20
1.53172680281273
30
0
41
1
10
41.0760385054688
20
1.52926330407826
30
0
41
1
10
41.0438781511793
20
1.52348544255338
30
0
41
1
10
41.0280368988232
20
1.52017997018606
30
0
41
1
10
41.0124488894743
20
1.51644049542125
30
0
0
SPLINE
5
192
100
AcDbEntity
8
1
62
256
6
ByLayer
370
18
48
1
60
0
100
AcDbSpline
70
4
71
1
72
4
73
2
40
0
40
0
40
1
40
1
41
1
10
40.8959319034416
20
1.35277329119688
30
0
41
1
10
41.0124488894744
20
1.51644049542125
30
0
0
SPLINE
5
193
100
AcDbEntity
8
1
62
256
6
ByLayer
370
18
48
1
60
0
100
AcDbSpline
70
4
71
3
72
18
73
14
40
0
40
0
40
0
40
0
40
0.249999999999992
40
0.249999999999992
40
0.499999999999984
40
0.499999999999984
40
0.749999999999975
40
0.749999999999975
40
0.874999999999948
40
0.874999999999948
40
0.937499999999974
40
0.937499999999974
40
1
40
1
40
1
40
1
41
1
10
43.8305049452174
20
0.276598795568361
30
0
41
1
10
43.8290562155903
20
0.272382143639391
30
0
41
1
10
43.8278478236051
20
0.267622308184627
30
0
41
1
10
43.8261542446366
20
0.256661593571437
30
0
41
1
10
43.8256560278139
20
0.250482345031571
30
0
41
1
10
43.8259113280858
20
0.235836182238501
30
0
41
1
10
43.8266797882372
20
0.227309588598217
30
0
41
1
10
43.8295930406688
20
0.212637405087804
30
0
41
1
10
43.830839067956
20
0.207527902265184
30
0
41
1
10
43.8332492664742
20
0.199435389264181
30
0
41
1
10
43.8341519635713
20
0.196645004416808
30
0
41
1
10
43.8361020477228
20
0.191089083113923
30
0
41
1
10
43.8371534917701
20
0.18830664002337
30
0
41
1
10
43.8382843975861
20
0.185519196945961
30
0
0
SPLINE
5
194
100
AcDbEntity
8
1
62
256
6
ByLayer
370
18
48
1
60
0
100
AcDbSpline
70
4
71
3
72
8
73
4
40
0
40
0
40
0
40
0
40
1
40
1
40
1
40
1
41
1
10
43.8305049452174
20
0.276598795568361
30
0
41
1
10
43.8333421844298
20
0.284856823825834
30
0
41
1
10
43.8360653201346
20
0.292949269961099
30
0
41
1
10
43.8386503139549
20
0.300831483810612
30
0
0
SPLINE
5
195
100
AcDbEntity
8
1
62
256
6
ByLayer
370
18
48
1
60
0
100
AcDbSpline
70
4
71
3
72
18
73
14
40
0
40
0
40
0
40
0
40
0.0312500000001709
40
0.0312500000001709
40
0.0625000000003418
40
0.0625000000003418
40
0.125000000000444
40
0.125000000000444
40
0.250000000000412
40
0.250000000000412
40
0.500000000000348
40
0.500000000000348
40
1
40
1
40
1
40
1
41
1
10
43.875595173698
20
0.0047438347122863
30
0
41
1
10
43.8740288473673
20
0.0046992249872062
30
0
41
1
10
43.8722437994624
20
0.0047063736482187
30
0
41
1
10
43.8686414294457
20
0.0047595639263989
30
0
41
1
10
43.8668404667324
20
0.0048062704048561
30
0
41
1
10
43.8614378899098
20
0.0049745551807803
30
0
41
1
10
43.857852523621
20
0.0051242551227233
30
0
41
1
10
43.8473452152248
20
0.0056049682788455
30
0
41
1
10
43.8405246639407
20
0.0059756783565206
30
0
41
1
10
43.820240359269
20
0.0071361431432138
30
0
41
1
10
43.8070254298312
20
0.0079777369520855
30
0
41
1
10
43.767868741783
20
0.0105513229571557
30
0
41
1
10
43.7423110418409
20
0.0123508276431892
30
0
41
1
10
43.7169346290406
20
0.0141781112358785
30
0
0
SPLINE
5
196
100
AcDbEntity
8
1
62
256
6
ByLayer
370
18
48
1
60
0
100
AcDbSpline
70
4
71
3
72
8
73
4
40
0
40
0
40
0
40
0
40
1
40
1
40
1
40
1
41
1
10
43.6070936859532
20
-0.149865273045265
30
0
41
1
10
43.6073952899317
20
-0.150515827801343
30
0
41
1
10
43.6076823580768
20
-0.151147477577837
30
0
41
1
10
43.6079549607776
20
-0.151760313919453
30
0
0
SPLINE
5
197
100
AcDbEntity
8
1
62
256
6
ByLayer
370
18
48
1
60
0
100
AcDbSpline
70
4
71
3
72
32
73
28
40
0
40
0
40
0
40
0
40
0.0624999999999597
40
0.0624999999999597
40
0.124999999999919
40
0.124999999999919
40
0.24999999999984
40
0.24999999999984
40
0.37499999999976
40
0.37499999999976
40
0.43749999999972
40
0.43749999999972
40
0.49999999999968
40
0.49999999999968
40
0.56249999999964
40
0.56249999999964
40
0.6249999999996
40
0.6249999999996
40
0.749999999999637
40
0.749999999999637
40
0.812499999999728
40
0.812499999999728
40
0.874999999999819
40
0.874999999999819
40
0.937499999999909
40
0.937499999999909
40
1
40
1
40
1
40
1
41
1
10
43.6070936859522
20
-0.149865273045066
30
0
41
1
10
43.6056758777857
20
-0.146807084453769
30
0
41
1
10
43.6042809220014
20
-0.143431580692152
30
0
41
1
10
43.601729024402
20
-0.136097712558097
30
0
41
1
10
43.6005645773808
20
-0.132106371789604
30
0
41
1
10
43.5977202145184
20
-0.119573259376068
30
0
41
1
10
43.5966676286566
20
-0.110438123585624
30
0
41
1
10
43.5969666263973
20
-0.0911223477456815
30
0
41
1
10
43.5982922886156
20
-0.0812914908355538
30
0
41
1
10
43.6022990686017
20
-0.0664327940663156
30
0
41
1
10
43.6039757806262
20
-0.0614801855625728
30
0
41
1
10
43.6079284843568
20
-0.0518848640607246
30
0
41
1
10
43.6102142440518
20
-0.047201018470588
30
0
41
1
10
43.6154271945008
20
-0.0380823946904627
30
0
41
1
10
43.6183813178777
20
-0.0336164940697188
30
0
41
1
10
43.6248017584199
20
-0.0252007169735862
30
0
41
1
10
43.6282722523675
20
-0.0212318160174902
30
0
41
1
10
43.6394751926663
20
-0.01005774570055
30
0
41
1
10
43.6481029729306
20
-0.0035483689815976
30
0
41
1
10
43.661957162948
20
0.0040157392907361
30
0
41
1
10
43.6667521655527
20
0.006197688286619
30
0
41
1
10
43.6767092814543
20
0.0098473682692202
30
0
41
1
10
43.6818660928712
20
0.0113005479692276
30
0
41
1
10
43.6920888230243
20
0.0133772066488689
30
0
41
1
10
43.6972120332172
20
0.0140212553583297
30
0
41
1
10
43.7073785508452
20
0.0145928863478275
30
0
41
1
10
43.7122514986214
20
0.014515330193035
30
0
41
1
10
43.7169346290409
20
0.0141781112390333
30
0
0
SPLINE
5
198
100
AcDbEntity
8
1
62
256
6
ByLayer
370
18
48
1
60
0
100
AcDbSpline
70
4
71
3
72
10
73
6
40
0
40
0
40
0
40
0
40
0.5
40
0.5
40
1
40
1
40
1
40
1
41
1
10
42.8100056015817
20
0.125582558482307
30
0
41
1
10
42.8312345424198
20
0.0935007562638077
30
0
41
1
10
42.8519521052296
20
0.060974267124152
30
0
41
1
10
42.8920837633322
20
-0.0052121876109652
30
0
41
1
10
42.911502837114
20
-0.0388678239849582
30
0
41
1
10
42.9300316356342
20
-0.0732976308212301
30
0
0
SPLINE
5
199
100
AcDbEntity
8
1
62
256
6
ByLayer
370
18
48
1
60
0
100
AcDbSpline
70
4
71
3
72
8
73
4
40
0
40
0
40
0
40
0
40
1
40
1
40
1
40
1
41
1
10
42.8757962082233
20
0.12750332181966
30
0
41
1
10
42.8539465281806
20
0.126802935094645
30
0
41
1
10
42.8320141983818
20
0.126164269485031
30
0
41
1
10
42.8100056015817
20
0.12558255848225
30
0
0
SPLINE
5
19A
100
AcDbEntity
8
1
62
256
6
ByLayer
370
18
48
1
60
0
100
AcDbSpline
70
4
71
3
72
8
73
4
40
0
40
0
40
0
40
0
40
1
40
1
40
1
40
1
41
1
10
42.7576319640802
20
0.25523208577988
30
0
41
1
10
42.7961292406859
20
0.211885128231131
30
0
41
1
10
42.8354328048192
20
0.169199989996741
30
0
41
1
10
42.8757962082232
20
0.127503321819745
30
0
0
SPLINE
5
19B
100
AcDbEntity
8
1
62
256
6
ByLayer
370
18
48
1
60
0
100
AcDbSpline
70
4
71
3
72
26
73
22
40
0
40
0
40
0
40
0
40
0.125
40
0.125
40
0.1875
40
0.1875
40
0.25
40
0.25
40
0.375
40
0.375
40
0.5
40
0.5
40
0.625
40
0.625
40
0.75
40
0.75
40
0.875
40
0.875
40
0.9375
40
0.9375
40
1
40
1
40
1
40
1
41
1
10
42.7576319113715
20
0.255232145128417
30
0
41
1
10
42.7383090996392
20
0.276989142026935
30
0
41
1
10
42.7214152304303
20
0.299976278678031
30
0
41
1
10
42.6987471069026
20
0.335582788028745
30
0
41
1
10
42.6916422197733
20
0.347642332899881
30
0
41
1
10
42.6782103194876
20
0.3720440866648
30
0
41
1
10
42.6718628269932
20
0.384430612107394
30
0
41
1
10
42.6539699653425
20
0.421530726002345
30
0
41
1
10
42.643605078884
20
0.446066315542225
30
0
41
1
10
42.6247090348103
20
0.494258097512585
30
0
41
1
10
42.6161839233832
20
0.517915406462379
30
0
41
1
10
42.5998120405011
20
0.564033582331376
30
0
41
1
10
42.591951879286
20
0.586553651770913
30
0
41
1
10
42.5758163018192
20
0.629839102034765
30
0
41
1
10
42.5675671583021
20
0.650618716594153
30
0
41
1
10
42.548984857895
20
0.690691195766988
30
0
41
1
10
42.5386675034271
20
0.709966821593497
30
0
41
1
10
42.5190773897101
20
0.738433737820202
30
0
41
1
10
42.5118346084307
20
0.747859449670102
30
0
41
1
10
42.4958221264675
20
0.76670218651202
30
0
41
1
10
42.4871494192982
20
0.776021338740264
30
0
41
1
10
42.4780689646298
20
0.785229091831127
30
0
0
SPLINE
5
19C
100
AcDbEntity
8
1
62
256
6
ByLayer
370
18
48
1
60
0
100
AcDbSpline
70
4
71
3
72
8
73
4
40
0
40
0
40
0
40
0
40
1
40
1
40
1
40
1
41
1
10
40.8557960014097
20
1.26086669822808
30
0
41
1
10
40.8548642008234
20
1.26044133422891
30
0
41
1
10
40.8539321984917
20
1.26001472123997
30
0
41
1
10
40.853
20
1.25958685612036
30
0
0
SPLINE
5
19D
100
AcDbEntity
8
1
62
256
6
ByLayer
370
18
48
1
60
0
100
AcDbSpline
70
4
71
3
72
24
73
20
40
0
40
0
40
0
40
0
40
0.249999999999939
40
0.249999999999939
40
0.374999999999936
40
0.374999999999936
40
0.499999999999933
40
0.499999999999933
40
0.562499999999941
40
0.562499999999941
40
0.624999999999949
40
0.624999999999949
40
0.687499999999958
40
0.687499999999958
40
0.749999999999966
40
0.749999999999966
40
0.874999999999983
40
0.874999999999983
40
1
40
1
40
1
40
1
41
1
10
43.9704927879597
20
0.0384805173083294
30
0
41
1
10
43.9726150302467
20
0.0326187197018442
30
0
41
1
10
43.9745943374585
20
0.0274759730491496
30
0
41
1
10
43.9771462028175
20
0.0219899349159789
30
0
41
1
10
43.9779097717922
20
0.0205775456051072
30
0
41
1
10
43.9791971699048
20
0.0189570336497695
30
0
41
1
10
43.9797155892778
20
0.0187754042981965
30
0
41
1
10
43.9801971580244
20
0.0198089631248308
30
0
41
1
10
43.9803108241152
20
0.0203790761994185
30
0
41
1
10
43.9804283923817
20
0.0219574395869131
30
0
41
1
10
43.9804339105063
20
0.0229606680769052
30
0
41
1
10
43.9803429076186
20
0.0253859175825824
30
0
41
1
10
43.9802447006471
20
0.0268244609311523
30
0
41
1
10
43.9799585835261
20
0.0300194631050203
30
0
41
1
10
43.9797718947728
20
0.031772054530677
30
0
41
1
10
43.9791016938984
20
0.0374297743154557
30
0
41
1
10
43.9785111298666
20
0.0417049039908761
30
0
41
1
10
43.9771846286178
20
0.0506293112866558
30
0
41
1
10
43.976436574704
20
0.0553621910520405
30
0
41
1
10
43.9756437098034
20
0.0602022093037533
30
0
0
SPLINE
5
19E
100
AcDbEntity
8
1
62
256
6
ByLayer
370
18
48
1
60
0
100
AcDbSpline
70
4
71
3
72
8
73
4
40
0
40
0
40
0
40
0
40
1
40
1
40
1
40
1
41
1
10
43.9704927879597
20
0.0384805173083294
30
0
41
1
10
43.9660695459087
20
0.0506978545212746
30
0
41
1
10
43.9613821021625
20
0.0631153503542521
30
0
41
1
10
43.9564463835846
20
0.0757082710092334
30
0
0
SPLINE
5
19F
100
AcDbEntity
8
1
62
256
6
ByLayer
370
18
48
1
60
0
100
AcDbSpline
70
4
71
3
72
8
73
4
40
0
40
0
40
0
40
0
40
1
40
1
40
1
40
1
41
1
10
43.9564463835846
20
0.0757082710092618
30
0
41
1
10
43.9450571928462
20
0.0827972129423813
30
0
41
1
10
43.9303193318693
20
0.0897000054866908
30
0
41
1
10
43.912321807792
20
0.0964215964641539
30
0
0
SPLINE
5
1A0
100
AcDbEntity
8
1
62
256
6
ByLayer
370
18
48
1
60
0
100
AcDbSpline
70
4
71
3
72
22
73
18
40
0
40
0
40
0
40
0
40
0.0625000000000291
40
0.0625000000000291
40
0.125000000000058
40
0.125000000000058
40
0.25000000000005
40
0.25000000000005
40
0.375000000000041
40
0.375000000000041
40
0.500000000000033
40
0.500000000000033
40
0.625000000000024
40
0.625000000000024
40
0.750000000000016
40
0.750000000000016
40
1
40
1
40
1
40
1
41
1
10
43.8382843975919
20
0.185519196942721
30
0
41
1
10
43.8397780423919
20
0.181143596126105
30
0
41
1
10
43.8413647302784
20
0.17703462892959
30
0
41
1
10
43.8446745083357
20
0.169234102889817
30
0
41
1
10
43.8464118926416
20
0.165516982688047
30
0
41
1
10
43.8516756467508
20
0.155097878620296
30
0
41
1
10
43.8552146822978
20
0.149153236060613
30
0
41
1
10
43.8622711798625
20
0.13851624190292
30
0
41
1
10
43.8657581095675
20
0.133891489861725
30
0
41
1
10
43.8724841164072
20
0.125766303201004
30
0
41
1
10
43.8757514853895
20
0.122230907620377
30
0
41
1
10
43.8821099646838
20
0.11593984261529
30
0
41
1
10
43.8852103444511
20
0.113180097384316
30
0
41
1
10
43.8911855566928
20
0.108333713922292
30
0
41
1
10
43.8940614876004
20
0.106244686143128
30
0
41
1
10
43.9023860046408
20
0.100784578309657
30
0
41
1
10
43.9075331264126
20
0.0982100401087109
30
0
41
1
10
43.912321807792
20
0.0964215964641539
30
0
0
SPLINE
5
1A1
100
AcDbEntity
8
1
62
256
6
ByLayer
370
18
48
1
60
0
100
AcDbSpline
70
4
71
3
72
38
73
34
40
0
40
0
40
0
40
0
40
0.0135937826961154
40
0.0308461421148717
40
0.0518595948126676
40
0.083826294148721
40
0.116067593412496
40
0.137583485549776
40
0.159046961236752
40
0.191186493357623
40
0.255217715093599
40
0.290656540838068
40
0.304825479082989
40
0.333131328864254
40
0.358030546197246
40
0.380337308783679
40
0.404922996679954
40
0.41276533395006
40
0.416413924407191
40
0.417256957209427
40
0.418095082652863
40
0.419709079696659
40
0.442010558672767
40
0.472648528074858
40
0.530820787831627
40
0.608221949918461
40
0.635733127060368
40
0.718674119469421
40
0.746441868592641
40
0.830025895048111
40
0.857913864426431
40
0.913522191174195
40
1
40
1
40
1
40
1
41
1
10
40.8959319034416
20
1.35277329119688
30
0
41
1
10
40.9107531335327
20
1.35891233424343
30
0
41
1
10
40.9442064994352
20
1.37146415304818
30
0
41
1
10
40.9998768878572
20
1.38794939909982
30
0
41
1
10
41.0746504637444
20
1.4036696627501
30
0
41
1
10
41.1645723680563
20
1.41334742265599
30
0
41
1
10
41.2547546828145
20
1.41330884396984
30
0
41
1
10
41.3342012590528
20
1.40694402621463
30
0
41
1
10
41.414428129258
20
1.39674771911046
30
0
41
1
10
41.5411569565222
20
1.37359446964157
30
0
41
1
10
41.6855474331628
20
1.33372013827756
30
0
41
1
10
41.8116342314947
20
1.28771159607382
30
0
41
1
10
41.898296809834
20
1.25248797279943
30
0
41
1
10
41.9734746462838
20
1.21965433465621
30
0
41
1
10
42.0579154367207
20
1.17999850772824
30
0
41
1
10
42.1380442196389
20
1.13994943761844
30
0
41
1
10
42.1989854312693
20
1.10794952769993
30
0
41
1
10
42.2389112727329
20
1.08623297461517
30
0
41
1
10
42.2525621420241
20
1.07877590638355
30
0
41
1
10
42.258446608877
20
1.07552742679232
30
0
41
1
10
42.2620692400876
20
1.07349850408715
30
0
41
1
10
42.2904388656093
20
1.0595227797221
30
0
41
1
10
42.352566745155
20
1.02814093477045
30
0
41
1
10
42.4781495368105
20
0.962805806555934
30
0
41
1
10
42.6637901527195
20
0.862237087807074
30
0
41
1
10
42.8406683705414
20
0.762908412784441
30
0
41
1
10
43.0369682472815
20
0.651401711725924
30
0
41
1
10
43.1746887761581
20
0.572329801829142
30
0
41
1
10
43.3550511723182
20
0.467921928016011
30
0
41
1
10
43.4738093776582
20
0.398446866698066
30
0
41
1
10
43.6012104982286
20
0.323506364734158
30
0
41
1
10
43.7186427786268
20
0.254383448243459
30
0
41
1
10
43.7980376367722
20
0.208221114534439
30
0
41
1
10
43.8382843975936
20
0.185519196941726
30
0
0
SPLINE
5
1A2
100
AcDbEntity
8
1
62
256
6
ByLayer
370
18
48
1
60
0
100
AcDbSpline
70
4
71
1
72
4
73
2
40
0
40
0
40
1
40
1
41
1
10
40.8558717332226
20
1.26129635194647
30
0
41
1
10
40.8959319034416
20
1.35277329119688
30
0
0
SPLINE
5
1A3
100
AcDbEntity
8
1
62
256
6
ByLayer
370
18
48
1
60
0
100
AcDbSpline
70
4
71
3
72
8
73
4
40
0
40
0
40
0
40
0
40
1
40
1
40
1
40
1
41
1
10
42.4418693305306
20
0.852576099578982
30
0
41
1
10
42.4305056576125
20
0.859097895771527
30
0
41
1
10
42.4188326631368
20
0.864997093603563
30
0
41
1
10
42.4068566872515
20
0.870286139992061
30
0
0
SPLINE
5
1A4
100
AcDbEntity
8
1
62
256
6
ByLayer
370
18
48
1
60
0
100
AcDbSpline
70
4
71
3
72
12
73
8
40
0
40
0
40
0
40
0
40
0.499999999999993
40
0.499999999999993
40
0.749999999999997
40
0.749999999999997
40
1
40
1
40
1
40
1
41
1
10
43.919776202562
20
0.0059582120165089
30
0
41
1
10
43.9417262229007
20
-0.001576909509339
30
0
41
1
10
43.9592779170571
20
-0.0090737171377953
30
0
41
1
10
43.978956306875
20
-0.0202610077045904
30
0
41
1
10
43.9844090167014
20
-0.0239842135412403
30
0
41
1
10
43.9930273288522
20
-0.0313871864381667
30
0
41
1
10
43.9961944457383
20
-0.0350674136456064
30
0
41
1
10
43.9982195656167
20
-0.0387263823972432
30
0
0
SPLINE
5
1A5
100
AcDbEntity
8
1
62
256
6
ByLayer
370
18
48
1
60
0
100
AcDbSpline
70
4
71
3
72
8
73
4
40
0
40
0
40
0
40
0
40
1
40
1
40
1
40
1
41
1
10
43.9994442569353
20
-0.0395908617441023
30
0
41
1
10
43.9992166607987
20
-0.0393025996905578
30
0
41
1
10
43.9988083360035
20
-0.0390144399617043
30
0
41
1
10
43.9982195656167
20
-0.0387263823972432
30
0
0
SPLINE
5
1A6
100
AcDbEntity
8
1
62
256
6
ByLayer
370
18
48
1
60
0
100
AcDbSpline
70
4
71
3
72
8
73
4
40
0
40
0
40
0
40
0
40
1
40
1
40
1
40
1
41
1
10
43.9841902999305
20
0.0425761593157858
30
0
41
1
10
43.9835827576469
20
0.0485244995361143
30
0
41
1
10
43.980730895066
20
0.0543997518608705
30
0
41
1
10
43.9756437098034
20
0.0602022093038102
30
0
0
SPLINE
5
1A7
100
AcDbEntity
8
1
62
256
6
ByLayer
370
18
48
1
60
0
100
AcDbSpline
70
4
71
3
72
8
73
4
40
0
40
0
40
0
40
0
40
1
40
1
40
1
40
1
41
1
10
43.8755951737052
20
0.0047438347112632
30
0
41
1
10
43.8902419177514
20
0.0051609810060995
30
0
41
1
10
43.9049755409984
20
0.0055647555223004
30
0
41
1
10
43.9197762025629
20
0.0059582120165089
30
0
0
SPLINE
5
1A8
100
AcDbEntity
8
1
62
256
6
ByLayer
370
18
48
1
60
0
100
AcDbSpline
70
4
71
3
72
21
73
17
40
0
40
0
40
0
40
0
40
0.249999999999951
40
0.249999999999951
40
0.312499999999951
40
0.312499999999951
40
0.37499999999995
40
0.499999999999949
40
0.499999999999949
40
0.749999999999967
40
0.749999999999967
40
0.812499999999975
40
0.812499999999975
40
0.874999999999983
40
0.874999999999983
40
1
40
1
40
1
40
1
41
1
10
43.341712380691
20
0.336130687502731
30
0
41
1
10
43.4091770301635
20
0.297833565323373
30
0
41
1
10
43.4724030291868
20
0.261842726925494
30
0
41
1
10
43.5461510586907
20
0.219760214226938
30
0
41
1
10
43.5606576239541
20
0.211475840127207
30
0
41
1
10
43.5889887656609
20
0.195286602505263
30
0
41
1
10
43.6304581111055
20
0.171575457741028
30
0
41
1
10
43.6689171753849
20
0.149561592617431
30
0
41
1
10
43.7418842354371
20
0.107780391794677
30
0
41
1
10
43.7852692009947
20
0.0829076834687328
30
0
41
1
10
43.8327977291598
20
0.0556955305394808
30
0
41
1
10
43.8419665094366
20
0.0504483526499939
30
0
41
1
10
43.8596185830234
20
0.040350143841664
30
0
41
1
10
43.8680776225691
20
0.0355128366833242
30
0
41
1
10
43.8922403810755
20
0.0216980062180028
30
0
41
1
10
43.9067832226783
20
0.0133865663613904
30
0
41
1
10
43.9197762025611
20
0.0059582120169921
30
0
0
SPLINE
5
1A9
100
AcDbEntity
8
1
62
256
6
ByLayer
370
18
48
1
60
0
100
AcDbSpline
70
4
71
3
72
12
73
8
40
0
40
0
40
0
40
0
40
0.261269359217124
40
0.400060232491027
40
0.81848844831323
40
0.958573699110871
40
1
40
1
40
1
40
1
41
1
10
42.7123157112299
20
0.695753743178045
30
0
41
1
10
42.7688588448989
20
0.663446272352644
30
0
41
1
10
42.8557337089673
20
0.61380792809851
30
0
41
1
10
43.0323389491221
20
0.512899676426883
30
0
41
1
10
43.1795242795406
20
0.428801304759332
30
0
41
1
10
43.2986263200784
20
0.360749089053059
30
0
41
1
10
43.3337464126595
20
0.340682261653853
30
0
41
1
10
43.3417123806922
20
0.336130687502049
30
0
0
SPLINE
5
1AA
100
AcDbEntity
8
1
62
256
6
ByLayer
370
18
48
1
60
0
100
AcDbSpline
70
4
71
3
72
10
73
6
40
0
40
0
40
0
40
0
40
0.5
40
0.5
40
1
40
1
40
1
40
1
41
1
10
42.4418693305301
20
0.852576099579295
30
0
41
1
10
42.487261935862
20
0.82652454716677
30
0
41
1
10
42.5325258434617
20
0.800315893318555
30
0
41
1
10
42.6226315871056
20
0.747952281687617
30
0
41
1
10
42.6675164261703
20
0.721771051782696
30
0
41
1
10
42.712315711442
20
0.695753743054894
30
0
0
SPLINE
5
1AB
100
AcDbEntity
8
1
62
256
6
ByLayer
370
18
48
1
60
0
100
AcDbSpline
70
4
71
3
72
8
73
4
40
0
40
0
40
0
40
0
40
1
40
1
40
1
40
1
41
1
10
40.8557960014096
20
-0.24744569627984
30
0
41
1
10
40.8548642008235
20
-0.24717871935195
30
0
41
1
10
40.8539321984915
20
-0.246913470513988
30
0
41
1
10
40.853
20
-0.246649960154087
30
0
0
SPLINE
5
1AC
100
AcDbEntity
8
1
62
256
6
ByLayer
370
18
48
1
60
0
100
AcDbSpline
70
4
71
3
72
22
73
18
40
0
40
0
40
0
40
0
40
0.249999999999979
40
0.249999999999979
40
0.374999999999969
40
0.374999999999969
40
0.437499999999978
40
0.437499999999978
40
0.499999999999987
40
0.499999999999987
40
0.750000000000021
40
0.750000000000021
40
0.875000000000024
40
0.875000000000024
40
0.937500000000012
40
0.937500000000012
40
1
40
1
40
1
40
1
41
1
10
41.267037280681
20
-0.448003918711635
30
0
41
1
10
41.3593717757666
20
-0.503495200338534
30
0
41
1
10
41.4518120250896
20
-0.559795290997187
30
0
41
1
10
41.5916822431903
20
-0.64354206638285
30
0
41
1
10
41.638508084612
20
-0.671341086294689
30
0
41
1
10
41.7091910960015
20
-0.712621121499268
30
0
41
1
10
41.7328259306184
20
-0.726311645300598
30
0
41
1
10
41.7802687377331
20
-0.753510624391538
30
0
41
1
10
41.8041300500543
20
-0.767048615393833
30
0
41
1
10
41.9231349672091
20
-0.833719288058518
30
0
41
1
10
42.0174020549225
20
-0.883845219162367
30
0
41
1
10
42.1586133281319
20
-0.952515549076935
30
0
41
1
10
42.2056502805824
20
-0.974315256186287
30
0
41
1
10
42.276303118832
20
-1.00511810040518
30
0
41
1
10
42.2998703922572
20
-1.01507049953972
30
0
41
1
10
42.3470629757633
20
-1.03429570183508
30
0
41
1
10
42.3706801994437
20
-1.04356078800555
30
0
41
1
10
42.394153796744
20
-1.05239125215732
30
0
0
SPLINE
5
1AD
100
AcDbEntity
8
1
62
256
6
ByLayer
370
18
48
1
60
0
100
AcDbSpline
70
4
71
3
72
8
73
4
40
0
40
0
40
0
40
0
40
1
40
1
40
1
40
1
41
1
10
42.4068566872524
20
-1.05459579609754
30
0
41
1
10
42.4026589933849
20
-1.05377302040003
30
0
41
1
10
42.3984252791335
20
-1.05303628939399
30
0
41
1
10
42.394153796744
20
-1.05239125215718
30
0
0
SPLINE
5
1AE
100
AcDbEntity
8
1
62
256
6
ByLayer
370
18
48
1
60
0
100
AcDbSpline
70
4
71
1
72
4
73
2
40
0
40
0
40
1
40
1
41
1
10
40.8557960014096
20
-0.247445696279868
30
0
41
1
10
40.8558717332226
20
-0.246857506625418
30
0
0
SPLINE
5
1AF
100
AcDbEntity
8
1
62
256
6
ByLayer
370
18
48
1
60
0
100
AcDbSpline
70
4
71
3
72
16
73
12
40
0
40
0
40
0
40
0
40
0.249999999999983
40
0.249999999999983
40
0.499999999999966
40
0.499999999999966
40
0.624999999999992
40
0.624999999999992
40
0.750000000000018
40
0.750000000000018
40
1
40
1
40
1
40
1
41
1
10
40.8557960014097
20
-0.24744569627984
30
0
41
1
10
40.8896188889594
20
-0.257476205386865
30
0
41
1
10
40.9233895724454
20
-0.269970853070191
30
0
41
1
10
40.9911730746757
20
-0.298435981110515
30
0
41
1
10
41.0251815609401
20
-0.31442124084279
30
0
41
1
10
41.0765570272503
20
-0.340369573262336
30
0
41
1
10
41.0937426689572
20
-0.349350626060613
30
0
41
1
10
41.1282604199758
20
-0.367892467405824
30
0
41
1
10
41.1455953384172
20
-0.377455911948004
30
0
41
1
10
41.1975454255946
20
-0.406730162041185
30
0
41
1
10
41.2322165785827
20
-0.427077359329615
30
0
41
1
10
41.267037280681
20
-0.44800391871172
30
0
0
SPLINE
5
1B0
100
AcDbEntity
8
1
62
256
6
ByLayer
370
18
48
1
60
0
100
AcDbSpline
70
4
71
3
72
8
73
4
40
0
40
0
40
0
40
0
40
1
40
1
40
1
40
1
41
1
10
42.4780689646324
20
0.785229091830189
30
0
41
1
10
42.4490404192787
20
0.814664722354905
30
0
41
1
10
42.4211191256901
20
0.844682152688705
30
0
41
1
10
42.3941537967414
20
0.875259387034845
30
0
0
SPLINE
5
1B1
100
AcDbEntity
8
1
62
256
6
ByLayer
370
18
48
1
60
0
100
AcDbSpline
70
4
71
3
72
8
73
4
40
0
40
0
40
0
40
0
40
1
40
1
40
1
40
1
41
1
10
42.4068566872517
20
0.870286139992572
30
0
41
1
10
42.4026589933844
20
0.872045388668965
30
0
41
1
10
42.3984252791327
20
0.873704808781127
30
0
41
1
10
42.3941537967432
20
0.875259387031605
30
0
0
SPLINE
5
1B2
100
AcDbEntity
8
1
62
256
6
ByLayer
370
18
48
1
60
0
100
AcDbSpline
70
4
71
3
72
29
73
25
40
0
40
0
40
0
40
0
40
0.0294215188864573
40
0.0667614285953227
40
0.112241609442597
40
0.181428300835138
40
0.251209318850391
40
0.297776947672122
40
0.344231129661793
40
0.413791889343962
40
0.552376994148254
40
0.629078535158815
40
0.659744884142981
40
0.721008265539735
40
0.774898548281268
40
0.823177886814466
40
0.876389586379406
40
0.893363042500073
40
0.901259819684403
40
0.903084426276061
40
0.904898411692374
40
0.908391644265548
40
0.956659547288523
40
1
40
1
40
1
40
1
41
1
10
40.8558717332226
20
1.26129635194647
30
0
41
1
10
40.8713822346192
20
1.26772406941902
30
0
41
1
10
40.9063598196277
20
1.28078892237951
30
0
41
1
10
40.9649585333874
20
1.29782294413684
30
0
41
1
10
41.0430166658237
20
1.31343819423256
30
0
41
1
10
41.1361345578019
20
1.32199803298272
30
0
41
1
10
41.2296474129487
20
1.32025404833564
30
0
41
1
10
41.3126846219704
20
1.31215337102307
30
0
41
1
10
41.3962449494563
20
1.29995577811079
30
0
41
1
10
41.5271748125304
20
1.27314745651307
30
0
41
1
10
41.6751702755234
20
1.22870860412897
30
0
41
1
10
41.8052269236758
20
1.17858805139519
30
0
41
1
10
41.895129122078
20
1.14047325450463
30
0
41
1
10
41.9728152880742
20
1.10509176293695
30
0
41
1
10
42.0594262630198
20
1.06255260054741
30
0
41
1
10
42.1416968367236
20
1.0197815782399
30
0
41
1
10
42.2041137910424
20
0.985692370930394
30
0
41
1
10
42.2451183523518
20
0.962639196986316
30
0
41
1
10
42.2590825602323
20
0.954709729249373
30
0
41
1
10
42.2651436567808
20
0.951256285762923
30
0
41
1
10
42.2688940515263
20
0.949114992578814
30
0
41
1
10
42.2946779374517
20
0.934382468136363
30
0
41
1
10
42.3407947685321
20
0.908032441524966
30
0
41
1
10
42.38558686654
20
0.882439242313723
30
0
41
1
10
42.4068566872515
20
0.870286139992061
30
0
0
SPLINE
5
1B3
100
AcDbEntity
8
1
62
256
6
ByLayer
370
18
48
1
60
0
100
AcDbSpline
70
4
71
1
72
4
73
2
40
0
40
0
40
1
40
1
41
1
10
40.8557960014097
20
1.26086669822675
30
0
41
1
10
40.8558717332226
20
1.26129635194647
30
0
0
SPLINE
5
1B4
100
AcDbEntity
8
1
62
256
6
ByLayer
370
18
48
1
60
0
100
AcDbSpline
70
4
71
3
72
16
73
12
40
0
40
0
40
0
40
0
40
0.25
40
0.25
40
0.5
40
0.5
40
0.625
40
0.625
40
0.75
40
0.75
40
1
40
1
40
1
40
1
41
1
10
40.8557960014097
20
1.26086669822678
30
0
41
1
10
40.8896188889593
20
1.27488313945682
30
0
41
1
10
40.9233895724453
20
1.28590340081237
30
0
41
1
10
40.9911730746756
20
1.30319282050442
30
0
41
1
10
41.0251815609401
20
1.30945068829044
30
0
41
1
10
41.0765570272502
20
1.31576938308024
30
0
41
1
10
41.093742668957
20
1.31736020797925
30
0
41
1
10
41.1282604199757
20
1.31957311915815
30
0
41
1
10
41.1455953384171
20
1.32019507760441
30
0
41
1
10
41.1975454255945
20
1.3206907657131
30
0
41
1
10
41.2322165785963
20
1.31919922396676
30
0
41
1
10
41.2670372806948
20
1.31610537209897
30
0
0
SPLINE
5
1B5
100
AcDbEntity
8
1
62
256
6
ByLayer
370
18
48
1
60
0
100
AcDbSpline
70
4
71
3
72
22
73
18
40
0
40
0
40
0
40
0
40
0.249999999999979
40
0.249999999999979
40
0.374999999999955
40
0.374999999999955
40
0.437499999999957
40
0.437499999999957
40
0.499999999999959
40
0.499999999999959
40
0.749999999999966
40
0.749999999999966
40
0.874999999999983
40
0.874999999999983
40
0.937499999999991
40
0.937499999999991
40
1
40
1
40
1
40
1
41
1
10
41.2670372806809
20
1.31610537209701
30
0
41
1
10
41.3593716597782
20
1.30790133245927
30
0
41
1
10
41.4518118694016
20
1.29055391828405
30
0
41
1
10
41.5916821349103
20
1.25310163162411
30
0
41
1
10
41.6385080102132
20
1.23869438156669
30
0
41
1
10
41.7091911004576
20
1.21438540779988
30
0
41
1
10
41.7328259660293
20
1.20583342676525
30
0
41
1
10
41.7802688447154
20
1.18785543341804
30
0
41
1
10
41.8041301933896
20
1.1784065914203
30
0
41
1
10
41.9231346871845
20
1.12936004286442
30
0
41
1
10
42.017401649177
20
1.0844433652544
30
0
41
1
10
42.1586130308295
20
1.01052505824544
30
0
41
1
10
42.2056500695709
20
0.984785852050152
30
0
41
1
10
42.276303114989
20
0.944717265462998
30
0
41
1
10
42.2998704703993
20
0.931118873640372
30
0
41
1
10
42.3470632446062
20
0.903466423036889
30
0
41
1
10
42.3706803194912
20
0.88941374113557
30
0
41
1
10
42.3941537967438
20
0.875259387033481
30
0
0
SPLINE
5
1B6
100
AcDbEntity
8
1
62
256
6
ByLayer
370
18
48
1
60
0
100
AcDbSpline
70
4
71
3
72
20
73
16
40
0
40
0
40
0
40
0
40
0.249999999999992
40
0.249999999999992
40
0.375
40
0.375
40
0.500000000000009
40
0.500000000000009
40
0.750000000000004
40
0.750000000000004
40
0.875000000000002
40
0.875000000000002
40
0.937500000000001
40
0.937500000000001
40
1
40
1
40
1
40
1
41
1
10
43.3417123807037
20
-1.06474047511904
30
0
41
1
10
43.4034027158096
20
-1.04059122603672
30
0
41
1
10
43.4615425115839
20
-1.01133255200355
30
0
41
1
10
43.5434666611042
20
-0.959805299592887
30
0
41
1
10
43.5699533588195
20
-0.941283183284526
30
0
41
1
10
43.6205545780844
20
-0.902079496695876
30
0
41
1
10
43.6447263147891
20
-0.881377554176396
30
0
41
1
10
43.7139296728299
20
-0.81602800957134
30
0
41
1
10
43.7556560166398
20
-0.768147925557201
30
0
41
1
10
43.8115829489729
20
-0.68976268149251
30
0
41
1
10
43.8291131156121
20
-0.66253683853526
30
0
41
1
10
43.8536972357697
20
-0.620005469332824
30
0
41
1
10
43.8616096447314
20
-0.605536682418744
30
0
41
1
10
43.8767470427938
20
-0.576242218320743
30
0
41
1
10
43.8839870699664
20
-0.561391820415167
30
0
41
1
10
43.8909011729323
20
-0.546340447049516
30
0
0
SPLINE
5
1B7
100
AcDbEntity
8
1
62
256
6
ByLayer
370
18
48
1
60
0
100
AcDbSpline
70
4
71
3
72
8
73
4
40
0
40
0
40
0
40
0
40
1
40
1
40
1
40
1
41
1
10
43.8909011729365
20
-0.546340447030701
30
0
41
1
10
43.8740561118957
20
-0.529460652977519
30
0
41
1
10
43.8570323585089
20
-0.512263684898812
30
0
41
1
10
43.8398237742478
20
-0.494737554943697
30
0
0
SPLINE
5
1B8
100
AcDbEntity
8
1
62
256
6
ByLayer
370
18
48
1
60
0
100
AcDbSpline
70
4
71
1
72
4
73
2
40
0
40
0
40
1
40
1
41
1
10
40.8558717332226
20
-0.246857506625418
30
0
41
1
10
40.8959319034414
20
-0.088695505924818
30
0
0
SPLINE
5
1B9
100
AcDbEntity
8
1
62
256
6
ByLayer
370
18
48
1
60
0
100
AcDbSpline
70
4
71
3
72
29
73
25
40
0
40
0
40
0
40
0
40
0.0294215188859638
40
0.0667614285954326
40
0.112241609442838
40
0.18142830083558
40
0.25120931885086
40
0.297776947672558
40
0.344231129662363
40
0.41379188934413
40
0.552376994148822
40
0.629078535158331
40
0.659744884142775
40
0.721008265541807
40
0.774898548284766
40
0.823177886817326
40
0.876389586381621
40
0.893363042502374
40
0.901259819686835
40
0.90308442627856
40
0.904898411694906
40
0.908391644268083
40
0.95665954729095
40
1
40
1
40
1
40
1
41
1
10
40.8558717332226
20
-0.246857506625418
30
0
41
1
10
40.8713822346206
20
-0.251457236069058
30
0
41
1
10
40.9063598196275
20
-0.263039316632074
30
0
41
1
10
40.9649585333876
20
-0.286193928774281
30
0
41
1
10
41.0430166658234
20
-0.32203268252016
30
0
41
1
10
41.1361345578017
20
-0.370889097820708
30
0
41
1
10
41.2296474129486
20
-0.42498573511412
30
0
41
1
10
41.3126846219705
20
-0.475118962545366
30
0
41
1
10
41.3962449494559
20
-0.525653837523521
30
0
41
1
10
41.5271748125315
20
-0.604874303050053
30
0
41
1
10
41.6751702755212
20
-0.69324628406747
30
0
41
1
10
41.8052269236768
20
-0.767683895904696
30
0
41
1
10
41.8951291220796
20
-0.817581394069151
30
0
41
1
10
41.9728152880731
20
-0.859436846688908
30
0
41
1
10
42.0594262630188
20
-0.90399111417085
30
0
41
1
10
42.1416968367261
20
-0.94429840472543
30
0
41
1
10
42.2041137910461
20
-0.973183188399588
30
0
41
1
10
42.245118352356
20
-0.991313245490488
30
0
41
1
10
42.2590825602365
20
-0.99738081963298
30
0
41
1
10
42.2651436567851
20
-0.999996140709868
30
0
41
1
10
42.2688940515306
20
-1.00161178229874
30
0
41
1
10
42.2946779374562
20
-1.01265448602456
30
0
41
1
10
42.3407947685352
20
-1.03127887033418
30
0
41
1
10
42.3855868665417
20
-1.04738828511677
30
0
41
1
10
42.4068566872521
20
-1.0545957960986
30
0
0
SPLINE
5
1BA
100
AcDbEntity
8
1
62
256
6
ByLayer
370
18
48
1
60
0
100
AcDbSpline
70
4
71
3
72
8
73
4
40
0
40
0
40
0
40
0
40
1
40
1
40
1
40
1
41
1
10
42.4418693305301
20
-1.06335546622941
30
0
41
1
10
42.4305056576124
20
-1.05971767545654
30
0
41
1
10
42.4188326631368
20
-1.05679887273973
30
0
41
1
10
42.406856687252
20
-1.0545957960986
30
0
0
SPLINE
5
1BB
100
AcDbEntity
8
1
62
256
6
ByLayer
370
18
48
1
60
0
100
AcDbSpline
70
4
71
3
72
10
73
6
40
0
40
0
40
0
40
0
40
0.5
40
0.5
40
1
40
1
40
1
40
1
41
1
10
42.4418693305299
20
-1.0633554662293
30
0
41
1
10
42.4872619358248
20
-1.07788675394724
30
0
41
1
10
42.5325258433889
20
-1.0906432050632
30
0
41
1
10
42.6226315869612
20
-1.11223885251314
30
0
41
1
10
42.6675164259903
20
-1.12109555161158
30
0
41
1
10
42.7123157112265
20
-1.12778548515635
30
0
0
SPLINE
5
1BC
100
AcDbEntity
8
1
62
256
6
ByLayer
370
18
48
1
60
0
100
AcDbSpline
70
4
71
3
72
12
73
8
40
0
40
0
40
0
40
0
40
0.261269359220151
40
0.400060232490925
40
0.818488448301193
40
0.958573699094817
40
1
40
1
40
1
40
1
41
1
10
42.7123157112267
20
-1.12778548515638
30
0
41
1
10
42.768858844898
20
-1.13564863534916
30
0
41
1
10
42.8557337089689
20
-1.14280478900292
30
0
41
1
10
43.0323389491242
20
-1.14079725058164
30
0
41
1
10
43.1795242795432
20
-1.11850162477626
30
0
41
1
10
43.2986263200841
20
-1.08096170723545
30
0
41
1
10
43.3337464126683
20
-1.06782932497612
30
0
41
1
10
43.3417123807043
20
-1.06474047511884
30
0
0
SPLINE
5
1BD
100
AcDbEntity
8
1
62
256
6
ByLayer
370
18
48
1
60
0
100
AcDbSpline
70
4
71
3
72
12
73
8
40
0
40
0
40
0
40
0
40
0.390056175800709
40
0.390056175800709
40
0.780112353886311
40
0.780112353886311
40
1
40
1
40
1
40
1
41
1
10
43.83982377483
20
-0.494737565827535
30
0
41
1
10
43.8248352504255
20
-0.476737308023388
30
0
41
1
10
43.8098493904127
20
-0.45874211451499
30
0
41
1
10
43.7798835091652
20
-0.422762866578808
30
0
41
1
10
43.7649034867572
20
-0.404778799967175
30
0
41
1
10
43.7414837378407
20
-0.376666056151493
30
0
41
1
10
43.7330418259075
20
-0.36653321819287
30
0
41
1
10
43.724600988792
20
-0.356402426431089
30
0
0
SPLINE
5
1BE
100
AcDbEntity
8
1
62
256
6
ByLayer
370
18
48
1
60
0
100
AcDbSpline
70
4
71
3
72
27
73
23
40
0
40
0
40
0
40
0
40
0.249999999999997
40
0.249999999999997
40
0.281249999999992
40
0.281249999999992
40
0.312499999999987
40
0.374999999999997
40
0.374999999999997
40
0.500000000000018
40
0.500000000000018
40
0.562500000000029
40
0.562500000000029
40
0.625000000000039
40
0.625000000000039
40
0.750000000000035
40
0.750000000000035
40
0.875000000000031
40
0.875000000000031
40
0.937500000000015
40
0.937500000000015
40
1
40
1
40
1
40
1
41
1
10
43.724600988796
20
-0.35640242643268
30
0
41
1
10
43.6845029240682
20
-0.428106310870362
30
0
41
1
10
43.6360467674862
20
-0.490480371413923
30
0
41
1
10
43.5717270073146
20
-0.549704468253964
30
0
41
1
10
43.564429884658
20
-0.556139300481732
30
0
41
1
10
43.5496595418098
20
-0.568596613997642
30
0
41
1
10
43.5272102514925
20
-0.586694065447062
30
0
41
1
10
43.5038785782107
20
-0.603023847293315
30
0
41
1
10
43.4560374411558
20
-0.633323954225176
30
0
41
1
10
43.4225986613249
20
-0.650429565455397
30
0
41
1
10
43.3701129502134
20
-0.67142524028597
30
0
41
1
10
43.3522240131065
20
-0.677635102867129
30
0
41
1
10
43.3156333049624
20
-0.688426485360594
30
0
41
1
10
43.2968662411677
20
-0.693015553889751
30
0
41
1
10
43.2401936196
20
-0.704117545604902
30
0
41
1
10
43.2017152984491
20
-0.708070344974914
30
0
41
1
10
43.1234384528746
20
-0.709440008984728
30
0
41
1
10
43.0836333247175
20
-0.706824180499041
30
0
41
1
10
43.022901373948
20
-0.697829637642684
30
0
41
1
10
43.0024539217068
20
-0.693972031811882
30
0
41
1
10
42.9618165214963
20
-0.684705508555169
30
0
41
1
10
42.9415540439065
20
-0.679292816955183
30
0
41
1
10
42.9213467365754
20
-0.673115283142835
30
0
0
SPLINE
5
1BF
100
AcDbEntity
8
1
62
256
6
ByLayer
370
18
48
1
60
0
100
AcDbSpline
70
4
71
1
72
4
73
2
40
0
40
0
40
1
40
1
41
1
10
40.8959319034414
20
-0.088695505924818
30
0
41
1
10
41.0124488894738
20
0.255976806614342
30
0
0
SPLINE
5
1C0
100
AcDbEntity
8
1
62
256
6
ByLayer
370
18
48
1
60
0
100
AcDbSpline
70
4
71
3
72
38
73
34
40
0
40
0
40
0
40
0
40
0.0135787729569744
40
0.0308120829755367
40
0.0518023334164709
40
0.0837337363364774
40
0.115939435981307
40
0.13743157108709
40
0.158871347618902
40
0.190975392488046
40
0.254935913379413
40
0.290335608917057
40
0.304488902358266
40
0.332763497895577
40
0.357635222458475
40
0.379917354764
40
0.404475896076529
40
0.41230957413551
40
0.415954135957597
40
0.416796237915041
40
0.417633437932188
40
0.419245652861707
40
0.441522507391112
40
0.472126647510305
40
0.530234675665604
40
0.607550374326933
40
0.635031174671389
40
0.717880586784645
40
0.745617675813201
40
0.829109411959263
40
0.856966588500287
40
0.912513514644194
40
1
40
1
40
1
40
1
41
1
10
40.8959319034414
20
-0.088695505924818
30
0
41
1
10
40.910753133534
20
-0.0930865191905639
30
0
41
1
10
40.9442064994349
20
-0.104233643005074
30
0
41
1
10
40.9998768878577
20
-0.126644363724182
30
0
41
1
10
41.074650463745
20
-0.161793392984407
30
0
41
1
10
41.1645723680562
20
-0.210099570811508
30
0
41
1
10
41.2547546828125
20
-0.263747509917153
30
0
41
1
10
41.3342012590515
20
-0.313520733606367
30
0
41
1
10
41.4144281292567
20
-0.363826638952929
30
0
41
1
10
41.5411569565194
20
-0.443087825993047
30
0
41
1
10
41.6855474331578
20
-0.531950500831982
30
0
41
1
10
41.8116342314906
20
-0.607142701557166
30
0
41
1
10
41.8982968098288
20
-0.657728585745161
30
0
41
1
10
41.9734746462825
20
-0.700324130243644
30
0
41
1
10
42.0579154367211
20
-0.745892684600193
30
0
41
1
10
42.1380442196383
20
-0.787317864187685
30
0
41
1
10
42.1989854312668
20
-0.817139304527188
30
0
41
1
10
42.2389112727298
20
-0.83597595960066
30
0
41
1
10
42.2525621420213
20
-0.84226793016586
30
0
41
1
10
42.2584466088742
20
-0.84498462311393
30
0
41
1
10
42.2620692400849
20
-0.846682102647719
30
0
41
1
10
42.2904388656067
20
-0.857924296108763
30
0
41
1
10
42.3525667451521
20
-0.881664503725602
30
0
41
1
10
42.4781495368077
20
-0.924074178774958
30
0
41
1
10
42.6637901527166
20
-0.972023801325804
30
0
41
1
10
42.8406683705394
20
-0.993748158532213
30
0
41
1
10
43.0369682472788
20
-0.99471601916099
30
0
41
1
10
43.1746887761571
20
-0.976764259431064
30
0
41
1
10
43.355051172317
20
-0.925879464779712
30
0
41
1
10
43.4738093776576
20
-0.871335151807529
30
0
41
1
10
43.6012104982281
20
-0.784976792463112
30
0
41
1
10
43.7194064690449
20
-0.680554872538636
30
0
41
1
10
43.7992718315778
20
-0.570590207175229
30
0
41
1
10
43.8398237717737
20
-0.494737566428114
30
0
0
SPLINE
5
1C1
100
AcDbEntity
8
1
62
256
6
ByLayer
370
18
48
1
60
0
100
AcDbSpline
70
4
71
3
72
8
73
4
40
0
40
0
40
0
40
0
40
1
40
1
40
1
40
1
41
1
10
42.9687755559357
20
-0.566290390722145
30
0
41
1
10
42.9542424482855
20
-0.602987723239181
30
0
41
1
10
42.9385312109742
20
-0.638679945245087
30
0
41
1
10
42.9213467365617
20
-0.673115283131153
30
0
0
SPLINE
5
1C2
100
AcDbEntity
8
1
62
256
6
ByLayer
370
18
48
1
60
0
100
AcDbSpline
70
4
71
3
72
8
73
4
40
0
40
0
40
0
40
0
40
1
40
1
40
1
40
1
41
1
10
40.9228506901381
20
0.332835625142792
30
0
41
1
10
40.8995292517342
20
0.339126869000296
30
0
41
1
10
40.8762452613002
20
0.345488456170159
30
0
41
1
10
40.8529999999999
20
0.351925212590572
30
0
0
SPLINE
5
1C3
100
AcDbEntity
8
1
62
256
6
ByLayer
370
18
48
1
60
0
100
AcDbSpline
70
4
71
3
72
8
73
4
40
0
40
0
40
0
40
0
40
1
40
1
40
1
40
1
41
1
10
40.9228506901381
20
0.332835625142792
30
0
41
1
10
40.9531670820456
20
0.307854961653021
30
0
41
1
10
40.9830312777351
20
0.282232701161775
30
0
41
1
10
41.0124488894738
20
0.255976806614342
30
0
0
SPLINE
5
1C4
100
AcDbEntity
8
1
62
256
6
ByLayer
370
18
48
1
60
0
100
AcDbSpline
70
4
71
3
72
52
73
48
40
0
40
0
40
0
40
0
40
0.031250000000004
40
0.031250000000004
40
0.062500000000008
40
0.062500000000008
40
0.125
40
0.125
40
0.187499999999992
40
0.187499999999992
40
0.218749999999979
40
0.218749999999979
40
0.249999999999967
40
0.249999999999967
40
0.312499999999942
40
0.312499999999942
40
0.320312499999941
40
0.320312499999941
40
0.32812499999994
40
0.32812499999994
40
0.343749999999938
40
0.343749999999938
40
0.374999999999934
40
0.374999999999934
40
0.437499999999943
40
0.437499999999943
40
0.468749999999939
40
0.468749999999939
40
0.499999999999935
40
0.499999999999935
40
0.624999999999951
40
0.624999999999951
40
0.687499999999959
40
0.687499999999959
40
0.718749999999964
40
0.718749999999964
40
0.749999999999968
40
0.749999999999968
40
0.812499999999976
40
0.812499999999976
40
0.874999999999984
40
0.874999999999984
40
0.937499999999992
40
0.937499999999992
40
0.968749999999996
40
0.968749999999996
40
1
40
1
40
1
40
1
41
1
10
42.9213467365751
20
-0.673115283134706
30
0
41
1
10
42.9006895659424
20
-0.67678608261312
30
0
41
1
10
42.8798039693058
20
-0.679681063147683
30
0
41
1
10
42.8375594697581
20
-0.683946521136107
30
0
41
1
10
42.8161449852761
20
-0.685317502715577
30
0
41
1
10
42.751546853078
20
-0.687162627989125
30
0
41
1
10
42.708379671314
20
-0.685384500132585
30
0
41
1
10
42.6216961644112
20
-0.676575493546892
30
0
41
1
10
42.5781819064829
20
-0.669551104490722
30
0
41
1
10
42.5125259942769
20
-0.655402328368297
30
0
41
1
10
42.490512311707
20
-0.650063640428357
30
0
41
1
10
42.4467192202511
20
-0.638318199661427
30
0
41
1
10
42.4249383527596
20
-0.63191309205996
30
0
41
1
10
42.3598866578488
20
-0.61124980570807
30
0
41
1
10
42.3168982178891
20
-0.595591148262656
30
0
41
1
10
42.2688464950899
20
-0.576075394198227
30
0
41
1
10
42.2635118302349
20
-0.573879985460934
30
0
41
1
10
42.2528509948871
20
-0.569435557890358
30
0
41
1
10
42.2475357553021
20
-0.567116618076625
30
0
41
1
10
42.2314908938539
20
-0.56079073689861
30
0
41
1
10
42.2208233849641
20
-0.556392997133827
30
0
41
1
10
42.188841612922
20
-0.543063292881612
30
0
41
1
10
42.1675824439173
20
-0.533774833648522
30
0
41
1
10
42.1039463075826
20
-0.504840676153322
30
0
41
1
10
42.0617081637324
20
-0.484146115584849
30
0
41
1
10
41.9985168744959
20
-0.45114860290542
30
0
41
1
10
41.9774479743484
20
-0.439816207614911
30
0
41
1
10
41.9356852305055
20
-0.416757783835635
30
0
41
1
10
41.9149552291224
20
-0.405010371397225
30
0
41
1
10
41.8120130503185
20
-0.345260729071271
30
0
41
1
10
41.7319888665933
20
-0.294127531537896
30
0
41
1
10
41.6143850752377
20
-0.214099168823282
30
0
41
1
10
41.5755850920877
20
-0.186873987816511
30
0
41
1
10
41.5179014593696
20
-0.145351528913579
30
0
41
1
10
41.49876518063
20
-0.131399186314042
30
0
41
1
10
41.4609459663083
20
-0.103528297875783
30
0
41
1
10
41.4422218829766
20
-0.089581680793259
30
0
41
1
10
41.3865677221207
20
-0.047744340922435
30
0
41
1
10
41.3501502291926
20
-0.019858291547564
30
0
41
1
10
41.2787942164504
20
0.0358622319745052
30
0
41
1
10
41.2438464806539
20
0.0636918317335642
30
0
41
1
10
41.1753222482296
20
0.119156655353891
30
0
41
1
10
41.1417381674687
20
0.146788625830453
30
0
41
1
10
41.0923559104309
20
0.188008936766522
30
0
41
1
10
41.0760385054683
20
0.201728889705038
30
0
41
1
10
41.0438781511786
20
0.228996150508834
30
0
41
1
10
41.0280368988225
20
0.242534475876227
30
0
41
1
10
41.0124488894738
20
0.255976806614342
30
0
0
SPLINE
5
1C5
100
AcDbEntity
8
1
62
256
6
ByLayer
370
18
48
1
60
0
100
AcDbSpline
70
4
71
3
72
8
73
4
40
0
40
0
40
0
40
0
40
1
40
1
40
1
40
1
41
1
10
43.9922773528298
20
-0.0430719671001896
30
0
41
1
10
43.9920769714677
20
-0.041911571899135
30
0
41
1
10
43.9918763887869
20
-0.0407512032774093
30
0
41
1
10
43.9916756015694
20
-0.0395908617438181
30
0
0
SPLINE
5
1C6
100
AcDbEntity
8
1
62
256
6
ByLayer
370
18
48
1
60
0
100
AcDbSpline
70
4
71
3
72
8
73
4
40
0
40
0
40
0
40
0
40
1
40
1
40
1
40
1
41
1
10
43.9916407886129
20
0.0002238771941165
30
0
41
1
10
43.9942823047087
20
-0.0130416030191896
30
0
41
1
10
43.9968833007315
20
-0.0263133029329197
30
0
41
1
10
43.9994442569353
20
-0.0395908617441023
30
0
0
SPLINE
5
1C7
100
AcDbEntity
8
1
62
256
6
ByLayer
370
18
48
1
60
0
100
AcDbSpline
70
4
71
3
72
8
73
4
40
0
40
0
40
0
40
0
40
1
40
1
40
1
40
1
41
1
10
43.9921645719138
20
0.0427996872960819
30
0
41
1
10
43.992001754871
20
0.0418664406734024
30
0
41
1
10
43.9918388045319
20
0.0409332114846848
30
0
41
1
10
43.9916757191739
20
0.0399999999998784
30
0
0
SPLINE
5
1C8
100
AcDbEntity
8
1
62
256
6
ByLayer
370
18
48
1
60
0
100
AcDbSpline
70
4
71
3
72
8
73
4
40
0
40
0
40
0
40
0
40
1
40
1
40
1
40
1
41
1
10
43.9994615641636
20
0.0400000000000205
30
0
41
1
10
43.999465984313
20
0.0397652458307505
30
0
41
1
10
43.9994703897689
20
0.0395304913334087
30
0
41
1
10
43.9994747805313
20
0.0392957365048403
30
0
0
SPLINE
5
1C9
100
AcDbEntity
8
1
62
256
6
ByLayer
370
18
48
1
60
0
100
AcDbSpline
70
4
71
3
72
8
73
4
40
0
40
0
40
0
40
0
40
1
40
1
40
1
40
1
41
1
10
41.2670404971606
20
-1.79553611604715
30
0
41
1
10
41.2849879237784
20
-1.80480586671749
30
0
41
1
10
41.3029392732503
20
-1.81375456803497
30
0
41
1
10
41.3208997277785
20
-1.82238392826272
30
0
0
SPLINE
5
1CA
100
AcDbEntity
8
1
62
256
6
ByLayer
370
18
48
1
60
0
100
AcDbSpline
70
4
71
3
72
10
73
6
40
0
40
0
40
0
40
0
40
0.118752857919462
40
0.118752857919462
40
1
40
1
40
1
40
1
41
1
10
42.3139320018904
20
-1.97298907381926
30
0
41
1
10
42.3171107815797
20
-1.97241755895962
30
0
41
1
10
42.3202900582786
20
-1.97183559877857
30
0
41
1
10
42.3470667179312
20
-1.96684684382069
30
0
41
1
10
42.3706830283232
20
-1.9618642886449
30
0
41
1
10
42.3941566170773
20
-1.95634319458932
30
0
0
SPLINE
5
1CB
100
AcDbEntity
8
1
62
256
6
ByLayer
370
18
48
1
60
0
100
AcDbSpline
70
4
71
3
72
10
73
6
40
0
40
0
40
0
40
0
40
0.5
40
0.5
40
1
40
1
40
1
40
1
41
1
10
40.6965598837066
20
-1.57703773157877
30
0
41
1
10
40.6896075514621
20
-1.57671968629396
30
0
41
1
10
40.682439044239
20
-1.57666476976578
30
0
41
1
10
40.6678332515426
20
-1.57714300083143
30
0
41
1
10
40.6603683728939
20
-1.57767407679722
30
0
41
1
10
40.6527178244278
20
-1.57853980809349
30
0
0
SPLINE
5
1CC
100
AcDbEntity
8
1
62
256
6
ByLayer
370
18
48
1
60
0
100
AcDbSpline
70
4
71
3
72
27
73
23
40
0
40
0
40
0
40
0
40
0.0893973894167046
40
0.181434591417452
40
0.22792768168304
40
0.297820884520471
40
0.321068419987807
40
0.367498785214698
40
0.513924144488822
40
0.62896324833011
40
0.705600283581662
40
0.755509697876296
40
0.798957000287302
40
0.884829957667303
40
0.901800049182056
40
0.903937448881477
40
0.90605186654802
40
0.907221288561279
40
0.909091305453847
40
0.938255086028648
40
0.999187539609261
40
1
40
1
40
1
40
1
41
1
10
40.8558717330286
20
-1.53632326004072
30
0
41
1
10
40.9029890041842
20
-1.57038972023375
30
0
41
1
10
40.9978241177741
20
-1.63673511889087
30
0
41
1
10
41.1128661387928
20
-1.70963612724432
30
0
41
1
10
41.2179479258456
20
-1.77007657021485
30
0
41
1
10
41.2888399281065
20
-1.8071242131181
30
0
41
1
10
41.3605193898466
20
-1.84112435043144
30
0
41
1
10
41.4714787417104
20
-1.8897221153166
30
0
41
1
10
41.630656063665
20
-1.94390860438793
30
0
41
1
10
41.8090543395824
20
-1.98057344744834
30
0
41
1
10
41.9381805306721
20
-1.99400533415948
30
0
41
1
10
42.0282816275947
20
-1.99731990535091
30
0
41
1
10
42.1232354936644
20
-1.9961490521197
30
0
41
1
10
42.2004236893721
20
-1.98985727735553
30
0
41
1
10
42.2554133280276
20
-1.98237873362279
30
0
41
1
10
42.2665168979752
20
-1.98075327716799
30
0
41
1
10
42.2694171967453
20
-1.98032173770412
30
0
41
1
10
42.2719135950256
20
-1.97994833637281
30
0
41
1
10
42.2874067234414
20
-1.97759221636883
30
0
41
1
10
42.3318563316047
20
-1.9701953164641
30
0
41
1
10
42.3761999651271
20
-1.96086197549425
30
0
41
1
10
42.4064852954722
20
-1.95358660679423
30
0
41
1
10
42.4068838289752
20
-1.9534907128814
30
0
0
SPLINE
5
1CD
100
AcDbEntity
8
1
62
256
6
ByLayer
370
18
48
1
60
0
100
AcDbSpline
70
4
71
3
72
10
73
6
40
0
40
0
40
0
40
0
40
0.5
40
0.5
40
1
40
1
40
1
40
1
41
1
10
42.4418687719373
20
-1.94428017021505
30
0
41
1
10
42.4872269988152
20
-1.93239219089389
30
0
41
1
10
42.5324444530231
20
-1.91855213055652
30
0
41
1
10
42.6224706985504
20
-1.88697345099672
30
0
41
1
10
42.6673173199463
20
-1.86922742018044
30
0
41
1
10
42.7120797404272
20
-1.84946337513588
30
0
0
SPLINE
5
1CE
100
AcDbEntity
8
1
62
256
6
ByLayer
370
18
48
1
60
0
100
AcDbSpline
70
4
71
3
72
8
73
4
40
0
40
0
40
0
40
0
40
1
40
1
40
1
40
1
41
1
10
42.4418687856396
20
-1.94428016134157
30
0
41
1
10
42.4305139425259
20
-1.94725616265586
30
0
41
1
10
42.4188500605274
20
-1.95032286180256
30
0
41
1
10
42.4068838289752
20
-1.9534907128814
30
0
0
SPLINE
5
1CF
100
AcDbEntity
8
1
62
256
6
ByLayer
370
18
48
1
60
0
100
AcDbSpline
70
4
71
3
72
8
73
4
40
0
40
0
40
0
40
0
40
1
40
1
40
1
40
1
41
1
10
42.4068838289752
20
-1.9534907128814
30
0
41
1
10
42.4026781408017
20
-1.95445621595451
30
0
41
1
10
42.3984363213521
20
-1.95540684784012
30
0
41
1
10
42.3941566170774
20
-1.95634319458932
30
0
0
SPLINE
5
1D0
100
AcDbEntity
8
1
62
256
6
ByLayer
370
18
48
1
60
0
100
AcDbSpline
70
4
71
3
72
18
73
14
40
0
40
0
40
0
40
0
40
0.0817732949845525
40
0.0817732949845525
40
0.183798484430679
40
0.183798484430679
40
0.591899242215317
40
0.591899242215317
40
0.795949621107659
40
0.795949621107659
40
0.897974810553829
40
0.897974810553829
40
1
40
1
40
1
40
1
41
1
10
41.6996706672653
20
1.95163525595814
30
0
41
1
10
41.7185785431098
20
1.95616062002372
30
0
41
1
10
41.7375355278928
20
1.96034751587627
30
0
41
1
10
41.7802696932989
20
1.96898508183082
30
0
41
1
10
41.8041312026104
20
1.97325169648801
30
0
41
1
10
41.9231344077964
20
1.99172124959472
30
0
41
1
10
42.0174018074765
20
1.99749645864043
30
0
41
1
10
42.1586137495981
20
1.99287663261336
30
0
41
1
10
42.2056512023213
20
1.98911298088086
30
0
41
1
10
42.2763052404341
20
1.98006494155015
30
0
41
1
10
42.299872928867
20
1.97648126508201
30
0
41
1
10
42.3470664498246
20
1.96815867649309
30
0
41
1
10
42.3706829096978
20
1.96340988225515
30
0
41
1
10
42.3941566170777
20
1.95811921654882
30
0
0
SPLINE
5
1D1
100
AcDbEntity
8
1
62
256
6
ByLayer
370
18
48
1
60
0
100
AcDbSpline
70
4
71
3
72
8
73
4
40
0
40
0
40
0
40
0
40
1
40
1
40
1
40
1
41
1
10
42.406883828976
20
1.95533885144343
30
0
41
1
10
42.4026781408024
20
1.95627840926517
30
0
41
1
10
42.3984363213524
20
1.95720496656349
30
0
41
1
10
42.3941566170778
20
1.9581192165488
30
0
0
SPLINE
5
1D2
100
AcDbEntity
8
1
62
256
6
ByLayer
370
18
48
1
60
0
100
AcDbSpline
70
4
71
3
72
15
73
11
40
0
40
0
40
0
40
0
40
0.0921858897906406
40
0.111945182846414
40
0.131492017407685
40
0.142302794761165
40
0.159590254757513
40
0.429196209670088
40
0.992489171309251
40
1
40
1
40
1
40
1
41
1
10
42.2475098852306
20
1.98374303831551
30
0
41
1
10
42.2527345385278
20
1.98309316789221
30
0
41
1
10
42.2590748593882
20
1.98227047576464
30
0
41
1
10
42.2665168979733
20
1.98125572187456
30
0
41
1
10
42.2694171967434
20
1.98085327012802
30
0
41
1
10
42.2719135950237
20
1.98050490837619
30
0
41
1
10
42.2874067234394
20
1.97830380367702
30
0
41
1
10
42.3318563316024
20
1.97134531723938
30
0
41
1
10
42.3761999651259
20
1.96242995288736
30
0
41
1
10
42.4064852954717
20
1.95543110803891
30
0
41
1
10
42.4068838289756
20
1.95533885144368
30
0
0
SPLINE
5
1D3
100
AcDbEntity
8
1
62
256
6
ByLayer
370
18
48
1
60
0
100
AcDbSpline
70
4
71
3
72
8
73
4
40
0
40
0
40
0
40
0
40
1
40
1
40
1
40
1
41
1
10
42.4418687850727
20
1.94639351502508
30
0
41
1
10
42.4305139419514
20
1.94926773177721
30
0
41
1
10
42.4188500605274
20
1.95224607866734
30
0
41
1
10
42.4068838289756
20
1.95533885144368
30
0
0
SPLINE
5
1D4
100
AcDbEntity
8
1
62
256
6
ByLayer
370
18
48
1
60
0
100
AcDbSpline
70
4
71
3
72
10
73
6
40
0
40
0
40
0
40
0
40
0.5
40
0.5
40
1
40
1
40
1
40
1
41
1
10
42.4418687719375
20
1.94639352341102
30
0
41
1
10
42.487226998815
20
1.93491213419642
30
0
41
1
10
42.5324444530226
20
1.92146236534728
30
0
41
1
10
42.6224706985492
20
1.8906246431572
30
0
41
1
10
42.6673173199447
20
1.87322966988552
30
0
41
1
10
42.7120797404251
20
1.85379337124218
30
0
0
SPLINE
5
1D5
100
AcDbEntity
8
1
62
256
6
ByLayer
370
18
48
1
60
0
100
AcDbSpline
70
4
71
3
72
8
73
4
40
0
40
0
40
0
40
0
40
1
40
1
40
1
40
1
41
1
10
43.9994747804443
20
0.0392957407240715
30
0
41
1
10
43.9970326742132
20
0.026516896811188
30
0
41
1
10
43.9945481454454
20
0.0137443304057001
30
0
41
1
10
43.9920205547218
20
0.0009781439125618
30
0
0
LINE
5
7F
100
AcDbEntity
8
80
62
256
6
ByLayer
370
18
48
1
60
0
100
AcDbLine
10
0
20
0
30
0
11
-3
21
0
31
0
39
0
210
0
220
0
230
1
0
LINE
5
80
100
AcDbEntity
8
81
62
256
6
ByLayer
370
18
48
1
60
0
100
AcDbLine
10
44
20
0
30
0
11
47
21
0
31
0
39
0
210
0
220
0
230
1
0
LINE
5
81
100
AcDbEntity
8
4
62
256
6
ByLayer
370
18
48
0.05
60
0
100
AcDbLine
10
0
20
0
30
0
11
47
21
0
31
0
39
0
210
0
220
0
230
1
0
LINE
5
83
100
AcDbEntity
8
SK4
62
256
6
ByLayer
370
18
48
0.05
60
0
100
AcDbLine
10
-39
20
0
30
0
11
47
21
0
31
0
39
0
210
0
220
0
230
1
0
LINE
5
85
100
AcDbEntity
8
81
62
256
6
ByLayer
370
18
48
1
60
0
100
AcDbLine
10
-36
20
0
30
0
11
-37.9865
21
0
31
0
39
0
210
0
220
0
230
1
0
LINE
5
86
100
AcDbEntity
8
81
62
256
6
ByLayer
370
13
48
1
60
0
100
AcDbLine
10
-36
20
-1.638411
30
0
11
-36
21
-1.568921
31
0
39
0
210
0
220
0
230
1
0
LINE
5
87
100
AcDbEntity
8
81
62
256
6
ByLayer
370
18
48
1
60
0
100
AcDbLine
10
-36
20
1.621258
30
0
11
-36
21
1.621904
31
0
39
0
210
0
220
0
230
1
0
LINE
5
88
100
AcDbEntity
8
81
62
256
6
ByLayer
370
18
48
1
60
0
100
AcDbLine
10
-39.277019
20
0
30
0
11
-39.577019
21
0
31
0
39
0
210
0
220
0
230
1
0
LINE
5
89
100
AcDbEntity
8
81
62
256
6
ByLayer
370
18
48
1
60
0
100
AcDbLine
10
-37.9865
20
0
30
0
11
-39.1335
21
0
31
0
39
0
210
0
220
0
230
1
0
LINE
5
8A
100
AcDbEntity
8
81
62
256
6
ByLayer
370
18
48
1
60
0
100
AcDbLine
10
40.709481
20
0
30
0
11
40.852237
21
0
31
0
39
0
210
0
220
0
230
1
0
LINE
5
8B
100
AcDbEntity
8
81
62
256
6
ByLayer
370
13
48
1
60
0
100
AcDbLine
10
-36
20
-1.9865
30
0
11
-36
21
-1.621904
31
0
39
0
210
0
220
0
230
1
0
LINE
5
8C
100
AcDbEntity
8
81
62
256
6
ByLayer
370
18
48
1
60
0
100
AcDbLine
10
-36
20
-1.9865
30
0
11
-36
21
-3.1335
31
0
39
0
210
0
220
0
230
1
0
LINE
5
8D
100
AcDbEntity
8
81
62
256
6
ByLayer
370
18
48
1
60
0
100
AcDbLine
10
-40.178121
20
0
30
0
11
-39.577019
21
0
31
0
39
0
210
0
220
0
230
1
0
LINE
5
8E
100
AcDbEntity
8
81
62
256
6
ByLayer
370
18
48
1
60
0
100
AcDbLine
10
-39.134263
20
0
30
0
11
-39.1335
21
0
31
0
39
0
210
0
220
0
230
1
0
LINE
5
8F
100
AcDbEntity
8
81
62
256
6
ByLayer
370
18
48
1
60
0
100
AcDbLine
10
-36
20
-3.134263
30
0
11
-36
21
-3.1335
31
0
39
0
210
0
220
0
230
1
0
LINE
5
90
100
AcDbEntity
8
81
62
256
6
ByLayer
370
18
48
1
60
0
100
AcDbLine
10
-36
20
0
30
0
11
-36
21
-1.9865
31
0
39
0
210
0
220
0
230
1
0
LINE
5
91
100
AcDbEntity
8
81
62
256
6
ByLayer
370
18
48
1
60
0
100
AcDbLine
10
-36
20
1.9865
30
0
11
-36
21
1.621904
31
0
39
0
210
0
220
0
230
1
0
LINE
5
92
100
AcDbEntity
8
81
62
256
6
ByLayer
370
18
48
1
60
0
100
AcDbLine
10
-36
20
-3.277019
30
0
11
-36
21
-3.577019
31
0
39
0
210
0
220
0
230
1
0
LINE
5
93
100
AcDbEntity
8
81
62
256
6
ByLayer
370
18
48
1
60
0
100
AcDbLine
10
-39.277019
20
0
30
0
11
-39.134263
21
0
31
0
39
0
210
0
220
0
230
1
0
LINE
5
94
100
AcDbEntity
8
81
62
256
6
ByLayer
370
18
48
1
60
0
100
AcDbLine
10
-36
20
-4.178121
30
0
11
-36
21
-3.577019
31
0
39
0
210
0
220
0
230
1
0
LINE
5
95
100
AcDbEntity
8
81
62
256
6
ByLayer
370
13
48
1
60
0
100
AcDbLine
10
-36
20
0
30
0
11
-36
21
-1.9865
31
0
39
0
210
0
220
0
230
1
0
LINE
5
96
100
AcDbEntity
8
81
62
256
6
ByLayer
370
18
48
1
60
0
100
AcDbLine
10
42
20
0
30
0
11
40.853
21
0
31
0
39
0
210
0
220
0
230
1
0
LINE
5
97
100
AcDbEntity
8
81
62
256
6
ByLayer
370
18
48
1
60
0
100
AcDbLine
10
-36
20
1.638411
30
0
11
-36
21
1.568921
31
0
39
0
210
0
220
0
230
1
0
LINE
5
98
100
AcDbEntity
8
81
62
256
6
ByLayer
370
18
48
1
60
0
100
AcDbLine
10
-36
20
-3.277019
30
0
11
-36
21
-3.134263
31
0
39
0
210
0
220
0
230
1
0
LINE
5
99
100
AcDbEntity
8
81
62
256
6
ByLayer
370
18
48
1
60
0
100
AcDbLine
10
-36
20
0
30
0
11
-37.9865
21
0
31
0
39
0
210
0
220
0
230
1
0
LINE
5
9A
100
AcDbEntity
8
81
62
256
6
ByLayer
370
18
48
1
60
0
100
AcDbLine
10
-36
20
0
30
0
11
-36
21
1.9865
31
0
39
0
210
0
220
0
230
1
0
LINE
5
9B
100
AcDbEntity
8
81
62
256
6
ByLayer
370
18
48
1
60
0
100
AcDbLine
10
-36
20
1.568921
30
0
11
-36
21
1.621258
31
0
39
0
210
0
220
0
230
1
0
LINE
5
9C
100
AcDbEntity
8
81
62
256
6
ByLayer
370
13
48
1
60
0
100
AcDbLine
10
-36
20
-1.621258
30
0
11
-36
21
-1.621904
31
0
39
0
210
0
220
0
230
1
0
LINE
5
9D
100
AcDbEntity
8
81
62
256
6
ByLayer
370
13
48
1
60
0
100
AcDbLine
10
-36
20
-1.568921
30
0
11
-36
21
-1.621258
31
0
39
0
210
0
220
0
230
1
0
LINE
5
9E
100
AcDbEntity
8
81
62
256
6
ByLayer
370
18
48
1
60
0
100
AcDbLine
10
-37.9865
20
0
30
0
11
-39.1335
21
0
31
0
39
0
210
0
220
0
230
1
0
LINE
5
9F
100
AcDbEntity
8
81
62
256
6
ByLayer
370
18
48
1
60
0
100
AcDbLine
10
-39.277019
20
0
30
0
11
-39.134263
21
0
31
0
39
0
210
0
220
0
230
1
0
LINE
5
A0
100
AcDbEntity
8
81
62
256
6
ByLayer
370
18
48
1
60
0
100
AcDbLine
10
-39.134263
20
0
30
0
11
-39.1335
21
0
31
0
39
0
210
0
220
0
230
1
0
LINE
5
A1
100
AcDbEntity
8
81
62
256
6
ByLayer
370
18
48
1
60
0
100
AcDbLine
10
40.709481
20
0
30
0
11
40.409481
21
0
31
0
39
0
210
0
220
0
230
1
0
LINE
5
A2
100
AcDbEntity
8
81
62
256
6
ByLayer
370
18
48
1
60
0
100
AcDbLine
10
43.9865
20
0
30
0
11
42
21
0
31
0
39
0
210
0
220
0
230
1
0
LINE
5
A3
100
AcDbEntity
8
81
62
256
6
ByLayer
370
18
48
1
60
0
100
AcDbLine
10
-40.178121
20
0
30
0
11
-39.577019
21
0
31
0
39
0
210
0
220
0
230
1
0
LINE
5
A4
100
AcDbEntity
8
81
62
256
6
ByLayer
370
18
48
1
60
0
100
AcDbLine
10
-39.277019
20
0
30
0
11
-39.577019
21
0
31
0
39
0
210
0
220
0
230
1
0
LINE
5
A5
100
AcDbEntity
8
81
62
256
6
ByLayer
370
18
48
1
60
0
100
AcDbLine
10
40.852237
20
0
30
0
11
40.853
21
0
31
0
39
0
210
0
220
0
230
1
0
LINE
5
A6
100
AcDbEntity
8
81
62
256
6
ByLayer
370
18
48
1
60
0
100
AcDbLine
10
39.808379
20
0
30
0
11
40.409481
21
0
31
0
39
0
210
0
220
0
230
1
0
LINE
5
A7
100
AcDbEntity
8
1
62
256
6
ByLayer
370
18
48
1
60
0
100
AcDbLine
10
43.98377
20
-0.045283
30
0
11
43.984223
21
-0.042849
31
0
39
0
210
0
220
0
230
1
0
LINE
5
A8
100
AcDbEntity
8
1
62
256
6
ByLayer
370
18
48
1
60
0
100
AcDbLine
10
43.991951
20
-0.001363
30
0
11
43.992183
21
-0.00012
31
0
39
0
210
0
220
0
230
1
0
LINE
5
A9
100
AcDbEntity
8
1
62
256
6
ByLayer
370
18
48
1
60
0
100
AcDbLine
10
19.930152
20
3
30
0
11
0
21
3
31
0
39
0
210
0
220
0
230
1
0
LINE
5
AA
100
AcDbEntity
8
1
62
256
6
ByLayer
370
18
48
1
60
0
100
AcDbLine
10
0
20
-3
30
0
11
19.930152
21
-3
31
0
39
0
210
0
220
0
230
1
0
LINE
5
AB
100
AcDbEntity
8
1
62
256
6
ByLayer
370
18
48
1
60
0
100
AcDbLine
10
39.684598
20
1.6385
30
0
11
29.997914
21
1.6385
31
0
39
0
210
0
220
0
230
1
0
LINE
5
AC
100
AcDbEntity
8
1
62
256
6
ByLayer
370
18
48
1
60
0
100
AcDbLine
10
29.997914
20
-1.6385
30
0
11
39.7337
21
-1.6385
31
0
39
0
210
0
220
0
230
1
0
LINE
5
AD
100
AcDbEntity
8
1
62
256
6
ByLayer
370
18
48
1
60
0
100
AcDbLine
10
29.863009
20
1.647642
30
0
11
19.930152
21
3
31
0
39
0
210
0
220
0
230
1
0
LINE
5
AE
100
AcDbEntity
8
1
62
256
6
ByLayer
370
18
48
1
60
0
100
AcDbLine
10
19.930152
20
-3
30
0
11
29.863009
21
-1.647642
31
0
39
0
210
0
220
0
230
1
0
LINE
5
AF
100
AcDbEntity
8
SK1
62
256
6
ByLayer
370
18
48
1
60
0
100
AcDbLine
10
0
20
3
30
0
11
-35.6
21
3
31
0
39
0
210
0
220
0
230
1
0
LINE
5
B1
100
AcDbEntity
8
SK1
62
256
6
ByLayer
370
18
48
1
60
0
100
AcDbLine
10
-35.6
20
-3
30
0
11
0
21
-3
31
0
39
0
210
0
220
0
230
1
0
LINE
5
B2
100
AcDbEntity
8
SK1
62
256
6
ByLayer
370
18
48
1
60
0
100
AcDbLine
10
-36
20
-2.6
30
0
11
-35.6
21
-3
31
0
39
0
210
0
220
0
230
1
0
LINE
5
B3
100
AcDbEntity
8
SK1
62
256
6
ByLayer
370
18
48
1
60
0
100
AcDbLine
10
-35.6
20
3
30
0
11
-36
21
2.6
31
0
39
0
210
0
220
0
230
1
0
LINE
5
B4
100
AcDbEntity
8
1
62
256
6
ByLayer
370
18
48
1
60
0
100
AcDbLine
10
43.696471
20
-0.795239
30
0
11
43.741435
21
-0.795384
31
0
39
0
210
0
220
0
230
1
0
LINE
5
B5
100
AcDbEntity
8
1
62
256
6
ByLayer
370
18
48
1
60
0
100
AcDbLine
10
0
20
-3
30
0
11
0
21
3
31
0
39
0
210
0
220
0
230
1
0
LINE
5
B6
100
AcDbEntity
8
1
62
256
6
ByLayer
370
18
48
1
60
0
100
AcDbLine
10
43.999462
20
0.04
30
0
11
43.991676
21
0.04
31
0
39
0
210
0
220
0
230
1
0
LINE
5
B7
100
AcDbEntity
8
1
62
256
6
ByLayer
370
18
48
1
60
0
100
AcDbLine
10
43.920357
20
0.483409
30
0
11
43.865291
21
0.403361
31
0
39
0
210
0
220
0
230
1
0
LINE
5
B8
100
AcDbEntity
8
1
62
256
6
ByLayer
370
18
48
1
60
0
100
AcDbLine
10
43.983911
20
-0.03882
30
0
11
43.99822
21
-0.038726
31
0
39
0
210
0
220
0
230
1
0
LINE
5
B9
100
AcDbEntity
8
1
62
256
6
ByLayer
370
18
48
1
60
0
100
AcDbLine
10
40.746779
20
-1.465396
30
0
11
40.751101
21
-1.456507
31
0
39
0
210
0
220
0
230
1
0
LINE
5
BA
100
AcDbEntity
8
1
62
256
6
ByLayer
370
18
48
1
60
0
100
AcDbLine
10
40.855872
20
-1.536323
30
0
11
40.751101
21
-1.456507
31
0
39
0
210
0
220
0
230
1
0
LINE
5
BB
100
AcDbEntity
8
1
62
256
6
ByLayer
370
18
48
1
60
0
100
AcDbLine
10
43.872624
20
-0.511619
30
0
11
43.829841
21
-0.43215
31
0
39
0
210
0
220
0
230
1
0
LINE
5
BC
100
AcDbEntity
8
1
62
256
6
ByLayer
370
18
48
1
60
0
100
AcDbLine
10
43.833269
20
-0.391041
30
0
11
43.897643
21
-0.479891
31
0
39
0
210
0
220
0
230
1
0
LINE
5
BD
100
AcDbEntity
8
1
62
256
6
ByLayer
370
18
48
1
60
0
100
AcDbLine
10
40.751101
20
-1.456507
30
0
11
40.791176
21
-1.390045
31
0
39
0
210
0
220
0
230
1
0
LINE
5
BE
100
AcDbEntity
8
1
62
256
6
ByLayer
370
18
48
1
60
0
100
AcDbLine
10
40.791159
20
1.306209
30
0
11
40.922851
21
1.491191
31
0
39
0
210
0
220
0
230
1
0
LINE
5
BF
100
AcDbEntity
8
1
62
256
6
ByLayer
370
18
48
1
60
0
100
AcDbLine
10
40.895947
20
-1.469861
30
0
11
40.791176
21
-1.390045
31
0
39
0
210
0
220
0
230
1
0
LINE
5
C0
100
AcDbEntity
8
1
62
256
6
ByLayer
370
18
48
1
60
0
100
AcDbLine
10
40.895932
20
1.352773
30
0
11
40.791159
21
1.306209
31
0
39
0
210
0
220
0
230
1
0
LINE
5
C1
100
AcDbEntity
8
1
62
256
6
ByLayer
370
18
48
1
60
0
100
AcDbLine
10
40.751099
20
1.214732
30
0
11
40.791159
21
1.306209
31
0
39
0
210
0
220
0
230
1
0
LINE
5
C2
100
AcDbEntity
8
1
62
256
6
ByLayer
370
18
48
1
60
0
100
AcDbLine
10
40.855872
20
1.261296
30
0
11
40.751099
21
1.214732
31
0
39
0
210
0
220
0
230
1
0
LINE
5
C3
100
AcDbEntity
8
1
62
256
6
ByLayer
370
18
48
1
60
0
100
AcDbLine
10
40.746805
20
1.190368
30
0
11
40.751099
21
1.214732
31
0
39
0
210
0
220
0
230
1
0
LINE
5
C4
100
AcDbEntity
8
1
62
256
6
ByLayer
370
18
48
1
60
0
100
AcDbLine
10
40.791176
20
-1.390045
30
0
11
40.922846
21
-1.185286
31
0
39
0
210
0
220
0
230
1
0
LINE
5
C5
100
AcDbEntity
8
1
62
256
6
ByLayer
370
18
48
1
60
0
100
AcDbLine
10
40.853
20
0.614479
30
0
11
40.853
21
0.670457
31
0
39
0
210
0
220
0
230
1
0
LINE
5
C6
100
AcDbEntity
8
1
62
256
6
ByLayer
370
18
48
1
60
0
100
AcDbLine
10
43.650066
20
0.536957
30
0
11
43.741427
21
0.457901
31
0
39
0
210
0
220
0
230
1
0
LINE
5
C7
100
AcDbEntity
8
1
62
256
6
ByLayer
370
18
48
1
60
0
100
AcDbLine
10
43.650066
20
0.536957
30
0
11
43.641077
21
0.553718
31
0
39
0
210
0
220
0
230
1
0
LINE
5
C8
100
AcDbEntity
8
1
62
256
6
ByLayer
370
18
48
1
60
0
100
AcDbLine
10
43.031364
20
1.034316
30
0
11
42.825795
21
1.184451
31
0
39
0
210
0
220
0
230
1
0
LINE
5
C9
100
AcDbEntity
8
1
62
256
6
ByLayer
370
18
48
1
60
0
100
AcDbLine
10
39.540393
20
1.03628
30
0
11
40.853
21
0.48583
31
0
39
0
210
0
220
0
230
1
0
LINE
5
CA
100
AcDbEntity
8
1
62
256
6
ByLayer
370
18
48
1
60
0
100
AcDbLine
10
40.853
20
-1.14714
30
0
11
40.853
21
-1.191047
31
0
39
0
210
0
220
0
230
1
0
LINE
5
CB
100
AcDbEntity
8
1
62
256
6
ByLayer
370
18
48
1
60
0
100
AcDbLine
10
40.853
20
0.48583
30
0
11
40.853
21
0.614479
31
0
39
0
210
0
220
0
230
1
0
LINE
5
CC
100
AcDbEntity
8
1
62
256
6
ByLayer
370
18
48
1
60
0
100
AcDbLine
10
40.853
20
0.44008
30
0
11
40.853
21
0.48583
31
0
39
0
210
0
220
0
230
1
0
LINE
5
CD
100
AcDbEntity
8
1
62
256
6
ByLayer
370
18
48
1
60
0
100
AcDbLine
10
40.853
20
-1.060594
30
0
11
40.853
21
-1.008482
31
0
39
0
210
0
220
0
230
1
0
LINE
5
CE
100
AcDbEntity
8
1
62
256
6
ByLayer
370
18
48
1
60
0
100
AcDbLine
10
40.853
20
-1.14714
30
0
11
40.853
21
-1.060594
31
0
39
0
210
0
220
0
230
1
0
LINE
5
CF
100
AcDbEntity
8
1
62
256
6
ByLayer
370
18
48
1
60
0
100
AcDbLine
10
40.853
20
0.371233
30
0
11
40.853
21
0.44008
31
0
39
0
210
0
220
0
230
1
0
LINE
5
D0
100
AcDbEntity
8
1
62
256
6
ByLayer
370
18
48
1
60
0
100
AcDbLine
10
43.64206
20
-0.227411
30
0
11
43.724601
21
-0.356402
31
0
39
0
210
0
220
0
230
1
0
LINE
5
D1
100
AcDbEntity
8
1
62
256
6
ByLayer
370
18
48
1
60
0
100
AcDbLine
10
43.64206
20
-0.227411
30
0
11
43.641358
21
-0.225021
31
0
39
0
210
0
220
0
230
1
0
LINE
5
D2
100
AcDbEntity
8
1
62
256
6
ByLayer
370
18
48
1
60
0
100
AcDbLine
10
42.949752
20
0.104858
30
0
11
42.810006
21
0.125583
31
0
39
0
210
0
220
0
230
1
0
LINE
5
D3
100
AcDbEntity
8
1
62
256
6
ByLayer
370
18
48
1
60
0
100
AcDbLine
10
40.895932
20
-0.088696
30
0
11
40.791159
21
-0.056725
31
0
39
0
210
0
220
0
230
1
0
LINE
5
D4
100
AcDbEntity
8
1
62
256
6
ByLayer
370
18
48
1
60
0
100
AcDbLine
10
40.855872
20
-0.246858
30
0
11
40.751099
21
-0.214887
31
0
39
0
210
0
220
0
230
1
0
LINE
5
D5
100
AcDbEntity
8
1
62
256
6
ByLayer
370
18
48
1
60
0
100
AcDbLine
10
40.746579
20
-0.24999
30
0
11
40.751099
21
-0.214887
31
0
39
0
210
0
220
0
230
1
0
LINE
5
D6
100
AcDbEntity
8
1
62
256
6
ByLayer
370
18
48
1
60
0
100
AcDbLine
10
40.853
20
-0.680766
30
0
11
40.853
21
-0.609378
31
0
39
0
210
0
220
0
230
1
0
LINE
5
D7
100
AcDbEntity
8
1
62
256
6
ByLayer
370
18
48
1
60
0
100
AcDbLine
10
40.751099
20
-0.214887
30
0
11
40.791159
21
-0.056725
31
0
39
0
210
0
220
0
230
1
0
LINE
5
D8
100
AcDbEntity
8
1
62
256
6
ByLayer
370
18
48
1
60
0
100
AcDbLine
10
40.791159
20
-0.056725
30
0
11
40.922851
21
0.332836
31
0
39
0
210
0
220
0
230
1
0
LINE
5
D9
100
AcDbEntity
8
1
62
256
6
ByLayer
370
18
48
1
60
0
100
AcDbLine
10
39.551625
20
-0.599415
30
0
11
40.853
21
-1.008482
31
0
39
0
210
0
220
0
230
1
0
LINE
5
DA
100
AcDbEntity
8
1
62
256
6
ByLayer
370
18
48
1
60
0
100
AcDbLine
10
40.853
20
-1.008482
30
0
11
40.853
21
-0.680766
31
0
39
0
210
0
220
0
230
1
0
LINE
5
DB
100
AcDbEntity
8
1
62
256
6
ByLayer
370
18
48
1
60
0
100
AcDbLine
10
40.853
20
0.670457
30
0
11
40.853
21
1.259587
31
0
39
0
210
0
220
0
230
1
0
LINE
5
DC
100
AcDbEntity
8
1
62
256
6
ByLayer
370
18
48
1
60
0
100
AcDbLine
10
40.853
20
-0.609378
30
0
11
40.853
21
-0.24665
31
0
39
0
210
0
220
0
230
1
0
LINE
5
DD
100
AcDbEntity
8
1
62
256
6
ByLayer
370
18
48
1
60
0
100
AcDbLine
10
40.853
20
0.371233
30
0
11
40.853
21
0.351925
31
0
39
0
210
0
220
0
230
1
0
LINE
5
DE
100
AcDbEntity
8
1
62
256
6
ByLayer
370
18
48
1
60
0
100
AcDbLine
10
43.984074
20
-0.042845
30
0
11
43.992277
21
-0.043072
31
0
39
0
210
0
220
0
230
1
0
LINE
5
DF
100
AcDbEntity
8
1
62
256
6
ByLayer
370
18
48
1
60
0
100
AcDbLine
10
43.999444
20
-0.039591
30
0
11
43.991676
21
-0.039591
31
0
39
0
210
0
220
0
230
1
0
LINE
5
E0
100
AcDbEntity
8
1
62
256
6
ByLayer
370
18
48
1
60
0
100
AcDbLine
10
43.986043
20
0.042628
30
0
11
43.992165
21
0.0428
31
0
39
0
210
0
220
0
230
1
0
LINE
5
E1
100
AcDbEntity
8
1
62
256
6
ByLayer
370
18
48
1
60
0
100
AcDbLine
10
43.991641
20
0.000224
30
0
11
43.992194
21
-4E-06
31
0
39
0
210
0
220
0
230
1
0
LINE
5
E2
100
AcDbEntity
8
1
62
256
6
ByLayer
370
18
48
1
60
0
100
AcDbLine
10
19.930152
20
-3
30
0
11
19.930152
21
3
31
0
39
0
210
0
220
0
230
1
0
LINE
5
E3
100
AcDbEntity
8
SK1
62
256
6
ByLayer
370
18
48
1
60
0
100
AcDbLine
10
0
20
-3
30
0
11
0
21
3
31
0
39
0
210
0
220
0
230
1
0
LINE
5
E4
100
AcDbEntity
8
SK1
62
256
6
ByLayer
370
18
48
1
60
0
100
AcDbLine
10
-35.6
20
3
30
0
11
-35.6
21
-3
31
0
39
0
210
0
220
0
230
1
0
LINE
5
E5
100
AcDbEntity
8
SK1
62
256
6
ByLayer
370
18
48
1
60
0
100
AcDbLine
10
-36
20
2.6
30
0
11
-36
21
-2.6
31
0
39
0
210
0
220
0
230
1
0
LINE
5
E6
100
AcDbEntity
8
81
62
256
6
ByLayer
370
18
48
1
60
0
100
AcDbLine
10
39.808379
20
1.638411
30
0
11
39.808379
21
1.636926
31
0
39
0
210
0
220
0
230
1
0
LINE
5
E7
100
AcDbEntity
8
81
62
256
6
ByLayer
370
18
48
1
60
0
100
AcDbLine
10
39.808379
20
-1.590539
30
0
11
39.808379
21
-1.638411
31
0
39
0
210
0
220
0
230
1
0
LINE
5
E8
100
AcDbEntity
8
81
62
256
6
ByLayer
370
18
48
1
60
0
100
AcDbLine
10
40.709481
20
-1.568921
30
0
11
40.409481
21
-1.568921
31
0
39
0
210
0
220
0
230
1
0
LINE
5
E9
100
AcDbEntity
8
81
62
256
6
ByLayer
370
18
48
1
60
0
100
AcDbLine
10
40.688008
20
1.568921
30
0
11
40.709481
21
1.568921
31
0
39
0
210
0
220
0
230
1
0
LINE
5
EA
100
AcDbEntity
8
81
62
256
6
ByLayer
370
18
48
1
60
0
100
AcDbLine
10
40.852237
20
-1.621258
30
0
11
40.853
21
-1.621904
31
0
39
0
210
0
220
0
230
1
0
LINE
5
EB
100
AcDbEntity
8
81
62
256
6
ByLayer
370
18
48
1
60
0
100
AcDbLine
10
40.853
20
1.621904
30
0
11
40.852237
21
1.621258
31
0
39
0
210
0
220
0
230
1
0
LINE
5
EC
100
AcDbEntity
8
SK2
62
256
6
ByLayer
370
13
48
1
60
0
100
AcDbLine
10
-42.5
20
-10.5
30
0
11
-42.5
21
21.133313
31
0
39
0
210
0
220
0
230
1
0
LINE
5
EE
100
AcDbEntity
8
SK2
62
256
6
ByLayer
370
13
48
1
60
0
100
AcDbLine
10
-37.5875
20
-3
30
0
11
-44.5
21
-3
31
0
39
0
210
0
220
0
230
1
0
LINE
5
EF
100
AcDbEntity
8
SK2
62
256
6
ByLayer
370
13
48
1
60
0
100
AcDbLine
10
-37.5875
20
3
30
0
11
-44.5
21
3
31
0
39
0
210
0
220
0
230
1
0
LINE
5
F0
100
AcDbEntity
8
1
62
256
6
ByLayer
370
18
48
1
60
1
100
AcDbLine
10
-42.5
20
-3
30
0
11
-42.039216
21
-6.499998
31
0
39
0
210
0
220
0
230
1
0
LINE
5
F1
100
AcDbEntity
8
1
62
256
6
ByLayer
370
18
48
1
60
1
100
AcDbLine
10
-42.039216
20
-6.499998
30
0
11
-42.960784
21
-6.500002
31
0
39
0
210
0
220
0
230
1
0
LINE
5
F2
100
AcDbEntity
8
1
62
256
6
ByLayer
370
18
48
1
60
1
100
AcDbLine
10
-42.960784
20
-6.500002
30
0
11
-42.5
21
-3
31
0
39
0
210
0
220
0
230
1
0
LINE
5
F3
100
AcDbEntity
8
1
62
256
6
ByLayer
370
18
48
1
60
1
100
AcDbLine
10
-42.5
20
3
30
0
11
-42.960784
21
6.499998
31
0
39
0
210
0
220
0
230
1
0
LINE
5
F4
100
AcDbEntity
8
1
62
256
6
ByLayer
370
18
48
1
60
1
100
AcDbLine
10
-42.960784
20
6.499998
30
0
11
-42.039216
21
6.500002
31
0
39
0
210
0
220
0
230
1
0
LINE
5
F5
100
AcDbEntity
8
1
62
256
6
ByLayer
370
18
48
1
60
1
100
AcDbLine
10
-42.039216
20
6.500002
30
0
11
-42.5
21
3
31
0
39
0
210
0
220
0
230
1
0
LINE
5
F6
100
AcDbEntity
8
SK2
62
256
6
ByLayer
370
13
48
1
60
0
100
AcDbLine
10
34.5
20
-31.638411
30
0
11
34.5
21
9.138411
31
0
39
0
210
0
220
0
230
1
0
LINE
5
F7
100
AcDbEntity
8
SK2
62
256
6
ByLayer
370
13
48
1
60
0
100
AcDbLine
10
31.5875
20
-1.638411
30
0
11
36.5
21
-1.638411
31
0
39
0
210
0
220
0
230
1
0
LINE
5
F8
100
AcDbEntity
8
SK2
62
256
6
ByLayer
370
13
48
1
60
0
100
AcDbLine
10
31.5875
20
1.638411
30
0
11
36.5
21
1.638411
31
0
39
0
210
0
220
0
230
1
0
LINE
5
F9
100
AcDbEntity
8
1
62
256
6
ByLayer
370
18
48
1
60
1
100
AcDbLine
10
34.5
20
-1.638411
30
0
11
34.960784
21
-5.138409
31
0
39
0
210
0
220
0
230
1
0
LINE
5
FA
100
AcDbEntity
8
1
62
256
6
ByLayer
370
18
48
1
60
1
100
AcDbLine
10
34.960784
20
-5.138409
30
0
11
34.039216
21
-5.138413
31
0
39
0
210
0
220
0
230
1
0
LINE
5
FB
100
AcDbEntity
8
1
62
256
6
ByLayer
370
18
48
1
60
1
100
AcDbLine
10
34.039216
20
-5.138413
30
0
11
34.5
21
-1.638411
31
0
39
0
210
0
220
0
230
1
0
LINE
5
FC
100
AcDbEntity
8
1
62
256
6
ByLayer
370
18
48
1
60
1
100
AcDbLine
10
34.5
20
1.638411
30
0
11
34.039216
21
5.138409
31
0
39
0
210
0
220
0
230
1
0
LINE
5
FD
100
AcDbEntity
8
1
62
256
6
ByLayer
370
18
48
1
60
1
100
AcDbLine
10
34.039216
20
5.138409
30
0
11
34.960784
21
5.138413
31
0
39
0
210
0
220
0
230
1
0
LINE
5
FE
100
AcDbEntity
8
1
62
256
6
ByLayer
370
18
48
1
60
1
100
AcDbLine
10
34.960784
20
5.138413
30
0
11
34.5
21
1.638411
31
0
39
0
210
0
220
0
230
1
0
LINE
5
FF
100
AcDbEntity
8
2
62
256
6
ByLayer
370
13
48
1
60
0
100
AcDbLine
10
58.5
20
-9.5
30
0
11
58.5
21
18.58857
31
0
39
0
210
0
220
0
230
1
0
LINE
5
101
100
AcDbEntity
8
2
62
256
6
ByLayer
370
13
48
1
60
0
100
AcDbLine
10
43.5875
20
-2
30
0
11
60.5
21
-2
31
0
39
0
210
0
220
0
230
1
0
LINE
5
102
100
AcDbEntity
8
2
62
256
6
ByLayer
370
13
48
1
60
0
100
AcDbLine
10
43.5875
20
2
30
0
11
60.5
21
2
31
0
39
0
210
0
220
0
230
1
0
LINE
5
103
100
AcDbEntity
8
1
62
256
6
ByLayer
370
18
48
1
60
1
100
AcDbLine
10
58.5
20
-2
30
0
11
58.960784
21
-5.499998
31
0
39
0
210
0
220
0
230
1
0
LINE
5
104
100
AcDbEntity
8
1
62
256
6
ByLayer
370
18
48
1
60
1
100
AcDbLine
10
58.960784
20
-5.499998
30
0
11
58.039216
21
-5.500002
31
0
39
0
210
0
220
0
230
1
0
LINE
5
105
100
AcDbEntity
8
1
62
256
6
ByLayer
370
18
48
1
60
1
100
AcDbLine
10
58.039216
20
-5.500002
30
0
11
58.5
21
-2
31
0
39
0
210
0
220
0
230
1
0
LINE
5
106
100
AcDbEntity
8
1
62
256
6
ByLayer
370
18
48
1
60
1
100
AcDbLine
10
58.5
20
2
30
0
11
58.039216
21
5.499998
31
0
39
0
210
0
220
0
230
1
0
LINE
5
107
100
AcDbEntity
8
1
62
256
6
ByLayer
370
18
48
1
60
1
100
AcDbLine
10
58.039216
20
5.499998
30
0
11
58.960784
21
5.500002
31
0
39
0
210
0
220
0
230
1
0
LINE
5
108
100
AcDbEntity
8
1
62
256
6
ByLayer
370
18
48
1
60
1
100
AcDbLine
10
58.960784
20
5.500002
30
0
11
58.5
21
2
31
0
39
0
210
0
220
0
230
1
0
LINE
5
109
100
AcDbEntity
8
SK2
62
256
6
ByLayer
370
13
48
1
60
0
100
AcDbLine
10
18.356968
20
3.212717
30
0
11
3.731428
21
5.190301
31
0
39
0
210
0
220
0
230
1
0
LINE
5
10A
100
AcDbEntity
8
SK2
62
256
6
ByLayer
370
13
48
1
60
0
100
AcDbLine
10
-34.4125
20
0
30
0
11
7.382116
21
0
31
0
39
0
210
0
220
0
230
1
0
LINE
5
10B
100
AcDbEntity
8
1
62
256
6
ByLayer
370
18
48
1
60
1
100
AcDbLine
10
5.713392
20
4.922311
30
0
11
5.809758
21
8.451195
31
0
39
0
210
0
220
0
230
1
0
LINE
5
10C
100
AcDbEntity
8
1
62
256
6
ByLayer
370
18
48
1
60
1
100
AcDbLine
10
5.809758
20
8.451195
30
0
11
6.719818
21
8.306014
31
0
39
0
210
0
220
0
230
1
0
LINE
5
10D
100
AcDbEntity
8
1
62
256
6
ByLayer
370
18
48
1
60
1
100
AcDbLine
10
6.719818
20
8.306014
30
0
11
5.713392
21
4.922311
31
0
39
0
210
0
220
0
230
1
0
LINE
5
10E
100
AcDbEntity
8
1
62
256
6
ByLayer
370
18
48
1
60
1
100
AcDbLine
10
5.382116
20
0
30
0
11
5.926066
21
-3.488041
31
0
39
0
210
0
220
0
230
1
0
LINE
5
10F
100
AcDbEntity
8
1
62
256
6
ByLayer
370
18
48
1
60
1
100
AcDbLine
10
5.926066
20
-3.488041
30
0
11
5.004759
21
-3.509977
31
0
39
0
210
0
220
0
230
1
0
LINE
5
110
100
AcDbEntity
8
1
62
256
6
ByLayer
370
18
48
1
60
1
100
AcDbLine
10
5.004759
20
-3.509977
30
0
11
5.382116
21
0
31
0
39
0
210
0
220
0
230
1
0
LINE
5
1DA
100
AcDbEntity
8
1
62
256
6
ByLayer
370
18
48
1
60
1
100
AcDbLine
10
-42.5
20
-3
30
0
11
-42.039216
21
-6.499998
31
0
39
0
210
0
220
0
230
1
0
LINE
5
1DB
100
AcDbEntity
8
1
62
256
6
ByLayer
370
18
48
1
60
1
100
AcDbLine
10
-42.039216
20
-6.499998
30
0
11
-42.960784
21
-6.500002
31
0
39
0
210
0
220
0
230
1
0
LINE
5
1DC
100
AcDbEntity
8
1
62
256
6
ByLayer
370
18
48
1
60
1
100
AcDbLine
10
-42.960784
20
-6.500002
30
0
11
-42.5
21
-3
31
0
39
0
210
0
220
0
230
1
0
LINE
5
1DE
100
AcDbEntity
8
1
62
256
6
ByLayer
370
18
48
1
60
1
100
AcDbLine
10
-42.5
20
3
30
0
11
-42.960784
21
6.499998
31
0
39
0
210
0
220
0
230
1
0
LINE
5
1DF
100
AcDbEntity
8
1
62
256
6
ByLayer
370
18
48
1
60
1
100
AcDbLine
10
-42.960784
20
6.499998
30
0
11
-42.039216
21
6.500002
31
0
39
0
210
0
220
0
230
1
0
LINE
5
1E0
100
AcDbEntity
8
1
62
256
6
ByLayer
370
18
48
1
60
1
100
AcDbLine
10
-42.039216
20
6.500002
30
0
11
-42.5
21
3
31
0
39
0
210
0
220
0
230
1
0
LINE
5
1E4
100
AcDbEntity
8
1
62
256
6
ByLayer
370
18
48
1
60
1
100
AcDbLine
10
34.5
20
-1.638411
30
0
11
34.960784
21
-5.138409
31
0
39
0
210
0
220
0
230
1
0
LINE
5
1E5
100
AcDbEntity
8
1
62
256
6
ByLayer
370
18
48
1
60
1
100
AcDbLine
10
34.960784
20
-5.138409
30
0
11
34.039216
21
-5.138413
31
0
39
0
210
0
220
0
230
1
0
LINE
5
1E6
100
AcDbEntity
8
1
62
256
6
ByLayer
370
18
48
1
60
1
100
AcDbLine
10
34.039216
20
-5.138413
30
0
11
34.5
21
-1.638411
31
0
39
0
210
0
220
0
230
1
0
LINE
5
1E8
100
AcDbEntity
8
1
62
256
6
ByLayer
370
18
48
1
60
1
100
AcDbLine
10
34.5
20
1.638411
30
0
11
34.039216
21
5.138409
31
0
39
0
210
0
220
0
230
1
0
LINE
5
1E9
100
AcDbEntity
8
1
62
256
6
ByLayer
370
18
48
1
60
1
100
AcDbLine
10
34.039216
20
5.138409
30
0
11
34.960784
21
5.138413
31
0
39
0
210
0
220
0
230
1
0
LINE
5
1EA
100
AcDbEntity
8
1
62
256
6
ByLayer
370
18
48
1
60
1
100
AcDbLine
10
34.960784
20
5.138413
30
0
11
34.5
21
1.638411
31
0
39
0
210
0
220
0
230
1
0
LINE
5
1EE
100
AcDbEntity
8
1
62
256
6
ByLayer
370
18
48
1
60
1
100
AcDbLine
10
58.5
20
-2
30
0
11
58.960784
21
-5.499998
31
0
39
0
210
0
220
0
230
1
0
LINE
5
1EF
100
AcDbEntity
8
1
62
256
6
ByLayer
370
18
48
1
60
1
100
AcDbLine
10
58.960784
20
-5.499998
30
0
11
58.039216
21
-5.500002
31
0
39
0
210
0
220
0
230
1
0
LINE
5
1F0
100
AcDbEntity
8
1
62
256
6
ByLayer
370
18
48
1
60
1
100
AcDbLine
10
58.039216
20
-5.500002
30
0
11
58.5
21
-2
31
0
39
0
210
0
220
0
230
1
0
LINE
5
1F2
100
AcDbEntity
8
1
62
256
6
ByLayer
370
18
48
1
60
1
100
AcDbLine
10
58.5
20
2
30
0
11
58.039216
21
5.499998
31
0
39
0
210
0
220
0
230
1
0
LINE
5
1F3
100
AcDbEntity
8
1
62
256
6
ByLayer
370
18
48
1
60
1
100
AcDbLine
10
58.039216
20
5.499998
30
0
11
58.960784
21
5.500002
31
0
39
0
210
0
220
0
230
1
0
LINE
5
1F4
100
AcDbEntity
8
1
62
256
6
ByLayer
370
18
48
1
60
1
100
AcDbLine
10
58.960784
20
5.500002
30
0
11
58.5
21
2
31
0
39
0
210
0
220
0
230
1
0
LINE
5
1F7
100
AcDbEntity
8
1
62
256
6
ByLayer
370
18
48
1
60
1
100
AcDbLine
10
5.713392
20
4.922311
30
0
11
5.809758
21
8.451195
31
0
39
0
210
0
220
0
230
1
0
LINE
5
1F8
100
AcDbEntity
8
1
62
256
6
ByLayer
370
18
48
1
60
1
100
AcDbLine
10
5.809758
20
8.451195
30
0
11
6.719818
21
8.306014
31
0
39
0
210
0
220
0
230
1
0
LINE
5
1F9
100
AcDbEntity
8
1
62
256
6
ByLayer
370
18
48
1
60
1
100
AcDbLine
10
6.719818
20
8.306014
30
0
11
5.713392
21
4.922311
31
0
39
0
210
0
220
0
230
1
0
LINE
5
1FB
100
AcDbEntity
8
1
62
256
6
ByLayer
370
18
48
1
60
1
100
AcDbLine
10
5.382116
20
0
30
0
11
5.926066
21
-3.488041
31
0
39
0
210
0
220
0
230
1
0
LINE
5
1FC
100
AcDbEntity
8
1
62
256
6
ByLayer
370
18
48
1
60
1
100
AcDbLine
10
5.926066
20
-3.488041
30
0
11
5.004759
21
-3.509977
31
0
39
0
210
0
220
0
230
1
0
LINE
5
1FD
100
AcDbEntity
8
1
62
256
6
ByLayer
370
18
48
1
60
1
100
AcDbLine
10
5.004759
20
-3.509977
30
0
11
5.382116
21
0
31
0
39
0
210
0
220
0
230
1
0
MTEXT
5
1D6
100
AcDbEntity
8
SK2
62
256
6
ByLayer
370
18
48
1
60
0
100
AcDbMText
10
-43.841114
20
7.658438
30
0
210
0
220
0
230
1
1
%%c
40
3
41
0
44
1.084337
50
90
71
7
72
5
7
iso_b_vert
0
MTEXT
5
1D9
100
AcDbEntity
8
SK2
62
256
6
ByLayer
370
18
48
1
60
0
100
AcDbMText
10
-43.841114
20
13.635
30
0
210
0
220
0
230
1
1
\W0.6903;6 h6
40
3
41
0
44
1.084337
50
90
71
7
72
5
7
iso_b_vert
0
MTEXT
5
1E2
100
AcDbEntity
8
SK2
62
256
6
ByLayer
370
18
48
1
60
0
100
AcDbMText
10
33.158886
20
-29.979974
30
0
210
0
220
0
230
1
1
%%c
40
3
41
0
44
1.084337
50
90
71
7
72
5
7
iso_b_vert
0
MTEXT
5
1E3
100
AcDbEntity
8
SK2
62
256
6
ByLayer
370
18
48
1
60
0
100
AcDbMText
10
33.158886
20
-24.003411
30
0
210
0
220
0
230
1
1
\W0.7346;3.28
40
3
41
0
44
1.084337
50
90
71
7
72
5
7
iso_b_vert
0
MTEXT
5
1EC
100
AcDbEntity
8
2
62
256
6
ByLayer
370
18
48
1
60
0
100
AcDbMText
10
57.158886
20
8.658437
30
0
210
0
220
0
230
1
1
%%c
40
3
41
0
44
1.084337
50
90
71
7
72
5
7
iso_b_vert
0
MTEXT
5
1ED
100
AcDbEntity
8
2
62
256
6
ByLayer
370
18
48
1
60
0
100
AcDbMText
10
57.158886
20
14.635
30
0
210
0
220
0
230
1
1
\W0.6488;(4)
40
3
41
0
44
1.084337
50
90
71
7
72
5
7
iso_b_vert
0
MTEXT
5
1F6
100
AcDbEntity
8
SK2
62
256
6
ByLayer
370
18
48
1
60
0
100
AcDbMText
10
6.194279
20
10.684794
30
0
210
0
220
0
230
1
1
\W0.7635;(8%%d)
40
3
41
0
44
1.084337
50
69.369855619861
71
7
72
5
7
iso_b_vert
0
MTEXT
5
1FF
100
AcDbEntity
8
SK6
62
256
6
ByLayer
370
18
48
1
60
0
100
AcDbMText
10
-23.8498
20
-42.703946
30
0
210
0
220
0
230
1
1
\W0.7860;2L446-0400-RA0600   R2AH
40
3
41
0
44
1.084337
50
0
71
7
72
5
7
iso_b_vert
0
HATCH
5
1DD
100
AcDbEntity
8
SK2
62
256
6
ByLayer
370
13
48
1
60
0
100
AcDbHatch
10
0
20
0
30
0
210
0
220
0
230
1
2
ANSI31
70
0
71
0
91
1
92
5
93
3
72
1
10
-42.5
20
-3
11
-42.0392162584472
21
-6.49999830744682
72
1
10
-42.0392162584472
20
-6.49999830744682
11
-42.9607837415528
21
-6.50000169255318
72
1
10
-42.9607837415528
20
-6.50000169255318
11
-42.5
21
-3
97
0
75
0
76
1
52
0
41
0.0062
77
0
78
1
53
45
43
0
44
0
45
-0.0139193969876572
46
0.0139193969876572
79
0
47
0
98
1
10
0
20
0
0
HATCH
5
1E1
100
AcDbEntity
8
SK2
62
256
6
ByLayer
370
13
48
1
60
0
100
AcDbHatch
10
0
20
0
30
0
210
0
220
0
230
1
2
ANSI31
70
0
71
0
91
1
92
5
93
3
72
1
10
-42.5
20
3.00000000000003
11
-42.9607837415528
21
6.49999830744684
72
1
10
-42.9607837415528
20
6.49999830744684
11
-42.0392162584472
21
6.50000169255321
72
1
10
-42.0392162584472
20
6.50000169255321
11
-42.5
21
3.00000000000003
97
0
75
0
76
1
52
0
41
0.0062
77
0
78
1
53
45
43
0
44
0
45
-0.0139193969876572
46
0.0139193969876572
79
0
47
0
98
1
10
0
20
0
0
HATCH
5
1E7
100
AcDbEntity
8
SK2
62
256
6
ByLayer
370
13
48
1
60
0
100
AcDbHatch
10
0
20
0
30
0
210
0
220
0
230
1
2
ANSI31
70
0
71
0
91
1
92
5
93
3
72
1
10
34.5
20
-1.63841112056772
11
34.9607837415528
21
-5.13840942801454
72
1
10
34.9607837415528
20
-5.13840942801454
11
34.0392162584472
21
-5.13841281312091
72
1
10
34.0392162584472
20
-5.13841281312091
11
34.5
21
-1.63841112056772
97
0
75
0
76
1
52
0
41
0.0062
77
0
78
1
53
45
43
0
44
0
45
-0.0139193969876572
46
0.0139193969876572
79
0
47
0
98
1
10
0
20
0
0
HATCH
5
1EB
100
AcDbEntity
8
SK2
62
256
6
ByLayer
370
13
48
1
60
0
100
AcDbHatch
10
0
20
0
30
0
210
0
220
0
230
1
2
ANSI31
70
0
71
0
91
1
92
5
93
3
72
1
10
34.5
20
1.63841112056761
11
34.0392162584472
21
5.13840942801443
72
1
10
34.0392162584472
20
5.13840942801443
11
34.9607837415528
21
5.13841281312079
72
1
10
34.9607837415528
20
5.13841281312079
11
34.5
21
1.63841112056761
97
0
75
0
76
1
52
0
41
0.0062
77
0
78
1
53
45
43
0
44
0
45
-0.0139193969876572
46
0.0139193969876572
79
0
47
0
98
1
10
0
20
0
0
HATCH
5
1F1
100
AcDbEntity
8
2
62
256
6
ByLayer
370
13
48
1
60
0
100
AcDbHatch
10
0
20
0
30
0
210
0
220
0
230
1
2
ANSI31
70
0
71
0
91
1
92
5
93
3
72
1
10
58.5
20
-2
11
58.9607837415528
21
-5.49999830744682
72
1
10
58.9607837415528
20
-5.49999830744682
11
58.0392162584472
21
-5.50000169255318
72
1
10
58.0392162584472
20
-5.50000169255318
11
58.5
21
-2
97
0
75
0
76
1
52
0
41
0.0062
77
0
78
1
53
45
43
0
44
0
45
-0.0139193969876572
46
0.0139193969876572
79
0
47
0
98
1
10
0
20
0
0
HATCH
5
1F5
100
AcDbEntity
8
2
62
256
6
ByLayer
370
13
48
1
60
0
100
AcDbHatch
10
0
20
0
30
0
210
0
220
0
230
1
2
ANSI31
70
0
71
0
91
1
92
5
93
3
72
1
10
58.5
20
2
11
58.0392162584472
21
5.49999830744682
72
1
10
58.0392162584472
20
5.49999830744682
11
58.9607837415528
21
5.50000169255318
72
1
10
58.9607837415528
20
5.50000169255318
11
58.5
21
2
97
0
75
0
76
1
52
0
41
0.0062
77
0
78
1
53
45
43
0
44
0
45
-0.0139193969876572
46
0.0139193969876572
79
0
47
0
98
1
10
0
20
0
0
HATCH
5
1FA
100
AcDbEntity
8
SK2
62
256
6
ByLayer
370
13
48
1
60
0
100
AcDbHatch
10
0
20
0
30
0
210
0
220
0
230
1
2
ANSI31
70
0
71
0
91
1
92
5
93
3
72
1
10
5.71339242383559
20
4.92231115394821
11
5.80975775840446
21
8.45119533041299
72
1
10
5.80975775840446
20
8.45119533041299
11
6.7198175788823
21
8.30601355097485
72
1
10
6.7198175788823
20
8.30601355097485
11
5.71339242383559
21
4.92231115394821
97
0
75
0
76
1
52
0
41
0.0062
77
0
78
1
53
45
43
0
44
0
45
-0.0139193969876572
46
0.0139193969876572
79
0
47
0
98
1
10
0
20
0
0
HATCH
5
1FE
100
AcDbEntity
8
SK2
62
256
6
ByLayer
370
13
48
1
60
0
100
AcDbHatch
10
0
20
0
30
0
210
0
220
0
230
1
2
ANSI31
70
0
71
0
91
1
92
5
93
3
72
1
10
5.3821159706234
20
0
11
5.92606564264784
21
-3.48804079146365
72
1
10
5.92606564264784
20
-3.48804079146365
11
5.00475926136281
21
-3.50997655523943
72
1
10
5.00475926136281
20
-3.50997655523943
11
5.3821159706234
21
0
97
0
75
0
76
1
52
0
41
0.0062
77
0
78
1
53
45
43
0
44
0
45
-0.0139193969876572
46
0.0139193969876572
79
0
47
0
98
1
10
0
20
0
0
DIMENSION
5
202
100
AcDbEntity
8
2
62
256
6
ByLayer
370
18
48
1
60
0
100
AcDbDimension
2
_U0
10
30
20
10.85
30
0
11
37
21
10.85
31
0
70
32
71
1
72
1
41
1
210
0
220
0
230
1
3
Standard
100
AcDbAlignedDimension
13
44
23
0
33
0
14
30
24
1.638411
34
0
50
0
100
AcDbRotatedDimension
1001
ACAD
1000
DSTYLE
1002
{
1070
   371
1070
    13
1070
   372
1070
    13
1070
     3
1000

1070
   170
1070
     0
1070
   144
1040
1.0
1070
   277
1070
     2
1070
   284
1070
     8
1070
   278
1070
    46
1070
   146
1040
1.166667
1070
   345
1005
16
1070
   347
1005
16
1070
   346
1005
16
1070
   344
1005
0
1070
   343
1005
0
1070
   172
1070
     1
1070
    76
1070
     0
1070
    75
1070
     0
1070
   282
1070
     0
1070
   281
1070
     0
1070
    71
1070
     0
1070
    74
1070
     0
1070
   279
1070
     0
1070
   173
1070
     1
1070
   340
1005
1D7
1070
   271
1070
     2
1070
   272
1070
     2
1070
    77
1070
     1
1070
    73
1070
     1
1070
   171
1070
     3
1070
   274
1070
     4
1070
   177
1070
     2
1070
   176
1070
     2
1070
   178
1070
     2
1070
    78
1070
     8
1070
    48
1040
-0.1
1070
    41
1040
3.5
1070
   147
1040
1.5
1070
    42
1040
1.5875
1070
    44
1040
2.0
1070
   140
1040
3.0
1002
}
1001
ACAD_DSTYLE_DIM_LINETYPE
1070
   380
1005
16
1001
ACAD_DSTYLE_DIM_EXT1_LINETYPE
1070
   381
1005
16
1001
ACAD_DSTYLE_DIM_EXT2_LINETYPE
1070
   382
1005
16
0
DIMENSION
5
21C
100
AcDbEntity
8
2
62
256
6
ByLayer
370
18
48
1
60
0
100
AcDbDimension
2
_U1
10
19.930152
20
20.85
30
0
11
31.965076
21
20.85
31
0
70
32
71
1
72
1
41
1
210
0
220
0
230
1
3
Standard
100
AcDbAlignedDimension
13
44
23
0
33
0
14
19.930152
24
3
34
0
50
0
100
AcDbRotatedDimension
1001
ACAD
1000
DSTYLE
1002
{
1070
   371
1070
    13
1070
   372
1070
    13
1070
     3
1000

1070
   170
1070
     0
1070
   144
1040
1.0
1070
   277
1070
     2
1070
   284
1070
     8
1070
   278
1070
    46
1070
   146
1040
1.166667
1070
   345
1005
16
1070
   347
1005
16
1070
   346
1005
16
1070
   344
1005
0
1070
   343
1005
0
1070
   172
1070
     1
1070
    76
1070
     0
1070
    75
1070
     0
1070
   282
1070
     0
1070
   281
1070
     0
1070
    71
1070
     0
1070
    74
1070
     0
1070
   279
1070
     0
1070
   173
1070
     1
1070
   340
1005
1D7
1070
   271
1070
     2
1070
   272
1070
     2
1070
    77
1070
     1
1070
    73
1070
     1
1070
   171
1070
     3
1070
   274
1070
     4
1070
   177
1070
     2
1070
   176
1070
     2
1070
   178
1070
     2
1070
    78
1070
     8
1070
    48
1040
-0.1
1070
    41
1040
3.5
1070
   147
1040
1.5
1070
    42
1040
1.5875
1070
    44
1040
2.0
1070
   140
1040
3.0
1002
}
1001
ACAD_DSTYLE_DIM_LINETYPE
1070
   380
1005
16
1001
ACAD_DSTYLE_DIM_EXT1_LINETYPE
1070
   381
1005
16
1001
ACAD_DSTYLE_DIM_EXT2_LINETYPE
1070
   382
1005
16
0
DIMENSION
5
234
100
AcDbEntity
8
SK2
62
256
6
ByLayer
370
18
48
1
60
0
100
AcDbDimension
2
_U2
10
-36
20
30.85
30
0
11
4
21
30.85
31
0
70
32
71
1
72
1
41
1
210
0
220
0
230
1
3
Standard
100
AcDbAlignedDimension
13
44
23
0
33
0
14
-36
24
0
34
0
50
0
100
AcDbRotatedDimension
1001
ACAD
1000
DSTYLE
1002
{
1070
   371
1070
    13
1070
   372
1070
    13
1070
     3
1000

1070
   170
1070
     0
1070
   144
1040
1.0
1070
   277
1070
     2
1070
   284
1070
     8
1070
   278
1070
    46
1070
   146
1040
1.166667
1070
   345
1005
16
1070
   347
1005
16
1070
   346
1005
16
1070
   344
1005
0
1070
   343
1005
0
1070
   172
1070
     1
1070
    76
1070
     0
1070
    75
1070
     0
1070
   282
1070
     0
1070
   281
1070
     0
1070
    71
1070
     0
1070
    74
1070
     0
1070
   279
1070
     0
1070
   173
1070
     1
1070
   340
1005
1D7
1070
   271
1070
     2
1070
   272
1070
     2
1070
    77
1070
     1
1070
    73
1070
     1
1070
   171
1070
     3
1070
   274
1070
     4
1070
   177
1070
     2
1070
   176
1070
     2
1070
   178
1070
     2
1070
    78
1070
     8
1070
    48
1040
-0.1
1070
    41
1040
3.5
1070
   147
1040
1.5
1070
    42
1040
1.5875
1070
    44
1040
2.0
1070
   140
1040
3.0
1002
}
1001
ACAD_DSTYLE_DIM_LINETYPE
1070
   380
1005
16
1001
ACAD_DSTYLE_DIM_EXT1_LINETYPE
1070
   381
1005
16
1001
ACAD_DSTYLE_DIM_EXT2_LINETYPE
1070
   382
1005
16
0
DIMENSION
5
24C
100
AcDbEntity
8
SK2
62
256
6
ByLayer
370
18
48
1
60
0
100
AcDbDimension
2
_U3
10
0.4
20
-14.028121
30
0
11
-17.8
21
-14.028121
31
0
70
32
71
1
72
1
41
1
210
0
220
0
230
1
3
Standard
100
AcDbAlignedDimension
13
-36
23
0
33
0
14
0.4
24
-3
34
0
50
0
100
AcDbRotatedDimension
1001
ACAD
1000
DSTYLE
1002
{
1070
   371
1070
    13
1070
   372
1070
    13
1070
     3
1000

1070
   170
1070
     0
1070
   144
1040
1.0
1070
   277
1070
     2
1070
   284
1070
     8
1070
   278
1070
    46
1070
   146
1040
1.166667
1070
   345
1005
16
1070
   347
1005
16
1070
   346
1005
16
1070
   344
1005
0
1070
   343
1005
0
1070
   172
1070
     1
1070
    76
1070
     0
1070
    75
1070
     0
1070
   282
1070
     0
1070
   281
1070
     0
1070
    71
1070
     0
1070
    74
1070
     0
1070
   279
1070
     0
1070
   173
1070
     1
1070
   340
1005
1D7
1070
   271
1070
     2
1070
   272
1070
     2
1070
    77
1070
     1
1070
    73
1070
     1
1070
   171
1070
     3
1070
   274
1070
     4
1070
   177
1070
     2
1070
   176
1070
     2
1070
   178
1070
     2
1070
    78
1070
     8
1070
    48
1040
-0.1
1070
    41
1040
3.5
1070
   147
1040
1.5
1070
    42
1040
1.5875
1070
    44
1040
2.0
1070
   140
1040
3.0
1002
}
1001
ACAD_DSTYLE_DIM_LINETYPE
1070
   380
1005
16
1001
ACAD_DSTYLE_DIM_EXT1_LINETYPE
1070
   381
1005
16
1001
ACAD_DSTYLE_DIM_EXT2_LINETYPE
1070
   382
1005
16
0
DIMENSION
5
264
100
AcDbEntity
8
SK2
62
256
6
ByLayer
370
18
48
1
60
0
100
AcDbDimension
2
_U4
10
40.853
20
-11.5
30
0
11
60.071429
21
-11.5
31
0
70
32
71
1
72
1
41
1
210
0
220
0
230
1
3
Standard
100
AcDbAlignedDimension
13
44
23
0
33
0
14
40.853
24
1.638411
34
0
50
0
100
AcDbRotatedDimension
1001
ACAD
1000
DSTYLE
1002
{
1070
   371
1070
    13
1070
   372
1070
    13
1070
     3
1000

1070
   170
1070
     0
1070
   144
1040
1.0
1070
   277
1070
     2
1070
   284
1070
     8
1070
   278
1070
    46
1070
   146
1040
1.166667
1070
   345
1005
16
1070
   347
1005
16
1070
   346
1005
16
1070
   344
1005
0
1070
   343
1005
0
1070
   172
1070
     1
1070
    76
1070
     0
1070
    75
1070
     0
1070
   282
1070
     0
1070
   281
1070
     0
1070
    71
1070
     0
1070
    74
1070
     0
1070
   279
1070
     0
1070
   173
1070
     1
1070
   340
1005
1D7
1070
   271
1070
     2
1070
   272
1070
     2
1070
    77
1070
     1
1070
    73
1070
     1
1070
   171
1070
     3
1070
   274
1070
     4
1070
   177
1070
     2
1070
   176
1070
     2
1070
   178
1070
     2
1070
    78
1070
     8
1070
    48
1040
-0.1
1070
    41
1040
3.5
1070
   147
1040
1.5
1070
    42
1040
1.5875
1070
    44
1040
2.0
1070
   140
1040
3.0
1002
}
1001
ACAD_DSTYLE_DIM_LINETYPE
1070
   380
1005
16
1001
ACAD_DSTYLE_DIM_EXT1_LINETYPE
1070
   381
1005
16
1001
ACAD_DSTYLE_DIM_EXT2_LINETYPE
1070
   382
1005
16
0
ENDSEC
0
SECTION
2
OBJECTS
0
DICTIONARY
5
2ee
330
0
100
AcDbDictionary
280
0
281
1
3
ACAD_GROUP
350
2ef
3
ACAD_MLINESTYLE
350
2f0
0
DICTIONARY
5
2ef
330
0
100
AcDbDictionary
280
0
281
1
0
DICTIONARY
5
2f0
330
0
100
AcDbDictionary
280
0
281
1
3
Standard
350
18
0
MLINESTYLE
5
18
330
2f0
100
AcDbMlineStyle
2
Standard
70
0
3

62
256
51
90
52
90
71
2
49
-0.5
62
256
6
ByLayer
49
0.5
62
256
6
ByLayer
0
RASTERVARIABLES
5
2dc
330

100
AcDbRasterVariables
90
0
70
1
71
1
72
1
0
ENDSEC
0
EOF
