0
SECTION
2
HEADER
9
$ACADVER
1
AC1015
9
$DWGCODEPAGE
3
ANSI_1252
9
$HANDSEED
5
307
9
$ANGBASE
50
0
9
$ANGDIR
70
0
9
$ATTMODE
70
1
9
$AUNITS
70
0
9
$AUPREC
70
0
9
$CECOLOR
62
256
9
$CELTSCALE
40
1
9
$CELTYPE
6
ByLayer
9
$CELWEIGHT
370
18
9
$CLAYER
8
0
9
$CMLJUST
70
0
9
$CMLSCALE
40
1
9
$CMLSTYLE
2
Standard
9
$DIMSTYLE
2
Standard
9
$TEXTSIZE
40
0.2
9
$TEXTSTYLE
7
Standard
9
$LUNITS
70
2
9
$LUPREC
70
4
9
$EXTNAMES
290
1
9
$INSUNITS
70
4
9
$LTSCALE
40
1
9
$LWDISPLAY
290
1
9
$PDMODE
70
0
9
$PDSIZE
40
0
9
$PLINEGEN
70
0
0
ENDSEC
0
SECTION
2
CLASSES
0
CLASS
1
RASTERVARIABLES
2
AcDbRasterVariables
3
ISM
90
0
280
0
281
0
0
ENDSEC
0
SECTION
2
TABLES
0
TABLE
2
VPORT
5
2fd
100
AcDbSymbolTable
0
VPORT
5
1
100
AcDbSymbolTableRecord
100
AcDbViewportTableRecord
2
*Active
70
0
10
0
20
0
11
1
21
1
12
-1
22
1
13
0
23
0
14
0.5
24
0.5
15
10
25
10
16
0
26
0
36
1
17
0
27
0
37
0
0
ENDTAB
0
TABLE
2
LTYPE
5
2fe
100
AcDbSymbolTable
0
LTYPE
5
14
100
AcDbSymbolTableRecord
100
AcDbLinetypeTableRecord
70
0
2
ByBlock
3

72
65
73
0
40
0
0
LTYPE
5
15
100
AcDbSymbolTableRecord
100
AcDbLinetypeTableRecord
70
0
2
ByLayer
3

72
65
73
0
40
0
0
LTYPE
5
16
100
AcDbSymbolTableRecord
100
AcDbLinetypeTableRecord
70
0
2
Continuous
3
Solid line
72
65
73
0
40
0
0
LTYPE
5
6E
100
AcDbSymbolTableRecord
100
AcDbLinetypeTableRecord
70
0
2
CENTER
3
____ _ ____ _ ____ _ ____
72
65
73
4
40
47.5
49
22
74
0
49
-8.5
74
0
49
8.5
74
0
49
-8.5
74
0
0
LTYPE
5
6F
100
AcDbSymbolTableRecord
100
AcDbLinetypeTableRecord
70
0
2
DASHED
3
__ __ __ __ __ __ __ __ __
72
65
73
2
40
25.72
49
12.86
74
0
49
-12.86
74
0
0
ENDTAB
0
TABLE
2
LAYER
5
2ff
100
AcDbSymbolTable
0
LAYER
5
10
100
AcDbSymbolTableRecord
100
AcDbLayerTableRecord
2
0
70
0
62
7
6
Continuous
290
1
370
-3
390
0
0
LAYER
5
71
100
AcDbSymbolTableRecord
100
AcDbLayerTableRecord
2
81
70
0
62
-3
6
Continuous
290
1
370
-3
390
0
0
LAYER
5
73
100
AcDbSymbolTableRecord
100
AcDbLayerTableRecord
2
80
70
0
62
-6
6
Continuous
290
1
370
-3
390
0
0
LAYER
5
75
100
AcDbSymbolTableRecord
100
AcDbLayerTableRecord
2
1
70
0
62
4
6
Continuous
290
1
370
-3
390
0
0
LAYER
5
82
100
AcDbSymbolTableRecord
100
AcDbLayerTableRecord
2
4
70
0
62
-2
6
CENTER
290
1
370
-3
390
0
0
LAYER
5
102
100
AcDbSymbolTableRecord
100
AcDbLayerTableRecord
2
2
70
0
62
7
6
Continuous
290
1
370
-3
390
0
0
LAYER
5
212
100
AcDbSymbolTableRecord
100
AcDbLayerTableRecord
2
Defpoints
70
0
62
7
6
Continuous
290
0
370
-3
390
0
0
LAYER
5
2e9
100
AcDbSymbolTableRecord
100
AcDbLayerTableRecord
2
SK4
70
0
62
2
6
CENTER
290
1
370
-3
390
0
0
LAYER
5
2ea
100
AcDbSymbolTableRecord
100
AcDbLayerTableRecord
2
SK1
70
0
62
4
6
Continuous
290
1
370
-3
390
0
0
LAYER
5
2eb
100
AcDbSymbolTableRecord
100
AcDbLayerTableRecord
2
SK2
70
0
62
7
6
Continuous
290
1
370
-3
390
0
0
LAYER
5
2ec
100
AcDbSymbolTableRecord
100
AcDbLayerTableRecord
2
SK6
70
0
62
5
6
Continuous
290
1
370
-3
390
0
0
ENDTAB
0
TABLE
2
STYLE
5
300
100
AcDbSymbolTable
0
STYLE
5
11
100
AcDbSymbolTableRecord
100
AcDbTextStyleTableRecord
2
Standard
3
txt
70
0
71
0
40
0
41
1
42
0
50
0
0
STYLE
5
1E4
100
AcDbSymbolTableRecord
100
AcDbTextStyleTableRecord
2
iso_b_vert
3
simplex.shx
70
0
71
0
40
0
41
1
42
0
50
0
0
STYLE
5
1E5
100
AcDbSymbolTableRecord
100
AcDbTextStyleTableRecord
2
DWGDirectTextStyle
3
simplex
70
0
71
0
40
0
41
1
42
0
50
0
0
ENDTAB
0
TABLE
2
DIMSTYLE
5
301
100
AcDbSymbolTable
100
AcDbDimStyleTable
0
DIMSTYLE
105
27
100
AcDbSymbolTableRecord
100
AcDbDimStyleTableRecord
2
Standard
70
0
3
<>
41
0.18
42
0.0625
44
0.18
140
0.18
147
0.09
73
0
74
0
77
1
271
2
275
0
278
52
280
0
340
11
0
ENDTAB
0
TABLE
2
VIEW
5
302
100
AcDbSymbolTable
0
ENDTAB
0
TABLE
2
UCS
5
303
100
AcDbSymbolTable
0
ENDTAB
0
TABLE
2
APPID
5
304
100
AcDbSymbolTable
0
APPID
5
12
100
AcDbSymbolTableRecord
100
AcDbRegAppTableRecord
2
ACAD
70
0
0
APPID
5
20E
100
AcDbSymbolTableRecord
100
AcDbRegAppTableRecord
2
ACAD_DSTYLE_DIMBREAK
70
0
0
APPID
5
2A8
100
AcDbSymbolTableRecord
100
AcDbRegAppTableRecord
2
ACAD_DSTYLE_DIM_LINETYPE
70
0
0
APPID
5
2A9
100
AcDbSymbolTableRecord
100
AcDbRegAppTableRecord
2
ACAD_DSTYLE_DIM_EXT1_LINETYPE
70
0
0
APPID
5
2AA
100
AcDbSymbolTableRecord
100
AcDbRegAppTableRecord
2
ACAD_DSTYLE_DIM_EXT2_LINETYPE
70
0
0
APPID
5
2E5
100
AcDbSymbolTableRecord
100
AcDbRegAppTableRecord
2
ACAD_MLEADERVER
70
0
0
ENDTAB
0
TABLE
2
BLOCK_RECORD
5
305
100
AcDbSymbolTable
0
BLOCK_RECORD
5
1F
100
AcDbSymbolTableRecord
100
AcDbBlockTableRecord
2
*Model_Space
340
0
70
0
0
BLOCK_RECORD
5
1B
100
AcDbSymbolTableRecord
100
AcDbBlockTableRecord
2
*Paper_Space
340
0
70
0
0
BLOCK_RECORD
5
23
100
AcDbSymbolTableRecord
100
AcDbBlockTableRecord
2
*Paper_Space0
340
0
70
0
0
BLOCK_RECORD
5
213
100
AcDbSymbolTableRecord
100
AcDbBlockTableRecord
2
*D1
340
0
70
0
0
BLOCK_RECORD
5
21F
100
AcDbSymbolTableRecord
100
AcDbBlockTableRecord
2
_U0
340
0
70
0
0
BLOCK_RECORD
5
22B
100
AcDbSymbolTableRecord
100
AcDbBlockTableRecord
2
*D3
340
0
70
0
0
BLOCK_RECORD
5
237
100
AcDbSymbolTableRecord
100
AcDbBlockTableRecord
2
_U1
340
0
70
0
0
BLOCK_RECORD
5
243
100
AcDbSymbolTableRecord
100
AcDbBlockTableRecord
2
*D5
340
0
70
0
0
BLOCK_RECORD
5
24F
100
AcDbSymbolTableRecord
100
AcDbBlockTableRecord
2
_U2
340
0
70
0
0
BLOCK_RECORD
5
25B
100
AcDbSymbolTableRecord
100
AcDbBlockTableRecord
2
*D7
340
0
70
0
0
BLOCK_RECORD
5
267
100
AcDbSymbolTableRecord
100
AcDbBlockTableRecord
2
_U3
340
0
70
0
0
BLOCK_RECORD
5
273
100
AcDbSymbolTableRecord
100
AcDbBlockTableRecord
2
*D9
340
0
70
0
0
BLOCK_RECORD
5
281
100
AcDbSymbolTableRecord
100
AcDbBlockTableRecord
2
_U4
340
0
70
0
0
ENDTAB
0
ENDSEC
0
SECTION
2
BLOCKS
0
BLOCK
5
20
100
AcDbEntity
8
0
100
AcDbBlockBegin
2
*Model_Space
70
0
10
0
20
0
30
0
3
*Model_Space
0
ENDBLK
5
21
100
AcDbEntity
8
0
100
AcDbBlockEnd
0
BLOCK
5
1C
100
AcDbEntity
8
0
100
AcDbBlockBegin
2
*Paper_Space
70
0
10
0
20
0
30
0
3
*Paper_Space
0
ENDBLK
5
1D
100
AcDbEntity
8
0
100
AcDbBlockEnd
0
BLOCK
5
24
100
AcDbEntity
8
0
100
AcDbBlockBegin
2
*Paper_Space0
70
0
10
0
20
0
30
0
3
*Paper_Space0
0
ENDBLK
5
25
100
AcDbEntity
8
0
100
AcDbBlockEnd
0
BLOCK
5
214
100
AcDbEntity
8
0
100
AcDbBlockBegin
2
*D1
70
1
10
0
20
0
30
0
3
*D1
0
LINE
5
216
100
AcDbEntity
8
0
62
256
6
ByLayer
370
-2
48
1
60
0
100
AcDbLine
10
64
20
1.5875
30
0
11
64
21
14.004659
31
0
39
0
210
0
220
0
230
1
0
LINE
5
217
100
AcDbEntity
8
0
62
256
6
ByLayer
370
-2
48
1
60
0
100
AcDbLine
10
36
20
4.864322
30
0
11
36
21
14.004659
31
0
39
0
210
0
220
0
230
1
0
LINE
5
218
100
AcDbEntity
8
0
62
256
6
ByLayer
370
-2
48
1
60
0
100
AcDbLine
10
60.5
20
12.004659
30
0
11
39.5
21
12.004659
31
0
39
0
210
0
220
0
230
1
0
SOLID
5
219
100
AcDbEntity
8
0
62
256
6
ByLayer
370
-1
48
1
60
0
100
AcDbTrace
10
60.5
20
11.421325
30
0
11
60.5
21
12.587992
31
0
12
64
22
12.004659
32
0
13
64
23
12.004659
33
0
39
0
210
0
220
0
230
1
0
SOLID
5
21A
100
AcDbEntity
8
0
62
256
6
ByLayer
370
-1
48
1
60
0
100
AcDbTrace
10
39.5
20
12.587992
30
0
11
39.5
21
11.421325
31
0
12
36
22
12.004659
32
0
13
36
23
12.004659
33
0
39
0
210
0
220
0
230
1
0
MTEXT
5
21B
100
AcDbEntity
8
0
62
256
6
ByLayer
370
18
48
1
60
0
100
AcDbMText
10
50
20
18.004659
30
0
210
0
220
0
230
1
1
\A1;28
40
3
41
0
44
1
50
0
71
5
72
5
7
iso_b_vert
0
POINT
5
21C
100
AcDbEntity
8
Defpoints
62
0
6
ByLayer
370
-1
48
1
60
0
100
AcDbPoint
10
64
20
0
30
0
39
0
210
0
220
0
230
1
50
360
0
POINT
5
21D
100
AcDbEntity
8
Defpoints
62
0
6
ByLayer
370
-1
48
1
60
0
100
AcDbPoint
10
36
20
3.276822
30
0
39
0
210
0
220
0
230
1
50
360
0
POINT
5
21E
100
AcDbEntity
8
Defpoints
62
0
6
ByLayer
370
-1
48
1
60
0
100
AcDbPoint
10
36
20
12.004659
30
0
39
0
210
0
220
0
230
1
50
360
0
ENDBLK
5
215
100
AcDbEntity
8
0
100
AcDbBlockEnd
0
BLOCK
5
226
100
AcDbEntity
8
0
100
AcDbBlockBegin
2
_U0
70
0
10
0
20
0
30
0
3
_U0
0
MTEXT
5
220
100
AcDbEntity
8
2
62
256
6
ByLayer
370
18
48
1
60
0
100
AcDbMText
10
48.367172
20
12.889773
30
0
210
0
220
0
230
1
1
\W0.6740;28
40
3
41
0
44
1.084337
50
0
71
7
72
5
7
iso_b_vert
0
LINE
5
221
100
AcDbEntity
8
2
62
256
6
ByLayer
370
13
48
1
60
0
100
AcDbLine
10
64
20
1.5875
30
0
11
64
21
14.004659
31
0
39
0
210
0
220
0
230
1
0
LINE
5
222
100
AcDbEntity
8
2
62
256
6
ByLayer
370
13
48
1
60
0
100
AcDbLine
10
36
20
4.864322
30
0
11
36
21
14.004659
31
0
39
0
210
0
220
0
230
1
0
LINE
5
223
100
AcDbEntity
8
2
62
256
6
ByLayer
370
13
48
1
60
0
100
AcDbLine
10
64
20
12.004659
30
0
11
36
21
12.004659
31
0
39
0
210
0
220
0
230
1
0
SOLID
5
224
100
AcDbEntity
8
2
62
256
6
ByLayer
370
18
48
1
60
0
100
AcDbTrace
10
64
20
12.004659
30
0
11
60.500002
21
11.543875
31
0
12
60.499998
22
12.465442
32
0
13
60.499998
23
12.465442
33
0
39
0
210
0
220
0
230
1
0
SOLID
5
225
100
AcDbEntity
8
2
62
256
6
ByLayer
370
18
48
1
60
0
100
AcDbTrace
10
36
20
12.004659
30
0
11
39.499998
21
12.465442
31
0
12
39.500002
22
11.543875
32
0
13
39.500002
23
11.543875
33
0
39
0
210
0
220
0
230
1
0
ENDBLK
5
227
100
AcDbEntity
8
0
100
AcDbBlockEnd
0
BLOCK
5
22C
100
AcDbEntity
8
0
100
AcDbBlockBegin
2
*D3
70
1
10
0
20
0
30
0
3
*D3
0
LINE
5
22E
100
AcDbEntity
8
0
62
256
6
ByLayer
370
-2
48
1
60
0
100
AcDbLine
10
64
20
1.5875
30
0
11
64
21
24.004659
31
0
39
0
210
0
220
0
230
1
0
LINE
5
22F
100
AcDbEntity
8
0
62
256
6
ByLayer
370
-2
48
1
60
0
100
AcDbLine
10
15.981335
20
5.5875
30
0
11
15.981335
21
24.004659
31
0
39
0
210
0
220
0
230
1
0
LINE
5
230
100
AcDbEntity
8
0
62
256
6
ByLayer
370
-2
48
1
60
0
100
AcDbLine
10
60.5
20
22.004659
30
0
11
19.481335
21
22.004659
31
0
39
0
210
0
220
0
230
1
0
SOLID
5
231
100
AcDbEntity
8
0
62
256
6
ByLayer
370
-1
48
1
60
0
100
AcDbTrace
10
60.5
20
21.421325
30
0
11
60.5
21
22.587992
31
0
12
64
22
22.004659
32
0
13
64
23
22.004659
33
0
39
0
210
0
220
0
230
1
0
SOLID
5
232
100
AcDbEntity
8
0
62
256
6
ByLayer
370
-1
48
1
60
0
100
AcDbTrace
10
19.481335
20
22.587992
30
0
11
19.481335
21
21.421325
31
0
12
15.981335
22
22.004659
32
0
13
15.981335
23
22.004659
33
0
39
0
210
0
220
0
230
1
0
MTEXT
5
233
100
AcDbEntity
8
0
62
256
6
ByLayer
370
18
48
1
60
0
100
AcDbMText
10
39.990668
20
28.004659
30
0
210
0
220
0
230
1
1
\A1;48.02
40
3
41
0
44
1
50
0
71
5
72
5
7
iso_b_vert
0
POINT
5
234
100
AcDbEntity
8
Defpoints
62
0
6
ByLayer
370
-1
48
1
60
0
100
AcDbPoint
10
64
20
0
30
0
39
0
210
0
220
0
230
1
50
360
0
POINT
5
235
100
AcDbEntity
8
Defpoints
62
0
6
ByLayer
370
-1
48
1
60
0
100
AcDbPoint
10
15.981335
20
4
30
0
39
0
210
0
220
0
230
1
50
360
0
POINT
5
236
100
AcDbEntity
8
Defpoints
62
0
6
ByLayer
370
-1
48
1
60
0
100
AcDbPoint
10
15.981335
20
22.004659
30
0
39
0
210
0
220
0
230
1
50
360
0
ENDBLK
5
22D
100
AcDbEntity
8
0
100
AcDbBlockEnd
0
BLOCK
5
23E
100
AcDbEntity
8
0
100
AcDbBlockBegin
2
_U1
70
0
10
0
20
0
30
0
3
_U1
0
MTEXT
5
238
100
AcDbEntity
8
2
62
256
6
ByLayer
370
18
48
1
60
0
100
AcDbMText
10
38.199897
20
22.889773
30
0
210
0
220
0
230
1
1
\W0.7361;48
40
3
41
0
44
1.084337
50
0
71
7
72
5
7
iso_b_vert
0
LINE
5
239
100
AcDbEntity
8
2
62
256
6
ByLayer
370
13
48
1
60
0
100
AcDbLine
10
64
20
1.5875
30
0
11
64
21
24.004659
31
0
39
0
210
0
220
0
230
1
0
LINE
5
23A
100
AcDbEntity
8
2
62
256
6
ByLayer
370
13
48
1
60
0
100
AcDbLine
10
15.981335
20
5.5875
30
0
11
15.981335
21
24.004659
31
0
39
0
210
0
220
0
230
1
0
LINE
5
23B
100
AcDbEntity
8
2
62
256
6
ByLayer
370
13
48
1
60
0
100
AcDbLine
10
64
20
22.004659
30
0
11
15.981335
21
22.004659
31
0
39
0
210
0
220
0
230
1
0
SOLID
5
23C
100
AcDbEntity
8
2
62
256
6
ByLayer
370
18
48
1
60
0
100
AcDbTrace
10
64
20
22.004659
30
0
11
60.500002
21
21.543875
31
0
12
60.499998
22
22.465442
32
0
13
60.499998
23
22.465442
33
0
39
0
210
0
220
0
230
1
0
SOLID
5
23D
100
AcDbEntity
8
2
62
256
6
ByLayer
370
18
48
1
60
0
100
AcDbTrace
10
15.981335
20
22.004659
30
0
11
19.481334
21
22.465442
31
0
12
19.481337
22
21.543875
32
0
13
19.481337
23
21.543875
33
0
39
0
210
0
220
0
230
1
0
ENDBLK
5
23F
100
AcDbEntity
8
0
100
AcDbBlockEnd
0
BLOCK
5
244
100
AcDbEntity
8
0
100
AcDbBlockBegin
2
*D5
70
1
10
0
20
0
30
0
3
*D5
0
LINE
5
246
100
AcDbEntity
8
0
62
256
6
ByLayer
370
-2
48
1
60
0
100
AcDbLine
10
64
20
1.5875
30
0
11
64
21
34.004659
31
0
39
0
210
0
220
0
230
1
0
LINE
5
247
100
AcDbEntity
8
0
62
256
6
ByLayer
370
-2
48
1
60
0
100
AcDbLine
10
-36
20
1.5875
30
0
11
-36
21
34.004659
31
0
39
0
210
0
220
0
230
1
0
LINE
5
248
100
AcDbEntity
8
0
62
256
6
ByLayer
370
-2
48
1
60
0
100
AcDbLine
10
60.5
20
32.004659
30
0
11
-32.5
21
32.004659
31
0
39
0
210
0
220
0
230
1
0
SOLID
5
249
100
AcDbEntity
8
0
62
256
6
ByLayer
370
-1
48
1
60
0
100
AcDbTrace
10
60.5
20
31.421325
30
0
11
60.5
21
32.587992
31
0
12
64
22
32.004659
32
0
13
64
23
32.004659
33
0
39
0
210
0
220
0
230
1
0
SOLID
5
24A
100
AcDbEntity
8
0
62
256
6
ByLayer
370
-1
48
1
60
0
100
AcDbTrace
10
-32.5
20
32.587992
30
0
11
-32.5
21
31.421325
31
0
12
-36
22
32.004659
32
0
13
-36
23
32.004659
33
0
39
0
210
0
220
0
230
1
0
MTEXT
5
24B
100
AcDbEntity
8
0
62
256
6
ByLayer
370
18
48
1
60
0
100
AcDbMText
10
14
20
38.004659
30
0
210
0
220
0
230
1
1
\A1;100
40
3
41
0
44
1
50
0
71
5
72
5
7
iso_b_vert
0
POINT
5
24C
100
AcDbEntity
8
Defpoints
62
0
6
ByLayer
370
-1
48
1
60
0
100
AcDbPoint
10
64
20
0
30
0
39
0
210
0
220
0
230
1
50
360
0
POINT
5
24D
100
AcDbEntity
8
Defpoints
62
0
6
ByLayer
370
-1
48
1
60
0
100
AcDbPoint
10
-36
20
0
30
0
39
0
210
0
220
0
230
1
50
360
0
POINT
5
24E
100
AcDbEntity
8
Defpoints
62
0
6
ByLayer
370
-1
48
1
60
0
100
AcDbPoint
10
-36
20
32.004659
30
0
39
0
210
0
220
0
230
1
50
360
0
ENDBLK
5
245
100
AcDbEntity
8
0
100
AcDbBlockEnd
0
BLOCK
5
256
100
AcDbEntity
8
0
100
AcDbBlockBegin
2
_U2
70
0
10
0
20
0
30
0
3
_U2
0
MTEXT
5
250
100
AcDbEntity
8
SK2
62
256
6
ByLayer
370
18
48
1
60
0
100
AcDbMText
10
11.621201
20
32.889773
30
0
210
0
220
0
230
1
1
\W0.6217;100
40
3
41
0
44
1.084337
50
0
71
7
72
5
7
iso_b_vert
0
LINE
5
251
100
AcDbEntity
8
SK2
62
256
6
ByLayer
370
13
48
1
60
0
100
AcDbLine
10
64
20
1.5875
30
0
11
64
21
34.004659
31
0
39
0
210
0
220
0
230
1
0
LINE
5
252
100
AcDbEntity
8
SK2
62
256
6
ByLayer
370
13
48
1
60
0
100
AcDbLine
10
-36
20
1.5875
30
0
11
-36
21
34.004659
31
0
39
0
210
0
220
0
230
1
0
LINE
5
253
100
AcDbEntity
8
SK2
62
256
6
ByLayer
370
13
48
1
60
0
100
AcDbLine
10
64
20
32.004659
30
0
11
-36
21
32.004659
31
0
39
0
210
0
220
0
230
1
0
SOLID
5
254
100
AcDbEntity
8
SK2
62
256
6
ByLayer
370
18
48
1
60
0
100
AcDbTrace
10
64
20
32.004659
30
0
11
60.500002
21
31.543875
31
0
12
60.499998
22
32.465442
32
0
13
60.499998
23
32.465442
33
0
39
0
210
0
220
0
230
1
0
SOLID
5
255
100
AcDbEntity
8
SK2
62
256
6
ByLayer
370
18
48
1
60
0
100
AcDbTrace
10
-36
20
32.004659
30
0
11
-32.500002
21
32.465442
31
0
12
-32.499998
22
31.543875
32
0
13
-32.499998
23
31.543875
33
0
39
0
210
0
220
0
230
1
0
ENDBLK
5
257
100
AcDbEntity
8
0
100
AcDbBlockEnd
0
BLOCK
5
25C
100
AcDbEntity
8
0
100
AcDbBlockBegin
2
*D7
70
1
10
0
20
0
30
0
3
*D7
0
LINE
5
25E
100
AcDbEntity
8
0
62
256
6
ByLayer
370
-2
48
1
60
0
100
AcDbLine
10
-36
20
-1.5875
30
0
11
-36
21
-19.66959
31
0
39
0
210
0
220
0
230
1
0
LINE
5
25F
100
AcDbEntity
8
0
62
256
6
ByLayer
370
-2
48
1
60
0
100
AcDbLine
10
0.6
20
-5.5875
30
0
11
0.6
21
-19.66959
31
0
39
0
210
0
220
0
230
1
0
LINE
5
260
100
AcDbEntity
8
0
62
256
6
ByLayer
370
-2
48
1
60
0
100
AcDbLine
10
-32.5
20
-17.66959
30
0
11
-2.9
21
-17.66959
31
0
39
0
210
0
220
0
230
1
0
SOLID
5
261
100
AcDbEntity
8
0
62
256
6
ByLayer
370
-1
48
1
60
0
100
AcDbTrace
10
-32.5
20
-17.086257
30
0
11
-32.5
21
-18.252923
31
0
12
-36
22
-17.66959
32
0
13
-36
23
-17.66959
33
0
39
0
210
0
220
0
230
1
0
SOLID
5
262
100
AcDbEntity
8
0
62
256
6
ByLayer
370
-1
48
1
60
0
100
AcDbTrace
10
-2.9
20
-18.252923
30
0
11
-2.9
21
-17.086257
31
0
12
0.6
22
-17.66959
32
0
13
0.6
23
-17.66959
33
0
39
0
210
0
220
0
230
1
0
MTEXT
5
263
100
AcDbEntity
8
0
62
256
6
ByLayer
370
18
48
1
60
0
100
AcDbMText
10
-17.7
20
-11.66959
30
0
210
0
220
0
230
1
1
\A1;36.6
40
3
41
0
44
1
50
0
71
5
72
5
7
iso_b_vert
0
POINT
5
264
100
AcDbEntity
8
Defpoints
62
0
6
ByLayer
370
-1
48
1
60
0
100
AcDbPoint
10
-36
20
0
30
0
39
0
210
0
220
0
230
1
50
360
0
POINT
5
265
100
AcDbEntity
8
Defpoints
62
0
6
ByLayer
370
-1
48
1
60
0
100
AcDbPoint
10
0.6
20
-4
30
0
39
0
210
0
220
0
230
1
50
360
0
POINT
5
266
100
AcDbEntity
8
Defpoints
62
0
6
ByLayer
370
-1
48
1
60
0
100
AcDbPoint
10
0.6
20
-17.66959
30
0
39
0
210
0
220
0
230
1
50
360
0
ENDBLK
5
25D
100
AcDbEntity
8
0
100
AcDbBlockEnd
0
BLOCK
5
26E
100
AcDbEntity
8
0
100
AcDbBlockBegin
2
_U3
70
0
10
0
20
0
30
0
3
_U3
0
MTEXT
5
268
100
AcDbEntity
8
SK2
62
256
6
ByLayer
370
18
48
1
60
0
100
AcDbMText
10
-25.264913
20
-16.784476
30
0
210
0
220
0
230
1
1
\W0.7245;(MIN. 36)
40
3
41
0
44
1.084337
50
0
71
7
72
5
7
iso_b_vert
0
LINE
5
269
100
AcDbEntity
8
SK2
62
256
6
ByLayer
370
13
48
1
60
0
100
AcDbLine
10
-36
20
-1.5875
30
0
11
-36
21
-19.66959
31
0
39
0
210
0
220
0
230
1
0
LINE
5
26A
100
AcDbEntity
8
SK2
62
256
6
ByLayer
370
13
48
1
60
0
100
AcDbLine
10
0.6
20
-5.5875
30
0
11
0.6
21
-19.66959
31
0
39
0
210
0
220
0
230
1
0
LINE
5
26B
100
AcDbEntity
8
SK2
62
256
6
ByLayer
370
13
48
1
60
0
100
AcDbLine
10
-36
20
-17.66959
30
0
11
0.6
21
-17.66959
31
0
39
0
210
0
220
0
230
1
0
SOLID
5
26C
100
AcDbEntity
8
SK2
62
256
6
ByLayer
370
18
48
1
60
0
100
AcDbTrace
10
-36
20
-17.66959
30
0
11
-32.500002
21
-17.208806
31
0
12
-32.499998
22
-18.130374
32
0
13
-32.499998
23
-18.130374
33
0
39
0
210
0
220
0
230
1
0
SOLID
5
26D
100
AcDbEntity
8
SK2
62
256
6
ByLayer
370
18
48
1
60
0
100
AcDbTrace
10
0.6
20
-17.66959
30
0
11
-2.899998
21
-18.130374
31
0
12
-2.900002
22
-17.208806
32
0
13
-2.900002
23
-17.208806
33
0
39
0
210
0
220
0
230
1
0
ENDBLK
5
26F
100
AcDbEntity
8
0
100
AcDbBlockEnd
0
BLOCK
5
274
100
AcDbEntity
8
0
100
AcDbBlockBegin
2
*D9
70
1
10
0
20
0
30
0
3
*D9
0
LINE
5
276
100
AcDbEntity
8
0
62
256
6
ByLayer
370
-2
48
1
60
0
100
AcDbLine
10
64
20
-1.5875
30
0
11
64
21
-13.5
31
0
39
0
210
0
220
0
230
1
0
LINE
5
277
100
AcDbEntity
8
0
62
256
6
ByLayer
370
-2
48
1
60
0
100
AcDbLine
10
57.706
20
1.689322
30
0
11
57.706
21
-13.5
31
0
39
0
210
0
220
0
230
1
0
LINE
5
278
100
AcDbEntity
8
0
62
256
6
ByLayer
370
-2
48
1
60
0
100
AcDbLine
10
64
20
-11.5
30
0
11
88.857143
21
-11.5
31
0
39
0
210
0
220
0
230
1
0
LINE
5
279
100
AcDbEntity
8
0
62
256
6
ByLayer
370
-2
48
1
60
0
100
AcDbLine
10
67.5
20
-11.5
30
0
11
71
21
-11.5
31
0
39
0
210
0
220
0
230
1
0
LINE
5
27A
100
AcDbEntity
8
0
62
256
6
ByLayer
370
-2
48
1
60
0
100
AcDbLine
10
54.206
20
-11.5
30
0
11
50.706
21
-11.5
31
0
39
0
210
0
220
0
230
1
0
SOLID
5
27B
100
AcDbEntity
8
0
62
256
6
ByLayer
370
-1
48
1
60
0
100
AcDbTrace
10
67.5
20
-10.916667
30
0
11
67.5
21
-12.083333
31
0
12
64
22
-11.5
32
0
13
64
23
-11.5
33
0
39
0
210
0
220
0
230
1
0
SOLID
5
27C
100
AcDbEntity
8
0
62
256
6
ByLayer
370
-1
48
1
60
0
100
AcDbTrace
10
54.206
20
-12.083333
30
0
11
54.206
21
-10.916667
31
0
12
57.706
22
-11.5
32
0
13
57.706
23
-11.5
33
0
39
0
210
0
220
0
230
1
0
MTEXT
5
27D
100
AcDbEntity
8
0
62
256
6
ByLayer
370
18
48
1
60
0
100
AcDbMText
10
79.928571
20
-5.5
30
0
210
0
220
0
230
1
1
\A1;6.29
40
3
41
0
44
1
50
0
71
5
72
5
7
iso_b_vert
0
POINT
5
27E
100
AcDbEntity
8
Defpoints
62
0
6
ByLayer
370
-1
48
1
60
0
100
AcDbPoint
10
64
20
0
30
0
39
0
210
0
220
0
230
1
50
360
0
POINT
5
27F
100
AcDbEntity
8
Defpoints
62
0
6
ByLayer
370
-1
48
1
60
0
100
AcDbPoint
10
57.706
20
3.276822
30
0
39
0
210
0
220
0
230
1
50
360
0
POINT
5
280
100
AcDbEntity
8
Defpoints
62
0
6
ByLayer
370
-1
48
1
60
0
100
AcDbPoint
10
57.706
20
-11.5
30
0
39
0
210
0
220
0
230
1
50
360
0
ENDBLK
5
275
100
AcDbEntity
8
0
100
AcDbBlockEnd
0
BLOCK
5
288
100
AcDbEntity
8
0
100
AcDbBlockBegin
2
_U4
70
0
10
0
20
0
30
0
3
_U4
0
MTEXT
5
282
100
AcDbEntity
8
SK2
62
256
6
ByLayer
370
18
48
1
60
0
100
AcDbMText
10
74.159
20
-10.614886
30
0
210
0
220
0
230
1
1
\W0.7457;6.29
40
3
41
0
44
1.084337
50
0
71
7
72
5
7
iso_b_vert
0
LINE
5
283
100
AcDbEntity
8
SK2
62
256
6
ByLayer
370
13
48
1
60
0
100
AcDbLine
10
64
20
-1.5875
30
0
11
64
21
-13.5
31
0
39
0
210
0
220
0
230
1
0
LINE
5
284
100
AcDbEntity
8
SK2
62
256
6
ByLayer
370
13
48
1
60
0
100
AcDbLine
10
57.706
20
1.689322
30
0
11
57.706
21
-13.5
31
0
39
0
210
0
220
0
230
1
0
LINE
5
285
100
AcDbEntity
8
SK2
62
256
6
ByLayer
370
13
48
1
60
0
100
AcDbLine
10
50.206
20
-11.5
30
0
11
81.040913
21
-11.5
31
0
39
0
210
0
220
0
230
1
0
SOLID
5
286
100
AcDbEntity
8
SK2
62
256
6
ByLayer
370
18
48
1
60
0
100
AcDbTrace
10
64
20
-11.5
30
0
11
67.499998
21
-11.039216
31
0
12
67.500002
22
-11.960784
32
0
13
67.500002
23
-11.960784
33
0
39
0
210
0
220
0
230
1
0
SOLID
5
287
100
AcDbEntity
8
SK2
62
256
6
ByLayer
370
18
48
1
60
0
100
AcDbTrace
10
57.706
20
-11.5
30
0
11
54.206002
21
-11.960784
31
0
12
54.205998
22
-11.039216
32
0
13
54.205998
23
-11.039216
33
0
39
0
210
0
220
0
230
1
0
ENDBLK
5
289
100
AcDbEntity
8
0
100
AcDbBlockEnd
0
ENDSEC
0
SECTION
2
ENTITIES
0
ARC
5
113
100
AcDbEntity
8
81
62
256
6
ByLayer
370
18
48
1
60
0
100
AcDbCircle
39
0
10
57.518158
20
-3.478349
30
0
40
0.290101595315721
210
0
220
0
230
1
100
AcDbArc
50
49.844099
51
90
0
ARC
5
114
100
AcDbEntity
8
81
62
256
6
ByLayer
370
18
48
1
60
0
100
AcDbCircle
39
0
10
57.518158
20
3.478349
30
0
40
0.290101595315721
210
0
220
0
230
1
100
AcDbArc
50
270
51
310.155901
0
ARC
5
115
100
AcDbEntity
8
81
62
256
6
ByLayer
370
18
48
1
60
0
100
AcDbCircle
39
0
10
57.218158
20
-9.500632
30
0
40
6.31238380496628
210
0
220
0
230
1
100
AcDbArc
50
90
51
99.609572
0
ARC
5
116
100
AcDbEntity
8
81
62
256
6
ByLayer
370
18
48
1
60
0
100
AcDbCircle
39
0
10
57.218158
20
9.500632
30
0
40
6.31238380496628
210
0
220
0
230
1
100
AcDbArc
50
260.390428
51
270
0
ARC
5
117
100
AcDbEntity
8
81
62
256
6
ByLayer
370
18
48
1
60
0
100
AcDbCircle
39
0
10
60
20
0
30
0
40
3.984
210
0
220
0
230
1
100
AcDbArc
50
82.755428
51
125.155901
0
ARC
5
118
100
AcDbEntity
8
81
62
256
6
ByLayer
370
18
48
1
60
0
100
AcDbCircle
39
0
10
60
20
0
30
0
40
3.984
210
0
220
0
230
1
100
AcDbArc
50
359.999999
51
76.180835
0
ARC
5
119
100
AcDbEntity
8
81
62
256
6
ByLayer
370
18
48
1
60
0
100
AcDbCircle
39
0
10
60
20
0
30
0
40
3.984
210
0
220
0
230
1
100
AcDbArc
50
275.29292
51
359.112173
0
ARC
5
11A
100
AcDbEntity
8
81
62
256
6
ByLayer
370
18
48
1
60
0
100
AcDbCircle
39
0
10
60
20
0
30
0
40
3.984
210
0
220
0
230
1
100
AcDbArc
50
234.844099
51
262.558315
0
ARC
5
11B
100
AcDbEntity
8
1
62
256
6
ByLayer
370
18
48
1
60
0
100
AcDbCircle
39
0
10
35.999417
20
4.2765
30
0
40
1
210
0
220
0
230
1
100
AcDbArc
50
267.928229
51
270
0
ARC
5
11C
100
AcDbEntity
8
1
62
256
6
ByLayer
370
18
48
1
60
0
100
AcDbCircle
39
0
10
35.999417
20
-4.2765
30
0
40
1
210
0
220
0
230
1
100
AcDbArc
50
90
51
92.071771
0
ARC
5
11D
100
AcDbEntity
8
SK2
62
256
6
ByLayer
370
13
48
1
60
0
100
AcDbCircle
39
0
10
126.707443
20
0
30
0
40
123.617748213282
210
0
220
0
230
1
100
AcDbArc
50
177.93108
51
183.471931
0
ARC
5
11E
100
AcDbEntity
8
SK2
62
256
6
ByLayer
370
13
48
1
60
0
100
AcDbCircle
39
0
10
126.707443
20
0
30
0
40
123.617748213282
210
0
220
0
230
1
100
AcDbArc
50
171.880482
51
177.93108
0
ELLIPSE
5
11F
100
AcDbEntity
8
1
62
256
6
ByLayer
370
18
48
1
60
0
100
AcDbEllipse
10
63.722894
20
0.726037
30
0
11
0.128115772478504
21
0.201424432273861
31
0
210
0
220
0
230
1
40
0.08864
41
1.3279958965177
42
2.0489019656099
0
ELLIPSE
5
120
100
AcDbEntity
8
1
62
256
6
ByLayer
370
18
48
1
60
0
100
AcDbEllipse
10
63.725692
20
-0.902198
30
0
11
0.120082891079572
21
-0.202557811547558
31
0
210
0
220
0
230
1
40
0.117396
41
2.23612880563926
42
-1.90902816784674
0
ELLIPSE
5
121
100
AcDbEntity
8
1
62
256
6
ByLayer
370
18
48
1
60
0
100
AcDbEllipse
10
63.722894
20
-0.714997
30
0
11
0.127848831509106
21
-0.201239753988995
31
0
210
0
220
0
230
1
40
0.097768
41
2.89150552121652
42
-1.3039670748065
0
ELLIPSE
5
122
100
AcDbEntity
8
1
62
256
6
ByLayer
370
18
48
1
60
0
100
AcDbEllipse
10
56.368292
20
-12.957549
30
0
11
6.77859849989247
21
8.0115904597816
31
0
210
0
220
0
230
1
40
0.894024
41
0.642978331346131
42
0.728715300532418
0
ELLIPSE
5
123
100
AcDbEntity
8
1
62
256
6
ByLayer
370
18
48
1
60
0
100
AcDbEllipse
10
56.452532
20
5.237208
30
0
11
-10.0353596636449
21
3.73506166143505
31
0
210
0
220
0
230
1
40
0.196399
41
1.68094364678466
42
1.75592787889037
0
ELLIPSE
5
124
100
AcDbEntity
8
1
62
256
6
ByLayer
370
18
48
1
60
0
100
AcDbEllipse
10
56.368292
20
5.010874
30
0
11
-9.83538262264979
21
3.66063218366616
31
0
210
0
220
0
230
1
40
0.196399
41
1.67291281420339
42
1.75864978338977
0
ELLIPSE
5
125
100
AcDbEntity
8
1
62
256
6
ByLayer
370
18
48
1
60
0
100
AcDbEllipse
10
56.452532
20
-13.028824
30
0
11
6.91642375002387
21
8.17448540909704
31
0
210
0
220
0
230
1
40
0.894024
41
0.645700235845492
42
0.720684467951302
0
ELLIPSE
5
126
100
AcDbEntity
8
1
62
256
6
ByLayer
370
18
48
1
60
0
100
AcDbEllipse
10
56.368292
20
-7.764413
30
0
11
-9.26098404941464
21
4.93651230673032
31
0
210
0
220
0
230
1
40
0.686532
41
-1.33486735906604
42
-1.24913038987968
0
ELLIPSE
5
127
100
AcDbEntity
8
1
62
256
6
ByLayer
370
18
48
1
60
0
100
AcDbEllipse
10
63.936994
20
0
30
0
11
10.2077488249432
21
-0.187557056224711
31
0
210
0
220
0
230
1
40
0.320455
41
-2.6242400466195
42
-2.26662658016632
0
ELLIPSE
5
128
100
AcDbEntity
8
1
62
256
6
ByLayer
370
18
48
1
60
0
100
AcDbEllipse
10
63.936994
20
0
30
0
11
10.2004940089298
21
-2.99626355920729
31
0
210
0
220
0
230
1
40
0.129978
41
-2.59196713220859
42
-2.23435366576693
0
ELLIPSE
5
129
100
AcDbEntity
8
1
62
256
6
ByLayer
370
18
48
1
60
0
100
AcDbEllipse
10
56.452532
20
-7.606378
30
0
11
-9.4492821825895
21
5.03688350344032
31
0
210
0
220
0
230
1
40
0.686532
41
-1.33214545456665
42
-1.25716122246094
0
ELLIPSE
5
12A
100
AcDbEntity
8
1
62
256
6
ByLayer
370
18
48
1
60
0
100
AcDbEllipse
10
63.936994
20
0
30
0
11
10.1975930974679
21
-2.82700784567523
31
0
210
0
220
0
230
1
40
0.162425
41
2.31751213996362
42
2.61160456499159
0
ELLIPSE
5
12B
100
AcDbEntity
8
1
62
256
6
ByLayer
370
18
48
1
60
0
100
AcDbEllipse
10
63.936994
20
0
30
0
11
10.197214866532
21
2.79906131069909
31
0
210
0
220
0
230
1
40
0.167021
41
-2.44554949397859
42
-2.36966277530864
0
ELLIPSE
5
12C
100
AcDbEntity
8
1
62
256
6
ByLayer
370
18
48
1
60
0
100
AcDbEllipse
10
63.936994
20
0
30
0
11
10.197214866532
21
2.79906131069909
31
0
210
0
220
0
230
1
40
0.167021
41
-2.67594192271621
42
-2.48212094748938
0
POINT
5
70
100
AcDbEntity
8
81
62
256
6
ByLayer
370
18
48
1
60
0
100
AcDbPoint
10
64
20
0
30
0
39
0
210
0
220
0
230
1
50
360
0
POINT
5
72
100
AcDbEntity
8
80
62
256
6
ByLayer
370
18
48
1
60
0
100
AcDbPoint
10
0
20
0
30
0
39
0
210
0
220
0
230
1
50
360
0
POINT
5
74
100
AcDbEntity
8
1
62
256
6
ByLayer
370
18
48
1
60
1
100
AcDbPoint
10
64
20
0
30
0
39
0
210
0
220
0
230
1
50
360
0
POINT
5
76
100
AcDbEntity
8
1
62
256
6
ByLayer
370
18
48
1
60
1
100
AcDbPoint
10
36
20
3.276822
30
0
39
0
210
0
220
0
230
1
50
360
0
POINT
5
77
100
AcDbEntity
8
1
62
256
6
ByLayer
370
18
48
1
60
1
100
AcDbPoint
10
64
20
0
30
0
39
0
210
0
220
0
230
1
50
360
0
POINT
5
78
100
AcDbEntity
8
1
62
256
6
ByLayer
370
18
48
1
60
1
100
AcDbPoint
10
15.981335
20
4
30
0
39
0
210
0
220
0
230
1
50
360
0
POINT
5
79
100
AcDbEntity
8
1
62
256
6
ByLayer
370
18
48
1
60
1
100
AcDbPoint
10
64
20
0
30
0
39
0
210
0
220
0
230
1
50
360
0
POINT
5
7A
100
AcDbEntity
8
1
62
256
6
ByLayer
370
18
48
1
60
1
100
AcDbPoint
10
-36
20
0
30
0
39
0
210
0
220
0
230
1
50
360
0
POINT
5
7B
100
AcDbEntity
8
1
62
256
6
ByLayer
370
18
48
1
60
1
100
AcDbPoint
10
-36
20
0
30
0
39
0
210
0
220
0
230
1
50
360
0
POINT
5
7C
100
AcDbEntity
8
1
62
256
6
ByLayer
370
18
48
1
60
1
100
AcDbPoint
10
0.6
20
-4
30
0
39
0
210
0
220
0
230
1
50
360
0
POINT
5
7D
100
AcDbEntity
8
1
62
256
6
ByLayer
370
18
48
1
60
1
100
AcDbPoint
10
64
20
0
30
0
39
0
210
0
220
0
230
1
50
360
0
POINT
5
7E
100
AcDbEntity
8
1
62
256
6
ByLayer
370
18
48
1
60
1
100
AcDbPoint
10
57.706
20
3.276822
30
0
39
0
210
0
220
0
230
1
50
360
0
SPLINE
5
12D
100
AcDbEntity
8
1
62
256
6
ByLayer
370
18
48
1
60
0
100
AcDbSpline
70
4
71
3
72
8
73
4
40
0
40
0
40
0
40
0
40
1
40
1
40
1
40
1
41
1
10
63.6915009977804
20
-0.582053373602349
30
0
41
1
10
63.6795392159121
20
-0.601811704931407
30
0
41
1
10
63.6674193339572
20
-0.621657881798342
30
0
41
1
10
63.6551465699839
20
-0.641584478150236
30
0
0
SPLINE
5
12E
100
AcDbEntity
8
1
62
256
6
ByLayer
370
18
48
1
60
0
100
AcDbSpline
70
4
71
3
72
8
73
4
40
0
40
0
40
0
40
0
40
1
40
1
40
1
40
1
41
1
10
63.9818028454751
20
-0.0588169856289085
30
0
41
1
10
63.9837229083788
20
-0.0590067208551091
30
0
41
1
10
63.9856319118329
20
-0.0591964899171273
30
0
41
1
10
63.987529920835
20
-0.059386292616125
30
0
0
SPLINE
5
12F
100
AcDbEntity
8
1
62
256
6
ByLayer
370
18
48
1
60
0
100
AcDbSpline
70
4
71
3
72
8
73
4
40
0
40
0
40
0
40
0
40
1
40
1
40
1
40
1
41
1
10
63.7363655397182
20
0.785487298637548
30
0
41
1
10
63.736594842506
20
0.787089313031771
30
0
41
1
10
63.7368124999838
20
0.788673606713758
30
0
41
1
10
63.7370184094733
20
0.790240023437917
30
0
0
SPLINE
5
130
100
AcDbEntity
8
1
62
256
6
ByLayer
370
18
48
1
60
0
100
AcDbSpline
70
4
71
3
72
8
73
4
40
0
40
0
40
0
40
0
40
1
40
1
40
1
40
1
41
1
10
63.8410203278921
20
0.987004546352324
30
0
41
1
10
63.844100847796
20
0.976223210797713
30
0
41
1
10
63.8471303118172
20
0.965433507094815
30
0
41
1
10
63.8501086478826
20
0.954635423430773
30
0
0
SPLINE
5
131
100
AcDbEntity
8
1
62
256
6
ByLayer
370
18
48
1
60
0
100
AcDbSpline
70
4
71
3
72
8
73
4
40
0
40
0
40
0
40
0
40
1
40
1
40
1
40
1
41
1
10
63.7370184094712
20
0.790240023443744
30
0
41
1
10
63.7154768503515
20
0.843668746859152
30
0
41
1
10
63.6935561153196
20
0.896985798777507
30
0
41
1
10
63.6712430297688
20
0.950177114477725
30
0
0
SPLINE
5
132
100
AcDbEntity
8
1
62
256
6
ByLayer
370
18
48
1
60
0
100
AcDbSpline
70
4
71
3
72
8
73
4
40
0
40
0
40
0
40
0
40
1
40
1
40
1
40
1
41
1
10
63.7965523753121
20
1.12698106567294
30
0
41
1
10
63.8122635433056
20
1.08052272268645
30
0
41
1
10
63.8270870963124
20
1.03386408648456
30
0
41
1
10
63.8410203278928
20
0.987004546350988
30
0
0
SPLINE
5
133
100
AcDbEntity
8
1
62
256
6
ByLayer
370
18
48
1
60
0
100
AcDbSpline
70
4
71
3
72
8
73
4
40
0
40
0
40
0
40
0
40
1
40
1
40
1
40
1
41
1
10
63.6712430297688
20
0.950177114477725
30
0
41
1
10
63.6872684685043
20
0.910166069010444
30
0
41
1
10
63.7031681474094
20
0.870114539863096
30
0
41
1
10
63.7189448689988
20
0.830023429200565
30
0
0
SPLINE
5
134
100
AcDbEntity
8
1
62
256
6
ByLayer
370
18
48
1
60
0
100
AcDbSpline
70
4
71
3
72
8
73
4
40
0
40
0
40
0
40
0
40
1
40
1
40
1
40
1
41
1
10
63.7363655397183
20
0.785487298637548
30
0
41
1
10
63.7305708546032
20
0.800389079742445
30
0
41
1
10
63.7247646718556
20
0.81523440227582
30
0
41
1
10
63.7189448689988
20
0.830023429200565
30
0
0
SPLINE
5
135
100
AcDbEntity
8
1
62
256
6
ByLayer
370
18
48
1
60
0
100
AcDbSpline
70
4
71
3
72
8
73
4
40
0
40
0
40
0
40
0
40
1
40
1
40
1
40
1
41
1
10
63.6054076697868
20
1.04810826374199
30
0
41
1
10
63.6690696259962
20
1.0745033867174
30
0
41
1
10
63.7327896063895
20
1.10078432687266
30
0
41
1
10
63.7965523753117
20
1.12698106567339
30
0
0
SPLINE
5
136
100
AcDbEntity
8
1
62
256
6
ByLayer
370
18
48
1
60
0
100
AcDbSpline
70
4
71
3
72
8
73
4
40
0
40
0
40
0
40
0
40
1
40
1
40
1
40
1
41
1
10
63.762509020312
20
1.22160030850495
30
0
41
1
10
63.7742672061212
20
1.19014961768826
30
0
41
1
10
63.7856156785074
20
1.15861041806085
30
0
41
1
10
63.7965523753123
20
1.12698106567257
30
0
0
SPLINE
5
137
100
AcDbEntity
8
1
62
256
6
ByLayer
370
18
48
1
60
0
100
AcDbSpline
70
4
71
3
72
9
73
5
40
0
40
0
40
0
40
0
40
0.538749800032594
40
1
40
1
40
1
40
1
41
1
10
63.5432033741015
20
1.71019255167496
30
0
41
1
10
63.5886218166524
20
1.62390540468746
30
0
41
1
10
63.6670194730602
20
1.46195645622578
30
0
41
1
10
63.7340605251219
20
1.29767845997276
30
0
41
1
10
63.7625090203121
20
1.22160030850466
30
0
0
SPLINE
5
138
100
AcDbEntity
8
1
62
256
6
ByLayer
370
18
48
1
60
0
100
AcDbSpline
70
4
71
3
72
28
73
24
40
0
40
0
40
0
40
0
40
0.0341310568697862
40
0.0696201805351238
40
0.106465886982058
40
0.144666901830296
40
0.18422223790693
40
0.225130827753772
40
0.267391495183254
40
0.311002943552948
40
0.355963743618636
40
0.402272321105421
40
0.449926944163143
40
0.498925710903162
40
0.549266537245557
40
0.600947145342077
40
0.653965052877519
40
0.708317563594554
40
0.764001759431176
40
0.821014494708477
40
0.879352593222717
40
0.939014572776102
40
1
40
1
40
1
40
1
41
1
10
63.045765732942
20
2.46093650000077
30
0
41
1
10
63.0522775600247
20
2.45292056353378
30
0
41
1
10
63.0655603182717
20
2.43656973835655
30
0
41
1
10
63.0856512543247
20
2.41139456018701
30
0
41
1
10
63.106331240567
20
2.38512345818154
30
0
41
1
10
63.1275597681612
20
2.35773090603658
30
0
41
1
10
63.1493164227593
20
2.32920789605831
30
0
41
1
10
63.1715736678586
20
2.29954078143595
30
0
41
1
10
63.1943043884837
20
2.26871743188025
30
0
41
1
10
63.2174796898512
20
2.23672560710315
30
0
41
1
10
63.241069467339
20
2.2035535019007
30
0
41
1
10
63.2650421949418
20
2.16918968106356
30
0
41
1
10
63.2893649313902
20
2.13362318862048
30
0
41
1
10
63.3140032655449
20
2.09684361172037
30
0
41
1
10
63.3389212691282
20
2.05884115732485
30
0
41
1
10
63.3640814769517
20
2.01960673912097
30
0
41
1
10
63.3894447366015
20
1.97913202217552
30
0
41
1
10
63.4149705628627
20
1.93740964644243
30
0
41
1
10
63.4406155290375
20
1.89443276752894
30
0
41
1
10
63.4663392799274
20
1.85019719951197
30
0
41
1
10
63.4920814348003
20
1.80469285748774
30
0
41
1
10
63.5178523293534
20
1.75793518837895
30
0
41
1
10
63.534691453319
20
1.72622272106665
30
0
41
1
10
63.5432033741017
20
1.71019255167448
30
0
0
SPLINE
5
139
100
AcDbEntity
8
1
62
256
6
ByLayer
370
18
48
1
60
0
100
AcDbSpline
70
4
71
3
72
10
73
6
40
0
40
0
40
0
40
0
40
0.443361144645274
40
0.780781716807989
40
1
40
1
40
1
40
1
41
1
10
62.5840656896495
20
2.94942802973296
30
0
41
1
10
62.656961620426
20
2.88285052366803
30
0
41
1
10
62.7821879856501
20
2.76080221706715
30
0
41
1
10
62.933946033789
20
2.59485453640497
30
0
41
1
10
63.0146229581888
20
2.49911928062261
30
0
41
1
10
63.0457657329417
20
2.46093650000117
30
0
0
SPLINE
5
13A
100
AcDbEntity
8
1
62
256
6
ByLayer
370
18
48
1
60
0
100
AcDbSpline
70
4
71
3
72
38
73
34
40
0
40
0
40
0
40
0
40
0.0291899386962216
40
0.0585858828732223
40
0.0881878594715157
40
0.11799590135294
40
0.14801004876089
40
0.178230350861213
40
0.208656867367144
40
0.239289670250579
40
0.270128845543908
40
0.301174495234735
40
0.332426739256878
40
0.363885717581239
40
0.395551592409759
40
0.427424397793908
40
0.459503463538844
40
0.49178788480964
40
0.524276724648631
40
0.556969015119374
40
0.589863758537604
40
0.622959928816918
40
0.656256472934842
40
0.689752312525284
40
0.723446345603751
40
0.75733744843127
40
0.791424477524227
40
0.825706271816854
40
0.860181659933213
40
0.894849611186272
40
0.929709252243555
40
0.964759689580382
40
1
40
1
40
1
40
1
41
1
10
61.7968600739555
20
3.52291024324606
30
0
41
1
10
61.804958820788
20
3.5183019498657
30
0
41
1
10
61.8212134706617
20
3.50905284047099
30
0
41
1
10
61.8456028456747
20
3.49489534429736
30
0
41
1
10
61.8701028812093
20
3.48046511255978
30
0
41
1
10
61.8947050505754
20
3.46574214793785
30
0
41
1
10
61.9194077801276
20
3.45072807402528
30
0
41
1
10
61.9442075089472
20
3.43541865314535
30
0
41
1
10
61.9691011079276
20
3.41981122736263
30
0
41
1
10
61.9940852232621
20
3.4039027039936
30
0
41
1
10
62.0191564526035
20
3.38769010106722
30
0
41
1
10
62.0443112956848
20
3.37117039958767
30
0
41
1
10
62.0695461663608
20
3.35434058411599
30
0
41
1
10
62.0948573865381
20
3.33719762981488
30
0
41
1
10
62.1202411497109
20
3.31973854168251
30
0
41
1
10
62.1456933078731
20
3.30196046059672
30
0
41
1
10
62.1712096812008
20
3.28386149097199
30
0
41
1
10
62.1967857616578
20
3.26543996164733
30
0
41
1
10
62.2224168704971
20
3.24669426848226
30
0
41
1
10
62.2480982159304
20
3.22762284771159
30
0
41
1
10
62.2738248898965
20
3.20822417394751
30
0
41
1
10
62.2995918668198
20
3.18849676173565
30
0
41
1
10
62.3253940015873
20
3.16843916587959
30
0
41
1
10
62.3512260285048
20
3.14804998316123
30
0
41
1
10
62.3770825569708
20
3.12732784972243
30
0
41
1
10
62.4029580792592
20
3.10627145457633
30
0
41
1
10
62.4288469326434
20
3.08487949248959
30
0
41
1
10
62.4547434345276
20
3.06315084407089
30
0
41
1
10
62.4806414080905
20
3.04108386498444
30
0
41
1
10
62.5065361825006
20
3.01867896106998
30
0
41
1
10
62.5324184260522
20
2.99593051362484
30
0
41
1
10
62.5582973298513
20
2.97285718662991
30
0
41
1
10
62.5754607821093
20
2.95725180006301
30
0
41
1
10
62.5840656896504
20
2.9494280297321
30
0
0
SPLINE
5
13B
100
AcDbEntity
8
1
62
256
6
ByLayer
370
18
48
1
60
0
100
AcDbSpline
70
4
71
3
72
11
73
7
40
0
40
0
40
0
40
0
40
0.0283453482216193
40
0.48964883323264
40
0.722322766023
40
1
40
1
40
1
40
1
41
1
10
61.0272175657215
20
3.85472931378294
30
0
41
1
10
61.034398264767
20
3.85256451556762
30
0
41
1
10
61.1585148860285
20
3.81470636392069
30
0
41
1
10
61.3435089852319
20
3.74703276824306
30
0
41
1
10
61.5939556221605
20
3.63260370385686
30
0
41
1
10
61.7255381965732
20
3.56329371168039
30
0
41
1
10
61.7968600740682
20
3.52291024318225
30
0
0
SPLINE
5
13C
100
AcDbEntity
8
1
62
256
6
ByLayer
370
18
48
1
60
0
100
AcDbSpline
70
4
71
1
72
4
73
2
40
0
40
0
40
1
40
1
41
1
10
57.7081668161744
20
-3.0721419573317
30
0
41
1
10
57.7082835434798
20
-3.07190035001432
30
0
0
SPLINE
5
13D
100
AcDbEntity
8
1
62
256
6
ByLayer
370
18
48
1
60
0
100
AcDbSpline
70
4
71
3
72
8
73
4
40
0
40
0
40
0
40
0
40
1
40
1
40
1
40
1
41
1
10
61.8508459649293
20
2.39155284620023
30
0
41
1
10
61.9227153490286
20
2.27956322277373
30
0
41
1
10
61.9971562850609
20
2.16905868567943
30
0
41
1
10
62.0743502770266
20
2.06014405454272
30
0
0
SPLINE
5
13E
100
AcDbEntity
8
1
62
256
6
ByLayer
370
18
48
1
60
0
100
AcDbSpline
70
4
71
3
72
8
73
4
40
0
40
0
40
0
40
0
40
1
40
1
40
1
40
1
41
1
10
63.9818028454751
20
-0.0588169856288516
30
0
41
1
10
63.9838762291419
20
-0.0598640752297115
30
0
41
1
10
63.9859403956995
20
-0.0609110714555356
30
0
41
1
10
63.9879953720451
20
-0.061957970640691
30
0
0
SPLINE
5
13F
100
AcDbEntity
8
1
62
256
6
ByLayer
370
18
48
1
60
0
100
AcDbSpline
70
4
71
3
72
12
73
8
40
0
40
0
40
0
40
0
40
0.499999999999993
40
0.499999999999993
40
0.749999999999996
40
0.749999999999996
40
1
40
1
40
1
40
1
41
1
10
63.6699904592491
20
-0.512081105079233
30
0
41
1
10
63.6665356352273
20
-0.501218572166579
30
0
41
1
10
63.6638117555452
20
-0.488714358826059
30
0
41
1
10
63.6616113614816
20
-0.466313152434736
30
0
41
1
10
63.6611962472391
20
-0.458228513329118
30
0
41
1
10
63.6612910855499
20
-0.440382075230445
30
0
41
1
10
63.6617963574364
20
-0.430766619582272
30
0
41
1
10
63.6629801105774
20
-0.420166326244839
30
0
0
SPLINE
5
140
100
AcDbEntity
8
1
62
256
6
ByLayer
370
18
48
1
60
0
100
AcDbSpline
70
4
71
3
72
34
73
30
40
0
40
0
40
0
40
0
40
0.062499999999983
40
0.062499999999983
40
0.0937499999999694
40
0.0937499999999694
40
0.124999999999956
40
0.124999999999956
40
0.156249999999942
40
0.156249999999942
40
0.187499999999929
40
0.187499999999929
40
0.249999999999925
40
0.249999999999925
40
0.312499999999922
40
0.312499999999922
40
0.374999999999919
40
0.374999999999919
40
0.437499999999916
40
0.437499999999916
40
0.499999999999913
40
0.499999999999913
40
0.624999999999935
40
0.624999999999935
40
0.749999999999956
40
0.749999999999956
40
0.874999999999978
40
0.874999999999978
40
1
40
1
40
1
40
1
41
1
10
63.6629801105774
20
-0.420166326244839
30
0
41
1
10
63.6634172038203
20
-0.410212401695588
30
0
41
1
10
63.664370281625
20
-0.399819405508822
30
0
41
1
10
63.6667654867498
20
-0.38341439463764
30
0
41
1
10
63.667733107473
20
-0.377787250901434
30
0
41
1
10
63.6699512236069
20
-0.366625111445074
30
0
41
1
10
63.6712070304306
20
-0.361045234535595
30
0
41
1
10
63.674013724024
20
-0.349887258539923
30
0
41
1
10
63.6755764079449
20
-0.344271215088412
30
0
41
1
10
63.6789481307937
20
-0.333217893553979
30
0
41
1
10
63.6807366957383
20
-0.327839511085074
30
0
41
1
10
63.686373707528
20
-0.312104113083137
30
0
41
1
10
63.6905361400379
20
-0.302068841444907
30
0
41
1
10
63.6990193093312
20
-0.283753332345412
30
0
41
1
10
63.7033808387286
20
-0.275342221985625
30
0
41
1
10
63.7122538762906
20
-0.259658711272692
30
0
41
1
10
63.7166820150569
20
-0.252537385095309
30
0
41
1
10
63.7254192410426
20
-0.239469483994384
30
0
41
1
10
63.7297438366508
20
-0.233500474664766
30
0
41
1
10
63.7383002508049
20
-0.222445464785579
30
0
41
1
10
63.7425488330975
20
-0.217343477261409
30
0
41
1
10
63.7549922516735
20
-0.203306137002926
30
0
41
1
10
63.7629044270047
20
-0.195580299560504
30
0
41
1
10
63.7780977919425
20
-0.182324334527834
30
0
41
1
10
63.7853767731671
20
-0.176811293013941
30
0
41
1
10
63.7993650958463
20
-0.167480615826605
30
0
41
1
10
63.8060750211407
20
-0.16367087476155
30
0
41
1
10
63.8188516496584
20
-0.157489549251864
30
0
41
1
10
63.8249359530044
20
-0.155107570335019
30
0
41
1
10
63.8307404837561
20
-0.153317916212984
30
0
0
SPLINE
5
141
100
AcDbEntity
8
1
62
256
6
ByLayer
370
18
48
1
60
0
100
AcDbSpline
70
4
71
3
72
16
73
12
40
0
40
0
40
0
40
0
40
0.249999999999991
40
0.249999999999991
40
0.499999999999983
40
0.499999999999983
40
0.624999999999996
40
0.624999999999996
40
0.750000000000009
40
0.750000000000009
40
1
40
1
40
1
40
1
41
1
10
57.7081668161744
20
-3.0721419573317
30
0
41
1
10
57.7760257594438
20
-3.12120274952778
30
0
41
1
10
57.8437733438
20
-3.16913808614024
30
0
41
1
10
57.9797680256773
20
-3.26230998611797
30
0
41
1
10
58.0480042648706
20
-3.30755788480411
30
0
41
1
10
58.1510841178645
20
-3.37315631363239
30
0
41
1
10
58.1855652406163
20
-3.3946413212031
30
0
41
1
10
58.2548250936228
20
-3.43679991750645
30
0
41
1
10
58.289599939672
20
-3.45746916738443
30
0
41
1
10
58.3938169930707
20
-3.51784193459102
30
0
41
1
10
58.4633685028949
20
-3.55605333846793
30
0
41
1
10
58.5332269794066
20
-3.59214741022103
30
0
0
SPLINE
5
142
100
AcDbEntity
8
1
62
256
6
ByLayer
370
18
48
1
60
0
100
AcDbSpline
70
4
71
3
72
8
73
4
40
0
40
0
40
0
40
0
40
1
40
1
40
1
40
1
41
1
10
57.7081668161745
20
-3.0721419573317
30
0
41
1
10
57.7074446134718
20
-3.07159612736825
30
0
41
1
10
57.706722341459
20
-3.07105043367326
30
0
41
1
10
57.706
20
-3.07050487651858
30
0
0
SPLINE
5
143
100
AcDbEntity
8
1
62
256
6
ByLayer
370
18
48
1
60
0
100
AcDbSpline
70
4
71
3
72
8
73
4
40
0
40
0
40
0
40
0
40
1
40
1
40
1
40
1
41
1
10
61.498406921335
20
2.627555090572
30
0
41
1
10
61.612040517452
20
2.54335565514504
30
0
41
1
10
61.7290702850663
20
2.46511429044378
30
0
41
1
10
61.8508459649267
20
2.39155284619991
30
0
0
SPLINE
5
144
100
AcDbEntity
8
1
62
256
6
ByLayer
370
18
48
1
60
0
100
AcDbSpline
70
4
71
3
72
8
73
4
40
0
40
0
40
0
40
0
40
1
40
1
40
1
40
1
41
1
10
61.850845964922
20
2.39155284619602
30
0
41
1
10
61.7842968929406
20
2.38299159374009
30
0
41
1
10
61.7175646667394
20
2.37571022855624
30
0
41
1
10
61.6506683084386
20
2.36957582348899
30
0
0
SPLINE
5
145
100
AcDbEntity
8
1
62
256
6
ByLayer
370
18
48
1
60
0
100
AcDbSpline
70
4
71
1
72
4
73
2
40
0
40
0
40
1
40
1
41
1
10
57.7082835434798
20
-3.07190035001432
30
0
41
1
10
57.7882960912149
20
-2.93883704410948
30
0
0
SPLINE
5
146
100
AcDbEntity
8
1
62
256
6
ByLayer
370
18
48
1
60
0
100
AcDbSpline
70
4
71
3
72
12
73
8
40
0
40
0
40
0
40
0
40
0.25
40
0.25
40
0.5
40
0.5
40
1
40
1
40
1
40
1
41
1
10
63.6054076697888
20
1.04810826374228
30
0
41
1
10
63.6011473013955
20
1.04634185638759
30
0
41
1
10
63.5966081585375
20
1.04572201164186
30
0
41
1
10
63.5873341030062
20
1.04528749760627
30
0
41
1
10
63.5827533373503
20
1.04553130095803
30
0
41
1
10
63.5691000746449
20
1.04690010218343
30
0
41
1
10
63.5600863495746
20
1.04867693886521
30
0
41
1
10
63.5511703458406
20
1.05077877379054
30
0
0
SPLINE
5
147
100
AcDbEntity
8
1
62
256
6
ByLayer
370
18
48
1
60
0
100
AcDbSpline
70
4
71
3
72
10
73
6
40
0
40
0
40
0
40
0
40
0.792865165041757
40
0.792865165041757
40
1
40
1
40
1
40
1
41
1
10
61.4984063187601
20
2.62755553706381
30
0
41
1
10
61.4601548815102
20
2.65589883232559
30
0
41
1
10
61.4265192886931
20
2.6875174828277
30
0
41
1
10
61.3884096675033
20
2.73134264654064
30
0
41
1
10
61.3807521701991
20
2.74063576194734
30
0
41
1
10
61.3733148279718
20
2.75014466050541
30
0
0
SPLINE
5
148
100
AcDbEntity
8
1
62
256
6
ByLayer
370
18
48
1
60
0
100
AcDbSpline
70
4
71
3
72
16
73
12
40
0
40
0
40
0
40
0
40
0.29403654673218
40
0.29403654673218
40
0.470527410049135
40
0.470527410049135
40
0.64701827336609
40
0.64701827336609
40
0.823509136683045
40
0.823509136683045
40
1
40
1
40
1
40
1
41
1
10
63.3900769739846
20
0.999776079114582
30
0
41
1
10
63.4024594580733
20
1.00924726560603
30
0
41
1
10
63.4158852826188
20
1.01850939655631
30
0
41
1
10
63.4394970098857
20
1.03206255140827
30
0
41
1
10
63.4487820829269
20
1.03679944216955
30
0
41
1
10
63.4679262130408
20
1.04490199806543
30
0
41
1
10
63.477843848337
20
1.04830563500386
30
0
41
1
10
63.4985729783013
20
1.05312497265459
30
0
41
1
10
63.5090690863945
20
1.05444092383411
30
0
41
1
10
63.5301706498948
20
1.05450340988685
30
0
41
1
10
63.5408882528821
20
1.05320264692122
30
0
41
1
10
63.5511703458335
20
1.05077877377286
30
0
0
SPLINE
5
149
100
AcDbEntity
8
1
62
256
6
ByLayer
370
18
48
1
60
0
100
AcDbSpline
70
4
71
3
72
8
73
4
40
0
40
0
40
0
40
0
40
1
40
1
40
1
40
1
41
1
10
63.7654143097201
20
-1.0377491790745
30
0
41
1
10
63.772015952171
20
-1.05029161282883
30
0
41
1
10
63.778603146945
20
-1.0628169182595
30
0
41
1
10
63.7851761560241
20
-1.07532540595699
30
0
0
SPLINE
5
14A
100
AcDbEntity
8
1
62
256
6
ByLayer
370
18
48
1
60
0
100
AcDbSpline
70
4
71
3
72
8
73
4
40
0
40
0
40
0
40
0
40
1
40
1
40
1
40
1
41
1
10
63.7376260645533
20
-0.780115772769989
30
0
41
1
10
63.7381174333787
20
-0.784238296018856
30
0
41
1
10
63.7385408555707
20
-0.788257471701456
30
0
41
1
10
63.7388946307044
20
-0.792170713453487
30
0
0
SPLINE
5
14B
100
AcDbEntity
8
1
62
256
6
ByLayer
370
18
48
1
60
0
100
AcDbSpline
70
4
71
3
72
8
73
4
40
0
40
0
40
0
40
0
40
1
40
1
40
1
40
1
41
1
10
63.6699904592491
20
-0.512081105079233
30
0
41
1
10
63.6776268583857
20
-0.536091195442395
30
0
41
1
10
63.6848150708218
20
-0.559441818797296
30
0
41
1
10
63.6915009977818
20
-0.582053373589758
30
0
0
SPLINE
5
14C
100
AcDbEntity
8
1
62
256
6
ByLayer
370
18
48
1
60
0
100
AcDbSpline
70
4
71
3
72
8
73
4
40
0
40
0
40
0
40
0
40
1
40
1
40
1
40
1
41
1
10
57.7060000000001
20
-3.07050487651807
30
0
41
1
10
57.6334376706484
20
-3.02083667135921
30
0
41
1
10
57.5614356157848
20
-2.97382103078107
30
0
41
1
10
57.4901176358792
20
-2.93004407595115
30
0
0
SPLINE
5
14D
100
AcDbEntity
8
1
62
256
6
ByLayer
370
18
48
1
60
0
100
AcDbSpline
70
4
71
3
72
10
73
6
40
0
40
0
40
0
40
0
40
0.5
40
0.5
40
1
40
1
40
1
40
1
41
1
10
56.5733388275704
20
-2.97139659190117
30
0
41
1
10
56.7235379588481
20
-2.95956401823636
30
0
41
1
10
56.8751130530773
20
-2.95013023059425
30
0
41
1
10
57.180804615183
20
-2.93625990074992
30
0
41
1
10
57.3349188967536
20
-2.93182474602963
30
0
41
1
10
57.4901176358792
20
-2.93004407595115
30
0
0
SPLINE
5
14E
100
AcDbEntity
8
1
62
256
6
ByLayer
370
18
48
1
60
0
100
AcDbSpline
70
4
71
3
72
8
73
4
40
0
40
0
40
0
40
0
40
1
40
1
40
1
40
1
41
1
10
57.7060000000001
20
3.0255511606716
30
0
41
1
10
57.5863304011174
20
3.06147820145696
30
0
41
1
10
57.4668178803384
20
3.09823639194255
30
0
41
1
10
57.3474623110997
20
3.13582506244129
30
0
0
SPLINE
5
14F
100
AcDbEntity
8
1
62
256
6
ByLayer
370
18
48
1
60
0
100
AcDbSpline
70
4
71
3
72
8
73
4
40
0
40
0
40
0
40
0
40
1
40
1
40
1
40
1
41
1
10
61.9375737199328
20
-3.09574004475021
30
0
41
1
10
61.9082586155714
20
-3.17756430881329
30
0
41
1
10
61.8765401123829
20
-3.25944689313627
30
0
41
1
10
61.8418052557386
20
-3.3414026770221
30
0
0
SPLINE
5
150
100
AcDbEntity
8
1
62
256
6
ByLayer
370
18
48
1
60
0
100
AcDbSpline
70
4
71
3
72
8
73
4
40
0
40
0
40
0
40
0
40
1
40
1
40
1
40
1
41
1
10
57.8421965137049
20
-2.36871852339007
30
0
41
1
10
57.902821559718
20
-2.43731827012584
30
0
41
1
10
57.9625387797503
20
-2.50633345943311
30
0
41
1
10
58.0213597854337
20
-2.57575877755542
30
0
0
SPLINE
5
151
100
AcDbEntity
8
1
62
256
6
ByLayer
370
18
48
1
60
0
100
AcDbSpline
70
4
71
3
72
24
73
20
40
0
40
0
40
0
40
0
40
0.25
40
0.25
40
0.5
40
0.5
40
0.625
40
0.625
40
0.6875
40
0.6875
40
0.75
40
0.75
40
0.8125
40
0.8125
40
0.875
40
0.875
40
0.9375
40
0.9375
40
1
40
1
40
1
40
1
41
1
10
61.84314688578
20
-2.98117232627561
30
0
41
1
10
61.8563733701692
20
-2.98494782907667
30
0
41
1
10
61.8691296284602
20
-2.98944069607617
30
0
41
1
10
61.8932460094039
20
-3.00055634343522
30
0
41
1
10
61.9046771449906
20
-3.00720250708528
30
0
41
1
10
61.9195151706757
20
-3.01959384697875
30
0
41
1
10
61.9240874391055
20
-3.02413817532133
30
0
41
1
10
61.930134240811
20
-3.03185343881509
30
0
41
1
10
61.9320131863728
20
-3.03457652575702
30
0
41
1
10
61.9354249254708
20
-3.04040603014499
30
0
41
1
10
61.936967017512
20
-3.04353559275245
30
0
41
1
10
61.9395451352194
20
-3.05017637429407
30
0
41
1
10
61.9405797993847
20
-3.05367317271279
30
0
41
1
10
61.942024985669
20
-3.06109957508957
30
0
41
1
10
61.9424347244914
20
-3.06507178982227
30
0
41
1
10
61.9424636855378
20
-3.0733284394704
30
0
41
1
10
61.942090519645
20
-3.0775971108387
30
0
41
1
10
61.9404917193366
20
-3.08644308795513
30
0
41
1
10
61.9392505124149
20
-3.09105971582446
30
0
41
1
10
61.9375736974695
20
-3.09574004547631
30
0
0
SPLINE
5
152
100
AcDbEntity
8
1
62
256
6
ByLayer
370
18
48
1
60
0
100
AcDbSpline
70
4
71
3
72
8
73
4
40
0
40
0
40
0
40
0
40
1
40
1
40
1
40
1
41
1
10
63.5422371382533
20
-1.48453092529724
30
0
41
1
10
63.5264632937368
20
-1.51328702170892
30
0
41
1
10
63.5104839696516
20
-1.54183969450841
30
0
41
1
10
63.4942992166374
20
-1.57018899382882
30
0
0
SPLINE
5
153
100
AcDbEntity
8
1
62
256
6
ByLayer
370
18
48
1
60
0
100
AcDbSpline
70
4
71
3
72
30
73
26
40
0
40
0
40
0
40
0
40
0.125000000000013
40
0.125000000000013
40
0.156250000000012
40
0.156250000000012
40
0.187500000000012
40
0.250000000000011
40
0.250000000000011
40
0.374999999999999
40
0.374999999999999
40
0.437499999999999
40
0.437499999999999
40
0.499999999999998
40
0.499999999999998
40
0.624999999999986
40
0.624999999999986
40
0.749999999999974
40
0.749999999999974
40
0.781249999999977
40
0.781249999999977
40
0.81249999999998
40
0.874999999999987
40
0.874999999999987
40
1
40
1
40
1
40
1
41
1
10
63.4942992166376
20
-1.57018899382808
30
0
41
1
10
63.4559666665412
20
-1.66167525556799
30
0
41
1
10
63.4125964499894
20
-1.75320726545337
30
0
41
1
10
63.3519448882953
20
-1.86768074987066
30
0
41
1
10
63.3394747508085
20
-1.8906120605603
30
0
41
1
10
63.3139602107945
20
-1.93632365593709
30
0
41
1
10
63.2749252385469
20
-2.00449366384646
30
0
41
1
10
63.2336092144679
20
-2.07147590838727
30
0
41
1
10
63.1479541053201
20
-2.2038662635297
30
0
41
1
10
63.0868356775467
20
-2.29003584386516
30
0
41
1
10
62.9888981909108
20
-2.41603065908194
30
0
41
1
10
62.9552084964334
20
-2.4574853809975
30
0
41
1
10
62.8856908392018
20
-2.53928141008876
30
0
41
1
10
62.8497455051517
20
-2.5797497921273
30
0
41
1
10
62.7403821741583
20
-2.69747173856271
30
0
41
1
10
62.664965989447
20
-2.77155872737916
30
0
41
1
10
62.5093569102337
20
-2.91136100644474
30
0
41
1
10
62.4291452938723
20
-2.97704348461858
30
0
41
1
10
62.3258081095943
20
-3.05376140792097
30
0
41
1
10
62.3049438759334
20
-3.06886405715216
30
0
41
1
10
62.263182706083
20
-3.09832368688043
30
0
41
1
10
62.2004612618345
20
-3.14142294091934
30
0
41
1
10
62.1375053114941
20
-3.18131403815585
30
0
41
1
10
62.0112926092731
20
-3.25698112199262
30
0
41
1
10
61.9267511170737
20
-3.30195788211174
30
0
41
1
10
61.8418052557557
20
-3.34140267702168
30
0
0
SPLINE
5
154
100
AcDbEntity
8
1
62
256
6
ByLayer
370
18
48
1
60
0
100
AcDbSpline
70
4
71
3
72
56
73
52
40
0
40
0
40
0
40
0
40
0.0312500000000097
40
0.0468750000000145
40
0.0468750000000145
40
0.0625000000000193
40
0.0625000000000193
40
0.125000000000031
40
0.125000000000031
40
0.187500000000042
40
0.187500000000042
40
0.203125000000045
40
0.203125000000045
40
0.218750000000048
40
0.218750000000048
40
0.250000000000045
40
0.250000000000045
40
0.31250000000004
40
0.31250000000004
40
0.328125000000038
40
0.328125000000038
40
0.33203125000004
40
0.33203125000004
40
0.335937500000042
40
0.335937500000042
40
0.343750000000045
40
0.343750000000045
40
0.375000000000051
40
0.375000000000051
40
0.437500000000069
40
0.437500000000069
40
0.468750000000075
40
0.468750000000075
40
0.50000000000008
40
0.50000000000008
40
0.625000000000094
40
0.625000000000094
40
0.687500000000101
40
0.687500000000101
40
0.703125000000101
40
0.703125000000101
40
0.718750000000101
40
0.750000000000094
40
0.750000000000094
40
0.875000000000044
40
0.875000000000044
40
0.937500000000019
40
0.937500000000019
40
0.96875000000001
40
0.96875000000001
40
1
40
1
40
1
40
1
41
1
10
61.8418052557552
20
-3.34140267701977
30
0
41
1
10
61.8004225956517
20
-3.36479010707106
30
0
41
1
10
61.7376471435234
20
-3.39846586290898
30
0
41
1
10
61.6738004233324
20
-3.43001711954466
30
0
41
1
10
61.6309956185852
20
-3.4505770872097
30
0
41
1
10
61.6094389236283
20
-3.46063574290074
30
0
41
1
10
61.5016685799497
20
-3.50944889972499
30
0
41
1
10
61.4152436738615
20
-3.54388765899034
30
0
41
1
10
61.2416571870226
20
-3.6038421386875
30
0
41
1
10
61.1544978783388
20
-3.62936737386087
30
0
41
1
10
61.0448931324055
20
-3.65574876640682
30
0
41
1
10
61.0229393681932
20
-3.66074817166572
30
0
41
1
10
60.9789610067869
20
-3.67019137987083
30
0
41
1
10
60.9569613239787
20
-3.67462897904053
30
0
41
1
10
60.8912184874435
20
-3.68704198096259
30
0
41
1
10
60.8476163447009
20
-3.69414371737983
30
0
41
1
10
60.7173880153395
20
-3.71203458594977
30
0
41
1
10
60.6313406780571
20
-3.7193901120464
30
0
41
1
10
60.5244522693635
20
-3.7231539941649
30
0
41
1
10
60.5031090069682
20
-3.72362922024399
30
0
41
1
10
60.4764678650838
20
-3.72388768399225
30
0
41
1
10
60.4711407087347
20
-3.7239296438338
30
0
41
1
10
60.4604886410363
20
-3.72399280511161
30
0
41
1
10
60.4551760301351
20
-3.72390714033369
30
0
41
1
10
60.4391540633581
20
-3.72437840123672
30
0
41
1
10
60.4284700594489
20
-3.72471844260562
30
0
41
1
10
60.3751171381453
20
-3.72583235032522
30
0
41
1
10
60.3325492389637
20
-3.72571937857484
30
0
41
1
10
60.2051297875775
20
-3.72232096055347
30
0
41
1
10
60.1205627902597
20
-3.71596420596976
30
0
41
1
10
59.9940259066482
20
-3.70037328349912
30
0
41
1
10
59.9518541758756
20
-3.69419076642026
30
0
41
1
10
59.8683062332559
20
-3.67991622677715
30
0
41
1
10
59.8268452037835
20
-3.67180984000945
30
0
41
1
10
59.6209589348704
20
-3.62656873705225
30
0
41
1
10
59.4607487888332
20
-3.57538090892964
30
0
41
1
10
59.2251590859712
20
-3.47725288185498
30
0
41
1
10
59.1474265805866
20
-3.44096720506138
30
0
41
1
10
59.0511142251563
20
-3.39109991001081
30
0
41
1
10
59.0318807278575
20
-3.38089277360913
30
0
41
1
10
58.9936473065384
20
-3.36010903791609
30
0
41
1
10
58.9365988913258
20
-3.32835507730579
30
0
41
1
10
58.8804280843407
20
-3.29489094574527
30
0
41
1
10
58.695026062062
20
-3.17964946885999
30
0
41
1
10
58.5524808574871
20
-3.07577142147471
30
0
41
1
10
58.3469093614085
20
-2.90182952426889
30
0
41
1
10
58.2797654769923
20
-2.84082004500777
30
0
41
1
10
58.1810755530614
20
-2.74467902364557
30
0
41
1
10
58.148477061966
20
-2.7118097706576
30
0
41
1
10
58.0842062702158
20
-2.64476674724503
30
0
41
1
10
58.052543804356
20
-2.6105933670473
30
0
41
1
10
58.0213597854337
20
-2.57575877755542
30
0
0
SPLINE
5
155
100
AcDbEntity
8
1
62
256
6
ByLayer
370
18
48
1
60
0
100
AcDbSpline
70
4
71
1
72
4
73
2
40
0
40
0
40
1
40
1
41
1
10
57.7882960912149
20
-2.93883704410948
30
0
41
1
10
58.0213597854337
20
-2.57575877755542
30
0
0
SPLINE
5
156
100
AcDbEntity
8
1
62
256
6
ByLayer
370
18
48
1
60
0
100
AcDbSpline
70
4
71
3
72
33
73
29
40
0
40
0
40
0
40
0
40
0.0286847358937987
40
0.0677389767307718
40
0.142444198111016
40
0.167534647345699
40
0.207657078055242
40
0.237729330042448
40
0.287863425959528
40
0.387856343514136
40
0.457445566109858
40
0.477283347538836
40
0.489748171395713
40
0.533375819292885
40
0.57048900151315
40
0.576065693880451
40
0.577924077441315
40
0.578505628391023
40
0.579249027497309
40
0.581298450139039
40
0.584653287712908
40
0.600384597161718
40
0.607156311833438
40
0.699512735372956
40
0.775263352646226
40
0.813470725026385
40
0.928859947557655
40
1
40
1
40
1
40
1
41
1
10
57.7882960912149
20
-2.93883704410948
30
0
41
1
10
57.8329617944246
20
-2.97110542953436
30
0
41
1
10
57.9376216172963
20
-3.04629914327998
30
0
41
1
10
58.1548648052835
20
-3.19773899325432
30
0
41
1
10
58.3638767002585
20
-3.33247895929102
30
0
41
1
10
58.5747010294697
20
-3.45506420597229
30
0
41
1
10
58.7192246787497
20
-3.53248320018437
30
0
41
1
10
58.903325495334
20
-3.62109274258452
30
0
41
1
10
59.1813416937865
20
-3.7376205353786
30
0
41
1
10
59.5257774511922
20
-3.84183746815529
30
0
41
1
10
59.8267867931827
20
-3.89215865642768
30
0
41
1
10
59.9892333163571
20
-3.90750465551861
30
0
41
1
10
60.110409714653
20
-3.9157870869841
30
0
41
1
10
60.2593147480658
20
-3.91914131260941
30
0
41
1
10
60.3964344043635
20
-3.9131968404833
30
0
41
1
10
60.467005763063
20
-3.90766698498763
30
0
41
1
10
60.4796667973353
20
-3.90660266142444
30
0
41
1
10
60.4847399441633
20
-3.90616114759067
30
0
41
1
10
60.490312925545
20
-3.90566483021891
30
0
41
1
10
60.5003505775747
20
-3.90475660388955
30
0
41
1
10
60.5349425821711
20
-3.90145944157501
30
0
41
1
10
60.5771762424094
20
-3.89679025361656
30
0
41
1
10
60.7641958378559
20
-3.87272199063707
30
0
41
1
10
61.0467602754718
20
-3.81325205838817
30
0
41
1
10
61.3733015654874
20
-3.69978501192037
30
0
41
1
10
61.7288671467851
20
-3.54278404441115
30
0
41
1
10
62.0658299992459
20
-3.34940796024125
30
0
41
1
10
62.3278727517638
20
-3.15371758580071
30
0
41
1
10
62.4246499462817
20
-3.07448629431414
30
0
0
SPLINE
5
157
100
AcDbEntity
8
1
62
256
6
ByLayer
370
18
48
1
60
0
100
AcDbSpline
70
4
71
3
72
12
73
8
40
0
40
0
40
0
40
0
40
0.5
40
0.5
40
0.75
40
0.75
40
1
40
1
40
1
40
1
41
1
10
57.7060000000001
20
2.5212883773419
30
0
41
1
10
57.6697451696691
20
2.49990134248995
30
0
41
1
10
57.6336164146837
20
2.47752932062863
30
0
41
1
10
57.5796299223577
20
2.44235687336445
30
0
41
1
10
57.5616689293196
20
2.43036315222705
30
0
41
1
10
57.5258198002582
20
2.40580650102009
30
0
41
1
10
57.5079134554587
20
2.39323005763549
30
0
41
1
10
57.4901176358794
20
2.38040351921279
30
0
0
SPLINE
5
158
100
AcDbEntity
8
1
62
256
6
ByLayer
370
18
48
1
60
0
100
AcDbSpline
70
4
71
3
72
10
73
6
40
0
40
0
40
0
40
0
40
0.5
40
0.5
40
1
40
1
40
1
40
1
41
1
10
56.573338827569
20
2.68139512530493
30
0
41
1
10
56.7235379588469
20
2.62388865626133
30
0
41
1
10
56.8751130530764
20
2.57019842153795
30
0
41
1
10
57.1808046151826
20
2.47005538487625
30
0
41
1
10
57.3349188967535
20
2.42359825237304
30
0
41
1
10
57.4901176358793
20
2.38040351921279
30
0
0
SPLINE
5
159
100
AcDbEntity
8
1
62
256
6
ByLayer
370
18
48
1
60
0
100
AcDbSpline
70
4
71
3
72
8
73
4
40
0
40
0
40
0
40
0
40
1
40
1
40
1
40
1
41
1
10
57.8421965137049
20
-2.3687185233901
30
0
41
1
10
57.7967450685892
20
-2.36938529125891
30
0
41
1
10
57.7513447305894
20
-2.37021195558864
30
0
41
1
10
57.7060000000001
20
-2.37119080377468
30
0
0
SPLINE
5
15A
100
AcDbEntity
8
1
62
256
6
ByLayer
370
18
48
1
60
0
100
AcDbSpline
70
4
71
3
72
10
73
6
40
0
40
0
40
0
40
0
40
0.5
40
0.5
40
1
40
1
40
1
40
1
41
1
10
61.7207389588437
20
-2.92263107381143
30
0
41
1
10
61.7381830966306
20
-2.9364374997507
30
0
41
1
10
61.7575848598605
20
-2.94777150887486
30
0
41
1
10
61.798771280619
20
-2.96692539274815
30
0
41
1
10
61.8205532856675
20
-2.97472299864751
30
0
41
1
10
61.8431468822792
20
-2.98117232652987
30
0
0
SPLINE
5
15B
100
AcDbEntity
8
1
62
256
6
ByLayer
370
18
48
1
60
0
100
AcDbSpline
70
4
71
3
72
10
73
6
40
0
40
0
40
0
40
0
40
0.5
40
0.5
40
1
40
1
40
1
40
1
41
1
10
61.832914301701
20
-2.39713559401704
30
0
41
1
10
61.807042153922
20
-2.48648542053073
30
0
41
1
10
61.7841999144826
20
-2.57528087991614
30
0
41
1
10
61.7461877988915
20
-2.75092385162904
30
0
41
1
10
61.7310584093184
20
-2.83755857577191
30
0
41
1
10
61.7207389584592
20
-2.92263107389022
30
0
0
SPLINE
5
15C
100
AcDbEntity
8
1
62
256
6
ByLayer
370
18
48
1
60
0
100
AcDbSpline
70
4
71
3
72
12
73
8
40
0
40
0
40
0
40
0
40
0.0201729078020776
40
0.216138326241662
40
0.412103744681247
40
0.608069163120831
40
1
40
1
40
1
40
1
41
1
10
61.7207389588666
20
-2.92263107385222
30
0
41
1
10
61.6937426392444
20
-2.91957757293528
30
0
41
1
10
61.4044963196221
20
-2.88615049220672
30
0
41
1
10
60.853
20
-2.80793480247115
30
0
41
1
10
60.06625
20
-2.66038784940886
30
0
41
1
10
59.0172499999999
20
-2.41819530567946
30
0
41
1
10
58.2305
20
-2.18858776836035
30
0
41
1
10
57.7060000000001
20
-2.01696307191239
30
0
0
SPLINE
5
15D
100
AcDbEntity
8
1
62
256
6
ByLayer
370
18
48
1
60
0
100
AcDbSpline
70
4
71
3
72
10
73
6
40
0
40
0
40
0
40
0
40
0.0822544941911839
40
0.881298267695252
40
1
40
1
40
1
40
1
41
1
10
61.7207389588666
20
2.13899744213441
30
0
41
1
10
61.6937426392444
20
2.14732890636699
30
0
41
1
10
61.4044963196221
20
2.23607605764497
30
0
41
1
10
61.0762915219676
20
2.33039790406923
30
0
41
1
10
60.7750830439354
20
2.41021723736682
30
0
41
1
10
60.736124565903
20
2.42042686908624
30
0
0
SPLINE
5
15E
100
AcDbEntity
8
1
62
256
6
ByLayer
370
18
48
1
60
0
100
AcDbSpline
70
4
71
3
72
18
73
14
40
0
40
0
40
0
40
0
40
0.250000000000003
40
0.250000000000003
40
0.375000000000002
40
0.375000000000002
40
0.500000000000002
40
0.500000000000002
40
0.625000000000002
40
0.625000000000002
40
0.750000000000002
40
0.750000000000002
40
1
40
1
40
1
40
1
41
1
10
61.8044512866186
20
-2.29225791719702
30
0
41
1
10
61.8104802581138
20
-2.29809879935073
30
0
41
1
10
61.8159669027085
20
-2.30446529394862
30
0
41
1
10
61.8231151664693
20
-2.3150634012961
30
0
41
1
10
61.825316246641
20
-2.31877217899867
30
0
41
1
10
61.8292828174516
20
-2.32661189918994
30
0
41
1
10
61.8310552486734
20
-2.33076375107339
30
0
41
1
10
61.8340216777696
20
-2.33946912192374
30
0
41
1
10
61.83521727782
20
-2.34401641470038
30
0
41
1
10
61.8369288869898
20
-2.35357082892099
30
0
41
1
10
61.8374452057329
20
-2.358616961227
30
0
41
1
10
61.8377497313513
20
-2.37428731806227
30
0
41
1
10
61.836330056996
20
-2.38533930085794
30
0
41
1
10
61.8329143005142
20
-2.39713559412297
30
0
0
SPLINE
5
15F
100
AcDbEntity
8
1
62
256
6
ByLayer
370
18
48
1
60
0
100
AcDbSpline
70
4
71
3
72
8
73
4
40
0
40
0
40
0
40
0
40
1
40
1
40
1
40
1
41
1
10
61.7547301086479
20
0.255332106582301
30
0
41
1
10
61.805057529368
20
0.239474060331247
30
0
41
1
10
61.8566626912793
20
0.223765477093195
30
0
41
1
10
61.9096252353629
20
0.208215672824167
30
0
0
SPLINE
5
160
100
AcDbEntity
8
1
62
256
6
ByLayer
370
18
48
1
60
0
100
AcDbSpline
70
4
71
3
72
8
73
4
40
0
40
0
40
0
40
0
40
1
40
1
40
1
40
1
41
1
10
63.2897348037515
20
-0.437149724395937
30
0
41
1
10
63.2684988777247
20
-0.388919608126258
30
0
41
1
10
63.2471620808097
20
-0.340550474225921
30
0
41
1
10
63.225715739819
20
-0.292030369533933
30
0
0
SPLINE
5
161
100
AcDbEntity
8
1
62
256
6
ByLayer
370
18
48
1
60
0
100
AcDbSpline
70
4
71
3
72
10
73
6
40
0
40
0
40
0
40
0
40
0.5
40
0.5
40
1
40
1
40
1
40
1
41
1
10
61.6506683084386
20
2.36957582348899
30
0
41
1
10
61.6778928574804
20
2.34186751508855
30
0
41
1
10
61.704428390754
20
2.31454995176847
30
0
41
1
10
61.7558152335308
20
2.26086995878475
30
0
41
1
10
61.7806695955448
20
2.23450579802372
30
0
41
1
10
61.8044512787154
20
2.20874996003221
30
0
0
SPLINE
5
162
100
AcDbEntity
8
1
62
256
6
ByLayer
370
18
48
1
60
0
100
AcDbSpline
70
4
71
3
72
18
73
14
40
0
40
0
40
0
40
0
40
0.250000000000001
40
0.250000000000001
40
0.375000000000001
40
0.375000000000001
40
0.500000000000002
40
0.500000000000002
40
0.625000000000002
40
0.625000000000002
40
0.750000000000003
40
0.750000000000003
40
1
40
1
40
1
40
1
41
1
10
61.8044512866186
20
2.20874995164198
30
0
41
1
10
61.8104802581136
20
2.20222051007835
30
0
41
1
10
61.8159669027084
20
2.19604144399864
30
0
41
1
10
61.8231151664693
20
2.18747168985121
30
0
41
1
10
61.8253162466409
20
2.18473247765547
30
0
41
1
10
61.8292828174515
20
2.17953547013087
30
0
41
1
10
61.8310552486734
20
2.17706695974377
30
0
41
1
10
61.8340216777696
20
2.17253947698504
30
0
41
1
10
61.83521727782
20
2.17048052320769
30
0
41
1
10
61.8369288869899
20
2.16684649876123
30
0
41
1
10
61.837445205733
20
2.16526236473681
30
0
41
1
10
61.8377497313514
20
2.1614659304546
30
0
41
1
10
61.836330056996
20
2.16020149223428
30
0
41
1
10
61.8329143005142
20
2.16049500504701
30
0
0
SPLINE
5
163
100
AcDbEntity
8
1
62
256
6
ByLayer
370
18
48
1
60
0
100
AcDbSpline
70
4
71
3
72
10
73
6
40
0
40
0
40
0
40
0
40
0.5
40
0.5
40
1
40
1
40
1
40
1
41
1
10
61.832914301701
20
2.16049500449992
30
0
41
1
10
61.807042153922
20
2.16271805512082
30
0
41
1
10
61.7841999144826
20
2.16244650501463
30
0
41
1
10
61.7461877988914
20
2.15570924780735
30
0
41
1
10
61.7310584093184
20
2.1492565131596
30
0
41
1
10
61.7207389584592
20
2.13899744224702
30
0
0
SPLINE
5
164
100
AcDbEntity
8
1
62
256
6
ByLayer
370
18
48
1
60
0
100
AcDbSpline
70
4
71
3
72
10
73
6
40
0
40
0
40
0
40
0
40
0.5
40
0.5
40
1
40
1
40
1
40
1
41
1
10
61.7207389588437
20
2.13899744205753
30
0
41
1
10
61.7381830966306
20
2.1208027329381
30
0
41
1
10
61.7575848598605
20
2.10147295239463
30
0
41
1
10
61.798771280619
20
2.06154551512404
30
0
41
1
10
61.8205532856676
20
2.04095517243988
30
0
41
1
10
61.8431468822792
20
2.01996713781895
30
0
0
SPLINE
5
165
100
AcDbEntity
8
1
62
256
6
ByLayer
370
18
48
1
60
0
100
AcDbSpline
70
4
71
3
72
24
73
20
40
0
40
0
40
0
40
0
40
0.250000000000047
40
0.250000000000047
40
0.500000000000094
40
0.500000000000094
40
0.625000000000117
40
0.625000000000117
40
0.687500000000097
40
0.687500000000097
40
0.750000000000078
40
0.750000000000078
40
0.812500000000059
40
0.812500000000059
40
0.875000000000039
40
0.875000000000039
40
0.93750000000002
40
0.93750000000002
40
1
40
1
40
1
40
1
41
1
10
61.8431468857799
20
2.01996713617513
30
0
41
1
10
61.8563733701692
20
2.00768055896344
30
0
41
1
10
61.8691296284602
20
1.99563878556981
30
0
41
1
10
61.8932460094039
20
1.97228208428405
30
0
41
1
10
61.9046771449905
20
1.96090048669396
30
0
41
1
10
61.9195151706755
20
1.94527801966589
30
0
41
1
10
61.9240874391055
20
1.9403003414493
30
0
41
1
10
61.930134240811
20
1.93333287316381
30
0
41
1
10
61.9320131863728
20
1.93109441216095
30
0
41
1
10
61.9354249254708
20
1.92683033717128
30
0
41
1
10
61.9369670175119
20
1.92479146543138
30
0
41
1
10
61.9395451352194
20
1.92106520484779
30
0
41
1
10
61.9405797993846
20
1.91938224447785
30
0
41
1
10
61.9420249856689
20
1.91645835978971
30
0
41
1
10
61.9424347244914
20
1.91520850536932
30
0
41
1
10
61.9424636855378
20
1.91332186435704
30
0
41
1
10
61.942090519645
20
1.91268205085868
30
0
41
1
10
61.9404917193366
20
1.91206986243426
30
0
41
1
10
61.9392505124149
20
1.91210208531254
30
0
41
1
10
61.9375736974695
20
1.91249656260769
30
0
0
SPLINE
5
166
100
AcDbEntity
8
1
62
256
6
ByLayer
370
18
48
1
60
0
100
AcDbSpline
70
4
71
3
72
17
73
13
40
0
40
0
40
0
40
0
40
0.24999999999999
40
0.24999999999999
40
0.499999999999979
40
0.499999999999979
40
0.624999999999984
40
0.624999999999984
40
0.687499999999987
40
0.687499999999987
40
0.74999999999999
40
1
40
1
40
1
40
1
41
1
10
62.0743502770212
20
2.06014405453806
30
0
41
1
10
62.1700340856895
20
1.98057758292347
30
0
41
1
10
62.2671742671189
20
1.90104999650339
30
0
41
1
10
62.4641508306916
20
1.74206681229961
30
0
41
1
10
62.5639874836829
20
1.66261122174765
30
0
41
1
10
62.715641301694
20
1.54347853496267
30
0
41
1
10
62.7665094239596
20
1.50377609926096
30
0
41
1
10
62.8432746544734
20
1.44423480907966
30
0
41
1
10
62.8689645982002
20
1.42437120918638
30
0
41
1
10
62.9203246524614
20
1.38478005548902
30
0
41
1
10
63.0487244423598
20
1.28610271669763
30
0
41
1
10
63.1771226001808
20
1.1888440548434
30
0
41
1
10
63.2798403044697
20
1.11175161760119
30
0
0
SPLINE
5
167
100
AcDbEntity
8
1
62
256
6
ByLayer
370
18
48
1
60
0
100
AcDbSpline
70
4
71
3
72
8
73
4
40
0
40
0
40
0
40
0
40
1
40
1
40
1
40
1
41
1
10
57.7060000000002
20
-2.37119080377468
30
0
41
1
10
57.5863323624555
20
-2.37599863175834
30
0
41
1
10
57.466819836067
20
-2.38241310630369
30
0
41
1
10
57.3474623110958
20
-2.39043309073392
30
0
0
SPLINE
5
168
100
AcDbEntity
8
1
62
256
6
ByLayer
370
18
48
1
60
0
100
AcDbSpline
70
4
71
3
72
12
73
8
40
0
40
0
40
0
40
0
40
0.0251683437659839
40
0.220134675012787
40
0.41510100625959
40
0.610067337506394
40
1
40
1
40
1
40
1
41
1
10
61.7413121227073
20
-0.768276411535652
30
0
41
1
10
61.7074580818049
20
-0.753950402728805
30
0
41
1
10
61.4113540409024
20
-0.628405553931913
30
0
41
1
10
60.853
20
-0.38788867785857
30
0
41
1
10
60.06625
20
-0.0440188983345138
30
0
41
1
10
59.0172499999999
20
0.415098909183285
30
0
41
1
10
58.2305
20
0.753640992227645
30
0
41
1
10
57.7060000000001
20
0.971660733465114
30
0
0
SPLINE
5
169
100
AcDbEntity
8
1
62
256
6
ByLayer
370
18
48
1
60
0
100
AcDbSpline
70
4
71
3
72
8
73
4
40
0
40
0
40
0
40
0
40
1
40
1
40
1
40
1
41
1
10
61.9375737199329
20
1.91249654996639
30
0
41
1
10
61.9082586155709
20
1.91939307062776
30
0
41
1
10
61.8765401123816
20
1.92835436086625
30
0
41
1
10
61.8418052557367
20
1.93990702614215
30
0
0
SPLINE
5
16A
100
AcDbEntity
8
1
62
256
6
ByLayer
370
18
48
1
60
0
100
AcDbSpline
70
4
71
3
72
8
73
4
40
0
40
0
40
0
40
0
40
1
40
1
40
1
40
1
41
1
10
57.8421965137037
20
2.98247916915022
30
0
41
1
10
57.7967450685884
20
2.99663636270725
30
0
41
1
10
57.751344730589
20
3.0109912020304
30
0
41
1
10
57.7060000000001
20
3.0255511606716
30
0
0
SPLINE
5
16B
100
AcDbEntity
8
1
62
256
6
ByLayer
370
18
48
1
60
0
100
AcDbSpline
70
4
71
3
72
8
73
4
40
0
40
0
40
0
40
0
40
1
40
1
40
1
40
1
41
1
10
57.8421965137037
20
2.98247916915022
30
0
41
1
10
57.9028257219587
20
3.00024672866101
30
0
41
1
10
57.9625428002914
20
3.01715051779954
30
0
41
1
10
58.0213597854324
20
3.03320193512988
30
0
0
SPLINE
5
16C
100
AcDbEntity
8
1
62
256
6
ByLayer
370
18
48
1
60
0
100
AcDbSpline
70
4
71
3
72
14
73
10
40
0
40
0
40
0
40
0
40
0.125000000000015
40
0.125000000000015
40
0.25000000000003
40
0.25000000000003
40
0.50000000000002
40
0.50000000000002
40
1
40
1
40
1
40
1
41
1
10
61.0272175657268
20
-2.17224400976059
30
0
41
1
10
61.0597914802427
20
-2.18103089401143
30
0
41
1
10
61.0924301971317
20
-2.18930118398984
30
0
41
1
10
61.1578514377356
20
-2.20477349257314
30
0
41
1
10
61.1906720907868
20
-2.21198455180146
30
0
41
1
10
61.2885744739273
20
-2.23185685659578
30
0
41
1
10
61.3533283029136
20
-2.24281897375735
30
0
41
1
10
61.5460653984081
20
-2.26909913459454
30
0
41
1
10
61.6725129760347
20
-2.27780402158626
30
0
41
1
10
61.7968600740772
20
-2.27810270620523
30
0
0
SPLINE
5
16D
100
AcDbEntity
8
1
62
256
6
ByLayer
370
18
48
1
60
0
100
AcDbSpline
70
4
71
3
72
20
73
16
40
0
40
0
40
0
40
0
40
0.249999999999938
40
0.249999999999938
40
0.374999999999949
40
0.374999999999949
40
0.499999999999959
40
0.499999999999959
40
0.624999999999969
40
0.624999999999969
40
0.749999999999979
40
0.749999999999979
40
0.87499999999999
40
0.87499999999999
40
1
40
1
40
1
40
1
41
1
10
61.8621243196613
20
-0.150445433173331
30
0
41
1
10
61.869799406601
20
-0.164659464320437
30
0
41
1
10
61.8768294571229
20
-0.179118143611589
30
0
41
1
10
61.8860352863647
20
-0.201314109321061
30
0
41
1
10
61.8888786116854
20
-0.208798209990448
30
0
41
1
10
61.8940073271063
20
-0.223978023895768
30
0
41
1
10
61.8963043964778
20
-0.231721967481661
30
0
41
1
10
61.9001086705356
20
-0.247194283455883
30
0
41
1
10
61.9016203594534
20
-0.254918610358516
30
0
41
1
10
61.903687825366
20
-0.270338298791899
30
0
41
1
10
61.9042417892916
20
-0.278107360532402
30
0
41
1
10
61.9041370375418
20
-0.293183444055813
30
0
41
1
10
61.9034902284522
20
-0.30047984819447
30
0
41
1
10
61.9008547986836
20
-0.314527208884073
30
0
41
1
10
61.898847117968
20
-0.321279956371541
30
0
41
1
10
61.8961857311382
20
-0.32750174686069
30
0
0
SPLINE
5
16E
100
AcDbEntity
8
1
62
256
6
ByLayer
370
18
48
1
60
0
100
AcDbSpline
70
4
71
3
72
10
73
6
40
0
40
0
40
0
40
0
40
0.5
40
0.5
40
1
40
1
40
1
40
1
41
1
10
61.8961857328843
20
-0.327501747722067
30
0
41
1
10
61.8661098541349
20
-0.397814262574798
30
0
41
1
10
61.8378352930143
20
-0.469563782820586
30
0
41
1
10
61.7858322144965
20
-0.616388182120971
30
0
41
1
10
61.7621306805912
20
-0.691373020712064
30
0
41
1
10
61.7413121227058
20
-0.768276411535027
30
0
0
SPLINE
5
16F
100
AcDbEntity
8
1
62
256
6
ByLayer
370
18
48
1
60
0
100
AcDbSpline
70
4
71
3
72
10
73
6
40
0
40
0
40
0
40
0
40
0.5
40
0.5
40
1
40
1
40
1
40
1
41
1
10
61.7413121231508
20
-0.768276411778885
30
0
41
1
10
61.7565825593396
20
-0.793501396847518
30
0
41
1
10
61.7729152524568
20
-0.817911365612247
30
0
41
1
10
61.8070410636207
20
-0.865321206962989
30
0
41
1
10
61.8248247381794
20
-0.888300977079382
30
0
41
1
10
61.8431468821597
20
-0.910666553170557
30
0
0
SPLINE
5
170
100
AcDbEntity
8
1
62
256
6
ByLayer
370
18
48
1
60
0
100
AcDbSpline
70
4
71
3
72
24
73
20
40
0
40
0
40
0
40
0
40
0.250000000000044
40
0.250000000000044
40
0.500000000000087
40
0.500000000000087
40
0.62500000000011
40
0.62500000000011
40
0.687500000000092
40
0.687500000000092
40
0.750000000000074
40
0.750000000000074
40
0.812500000000055
40
0.812500000000055
40
0.875000000000037
40
0.875000000000037
40
0.937500000000018
40
0.937500000000018
40
1
40
1
40
1
40
1
41
1
10
61.84314688578
20
-0.91066655472514
30
0
41
1
10
61.8563733701875
20
-0.926811947303207
30
0
41
1
10
61.8691296284954
20
-0.943420133338947
30
0
41
1
10
61.8932460094685
20
-0.978010574444255
30
0
41
1
10
61.9046771450672
20
-0.996083304946694
30
0
41
1
10
61.9195151707601
20
-1.02412540260116
30
0
41
1
10
61.9240874391911
20
-1.03365032542729
30
0
41
1
10
61.9301342408934
20
-1.04832328608319
30
0
41
1
10
61.9320131864533
20
-1.05327919520471
30
0
41
1
10
61.9354249255454
20
-1.0633554637964
30
0
41
1
10
61.9369670175827
20
-1.06851212101066
30
0
41
1
10
61.9395451352768
20
-1.078848217044
30
0
41
1
10
61.9405797994338
20
-1.0840089104301
30
0
41
1
10
61.9420249856976
20
-1.09431225305911
30
0
41
1
10
61.9424347245073
20
-1.09950609595825
30
0
41
1
10
61.9424636855237
20
-1.10958365657484
30
0
41
1
10
61.9420905196141
20
-1.11445482893333
30
0
41
1
10
61.9404917192682
20
-1.12382858904468
30
0
41
1
10
61.939250512417
20
-1.12836545298819
30
0
41
1
10
61.9375736974693
20
-1.13259951807075
30
0
0
SPLINE
5
171
100
AcDbEntity
8
1
62
256
6
ByLayer
370
18
48
1
60
0
100
AcDbSpline
70
4
71
3
72
18
73
14
40
0
40
0
40
0
40
0
40
0.249999999999995
40
0.249999999999995
40
0.499999999999991
40
0.499999999999991
40
0.562499999999985
40
0.562499999999985
40
0.624999999999979
40
0.624999999999979
40
0.749999999999986
40
0.749999999999986
40
1
40
1
40
1
40
1
41
1
10
61.9096252353629
20
0.208215672824196
30
0
41
1
10
62.0175692994085
20
0.12472087603291
30
0
41
1
10
62.1277738548019
20
0.0493749237392649
30
0
41
1
10
62.3523378624457
20
-0.0863389945704114
30
0
41
1
10
62.4666978384634
20
-0.146705072457422
30
0
41
1
10
62.6120768673125
20
-0.213406156470342
30
0
41
1
10
62.6412743427177
20
-0.226307766445558
30
0
41
1
10
62.6999092716775
20
-0.251245889245695
30
0
41
1
10
62.7293852347129
20
-0.263297219809488
30
0
41
1
10
62.8178508307304
20
-0.298047024333442
30
0
41
1
10
62.8768306569577
20
-0.319320670948997
30
0
41
1
10
63.0537777225298
20
-0.377942470463154
30
0
41
1
10
63.1717524516981
20
-0.41015800076886
30
0
41
1
10
63.2897348037514
20
-0.437149724395937
30
0
0
SPLINE
5
172
100
AcDbEntity
8
1
62
256
6
ByLayer
370
18
48
1
60
0
100
AcDbSpline
70
4
71
3
72
20
73
16
40
0
40
0
40
0
40
0
40
0.125
40
0.125
40
0.25
40
0.25
40
0.5
40
0.5
40
0.625
40
0.625
40
0.75
40
0.75
40
0.875
40
0.875
40
1
40
1
40
1
40
1
41
1
10
57.3474623110997
20
3.13582506244129
30
0
41
1
10
57.3187120891329
20
3.12924710852755
30
0
41
1
10
57.2904182619532
20
3.12225258829295
30
0
41
1
10
57.235068303045
20
3.10735322712205
30
0
41
1
10
57.2080169045814
20
3.09945127489982
30
0
41
1
10
57.1289728208315
20
3.07417383921188
30
0
41
1
10
57.0789756592368
20
3.05520370825641
30
0
41
1
10
57.0102520292598
20
3.02273289983083
30
0
41
1
10
56.9884211517904
20
3.01125048336857
30
0
41
1
10
56.9473368360469
20
2.9867908241115
30
0
41
1
10
56.9280919154844
20
2.97381542540583
30
0
41
1
10
56.8928147892039
20
2.94627308943839
30
0
41
1
10
56.876749695231
20
2.93167045824029
30
0
41
1
10
56.8486011519801
20
2.90092236840459
30
0
41
1
10
56.8364651538089
20
2.88474313312563
30
0
41
1
10
56.8265476700667
20
2.86763871855212
30
0
0
SPLINE
5
173
100
AcDbEntity
8
1
62
256
6
ByLayer
370
18
48
1
60
0
100
AcDbSpline
70
4
71
3
72
36
73
32
40
0
40
0
40
0
40
0
40
0.250000000000015
40
0.250000000000015
40
0.375000000000068
40
0.375000000000068
40
0.500000000000121
40
0.500000000000121
40
0.562500000000147
40
0.562500000000147
40
0.625000000000174
40
0.625000000000174
40
0.6875000000002
40
0.6875000000002
40
0.71875000000023
40
0.71875000000023
40
0.750000000000259
40
0.750000000000259
40
0.765625000000256
40
0.765625000000256
40
0.781250000000253
40
0.781250000000253
40
0.812500000000248
40
0.812500000000248
40
0.843750000000242
40
0.843750000000242
40
0.875000000000237
40
0.875000000000237
40
0.937500000000118
40
0.937500000000118
40
1
40
1
40
1
40
1
41
1
10
55.0353909816182
20
-3.26576424033723
30
0
41
1
10
55.0095732958995
20
-3.26439478620139
30
0
41
1
10
54.9841897031064
20
-3.26285398818752
30
0
41
1
10
54.947319700419
20
-3.26016968481022
30
0
41
1
10
54.9352334586326
20
-3.25921214319746
30
0
41
1
10
54.9116952019716
20
-3.25712634736232
30
0
41
1
10
54.9002292037223
20
-3.25600066138009
30
0
41
1
10
54.8839055527778
20
-3.25410724031642
30
0
41
1
10
54.8786122535875
20
-3.25344156399589
30
0
41
1
10
54.8685024831572
20
-3.25200734590052
30
0
41
1
10
54.8636974731865
20
-3.2512415765766
30
0
41
1
10
54.8552307081547
20
-3.24958372690449
30
0
41
1
10
54.8514872949292
20
-3.24868390958289
30
0
41
1
10
54.8479695659329
20
-3.24720055677912
30
0
41
1
10
54.8471574777348
20
-3.24667820008264
30
0
41
1
10
54.8467702777683
20
-3.24561639860318
30
0
41
1
10
54.8472199468349
20
-3.24506719470446
30
0
41
1
10
54.8490899478211
20
-3.24429000217827
30
0
41
1
10
54.8499203739619
20
-3.24403472661118
30
0
41
1
10
54.8518991969949
20
-3.24355768726281
30
0
41
1
10
54.8530512620141
20
-3.24333307998711
30
0
41
1
10
54.8569407283203
20
-3.24269717790966
30
0
41
1
10
54.8599973150059
20
-3.24234082185365
30
0
41
1
10
54.8665912723323
20
-3.24172783478309
30
0
41
1
10
54.8701353940066
20
-3.24147133611106
30
0
41
1
10
54.8773368786235
20
-3.24103637073745
30
0
41
1
10
54.8810311331334
20
-3.24085522918256
30
0
41
1
10
54.8923047237273
20
-3.24038711485778
30
0
41
1
10
54.9000366614454
20
-3.24017587031187
30
0
41
1
10
54.9155005480273
20
-3.23987045994065
30
0
41
1
10
54.9232827269537
20
-3.23977649513628
30
0
41
1
10
54.9310971642658
20
-3.23972066547071
30
0
0
SPLINE
5
174
100
AcDbEntity
8
1
62
256
6
ByLayer
370
18
48
1
60
0
100
AcDbSpline
70
4
71
3
72
12
73
8
40
0
40
0
40
0
40
0
40
0.500000000000129
40
0.500000000000129
40
0.750000000000065
40
0.750000000000065
40
1
40
1
40
1
40
1
41
1
10
54.9310971642657
20
-3.23972066547071
30
0
41
1
10
54.9574784881448
20
-3.23953218606644
30
0
41
1
10
54.9836766335199
20
-3.2391578027692
30
0
41
1
10
55.0224111746933
20
-3.23799674162711
30
0
41
1
10
55.0353111803608
20
-3.23750342372784
30
0
41
1
10
55.0603286859827
20
-3.23618654512794
30
0
41
1
10
55.0724292389127
20
-3.23537203927628
30
0
41
1
10
55.0837941385948
20
-3.23425923439356
30
0
0
SPLINE
5
175
100
AcDbEntity
8
1
62
256
6
ByLayer
370
18
48
1
60
0
100
AcDbSpline
70
4
71
3
72
14
73
10
40
0
40
0
40
0
40
0
40
0.25
40
0.25
40
0.5
40
0.5
40
0.75
40
0.75
40
1
40
1
40
1
40
1
41
1
10
55.0837941385948
20
-3.23425923439356
30
0
41
1
10
55.0092678157905
20
-3.22439324222384
30
0
41
1
10
54.9369425511673
20
-3.21252896102769
30
0
41
1
10
54.7971820614301
20
-3.18406592230505
30
0
41
1
10
54.7297459368337
20
-3.16746937541237
30
0
41
1
10
54.6003352826098
20
-3.1286036712134
30
0
41
1
10
54.5383591505297
20
-3.10633813808852
30
0
41
1
10
54.4205606802579
20
-3.05490870086518
30
0
41
1
10
54.3647353077663
20
-3.02575121809448
30
0
41
1
10
54.3124262856917
20
-2.99231582727481
30
0
0
SPLINE
5
176
100
AcDbEntity
8
1
62
256
6
ByLayer
370
18
48
1
60
0
100
AcDbSpline
70
4
71
3
72
28
73
24
40
0
40
0
40
0
40
0
40
0.124999999999985
40
0.124999999999985
40
0.18750000000002
40
0.18750000000002
40
0.250000000000056
40
0.250000000000056
40
0.312500000000091
40
0.312500000000091
40
0.375000000000126
40
0.375000000000126
40
0.500000000000197
40
0.500000000000197
40
0.562500000000232
40
0.562500000000232
40
0.625000000000268
40
0.625000000000268
40
0.750000000000179
40
0.750000000000179
40
0.875000000000089
40
0.875000000000089
40
1
40
1
40
1
40
1
41
1
10
54.3124262856917
20
-2.99231582727481
30
0
41
1
10
54.307913501791
20
-2.98943130205487
30
0
41
1
10
54.3038334815913
20
-2.98644207387503
30
0
41
1
10
54.2986767265307
20
-2.98173269601264
30
0
41
1
10
54.2971200919647
20
-2.98012493958893
30
0
41
1
10
54.2944228771578
20
-2.97681368604395
30
0
41
1
10
54.2932850924053
20
-2.97510829883117
30
0
41
1
10
54.2915959046488
20
-2.97166561246405
30
0
41
1
10
54.2910352814004
20
-2.96991916823129
30
0
41
1
10
54.2906233031373
20
-2.96636600857701
30
0
41
1
10
54.2907828848023
20
-2.96455904379744
30
0
41
1
10
54.2924968624369
20
-2.95925830445131
30
0
41
1
10
54.2954021529561
20
-2.95576600781953
30
0
41
1
10
54.3019238079631
20
-2.95112537531773
30
0
41
1
10
54.3044799960205
20
-2.94964693263034
30
0
41
1
10
54.3100679093332
20
-2.9469153390616
30
0
41
1
10
54.3130923605798
20
-2.9456588646911
30
0
41
1
10
54.3227132512468
20
-2.94215144481592
30
0
41
1
10
54.329899664035
20
-2.94015394055265
30
0
41
1
10
54.344680238622
20
-2.936757025936
30
0
41
1
10
54.3523489242251
20
-2.93533211502003
30
0
41
1
10
54.3680587894847
20
-2.93285244169812
30
0
41
1
10
54.3761147030537
20
-2.93179920676511
30
0
41
1
10
54.3842420661506
20
-2.93089203346409
30
0
0
SPLINE
5
177
100
AcDbEntity
8
1
62
256
6
ByLayer
370
18
48
1
60
0
100
AcDbSpline
70
4
71
3
72
24
73
20
40
0
40
0
40
0
40
0
40
0.0625000000000071
40
0.0625000000000071
40
0.125000000000014
40
0.125000000000014
40
0.187500000000021
40
0.187500000000021
40
0.250000000000028
40
0.250000000000028
40
0.375000000000024
40
0.375000000000024
40
0.500000000000019
40
0.500000000000019
40
0.625000000000014
40
0.625000000000014
40
0.750000000000009
40
0.750000000000009
40
1
40
1
40
1
40
1
41
1
10
54.3842420661506
20
-2.93089203346403
30
0
41
1
10
54.4290356293901
20
-2.92589219229248
30
0
41
1
10
54.474115145687
20
-2.92176651500264
30
0
41
1
10
54.5646742464932
20
-2.91478459742356
30
0
41
1
10
54.6101558825992
20
-2.91193373524666
30
0
41
1
10
54.7014273165608
20
-2.90723533507452
30
0
41
1
10
54.747217903555
20
-2.90538988897131
30
0
41
1
10
54.8390488200132
20
-2.90252682983419
30
0
41
1
10
54.8850542234663
20
-2.90151195174579
30
0
41
1
10
55.0228580596134
20
-2.89952255269483
30
0
41
1
10
55.1146317610454
20
-2.89958699812632
30
0
41
1
10
55.2980377554756
20
-2.90177596909115
30
0
41
1
10
55.3896694888731
20
-2.90390736012992
30
0
41
1
10
55.5728189130934
20
-2.90978720556873
30
0
41
1
10
55.6643763314964
20
-2.91354039346044
30
0
41
1
10
55.8472129770764
20
-2.92233258334289
30
0
41
1
10
55.9384093553881
20
-2.92736796147099
30
0
41
1
10
56.2114266426726
20
-2.94399427511365
30
0
41
1
10
56.3926797577654
20
-2.95709311591366
30
0
41
1
10
56.5733388275704
20
-2.97139659190134
30
0
0
SPLINE
5
178
100
AcDbEntity
8
1
62
256
6
ByLayer
370
18
48
1
60
0
100
AcDbSpline
70
4
71
3
72
8
73
4
40
0
40
0
40
0
40
0
40
1
40
1
40
1
40
1
41
1
10
56.6557019455854
20
-2.94507810296386
30
0
41
1
10
56.6276942848832
20
-2.95374581175071
30
0
41
1
10
56.6002202846454
20
-2.96251992351745
30
0
41
1
10
56.5733388275698
20
-2.97139659190111
30
0
0
SPLINE
5
179
100
AcDbEntity
8
1
62
256
6
ByLayer
370
18
48
1
60
0
100
AcDbSpline
70
4
71
3
72
10
73
6
40
0
40
0
40
0
40
0
40
0.5
40
0.5
40
1
40
1
40
1
40
1
41
1
10
56.8265476700659
20
-2.80643559202119
30
0
41
1
10
56.7910415631697
20
-2.82905399554471
30
0
41
1
10
56.7582754053048
20
-2.85206871162359
30
0
41
1
10
56.7004251312913
20
-2.89850581178575
30
0
41
1
10
56.6753821121205
20
-2.92190913497461
30
0
41
1
10
56.6557019455854
20
-2.94507810296389
30
0
0
SPLINE
5
17A
100
AcDbEntity
8
1
62
256
6
ByLayer
370
18
48
1
60
0
100
AcDbSpline
70
4
71
3
72
20
73
16
40
0
40
0
40
0
40
0
40
0.125000000000007
40
0.125000000000007
40
0.250000000000014
40
0.250000000000014
40
0.500000000000029
40
0.500000000000029
40
0.625000000000022
40
0.625000000000022
40
0.750000000000014
40
0.750000000000014
40
0.875000000000007
40
0.875000000000007
40
1
40
1
40
1
40
1
41
1
10
57.3474623110958
20
-2.39043309073389
30
0
41
1
10
57.3187120891291
20
-2.40595274339464
30
0
41
1
10
57.2904182619494
20
-2.42175144389353
30
0
41
1
10
57.2350683030414
20
-2.45383688186016
30
0
41
1
10
57.2080169045779
20
-2.47011932425789
30
0
41
1
10
57.1289728208282
20
-2.51974485273033
30
0
41
1
10
57.0789756592338
20
-2.55392934206347
30
0
41
1
10
57.0102520292572
20
-2.60659192875957
30
0
41
1
10
56.988421151788
20
-2.62435606794463
30
0
41
1
10
56.9473368360446
20
-2.66026781149299
30
0
41
1
10
56.9280919154823
20
-2.67841064503841
30
0
41
1
10
56.8928147892022
20
-2.7148970038613
30
0
41
1
10
56.8767496952293
20
-2.73328289120715
30
0
41
1
10
56.8486011519788
20
-2.76990401823736
30
0
41
1
10
56.836465153808
20
-2.7881871829089
30
0
41
1
10
56.8265476700659
20
-2.80643559202119
30
0
0
SPLINE
5
17B
100
AcDbEntity
8
1
62
256
6
ByLayer
370
18
48
1
60
0
100
AcDbSpline
70
4
71
3
72
36
73
32
40
0
40
0
40
0
40
0
40
0.250000000000007
40
0.250000000000007
40
0.375000000000011
40
0.375000000000011
40
0.500000000000015
40
0.500000000000015
40
0.562500000000057
40
0.562500000000057
40
0.625000000000099
40
0.625000000000099
40
0.68750000000014
40
0.68750000000014
40
0.718750000000178
40
0.718750000000178
40
0.750000000000215
40
0.750000000000215
40
0.765625000000216
40
0.765625000000216
40
0.781250000000216
40
0.781250000000216
40
0.812500000000216
40
0.812500000000216
40
0.843750000000216
40
0.843750000000216
40
0.875000000000216
40
0.875000000000216
40
0.937500000000108
40
0.937500000000108
40
1
40
1
40
1
40
1
41
1
10
55.0353909816181
20
-1.45482551771292
30
0
41
1
10
55.0095732958993
20
-1.43965522841438
30
0
41
1
10
54.9841897031061
20
-1.42394915537491
30
0
41
1
10
54.9473197004188
20
-1.3989462196414
30
0
41
1
10
54.9352334586324
20
-1.39036796942682
30
0
41
1
10
54.9116952019715
20
-1.37246273876764
30
0
41
1
10
54.9002292037221
20
-1.36315175467723
30
0
41
1
10
54.8839055527776
20
-1.3481650423015
30
0
41
1
10
54.8786122535872
20
-1.34299710722058
30
0
41
1
10
54.868502483157
20
-1.33210922523062
30
0
41
1
10
54.8636974731863
20
-1.32641062480718
30
0
41
1
10
54.8552307081545
20
-1.31436289612887
30
0
41
1
10
54.8514872949289
20
-1.3079571617358
30
0
41
1
10
54.8479695659327
20
-1.29766767505512
30
0
41
1
10
54.8471574777346
20
-1.29408680932048
30
0
41
1
10
54.8467702777681
20
-1.28689996486599
30
0
41
1
10
54.8472199468347
20
-1.28322944125608
30
0
41
1
10
54.8490899478209
20
-1.27809385153964
30
0
41
1
10
54.8499203739617
20
-1.27641705181975
30
0
41
1
10
54.8518991969948
20
-1.27329898672568
30
0
41
1
10
54.853051262014
20
-1.27183879886167
30
0
41
1
10
54.8569407283201
20
-1.2677218724377
30
0
41
1
10
54.8599973150057
20
-1.26543797105114
30
0
41
1
10
54.8665912723321
20
-1.26152835789767
30
0
41
1
10
54.8701353940064
20
-1.25990401915291
30
0
41
1
10
54.8773368786233
20
-1.25715867218008
30
0
41
1
10
54.8810311331332
20
-1.25602097778739
30
0
41
1
10
54.8923047237271
20
-1.25308785459274
30
0
41
1
10
54.9000366614452
20
-1.2517744048896
30
0
41
1
10
54.9155005480271
20
-1.24987738055222
30
0
41
1
10
54.9232827269534
20
-1.24929601358031
30
0
41
1
10
54.9310971642655
20
-1.24895056625073
30
0
0
SPLINE
5
17C
100
AcDbEntity
8
1
62
256
6
ByLayer
370
18
48
1
60
0
100
AcDbSpline
70
4
71
3
72
16
73
12
40
0
40
0
40
0
40
0
40
0.249999999999949
40
0.249999999999949
40
0.499999999999899
40
0.499999999999899
40
0.749999999999848
40
0.749999999999848
40
0.874999999999924
40
0.874999999999924
40
1
40
1
40
1
40
1
41
1
10
54.9310971642655
20
-1.24895056625073
30
0
41
1
10
54.946673661015
20
-1.2482619870234
30
0
41
1
10
54.9621940149143
20
-1.24714281504166
30
0
41
1
10
54.9930706998409
20
-1.24364486749241
30
0
41
1
10
55.0084846172086
20
-1.2412669023056
30
0
41
1
10
55.0387874346279
20
-1.23451904882776
30
0
41
1
10
55.0535880980455
20
-1.23020799401928
30
0
41
1
10
55.0748158864639
20
-1.22113100511115
30
0
41
1
10
55.0817554884095
20
-1.21763250449715
30
0
41
1
10
55.0946975667369
20
-1.20960214207128
30
0
41
1
10
55.1007506164421
20
-1.20505840954385
30
0
41
1
10
55.1062181834571
20
-1.19977190592653
30
0
0
SPLINE
5
17D
100
AcDbEntity
8
1
62
256
6
ByLayer
370
18
48
1
60
0
100
AcDbSpline
70
4
71
3
72
14
73
10
40
0
40
0
40
0
40
0
40
0.25
40
0.25
40
0.5
40
0.5
40
0.75
40
0.75
40
1
40
1
40
1
40
1
41
1
10
55.1062181834571
20
-1.19977190592653
30
0
41
1
10
55.0380910104745
20
-1.14033369353439
30
0
41
1
10
54.9727222335503
20
-1.07825937510455
30
0
41
1
10
54.8481619304715
20
-0.948098428029198
30
0
41
1
10
54.7889689045766
20
-0.88001380748409
30
0
41
1
10
54.6775409178096
20
-0.736928473116933
30
0
41
1
10
54.6253030669165
20
-0.661931454505435
30
0
41
1
10
54.528750695259
20
-0.503870014186617
30
0
41
1
10
54.4851491519318
20
-0.421946358347213
30
0
41
1
10
54.4465385160066
20
-0.336982361697352
30
0
0
SPLINE
5
17E
100
AcDbEntity
8
1
62
256
6
ByLayer
370
18
48
1
60
0
100
AcDbSpline
70
4
71
3
72
24
73
20
40
0
40
0
40
0
40
0
40
0.12500000000005
40
0.12500000000005
40
0.250000000000099
40
0.250000000000099
40
0.375000000000149
40
0.375000000000149
40
0.437500000000134
40
0.437500000000134
40
0.500000000000119
40
0.500000000000119
40
0.625000000000089
40
0.625000000000089
40
0.750000000000059
40
0.750000000000059
40
0.87500000000003
40
0.87500000000003
40
1
40
1
40
1
40
1
41
1
10
54.4465385160066
20
-0.336982361697323
30
0
41
1
10
54.4436819292356
20
-0.330696346897838
30
0
41
1
10
54.4412939025415
20
-0.324260190085368
30
0
41
1
10
54.437859135289
20
-0.310958953895096
30
0
41
1
10
54.4368301291284
20
-0.304062174404834
30
0
41
1
10
54.4367908045161
20
-0.290377106954565
30
0
41
1
10
54.4378217247587
20
-0.283406370736998
30
0
41
1
10
54.441036189345
20
-0.273686730637422
30
0
41
1
10
54.4423774479621
20
-0.270545270185295
30
0
41
1
10
54.4455929746094
20
-0.264456938950758
30
0
41
1
10
54.4474756253524
20
-0.261508082344108
30
0
41
1
10
54.4536675382018
20
-0.253230046725832
30
0
41
1
10
54.458631200859
20
-0.24830240725808
30
0
41
1
10
54.4693665151386
20
-0.239675535704947
30
0
41
1
10
54.4751230007897
20
-0.235957556357903
30
0
41
1
10
54.487169344164
20
-0.229338749742198
30
0
41
1
10
54.4934793769167
20
-0.226438383617705
30
0
41
1
10
54.5062971088506
20
-0.221327512902803
30
0
41
1
10
54.5128307570271
20
-0.219103258236828
30
0
41
1
10
54.5194578913634
20
-0.217127189414498
30
0
0
SPLINE
5
17F
100
AcDbEntity
8
1
62
256
6
ByLayer
370
18
48
1
60
0
100
AcDbSpline
70
4
71
3
72
8
73
4
40
0
40
0
40
0
40
0
40
1
40
1
40
1
40
1
41
1
10
56.6557019455847
20
-0.171887516433827
30
0
41
1
10
56.6208410970019
20
-0.196470595803561
30
0
41
1
10
56.5868058761309
20
-0.221979775956242
30
0
41
1
10
56.553713641613
20
-0.248543690875437
30
0
0
SPLINE
5
180
100
AcDbEntity
8
1
62
256
6
ByLayer
370
18
48
1
60
0
100
AcDbSpline
70
4
71
3
72
10
73
6
40
0
40
0
40
0
40
0
40
0.5
40
0.5
40
1
40
1
40
1
40
1
41
1
10
56.8265476700668
20
0.118366637683437
30
0
41
1
10
56.7910415631703
20
0.0745687418515502
30
0
41
1
10
56.7582754053052
20
0.0285207768231714
30
0
41
1
10
56.7004251312912
20
-0.0683246775986106
30
0
41
1
10
56.67538211212
20
-0.119094370388922
30
0
41
1
10
56.6557019455847
20
-0.171887516433827
30
0
0
SPLINE
5
181
100
AcDbEntity
8
1
62
256
6
ByLayer
370
18
48
1
60
0
100
AcDbSpline
70
4
71
3
72
36
73
32
40
0
40
0
40
0
40
0
40
0.249999999999785
40
0.249999999999785
40
0.374999999999724
40
0.374999999999724
40
0.499999999999663
40
0.499999999999663
40
0.562499999999632
40
0.562499999999632
40
0.6249999999996
40
0.6249999999996
40
0.687499999999569
40
0.687499999999569
40
0.718749999999554
40
0.718749999999554
40
0.749999999999538
40
0.749999999999538
40
0.765624999999549
40
0.765624999999549
40
0.781249999999559
40
0.781249999999559
40
0.812499999999653
40
0.812499999999653
40
0.843749999999747
40
0.843749999999747
40
0.87499999999984
40
0.87499999999984
40
0.93749999999992
40
0.93749999999992
40
1
40
1
40
1
40
1
41
1
10
55.0353909816174
20
1.86239711401703
30
0
41
1
10
55.0095732958987
20
1.87632683850634
30
0
41
1
10
54.9841897031056
20
1.89062305107555
30
0
41
1
10
54.9473197004183
20
1.91314541382181
30
0
41
1
10
54.9352334586318
20
1.92083527534075
30
0
41
1
10
54.9116952019708
20
1.93679727769174
30
0
41
1
10
54.9002292037216
20
1.9450558773917
30
0
41
1
10
54.883905552777
20
1.95826549265715
30
0
41
1
10
54.8786122535867
20
1.962807604137
30
0
41
1
10
54.8685024831565
20
1.97234458365017
30
0
41
1
10
54.8636974731858
20
1.9773207134995
30
0
41
1
10
54.855230708154
20
1.98780134090009
30
0
41
1
10
54.8514872949285
20
1.99335513506389
30
0
41
1
10
54.8479695659323
20
2.00223740023699
30
0
41
1
10
54.8471574777342
20
2.00532227903562
30
0
41
1
10
54.8467702777677
20
2.01149997313021
30
0
41
1
10
54.8472199468343
20
2.01464804251657
30
0
41
1
10
54.8490899478205
20
2.01904368763172
30
0
41
1
10
54.8499203739613
20
2.02047734254569
30
0
41
1
10
54.8518991969944
20
2.0231408780831
30
0
41
1
10
54.8530512620136
20
2.02438697535487
30
0
41
1
10
54.8569407283198
20
2.02789759735063
30
0
41
1
10
54.8599973150054
20
2.02984148927206
30
0
41
1
10
54.8665912723319
20
2.03316603715834
30
0
41
1
10
54.870135394006
20
2.0345454409491
30
0
41
1
10
54.877336878623
20
2.03687533726145
30
0
41
1
10
54.881031133133
20
2.03783995907034
30
0
41
1
10
54.8923047237268
20
2.04032574823148
30
0
41
1
10
54.9000366614449
20
2.04143722572928
30
0
41
1
10
54.9155005480268
20
2.04304222552011
30
0
41
1
10
54.9232827269531
20
2.04353372245029
30
0
41
1
10
54.9310971642653
20
2.04382577329864
30
0
0
SPLINE
5
182
100
AcDbEntity
8
1
62
256
6
ByLayer
370
18
48
1
60
0
100
AcDbSpline
70
4
71
3
72
12
73
8
40
0
40
0
40
0
40
0
40
0.5
40
0.5
40
0.75
40
0.75
40
1
40
1
40
1
40
1
41
1
10
54.9310971642652
20
2.04382577329864
30
0
41
1
10
54.9574784881444
20
2.04481172887179
30
0
41
1
10
54.9836766335194
20
2.04678044687501
30
0
41
1
10
55.0224111746929
20
2.05273431583174
30
0
41
1
10
55.0353111803604
20
2.05525072486688
30
0
41
1
10
55.0603286859823
20
2.06185580612146
30
0
41
1
10
55.0724292389123
20
2.06590612977152
30
0
41
1
10
55.0837941385944
20
2.0712932342507
30
0
0
SPLINE
5
183
100
AcDbEntity
8
1
62
256
6
ByLayer
370
18
48
1
60
0
100
AcDbSpline
70
4
71
3
72
14
73
10
40
0
40
0
40
0
40
0
40
0.25
40
0.25
40
0.5
40
0.5
40
0.75
40
0.75
40
1
40
1
40
1
40
1
41
1
10
55.0837941385944
20
2.0712932342507
30
0
41
1
10
55.0092678157901
20
2.1190546445701
30
0
41
1
10
54.9369425511671
20
2.16711476798972
30
0
41
1
10
54.7971820614299
20
2.26367493486683
30
0
41
1
10
54.7297459368336
20
2.31217591372513
30
0
41
1
10
54.6003352826098
20
2.40937733770576
30
0
41
1
10
54.5383591505297
20
2.45807921098219
30
0
41
1
10
54.420560680258
20
2.55532324193737
30
0
41
1
10
54.3647353077666
20
2.6038677692008
30
0
41
1
10
54.312426285692
20
2.65206607602806
30
0
0
SPLINE
5
184
100
AcDbEntity
8
1
62
256
6
ByLayer
370
18
48
1
60
0
100
AcDbSpline
70
4
71
3
72
28
73
24
40
0
40
0
40
0
40
0
40
0.124999999999894
40
0.124999999999894
40
0.187499999999886
40
0.187499999999886
40
0.249999999999877
40
0.249999999999877
40
0.312499999999868
40
0.312499999999868
40
0.374999999999859
40
0.374999999999859
40
0.499999999999874
40
0.499999999999874
40
0.562499999999829
40
0.562499999999829
40
0.624999999999784
40
0.624999999999784
40
0.749999999999856
40
0.749999999999856
40
0.874999999999928
40
0.874999999999928
40
1
40
1
40
1
40
1
41
1
10
54.312426285692
20
2.65206607602806
30
0
41
1
10
54.3079135017913
20
2.65622422187869
30
0
41
1
10
54.3038334815916
20
2.66048503192911
30
0
41
1
10
54.2986767265311
20
2.66711147345745
30
0
41
1
10
54.297120091965
20
2.66935994497848
30
0
41
1
10
54.2944228771581
20
2.6739599778841
30
0
41
1
10
54.2932850924057
20
2.67631389742061
30
0
41
1
10
54.2915959046491
20
2.68103337374424
30
0
41
1
10
54.2910352814007
20
2.68341170479113
30
0
41
1
10
54.2906233031377
20
2.68821699231185
30
0
41
1
10
54.2907828848026
20
2.69064382413961
30
0
41
1
10
54.2924968624372
20
2.69771505779752
30
0
41
1
10
54.2954021529565
20
2.70230648938505
30
0
41
1
10
54.3019238079634
20
2.70834125774863
30
0
41
1
10
54.3044799960209
20
2.71025204314719
30
0
41
1
10
54.3100679093336
20
2.71376570672859
30
0
41
1
10
54.3130923605802
20
2.71537315618181
30
0
41
1
10
54.3227132512471
20
2.71984277765498
30
0
41
1
10
54.3298996640354
20
2.72236341810103
30
0
41
1
10
54.3446802386224
20
2.72662883423854
30
0
41
1
10
54.3523489242255
20
2.72840553835016
30
0
41
1
10
54.3680587894852
20
2.73148646608209
30
0
41
1
10
54.3761147030541
20
2.73278844403257
30
0
41
1
10
54.384242066151
20
2.73390693596991
30
0
0
SPLINE
5
185
100
AcDbEntity
8
1
62
256
6
ByLayer
370
18
48
1
60
0
100
AcDbSpline
70
4
71
3
72
24
73
20
40
0
40
0
40
0
40
0
40
0.0624999999999929
40
0.0624999999999929
40
0.124999999999986
40
0.124999999999986
40
0.187499999999979
40
0.187499999999979
40
0.249999999999972
40
0.249999999999972
40
0.374999999999976
40
0.374999999999976
40
0.499999999999981
40
0.499999999999981
40
0.624999999999986
40
0.624999999999986
40
0.749999999999991
40
0.749999999999991
40
1
40
1
40
1
40
1
41
1
10
54.384242066151
20
2.73390693596977
30
0
41
1
10
54.4290356293905
20
2.740071449445
30
0
41
1
10
54.4741151456874
20
2.74505370119562
30
0
41
1
10
54.5646742464935
20
2.75340791110531
30
0
41
1
10
54.6101558825995
20
2.75677054434101
30
0
41
1
10
54.7014273165609
20
2.76227950089358
30
0
41
1
10
54.7472179035551
20
2.76442225931223
30
0
41
1
10
54.8390488200132
20
2.76773591946636
30
0
41
1
10
54.8850542234663
20
2.76890316367206
30
0
41
1
10
55.0228580596133
20
2.7711892976522
30
0
41
1
10
55.1146317610453
20
2.77111472131011
30
0
41
1
10
55.2980377554752
20
2.7686002107321
30
0
41
1
10
55.3896694888727
20
2.76614969541248
30
0
41
1
10
55.5728189130927
20
2.75929900282273
30
0
41
1
10
55.6643763314957
20
2.75489231181024
30
0
41
1
10
55.8472129770756
20
2.74438040013243
30
0
41
1
10
55.9384093553872
20
2.73827909932075
30
0
41
1
10
56.2114266426715
20
2.71768013466291
30
0
41
1
10
56.3926797577641
20
2.70090229788889
30
0
41
1
10
56.573338827569
20
2.68139512530521
30
0
0
SPLINE
5
186
100
AcDbEntity
8
1
62
256
6
ByLayer
370
18
48
1
60
0
100
AcDbSpline
70
4
71
3
72
8
73
4
40
0
40
0
40
0
40
0
40
1
40
1
40
1
40
1
41
1
10
56.6557019455845
20
2.7161126975048
30
0
41
1
10
56.6276942848821
20
2.70505115527297
30
0
41
1
10
56.6002202846441
20
2.69350118276156
30
0
41
1
10
56.5733388275683
20
2.68139512530553
30
0
0
SPLINE
5
187
100
AcDbEntity
8
1
62
256
6
ByLayer
370
18
48
1
60
0
100
AcDbSpline
70
4
71
3
72
10
73
6
40
0
40
0
40
0
40
0
40
0.5
40
0.5
40
1
40
1
40
1
40
1
41
1
10
56.8265476700667
20
2.86763871855212
30
0
41
1
10
56.7910415631702
20
2.84643826494127
30
0
41
1
10
56.7582754053051
20
2.82339825648396
30
0
41
1
10
56.7004251312911
20
2.77301491888909
30
0
41
1
10
56.6753821121199
20
2.745680432668
30
0
41
1
10
56.6557019455845
20
2.7161126975048
30
0
0
SPLINE
5
188
100
AcDbEntity
8
1
62
256
6
ByLayer
370
18
48
1
60
0
100
AcDbSpline
70
4
71
3
72
20
73
16
40
0
40
0
40
0
40
0
40
0.125000000000013
40
0.125000000000013
40
0.250000000000026
40
0.250000000000026
40
0.500000000000017
40
0.500000000000017
40
0.625000000000013
40
0.625000000000013
40
0.750000000000009
40
0.750000000000009
40
0.875000000000004
40
0.875000000000004
40
1
40
1
40
1
40
1
41
1
10
57.3474623110995
20
0.800961859579758
30
0
41
1
10
57.3187120891327
20
0.778957716489572
30
0
41
1
10
57.290418261953
20
0.756256679528718
30
0
41
1
10
57.2350683030449
20
0.709452205918183
30
0
41
1
10
57.2080169045812
20
0.685355937787818
30
0
41
1
10
57.1289728208313
20
0.610709716784783
30
0
41
1
10
57.0789756592367
20
0.557716494383214
30
0
41
1
10
57.0102520292597
20
0.472799520908097
30
0
41
1
10
56.9884211517904
20
0.443620715243071
30
0
41
1
10
56.9473368360468
20
0.383373900231732
30
0
41
1
10
56.9280919154844
20
0.352312475294781
30
0
41
1
10
56.8928147892039
20
0.288383653714647
30
0
41
1
10
56.876749695231
20
0.255438280144205
30
0
41
1
10
56.8486011519801
20
0.188138501549218
30
0
41
1
10
56.836465153809
20
0.153702549900629
30
0
41
1
10
56.8265476700668
20
0.118366637683437
30
0
0
SPLINE
5
189
100
AcDbEntity
8
1
62
256
6
ByLayer
370
18
48
1
60
0
100
AcDbSpline
70
4
71
3
72
8
73
4
40
0
40
0
40
0
40
0
40
1
40
1
40
1
40
1
41
1
10
57.7060000000001
20
0.708639084578408
30
0
41
1
10
57.5863304011173
20
0.740163930490894
30
0
41
1
10
57.4668178803383
20
0.770937987178741
30
0
41
1
10
57.3474623110996
20
0.800961859579758
30
0
0
SPLINE
5
18A
100
AcDbEntity
8
1
62
256
6
ByLayer
370
18
48
1
60
0
100
AcDbSpline
70
4
71
3
72
12
73
8
40
0
40
0
40
0
40
0
40
0.5
40
0.5
40
0.75
40
0.75
40
1
40
1
40
1
40
1
41
1
10
57.7060000000001
20
-0.492789094555405
30
0
41
1
10
57.6696272632568
20
-0.490310605790143
30
0
41
1
10
57.6333985547257
20
-0.489531237951297
30
0
41
1
10
57.5792913020805
20
-0.491144071440146
30
0
41
1
10
57.5612949271084
20
-0.492146205705012
30
0
41
1
10
57.5253852921494
20
-0.495130993310056
30
0
41
1
10
57.5074624261601
20
-0.497116052404522
30
0
41
1
10
57.4896607823117
20
-0.499609383413258
30
0
0
SPLINE
5
18B
100
AcDbEntity
8
1
62
256
6
ByLayer
370
18
48
1
60
0
100
AcDbSpline
70
4
71
3
72
10
73
6
40
0
40
0
40
0
40
0
40
0.5
40
0.5
40
1
40
1
40
1
40
1
41
1
10
56.553713641613
20
-0.248543690875437
30
0
41
1
10
56.7070091688911
20
-0.292969575697043
30
0
41
1
10
56.8617553260344
20
-0.33581049898487
30
0
41
1
10
57.1738610469422
20
-0.41914868027277
30
0
41
1
10
57.3312178410434
20
-0.459653374657137
30
0
41
1
10
57.4896607823116
20
-0.49960938341323
30
0
0
SPLINE
5
18C
100
AcDbEntity
8
1
62
256
6
ByLayer
370
18
48
1
60
0
100
AcDbSpline
70
4
71
3
72
24
73
20
40
0
40
0
40
0
40
0
40
0.062500000000005
40
0.062500000000005
40
0.12500000000001
40
0.12500000000001
40
0.25
40
0.25
40
0.37499999999999
40
0.37499999999999
40
0.437499999999985
40
0.437499999999985
40
0.49999999999998
40
0.49999999999998
40
0.74999999999998
40
0.74999999999998
40
0.87499999999999
40
0.87499999999999
40
1
40
1
40
1
40
1
41
1
10
54.5194578913634
20
-0.21712718941447
30
0
41
1
10
54.5608614841631
20
-0.204781529176984
30
0
41
1
10
54.60249717628
20
-0.194568605933455
30
0
41
1
10
54.6860840056541
20
-0.177044234388916
30
0
41
1
10
54.7280370870602
20
-0.169750592929205
30
0
41
1
10
54.8542545333094
20
-0.15116688288694
30
0
41
1
10
54.9388713653888
20
-0.14312144270383
30
0
41
1
10
55.1087242105737
20
-0.132736507182472
30
0
41
1
10
55.1939656822093
20
-0.130447038708496
30
0
41
1
10
55.3221809912194
20
-0.130267634929595
30
0
41
1
10
55.3649743094954
20
-0.130758456916595
30
0
41
1
10
55.450420869373
20
-0.132710383040205
30
0
41
1
10
55.4931074145163
20
-0.134171551382138
30
0
41
1
10
55.7063759062447
20
-0.14364619099058
30
0
41
1
10
55.8764745363151
20
-0.158042496191058
30
0
41
1
10
56.1310713380842
20
-0.186899469941636
30
0
41
1
10
56.2158847930725
20
-0.197759190394123
30
0
41
1
10
56.3850955924991
20
-0.221612303953208
30
0
41
1
10
56.4694958881791
20
-0.234605453097259
30
0
41
1
10
56.5537136416139
20
-0.248543690874328
30
0
0
SPLINE
5
18D
100
AcDbEntity
8
1
62
256
6
ByLayer
370
18
48
1
60
0
100
AcDbSpline
70
4
71
3
72
8
73
4
40
0
40
0
40
0
40
0
40
1
40
1
40
1
40
1
41
1
10
63.6877862975597
20
0.597570791657262
30
0
41
1
10
63.6269749727615
20
0.700106077283039
30
0
41
1
10
63.5624469475506
20
0.804471986649332
30
0
41
1
10
63.4942992166412
20
0.910547499551342
30
0
0
SPLINE
5
18E
100
AcDbEntity
8
1
62
256
6
ByLayer
370
18
48
1
60
0
100
AcDbSpline
70
4
71
3
72
34
73
30
40
0
40
0
40
0
40
0
40
0.125000000000008
40
0.125000000000008
40
0.187500000000015
40
0.187500000000015
40
0.218750000000019
40
0.218750000000019
40
0.250000000000023
40
0.250000000000023
40
0.375000000000012
40
0.375000000000012
40
0.500000000000001
40
0.500000000000001
40
0.531249999999998
40
0.531249999999998
40
0.562499999999995
40
0.562499999999995
40
0.625000000000001
40
0.625000000000001
40
0.750000000000001
40
0.750000000000001
40
0.812500000000001
40
0.812500000000001
40
0.843750000000001
40
0.843750000000001
40
0.875
40
0.875
40
1
40
1
40
1
40
1
41
1
10
63.4942992166399
20
0.910547499553559
30
0
41
1
10
63.4559023018674
20
0.923082855895444
30
0
41
1
10
63.4126161365415
20
0.939924139103681
30
0
41
1
10
63.3403803404442
20
0.971620886892708
30
0
41
1
10
63.3150886599906
20
0.983254821634432
30
0
41
1
10
63.2752378648818
20
1.00239073041081
30
0
41
1
10
63.2616098077387
20
1.00906307265666
30
0
41
1
10
63.2338264228822
20
1.02292051235935
30
0
41
1
10
63.2196940522273
20
1.03009363632924
30
0
41
1
10
63.147840721762
20
1.06716917839151
30
0
41
1
10
63.0865601261201
20
1.10068633833151
30
0
41
1
10
62.9563274220559
20
1.17551093215994
30
0
41
1
10
62.8874009233327
20
1.21679235989032
30
0
41
1
10
62.7962729194574
20
1.2734409627584
30
0
41
1
10
62.7777761407159
20
1.28503888998799
30
0
41
1
10
62.7403420215716
20
1.30871292302544
30
0
41
1
10
62.7214900633255
20
1.32073485959884
30
0
41
1
10
62.6645394372556
20
1.3573417972317
30
0
41
1
10
62.6260482710814
20
1.38246483780085
30
0
41
1
10
62.5090538751353
20
1.45991881643514
30
0
41
1
10
62.4290177027436
20
1.51435112306666
30
0
41
1
10
62.3059288431833
20
1.60015943545284
30
0
41
1
10
62.2643916144816
20
1.6294580400413
30
0
41
1
10
62.2013089631015
20
1.67447080126428
30
0
41
1
10
62.1801343069686
20
1.68966562246601
30
0
41
1
10
62.1378614847811
20
1.72016848301217
30
0
41
1
10
62.1167230678307
20
1.73550507162787
30
0
41
1
10
62.0110212150568
20
1.81260271457634
30
0
41
1
10
61.9264285827859
20
1.87560329964768
30
0
41
1
10
61.8418052557539
20
1.93990702612737
30
0
0
SPLINE
5
18F
100
AcDbEntity
8
1
62
256
6
ByLayer
370
18
48
1
60
0
100
AcDbSpline
70
4
71
3
72
56
73
52
40
0
40
0
40
0
40
0
40
0.0312499999999985
40
0.0468749999999978
40
0.0468749999999978
40
0.0624999999999971
40
0.0624999999999971
40
0.12500000000001
40
0.12500000000001
40
0.187500000000023
40
0.187500000000023
40
0.203125000000032
40
0.203125000000032
40
0.218750000000042
40
0.218750000000042
40
0.250000000000061
40
0.250000000000061
40
0.312500000000098
40
0.312500000000098
40
0.328125000000106
40
0.328125000000106
40
0.332031250000109
40
0.332031250000109
40
0.335937500000113
40
0.335937500000113
40
0.343750000000113
40
0.343750000000113
40
0.375000000000111
40
0.375000000000111
40
0.437500000000115
40
0.437500000000115
40
0.468750000000114
40
0.468750000000114
40
0.500000000000112
40
0.500000000000112
40
0.625000000000104
40
0.625000000000104
40
0.687500000000101
40
0.687500000000101
40
0.7031250000001
40
0.7031250000001
40
0.7187500000001
40
0.750000000000091
40
0.750000000000091
40
0.875000000000042
40
0.875000000000042
40
0.937500000000021
40
0.937500000000021
40
0.96875000000001
40
0.96875000000001
40
1
40
1
40
1
40
1
41
1
10
61.8418052557535
20
1.93990702613559
30
0
41
1
10
61.8004225956495
20
1.95558355522976
30
0
41
1
10
61.7376471435204
20
1.98005479310416
30
0
41
1
10
61.6738004233289
20
2.00584290447222
30
0
41
1
10
61.6309956185814
20
2.02331457510238
30
0
41
1
10
61.6094389236247
20
2.03220457554571
30
0
41
1
10
61.501668579947
20
2.07706129540259
30
0
41
1
10
61.4152436738594
20
2.11433911464934
30
0
41
1
10
61.2416571870207
20
2.19066695548406
30
0
41
1
10
61.1544978783367
20
2.22971920296572
30
0
41
1
10
61.0448931324028
20
2.27907963792518
30
0
41
1
10
61.0229393681904
20
2.28897914862725
30
0
41
1
10
60.9789610067839
20
2.30881940547758
30
0
41
1
10
60.9569613239761
20
2.3187488960159
30
0
41
1
10
60.8912184874414
20
2.34841175268394
30
0
41
1
10
60.847616344699
20
2.36807121928626
30
0
41
1
10
60.717388015338
20
2.4265675695288
30
0
41
1
10
60.6313406780543
20
2.46491515862036
30
0
41
1
10
60.5244522693619
20
2.51163483346355
30
0
41
1
10
60.5031090069669
20
2.52091692733043
30
0
41
1
10
60.4764678650821
20
2.53243814923761
30
0
41
1
10
60.471140708733
20
2.53473998185731
30
0
41
1
10
60.4604886410346
20
2.53933842863395
30
0
41
1
10
60.4551760301333
20
2.54160951632849
30
0
41
1
10
60.4391540633564
20
2.54859617301602
30
0
41
1
10
60.4284700594472
20
2.55326063580907
30
0
41
1
10
60.3751171381435
20
2.57644220943095
30
0
41
1
10
60.332549238962
20
2.59474558041012
30
0
41
1
10
60.2051297875757
20
2.64880253717664
30
0
41
1
10
60.1205627902575
20
2.68369825483615
30
0
41
1
10
59.9940259066451
20
2.73390449554603
30
0
41
1
10
59.9518541758727
20
2.75030874106292
30
0
41
1
10
59.8683062332537
20
2.78205574776544
30
0
41
1
10
59.8268452037815
20
2.79743110092173
30
0
41
1
10
59.6209589348695
20
2.87172512982795
30
0
41
1
10
59.4607487888324
20
2.92290593391437
30
0
41
1
10
59.2251590859699
20
2.98525239580292
30
0
41
1
10
59.1474265805849
20
3.00362690162473
30
0
41
1
10
59.0511142251537
20
3.02331606143517
30
0
41
1
10
59.0318807278549
20
3.02709214313037
30
0
41
1
10
58.993647306536
20
3.03428157732804
30
0
41
1
10
58.9365988913238
20
3.0445322812111
30
0
41
1
10
58.8804280843392
20
3.05317932420488
30
0
41
1
10
58.6950260620621
20
3.07842681612954
30
0
41
1
10
58.5524808574876
20
3.08727046323611
30
0
41
1
10
58.3469093614082
20
3.08163464365421
30
0
41
1
10
58.2797654769916
20
3.07660087305877
30
0
41
1
10
58.1810755530601
20
3.06408220171315
30
0
41
1
10
58.1484770619645
20
3.05906903334835
30
0
41
1
10
58.0842062702144
20
3.04738725362941
30
0
41
1
10
58.0525438043547
20
3.04071676099326
30
0
41
1
10
58.0213597854324
20
3.03320193512988
30
0
0
SPLINE
5
190
100
AcDbEntity
8
1
62
256
6
ByLayer
370
18
48
1
60
0
100
AcDbSpline
70
4
71
1
72
4
73
2
40
0
40
0
40
1
40
1
41
1
10
57.7882960912144
20
2.70579128895517
30
0
41
1
10
58.0213597854324
20
3.03320193512988
30
0
0
SPLINE
5
191
100
AcDbEntity
8
1
62
256
6
ByLayer
370
18
48
1
60
0
100
AcDbSpline
70
4
71
3
72
18
73
14
40
0
40
0
40
0
40
0
40
0.250000000000001
40
0.250000000000001
40
0.500000000000002
40
0.500000000000002
40
0.625000000000002
40
0.625000000000002
40
0.750000000000001
40
0.750000000000001
40
0.875000000000001
40
0.875000000000001
40
1
40
1
40
1
40
1
41
1
10
63.665705131246
20
0.53123263814831
30
0
41
1
10
63.6632942978847
20
0.524207495395189
30
0
41
1
10
63.6612240859452
20
0.516428240324103
30
0
41
1
10
63.658026653556
20
0.498987170432969
30
0
41
1
10
63.6568921462691
20
0.489337576397474
30
0
41
1
10
63.6562565536795
20
0.472900616033115
30
0
41
1
10
63.6562244211146
20
0.467091155896583
30
0
41
1
10
63.6566348075147
20
0.454626817939101
30
0
41
1
10
63.6570838165794
20
0.44792948417691
30
0
41
1
10
63.6585860490718
20
0.433858068610704
30
0
41
1
10
63.6596364659223
20
0.42645173878293
30
0
41
1
10
63.6625278092868
20
0.410677699990657
30
0
41
1
10
63.6643843018971
20
0.402260925798004
30
0
41
1
10
63.666715748167
20
0.393475052527435
30
0
0
SPLINE
5
192
100
AcDbEntity
8
1
62
256
6
ByLayer
370
18
48
1
60
0
100
AcDbSpline
70
4
71
3
72
8
73
4
40
0
40
0
40
0
40
0
40
1
40
1
40
1
40
1
41
1
10
63.6657051312461
20
0.531232638148339
30
0
41
1
10
63.6735275729205
20
0.554027149921637
30
0
41
1
10
63.6809088581488
20
0.576176625212298
30
0
41
1
10
63.6877862975635
20
0.597570791640891
30
0
0
SPLINE
5
193
100
AcDbEntity
8
1
62
256
6
ByLayer
370
18
48
1
60
0
100
AcDbSpline
70
4
71
3
72
22
73
18
40
0
40
0
40
0
40
0
40
0.0312499999999735
40
0.0312499999999735
40
0.0624999999999469
40
0.0624999999999469
40
0.124999999999894
40
0.124999999999894
40
0.249999999999953
40
0.249999999999953
40
0.375000000000013
40
0.375000000000013
40
0.500000000000073
40
0.500000000000073
40
0.750000000000036
40
0.750000000000036
40
1
40
1
40
1
40
1
41
1
10
63.6635994391584
20
0.0421936566324632
30
0
41
1
10
63.6612026755448
20
0.0421557109301887
30
0
41
1
10
63.6586955685192
20
0.0421617892840231
30
0
41
1
10
63.6535712977183
20
0.0422178556881931
30
0
41
1
10
63.6509331917759
20
0.0422695280475409
30
0
41
1
10
63.6431107761631
20
0.0424620748229358
30
0
41
1
10
63.6379599865154
20
0.0426389864271073
30
0
41
1
10
63.6225911985894
20
0.043232969189603
30
0
41
1
10
63.6124410338035
20
0.043716240809573
30
0
41
1
10
63.5925446349497
20
0.0447300168711138
30
0
41
1
10
63.5827431353449
20
0.0452671466775882
30
0
41
1
10
63.5632968531949
20
0.0463737130929189
30
0
41
1
10
63.5536551231943
20
0.0469437789756739
30
0
41
1
10
63.5248869152723
20
0.0486863380595537
30
0
41
1
10
63.5059141573343
20
0.0498905202238404
30
0
41
1
10
63.4681885035604
20
0.0523442085362831
30
0
41
1
10
63.4494528613968
20
0.0535937963246909
30
0
41
1
10
63.4308199518646
20
0.05485691448186
30
0
0
SPLINE
5
194
100
AcDbEntity
8
1
62
256
6
ByLayer
370
18
48
1
60
0
100
AcDbSpline
70
4
71
3
72
8
73
4
40
0
40
0
40
0
40
0
40
1
40
1
40
1
40
1
41
1
10
63.2186395063532
20
-0.277134657692756
30
0
41
1
10
63.2213767098825
20
-0.282584491905112
30
0
41
1
10
63.2237349945487
20
-0.287549140408032
30
0
41
1
10
63.2257157398206
20
-0.292030369537457
30
0
0
SPLINE
5
195
100
AcDbEntity
8
1
62
256
6
ByLayer
370
18
48
1
60
0
100
AcDbSpline
70
4
71
3
72
36
73
32
40
0
40
0
40
0
40
0
40
0.125000000000009
40
0.125000000000009
40
0.250000000000018
40
0.250000000000018
40
0.312500000000023
40
0.312500000000023
40
0.375000000000028
40
0.375000000000028
40
0.437500000000034
40
0.437500000000034
40
0.500000000000039
40
0.500000000000039
40
0.562500000000044
40
0.562500000000044
40
0.625000000000049
40
0.625000000000049
40
0.687500000000055
40
0.687500000000055
40
0.75000000000006
40
0.75000000000006
40
0.812500000000065
40
0.812500000000065
40
0.875000000000071
40
0.875000000000071
40
0.937500000000076
40
0.937500000000076
40
0.968750000000038
40
0.968750000000038
40
1
40
1
40
1
40
1
41
1
10
63.2186395063533
20
-0.277134657693068
30
0
41
1
10
63.2116868307225
20
-0.26329172306427
30
0
41
1
10
63.2057232866619
20
-0.24750252858135
30
0
41
1
10
63.1975150092369
20
-0.212426277291172
30
0
41
1
10
63.1954143597206
20
-0.193872464986725
30
0
41
1
10
63.1958475265027
20
-0.164757467669091
30
0
41
1
10
63.1966086163552
20
-0.154787578548337
30
0
41
1
10
63.1993710795909
20
-0.135074022764201
30
0
41
1
10
63.2013675538303
20
-0.125255128542989
30
0
41
1
10
63.2066315791928
20
-0.105719468807337
30
0
41
1
10
63.2099257685428
20
-0.0959387358529398
30
0
41
1
10
63.2177658031772
20
-0.0768146330620993
30
0
41
1
10
63.2222656376677
20
-0.0675582246057331
30
0
41
1
10
63.2324173730395
20
-0.0496589080576371
30
0
41
1
10
63.2380690447241
20
-0.0410158108527128
30
0
41
1
10
63.2505841507143
20
-0.0243823208816139
30
0
41
1
10
63.2573784595571
20
-0.0164959934249396
30
0
41
1
10
63.2718204290825
20
-0.0018298892618702
30
0
41
1
10
63.2794994324248
20
0.0049928665274024
30
0
41
1
10
63.2958241401571
20
0.0175857781069055
30
0
41
1
10
63.3045282421565
20
0.0233789660064758
30
0
41
1
10
63.322441946005
20
0.0335143246765597
30
0
41
1
10
63.3316992942702
20
0.0379036323716093
30
0
41
1
10
63.3508517275116
20
0.0452980079811596
30
0
41
1
10
63.3607969334417
20
0.0483139772849199
30
0
41
1
10
63.3811986512834
20
0.0528047797860722
30
0
41
1
10
63.3913612089892
20
0.0542182515488889
30
0
41
1
10
63.4064519565633
20
0.0552330433173722
30
0
41
1
10
63.411486761061
20
0.0553869152368236
30
0
41
1
10
63.42134502413
20
0.0553558598946609
30
0
41
1
10
63.4261425508613
20
0.0551739937946536
30
0
41
1
10
63.430819951868
20
0.0548569144823716
30
0
0
SPLINE
5
196
100
AcDbEntity
8
1
62
256
6
ByLayer
370
18
48
1
60
0
100
AcDbSpline
70
4
71
3
72
24
73
20
40
0
40
0
40
0
40
0
40
0.25000000000006
40
0.25000000000006
40
0.375000000000074
40
0.375000000000074
40
0.437500000000068
40
0.437500000000068
40
0.500000000000062
40
0.500000000000062
40
0.562500000000056
40
0.562500000000056
40
0.62500000000005
40
0.62500000000005
40
0.750000000000034
40
0.750000000000034
40
0.875000000000017
40
0.875000000000017
40
1
40
1
40
1
40
1
41
1
10
63.9468093632816
20
0.0774353799650669
30
0
41
1
10
63.9504821780014
20
0.067222653484265
30
0
41
1
10
63.9539121634549
20
0.0581707067037769
30
0
41
1
10
63.9584613205512
20
0.0477088990903667
30
0
41
1
10
63.9598612150636
20
0.044792835848142
30
0
41
1
10
63.9616976936934
20
0.0416606929485397
30
0
41
1
10
63.9622672862804
20
0.0408214404169769
30
0
41
1
10
63.9633063270104
20
0.0396349663246269
30
0
41
1
10
63.9637771647001
20
0.0392902728614217
30
0
41
1
10
63.9645784403816
20
0.0392000840762989
30
0
41
1
10
63.9649120856072
20
0.0394490618951124
30
0
41
1
10
63.9654321784644
20
0.0406054876654878
30
0
41
1
10
63.9656193246337
20
0.0415250924951636
30
0
41
1
10
63.9659280704902
20
0.0453174449967264
30
0
41
1
10
63.9658019133817
20
0.0491620224912879
30
0
41
1
10
63.9649313453441
20
0.0593925140898364
30
0
41
1
10
63.9642077916958
20
0.0655449790948808
30
0
41
1
10
63.9623428894672
20
0.0793595484387311
30
0
41
1
10
63.9612227854083
20
0.0868655030570267
30
0
41
1
10
63.9599907428763
20
0.0946942099187424
30
0
0
SPLINE
5
197
100
AcDbEntity
8
1
62
256
6
ByLayer
370
18
48
1
60
0
100
AcDbSpline
70
4
71
3
72
8
73
4
40
0
40
0
40
0
40
0
40
1
40
1
40
1
40
1
41
1
10
63.9468093632816
20
0.0774353799650953
30
0
41
1
10
63.9417665264794
20
0.0914576263557194
30
0
41
1
10
63.9365485263552
20
0.105611432249248
30
0
41
1
10
63.9311584091455
20
0.119894509716062
30
0
0
SPLINE
5
198
100
AcDbEntity
8
1
62
256
6
ByLayer
370
18
48
1
60
0
100
AcDbSpline
70
4
71
3
72
8
73
4
40
0
40
0
40
0
40
0
40
1
40
1
40
1
40
1
41
1
10
63.9311584091455
20
0.119894509716062
30
0
41
1
10
63.9063713416057
20
0.137131250715186
30
0
41
1
10
63.8718231377266
20
0.153827163346364
30
0
41
1
10
63.827928632113
20
0.170005232056724
30
0
0
SPLINE
5
199
100
AcDbEntity
8
1
62
256
6
ByLayer
370
18
48
1
60
0
100
AcDbSpline
70
4
71
3
72
30
73
26
40
0
40
0
40
0
40
0
40
0.0624999999999872
40
0.0624999999999872
40
0.0937499999999926
40
0.0937499999999926
40
0.124999999999998
40
0.124999999999998
40
0.187500000000009
40
0.187500000000009
40
0.25000000000002
40
0.25000000000002
40
0.312500000000032
40
0.312500000000032
40
0.375000000000043
40
0.375000000000043
40
0.500000000000034
40
0.500000000000034
40
0.625000000000026
40
0.625000000000026
40
0.750000000000017
40
0.750000000000017
40
0.875000000000009
40
0.875000000000009
40
1
40
1
40
1
40
1
41
1
10
63.6667157481674
20
0.393475052527208
30
0
41
1
10
63.6687631230775
20
0.383220751719165
30
0
41
1
10
63.6712716885822
20
0.3731218529704
30
0
41
1
10
63.6756749536076
20
0.358190459944552
30
0
41
1
10
63.6772589716075
20
0.353226707036242
30
0
41
1
10
63.6805460629275
20
0.343622064138202
30
0
41
1
10
63.6822567356791
20
0.338951575101476
30
0
41
1
10
63.6875645092244
20
0.325294260900932
30
0
41
1
10
63.6913634755609
20
0.316615324155208
30
0
41
1
10
63.6990286197124
20
0.300632105921124
30
0
41
1
10
63.7029280792846
20
0.2932348114212
30
0
41
1
10
63.7108071036127
20
0.279359282980749
30
0
41
1
10
63.7148003248506
20
0.272867917988066
30
0
41
1
10
63.72264756593
20
0.260909560796108
30
0
41
1
10
63.7265263374108
20
0.255397700197221
30
0
41
1
10
63.7380300893594
20
0.239967486887508
30
0
41
1
10
63.7455388443295
20
0.231122788447038
30
0
41
1
10
63.7601335871554
20
0.215567479729287
30
0
41
1
10
63.7671234936467
20
0.208961679191191
30
0
41
1
10
63.7805825178567
20
0.197433586388854
30
0
41
1
10
63.7870504746273
20
0.192519414870873
30
0
41
1
10
63.7995143597168
20
0.184026864884487
30
0
41
1
10
63.8055098541969
20
0.18045150813299
30
0
41
1
10
63.8170582376901
20
0.174419404631522
30
0
41
1
10
63.8226128733163
20
0.171964445627054
30
0
41
1
10
63.827928632113
20
0.170005232056724
30
0
0
SPLINE
5
19A
100
AcDbEntity
8
1
62
256
6
ByLayer
370
18
48
1
60
0
100
AcDbSpline
70
4
71
3
72
39
73
35
40
0
40
0
40
0
40
0
40
0.0205620975735182
40
0.0485573740063076
40
0.102108365619409
40
0.120093968388623
40
0.148854956050658
40
0.170411667672791
40
0.206349323708273
40
0.278027310739684
40
0.327910997673026
40
0.342131327220501
40
0.351066494876717
40
0.382340129616879
40
0.408943995759209
40
0.412941539715296
40
0.414273685991725
40
0.41469055953092
40
0.415223450787707
40
0.416692539730652
40
0.419097390094143
40
0.430374074705637
40
0.435228247263948
40
0.501432161408207
40
0.555732524827851
40
0.583120740003348
40
0.665835270177147
40
0.721307333554197
40
0.777017361662108
40
0.804939711551461
40
0.832884383366765
40
0.916521492476732
40
0.971634051584584
40
1
40
1
40
1
40
1
41
1
10
57.7882960912144
20
2.70579128895517
30
0
41
1
10
57.8329617944242
20
2.72434656634954
30
0
41
1
10
57.9376216172954
20
2.76174010265356
30
0
41
1
10
58.1548648052822
20
2.81423761612507
30
0
41
1
10
58.3638767002568
20
2.83061939187368
30
0
41
1
10
58.5747010294674
20
2.82403437458814
30
0
41
1
10
58.7192246787464
20
2.81042952279208
30
0
41
1
10
58.9033254953316
20
2.78289988196266
30
0
41
1
10
59.1813416937859
20
2.72460428451822
30
0
41
1
10
59.5257774511865
20
2.61686879609539
30
0
41
1
10
59.8267867931787
20
2.49323527388583
30
0
41
1
10
59.989233316357
20
2.41931915252098
30
0
41
1
10
60.1104097146538
20
2.36248640785078
30
0
41
1
10
60.2593147480675
20
2.28891218567767
30
0
41
1
10
60.3964344043592
20
2.21658351383934
30
0
41
1
10
60.467005763059
20
2.17833624698014
30
0
41
1
10
60.4796667973328
20
2.1713997633891
30
0
41
1
10
60.4847399441622
20
2.16868002291577
30
0
41
1
10
60.4903129255427
20
2.1660208069996
30
0
41
1
10
60.5003505775775
20
2.16106278962707
30
0
41
1
10
60.5349425821635
20
2.14413088564837
30
0
41
1
10
60.5771762424228
20
2.12321247518131
30
0
41
1
10
60.7641958378434
20
2.02925649375672
30
0
41
1
10
61.0467602754714
20
1.88139498513871
30
0
41
1
10
61.3733015654887
20
1.70310914836526
30
0
41
1
10
61.7288671467837
20
1.5057154517819
30
0
41
1
10
62.0751937314959
20
1.31045539585497
30
0
41
1
10
62.4543334488568
20
1.09446614692274
30
0
41
1
10
62.7072120907094
20
0.948986047326514
30
0
41
1
10
62.8966588674025
20
0.839265247665026
30
0
41
1
10
63.1215981098156
20
0.70850247956372
30
0
41
1
10
63.3603788548287
20
0.568948969146959
30
0
41
1
10
63.5563407764352
20
0.455708762282654
30
0
41
1
10
63.6400152620979
20
0.408406849137663
30
0
41
1
10
63.6667157481702
20
0.393475052525702
30
0
0
SPLINE
5
19B
100
AcDbEntity
8
1
62
256
6
ByLayer
370
18
48
1
60
0
100
AcDbSpline
70
4
71
1
72
4
73
2
40
0
40
0
40
1
40
1
41
1
10
57.7082835434797
20
2.52294580173876
30
0
41
1
10
57.7882960912144
20
2.70579128895517
30
0
0
SPLINE
5
19C
100
AcDbEntity
8
1
62
256
6
ByLayer
370
18
48
1
60
0
100
AcDbSpline
70
4
71
3
72
8
73
4
40
0
40
0
40
0
40
0
40
1
40
1
40
1
40
1
41
1
10
60.8799860358235
20
1.70551325773371
30
0
41
1
10
60.8704361774152
20
1.71095678043622
30
0
41
1
10
60.8607657574355
20
1.71618035802831
30
0
41
1
10
60.8509768160409
20
1.72118772904972
30
0
0
SPLINE
5
19D
100
AcDbEntity
8
1
62
256
6
ByLayer
370
18
48
1
60
0
100
AcDbSpline
70
4
71
3
72
13
73
9
40
0
40
0
40
0
40
0
40
0.500000000000005
40
0.500000000000005
40
0.625000000000005
40
0.625000000000005
40
0.750000000000004
40
1
40
1
40
1
40
1
41
1
10
63.8154419510497
20
0.0445542978765161
30
0
41
1
10
63.8696866902945
20
0.0271272440085966
30
0
41
1
10
63.9122435817751
20
0.0097820208861776
30
0
41
1
10
63.9506279921813
20
-0.0117958060521914
30
0
41
1
10
63.9575661790575
20
-0.0161088996744354
30
0
41
1
10
63.9699154042309
20
-0.0247042925281562
30
0
41
1
10
63.9861596071656
20
-0.0375552998001467
30
0
41
1
10
63.9955408640992
20
-0.0502796172404771
30
0
41
1
10
63.9987369112174
20
-0.0587060426293249
30
0
0
SPLINE
5
19E
100
AcDbEntity
8
1
62
256
6
ByLayer
370
18
48
1
60
0
100
AcDbSpline
70
4
71
3
72
8
73
4
40
0
40
0
40
0
40
0
40
1
40
1
40
1
40
1
41
1
10
63.9993428013384
20
-0.059386292616125
30
0
41
1
10
63.9991968211763
20
-0.0591595103524583
30
0
41
1
10
63.9989948481349
20
-0.0589327603624099
30
0
41
1
10
63.9987369112174
20
-0.058706042629268
30
0
0
SPLINE
5
19F
100
AcDbEntity
8
1
62
256
6
ByLayer
370
18
48
1
60
0
100
AcDbSpline
70
4
71
3
72
8
73
4
40
0
40
0
40
0
40
0
40
1
40
1
40
1
40
1
41
1
10
63.9757894350397
20
0.0644104494677151
30
0
41
1
10
63.9738058257436
20
0.0746136788928595
30
0
41
1
10
63.9685343642793
20
0.0847080925921944
30
0
41
1
10
63.9599907428759
20
0.0946942099201351
30
0
0
SPLINE
5
1A0
100
AcDbEntity
8
1
62
256
6
ByLayer
370
18
48
1
60
0
100
AcDbSpline
70
4
71
3
72
10
73
6
40
0
40
0
40
0
40
0
40
0.5
40
0.5
40
1
40
1
40
1
40
1
41
1
10
61.6188075600446
20
0.251343615922309
30
0
41
1
10
61.6618353942108
20
0.186538734817731
30
0
41
1
10
61.7038314466794
20
0.120833422757585
30
0
41
1
10
61.7851877840766
20
-0.0128774230868487
30
0
41
1
10
61.8245582585723
20
-0.0808740644854993
30
0
41
1
10
61.8621243105229
20
-0.150445416811778
30
0
0
SPLINE
5
1A1
100
AcDbEntity
8
1
62
256
6
ByLayer
370
18
48
1
60
0
100
AcDbSpline
70
4
71
3
72
8
73
4
40
0
40
0
40
0
40
0
40
1
40
1
40
1
40
1
41
1
10
61.754730108648
20
0.255332106582244
30
0
41
1
10
61.7095986628399
20
0.25387544401147
30
0
41
1
10
61.6642863116815
20
0.252549439140807
30
0
41
1
10
61.6188075600446
20
0.251343615922252
30
0
0
SPLINE
5
1A2
100
AcDbEntity
8
1
62
256
6
ByLayer
370
18
48
1
60
0
100
AcDbSpline
70
4
71
3
72
8
73
4
40
0
40
0
40
0
40
0
40
1
40
1
40
1
40
1
41
1
10
61.4984069213349
20
0.530391654069149
30
0
41
1
10
61.5818411115403
20
0.436976792551661
30
0
41
1
10
61.6670991262427
20
0.345046885880833
30
0
41
1
10
61.7547301086479
20
0.255332106582244
30
0
0
SPLINE
5
1A3
100
AcDbEntity
8
1
62
256
6
ByLayer
370
18
48
1
60
0
100
AcDbSpline
70
4
71
3
72
32
73
28
40
0
40
0
40
0
40
0
40
0.124999999999996
40
0.124999999999996
40
0.187499999999995
40
0.187499999999995
40
0.249999999999993
40
0.249999999999993
40
0.37499999999999
40
0.37499999999999
40
0.499999999999986
40
0.499999999999986
40
0.562499999999989
40
0.562499999999989
40
0.624999999999992
40
0.624999999999992
40
0.749999999999988
40
0.749999999999988
40
0.812499999999991
40
0.812499999999991
40
0.874999999999994
40
0.874999999999994
40
0.937499999999997
40
0.937499999999997
40
0.968749999999998
40
0.968749999999998
40
1
40
1
40
1
40
1
41
1
10
61.4984063187601
20
0.530392328725952
30
0
41
1
10
61.4601548815101
20
0.573219536109235
30
0
41
1
10
61.4265192886931
20
0.618380699406629
30
0
41
1
10
61.3811956020515
20
0.688284162207736
30
0
41
1
10
61.3669533845079
20
0.711951362922804
30
0
41
1
10
61.3399734779009
20
0.759834915611691
30
0
41
1
10
61.3272085131746
20
0.784108268984426
30
0
41
1
10
61.2910350215317
20
0.857110799146454
30
0
41
1
10
61.2700086151
20
0.905413227593129
30
0
41
1
10
61.2317624904218
20
1.00035896501279
30
0
41
1
10
61.2145531998158
20
1.04700456489357
30
0
41
1
10
61.1900354591361
20
1.11525602868082
30
0
41
1
10
61.1820802245416
20
1.13772240215451
30
0
41
1
10
61.1663417119903
20
1.18203173122293
30
0
41
1
10
61.1585524247689
20
1.20389195547779
30
0
41
1
10
61.1351579913802
20
1.26810431441447
30
0
41
1
10
61.1195428117118
20
1.30919233371478
30
0
41
1
10
61.0937642856034
20
1.36852738103354
30
0
41
1
10
61.0847690497017
20
1.38792704171806
30
0
41
1
10
61.0652669807299
20
1.42612538047081
30
0
41
1
10
61.0547579531319
20
1.44492282339519
30
0
41
1
10
61.0311628090257
20
1.48221027595221
30
0
41
1
10
61.0180311920181
20
1.50070946307386
30
0
41
1
10
60.995775781514
20
1.5284952104422
30
0
41
1
10
60.9879429540914
20
1.53775491718426
30
0
41
1
10
60.9716639403445
20
1.55612026820975
30
0
41
1
10
60.9632011530756
20
1.56524982908326
30
0
41
1
10
60.9544775836408
20
1.57433670299179
30
0
0
SPLINE
5
1A4
100
AcDbEntity
8
1
62
256
6
ByLayer
370
18
48
1
60
0
100
AcDbSpline
70
4
71
3
72
8
73
4
40
0
40
0
40
0
40
0
40
1
40
1
40
1
40
1
41
1
10
57.7081668161744
20
2.52228157855822
30
0
41
1
10
57.7074446043289
20
2.52195088863317
30
0
41
1
10
57.7067223320521
20
2.52161982168454
30
0
41
1
10
57.706
20
2.52128837734256
30
0
0
SPLINE
5
1A5
100
AcDbEntity
8
1
62
256
6
ByLayer
370
18
48
1
60
0
100
AcDbSpline
70
4
71
3
72
8
73
4
40
0
40
0
40
0
40
0
40
1
40
1
40
1
40
1
41
1
10
63.6635994391678
20
0.0421936566308432
30
0
41
1
10
63.7141479526371
20
0.0429939436644986
30
0
41
1
10
63.7647679505324
20
0.043779634202707
30
0
41
1
10
63.8154419510485
20
0.0445542978768572
30
0
0
SPLINE
5
1A6
100
AcDbEntity
8
1
62
256
6
ByLayer
370
18
48
1
60
0
100
AcDbSpline
70
4
71
3
72
8
73
4
40
0
40
0
40
0
40
0
40
1
40
1
40
1
40
1
41
1
10
63.7625090203094
20
0.0743324505634746
30
0
41
1
10
63.7811904323087
20
0.0638133540643935
30
0
41
1
10
63.7988381025628
20
0.0538909948858191
30
0
41
1
10
63.8154419510504
20
0.0445542978763172
30
0
0
SPLINE
5
1A7
100
AcDbEntity
8
1
62
256
6
ByLayer
370
18
48
1
60
0
100
AcDbSpline
70
4
71
3
72
9
73
5
40
0
40
0
40
0
40
0
40
0.538749800040024
40
1
40
1
40
1
40
1
41
1
10
63.5432033740995
20
0.198378716227609
30
0
41
1
10
63.5886218166509
20
0.172688596687919
30
0
41
1
10
63.6670194730583
20
0.128344378679458
30
0
41
1
10
63.7340605251198
20
0.0904238247784974
30
0
41
1
10
63.7625090203095
20
0.0743324505634178
30
0
0
SPLINE
5
1A8
100
AcDbEntity
8
1
62
256
6
ByLayer
370
18
48
1
60
0
100
AcDbSpline
70
4
71
3
72
28
73
24
40
0
40
0
40
0
40
0
40
0.0341310568687338
40
0.0696201805331525
40
0.106465886979233
40
0.144666901826742
40
0.18422223790278
40
0.225130827749099
40
0.267391495178204
40
0.311002943547594
40
0.35596374361311
40
0.402272321099832
40
0.449926944157595
40
0.498925710897741
40
0.549266537240393
40
0.600947145337256
40
0.653965052873137
40
0.708317563590691
40
0.764001759427931
40
0.821014494705918
40
0.879352593220933
40
0.939014572775182
40
1
40
1
40
1
40
1
41
1
10
63.0457657329297
20
0.479745267623486
30
0
41
1
10
63.0522775600124
20
0.476077369080798
30
0
41
1
10
63.0655603182591
20
0.468595627167503
30
0
41
1
10
63.0856512543121
20
0.457271345369634
30
0
41
1
10
63.1063312405542
20
0.445609830392641
30
0
41
1
10
63.1275597681485
20
0.433633338893429
30
0
41
1
10
63.1493164227466
20
0.421353617594519
30
0
41
1
10
63.171573667846
20
0.408786201679561
30
0
41
1
10
63.1943043884714
20
0.395946457809146
30
0
41
1
10
63.217479689839
20
0.382850741612629
30
0
41
1
10
63.2410694673273
20
0.369516099885686
30
0
41
1
10
63.2650421949304
20
0.355960383169702
30
0
41
1
10
63.2893649313794
20
0.342202244070592
30
0
41
1
10
63.3140032655346
20
0.328261167395681
30
0
41
1
10
63.3389212691185
20
0.314157496749431
30
0
41
1
10
63.3640814769426
20
0.299912445494073
30
0
41
1
10
63.389444736593
20
0.285548180903419
30
0
41
1
10
63.4149705628549
20
0.27108762523207
30
0
41
1
10
63.4406155290305
20
0.256555357467533
30
0
41
1
10
63.4663392799211
20
0.241974241258021
30
0
41
1
10
63.4920814347948
20
0.227378373545861
30
0
41
1
10
63.5178523293486
20
0.212762200808186
30
0
41
1
10
63.5346914533148
20
0.203208145647977
30
0
41
1
10
63.5432033740978
20
0.198378716228575
30
0
0
SPLINE
5
1A9
100
AcDbEntity
8
1
62
256
6
ByLayer
370
18
48
1
60
0
100
AcDbSpline
70
4
71
3
72
10
73
6
40
0
40
0
40
0
40
0
40
0.44336114434853
40
0.780781716702569
40
1
40
1
40
1
40
1
41
1
10
62.5840656899161
20
0.740897517262226
30
0
41
1
10
62.6569616205983
20
0.699665260842806
30
0
41
1
10
62.7821879857312
20
0.628833244090714
30
0
41
1
10
62.9339460337838
20
0.54299405403404
30
0
41
1
10
63.014622958181
20
0.497360613395074
30
0
41
1
10
63.0457657329312
20
0.479745267622633
30
0
0
SPLINE
5
1AA
100
AcDbEntity
8
1
62
256
6
ByLayer
370
18
48
1
60
0
100
AcDbSpline
70
4
71
3
72
38
73
34
40
0
40
0
40
0
40
0
40
0.0291899386976962
40
0.0585858828760988
40
0.0881878594756736
40
0.117995901358245
40
0.148010048767242
40
0.178230350868553
40
0.20865686737531
40
0.239289670259442
40
0.270128845553415
40
0.301174495244729
40
0.332426739267222
40
0.363885717591851
40
0.395551592420498
40
0.42742439780465
40
0.459503463549434
40
0.491787884819992
40
0.524276724658616
40
0.556969015128909
40
0.589863758546652
40
0.622959928825378
40
0.656256472942629
40
0.689752312532367
40
0.723446345610083
40
0.757337448436805
40
0.791424477528974
40
0.825706271820806
40
0.860181659936336
40
0.894849611188643
40
0.929709252245143
40
0.964759689581192
40
1
40
1
40
1
40
1
41
1
10
61.7968600740502
20
1.18616606112198
30
0
41
1
10
61.8049588208819
20
1.18160907583911
30
0
41
1
10
61.8212134707543
20
1.17246294474185
30
0
41
1
10
61.8456028457652
20
1.15873323095175
30
0
41
1
10
61.8701028812975
20
1.14493661477306
30
0
41
1
10
61.8947050506613
20
1.13107742744592
30
0
41
1
10
61.9194077802108
20
1.11715668096403
30
0
41
1
10
61.944207509028
20
1.1031763467266
30
0
41
1
10
61.9691011080056
20
1.08913819792551
30
0
41
1
10
61.9940852233374
20
1.07504412381741
30
0
41
1
10
62.0191564526758
20
1.06089604550246
30
0
41
1
10
62.0443112957542
20
1.04669593964701
30
0
41
1
10
62.0695461664271
20
1.03244583277353
30
0
41
1
10
62.0948573866011
20
1.01814780436041
30
0
41
1
10
62.1202411497707
20
1.00380400747235
30
0
41
1
10
62.1456933079295
20
0.989416789278351
30
0
41
1
10
62.1712096812537
20
0.97498851525225
30
0
41
1
10
62.196785761707
20
0.960521737097139
30
0
41
1
10
62.2224168705428
20
0.946019103920065
30
0
41
1
10
62.2480982159721
20
0.931483329632727
30
0
41
1
10
62.2738248899346
20
0.916917194808121
30
0
41
1
10
62.299591866854
20
0.902323547406667
30
0
41
1
10
62.3253940016176
20
0.887705303939953
30
0
41
1
10
62.3512260285312
20
0.873065450100967
30
0
41
1
10
62.3770825569933
20
0.858407043178687
30
0
41
1
10
62.4029580792776
20
0.843733207893933
30
0
41
1
10
62.428846932658
20
0.829047157045181
30
0
41
1
10
62.4547434345382
20
0.814352118119899
30
0
41
1
10
62.4806414080972
20
0.799651590175728
30
0
41
1
10
62.5065361825035
20
0.784948255235321
30
0
41
1
10
62.5324184260513
20
0.770247306960528
30
0
41
1
10
62.5582973298466
20
0.755543937062555
30
0
41
1
10
62.5754607821021
20
0.745788441319263
30
0
41
1
10
62.584065689642
20
0.740897517417267
30
0
0
SPLINE
5
1AB
100
AcDbEntity
8
1
62
256
6
ByLayer
370
18
48
1
60
0
100
AcDbSpline
70
4
71
3
72
8
73
4
40
0
40
0
40
0
40
0
40
1
40
1
40
1
40
1
41
1
10
61.0271717159103
20
1.62152629084997
30
0
41
1
10
61.0271869991662
20
1.62151764615456
30
0
41
1
10
61.0272022824417
20
1.62150900144812
30
0
41
1
10
61.0272175657367
20
1.62150035673065
30
0
0
SPLINE
5
1AC
100
AcDbEntity
8
1
62
256
6
ByLayer
370
18
48
1
60
0
100
AcDbSpline
70
4
71
3
72
8
73
4
40
0
40
0
40
0
40
0
40
1
40
1
40
1
40
1
41
1
10
60.8799860358234
20
1.70551325773394
30
0
41
1
10
60.928990794517
20
1.67758001463511
30
0
41
1
10
60.9780389154651
20
1.64956304631167
30
0
41
1
10
61.0271718136488
20
1.62152646412082
30
0
0
SPLINE
5
1AD
100
AcDbEntity
8
1
62
256
6
ByLayer
370
18
48
1
60
0
100
AcDbSpline
70
4
71
3
72
11
73
7
40
0
40
0
40
0
40
0
40
0.0283453481947653
40
0.489648833226813
40
0.722322766025832
40
1
40
1
40
1
40
1
41
1
10
61.027217565738
20
1.62150035672991
30
0
41
1
10
61.0343982647764
20
1.61743872509283
30
0
41
1
10
61.1585148860304
20
1.54723441839315
30
0
41
1
10
61.3435089852254
20
1.44259586349909
30
0
41
1
10
61.5939556221528
20
1.30093528399567
30
0
41
1
10
61.7255381965621
20
1.22650798786833
30
0
41
1
10
61.7968600740535
20
1.18616606112008
30
0
0
SPLINE
5
1AE
100
AcDbEntity
8
1
62
256
6
ByLayer
370
18
48
1
60
0
100
AcDbSpline
70
4
71
3
72
14
73
10
40
0
40
0
40
0
40
0
40
0.125000000000005
40
0.125000000000005
40
0.25000000000001
40
0.25000000000001
40
0.50000000000002
40
0.50000000000002
40
1
40
1
40
1
40
1
41
1
10
61.0272175657366
20
1.62150035673071
30
0
41
1
10
61.059791480251
20
1.60289107142199
30
0
41
1
10
61.0924301971385
20
1.58426474265497
30
0
41
1
10
61.1578514377395
20
1.54699728265058
30
0
41
1
10
61.1906720907893
20
1.52833077137004
30
0
41
1
10
61.2885744739255
20
1.47273200360289
30
0
41
1
10
61.353328302909
20
1.43606869248589
30
0
41
1
10
61.5460653983952
20
1.32719139722477
30
0
41
1
10
61.6725129760162
20
1.25607826979157
30
0
41
1
10
61.7968600740535
20
1.18616606112008
30
0
0
SPLINE
5
1AF
100
AcDbEntity
8
1
62
256
6
ByLayer
370
18
48
1
60
0
100
AcDbSpline
70
4
71
3
72
8
73
4
40
0
40
0
40
0
40
0
40
1
40
1
40
1
40
1
41
1
10
61.7864876976123
20
-2.27530313145965
30
0
41
1
10
61.7925400120077
20
-2.28087042819192
30
0
41
1
10
61.7985290760649
20
-2.28652044676443
30
0
41
1
10
61.8044512787672
20
-2.29225790983864
30
0
0
SPLINE
5
1B0
100
AcDbEntity
8
1
62
256
6
ByLayer
370
18
48
1
60
0
100
AcDbSpline
70
4
71
3
72
8
73
4
40
0
40
0
40
0
40
0
40
1
40
1
40
1
40
1
41
1
10
57.7081668161743
20
-0.493406372966348
30
0
41
1
10
57.7074446043291
20
-0.493200090802787
30
0
41
1
10
57.7067223320518
20
-0.492994330924859
30
0
41
1
10
57.7060000000001
20
-0.492789094554667
30
0
0
SPLINE
5
1B1
100
AcDbEntity
8
1
62
256
6
ByLayer
370
18
48
1
60
0
100
AcDbSpline
70
4
71
3
72
8
73
4
40
0
40
0
40
0
40
0
40
1
40
1
40
1
40
1
41
1
10
60.8509768160415
20
-2.12059030344781
30
0
41
1
10
60.8337481448109
20
-2.11605121855405
30
0
41
1
10
60.816213293869
20
-2.11223593230287
30
0
41
1
10
60.7983511233601
20
-2.10921649315677
30
0
0
SPLINE
5
1B2
100
AcDbEntity
8
1
62
256
6
ByLayer
370
18
48
1
60
0
100
AcDbSpline
70
4
71
1
72
4
73
2
40
0
40
0
40
1
40
1
41
1
10
57.7081668161743
20
-0.493406372966376
30
0
41
1
10
57.7082835434797
20
-0.492496422089374
30
0
0
SPLINE
5
1B3
100
AcDbEntity
8
1
62
256
6
ByLayer
370
18
48
1
60
0
100
AcDbSpline
70
4
71
3
72
16
73
12
40
0
40
0
40
0
40
0
40
0.250000000000017
40
0.250000000000017
40
0.500000000000035
40
0.500000000000035
40
0.625000000000026
40
0.625000000000026
40
0.750000000000017
40
0.750000000000017
40
1
40
1
40
1
40
1
41
1
10
57.7081668161743
20
-0.493406372966348
30
0
41
1
10
57.7760257594438
20
-0.513473163773739
30
0
41
1
10
57.8437733437999
20
-0.538524704549161
30
0
41
1
10
57.9797680256773
20
-0.595662265807306
30
0
41
1
10
58.0480042648706
20
-0.627774951846192
30
0
41
1
10
58.1510841178645
20
-0.679914544507085
30
0
41
1
10
58.1855652406163
20
-0.697962995625716
30
0
41
1
10
58.2548250936227
20
-0.735228939972245
30
0
41
1
10
58.2895999396721
20
-0.754446195292275
30
0
41
1
10
58.3938169930707
20
-0.813268935834799
30
0
41
1
10
58.4633685028947
20
-0.854152529158711
30
0
41
1
10
58.5332269794064
20
-0.896194986838594
30
0
0
SPLINE
5
1B4
100
AcDbEntity
8
1
62
256
6
ByLayer
370
18
48
1
60
0
100
AcDbSpline
70
4
71
3
72
26
73
22
40
0
40
0
40
0
40
0
40
0.125000000000007
40
0.125000000000007
40
0.250000000000014
40
0.250000000000014
40
0.375000000000021
40
0.375000000000021
40
0.437500000000017
40
0.437500000000017
40
0.500000000000014
40
0.500000000000014
40
0.75
40
0.75
40
0.874999999999993
40
0.874999999999993
40
0.93749999999999
40
0.93749999999999
40
0.968749999999995
40
0.968749999999995
40
1
40
1
40
1
40
1
41
1
10
58.5332269794066
20
-0.896194986838879
30
0
41
1
10
58.6259772998073
20
-0.952014307831206
30
0
41
1
10
58.7187813974549
20
-1.00824478155292
30
0
41
1
10
58.9048563792401
20
-1.12086096918762
30
0
41
1
10
58.998127327517
20
-1.1772472362284
30
0
41
1
10
59.1854979059995
20
-1.28952926951641
30
0
41
1
10
59.2795966651915
20
-1.34542650570631
30
0
41
1
10
59.4216538899314
20
-1.42840756221119
30
0
41
1
10
59.4691580358017
20
-1.45592354454425
30
0
41
1
10
59.5645216458456
20
-1.51057901248214
30
0
41
1
10
59.6124851413629
20
-1.53777596602106
30
0
41
1
10
59.8515611808723
20
-1.67160879914115
30
0
41
1
10
60.0409907051661
20
-1.7721388651527
30
0
41
1
10
60.3248402972278
20
-1.90966783830129
30
0
41
1
10
60.4194041216871
20
-1.95329725711011
30
0
41
1
10
60.5614671630148
20
-2.01488167249758
30
0
41
1
10
60.6088579409793
20
-2.03476949207084
30
0
41
1
10
60.6800370035108
20
-2.06355799929506
30
0
41
1
10
60.703787839608
20
-2.07298519088795
30
0
41
1
10
60.7511440913203
20
-2.09141088039254
30
0
41
1
10
60.7747714998648
20
-2.10041844650169
30
0
41
1
10
60.7983511233602
20
-2.10921649315671
30
0
0
SPLINE
5
1B5
100
AcDbEntity
8
1
62
256
6
ByLayer
370
18
48
1
60
0
100
AcDbSpline
70
4
71
3
72
8
73
4
40
0
40
0
40
0
40
0
40
1
40
1
40
1
40
1
41
1
10
60.8509768160409
20
1.72118772904966
30
0
41
1
10
60.8337481448105
20
1.72985926346337
30
0
41
1
10
60.8162132938687
20
1.7376764384384
30
0
41
1
10
60.79835112336
20
1.74457763165745
30
0
0
SPLINE
5
1B6
100
AcDbEntity
8
1
62
256
6
ByLayer
370
18
48
1
60
0
100
AcDbSpline
70
4
71
3
72
29
73
25
40
0
40
0
40
0
40
0
40
0.0436874137330332
40
0.103167786283402
40
0.216945299401946
40
0.25515854426217
40
0.316265790877915
40
0.362066418756108
40
0.43842162727528
40
0.59071279619888
40
0.696698543119599
40
0.726911872189719
40
0.745896042689614
40
0.812341803631281
40
0.86886590594636
40
0.877359317481887
40
0.880189671988435
40
0.881075385457893
40
0.882207596835002
40
0.885328907597759
40
0.89043839083118
40
0.914397482767099
40
0.924710936641551
40
1
40
1
40
1
40
1
41
1
10
57.7082835434797
20
2.52294580173876
30
0
41
1
10
57.7544454760049
20
2.54213664217102
30
0
41
1
10
57.8629813029925
20
2.58059670246607
30
0
41
1
10
58.0887393798165
20
2.63315111204102
30
0
41
1
10
58.3059157565192
20
2.64680877268341
30
0
41
1
10
58.5247005864393
20
2.63598558132307
30
0
41
1
10
58.6747728120795
20
2.61898563912035
30
0
41
1
10
58.8660413649635
20
2.58671194919913
30
0
41
1
10
59.1545337396367
20
2.52057310419841
30
0
41
1
10
59.5108004575804
20
2.4019134582509
30
0
41
1
10
59.821478984063
20
2.26816034795991
30
0
41
1
10
59.9889049200417
20
2.18871474754005
30
0
41
1
10
60.1134540215509
20
2.12774528091066
30
0
41
1
10
60.2662344174446
20
2.04906986951943
30
0
41
1
10
60.4068926618145
20
1.97211048261889
30
0
41
1
10
60.4791963623152
20
1.93146627922474
30
0
41
1
10
60.4922019383057
20
1.92412198381066
30
0
41
1
10
60.4973322799725
20
1.92122035468682
30
0
41
1
10
60.5022980010387
20
1.91841158247249
30
0
41
1
10
60.5115006809928
20
1.91320621691168
30
0
41
1
10
60.5430032157313
20
1.89538739213009
30
0
41
1
10
60.5817116510834
20
1.87349272788566
30
0
41
1
10
60.6901397957062
20
1.81216227668162
30
0
41
1
10
60.7754594228028
20
1.76390277113922
30
0
41
1
10
60.8509768160409
20
1.72118772904972
30
0
0
SPLINE
5
1B7
100
AcDbEntity
8
1
62
256
6
ByLayer
370
18
48
1
60
0
100
AcDbSpline
70
4
71
1
72
4
73
2
40
0
40
0
40
1
40
1
41
1
10
57.7081668161744
20
2.52228157855816
30
0
41
1
10
57.7082835434797
20
2.52294580173876
30
0
0
SPLINE
5
1B8
100
AcDbEntity
8
1
62
256
6
ByLayer
370
18
48
1
60
0
100
AcDbSpline
70
4
71
3
72
16
73
12
40
0
40
0
40
0
40
0
40
0.25
40
0.25
40
0.5
40
0.5
40
0.625
40
0.625
40
0.75
40
0.75
40
1
40
1
40
1
40
1
41
1
10
57.7081668161744
20
2.52228157855816
30
0
41
1
10
57.7760257594438
20
2.55049379011024
30
0
41
1
10
57.8437733437999
20
2.57266723557299
30
0
41
1
10
57.9797680256773
20
2.60740384875172
30
0
41
1
10
58.0480042648706
20
2.61995172206881
30
0
41
1
10
58.1510841178644
20
2.63261392975903
30
0
41
1
10
58.1855652406162
20
2.6357991184239
30
0
41
1
10
58.2548250936227
20
2.64021671348047
30
0
41
1
10
58.289599939672
20
2.64144510316629
30
0
41
1
10
58.3938169930706
20
2.64236844649571
30
0
41
1
10
58.4633685028954
20
2.63933551174938
30
0
41
1
10
58.5332269794071
20
2.63308001774703
30
0
0
SPLINE
5
1B9
100
AcDbEntity
8
1
62
256
6
ByLayer
370
18
48
1
60
0
100
AcDbSpline
70
4
71
3
72
8
73
4
40
0
40
0
40
0
40
0
40
1
40
1
40
1
40
1
41
1
10
60.9544775836407
20
1.5743367029919
30
0
41
1
10
60.9009695553842
20
1.63007288122498
30
0
41
1
10
60.8488479196817
20
1.68683391988378
30
0
41
1
10
60.7983511233604
20
1.74457763165759
30
0
0
SPLINE
5
1BA
100
AcDbEntity
8
1
62
256
6
ByLayer
370
18
48
1
60
0
100
AcDbSpline
70
4
71
3
72
26
73
22
40
0
40
0
40
0
40
0
40
0.124999999999995
40
0.124999999999995
40
0.24999999999999
40
0.24999999999999
40
0.374999999999985
40
0.374999999999985
40
0.43749999999999
40
0.43749999999999
40
0.499999999999994
40
0.499999999999994
40
0.750000000000011
40
0.750000000000011
40
0.875000000000012
40
0.875000000000012
40
0.937500000000013
40
0.937500000000013
40
0.968750000000007
40
0.968750000000007
40
1
40
1
40
1
40
1
41
1
10
58.5332269794066
20
2.63308001774729
30
0
41
1
10
58.6259772998072
20
2.62477465445807
30
0
41
1
10
58.7187813974547
20
2.61182290155657
30
0
41
1
10
58.9048563792399
20
2.57752616308849
30
0
41
1
10
58.9981273275168
20
2.55617504873456
30
0
41
1
10
59.1854979059993
20
2.50574001965074
30
0
41
1
10
59.2795966651914
20
2.4766553034772
30
0
41
1
10
59.4216538899314
20
2.42760180990484
30
0
41
1
10
59.4691580358016
20
2.41034513804615
30
0
41
1
10
59.5645216458455
20
2.37407096623684
30
0
41
1
10
59.6124851413628
20
2.35500865769751
30
0
41
1
10
59.851561180872
20
2.25615405290282
30
0
41
1
10
60.0409907051658
20
2.16567079596143
30
0
41
1
10
60.3248402972276
20
2.01681252105669
30
0
41
1
10
60.4194041216869
20
1.96499134217805
30
0
41
1
10
60.5614671630148
20
1.88432432700731
30
0
41
1
10
60.6088579409793
20
1.856949482251
30
0
41
1
10
60.6800370035108
20
1.81519372142111
30
0
41
1
10
60.703787839608
20
1.80115586500693
30
0
41
1
10
60.7511440913203
20
1.77296781871448
30
0
41
1
10
60.7747714998647
20
1.7588048296829
30
0
41
1
10
60.7983511233601
20
1.74457763165756
30
0
0
SPLINE
5
1BB
100
AcDbEntity
8
1
62
256
6
ByLayer
370
18
48
1
60
0
100
AcDbSpline
70
4
71
3
72
8
73
4
40
0
40
0
40
0
40
0
40
1
40
1
40
1
40
1
41
1
10
63.7625090203225
20
-1.12362211876192
30
0
41
1
10
63.7702421527859
20
-1.10766192062093
30
0
41
1
10
63.7777980380722
20
-1.09156285587187
30
0
41
1
10
63.7851761560151
20
-1.07532540595943
30
0
0
SPLINE
5
1BC
100
AcDbEntity
8
1
62
256
6
ByLayer
370
18
48
1
60
0
100
AcDbSpline
70
4
71
3
72
8
73
4
40
0
40
0
40
0
40
0
40
1
40
1
40
1
40
1
41
1
10
63.7851761560179
20
-1.07532540594696
30
0
41
1
10
63.7513452680997
20
-1.04119567787117
30
0
41
1
10
63.717186227783
20
-1.00648256374356
30
0
41
1
10
63.6826873012614
20
-0.971163330916909
30
0
0
SPLINE
5
1BD
100
AcDbEntity
8
1
62
256
6
ByLayer
370
18
48
1
60
0
100
AcDbSpline
70
4
71
1
72
4
73
2
40
0
40
0
40
1
40
1
41
1
10
57.7082835434797
20
-0.492496422089374
30
0
41
1
10
57.7882960912145
20
-0.176134130604225
30
0
0
SPLINE
5
1BE
100
AcDbEntity
8
1
62
256
6
ByLayer
370
18
48
1
60
0
100
AcDbSpline
70
4
71
3
72
29
73
25
40
0
40
0
40
0
40
0
40
0.0436874137331815
40
0.103167786283794
40
0.216945299401784
40
0.255158544262101
40
0.316265790878732
40
0.362066418756403
40
0.438421627273613
40
0.59071279620049
40
0.696698543120333
40
0.726911872190354
40
0.745896042690274
40
0.812341803631791
40
0.868865905947882
40
0.877359317483172
40
0.880189671989621
40
0.881075385459048
40
0.882207596836139
40
0.885328907598824
40
0.890438390832129
40
0.914397482768225
40
0.924710936642847
40
1
40
1
40
1
40
1
41
1
10
57.7082835434797
20
-0.492496422089374
30
0
41
1
10
57.7544454760052
20
-0.506148519866173
30
0
41
1
10
57.8629813029921
20
-0.543890508398363
30
0
41
1
10
58.0887393798152
20
-0.642745305977712
30
0
41
1
10
58.3059157565199
20
-0.761006757112
30
0
41
1
10
58.5247005864405
20
-0.889968811350911
30
0
41
1
10
58.6747728120766
20
-0.980842715340486
30
0
41
1
10
58.8660413649622
20
-1.0967429615466
30
0
41
1
10
59.154533739648
20
-1.27101205947213
30
0
41
1
10
59.5108004575683
20
-1.48169395341685
30
0
41
1
10
59.8214789840652
20
-1.65384509387781
30
0
41
1
10
59.9889049200414
20
-1.74189858251697
30
0
41
1
10
60.1134540215515
20
-1.80604584503908
30
0
41
1
10
60.2662344174508
20
-1.88168453433548
30
0
41
1
10
60.4068926618172
20
-1.94663729935846
30
0
41
1
10
60.4791963623199
20
-1.97860704218556
30
0
41
1
10
60.4922019383111
20
-1.98431211452711
30
0
41
1
10
60.4973322799778
20
-1.98655744802136
30
0
41
1
10
60.5022980010441
20
-1.98872387738177
30
0
41
1
10
60.5115006809982
20
-1.99272638974278
30
0
41
1
10
60.5430032157373
20
-2.0062796449929
30
0
41
1
10
60.5817116510886
20
-2.02241384609871
30
0
41
1
10
60.6901397957096
20
-2.06572265499037
30
0
41
1
10
60.7754594228048
20
-2.09630573029435
30
0
41
1
10
60.8509768160414
20
-2.12059030344778
30
0
0
SPLINE
5
1BF
100
AcDbEntity
8
1
62
256
6
ByLayer
370
18
48
1
60
0
100
AcDbSpline
70
4
71
3
72
8
73
4
40
0
40
0
40
0
40
0
40
1
40
1
40
1
40
1
41
1
10
60.8799860358239
20
-2.12891694568052
30
0
41
1
10
60.8704361774157
20
-2.12588488078956
30
0
41
1
10
60.860765757436
20
-2.12311053870417
30
0
41
1
10
60.8509768160414
20
-2.12059030344778
30
0
0
SPLINE
5
1C0
100
AcDbEntity
8
1
62
256
6
ByLayer
370
18
48
1
60
0
100
AcDbSpline
70
4
71
3
72
8
73
4
40
0
40
0
40
0
40
0
40
1
40
1
40
1
40
1
41
1
10
60.8799860358237
20
-2.12891694568069
30
0
41
1
10
60.9289907945139
20
-2.14447587880437
30
0
41
1
10
60.9780389154585
20
-2.1589465322061
30
0
41
1
10
61.0271718136388
20
-2.17223163914505
30
0
0
SPLINE
5
1C1
100
AcDbEntity
8
1
62
256
6
ByLayer
370
18
48
1
60
0
100
AcDbSpline
70
4
71
3
72
8
73
4
40
0
40
0
40
0
40
0
40
1
40
1
40
1
40
1
41
1
10
61.0271717159003
20
-2.17223187687711
30
0
41
1
10
61.0271869991563
20
-2.17223592127957
30
0
41
1
10
61.0272022824319
20
-2.17223996557411
30
0
41
1
10
61.0272175657269
20
-2.17224400976065
30
0
0
SPLINE
5
1C2
100
AcDbEntity
8
1
62
256
6
ByLayer
370
18
48
1
60
0
100
AcDbSpline
70
4
71
3
72
11
73
7
40
0
40
0
40
0
40
0
40
0.0283453482128004
40
0.489648833221756
40
0.722322766011651
40
1
40
1
40
1
40
1
41
1
10
61.0272175657283
20
-2.17224400976099
30
0
41
1
10
61.0343982647715
20
-2.17414412923597
30
0
41
1
10
61.1585148860304
20
-2.20655586564178
30
0
41
1
10
61.3435089852321
20
-2.24384298958282
30
0
41
1
10
61.5939556221635
20
-2.27196585043683
30
0
41
1
10
61.7255381965792
20
-2.27773483807349
30
0
41
1
10
61.7968600740771
20
-2.27810270620523
30
0
0
SPLINE
5
1C3
100
AcDbEntity
8
1
62
256
6
ByLayer
370
18
48
1
60
0
100
AcDbSpline
70
4
71
3
72
38
73
34
40
0
40
0
40
0
40
0
40
0.0291899386957061
40
0.0585858828722713
40
0.0881878594701285
40
0.117995901351159
40
0.148010048758723
40
0.178230350858724
40
0.208656867364293
40
0.239289670247439
40
0.270128845540529
40
0.301174495231131
40
0.332426739253061
40
0.363885717577266
40
0.395551592405629
40
0.42742439778963
40
0.459503463534469
40
0.491787884805188
40
0.524276724644122
40
0.55696901511484
40
0.589863758533108
40
0.622959928812514
40
0.656256472930541
40
0.68975231252114
40
0.723446345599811
40
0.75733744842759
40
0.791424477520873
40
0.825706271813895
40
0.860181659930707
40
0.894849611184299
40
0.92970925224217
40
0.964759689579653
40
1
40
1
40
1
40
1
41
1
10
61.7968600740745
20
-2.27810270620523
30
0
41
1
10
61.8049588209054
20
-2.27809857483476
30
0
41
1
10
61.8212134707762
20
-2.278090282937
30
0
41
1
10
61.845602845785
20
-2.27781009047314
30
0
41
1
10
61.870102881315
20
-2.27732884967071
30
0
41
1
10
61.8947050506769
20
-2.27662267356155
30
0
41
1
10
61.9194077802245
20
-2.27569215129219
30
0
41
1
10
61.9442075090398
20
-2.27453117771819
30
0
41
1
10
61.9691011080158
20
-2.27313539217332
30
0
41
1
10
61.994085223346
20
-2.27149989299414
30
0
41
1
10
62.019156452683
20
-2.26961985549005
30
0
41
1
10
62.0443112957601
20
-2.26749036366397
30
0
41
1
10
62.0695461664317
20
-2.26510645563869
30
0
41
1
10
62.0948573866048
20
-2.26246310789074
30
0
41
1
10
62.1202411497734
20
-2.25955525327331
30
0
41
1
10
62.1456933079313
20
-2.25637776561104
30
0
41
1
10
62.1712096812548
20
-2.25292644491358
30
0
41
1
10
62.1967857617076
20
-2.24919712673756
30
0
41
1
10
62.2224168705428
20
-2.24518561587581
30
0
41
1
10
62.2480982159718
20
-2.24088769252313
30
0
41
1
10
62.273824889934
20
-2.23629910847956
30
0
41
1
10
62.2995918668531
20
-2.23141558795643
30
0
41
1
10
62.3253940016166
20
-2.22623282674226
30
0
41
1
10
62.3512260285302
20
-2.22074649326453
30
0
41
1
10
62.3770825569922
20
-2.21495222363282
30
0
41
1
10
62.4029580792767
20
-2.20884563900381
30
0
41
1
10
62.4288469326573
20
-2.20242227896071
30
0
41
1
10
62.4547434345376
20
-2.19567785067576
30
0
41
1
10
62.4806414080968
20
-2.18860727794993
30
0
41
1
10
62.5065361825034
20
-2.1812083028565
30
0
41
1
10
62.5324184260514
20
-2.17347027618277
30
0
41
1
10
62.5582973298471
20
-2.16541625052426
30
0
41
1
10
62.5754607821028
20
-2.1597818932172
30
0
41
1
10
62.5840656896429
20
-2.15695710465181
30
0
0
SPLINE
5
1C4
100
AcDbEntity
8
1
62
256
6
ByLayer
370
18
48
1
60
0
100
AcDbSpline
70
4
71
3
72
10
73
6
40
0
40
0
40
0
40
0
40
0.443361144641653
40
0.780781716796296
40
1
40
1
40
1
40
1
41
1
10
62.5840656896457
20
-2.15695710465084
30
0
41
1
10
62.6569616204235
20
-2.13253519942017
30
0
41
1
10
62.782187985649
20
-2.08305827680098
30
0
41
1
10
62.9339460337916
20
-2.00541766835482
30
0
41
1
10
63.0146229581935
20
-1.9567777719767
30
0
41
1
10
63.0457657329487
20
-1.93679915278864
30
0
0
SPLINE
5
1C5
100
AcDbEntity
8
1
62
256
6
ByLayer
370
18
48
1
60
0
100
AcDbSpline
70
4
71
3
72
28
73
24
40
0
40
0
40
0
40
0
40
0.0341310568724077
40
0.0696201805401234
40
0.106465886989118
40
0.144666901839188
40
0.184222237917418
40
0.225130827765549
40
0.267391495196092
40
0.311002943566589
40
0.355963743632788
40
0.402272321119854
40
0.449926944177586
40
0.498925710917344
40
0.549266537259249
40
0.60094714535499
40
0.653965052889388
40
0.70831756360512
40
0.764001759440198
40
0.821014494715642
40
0.879352593227783
40
0.939014572778769
40
1
40
1
40
1
40
1
41
1
10
63.0457657329485
20
-1.93679915278878
30
0
41
1
10
63.0522775600311
20
-1.93257502511671
30
0
41
1
10
63.0655603182778
20
-1.92395869271729
30
0
41
1
10
63.0856512543304
20
-1.91049887274835
30
0
41
1
10
63.1063312405718
20
-1.89629891672854
30
0
41
1
10
63.1275597681651
20
-1.88131176975779
30
0
41
1
10
63.1493164227621
20
-1.86551697258901
30
0
41
1
10
63.1715736678601
20
-1.84888576819384
30
0
41
1
10
63.1943043884837
20
-1.83139105267162
30
0
41
1
10
63.2174796898496
20
-1.81300463506693
30
0
41
1
10
63.2410694673357
20
-1.7936980664519
30
0
41
1
10
63.2650421949365
20
-1.77344246466257
30
0
41
1
10
63.2893649313828
20
-1.75220862302703
30
0
41
1
10
63.3140032655353
20
-1.72996704313189
30
0
41
1
10
63.3389212691163
20
-1.70668798365051
30
0
41
1
10
63.3640814769375
20
-1.68234153466798
30
0
41
1
10
63.3894447365847
20
-1.65689757811793
30
0
41
1
10
63.4149705628434
20
-1.63032620380574
30
0
41
1
10
63.4406155290156
20
-1.60259636644744
30
0
41
1
10
63.4663392799028
20
-1.57368132466456
30
0
41
1
10
63.4920814347732
20
-1.54353743289593
30
0
41
1
10
63.5178523293235
20
-1.51218532878411
30
0
41
1
10
63.5346914532875
20
-1.49056583476883
30
0
41
1
10
63.5432033740694
20
-1.47963750970902
30
0
0
SPLINE
5
1C6
100
AcDbEntity
8
1
62
256
6
ByLayer
370
18
48
1
60
0
100
AcDbSpline
70
4
71
3
72
9
73
5
40
0
40
0
40
0
40
0
40
0.538749800059517
40
1
40
1
40
1
40
1
41
1
10
63.5432033740696
20
-1.47963750970868
30
0
41
1
10
63.5886218166327
20
-1.42050984049428
30
0
41
1
10
63.6670194730562
20
-1.30570094367238
30
0
41
1
10
63.7340605251295
20
-1.18224893047437
30
0
41
1
10
63.7625090203227
20
-1.12362211876169
30
0
0
SPLINE
5
1C7
100
AcDbEntity
8
1
62
256
6
ByLayer
370
18
48
1
60
0
100
AcDbSpline
70
4
71
3
72
8
73
4
40
0
40
0
40
0
40
0
40
1
40
1
40
1
40
1
41
1
10
63.682687301192
20
-0.971163329654814
30
0
41
1
10
63.6080981172671
20
-0.881253484331467
30
0
41
1
10
63.5336060141653
20
-0.791529009152782
30
0
41
1
10
63.4592356549111
20
-0.702036673259528
30
0
0
SPLINE
5
1C8
100
AcDbEntity
8
1
62
256
6
ByLayer
370
18
48
1
60
0
100
AcDbSpline
70
4
71
3
72
31
73
27
40
0
40
0
40
0
40
0
40
0.12500000000003
40
0.12500000000003
40
0.250000000000059
40
0.250000000000059
40
0.28125000000006
40
0.28125000000006
40
0.31250000000006
40
0.375000000000051
40
0.375000000000051
40
0.500000000000032
40
0.500000000000032
40
0.562500000000023
40
0.562500000000023
40
0.593750000000024
40
0.593750000000024
40
0.625000000000025
40
0.750000000000017
40
0.750000000000017
40
0.875000000000009
40
0.875000000000009
40
0.906250000000004
40
0.906250000000004
40
0.937499999999998
40
1
40
1
40
1
40
1
41
1
10
63.4592356549116
20
-0.702036673259101
30
0
41
1
10
63.4192849651994
20
-0.774931389416793
30
0
41
1
10
63.3749933012858
20
-0.843041271042836
30
0
41
1
10
63.2779384245699
20
-0.969923277884959
30
0
41
1
10
63.2251216850309
20
-1.02863640330918
30
0
41
1
10
63.1533595429315
20
-1.09569955856841
30
0
41
1
10
63.1387038480088
20
-1.1088041550565
30
0
41
1
10
63.109038753903
20
-1.13416111925682
30
0
41
1
10
63.0639311426171
20
-1.17099600830724
30
0
41
1
10
63.0170058647964
20
-1.20425332423127
30
0
41
1
10
62.9207590921038
20
-1.26605166650341
30
0
41
1
10
62.8534363222374
20
-1.30103441165412
30
0
41
1
10
62.7475783561568
20
-1.34391578179304
30
0
41
1
10
62.7114655895723
20
-1.35658228855709
30
0
41
1
10
62.6560386584436
20
-1.37310645468145
30
0
41
1
10
62.6373207986688
20
-1.37821090587957
30
0
41
1
10
62.5996241499862
20
-1.38755041634636
30
0
41
1
10
62.5049158206341
20
-1.40867934351576
30
0
41
1
10
62.4079058419505
20
-1.41886070209145
30
0
41
1
10
62.2498593350889
20
-1.42168768618697
30
0
41
1
10
62.1694124742602
20
-1.41632992971088
30
0
41
1
10
62.0670680833164
20
-1.40113868120761
30
0
41
1
10
62.0464790601604
20
-1.39766898515367
30
0
41
1
10
62.0054066509715
20
-1.38992118675813
30
0
41
1
10
61.9438753990217
20
-1.37707842462626
30
0
41
1
10
61.8825734621629
20
-1.36061619650403
30
0
41
1
10
61.8418052557332
20
-1.34806691933963
30
0
0
SPLINE
5
1C9
100
AcDbEntity
8
1
62
256
6
ByLayer
370
18
48
1
60
0
100
AcDbSpline
70
4
71
1
72
4
73
2
40
0
40
0
40
1
40
1
41
1
10
57.7882960912145
20
-0.176134130604225
30
0
41
1
10
58.0213597854327
20
0.513890224968975
30
0
0
SPLINE
5
1CA
100
AcDbEntity
8
1
62
256
6
ByLayer
370
18
48
1
60
0
100
AcDbSpline
70
4
71
3
72
39
73
35
40
0
40
0
40
0
40
0
40
0.0204449212790137
40
0.0482806622974856
40
0.101526485298733
40
0.119409594327718
40
0.148006683051819
40
0.169440550417082
40
0.205173410158133
40
0.276442929091321
40
0.326042346115814
40
0.340181638915021
40
0.349065888135831
40
0.38016130522942
40
0.406613565124624
40
0.41058832845783
40
0.411912883292535
40
0.412327381213351
40
0.412857235706849
40
0.414317952819108
40
0.416709098770648
40
0.427921521450138
40
0.432748031755123
40
0.498574672650967
40
0.552565597047578
40
0.579797736241318
40
0.662040904866579
40
0.717196852106869
40
0.77258940799989
40
0.800352638058086
40
0.828138062837234
40
0.91129855293985
40
0.966097044602014
40
1
40
1
40
1
40
1
41
1
10
57.7882960912145
20
-0.176134130604225
30
0
41
1
10
57.8329617944245
20
-0.18933304313282
30
0
41
1
10
57.9376216172955
20
-0.225993017229456
30
0
41
1
10
58.1548648052826
20
-0.322865380553026
30
0
41
1
10
58.3638767002569
20
-0.439682818742057
30
0
41
1
10
58.5747010294667
20
-0.56766457356062
30
0
41
1
10
58.7192246787487
20
-0.658031555224312
30
0
41
1
10
58.9033254953277
20
-0.77353759954903
30
0
41
1
10
59.1813416937835
20
-0.947747606917346
30
0
41
1
10
59.5257774511871
20
-1.15970320022842
30
0
41
1
10
59.8267867931691
20
-1.33437012275942
30
0
41
1
10
59.9892333163595
20
-1.42420880958821
30
0
41
1
10
60.110409714652
20
-1.48980326868147
30
0
41
1
10
60.2593147480681
20
-1.56742754723345
30
0
41
1
10
60.3964344043589
20
-1.63459032837329
30
0
41
1
10
60.46700576306
20
-1.66774386163661
30
0
41
1
10
60.479666797333
20
-1.67369574465135
30
0
41
1
10
60.4847399441622
20
-1.67600547758326
30
0
41
1
10
60.4903129255428
20
-1.67819984233938
30
0
41
1
10
60.5003505775762
20
-1.68230812573972
30
0
41
1
10
60.5349425821647
20
-1.69614462190543
30
0
41
1
10
60.5771762424191
20
-1.71264919409643
30
0
41
1
10
60.7641958378466
20
-1.78371549847873
30
0
41
1
10
61.0467602754743
20
-1.87418271540145
30
0
41
1
10
61.3733015654883
20
-1.94193137975927
30
0
41
1
10
61.7288671467827
20
-1.98588889116954
30
0
41
1
10
62.0751937314955
20
-1.98636984254196
30
0
41
1
10
62.454333448857
20
-1.92193776800576
30
0
41
1
10
62.7072120907087
20
-1.83935309859089
30
0
41
1
10
62.8966588674026
20
-1.75178230612042
30
0
41
1
10
63.1215981098155
20
-1.62467342729295
30
0
41
1
10
63.3603788548283
20
-1.43121225983376
30
0
41
1
10
63.5630613907302
20
-1.17823586486494
30
0
41
1
10
63.6514378056538
20
-1.03026571108765
30
0
41
1
10
63.6826873015471
20
-0.971163329583959
30
0
0
SPLINE
5
1CB
100
AcDbEntity
8
1
62
256
6
ByLayer
370
18
48
1
60
0
100
AcDbSpline
70
4
71
3
72
8
73
4
40
0
40
0
40
0
40
0
40
1
40
1
40
1
40
1
41
1
10
61.9375737199328
20
-1.13259953011882
30
0
41
1
10
61.9082586156876
20
-1.20662189729615
30
0
41
1
10
61.8765401122402
20
-1.27861672904609
30
0
41
1
10
61.8418052557334
20
-1.34806691933949
30
0
0
SPLINE
5
1CC
100
AcDbEntity
8
1
62
256
6
ByLayer
370
18
48
1
60
0
100
AcDbSpline
70
4
71
3
72
8
73
4
40
0
40
0
40
0
40
0
40
1
40
1
40
1
40
1
41
1
10
57.8421965137039
20
0.667586645988024
30
0
41
1
10
57.7967450685885
20
0.681224385501025
30
0
41
1
10
57.7513447305891
20
0.694903471219533
30
0
41
1
10
57.7060000000001
20
0.708639084578437
30
0
0
SPLINE
5
1CD
100
AcDbEntity
8
1
62
256
6
ByLayer
370
18
48
1
60
0
100
AcDbSpline
70
4
71
3
72
8
73
4
40
0
40
0
40
0
40
0
40
1
40
1
40
1
40
1
41
1
10
57.8421965137039
20
0.667586645988024
30
0
41
1
10
57.9028188268011
20
0.617633470897346
30
0
41
1
10
57.9625361392737
20
0.566395968881608
30
0
41
1
10
58.0213597854327
20
0.513890224968975
30
0
0
SPLINE
5
1CE
100
AcDbEntity
8
1
62
256
6
ByLayer
370
18
48
1
60
0
100
AcDbSpline
70
4
71
3
72
56
73
52
40
0
40
0
40
0
40
0
40
0.0312499999999714
40
0.0468749999999571
40
0.0468749999999571
40
0.0624999999999428
40
0.0624999999999428
40
0.124999999999894
40
0.124999999999894
40
0.187499999999845
40
0.187499999999845
40
0.203124999999836
40
0.203124999999836
40
0.218749999999828
40
0.218749999999828
40
0.249999999999812
40
0.249999999999812
40
0.312499999999779
40
0.312499999999779
40
0.328124999999769
40
0.328124999999769
40
0.332031249999766
40
0.332031249999766
40
0.335937499999764
40
0.335937499999764
40
0.343749999999767
40
0.343749999999767
40
0.374999999999779
40
0.374999999999779
40
0.437499999999804
40
0.437499999999804
40
0.468749999999816
40
0.468749999999816
40
0.499999999999829
40
0.499999999999829
40
0.624999999999855
40
0.624999999999855
40
0.687499999999872
40
0.687499999999872
40
0.703124999999876
40
0.703124999999876
40
0.718749999999881
40
0.749999999999896
40
0.749999999999896
40
0.874999999999945
40
0.874999999999945
40
0.937499999999969
40
0.937499999999969
40
0.968749999999985
40
0.968749999999985
40
1
40
1
40
1
40
1
41
1
10
61.8418052557334
20
-1.34806691933949
30
0
41
1
10
61.8004225956298
20
-1.35538303151583
30
0
41
1
10
61.7376471435016
20
-1.36400024966494
30
0
41
1
10
61.6738004233108
20
-1.36918475701526
30
0
41
1
10
61.6309956185638
20
-1.37188937113603
30
0
41
1
10
61.6094389236071
20
-1.37286691886078
30
0
41
1
10
61.5016685799298
20
-1.37587892136938
30
0
41
1
10
61.4152436738426
20
-1.372317666676
30
0
41
1
10
61.2416571870052
20
-1.35457359796214
30
0
41
1
10
61.154497878322
20
-1.34039795337929
30
0
41
1
10
61.0448931323894
20
-1.31665922465044
30
0
41
1
10
61.0229393681773
20
-1.31160974178152
30
0
41
1
10
60.9789610067714
20
-1.3009192120247
30
0
41
1
10
60.9569613239635
20
-1.29528339212405
30
0
41
1
10
60.891218487429
20
-1.27761220188589
30
0
41
1
10
60.8476163446868
20
-1.26478673436645
30
0
41
1
10
60.7173880153265
20
-1.22341774791292
30
0
41
1
10
60.6313406780438
20
-1.19196989365298
30
0
41
1
10
60.5244522693519
20
-1.14851196332475
30
0
41
1
10
60.5031090069569
20
-1.13960812062967
30
0
41
1
10
60.4764678650725
20
-1.12822838394706
30
0
41
1
10
60.4711407087235
20
-1.12594523895069
30
0
41
1
10
60.4604886410253
20
-1.12136367312823
30
0
41
1
10
60.455176030124
20
-1.11898525894873
30
0
41
1
10
60.4391540633472
20
-1.11239570838256
30
0
41
1
10
60.4284700594381
20
-1.10802151944685
30
0
41
1
10
60.3751171381349
20
-1.08571240960413
30
0
41
1
10
60.3325492389537
20
-1.06711558255293
30
0
41
1
10
60.2051297875687
20
-1.00915851538153
30
0
41
1
10
60.1205627902516
20
-0.967624763172722
30
0
41
1
10
59.9940259066408
20
-0.901488832027525
30
0
41
1
10
59.9518541758688
20
-0.878802513819295
30
0
41
1
10
59.86830623325
20
-0.832611921551035
30
0
41
1
10
59.8268452037777
20
-0.809060514802837
30
0
41
1
10
59.6209589348647
20
-0.689250847034629
30
0
41
1
10
59.4607487888277
20
-0.58689787683997
30
0
41
1
10
59.2251590859661
20
-0.426808369392461
30
0
41
1
10
59.1474265805816
20
-0.372336987460983
30
0
41
1
10
59.0511142251514
20
-0.303095205849616
30
0
41
1
10
59.0318807278527
20
-0.289178917746511
30
0
41
1
10
58.9936473065336
20
-0.26134698654738
30
0
41
1
10
58.9365988913213
20
-0.219565389641787
30
0
41
1
10
58.8804280843367
20
-0.177710689568926
30
0
41
1
10
58.6950260620592
20
-0.0381499109411152
30
0
41
1
10
58.5524808574845
20
0.0735970344697137
30
0
41
1
10
58.3469093614069
20
0.240068025971652
30
0
41
1
10
58.279765476991
20
0.295369747470801
30
0
41
1
10
58.1810755530604
20
0.377884489866574
30
0
41
1
10
58.1484770619649
20
0.405354622854276
30
0
41
1
10
58.0842062702146
20
0.459914191714603
30
0
41
1
10
58.0525438043548
20
0.487001341400287
30
0
41
1
10
58.0213597854326
20
0.513890224968975
30
0
0
SPLINE
5
1CF
100
AcDbEntity
8
1
62
256
6
ByLayer
370
18
48
1
60
0
100
AcDbSpline
70
4
71
3
72
8
73
4
40
0
40
0
40
0
40
0
40
1
40
1
40
1
40
1
41
1
10
63.9879953720436
20
-0.0619579706474269
30
0
41
1
10
63.9878402780598
20
-0.0611007368493972
30
0
41
1
10
63.9876851277764
20
-0.0602435108224881
30
0
41
1
10
63.9875299208349
20
-0.059386292616125
30
0
0
SPLINE
5
1D0
100
AcDbEntity
8
1
62
256
6
ByLayer
370
18
48
1
60
0
100
AcDbSpline
70
4
71
3
72
8
73
4
40
0
40
0
40
0
40
0
40
1
40
1
40
1
40
1
41
1
10
63.9878059880958
20
0.0615100898268395
30
0
41
1
10
63.9877139855514
20
0.0610067238341117
30
0
41
1
10
63.9876219631561
20
0.0605033605550886
30
0
41
1
10
63.9875299208352
20
0.0600000000000307
30
0
0
SPLINE
5
1D1
100
AcDbEntity
8
1
62
256
6
ByLayer
370
18
48
1
60
0
100
AcDbSpline
70
4
71
3
72
8
73
4
40
0
40
0
40
0
40
0
40
1
40
1
40
1
40
1
41
1
10
63.9993935611978
20
0.0600000000000307
30
0
41
1
10
63.9993984600595
20
0.0596867436497064
30
0
41
1
10
63.9994033458868
20
0.0593734870638229
30
0
41
1
10
63.9994082186792
20
0.059060230231978
30
0
0
SPLINE
5
1D2
100
AcDbEntity
8
1
62
256
6
ByLayer
370
18
48
1
60
0
100
AcDbSpline
70
4
71
3
72
8
73
4
40
0
40
0
40
0
40
0
40
1
40
1
40
1
40
1
41
1
10
63.9874607376724
20
0.0003985464793743
30
0
41
1
10
63.9914666326683
20
-0.0195227686012913
30
0
41
1
10
63.9954271103706
20
-0.0394510806811468
30
0
41
1
10
63.9993428013384
20
-0.059386292616125
30
0
0
SPLINE
5
1D3
100
AcDbEntity
8
1
62
256
6
ByLayer
370
18
48
1
60
0
100
AcDbSpline
70
4
71
3
72
14
73
10
40
0
40
0
40
0
40
0
40
0.294778650297084
40
0.294778650297084
40
0.589557300594167
40
0.589557300594167
40
0.884335950891251
40
0.884335950891251
40
1
40
1
40
1
40
1
41
1
10
58.5332269794066
20
-3.59214741022103
30
0
41
1
10
58.6259772998073
20
-3.64006911180718
30
0
41
1
10
58.7187813974548
20
-3.68366522233273
30
0
41
1
10
58.90485637924
20
-3.76245016426756
30
0
41
1
10
58.9981273275168
20
-3.79763330094787
30
0
41
1
10
59.1854979059994
20
-3.85961376007845
30
0
41
1
10
59.2795966651914
20
-3.88641174990039
30
0
41
1
10
59.4114613727918
20
-3.91777394644353
30
0
41
1
10
59.4487147093147
20
-3.92595308812827
30
0
41
1
10
59.4860740185594
20
-3.93346435472921
30
0
0
SPLINE
5
1D4
100
AcDbEntity
8
1
62
256
6
ByLayer
370
18
48
1
60
0
100
AcDbSpline
70
4
71
3
72
14
73
10
40
0
40
0
40
0
40
0
40
0.0762111699249134
40
0.0762111699249134
40
0.538105584962456
40
0.538105584962456
40
0.769052792481228
40
0.769052792481228
40
1
40
1
40
1
40
1
41
1
10
60.4906756943247
20
-3.96831097889645
30
0
41
1
10
60.4984871561589
20
-3.96726862880448
30
0
41
1
10
60.5062994930405
20
-3.96619505923562
30
0
41
1
10
60.5614671630148
20
-3.95839400577461
30
0
41
1
10
60.6088579409794
20
-3.95055513730418
30
0
41
1
10
60.6800370035109
20
-3.93703521802388
30
0
41
1
10
60.703787839608
20
-3.9322361566777
30
0
41
1
10
60.7511440913204
20
-3.92209028947909
30
0
41
1
10
60.7747714998648
20
-3.91673958578511
30
0
41
1
10
60.7983511233602
20
-3.91111168110484
30
0
0
SPLINE
5
1D5
100
AcDbEntity
8
1
62
256
6
ByLayer
370
18
48
1
60
0
100
AcDbSpline
70
4
71
3
72
15
73
11
40
0
40
0
40
0
40
0
40
0.0762620241925243
40
0.180092698128546
40
0.378706045007564
40
0.445412200281957
40
0.55208279305864
40
0.632033705525216
40
0.765321585527111
40
1
40
1
40
1
40
1
41
1
10
57.7082835434798
20
-3.07190035001432
30
0
41
1
10
57.7544454760049
20
-3.10527510743304
30
0
41
1
10
57.8629813029927
20
-3.18265025634022
30
0
41
1
10
58.088739379816
20
-3.33615108190074
30
0
41
1
10
58.3059157565196
20
-3.46957040392553
30
0
41
1
10
58.5247005864399
20
-3.58882161492386
30
0
41
1
10
58.6747728120782
20
-3.66328855372848
30
0
41
1
10
58.8660413649629
20
-3.74745573116599
30
0
41
1
10
59.1357666096687
20
-3.84897659564277
30
0
41
1
10
59.359965911953
20
-3.90879087715845
30
0
41
1
10
59.5038360398579
20
-3.93689054586036
30
0
0
SPLINE
5
1D6
100
AcDbEntity
8
1
62
256
6
ByLayer
370
18
48
1
60
0
100
AcDbSpline
70
4
71
3
72
18
73
14
40
0
40
0
40
0
40
0
40
0.0824958071755563
40
0.358855176901245
40
0.400381424330925
40
0.414219680143666
40
0.418550137525918
40
0.424085780016733
40
0.439346588055471
40
0.464328029742256
40
0.581469554778583
40
0.631894408878453
40
1
40
1
40
1
40
1
41
1
10
60.2223384349101
20
-3.99192579913452
30
0
41
1
10
60.240466783363
20
-3.99114919793945
30
0
41
1
10
60.3192744982269
20
-3.98705497075758
30
0
41
1
10
60.4068926618157
20
-3.97901791535728
30
0
41
1
10
60.4791963623215
20
-3.96984629644052
30
0
41
1
10
60.4922019383138
20
-3.96811649652244
30
0
41
1
10
60.49733227998
20
-3.9674243257316
30
0
41
1
10
60.5022980010467
20
-3.96674718292706
30
0
41
1
10
60.5115006810007
20
-3.96547970816704
30
0
41
1
10
60.5430032157411
20
-3.96099139887323
30
0
41
1
10
60.5817116510892
20
-3.95495188150389
30
0
41
1
10
60.6901397957133
20
-3.93612907695982
30
0
41
1
10
60.7754594228071
20
-3.91778610651363
30
0
41
1
10
60.8509768160415
20
-3.89873689603007
30
0
0
SPLINE
5
1D7
100
AcDbEntity
8
1
62
256
6
ByLayer
370
18
48
1
60
0
100
AcDbSpline
70
4
71
3
72
8
73
4
40
0
40
0
40
0
40
0
40
1
40
1
40
1
40
1
41
1
10
60.8799860358231
20
-3.89115597477439
30
0
41
1
10
60.9290060054293
20
-3.87836974923942
30
0
41
1
10
60.9780693637454
20
-3.86439783208399
30
0
41
1
10
61.0272175657333
20
-3.84920733688986
30
0
0
SPLINE
5
1D8
100
AcDbEntity
8
1
62
256
6
ByLayer
370
18
48
1
60
0
100
AcDbSpline
70
4
71
3
72
16
73
12
40
0
40
0
40
0
40
0
40
0.480063690532502
40
0.480063690532502
40
0.740031845266265
40
0.740031845266265
40
0.870015922633132
40
0.870015922633132
40
0.935007961316566
40
0.935007961316566
40
1
40
1
40
1
40
1
41
1
10
59.7042707255714
20
3.96219846833296
30
0
41
1
10
59.8806137811014
20
3.98671955252303
30
0
41
1
10
60.055502516726
20
3.99575708836602
30
0
41
1
10
60.3248402972281
20
3.9862043274112
30
0
41
1
10
60.4194041216878
20
3.9783653584532
30
0
41
1
10
60.5614671630157
20
3.95970302611536
30
0
41
1
10
60.6088579409799
20
3.95233803208524
30
0
41
1
10
60.6800370035114
20
3.93952541794727
30
0
41
1
10
60.7037878396085
20
3.93496162658937
30
0
41
1
10
60.7511440913208
20
3.92528312741285
30
0
41
1
10
60.7747714998652
20
3.92016474100345
30
0
41
1
10
60.7983511233607
20
3.91476769666684
30
0
0
SPLINE
5
1D9
100
AcDbEntity
8
1
62
256
6
ByLayer
370
18
48
1
60
0
100
AcDbSpline
70
4
71
3
72
8
73
4
40
0
40
0
40
0
40
0
40
1
40
1
40
1
40
1
41
1
10
60.8509768160429
20
3.90274146652874
30
0
41
1
10
60.8337481448121
20
3.90687111075206
30
0
41
1
10
60.8162132938698
20
3.910876102039
30
0
41
1
10
60.7983511233606
20
3.91476769666684
30
0
0
SPLINE
5
1DA
100
AcDbEntity
8
1
62
256
6
ByLayer
370
18
48
1
60
0
100
AcDbSpline
70
4
71
3
72
14
73
10
40
0
40
0
40
0
40
0
40
0.0070212035976832
40
0.0164747712618995
40
0.0425366207482927
40
0.0851990126414657
40
0.285249022180048
40
0.371362742662348
40
1
40
1
40
1
40
1
41
1
10
60.4944007085755
20
3.96844508403768
30
0
41
1
10
60.4952917105294
20
3.96833420209609
30
0
41
1
10
60.4973755823093
20
3.96807395179138
30
0
41
1
10
60.5022980010441
20
3.9674521622139
30
0
41
1
10
60.5115006809983
20
3.9662770093332
30
0
41
1
10
60.5430032157368
20
3.96210324910442
30
0
41
1
10
60.5817116510891
20
3.95644502440001
30
0
41
1
10
60.6901397957101
20
3.93867137507226
30
0
41
1
10
60.7754594228057
20
3.92111891198235
30
0
41
1
10
60.8509768160429
20
3.90274146652874
30
0
0
SPLINE
5
1DB
100
AcDbEntity
8
1
62
256
6
ByLayer
370
18
48
1
60
0
100
AcDbSpline
70
4
71
3
72
8
73
4
40
0
40
0
40
0
40
0
40
1
40
1
40
1
40
1
41
1
10
60.8799860358244
20
3.89540119006895
30
0
41
1
10
60.8704361774168
20
3.89780716756903
30
0
41
1
10
60.8607657574367
20
3.9002538971979
30
0
41
1
10
60.8509768160428
20
3.90274146652877
30
0
0
SPLINE
5
1DC
100
AcDbEntity
8
1
62
256
6
ByLayer
370
18
48
1
60
0
100
AcDbSpline
70
4
71
3
72
8
73
4
40
0
40
0
40
0
40
0
40
1
40
1
40
1
40
1
41
1
10
60.8799860358235
20
3.89540119006986
30
0
41
1
10
60.929006005426
20
3.88305116990355
30
0
41
1
10
60.9780693637385
20
3.86950537981383
30
0
41
1
10
61.0272175657227
20
3.8547293137826
30
0
0
SPLINE
5
1DD
100
AcDbEntity
8
1
62
256
6
ByLayer
370
18
48
1
60
0
100
AcDbSpline
70
4
71
3
72
8
73
4
40
0
40
0
40
0
40
0
40
1
40
1
40
1
40
1
41
1
10
60.8799860358243
20
-3.89115597477337
30
0
41
1
10
60.8704361774163
20
-3.89364693191621
30
0
41
1
10
60.860765757436
20
-3.89617385189754
30
0
41
1
10
60.8509768160416
20
-3.89873689603007
30
0
0
SPLINE
5
1DE
100
AcDbEntity
8
1
62
256
6
ByLayer
370
18
48
1
60
0
100
AcDbSpline
70
4
71
3
72
8
73
4
40
0
40
0
40
0
40
0
40
1
40
1
40
1
40
1
41
1
10
60.8509768160417
20
-3.89873689603004
30
0
41
1
10
60.833748144811
20
-3.90299899522415
30
0
41
1
10
60.816213293869
20
-3.90712061823564
30
0
41
1
10
60.7983511233601
20
-3.91111168110484
30
0
0
SPLINE
5
1DF
100
AcDbEntity
8
1
62
256
6
ByLayer
370
18
48
1
60
0
100
AcDbSpline
70
4
71
3
72
8
73
4
40
0
40
0
40
0
40
0
40
1
40
1
40
1
40
1
41
1
10
63.9333898836639
20
-0.111258217599755
30
0
41
1
10
63.9090219842927
20
-0.125768662440521
30
0
41
1
10
63.8746469543129
20
-0.139780664128636
30
0
41
1
10
63.8307404837561
20
-0.153317916213069
30
0
0
SPLINE
5
1E0
100
AcDbEntity
8
1
62
256
6
ByLayer
370
18
48
1
60
0
100
AcDbSpline
70
4
71
3
72
8
73
4
40
0
40
0
40
0
40
0
40
1
40
1
40
1
40
1
41
1
10
63.9994082186791
20
0.0590602302283685
30
0
41
1
10
63.9956366802011
20
0.039674555281465
30
0
41
1
10
63.9918166362667
20
0.020296186785373
30
0
41
1
10
63.9879473306285
20
0.0009252386611251
30
0
0
SPLINE
5
1E1
100
AcDbEntity
8
1
62
256
6
ByLayer
370
18
48
1
60
0
100
AcDbSpline
70
4
71
1
72
4
73
2
40
0
40
0
40
1
40
1
41
1
10
63.9881036566257
20
9.06986298617E-05
30
0
41
1
10
63.9757653267887
20
0.0645763380793198
30
0
0
SPLINE
5
1E2
100
AcDbEntity
8
1
62
256
6
ByLayer
370
18
48
1
60
0
100
AcDbSpline
70
4
71
2
72
6
73
3
40
0
40
0
40
0
40
1
40
1
40
1
41
1
10
61.4927098434814
20
2.23247029458204
30
0
41
1
10
61.2284387506714
20
2.29047549378012
30
0
41
1
10
60.8582327051336
20
2.38805417503369
30
0
0
LINE
5
7F
100
AcDbEntity
8
80
62
256
6
ByLayer
370
18
48
1
60
0
100
AcDbLine
10
0
20
0
30
0
11
-3
21
0
31
0
39
0
210
0
220
0
230
1
0
LINE
5
80
100
AcDbEntity
8
81
62
256
6
ByLayer
370
18
48
1
60
0
100
AcDbLine
10
64
20
0
30
0
11
67
21
0
31
0
39
0
210
0
220
0
230
1
0
LINE
5
81
100
AcDbEntity
8
4
62
256
6
ByLayer
370
18
48
0.05
60
0
100
AcDbLine
10
0
20
0
30
0
11
67
21
0
31
0
39
0
210
0
220
0
230
1
0
LINE
5
83
100
AcDbEntity
8
SK4
62
256
6
ByLayer
370
18
48
0.05
60
0
100
AcDbLine
10
-39
20
0
30
0
11
67
21
0
31
0
39
0
210
0
220
0
230
1
0
LINE
5
85
100
AcDbEntity
8
81
62
256
6
ByLayer
370
18
48
1
60
0
100
AcDbLine
10
-42.465842
20
0
30
0
11
-42.278764
21
0
31
0
39
0
210
0
220
0
230
1
0
LINE
5
86
100
AcDbEntity
8
81
62
256
6
ByLayer
370
13
48
1
60
0
100
AcDbLine
10
-36
20
-3.276822
30
0
11
-36
21
-3.188248
31
0
39
0
210
0
220
0
230
1
0
LINE
5
87
100
AcDbEntity
8
81
62
256
6
ByLayer
370
18
48
1
60
0
100
AcDbLine
10
-42.465842
20
0
30
0
11
-42.765842
21
0
31
0
39
0
210
0
220
0
230
1
0
LINE
5
88
100
AcDbEntity
8
81
62
256
6
ByLayer
370
18
48
1
60
0
100
AcDbLine
10
-39.984
20
0
30
0
11
-42.278
21
0
31
0
39
0
210
0
220
0
230
1
0
LINE
5
89
100
AcDbEntity
8
81
62
256
6
ByLayer
370
18
48
1
60
0
100
AcDbLine
10
57.518158
20
0
30
0
11
57.705236
21
0
31
0
39
0
210
0
220
0
230
1
0
LINE
5
8A
100
AcDbEntity
8
81
62
256
6
ByLayer
370
18
48
1
60
0
100
AcDbLine
10
-36
20
-3.984
30
0
11
-36
21
-6.278
31
0
39
0
210
0
220
0
230
1
0
LINE
5
8B
100
AcDbEntity
8
81
62
256
6
ByLayer
370
18
48
1
60
0
100
AcDbLine
10
-36
20
0
30
0
11
-36
21
3.984
31
0
39
0
210
0
220
0
230
1
0
LINE
5
8C
100
AcDbEntity
8
81
62
256
6
ByLayer
370
18
48
1
60
0
100
AcDbLine
10
-36
20
3.256627
30
0
11
-36
21
3.257272
31
0
39
0
210
0
220
0
230
1
0
LINE
5
8D
100
AcDbEntity
8
81
62
256
6
ByLayer
370
18
48
1
60
0
100
AcDbLine
10
-36
20
-7.81959
30
0
11
-36
21
-6.765842
31
0
39
0
210
0
220
0
230
1
0
LINE
5
8E
100
AcDbEntity
8
81
62
256
6
ByLayer
370
13
48
1
60
0
100
AcDbLine
10
-36
20
-3.984
30
0
11
-36
21
-3.257272
31
0
39
0
210
0
220
0
230
1
0
LINE
5
8F
100
AcDbEntity
8
81
62
256
6
ByLayer
370
18
48
1
60
0
100
AcDbLine
10
-36
20
0
30
0
11
-39.984
21
0
31
0
39
0
210
0
220
0
230
1
0
LINE
5
90
100
AcDbEntity
8
81
62
256
6
ByLayer
370
18
48
1
60
0
100
AcDbLine
10
-36
20
3.984
30
0
11
-36
21
3.257272
31
0
39
0
210
0
220
0
230
1
0
LINE
5
91
100
AcDbEntity
8
81
62
256
6
ByLayer
370
18
48
1
60
0
100
AcDbLine
10
-36
20
-6.465842
30
0
11
-36
21
-6.765842
31
0
39
0
210
0
220
0
230
1
0
LINE
5
92
100
AcDbEntity
8
81
62
256
6
ByLayer
370
18
48
1
60
0
100
AcDbLine
10
-42.465842
20
0
30
0
11
-42.278764
21
0
31
0
39
0
210
0
220
0
230
1
0
LINE
5
93
100
AcDbEntity
8
81
62
256
6
ByLayer
370
18
48
1
60
0
100
AcDbLine
10
-43.81959
20
0
30
0
11
-42.765842
21
0
31
0
39
0
210
0
220
0
230
1
0
LINE
5
94
100
AcDbEntity
8
81
62
256
6
ByLayer
370
18
48
1
60
0
100
AcDbLine
10
-42.278764
20
0
30
0
11
-42.278
21
0
31
0
39
0
210
0
220
0
230
1
0
LINE
5
95
100
AcDbEntity
8
81
62
256
6
ByLayer
370
18
48
1
60
0
100
AcDbLine
10
-36
20
3.276822
30
0
11
-36
21
3.188248
31
0
39
0
210
0
220
0
230
1
0
LINE
5
96
100
AcDbEntity
8
81
62
256
6
ByLayer
370
18
48
1
60
0
100
AcDbLine
10
-36
20
-6.278764
30
0
11
-36
21
-6.278
31
0
39
0
210
0
220
0
230
1
0
LINE
5
97
100
AcDbEntity
8
81
62
256
6
ByLayer
370
18
48
1
60
0
100
AcDbLine
10
-36
20
0
30
0
11
-39.984
21
0
31
0
39
0
210
0
220
0
230
1
0
LINE
5
98
100
AcDbEntity
8
81
62
256
6
ByLayer
370
18
48
1
60
0
100
AcDbLine
10
-36
20
0
30
0
11
-36
21
-3.984
31
0
39
0
210
0
220
0
230
1
0
LINE
5
99
100
AcDbEntity
8
81
62
256
6
ByLayer
370
18
48
1
60
0
100
AcDbLine
10
-36
20
3.188248
30
0
11
-36
21
3.256627
31
0
39
0
210
0
220
0
230
1
0
LINE
5
9A
100
AcDbEntity
8
81
62
256
6
ByLayer
370
13
48
1
60
0
100
AcDbLine
10
-36
20
-3.256627
30
0
11
-36
21
-3.257272
31
0
39
0
210
0
220
0
230
1
0
LINE
5
9B
100
AcDbEntity
8
81
62
256
6
ByLayer
370
18
48
1
60
0
100
AcDbLine
10
-39.984
20
0
30
0
11
-42.278
21
0
31
0
39
0
210
0
220
0
230
1
0
LINE
5
9C
100
AcDbEntity
8
81
62
256
6
ByLayer
370
18
48
1
60
0
100
AcDbLine
10
60
20
0
30
0
11
57.706
21
0
31
0
39
0
210
0
220
0
230
1
0
LINE
5
9D
100
AcDbEntity
8
81
62
256
6
ByLayer
370
13
48
1
60
0
100
AcDbLine
10
-36
20
0
30
0
11
-36
21
-3.984
31
0
39
0
210
0
220
0
230
1
0
LINE
5
9E
100
AcDbEntity
8
81
62
256
6
ByLayer
370
13
48
1
60
0
100
AcDbLine
10
-36
20
-3.188248
30
0
11
-36
21
-3.256627
31
0
39
0
210
0
220
0
230
1
0
LINE
5
9F
100
AcDbEntity
8
81
62
256
6
ByLayer
370
18
48
1
60
0
100
AcDbLine
10
-43.81959
20
0
30
0
11
-42.765842
21
0
31
0
39
0
210
0
220
0
230
1
0
LINE
5
A0
100
AcDbEntity
8
81
62
256
6
ByLayer
370
18
48
1
60
0
100
AcDbLine
10
57.518158
20
0
30
0
11
57.218158
21
0
31
0
39
0
210
0
220
0
230
1
0
LINE
5
A1
100
AcDbEntity
8
81
62
256
6
ByLayer
370
18
48
1
60
0
100
AcDbLine
10
63.984
20
0
30
0
11
60
21
0
31
0
39
0
210
0
220
0
230
1
0
LINE
5
A2
100
AcDbEntity
8
81
62
256
6
ByLayer
370
18
48
1
60
0
100
AcDbLine
10
-42.278764
20
0
30
0
11
-42.278
21
0
31
0
39
0
210
0
220
0
230
1
0
LINE
5
A3
100
AcDbEntity
8
81
62
256
6
ByLayer
370
18
48
1
60
0
100
AcDbLine
10
-36
20
-6.465842
30
0
11
-36
21
-6.278764
31
0
39
0
210
0
220
0
230
1
0
LINE
5
A4
100
AcDbEntity
8
81
62
256
6
ByLayer
370
18
48
1
60
0
100
AcDbLine
10
-42.465842
20
0
30
0
11
-42.765842
21
0
31
0
39
0
210
0
220
0
230
1
0
LINE
5
A5
100
AcDbEntity
8
81
62
256
6
ByLayer
370
18
48
1
60
0
100
AcDbLine
10
57.705236
20
0
30
0
11
57.706
21
0
31
0
39
0
210
0
220
0
230
1
0
LINE
5
A6
100
AcDbEntity
8
81
62
256
6
ByLayer
370
18
48
1
60
0
100
AcDbLine
10
56.16441
20
0
30
0
11
57.218158
21
0
31
0
39
0
210
0
220
0
230
1
0
LINE
5
A7
100
AcDbEntity
8
1
62
256
6
ByLayer
370
18
48
1
60
0
100
AcDbLine
10
0
20
-4
30
0
11
0
21
4
31
0
39
0
210
0
220
0
230
1
0
LINE
5
A8
100
AcDbEntity
8
1
62
256
6
ByLayer
370
18
48
1
60
0
100
AcDbLine
10
63.983527
20
0.06139
30
0
11
63.987806
21
0.06151
31
0
39
0
210
0
220
0
230
1
0
LINE
5
A9
100
AcDbEntity
8
1
62
256
6
ByLayer
370
18
48
1
60
0
100
AcDbLine
10
63.999394
20
0.06
30
0
11
63.98753
21
0.06
31
0
39
0
210
0
220
0
230
1
0
LINE
5
AA
100
AcDbEntity
8
1
62
256
6
ByLayer
370
18
48
1
60
0
100
AcDbLine
10
63.850109
20
0.954635
30
0
11
63.737018
21
0.79024
31
0
39
0
210
0
220
0
230
1
0
LINE
5
AB
100
AcDbEntity
8
1
62
256
6
ByLayer
370
18
48
1
60
0
100
AcDbLine
10
63.671243
20
0.950177
30
0
11
63.84102
21
0.987005
31
0
39
0
210
0
220
0
230
1
0
LINE
5
AC
100
AcDbEntity
8
1
62
256
6
ByLayer
370
18
48
1
60
0
100
AcDbLine
10
63.976113
20
-0.06163
30
0
11
63.974687
21
-0.069105
31
0
39
0
210
0
220
0
230
1
0
LINE
5
AD
100
AcDbEntity
8
1
62
256
6
ByLayer
370
18
48
1
60
0
100
AcDbLine
10
63.981803
20
-0.058817
30
0
11
63.998737
21
-0.058706
31
0
39
0
210
0
220
0
230
1
0
LINE
5
AE
100
AcDbEntity
8
1
62
256
6
ByLayer
370
18
48
1
60
0
100
AcDbLine
10
55.083794
20
-3.234259
30
0
11
57.575668
21
-2.985709
31
0
39
0
210
0
220
0
230
1
0
LINE
5
AF
100
AcDbEntity
8
1
62
256
6
ByLayer
370
18
48
1
60
0
100
AcDbLine
10
57.708284
20
-3.0719
30
0
11
57.498758
21
-2.91216
31
0
39
0
210
0
220
0
230
1
0
LINE
5
B0
100
AcDbEntity
8
1
62
256
6
ByLayer
370
18
48
1
60
0
100
AcDbLine
10
57.490118
20
-2.930044
30
0
11
57.498758
21
-2.91216
31
0
39
0
210
0
220
0
230
1
0
LINE
5
B1
100
AcDbEntity
8
1
62
256
6
ByLayer
370
18
48
1
60
0
100
AcDbLine
10
63.458229
20
-1.570073
30
0
11
63.494299
21
-1.570189
31
0
39
0
210
0
220
0
230
1
0
LINE
5
B2
100
AcDbEntity
8
1
62
256
6
ByLayer
370
18
48
1
60
0
100
AcDbLine
10
63.765414
20
-1.037749
30
0
11
63.663414
21
-0.848284
31
0
39
0
210
0
220
0
230
1
0
LINE
5
B3
100
AcDbEntity
8
1
62
256
6
ByLayer
370
18
48
1
60
0
100
AcDbLine
10
63.67027
20
-0.766065
30
0
11
63.802246
21
-0.948222
31
0
39
0
210
0
220
0
230
1
0
LINE
5
B4
100
AcDbEntity
8
1
62
256
6
ByLayer
370
18
48
1
60
0
100
AcDbLine
10
63.603892
20
-0.516924
30
0
11
63.691501
21
-0.582053
31
0
39
0
210
0
220
0
230
1
0
LINE
5
B5
100
AcDbEntity
8
1
62
256
6
ByLayer
370
18
48
1
60
0
100
AcDbLine
10
54.384242
20
-2.930892
30
0
11
54.628287
21
-2.90655
31
0
39
0
210
0
220
0
230
1
0
LINE
5
B6
100
AcDbEntity
8
1
62
256
6
ByLayer
370
18
48
1
60
0
100
AcDbLine
10
57.498758
20
-2.91216
30
0
11
57.57877
21
-2.779097
31
0
39
0
210
0
220
0
230
1
0
LINE
5
B7
100
AcDbEntity
8
1
62
256
6
ByLayer
370
18
48
1
60
0
100
AcDbLine
10
57.57877
20
2.612415
30
0
11
57.842197
21
2.982479
31
0
39
0
210
0
220
0
230
1
0
LINE
5
B8
100
AcDbEntity
8
1
62
256
6
ByLayer
370
18
48
1
60
0
100
AcDbLine
10
57.788296
20
-2.938837
30
0
11
57.57877
21
-2.779097
31
0
39
0
210
0
220
0
230
1
0
LINE
5
B9
100
AcDbEntity
8
1
62
256
6
ByLayer
370
18
48
1
60
0
100
AcDbLine
10
57.788296
20
2.705791
30
0
11
57.57877
21
2.612415
31
0
39
0
210
0
220
0
230
1
0
LINE
5
BA
100
AcDbEntity
8
1
62
256
6
ByLayer
370
18
48
1
60
0
100
AcDbLine
10
57.498758
20
2.42957
30
0
11
57.57877
21
2.612415
31
0
39
0
210
0
220
0
230
1
0
LINE
5
BB
100
AcDbEntity
8
1
62
256
6
ByLayer
370
18
48
1
60
0
100
AcDbLine
10
57.708284
20
2.522946
30
0
11
57.498758
21
2.42957
31
0
39
0
210
0
220
0
230
1
0
LINE
5
BC
100
AcDbEntity
8
1
62
256
6
ByLayer
370
18
48
1
60
0
100
AcDbLine
10
57.490118
20
2.380404
30
0
11
57.498758
21
2.42957
31
0
39
0
210
0
220
0
230
1
0
LINE
5
BD
100
AcDbEntity
8
1
62
256
6
ByLayer
370
18
48
1
60
0
100
AcDbLine
10
57.57877
20
-2.779097
30
0
11
57.842197
21
-2.368719
31
0
39
0
210
0
220
0
230
1
0
LINE
5
BE
100
AcDbEntity
8
1
62
256
6
ByLayer
370
18
48
1
60
0
100
AcDbLine
10
57.706
20
1.228957
30
0
11
57.706
21
1.340914
31
0
39
0
210
0
220
0
230
1
0
LINE
5
BF
100
AcDbEntity
8
1
62
256
6
ByLayer
370
18
48
1
60
0
100
AcDbLine
10
63.295481
20
1.082586
30
0
11
63.494299
21
0.910547
31
0
39
0
210
0
220
0
230
1
0
LINE
5
C0
100
AcDbEntity
8
1
62
256
6
ByLayer
370
18
48
1
60
0
100
AcDbLine
10
63.295481
20
1.082586
30
0
11
63.27984
21
1.111752
31
0
39
0
210
0
220
0
230
1
0
LINE
5
C1
100
AcDbEntity
8
1
62
256
6
ByLayer
370
18
48
1
60
0
100
AcDbLine
10
62.07435
20
2.060144
30
0
11
61.650668
21
2.369576
31
0
39
0
210
0
220
0
230
1
0
LINE
5
C2
100
AcDbEntity
8
1
62
256
6
ByLayer
370
18
48
1
60
0
100
AcDbLine
10
55.083794
20
2.071293
30
0
11
57.706
21
0.971661
31
0
39
0
210
0
220
0
230
1
0
LINE
5
C3
100
AcDbEntity
8
1
62
256
6
ByLayer
370
18
48
1
60
0
100
AcDbLine
10
57.706
20
-2.29428
30
0
11
57.706
21
-2.371191
31
0
39
0
210
0
220
0
230
1
0
LINE
5
C4
100
AcDbEntity
8
1
62
256
6
ByLayer
370
18
48
1
60
0
100
AcDbLine
10
57.706
20
0.971661
30
0
11
57.706
21
1.228957
31
0
39
0
210
0
220
0
230
1
0
LINE
5
C5
100
AcDbEntity
8
1
62
256
6
ByLayer
370
18
48
1
60
0
100
AcDbLine
10
57.706
20
0.880159
30
0
11
57.706
21
0.971661
31
0
39
0
210
0
220
0
230
1
0
LINE
5
C6
100
AcDbEntity
8
1
62
256
6
ByLayer
370
18
48
1
60
0
100
AcDbLine
10
57.706
20
-2.121188
30
0
11
57.706
21
-2.016963
31
0
39
0
210
0
220
0
230
1
0
LINE
5
C7
100
AcDbEntity
8
1
62
256
6
ByLayer
370
18
48
1
60
0
100
AcDbLine
10
57.706
20
-2.29428
30
0
11
57.706
21
-2.121188
31
0
39
0
210
0
220
0
230
1
0
LINE
5
C8
100
AcDbEntity
8
1
62
256
6
ByLayer
370
18
48
1
60
0
100
AcDbLine
10
57.706
20
0.742467
30
0
11
57.706
21
0.880159
31
0
39
0
210
0
220
0
230
1
0
LINE
5
C9
100
AcDbEntity
8
1
62
256
6
ByLayer
370
18
48
1
60
0
100
AcDbLine
10
63.289735
20
-0.43715
30
0
11
63.459236
21
-0.702037
31
0
39
0
210
0
220
0
230
1
0
LINE
5
CA
100
AcDbEntity
8
1
62
256
6
ByLayer
370
18
48
1
60
0
100
AcDbLine
10
61.909625
20
0.208216
30
0
11
61.618808
21
0.251344
31
0
39
0
210
0
220
0
230
1
0
LINE
5
CB
100
AcDbEntity
8
1
62
256
6
ByLayer
370
18
48
1
60
0
100
AcDbLine
10
57.708284
20
-0.492496
30
0
11
57.498758
21
-0.428693
31
0
39
0
210
0
220
0
230
1
0
LINE
5
CC
100
AcDbEntity
8
1
62
256
6
ByLayer
370
18
48
1
60
0
100
AcDbLine
10
57.788296
20
-0.176134
30
0
11
57.57877
21
-0.112331
31
0
39
0
210
0
220
0
230
1
0
LINE
5
CD
100
AcDbEntity
8
1
62
256
6
ByLayer
370
18
48
1
60
0
100
AcDbLine
10
57.706
20
-1.361531
30
0
11
57.706
21
-1.218755
31
0
39
0
210
0
220
0
230
1
0
LINE
5
CE
100
AcDbEntity
8
1
62
256
6
ByLayer
370
18
48
1
60
0
100
AcDbLine
10
57.489661
20
-0.499609
30
0
11
57.498758
21
-0.428693
31
0
39
0
210
0
220
0
230
1
0
LINE
5
CF
100
AcDbEntity
8
1
62
256
6
ByLayer
370
18
48
1
60
0
100
AcDbLine
10
57.498758
20
-0.428693
30
0
11
57.57877
21
-0.112331
31
0
39
0
210
0
220
0
230
1
0
LINE
5
D0
100
AcDbEntity
8
1
62
256
6
ByLayer
370
18
48
1
60
0
100
AcDbLine
10
55.106218
20
-1.199772
30
0
11
57.706
21
-2.016963
31
0
39
0
210
0
220
0
230
1
0
LINE
5
D1
100
AcDbEntity
8
1
62
256
6
ByLayer
370
18
48
1
60
0
100
AcDbLine
10
57.706
20
-2.016963
30
0
11
57.706
21
-1.361531
31
0
39
0
210
0
220
0
230
1
0
LINE
5
D2
100
AcDbEntity
8
1
62
256
6
ByLayer
370
18
48
1
60
0
100
AcDbLine
10
57.57877
20
-0.112331
30
0
11
57.842197
21
0.667587
31
0
39
0
210
0
220
0
230
1
0
LINE
5
D3
100
AcDbEntity
8
1
62
256
6
ByLayer
370
18
48
1
60
0
100
AcDbLine
10
57.706
20
1.340914
30
0
11
57.706
21
2.521288
31
0
39
0
210
0
220
0
230
1
0
LINE
5
D4
100
AcDbEntity
8
1
62
256
6
ByLayer
370
18
48
1
60
0
100
AcDbLine
10
57.706
20
-1.218755
30
0
11
57.706
21
-0.492789
31
0
39
0
210
0
220
0
230
1
0
LINE
5
D5
100
AcDbEntity
8
1
62
256
6
ByLayer
370
18
48
1
60
0
100
AcDbLine
10
57.706
20
0.742467
30
0
11
57.706
21
0.708639
31
0
39
0
210
0
220
0
230
1
0
LINE
5
D6
100
AcDbEntity
8
1
62
256
6
ByLayer
370
18
48
1
60
0
100
AcDbLine
10
63.976113
20
-0.06163
30
0
11
63.987995
21
-0.061958
31
0
39
0
210
0
220
0
230
1
0
LINE
5
D7
100
AcDbEntity
8
1
62
256
6
ByLayer
370
18
48
1
60
0
100
AcDbLine
10
63.999343
20
-0.059386
30
0
11
63.98753
21
-0.059386
31
0
39
0
210
0
220
0
230
1
0
LINE
5
D8
100
AcDbEntity
8
1
62
256
6
ByLayer
370
18
48
1
60
0
100
AcDbLine
10
63.987461
20
0.000399
30
0
11
63.988111
21
-8.2E-05
31
0
39
0
210
0
220
0
230
1
0
LINE
5
D9
100
AcDbEntity
8
1
62
256
6
ByLayer
370
18
48
1
60
0
100
AcDbLine
10
15.981335
20
-4
30
0
11
15.981335
21
4
31
0
39
0
210
0
220
0
230
1
0
LINE
5
DA
100
AcDbEntity
8
81
62
256
6
ByLayer
370
18
48
1
60
0
100
AcDbLine
10
56.16441
20
3.276822
30
0
11
56.16441
21
3.248662
31
0
39
0
210
0
220
0
230
1
0
LINE
5
DB
100
AcDbEntity
8
81
62
256
6
ByLayer
370
18
48
1
60
0
100
AcDbLine
10
56.16441
20
-3.126396
30
0
11
56.16441
21
-3.276822
31
0
39
0
210
0
220
0
230
1
0
LINE
5
DC
100
AcDbEntity
8
81
62
256
6
ByLayer
370
18
48
1
60
0
100
AcDbLine
10
57.518158
20
-3.188248
30
0
11
57.218158
21
-3.188248
31
0
39
0
210
0
220
0
230
1
0
LINE
5
DD
100
AcDbEntity
8
81
62
256
6
ByLayer
370
18
48
1
60
0
100
AcDbLine
10
57.218158
20
3.188248
30
0
11
57.518158
21
3.188248
31
0
39
0
210
0
220
0
230
1
0
LINE
5
DE
100
AcDbEntity
8
81
62
256
6
ByLayer
370
18
48
1
60
0
100
AcDbLine
10
57.705236
20
-3.256627
30
0
11
57.706
21
-3.257272
31
0
39
0
210
0
220
0
230
1
0
LINE
5
DF
100
AcDbEntity
8
81
62
256
6
ByLayer
370
18
48
1
60
0
100
AcDbLine
10
57.706
20
3.257272
30
0
11
57.705236
21
3.256627
31
0
39
0
210
0
220
0
230
1
0
LINE
5
E0
100
AcDbEntity
8
SK1
62
256
6
ByLayer
370
18
48
1
60
0
100
AcDbLine
10
0
20
-4
30
0
11
0
21
4
31
0
39
0
210
0
220
0
230
1
0
LINE
5
E2
100
AcDbEntity
8
SK1
62
256
6
ByLayer
370
18
48
1
60
0
100
AcDbLine
10
-35.4
20
4
30
0
11
-35.4
21
-4
31
0
39
0
210
0
220
0
230
1
0
LINE
5
E3
100
AcDbEntity
8
SK1
62
256
6
ByLayer
370
18
48
1
60
0
100
AcDbLine
10
-36
20
3.4
30
0
11
-36
21
-3.4
31
0
39
0
210
0
220
0
230
1
0
LINE
5
E4
100
AcDbEntity
8
1
62
256
6
ByLayer
370
18
48
1
60
0
100
AcDbLine
10
15.981335
20
4
30
0
11
0
21
4
31
0
39
0
210
0
220
0
230
1
0
LINE
5
E5
100
AcDbEntity
8
1
62
256
6
ByLayer
370
18
48
1
60
0
100
AcDbLine
10
0
20
-4
30
0
11
15.981335
21
-4
31
0
39
0
210
0
220
0
230
1
0
LINE
5
E6
100
AcDbEntity
8
1
62
256
6
ByLayer
370
18
48
1
60
0
100
AcDbLine
10
55.370499
20
3.2765
30
0
11
35.999417
21
3.2765
31
0
39
0
210
0
220
0
230
1
0
LINE
5
E7
100
AcDbEntity
8
1
62
256
6
ByLayer
370
18
48
1
60
0
100
AcDbLine
10
35.999417
20
-3.2765
30
0
11
55.468687
21
-3.2765
31
0
39
0
210
0
220
0
230
1
0
LINE
5
E8
100
AcDbEntity
8
1
62
256
6
ByLayer
370
18
48
1
60
0
100
AcDbLine
10
35.963266
20
3.277154
30
0
11
15.981335
21
4
31
0
39
0
210
0
220
0
230
1
0
LINE
5
E9
100
AcDbEntity
8
1
62
256
6
ByLayer
370
18
48
1
60
0
100
AcDbLine
10
15.981335
20
-4
30
0
11
35.963266
21
-3.277154
31
0
39
0
210
0
220
0
230
1
0
LINE
5
EA
100
AcDbEntity
8
SK1
62
256
6
ByLayer
370
18
48
1
60
0
100
AcDbLine
10
0
20
4
30
0
11
-35.4
21
4
31
0
39
0
210
0
220
0
230
1
0
LINE
5
EB
100
AcDbEntity
8
SK1
62
256
6
ByLayer
370
18
48
1
60
0
100
AcDbLine
10
-35.4
20
-4
30
0
11
0
21
-4
31
0
39
0
210
0
220
0
230
1
0
LINE
5
EC
100
AcDbEntity
8
SK1
62
256
6
ByLayer
370
18
48
1
60
0
100
AcDbLine
10
-36
20
-3.4
30
0
11
-35.4
21
-4
31
0
39
0
210
0
220
0
230
1
0
LINE
5
ED
100
AcDbEntity
8
SK1
62
256
6
ByLayer
370
18
48
1
60
0
100
AcDbLine
10
-35.4
20
4
30
0
11
-36
21
3.4
31
0
39
0
210
0
220
0
230
1
0
LINE
5
EE
100
AcDbEntity
8
SK2
62
256
6
ByLayer
370
13
48
1
60
0
100
AcDbLine
10
-42.5
20
-4
30
0
11
-42.5
21
22.133313
31
0
39
0
210
0
220
0
230
1
0
LINE
5
F0
100
AcDbEntity
8
SK2
62
256
6
ByLayer
370
13
48
1
60
0
100
AcDbLine
10
-37.5875
20
-4
30
0
11
-44.5
21
-4
31
0
39
0
210
0
220
0
230
1
0
LINE
5
F1
100
AcDbEntity
8
SK2
62
256
6
ByLayer
370
13
48
1
60
0
100
AcDbLine
10
-37.5875
20
4
30
0
11
-44.5
21
4
31
0
39
0
210
0
220
0
230
1
0
LINE
5
F2
100
AcDbEntity
8
1
62
256
6
ByLayer
370
18
48
1
60
1
100
AcDbLine
10
-42.5
20
-4
30
0
11
-42.960784
21
-0.500002
31
0
39
0
210
0
220
0
230
1
0
LINE
5
F3
100
AcDbEntity
8
1
62
256
6
ByLayer
370
18
48
1
60
1
100
AcDbLine
10
-42.960784
20
-0.500002
30
0
11
-42.039216
21
-0.499998
31
0
39
0
210
0
220
0
230
1
0
LINE
5
F4
100
AcDbEntity
8
1
62
256
6
ByLayer
370
18
48
1
60
1
100
AcDbLine
10
-42.039216
20
-0.499998
30
0
11
-42.5
21
-4
31
0
39
0
210
0
220
0
230
1
0
LINE
5
F5
100
AcDbEntity
8
1
62
256
6
ByLayer
370
18
48
1
60
1
100
AcDbLine
10
-42.5
20
4
30
0
11
-42.039216
21
0.500002
31
0
39
0
210
0
220
0
230
1
0
LINE
5
F6
100
AcDbEntity
8
1
62
256
6
ByLayer
370
18
48
1
60
1
100
AcDbLine
10
-42.039216
20
0.500002
30
0
11
-42.960784
21
0.499998
31
0
39
0
210
0
220
0
230
1
0
LINE
5
F7
100
AcDbEntity
8
1
62
256
6
ByLayer
370
18
48
1
60
1
100
AcDbLine
10
-42.960784
20
0.499998
30
0
11
-42.5
21
4
31
0
39
0
210
0
220
0
230
1
0
LINE
5
F8
100
AcDbEntity
8
SK2
62
256
6
ByLayer
370
13
48
1
60
0
100
AcDbLine
10
40.5
20
-33.276822
30
0
11
40.5
21
10.776822
31
0
39
0
210
0
220
0
230
1
0
LINE
5
F9
100
AcDbEntity
8
SK2
62
256
6
ByLayer
370
13
48
1
60
0
100
AcDbLine
10
37.5875
20
-3.276822
30
0
11
42.5
21
-3.276822
31
0
39
0
210
0
220
0
230
1
0
LINE
5
FA
100
AcDbEntity
8
SK2
62
256
6
ByLayer
370
13
48
1
60
0
100
AcDbLine
10
37.5875
20
3.276822
30
0
11
42.5
21
3.276822
31
0
39
0
210
0
220
0
230
1
0
LINE
5
FB
100
AcDbEntity
8
1
62
256
6
ByLayer
370
18
48
1
60
1
100
AcDbLine
10
40.5
20
-3.276822
30
0
11
40.960784
21
-6.776821
31
0
39
0
210
0
220
0
230
1
0
LINE
5
FC
100
AcDbEntity
8
1
62
256
6
ByLayer
370
18
48
1
60
1
100
AcDbLine
10
40.960784
20
-6.776821
30
0
11
40.039216
21
-6.776824
31
0
39
0
210
0
220
0
230
1
0
LINE
5
FD
100
AcDbEntity
8
1
62
256
6
ByLayer
370
18
48
1
60
1
100
AcDbLine
10
40.039216
20
-6.776824
30
0
11
40.5
21
-3.276822
31
0
39
0
210
0
220
0
230
1
0
LINE
5
FE
100
AcDbEntity
8
1
62
256
6
ByLayer
370
18
48
1
60
1
100
AcDbLine
10
40.5
20
3.276822
30
0
11
40.039216
21
6.776821
31
0
39
0
210
0
220
0
230
1
0
LINE
5
FF
100
AcDbEntity
8
1
62
256
6
ByLayer
370
18
48
1
60
1
100
AcDbLine
10
40.039216
20
6.776821
30
0
11
40.960784
21
6.776824
31
0
39
0
210
0
220
0
230
1
0
LINE
5
100
100
AcDbEntity
8
1
62
256
6
ByLayer
370
18
48
1
60
1
100
AcDbLine
10
40.960784
20
6.776824
30
0
11
40.5
21
3.276822
31
0
39
0
210
0
220
0
230
1
0
LINE
5
101
100
AcDbEntity
8
2
62
256
6
ByLayer
370
13
48
1
60
0
100
AcDbLine
10
76.5
20
-4
30
0
11
76.5
21
20.272684
31
0
39
0
210
0
220
0
230
1
0
LINE
5
103
100
AcDbEntity
8
2
62
256
6
ByLayer
370
13
48
1
60
0
100
AcDbLine
10
61.5875
20
-4
30
0
11
78.5
21
-4
31
0
39
0
210
0
220
0
230
1
0
LINE
5
104
100
AcDbEntity
8
2
62
256
6
ByLayer
370
13
48
1
60
0
100
AcDbLine
10
61.5875
20
4
30
0
11
78.5
21
4
31
0
39
0
210
0
220
0
230
1
0
LINE
5
105
100
AcDbEntity
8
1
62
256
6
ByLayer
370
18
48
1
60
1
100
AcDbLine
10
76.5
20
-4
30
0
11
76.039216
21
-0.500002
31
0
39
0
210
0
220
0
230
1
0
LINE
5
106
100
AcDbEntity
8
1
62
256
6
ByLayer
370
18
48
1
60
1
100
AcDbLine
10
76.039216
20
-0.500002
30
0
11
76.960784
21
-0.499998
31
0
39
0
210
0
220
0
230
1
0
LINE
5
107
100
AcDbEntity
8
1
62
256
6
ByLayer
370
18
48
1
60
1
100
AcDbLine
10
76.960784
20
-0.499998
30
0
11
76.5
21
-4
31
0
39
0
210
0
220
0
230
1
0
LINE
5
108
100
AcDbEntity
8
1
62
256
6
ByLayer
370
18
48
1
60
1
100
AcDbLine
10
76.5
20
4
30
0
11
76.960784
21
0.500002
31
0
39
0
210
0
220
0
230
1
0
LINE
5
109
100
AcDbEntity
8
1
62
256
6
ByLayer
370
18
48
1
60
1
100
AcDbLine
10
76.960784
20
0.500002
30
0
11
76.039216
21
0.499998
31
0
39
0
210
0
220
0
230
1
0
LINE
5
10A
100
AcDbEntity
8
1
62
256
6
ByLayer
370
18
48
1
60
1
100
AcDbLine
10
76.039216
20
0.499998
30
0
11
76.5
21
4
31
0
39
0
210
0
220
0
230
1
0
LINE
5
10B
100
AcDbEntity
8
SK2
62
256
6
ByLayer
370
13
48
1
60
0
100
AcDbLine
10
14.39487
20
4.057311
30
0
11
1.171582
21
4.535005
31
0
39
0
210
0
220
0
230
1
0
LINE
5
10C
100
AcDbEntity
8
SK2
62
256
6
ByLayer
370
13
48
1
60
0
100
AcDbLine
10
-34.4125
20
0
30
0
11
5.089695
21
0
31
0
39
0
210
0
220
0
230
1
0
LINE
5
10D
100
AcDbEntity
8
1
62
256
6
ByLayer
370
18
48
1
60
1
100
AcDbLine
10
3.170278
20
4.462802
30
0
11
2.861033
21
7.97943
31
0
39
0
210
0
220
0
230
1
0
LINE
5
10E
100
AcDbEntity
8
1
62
256
6
ByLayer
370
18
48
1
60
1
100
AcDbLine
10
2.861033
20
7.97943
30
0
11
3.781741
21
7.939646
31
0
39
0
210
0
220
0
230
1
0
LINE
5
10F
100
AcDbEntity
8
1
62
256
6
ByLayer
370
18
48
1
60
1
100
AcDbLine
10
3.781741
20
7.939646
30
0
11
3.170278
21
4.462802
31
0
39
0
210
0
220
0
230
1
0
LINE
5
110
100
AcDbEntity
8
1
62
256
6
ByLayer
370
18
48
1
60
1
100
AcDbLine
10
3.089695
20
0
30
0
11
3.575239
21
-3.496649
31
0
39
0
210
0
220
0
230
1
0
LINE
5
111
100
AcDbEntity
8
1
62
256
6
ByLayer
370
18
48
1
60
1
100
AcDbLine
10
3.575239
20
-3.496649
30
0
11
2.653695
21
-3.503175
31
0
39
0
210
0
220
0
230
1
0
LINE
5
112
100
AcDbEntity
8
1
62
256
6
ByLayer
370
18
48
1
60
1
100
AcDbLine
10
2.653695
20
-3.503175
30
0
11
3.089695
21
0
31
0
39
0
210
0
220
0
230
1
0
LINE
5
1E7
100
AcDbEntity
8
1
62
256
6
ByLayer
370
18
48
1
60
1
100
AcDbLine
10
-42.5
20
-4
30
0
11
-42.960784
21
-0.500002
31
0
39
0
210
0
220
0
230
1
0
LINE
5
1E8
100
AcDbEntity
8
1
62
256
6
ByLayer
370
18
48
1
60
1
100
AcDbLine
10
-42.960784
20
-0.500002
30
0
11
-42.039216
21
-0.499998
31
0
39
0
210
0
220
0
230
1
0
LINE
5
1E9
100
AcDbEntity
8
1
62
256
6
ByLayer
370
18
48
1
60
1
100
AcDbLine
10
-42.039216
20
-0.499998
30
0
11
-42.5
21
-4
31
0
39
0
210
0
220
0
230
1
0
LINE
5
1EB
100
AcDbEntity
8
1
62
256
6
ByLayer
370
18
48
1
60
1
100
AcDbLine
10
-42.5
20
4
30
0
11
-42.039216
21
0.500002
31
0
39
0
210
0
220
0
230
1
0
LINE
5
1EC
100
AcDbEntity
8
1
62
256
6
ByLayer
370
18
48
1
60
1
100
AcDbLine
10
-42.039216
20
0.500002
30
0
11
-42.960784
21
0.499998
31
0
39
0
210
0
220
0
230
1
0
LINE
5
1ED
100
AcDbEntity
8
1
62
256
6
ByLayer
370
18
48
1
60
1
100
AcDbLine
10
-42.960784
20
0.499998
30
0
11
-42.5
21
4
31
0
39
0
210
0
220
0
230
1
0
LINE
5
1F1
100
AcDbEntity
8
1
62
256
6
ByLayer
370
18
48
1
60
1
100
AcDbLine
10
40.5
20
-3.276822
30
0
11
40.960784
21
-6.776821
31
0
39
0
210
0
220
0
230
1
0
LINE
5
1F2
100
AcDbEntity
8
1
62
256
6
ByLayer
370
18
48
1
60
1
100
AcDbLine
10
40.960784
20
-6.776821
30
0
11
40.039216
21
-6.776824
31
0
39
0
210
0
220
0
230
1
0
LINE
5
1F3
100
AcDbEntity
8
1
62
256
6
ByLayer
370
18
48
1
60
1
100
AcDbLine
10
40.039216
20
-6.776824
30
0
11
40.5
21
-3.276822
31
0
39
0
210
0
220
0
230
1
0
LINE
5
1F5
100
AcDbEntity
8
1
62
256
6
ByLayer
370
18
48
1
60
1
100
AcDbLine
10
40.5
20
3.276822
30
0
11
40.039216
21
6.776821
31
0
39
0
210
0
220
0
230
1
0
LINE
5
1F6
100
AcDbEntity
8
1
62
256
6
ByLayer
370
18
48
1
60
1
100
AcDbLine
10
40.039216
20
6.776821
30
0
11
40.960784
21
6.776824
31
0
39
0
210
0
220
0
230
1
0
LINE
5
1F7
100
AcDbEntity
8
1
62
256
6
ByLayer
370
18
48
1
60
1
100
AcDbLine
10
40.960784
20
6.776824
30
0
11
40.5
21
3.276822
31
0
39
0
210
0
220
0
230
1
0
LINE
5
1FB
100
AcDbEntity
8
1
62
256
6
ByLayer
370
18
48
1
60
1
100
AcDbLine
10
76.5
20
-4
30
0
11
76.039216
21
-0.500002
31
0
39
0
210
0
220
0
230
1
0
LINE
5
1FC
100
AcDbEntity
8
1
62
256
6
ByLayer
370
18
48
1
60
1
100
AcDbLine
10
76.039216
20
-0.500002
30
0
11
76.960784
21
-0.499998
31
0
39
0
210
0
220
0
230
1
0
LINE
5
1FD
100
AcDbEntity
8
1
62
256
6
ByLayer
370
18
48
1
60
1
100
AcDbLine
10
76.960784
20
-0.499998
30
0
11
76.5
21
-4
31
0
39
0
210
0
220
0
230
1
0
LINE
5
1FF
100
AcDbEntity
8
1
62
256
6
ByLayer
370
18
48
1
60
1
100
AcDbLine
10
76.5
20
4
30
0
11
76.960784
21
0.500002
31
0
39
0
210
0
220
0
230
1
0
LINE
5
200
100
AcDbEntity
8
1
62
256
6
ByLayer
370
18
48
1
60
1
100
AcDbLine
10
76.960784
20
0.500002
30
0
11
76.039216
21
0.499998
31
0
39
0
210
0
220
0
230
1
0
LINE
5
201
100
AcDbEntity
8
1
62
256
6
ByLayer
370
18
48
1
60
1
100
AcDbLine
10
76.039216
20
0.499998
30
0
11
76.5
21
4
31
0
39
0
210
0
220
0
230
1
0
LINE
5
204
100
AcDbEntity
8
1
62
256
6
ByLayer
370
18
48
1
60
1
100
AcDbLine
10
3.170278
20
4.462802
30
0
11
2.861033
21
7.97943
31
0
39
0
210
0
220
0
230
1
0
LINE
5
205
100
AcDbEntity
8
1
62
256
6
ByLayer
370
18
48
1
60
1
100
AcDbLine
10
2.861033
20
7.97943
30
0
11
3.781741
21
7.939646
31
0
39
0
210
0
220
0
230
1
0
LINE
5
206
100
AcDbEntity
8
1
62
256
6
ByLayer
370
18
48
1
60
1
100
AcDbLine
10
3.781741
20
7.939646
30
0
11
3.170278
21
4.462802
31
0
39
0
210
0
220
0
230
1
0
LINE
5
208
100
AcDbEntity
8
1
62
256
6
ByLayer
370
18
48
1
60
1
100
AcDbLine
10
3.089695
20
0
30
0
11
3.575239
21
-3.496649
31
0
39
0
210
0
220
0
230
1
0
LINE
5
209
100
AcDbEntity
8
1
62
256
6
ByLayer
370
18
48
1
60
1
100
AcDbLine
10
3.575239
20
-3.496649
30
0
11
2.653695
21
-3.503175
31
0
39
0
210
0
220
0
230
1
0
LINE
5
20A
100
AcDbEntity
8
1
62
256
6
ByLayer
370
18
48
1
60
1
100
AcDbLine
10
2.653695
20
-3.503175
30
0
11
3.089695
21
0
31
0
39
0
210
0
220
0
230
1
0
MTEXT
5
1E3
100
AcDbEntity
8
SK2
62
256
6
ByLayer
370
18
48
1
60
0
100
AcDbMText
10
-43.841114
20
8.658438
30
0
210
0
220
0
230
1
1
%%c
40
3
41
0
44
1.084337
50
90
71
7
72
5
7
iso_b_vert
0
MTEXT
5
1E6
100
AcDbEntity
8
SK2
62
256
6
ByLayer
370
18
48
1
60
0
100
AcDbMText
10
-43.841114
20
14.635
30
0
210
0
220
0
230
1
1
\W0.6903;8 h6
40
3
41
0
44
1.084337
50
90
71
7
72
5
7
iso_b_vert
0
MTEXT
5
1EF
100
AcDbEntity
8
SK2
62
256
6
ByLayer
370
18
48
1
60
0
100
AcDbMText
10
39.158886
20
-31.618385
30
0
210
0
220
0
230
1
1
%%c
40
3
41
0
44
1.084337
50
90
71
7
72
5
7
iso_b_vert
0
MTEXT
5
1F0
100
AcDbEntity
8
SK2
62
256
6
ByLayer
370
18
48
1
60
0
100
AcDbMText
10
39.158886
20
-25.641822
30
0
210
0
220
0
230
1
1
\W0.7346;6.55
40
3
41
0
44
1.084337
50
90
71
7
72
5
7
iso_b_vert
0
MTEXT
5
1F9
100
AcDbEntity
8
2
62
256
6
ByLayer
370
18
48
1
60
0
100
AcDbMText
10
75.158886
20
10.658437
30
0
210
0
220
0
230
1
1
%%c
40
3
41
0
44
1.084337
50
90
71
7
72
5
7
iso_b_vert
0
MTEXT
5
1FA
100
AcDbEntity
8
2
62
256
6
ByLayer
370
18
48
1
60
0
100
AcDbMText
10
75.158886
20
16.635
30
0
210
0
220
0
230
1
1
\W0.5966;(8)
40
3
41
0
44
1.084337
50
90
71
7
72
5
7
iso_b_vert
0
MTEXT
5
203
100
AcDbEntity
8
SK2
62
256
6
ByLayer
370
18
48
1
60
0
100
AcDbMText
10
3.037981
20
12.048875
30
0
210
0
220
0
230
1
1
\W0.7635;(2%%d)
40
3
41
0
44
1.084337
50
83.1963742431444
71
7
72
5
7
iso_b_vert
0
MTEXT
5
20C
100
AcDbEntity
8
SK6
62
256
6
ByLayer
370
18
48
1
60
0
100
AcDbMText
10
-15.512591
20
-43.947351
30
0
210
0
220
0
230
1
1
\W0.7820;2L446-0800-RA0800   R2AH
40
3
41
0
44
1.084337
50
0
71
7
72
5
7
iso_b_vert
0
HATCH
5
1EA
100
AcDbEntity
8
SK2
62
256
6
ByLayer
370
13
48
1
60
0
100
AcDbHatch
10
0
20
0
30
0
210
0
220
0
230
1
2
ANSI31
70
0
71
0
91
1
92
5
93
3
72
1
10
-42.5
20
-4
11
-42.9607837415528
21
-0.500001692553184
72
1
10
-42.9607837415528
20
-0.500001692553184
11
-42.0392162584472
21
-0.499998307446816
72
1
10
-42.0392162584472
20
-0.499998307446816
11
-42.5
21
-4
97
0
75
0
76
1
52
0
41
0.0062
77
0
78
1
53
45
43
0
44
0
45
-0.0139193969876572
46
0.0139193969876572
79
0
47
0
98
1
10
0
20
0
0
HATCH
5
1EE
100
AcDbEntity
8
SK2
62
256
6
ByLayer
370
13
48
1
60
0
100
AcDbHatch
10
0
20
0
30
0
210
0
220
0
230
1
2
ANSI31
70
0
71
0
91
1
92
5
93
3
72
1
10
-42.5
20
4.00000000000003
11
-42.0392162584472
21
0.500001692553212
72
1
10
-42.0392162584472
20
0.500001692553212
11
-42.9607837415528
21
0.499998307446845
72
1
10
-42.9607837415528
20
0.499998307446845
11
-42.5
21
4.00000000000003
97
0
75
0
76
1
52
0
41
0.0062
77
0
78
1
53
45
43
0
44
0
45
-0.0139193969876572
46
0.0139193969876572
79
0
47
0
98
1
10
0
20
0
0
HATCH
5
1F4
100
AcDbEntity
8
SK2
62
256
6
ByLayer
370
13
48
1
60
0
100
AcDbHatch
10
0
20
0
30
0
210
0
220
0
230
1
2
ANSI31
70
0
71
0
91
1
92
5
93
3
72
1
10
40.5
20
-3.27682224113548
11
40.9607837415528
21
-6.77682054858229
72
1
10
40.9607837415528
20
-6.77682054858229
11
40.0392162584472
21
-6.77682393368866
72
1
10
40.0392162584472
20
-6.77682393368866
11
40.5
21
-3.27682224113548
97
0
75
0
76
1
52
0
41
0.0062
77
0
78
1
53
45
43
0
44
0
45
-0.0139193969876572
46
0.0139193969876572
79
0
47
0
98
1
10
0
20
0
0
HATCH
5
1F8
100
AcDbEntity
8
SK2
62
256
6
ByLayer
370
13
48
1
60
0
100
AcDbHatch
10
0
20
0
30
0
210
0
220
0
230
1
2
ANSI31
70
0
71
0
91
1
92
5
93
3
72
1
10
40.5
20
3.27682224113519
11
40.0392162584472
21
6.77682054858201
72
1
10
40.0392162584472
20
6.77682054858201
11
40.9607837415528
21
6.77682393368838
72
1
10
40.9607837415528
20
6.77682393368838
11
40.5
21
3.27682224113519
97
0
75
0
76
1
52
0
41
0.0062
77
0
78
1
53
45
43
0
44
0
45
-0.0139193969876572
46
0.0139193969876572
79
0
47
0
98
1
10
0
20
0
0
HATCH
5
1FE
100
AcDbEntity
8
2
62
256
6
ByLayer
370
13
48
1
60
0
100
AcDbHatch
10
0
20
0
30
0
210
0
220
0
230
1
2
ANSI31
70
0
71
0
91
1
92
5
93
3
72
1
10
76.5
20
-4
11
76.0392162584472
21
-0.500001692553184
72
1
10
76.0392162584472
20
-0.500001692553184
11
76.9607837415528
21
-0.499998307446816
72
1
10
76.9607837415528
20
-0.499998307446816
11
76.5
21
-4
97
0
75
0
76
1
52
0
41
0.0062
77
0
78
1
53
45
43
0
44
0
45
-0.0139193969876572
46
0.0139193969876572
79
0
47
0
98
1
10
0
20
0
0
HATCH
5
202
100
AcDbEntity
8
2
62
256
6
ByLayer
370
13
48
1
60
0
100
AcDbHatch
10
0
20
0
30
0
210
0
220
0
230
1
2
ANSI31
70
0
71
0
91
1
92
5
93
3
72
1
10
76.5
20
4
11
76.9607837415528
21
0.500001692553184
72
1
10
76.9607837415528
20
0.500001692553184
11
76.0392162584472
21
0.499998307446816
72
1
10
76.0392162584472
20
0.499998307446816
11
76.5
21
4
97
0
75
0
76
1
52
0
41
0.0062
77
0
78
1
53
45
43
0
44
0
45
-0.0139193969876572
46
0.0139193969876572
79
0
47
0
98
1
10
0
20
0
0
HATCH
5
207
100
AcDbEntity
8
SK2
62
256
6
ByLayer
370
13
48
1
60
0
100
AcDbHatch
10
0
20
0
30
0
210
0
220
0
230
1
2
ANSI31
70
0
71
0
91
1
92
5
93
3
72
1
10
3.17027836315495
20
4.46280167499054
11
2.86103266072939
21
7.97943030254581
72
1
10
2.86103266072939
20
7.97943030254581
11
3.78174099718581
21
7.93964607063705
72
1
10
3.78174099718581
20
7.93964607063705
11
3.17027836315495
21
4.46280167499054
97
0
75
0
76
1
52
0
41
0.0062
77
0
78
1
53
45
43
0
44
0
45
-0.0139193969876572
46
0.0139193969876572
79
0
47
0
98
1
10
0
20
0
0
HATCH
5
20B
100
AcDbEntity
8
SK2
62
256
6
ByLayer
370
13
48
1
60
0
100
AcDbHatch
10
0
20
0
30
0
210
0
220
0
230
1
2
ANSI31
70
0
71
0
91
1
92
5
93
3
72
1
10
3.08969490012973
20
2.84E-14
11
3.5752391773238
21
-3.49664933378997
72
1
10
3.5752391773238
20
-3.49664933378997
11
2.65369480115123
21
-3.50317533361451
72
1
10
2.65369480115123
20
-3.50317533361451
11
3.08969490012973
21
2.84E-14
97
0
75
0
76
1
52
0
41
0.0062
77
0
78
1
53
45
43
0
44
0
45
-0.0139193969876572
46
0.0139193969876572
79
0
47
0
98
1
10
0
20
0
0
DIMENSION
5
20F
100
AcDbEntity
8
2
62
256
6
ByLayer
370
18
48
1
60
0
100
AcDbDimension
2
_U0
10
36
20
12.004659
30
0
11
50
21
12.004659
31
0
70
32
71
1
72
1
41
1
210
0
220
0
230
1
3
Standard
100
AcDbAlignedDimension
13
64
23
0
33
0
14
36
24
3.276822
34
0
50
0
100
AcDbRotatedDimension
1001
ACAD
1000
DSTYLE
1002
{
1070
   371
1070
    13
1070
   372
1070
    13
1070
     3
1000

1070
   170
1070
     0
1070
   144
1040
1.0
1070
   277
1070
     2
1070
   284
1070
     8
1070
   278
1070
    46
1070
   146
1040
1.166667
1070
   345
1005
16
1070
   347
1005
16
1070
   346
1005
16
1070
   344
1005
0
1070
   343
1005
0
1070
   172
1070
     1
1070
    76
1070
     0
1070
    75
1070
     0
1070
   282
1070
     0
1070
   281
1070
     0
1070
    71
1070
     0
1070
    74
1070
     0
1070
   279
1070
     0
1070
   173
1070
     1
1070
   340
1005
1E4
1070
   271
1070
     2
1070
   272
1070
     2
1070
    77
1070
     1
1070
    73
1070
     1
1070
   171
1070
     3
1070
   274
1070
     4
1070
   177
1070
     2
1070
   176
1070
     2
1070
   178
1070
     2
1070
    78
1070
     8
1070
    48
1040
-0.1
1070
    41
1040
3.5
1070
   147
1040
1.5
1070
    42
1040
1.5875
1070
    44
1040
2.0
1070
   140
1040
3.0
1002
}
1001
ACAD_DSTYLE_DIM_LINETYPE
1070
   380
1005
16
1001
ACAD_DSTYLE_DIM_EXT1_LINETYPE
1070
   381
1005
16
1001
ACAD_DSTYLE_DIM_EXT2_LINETYPE
1070
   382
1005
16
0
DIMENSION
5
228
100
AcDbEntity
8
2
62
256
6
ByLayer
370
18
48
1
60
0
100
AcDbDimension
2
_U1
10
15.981335
20
22.004659
30
0
11
39.990668
21
22.004659
31
0
70
32
71
1
72
1
41
1
210
0
220
0
230
1
3
Standard
100
AcDbAlignedDimension
13
64
23
0
33
0
14
15.981335
24
4
34
0
50
0
100
AcDbRotatedDimension
1001
ACAD
1000
DSTYLE
1002
{
1070
   371
1070
    13
1070
   372
1070
    13
1070
     3
1000

1070
   170
1070
     0
1070
   144
1040
1.0
1070
   277
1070
     2
1070
   284
1070
     8
1070
   278
1070
    46
1070
   146
1040
1.166667
1070
   345
1005
16
1070
   347
1005
16
1070
   346
1005
16
1070
   344
1005
0
1070
   343
1005
0
1070
   172
1070
     1
1070
    76
1070
     0
1070
    75
1070
     0
1070
   282
1070
     0
1070
   281
1070
     0
1070
    71
1070
     0
1070
    74
1070
     0
1070
   279
1070
     0
1070
   173
1070
     1
1070
   340
1005
1E4
1070
   271
1070
     2
1070
   272
1070
     2
1070
    77
1070
     1
1070
    73
1070
     1
1070
   171
1070
     3
1070
   274
1070
     4
1070
   177
1070
     2
1070
   176
1070
     2
1070
   178
1070
     2
1070
    78
1070
     8
1070
    48
1040
-0.1
1070
    41
1040
3.5
1070
   147
1040
1.5
1070
    42
1040
1.5875
1070
    44
1040
2.0
1070
   140
1040
3.0
1002
}
1001
ACAD_DSTYLE_DIM_LINETYPE
1070
   380
1005
16
1001
ACAD_DSTYLE_DIM_EXT1_LINETYPE
1070
   381
1005
16
1001
ACAD_DSTYLE_DIM_EXT2_LINETYPE
1070
   382
1005
16
0
DIMENSION
5
240
100
AcDbEntity
8
SK2
62
256
6
ByLayer
370
18
48
1
60
0
100
AcDbDimension
2
_U2
10
-36
20
32.004659
30
0
11
14
21
32.004659
31
0
70
32
71
1
72
1
41
1
210
0
220
0
230
1
3
Standard
100
AcDbAlignedDimension
13
64
23
0
33
0
14
-36
24
0
34
0
50
0
100
AcDbRotatedDimension
1001
ACAD
1000
DSTYLE
1002
{
1070
   371
1070
    13
1070
   372
1070
    13
1070
     3
1000

1070
   170
1070
     0
1070
   144
1040
1.0
1070
   277
1070
     2
1070
   284
1070
     8
1070
   278
1070
    46
1070
   146
1040
1.166667
1070
   345
1005
16
1070
   347
1005
16
1070
   346
1005
16
1070
   344
1005
0
1070
   343
1005
0
1070
   172
1070
     1
1070
    76
1070
     0
1070
    75
1070
     0
1070
   282
1070
     0
1070
   281
1070
     0
1070
    71
1070
     0
1070
    74
1070
     0
1070
   279
1070
     0
1070
   173
1070
     1
1070
   340
1005
1E4
1070
   271
1070
     2
1070
   272
1070
     2
1070
    77
1070
     1
1070
    73
1070
     1
1070
   171
1070
     3
1070
   274
1070
     4
1070
   177
1070
     2
1070
   176
1070
     2
1070
   178
1070
     2
1070
    78
1070
     8
1070
    48
1040
-0.1
1070
    41
1040
3.5
1070
   147
1040
1.5
1070
    42
1040
1.5875
1070
    44
1040
2.0
1070
   140
1040
3.0
1002
}
1001
ACAD_DSTYLE_DIM_LINETYPE
1070
   380
1005
16
1001
ACAD_DSTYLE_DIM_EXT1_LINETYPE
1070
   381
1005
16
1001
ACAD_DSTYLE_DIM_EXT2_LINETYPE
1070
   382
1005
16
0
DIMENSION
5
258
100
AcDbEntity
8
SK2
62
256
6
ByLayer
370
18
48
1
60
0
100
AcDbDimension
2
_U3
10
0.6
20
-17.66959
30
0
11
-17.7
21
-17.66959
31
0
70
32
71
1
72
1
41
1
210
0
220
0
230
1
3
Standard
100
AcDbAlignedDimension
13
-36
23
0
33
0
14
0.6
24
-4
34
0
50
0
100
AcDbRotatedDimension
1001
ACAD
1000
DSTYLE
1002
{
1070
   371
1070
    13
1070
   372
1070
    13
1070
     3
1000

1070
   170
1070
     0
1070
   144
1040
1.0
1070
   277
1070
     2
1070
   284
1070
     8
1070
   278
1070
    46
1070
   146
1040
1.166667
1070
   345
1005
16
1070
   347
1005
16
1070
   346
1005
16
1070
   344
1005
0
1070
   343
1005
0
1070
   172
1070
     1
1070
    76
1070
     0
1070
    75
1070
     0
1070
   282
1070
     0
1070
   281
1070
     0
1070
    71
1070
     0
1070
    74
1070
     0
1070
   279
1070
     0
1070
   173
1070
     1
1070
   340
1005
1E4
1070
   271
1070
     2
1070
   272
1070
     2
1070
    77
1070
     1
1070
    73
1070
     1
1070
   171
1070
     3
1070
   274
1070
     4
1070
   177
1070
     2
1070
   176
1070
     2
1070
   178
1070
     2
1070
    78
1070
     8
1070
    48
1040
-0.1
1070
    41
1040
3.5
1070
   147
1040
1.5
1070
    42
1040
1.5875
1070
    44
1040
2.0
1070
   140
1040
3.0
1002
}
1001
ACAD_DSTYLE_DIM_LINETYPE
1070
   380
1005
16
1001
ACAD_DSTYLE_DIM_EXT1_LINETYPE
1070
   381
1005
16
1001
ACAD_DSTYLE_DIM_EXT2_LINETYPE
1070
   382
1005
16
0
DIMENSION
5
270
100
AcDbEntity
8
SK2
62
256
6
ByLayer
370
18
48
1
60
0
100
AcDbDimension
2
_U4
10
57.706
20
-11.5
30
0
11
79.928571
21
-11.5
31
0
70
32
71
1
72
1
41
1
210
0
220
0
230
1
3
Standard
100
AcDbAlignedDimension
13
64
23
0
33
0
14
57.706
24
3.276822
34
0
50
0
100
AcDbRotatedDimension
1001
ACAD
1000
DSTYLE
1002
{
1070
   371
1070
    13
1070
   372
1070
    13
1070
     3
1000

1070
   170
1070
     0
1070
   144
1040
1.0
1070
   277
1070
     2
1070
   284
1070
     8
1070
   278
1070
    46
1070
   146
1040
1.166667
1070
   345
1005
16
1070
   347
1005
16
1070
   346
1005
16
1070
   344
1005
0
1070
   343
1005
0
1070
   172
1070
     1
1070
    76
1070
     0
1070
    75
1070
     0
1070
   282
1070
     0
1070
   281
1070
     0
1070
    71
1070
     0
1070
    74
1070
     0
1070
   279
1070
     0
1070
   173
1070
     1
1070
   340
1005
1E4
1070
   271
1070
     2
1070
   272
1070
     2
1070
    77
1070
     1
1070
    73
1070
     1
1070
   171
1070
     3
1070
   274
1070
     4
1070
   177
1070
     2
1070
   176
1070
     2
1070
   178
1070
     2
1070
    78
1070
     8
1070
    48
1040
-0.1
1070
    41
1040
3.5
1070
   147
1040
1.5
1070
    42
1040
1.5875
1070
    44
1040
2.0
1070
   140
1040
3.0
1002
}
1001
ACAD_DSTYLE_DIM_LINETYPE
1070
   380
1005
16
1001
ACAD_DSTYLE_DIM_EXT1_LINETYPE
1070
   381
1005
16
1001
ACAD_DSTYLE_DIM_EXT2_LINETYPE
1070
   382
1005
16
0
ENDSEC
0
SECTION
2
OBJECTS
0
DICTIONARY
5
2fa
330
0
100
AcDbDictionary
280
0
281
1
3
ACAD_GROUP
350
2fb
3
ACAD_MLINESTYLE
350
2fc
0
DICTIONARY
5
2fb
330
0
100
AcDbDictionary
280
0
281
1
0
DICTIONARY
5
2fc
330
0
100
AcDbDictionary
280
0
281
1
3
Standard
350
18
0
MLINESTYLE
5
18
330
2fc
100
AcDbMlineStyle
2
Standard
70
0
3

62
256
51
90
52
90
71
2
49
-0.5
62
256
6
ByLayer
49
0.5
62
256
6
ByLayer
0
RASTERVARIABLES
5
2e8
330

100
AcDbRasterVariables
90
0
70
1
71
1
72
1
0
ENDSEC
0
EOF
