0
SECTION
2
HEADER
9
$ACADVER
1
AC1015
9
$DWGCODEPAGE
3
ANSI_1252
9
$HANDSEED
5
2f8
9
$ANGBASE
50
0
9
$ANGDIR
70
0
9
$ATTMODE
70
1
9
$AUNITS
70
0
9
$AUPREC
70
0
9
$CECOLOR
62
256
9
$CELTSCALE
40
1
9
$CELTYPE
6
ByLayer
9
$CELWEIGHT
370
18
9
$CLAYER
8
0
9
$CMLJUST
70
0
9
$CMLSCALE
40
1
9
$CMLSTYLE
2
Standard
9
$DIMSTYLE
2
Standard
9
$TEXTSIZE
40
0.2
9
$TEXTSTYLE
7
Standard
9
$LUNITS
70
2
9
$LUPREC
70
4
9
$EXTNAMES
290
1
9
$INSUNITS
70
4
9
$LTSCALE
40
1
9
$LWDISPLAY
290
1
9
$PDMODE
70
0
9
$PDSIZE
40
0
9
$PLINEGEN
70
0
0
ENDSEC
0
SECTION
2
CLASSES
0
CLASS
1
RASTERVARIABLES
2
AcDbRasterVariables
3
ISM
90
0
280
0
281
0
0
ENDSEC
0
SECTION
2
TABLES
0
TABLE
2
VPORT
5
2ee
100
AcDbSymbolTable
0
VPORT
5
1
100
AcDbSymbolTableRecord
100
AcDbViewportTableRecord
2
*Active
70
0
10
0
20
0
11
1
21
1
12
-1
22
1
13
0
23
0
14
0.5
24
0.5
15
10
25
10
16
0
26
0
36
1
17
0
27
0
37
0
0
ENDTAB
0
TABLE
2
LTYPE
5
2ef
100
AcDbSymbolTable
0
LTYPE
5
14
100
AcDbSymbolTableRecord
100
AcDbLinetypeTableRecord
70
0
2
ByBlock
3

72
65
73
0
40
0
0
LTYPE
5
15
100
AcDbSymbolTableRecord
100
AcDbLinetypeTableRecord
70
0
2
ByLayer
3

72
65
73
0
40
0
0
LTYPE
5
16
100
AcDbSymbolTableRecord
100
AcDbLinetypeTableRecord
70
0
2
Continuous
3
Solid line
72
65
73
0
40
0
0
LTYPE
5
6E
100
AcDbSymbolTableRecord
100
AcDbLinetypeTableRecord
70
0
2
CENTER
3
____ _ ____ _ ____ _ ____
72
65
73
4
40
47.5
49
22
74
0
49
-8.5
74
0
49
8.5
74
0
49
-8.5
74
0
0
LTYPE
5
6F
100
AcDbSymbolTableRecord
100
AcDbLinetypeTableRecord
70
0
2
DASHED
3
__ __ __ __ __ __ __ __ __
72
65
73
2
40
25.72
49
12.86
74
0
49
-12.86
74
0
0
ENDTAB
0
TABLE
2
LAYER
5
2f0
100
AcDbSymbolTable
0
LAYER
5
10
100
AcDbSymbolTableRecord
100
AcDbLayerTableRecord
2
0
70
0
62
7
6
Continuous
290
1
370
-3
390
0
0
LAYER
5
71
100
AcDbSymbolTableRecord
100
AcDbLayerTableRecord
2
81
70
0
62
-3
6
Continuous
290
1
370
-3
390
0
0
LAYER
5
73
100
AcDbSymbolTableRecord
100
AcDbLayerTableRecord
2
80
70
0
62
-6
6
Continuous
290
1
370
-3
390
0
0
LAYER
5
75
100
AcDbSymbolTableRecord
100
AcDbLayerTableRecord
2
1
70
0
62
4
6
Continuous
290
1
370
-3
390
0
0
LAYER
5
84
100
AcDbSymbolTableRecord
100
AcDbLayerTableRecord
2
4
70
0
62
-2
6
CENTER
290
1
370
-3
390
0
0
LAYER
5
101
100
AcDbSymbolTableRecord
100
AcDbLayerTableRecord
2
2
70
0
62
7
6
Continuous
290
1
370
-3
390
0
0
LAYER
5
203
100
AcDbSymbolTableRecord
100
AcDbLayerTableRecord
2
Defpoints
70
0
62
7
6
Continuous
290
0
370
-3
390
0
0
LAYER
5
2da
100
AcDbSymbolTableRecord
100
AcDbLayerTableRecord
2
SK4
70
0
62
2
6
CENTER
290
1
370
-3
390
0
0
LAYER
5
2db
100
AcDbSymbolTableRecord
100
AcDbLayerTableRecord
2
SK1
70
0
62
4
6
Continuous
290
1
370
-3
390
0
0
LAYER
5
2dc
100
AcDbSymbolTableRecord
100
AcDbLayerTableRecord
2
SK2
70
0
62
7
6
Continuous
290
1
370
-3
390
0
0
LAYER
5
2dd
100
AcDbSymbolTableRecord
100
AcDbLayerTableRecord
2
SK6
70
0
62
5
6
Continuous
290
1
370
-3
390
0
0
ENDTAB
0
TABLE
2
STYLE
5
2f1
100
AcDbSymbolTable
0
STYLE
5
11
100
AcDbSymbolTableRecord
100
AcDbTextStyleTableRecord
2
Standard
3
txt
70
0
71
0
40
0
41
1
42
0
50
0
0
STYLE
5
1D5
100
AcDbSymbolTableRecord
100
AcDbTextStyleTableRecord
2
iso_b_vert
3
simplex.shx
70
0
71
0
40
0
41
1
42
0
50
0
0
STYLE
5
1D6
100
AcDbSymbolTableRecord
100
AcDbTextStyleTableRecord
2
DWGDirectTextStyle
3
simplex
70
0
71
0
40
0
41
1
42
0
50
0
0
ENDTAB
0
TABLE
2
DIMSTYLE
5
2f2
100
AcDbSymbolTable
100
AcDbDimStyleTable
0
DIMSTYLE
105
27
100
AcDbSymbolTableRecord
100
AcDbDimStyleTableRecord
2
Standard
70
0
3
<>
41
0.18
42
0.0625
44
0.18
140
0.18
147
0.09
73
0
74
0
77
1
271
2
275
0
278
52
280
0
340
11
0
ENDTAB
0
TABLE
2
VIEW
5
2f3
100
AcDbSymbolTable
0
ENDTAB
0
TABLE
2
UCS
5
2f4
100
AcDbSymbolTable
0
ENDTAB
0
TABLE
2
APPID
5
2f5
100
AcDbSymbolTable
0
APPID
5
12
100
AcDbSymbolTableRecord
100
AcDbRegAppTableRecord
2
ACAD
70
0
0
APPID
5
1FF
100
AcDbSymbolTableRecord
100
AcDbRegAppTableRecord
2
ACAD_DSTYLE_DIMBREAK
70
0
0
APPID
5
299
100
AcDbSymbolTableRecord
100
AcDbRegAppTableRecord
2
ACAD_DSTYLE_DIM_LINETYPE
70
0
0
APPID
5
29A
100
AcDbSymbolTableRecord
100
AcDbRegAppTableRecord
2
ACAD_DSTYLE_DIM_EXT1_LINETYPE
70
0
0
APPID
5
29B
100
AcDbSymbolTableRecord
100
AcDbRegAppTableRecord
2
ACAD_DSTYLE_DIM_EXT2_LINETYPE
70
0
0
APPID
5
2D6
100
AcDbSymbolTableRecord
100
AcDbRegAppTableRecord
2
ACAD_MLEADERVER
70
0
0
ENDTAB
0
TABLE
2
BLOCK_RECORD
5
2f6
100
AcDbSymbolTable
0
BLOCK_RECORD
5
1F
100
AcDbSymbolTableRecord
100
AcDbBlockTableRecord
2
*Model_Space
340
0
70
0
0
BLOCK_RECORD
5
1B
100
AcDbSymbolTableRecord
100
AcDbBlockTableRecord
2
*Paper_Space
340
0
70
0
0
BLOCK_RECORD
5
23
100
AcDbSymbolTableRecord
100
AcDbBlockTableRecord
2
*Paper_Space0
340
0
70
0
0
BLOCK_RECORD
5
204
100
AcDbSymbolTableRecord
100
AcDbBlockTableRecord
2
*D1
340
0
70
0
0
BLOCK_RECORD
5
210
100
AcDbSymbolTableRecord
100
AcDbBlockTableRecord
2
_U0
340
0
70
0
0
BLOCK_RECORD
5
21C
100
AcDbSymbolTableRecord
100
AcDbBlockTableRecord
2
*D3
340
0
70
0
0
BLOCK_RECORD
5
228
100
AcDbSymbolTableRecord
100
AcDbBlockTableRecord
2
_U1
340
0
70
0
0
BLOCK_RECORD
5
234
100
AcDbSymbolTableRecord
100
AcDbBlockTableRecord
2
*D5
340
0
70
0
0
BLOCK_RECORD
5
240
100
AcDbSymbolTableRecord
100
AcDbBlockTableRecord
2
_U2
340
0
70
0
0
BLOCK_RECORD
5
24C
100
AcDbSymbolTableRecord
100
AcDbBlockTableRecord
2
*D7
340
0
70
0
0
BLOCK_RECORD
5
258
100
AcDbSymbolTableRecord
100
AcDbBlockTableRecord
2
_U3
340
0
70
0
0
BLOCK_RECORD
5
264
100
AcDbSymbolTableRecord
100
AcDbBlockTableRecord
2
*D9
340
0
70
0
0
BLOCK_RECORD
5
272
100
AcDbSymbolTableRecord
100
AcDbBlockTableRecord
2
_U4
340
0
70
0
0
ENDTAB
0
ENDSEC
0
SECTION
2
BLOCKS
0
BLOCK
5
20
100
AcDbEntity
8
0
100
AcDbBlockBegin
2
*Model_Space
70
0
10
0
20
0
30
0
3
*Model_Space
0
ENDBLK
5
21
100
AcDbEntity
8
0
100
AcDbBlockEnd
0
BLOCK
5
1C
100
AcDbEntity
8
0
100
AcDbBlockBegin
2
*Paper_Space
70
0
10
0
20
0
30
0
3
*Paper_Space
0
ENDBLK
5
1D
100
AcDbEntity
8
0
100
AcDbBlockEnd
0
BLOCK
5
24
100
AcDbEntity
8
0
100
AcDbBlockBegin
2
*Paper_Space0
70
0
10
0
20
0
30
0
3
*Paper_Space0
0
ENDBLK
5
25
100
AcDbEntity
8
0
100
AcDbBlockEnd
0
BLOCK
5
205
100
AcDbEntity
8
0
100
AcDbBlockBegin
2
*D1
70
1
10
0
20
0
30
0
3
*D1
0
LINE
5
207
100
AcDbEntity
8
0
62
256
6
ByLayer
370
-2
48
1
60
0
100
AcDbLine
10
112
20
1.5875
30
0
11
112
21
17.85
31
0
39
0
210
0
220
0
230
1
0
LINE
5
208
100
AcDbEntity
8
0
62
256
6
ByLayer
370
-2
48
1
60
0
100
AcDbLine
10
87
20
5.683178
30
0
11
87
21
17.85
31
0
39
0
210
0
220
0
230
1
0
LINE
5
209
100
AcDbEntity
8
0
62
256
6
ByLayer
370
-2
48
1
60
0
100
AcDbLine
10
108.5
20
15.85
30
0
11
90.5
21
15.85
31
0
39
0
210
0
220
0
230
1
0
SOLID
5
20A
100
AcDbEntity
8
0
62
256
6
ByLayer
370
-1
48
1
60
0
100
AcDbTrace
10
108.5
20
15.266667
30
0
11
108.5
21
16.433333
31
0
12
112
22
15.85
32
0
13
112
23
15.85
33
0
39
0
210
0
220
0
230
1
0
SOLID
5
20B
100
AcDbEntity
8
0
62
256
6
ByLayer
370
-1
48
1
60
0
100
AcDbTrace
10
90.5
20
16.433333
30
0
11
90.5
21
15.266667
31
0
12
87
22
15.85
32
0
13
87
23
15.85
33
0
39
0
210
0
220
0
230
1
0
MTEXT
5
20C
100
AcDbEntity
8
0
62
256
6
ByLayer
370
18
48
1
60
0
100
AcDbMText
10
99.5
20
21.85
30
0
210
0
220
0
230
1
1
\A1;25
40
3
41
0
44
1
50
0
71
5
72
5
7
iso_b_vert
0
POINT
5
20D
100
AcDbEntity
8
Defpoints
62
0
6
ByLayer
370
-1
48
1
60
0
100
AcDbPoint
10
112
20
0
30
0
39
0
210
0
220
0
230
1
50
360
0
POINT
5
20E
100
AcDbEntity
8
Defpoints
62
0
6
ByLayer
370
-1
48
1
60
0
100
AcDbPoint
10
87
20
4.095678
30
0
39
0
210
0
220
0
230
1
50
360
0
POINT
5
20F
100
AcDbEntity
8
Defpoints
62
0
6
ByLayer
370
-1
48
1
60
0
100
AcDbPoint
10
87
20
15.85
30
0
39
0
210
0
220
0
230
1
50
360
0
ENDBLK
5
206
100
AcDbEntity
8
0
100
AcDbBlockEnd
0
BLOCK
5
217
100
AcDbEntity
8
0
100
AcDbBlockBegin
2
_U0
70
0
10
0
20
0
30
0
3
_U0
0
MTEXT
5
211
100
AcDbEntity
8
2
62
256
6
ByLayer
370
18
48
1
60
0
100
AcDbMText
10
97.867172
20
16.735114
30
0
210
0
220
0
230
1
1
\W0.6740;25
40
3
41
0
44
1.084337
50
0
71
7
72
5
7
iso_b_vert
0
LINE
5
212
100
AcDbEntity
8
2
62
256
6
ByLayer
370
13
48
1
60
0
100
AcDbLine
10
112
20
1.5875
30
0
11
112
21
17.85
31
0
39
0
210
0
220
0
230
1
0
LINE
5
213
100
AcDbEntity
8
2
62
256
6
ByLayer
370
13
48
1
60
0
100
AcDbLine
10
87
20
5.683178
30
0
11
87
21
17.85
31
0
39
0
210
0
220
0
230
1
0
LINE
5
214
100
AcDbEntity
8
2
62
256
6
ByLayer
370
13
48
1
60
0
100
AcDbLine
10
112
20
15.85
30
0
11
87
21
15.85
31
0
39
0
210
0
220
0
230
1
0
SOLID
5
215
100
AcDbEntity
8
2
62
256
6
ByLayer
370
18
48
1
60
0
100
AcDbTrace
10
112
20
15.85
30
0
11
108.500002
21
15.389216
31
0
12
108.499998
22
16.310784
32
0
13
108.499998
23
16.310784
33
0
39
0
210
0
220
0
230
1
0
SOLID
5
216
100
AcDbEntity
8
2
62
256
6
ByLayer
370
18
48
1
60
0
100
AcDbTrace
10
87
20
15.85
30
0
11
90.499998
21
16.310784
31
0
12
90.500002
22
15.389216
32
0
13
90.500002
23
15.389216
33
0
39
0
210
0
220
0
230
1
0
ENDBLK
5
218
100
AcDbEntity
8
0
100
AcDbBlockEnd
0
BLOCK
5
21D
100
AcDbEntity
8
0
100
AcDbBlockBegin
2
*D3
70
1
10
0
20
0
30
0
3
*D3
0
LINE
5
21F
100
AcDbEntity
8
0
62
256
6
ByLayer
370
-2
48
1
60
0
100
AcDbLine
10
112
20
1.5875
30
0
11
112
21
27.85
31
0
39
0
210
0
220
0
230
1
0
LINE
5
220
100
AcDbEntity
8
0
62
256
6
ByLayer
370
-2
48
1
60
0
100
AcDbLine
10
1.976309
20
9.5875
30
0
11
1.976309
21
27.85
31
0
39
0
210
0
220
0
230
1
0
LINE
5
221
100
AcDbEntity
8
0
62
256
6
ByLayer
370
-2
48
1
60
0
100
AcDbLine
10
108.5
20
25.85
30
0
11
5.476309
21
25.85
31
0
39
0
210
0
220
0
230
1
0
SOLID
5
222
100
AcDbEntity
8
0
62
256
6
ByLayer
370
-1
48
1
60
0
100
AcDbTrace
10
108.5
20
25.266667
30
0
11
108.5
21
26.433333
31
0
12
112
22
25.85
32
0
13
112
23
25.85
33
0
39
0
210
0
220
0
230
1
0
SOLID
5
223
100
AcDbEntity
8
0
62
256
6
ByLayer
370
-1
48
1
60
0
100
AcDbTrace
10
5.476309
20
26.433333
30
0
11
5.476309
21
25.266667
31
0
12
1.976309
22
25.85
32
0
13
1.976309
23
25.85
33
0
39
0
210
0
220
0
230
1
0
MTEXT
5
224
100
AcDbEntity
8
0
62
256
6
ByLayer
370
18
48
1
60
0
100
AcDbMText
10
56.988154
20
31.85
30
0
210
0
220
0
230
1
1
\A1;110.02
40
3
41
0
44
1
50
0
71
5
72
5
7
iso_b_vert
0
POINT
5
225
100
AcDbEntity
8
Defpoints
62
0
6
ByLayer
370
-1
48
1
60
0
100
AcDbPoint
10
112
20
0
30
0
39
0
210
0
220
0
230
1
50
360
0
POINT
5
226
100
AcDbEntity
8
Defpoints
62
0
6
ByLayer
370
-1
48
1
60
0
100
AcDbPoint
10
1.976309
20
8
30
0
39
0
210
0
220
0
230
1
50
360
0
POINT
5
227
100
AcDbEntity
8
Defpoints
62
0
6
ByLayer
370
-1
48
1
60
0
100
AcDbPoint
10
1.976309
20
25.85
30
0
39
0
210
0
220
0
230
1
50
360
0
ENDBLK
5
21E
100
AcDbEntity
8
0
100
AcDbBlockEnd
0
BLOCK
5
22F
100
AcDbEntity
8
0
100
AcDbBlockBegin
2
_U1
70
0
10
0
20
0
30
0
3
_U1
0
MTEXT
5
229
100
AcDbEntity
8
2
62
256
6
ByLayer
370
18
48
1
60
0
100
AcDbMText
10
54.984298
20
26.735114
30
0
210
0
220
0
230
1
1
\W0.5296;110
40
3
41
0
44
1.084337
50
0
71
7
72
5
7
iso_b_vert
0
LINE
5
22A
100
AcDbEntity
8
2
62
256
6
ByLayer
370
13
48
1
60
0
100
AcDbLine
10
112
20
1.5875
30
0
11
112
21
27.85
31
0
39
0
210
0
220
0
230
1
0
LINE
5
22B
100
AcDbEntity
8
2
62
256
6
ByLayer
370
13
48
1
60
0
100
AcDbLine
10
1.976309
20
9.5875
30
0
11
1.976309
21
27.85
31
0
39
0
210
0
220
0
230
1
0
LINE
5
22C
100
AcDbEntity
8
2
62
256
6
ByLayer
370
13
48
1
60
0
100
AcDbLine
10
112
20
25.85
30
0
11
1.976309
21
25.85
31
0
39
0
210
0
220
0
230
1
0
SOLID
5
22D
100
AcDbEntity
8
2
62
256
6
ByLayer
370
18
48
1
60
0
100
AcDbTrace
10
112
20
25.85
30
0
11
108.500002
21
25.389216
31
0
12
108.499998
22
26.310784
32
0
13
108.499998
23
26.310784
33
0
39
0
210
0
220
0
230
1
0
SOLID
5
22E
100
AcDbEntity
8
2
62
256
6
ByLayer
370
18
48
1
60
0
100
AcDbTrace
10
1.976309
20
25.85
30
0
11
5.476307
21
26.310784
31
0
12
5.476311
22
25.389216
32
0
13
5.476311
23
25.389216
33
0
39
0
210
0
220
0
230
1
0
ENDBLK
5
230
100
AcDbEntity
8
0
100
AcDbBlockEnd
0
BLOCK
5
235
100
AcDbEntity
8
0
100
AcDbBlockBegin
2
*D5
70
1
10
0
20
0
30
0
3
*D5
0
LINE
5
237
100
AcDbEntity
8
0
62
256
6
ByLayer
370
-2
48
1
60
0
100
AcDbLine
10
112
20
1.5875
30
0
11
112
21
37.85
31
0
39
0
210
0
220
0
230
1
0
LINE
5
238
100
AcDbEntity
8
0
62
256
6
ByLayer
370
-2
48
1
60
0
100
AcDbLine
10
-48
20
1.5875
30
0
11
-48
21
37.85
31
0
39
0
210
0
220
0
230
1
0
LINE
5
239
100
AcDbEntity
8
0
62
256
6
ByLayer
370
-2
48
1
60
0
100
AcDbLine
10
108.5
20
35.85
30
0
11
-44.5
21
35.85
31
0
39
0
210
0
220
0
230
1
0
SOLID
5
23A
100
AcDbEntity
8
0
62
256
6
ByLayer
370
-1
48
1
60
0
100
AcDbTrace
10
108.5
20
35.266667
30
0
11
108.5
21
36.433333
31
0
12
112
22
35.85
32
0
13
112
23
35.85
33
0
39
0
210
0
220
0
230
1
0
SOLID
5
23B
100
AcDbEntity
8
0
62
256
6
ByLayer
370
-1
48
1
60
0
100
AcDbTrace
10
-44.5
20
36.433333
30
0
11
-44.5
21
35.266667
31
0
12
-48
22
35.85
32
0
13
-48
23
35.85
33
0
39
0
210
0
220
0
230
1
0
MTEXT
5
23C
100
AcDbEntity
8
0
62
256
6
ByLayer
370
18
48
1
60
0
100
AcDbMText
10
32
20
41.85
30
0
210
0
220
0
230
1
1
\A1;160
40
3
41
0
44
1
50
0
71
5
72
5
7
iso_b_vert
0
POINT
5
23D
100
AcDbEntity
8
Defpoints
62
0
6
ByLayer
370
-1
48
1
60
0
100
AcDbPoint
10
112
20
0
30
0
39
0
210
0
220
0
230
1
50
360
0
POINT
5
23E
100
AcDbEntity
8
Defpoints
62
0
6
ByLayer
370
-1
48
1
60
0
100
AcDbPoint
10
-48
20
0
30
0
39
0
210
0
220
0
230
1
50
360
0
POINT
5
23F
100
AcDbEntity
8
Defpoints
62
0
6
ByLayer
370
-1
48
1
60
0
100
AcDbPoint
10
-48
20
35.85
30
0
39
0
210
0
220
0
230
1
50
360
0
ENDBLK
5
236
100
AcDbEntity
8
0
100
AcDbBlockEnd
0
BLOCK
5
247
100
AcDbEntity
8
0
100
AcDbBlockBegin
2
_U2
70
0
10
0
20
0
30
0
3
_U2
0
MTEXT
5
241
100
AcDbEntity
8
SK2
62
256
6
ByLayer
370
18
48
1
60
0
100
AcDbMText
10
29.621201
20
36.735114
30
0
210
0
220
0
230
1
1
\W0.6217;160
40
3
41
0
44
1.084337
50
0
71
7
72
5
7
iso_b_vert
0
LINE
5
242
100
AcDbEntity
8
SK2
62
256
6
ByLayer
370
13
48
1
60
0
100
AcDbLine
10
112
20
1.5875
30
0
11
112
21
37.85
31
0
39
0
210
0
220
0
230
1
0
LINE
5
243
100
AcDbEntity
8
SK2
62
256
6
ByLayer
370
13
48
1
60
0
100
AcDbLine
10
-48
20
1.5875
30
0
11
-48
21
37.85
31
0
39
0
210
0
220
0
230
1
0
LINE
5
244
100
AcDbEntity
8
SK2
62
256
6
ByLayer
370
13
48
1
60
0
100
AcDbLine
10
112
20
35.85
30
0
11
-48
21
35.85
31
0
39
0
210
0
220
0
230
1
0
SOLID
5
245
100
AcDbEntity
8
SK2
62
256
6
ByLayer
370
18
48
1
60
0
100
AcDbTrace
10
112
20
35.85
30
0
11
108.500002
21
35.389216
31
0
12
108.499998
22
36.310784
32
0
13
108.499998
23
36.310784
33
0
39
0
210
0
220
0
230
1
0
SOLID
5
246
100
AcDbEntity
8
SK2
62
256
6
ByLayer
370
18
48
1
60
0
100
AcDbTrace
10
-48
20
35.85
30
0
11
-44.500002
21
36.310784
31
0
12
-44.499998
22
35.389216
32
0
13
-44.499998
23
35.389216
33
0
39
0
210
0
220
0
230
1
0
ENDBLK
5
248
100
AcDbEntity
8
0
100
AcDbBlockEnd
0
BLOCK
5
24D
100
AcDbEntity
8
0
100
AcDbBlockBegin
2
*D7
70
1
10
0
20
0
30
0
3
*D7
0
LINE
5
24F
100
AcDbEntity
8
0
62
256
6
ByLayer
370
-2
48
1
60
0
100
AcDbLine
10
-48
20
-1.5875
30
0
11
-48
21
-21.492526
31
0
39
0
210
0
220
0
230
1
0
LINE
5
250
100
AcDbEntity
8
0
62
256
6
ByLayer
370
-2
48
1
60
0
100
AcDbLine
10
0.6
20
-9.5875
30
0
11
0.6
21
-21.492526
31
0
39
0
210
0
220
0
230
1
0
LINE
5
251
100
AcDbEntity
8
0
62
256
6
ByLayer
370
-2
48
1
60
0
100
AcDbLine
10
-44.5
20
-19.492526
30
0
11
-2.9
21
-19.492526
31
0
39
0
210
0
220
0
230
1
0
SOLID
5
252
100
AcDbEntity
8
0
62
256
6
ByLayer
370
-1
48
1
60
0
100
AcDbTrace
10
-44.5
20
-18.909193
30
0
11
-44.5
21
-20.07586
31
0
12
-48
22
-19.492526
32
0
13
-48
23
-19.492526
33
0
39
0
210
0
220
0
230
1
0
SOLID
5
253
100
AcDbEntity
8
0
62
256
6
ByLayer
370
-1
48
1
60
0
100
AcDbTrace
10
-2.9
20
-20.07586
30
0
11
-2.9
21
-18.909193
31
0
12
0.6
22
-19.492526
32
0
13
0.6
23
-19.492526
33
0
39
0
210
0
220
0
230
1
0
MTEXT
5
254
100
AcDbEntity
8
0
62
256
6
ByLayer
370
18
48
1
60
0
100
AcDbMText
10
-23.7
20
-13.492526
30
0
210
0
220
0
230
1
1
\A1;48.6
40
3
41
0
44
1
50
0
71
5
72
5
7
iso_b_vert
0
POINT
5
255
100
AcDbEntity
8
Defpoints
62
0
6
ByLayer
370
-1
48
1
60
0
100
AcDbPoint
10
-48
20
0
30
0
39
0
210
0
220
0
230
1
50
360
0
POINT
5
256
100
AcDbEntity
8
Defpoints
62
0
6
ByLayer
370
-1
48
1
60
0
100
AcDbPoint
10
0.6
20
-8
30
0
39
0
210
0
220
0
230
1
50
360
0
POINT
5
257
100
AcDbEntity
8
Defpoints
62
0
6
ByLayer
370
-1
48
1
60
0
100
AcDbPoint
10
0.6
20
-19.492526
30
0
39
0
210
0
220
0
230
1
50
360
0
ENDBLK
5
24E
100
AcDbEntity
8
0
100
AcDbBlockEnd
0
BLOCK
5
25F
100
AcDbEntity
8
0
100
AcDbBlockBegin
2
_U3
70
0
10
0
20
0
30
0
3
_U3
0
MTEXT
5
259
100
AcDbEntity
8
SK2
62
256
6
ByLayer
370
18
48
1
60
0
100
AcDbMText
10
-31.422856
20
-18.607412
30
0
210
0
220
0
230
1
1
\W0.7399;(MIN. 48)
40
3
41
0
44
1.084337
50
0
71
7
72
5
7
iso_b_vert
0
LINE
5
25A
100
AcDbEntity
8
SK2
62
256
6
ByLayer
370
13
48
1
60
0
100
AcDbLine
10
-48
20
-1.5875
30
0
11
-48
21
-21.492526
31
0
39
0
210
0
220
0
230
1
0
LINE
5
25B
100
AcDbEntity
8
SK2
62
256
6
ByLayer
370
13
48
1
60
0
100
AcDbLine
10
0.6
20
-9.5875
30
0
11
0.6
21
-21.492526
31
0
39
0
210
0
220
0
230
1
0
LINE
5
25C
100
AcDbEntity
8
SK2
62
256
6
ByLayer
370
13
48
1
60
0
100
AcDbLine
10
-48
20
-19.492526
30
0
11
0.6
21
-19.492526
31
0
39
0
210
0
220
0
230
1
0
SOLID
5
25D
100
AcDbEntity
8
SK2
62
256
6
ByLayer
370
18
48
1
60
0
100
AcDbTrace
10
-48
20
-19.492526
30
0
11
-44.500002
21
-19.031743
31
0
12
-44.499998
22
-19.95331
32
0
13
-44.499998
23
-19.95331
33
0
39
0
210
0
220
0
230
1
0
SOLID
5
25E
100
AcDbEntity
8
SK2
62
256
6
ByLayer
370
18
48
1
60
0
100
AcDbTrace
10
0.6
20
-19.492526
30
0
11
-2.899998
21
-19.95331
31
0
12
-2.900002
22
-19.031743
32
0
13
-2.900002
23
-19.031743
33
0
39
0
210
0
220
0
230
1
0
ENDBLK
5
260
100
AcDbEntity
8
0
100
AcDbBlockEnd
0
BLOCK
5
265
100
AcDbEntity
8
0
100
AcDbBlockBegin
2
*D9
70
1
10
0
20
0
30
0
3
*D9
0
LINE
5
267
100
AcDbEntity
8
0
62
256
6
ByLayer
370
-2
48
1
60
0
100
AcDbLine
10
112
20
-1.5875
30
0
11
112
21
-13.5
31
0
39
0
210
0
220
0
230
1
0
LINE
5
268
100
AcDbEntity
8
0
62
256
6
ByLayer
370
-2
48
1
60
0
100
AcDbLine
10
104.132
20
2.508178
30
0
11
104.132
21
-13.5
31
0
39
0
210
0
220
0
230
1
0
LINE
5
269
100
AcDbEntity
8
0
62
256
6
ByLayer
370
-2
48
1
60
0
100
AcDbLine
10
112
20
-11.5
30
0
11
137.142857
21
-11.5
31
0
39
0
210
0
220
0
230
1
0
LINE
5
26A
100
AcDbEntity
8
0
62
256
6
ByLayer
370
-2
48
1
60
0
100
AcDbLine
10
115.5
20
-11.5
30
0
11
119
21
-11.5
31
0
39
0
210
0
220
0
230
1
0
LINE
5
26B
100
AcDbEntity
8
0
62
256
6
ByLayer
370
-2
48
1
60
0
100
AcDbLine
10
100.632
20
-11.5
30
0
11
97.132
21
-11.5
31
0
39
0
210
0
220
0
230
1
0
SOLID
5
26C
100
AcDbEntity
8
0
62
256
6
ByLayer
370
-1
48
1
60
0
100
AcDbTrace
10
115.5
20
-10.916667
30
0
11
115.5
21
-12.083333
31
0
12
112
22
-11.5
32
0
13
112
23
-11.5
33
0
39
0
210
0
220
0
230
1
0
SOLID
5
26D
100
AcDbEntity
8
0
62
256
6
ByLayer
370
-1
48
1
60
0
100
AcDbTrace
10
100.632
20
-12.083333
30
0
11
100.632
21
-10.916667
31
0
12
104.132
22
-11.5
32
0
13
104.132
23
-11.5
33
0
39
0
210
0
220
0
230
1
0
MTEXT
5
26E
100
AcDbEntity
8
0
62
256
6
ByLayer
370
18
48
1
60
0
100
AcDbMText
10
128.071429
20
-5.5
30
0
210
0
220
0
230
1
1
\A1;7.87
40
3
41
0
44
1
50
0
71
5
72
5
7
iso_b_vert
0
POINT
5
26F
100
AcDbEntity
8
Defpoints
62
0
6
ByLayer
370
-1
48
1
60
0
100
AcDbPoint
10
112
20
0
30
0
39
0
210
0
220
0
230
1
50
360
0
POINT
5
270
100
AcDbEntity
8
Defpoints
62
0
6
ByLayer
370
-1
48
1
60
0
100
AcDbPoint
10
104.132
20
4.095678
30
0
39
0
210
0
220
0
230
1
50
360
0
POINT
5
271
100
AcDbEntity
8
Defpoints
62
0
6
ByLayer
370
-1
48
1
60
0
100
AcDbPoint
10
104.132
20
-11.5
30
0
39
0
210
0
220
0
230
1
50
360
0
ENDBLK
5
266
100
AcDbEntity
8
0
100
AcDbBlockEnd
0
BLOCK
5
279
100
AcDbEntity
8
0
100
AcDbBlockBegin
2
_U4
70
0
10
0
20
0
30
0
3
_U4
0
MTEXT
5
273
100
AcDbEntity
8
SK2
62
256
6
ByLayer
370
18
48
1
60
0
100
AcDbMText
10
122.159
20
-10.614886
30
0
210
0
220
0
230
1
1
\W0.7346;7.87
40
3
41
0
44
1.084337
50
0
71
7
72
5
7
iso_b_vert
0
LINE
5
274
100
AcDbEntity
8
SK2
62
256
6
ByLayer
370
13
48
1
60
0
100
AcDbLine
10
112
20
-1.5875
30
0
11
112
21
-13.5
31
0
39
0
210
0
220
0
230
1
0
LINE
5
275
100
AcDbEntity
8
SK2
62
256
6
ByLayer
370
13
48
1
60
0
100
AcDbLine
10
104.132
20
2.508178
30
0
11
104.132
21
-13.5
31
0
39
0
210
0
220
0
230
1
0
LINE
5
276
100
AcDbEntity
8
SK2
62
256
6
ByLayer
370
13
48
1
60
0
100
AcDbLine
10
104.132
20
-11.5
30
0
11
129.040913
21
-11.5
31
0
39
0
210
0
220
0
230
1
0
SOLID
5
277
100
AcDbEntity
8
SK2
62
256
6
ByLayer
370
18
48
1
60
0
100
AcDbTrace
10
112
20
-11.5
30
0
11
108.500002
21
-11.960784
31
0
12
108.499998
22
-11.039216
32
0
13
108.499998
23
-11.039216
33
0
39
0
210
0
220
0
230
1
0
SOLID
5
278
100
AcDbEntity
8
SK2
62
256
6
ByLayer
370
18
48
1
60
0
100
AcDbTrace
10
104.132
20
-11.5
30
0
11
107.631998
21
-11.039216
31
0
12
107.632002
22
-11.960784
32
0
13
107.632002
23
-11.960784
33
0
39
0
210
0
220
0
230
1
0
ENDBLK
5
27A
100
AcDbEntity
8
0
100
AcDbBlockEnd
0
ENDSEC
0
SECTION
2
ENTITIES
0
ARC
5
112
100
AcDbEntity
8
81
62
256
6
ByLayer
370
18
48
1
60
0
100
AcDbCircle
39
0
10
103.919192
20
-4.327411
30
0
40
0.329005695080741
210
0
220
0
230
1
100
AcDbArc
50
49.871876
51
90
0
ARC
5
113
100
AcDbEntity
8
81
62
256
6
ByLayer
370
18
48
1
60
0
100
AcDbCircle
39
0
10
103.919192
20
4.327411
30
0
40
0.329005695080741
210
0
220
0
230
1
100
AcDbArc
50
270
51
310.128124
0
ARC
5
114
100
AcDbEntity
8
81
62
256
6
ByLayer
370
18
48
1
60
0
100
AcDbCircle
39
0
10
103.619192
20
-12.434833
30
0
40
8.43642787140414
210
0
220
0
230
1
100
AcDbArc
50
90
51
98.709048
0
ARC
5
115
100
AcDbEntity
8
81
62
256
6
ByLayer
370
18
48
1
60
0
100
AcDbCircle
39
0
10
103.619192
20
12.434833
30
0
40
8.43642787140414
210
0
220
0
230
1
100
AcDbArc
50
261.290952
51
270
0
ARC
5
116
100
AcDbEntity
8
81
62
256
6
ByLayer
370
18
48
1
60
0
100
AcDbCircle
39
0
10
107
20
0
30
0
40
4.9843
210
0
220
0
230
1
100
AcDbArc
50
80.019437
51
125.128124
0
ARC
5
117
100
AcDbEntity
8
81
62
256
6
ByLayer
370
18
48
1
60
0
100
AcDbCircle
39
0
10
107
20
0
30
0
40
4.9843
210
0
220
0
230
1
100
AcDbArc
50
16.810189
51
76.378993
0
ARC
5
118
100
AcDbEntity
8
81
62
256
6
ByLayer
370
18
48
1
60
0
100
AcDbCircle
39
0
10
107
20
0
30
0
40
4.9843
210
0
220
0
230
1
100
AcDbArc
50
5E-06
51
15.234351
0
ARC
5
119
100
AcDbEntity
8
81
62
256
6
ByLayer
370
18
48
1
60
0
100
AcDbCircle
39
0
10
107
20
0
30
0
40
4.9843
210
0
220
0
230
1
100
AcDbArc
50
275.499415
51
359.049808
0
ARC
5
11A
100
AcDbEntity
8
81
62
256
6
ByLayer
370
18
48
1
60
0
100
AcDbCircle
39
0
10
107
20
0
30
0
40
4.9843
210
0
220
0
230
1
100
AcDbArc
50
234.871876
51
263.346348
0
ARC
5
11B
100
AcDbEntity
8
1
62
256
6
ByLayer
370
18
48
1
60
0
100
AcDbCircle
39
0
10
86.999261
20
5.096
30
0
40
1
210
0
220
0
230
1
100
AcDbArc
50
267.370287
51
270
0
ARC
5
11C
100
AcDbEntity
8
1
62
256
6
ByLayer
370
18
48
1
60
0
100
AcDbCircle
39
0
10
86.999261
20
-5.096
30
0
40
1
210
0
220
0
230
1
100
AcDbArc
50
90
51
92.629713
0
ARC
5
11D
100
AcDbEntity
8
SK2
62
256
6
ByLayer
370
13
48
1
60
0
100
AcDbCircle
39
0
10
176.190803
20
0
30
0
40
187.166044865416
210
0
220
0
230
1
100
AcDbArc
50
177.370802
51
180
0
ARC
5
11E
100
AcDbEntity
8
SK2
62
256
6
ByLayer
370
13
48
1
60
0
100
AcDbCircle
39
0
10
176.190803
20
0
30
0
40
187.166044865416
210
0
220
0
230
1
100
AcDbArc
50
173.396663
51
177.370802
0
ELLIPSE
5
11F
100
AcDbEntity
8
1
62
256
6
ByLayer
370
18
48
1
60
0
100
AcDbEllipse
10
111.660121
20
0.918314
30
0
11
0.160445133571101
21
0.252026775064442
31
0
210
0
220
0
230
1
40
0.079532
41
1.28206015212958
42
2.03845383493958
0
ELLIPSE
5
120
100
AcDbEntity
8
1
62
256
6
ByLayer
370
18
48
1
60
0
100
AcDbEllipse
10
111.654702
20
-1.114427
30
0
11
0.149746769071099
21
-0.252698623012653
31
0
210
0
220
0
230
1
40
0.118759
41
2.22239351440762
42
-1.92276345907029
0
ELLIPSE
5
121
100
AcDbEntity
8
1
62
256
6
ByLayer
370
18
48
1
60
0
100
AcDbEllipse
10
111.660121
20
-0.891594
30
0
11
0.159811039387406
21
-0.251549692487508
31
0
210
0
220
0
230
1
40
0.097768
41
2.89150552121828
42
-1.30429801540986
0
ELLIPSE
5
122
100
AcDbEntity
8
1
62
256
6
ByLayer
370
18
48
1
60
0
100
AcDbEllipse
10
102.322021
20
-15.074736
30
0
11
7.75539114590182
21
9.16640503938958
31
0
210
0
220
0
230
1
40
0.894028
41
0.619491870394841
42
0.71272581599308
0
ELLIPSE
5
123
100
AcDbEntity
8
1
62
256
6
ByLayer
370
18
48
1
60
0
100
AcDbEllipse
10
102.430184
20
6.464507
30
0
11
-11.4955032886695
21
4.2785239348552
31
0
210
0
220
0
230
1
40
0.196411
41
1.70688462559811
42
1.78096240716554
0
ELLIPSE
5
124
100
AcDbEntity
8
1
62
256
6
ByLayer
370
18
48
1
60
0
100
AcDbEllipse
10
102.322017
20
6.173887
30
0
11
-11.2528943835904
21
4.1882270612757
31
0
210
0
220
0
230
1
40
0.196411
41
1.68888512297259
42
1.78211997307551
0
ELLIPSE
5
125
100
AcDbEntity
8
1
62
256
6
ByLayer
370
18
48
1
60
0
100
AcDbEllipse
10
102.430188
20
-15.166252
30
0
11
7.92259319060503
21
9.3640277815995
31
0
210
0
220
0
230
1
40
0.894028
41
0.620649008778371
42
0.694724771961157
0
ELLIPSE
5
126
100
AcDbEntity
8
1
62
256
6
ByLayer
370
18
48
1
60
0
100
AcDbEllipse
10
102.322021
20
-8.467274
30
0
11
-10.6382507428866
21
5.56746749461115
31
0
210
0
220
0
230
1
40
0.675221
41
-1.36947061521216
42
-1.27623666961408
0
ELLIPSE
5
127
100
AcDbEntity
8
1
62
256
6
ByLayer
370
18
48
1
60
0
100
AcDbEllipse
10
102.430188
20
-8.260589
30
0
11
-10.8676056835744
21
5.68749908701009
31
0
210
0
220
0
230
1
40
0.675221
41
-1.36831347682865
42
-1.29423771364579
0
ELLIPSE
5
128
100
AcDbEntity
8
1
62
256
6
ByLayer
370
18
48
1
60
0
100
AcDbEllipse
10
111.920745
20
0
30
0
11
12.7608588377674
21
-0.234730605946912
31
0
210
0
220
0
230
1
40
0.320454
41
-2.62451863203723
42
-2.25173571266813
0
ELLIPSE
5
129
100
AcDbEntity
8
1
62
256
6
ByLayer
370
18
48
1
60
0
100
AcDbEllipse
10
111.920745
20
0
30
0
11
12.7523445518919
21
-3.77227688269921
31
0
210
0
220
0
230
1
40
0.125152
41
-2.59340890790024
42
-2.22062598850263
0
ELLIPSE
5
12A
100
AcDbEntity
8
1
62
256
6
ByLayer
370
18
48
1
60
0
100
AcDbEllipse
10
111.920745
20
0
30
0
11
12.7481619305056
21
-3.53396956989332
31
0
210
0
220
0
230
1
40
0.16244
41
2.30263486263987
42
2.61154600425181
0
ELLIPSE
5
12B
100
AcDbEntity
8
1
62
256
6
ByLayer
370
18
48
1
60
0
100
AcDbEllipse
10
111.920745
20
0
30
0
11
12.7472367922435
21
3.46301495693356
31
0
210
0
220
0
230
1
40
0.171598
41
-2.42279420013063
42
-2.37399463567643
0
ELLIPSE
5
12C
100
AcDbEntity
8
1
62
256
6
ByLayer
370
18
48
1
60
0
100
AcDbEllipse
10
111.920745
20
0
30
0
11
12.7472367922435
21
3.46301495693356
31
0
210
0
220
0
230
1
40
0.171598
41
-2.67699723382506
42
-2.46641567357904
0
POINT
5
70
100
AcDbEntity
8
81
62
256
6
ByLayer
370
18
48
1
60
0
100
AcDbPoint
10
112
20
0
30
0
39
0
210
0
220
0
230
1
50
360
0
POINT
5
72
100
AcDbEntity
8
80
62
256
6
ByLayer
370
18
48
1
60
0
100
AcDbPoint
10
0
20
0
30
0
39
0
210
0
220
0
230
1
50
360
0
POINT
5
74
100
AcDbEntity
8
1
62
256
6
ByLayer
370
18
48
1
60
1
100
AcDbPoint
10
112
20
0
30
0
39
0
210
0
220
0
230
1
50
360
0
POINT
5
76
100
AcDbEntity
8
1
62
256
6
ByLayer
370
18
48
1
60
1
100
AcDbPoint
10
87
20
4.095678
30
0
39
0
210
0
220
0
230
1
50
360
0
POINT
5
77
100
AcDbEntity
8
1
62
256
6
ByLayer
370
18
48
1
60
1
100
AcDbPoint
10
112
20
0
30
0
39
0
210
0
220
0
230
1
50
360
0
POINT
5
78
100
AcDbEntity
8
1
62
256
6
ByLayer
370
18
48
1
60
1
100
AcDbPoint
10
1.976309
20
8
30
0
39
0
210
0
220
0
230
1
50
360
0
POINT
5
79
100
AcDbEntity
8
1
62
256
6
ByLayer
370
18
48
1
60
1
100
AcDbPoint
10
112
20
0
30
0
39
0
210
0
220
0
230
1
50
360
0
POINT
5
7A
100
AcDbEntity
8
1
62
256
6
ByLayer
370
18
48
1
60
1
100
AcDbPoint
10
-48
20
0
30
0
39
0
210
0
220
0
230
1
50
360
0
POINT
5
7B
100
AcDbEntity
8
1
62
256
6
ByLayer
370
18
48
1
60
1
100
AcDbPoint
10
-48
20
0
30
0
39
0
210
0
220
0
230
1
50
360
0
POINT
5
7C
100
AcDbEntity
8
1
62
256
6
ByLayer
370
18
48
1
60
1
100
AcDbPoint
10
0.6
20
-8
30
0
39
0
210
0
220
0
230
1
50
360
0
POINT
5
7D
100
AcDbEntity
8
1
62
256
6
ByLayer
370
18
48
1
60
1
100
AcDbPoint
10
112
20
0
30
0
39
0
210
0
220
0
230
1
50
360
0
POINT
5
7E
100
AcDbEntity
8
1
62
256
6
ByLayer
370
18
48
1
60
1
100
AcDbPoint
10
104.132
20
4.095678
30
0
39
0
210
0
220
0
230
1
50
360
0
SPLINE
5
12D
100
AcDbEntity
8
1
62
256
6
ByLayer
370
18
48
1
60
0
100
AcDbSpline
70
4
71
3
72
8
73
4
40
0
40
0
40
0
40
0
40
1
40
1
40
1
40
1
41
1
10
111.624811587886
20
-0.728337954266465
30
0
41
1
10
111.609311320402
20
-0.753910515697129
30
0
41
1
10
111.59358618654
20
-0.779611576170197
30
0
41
1
10
111.577645056323
20
-0.80542824255113
30
0
0
SPLINE
5
12E
100
AcDbEntity
8
1
62
256
6
ByLayer
370
18
48
1
60
0
100
AcDbSpline
70
4
71
3
72
8
73
4
40
0
40
0
40
0
40
0
40
1
40
1
40
1
40
1
41
1
10
111.978362348502
20
-0.0569374097425168
30
0
41
1
10
111.981448712598
20
-0.057542968269928
30
0
41
1
10
111.984512859451
20
-0.0581486639527782
30
0
41
1
10
111.987554983253
20
-0.0587544955922397
30
0
0
SPLINE
5
12F
100
AcDbEntity
8
1
62
256
6
ByLayer
370
18
48
1
60
0
100
AcDbSpline
70
4
71
3
72
8
73
4
40
0
40
0
40
0
40
0
40
1
40
1
40
1
40
1
41
1
10
108.10234130184
20
4.87300526454581
30
0
41
1
10
108.091354391442
20
4.87567750128414
30
0
41
1
10
108.08024228357
20
4.87839978163947
30
0
41
1
10
108.069007201939
20
4.88117223338597
30
0
0
SPLINE
5
130
100
AcDbEntity
8
1
62
256
6
ByLayer
370
18
48
1
60
0
100
AcDbSpline
70
4
71
3
72
12
73
8
40
0
40
0
40
0
40
0
40
0.249999999999997
40
0.249999999999997
40
0.499999999999994
40
0.499999999999994
40
1
40
1
40
1
40
1
41
1
10
108.118387011574
20
4.85031886491717
30
0
41
1
10
108.112050402311
20
4.85229370841921
30
0
41
1
10
108.105880300937
20
4.85469077224548
30
0
41
1
10
108.093738687627
20
4.85998203881166
30
0
41
1
10
108.087769703492
20
4.86288276280055
30
0
41
1
10
108.070074189842
20
4.87210701811966
30
0
41
1
10
108.058555222529
20
4.87894260411861
30
0
41
1
10
108.047202056479
20
4.88617354095237
30
0
0
SPLINE
5
131
100
AcDbEntity
8
1
62
256
6
ByLayer
370
18
48
1
60
0
100
AcDbSpline
70
4
71
3
72
8
73
4
40
0
40
0
40
0
40
0
40
1
40
1
40
1
40
1
41
1
10
111.74456534894
20
1.43024101806495
30
0
41
1
10
111.770631172615
20
1.35285242946614
30
0
41
1
10
111.794750659026
20
1.27501579233828
30
0
41
1
10
111.816917030389
20
1.19672954642994
30
0
0
SPLINE
5
132
100
AcDbEntity
8
1
62
256
6
ByLayer
370
18
48
1
60
0
100
AcDbSpline
70
4
71
3
72
8
73
4
40
0
40
0
40
0
40
0
40
1
40
1
40
1
40
1
41
1
10
111.494805482075
20
1.33693394596949
30
0
41
1
10
111.578038100008
20
1.36808206276962
30
0
41
1
10
111.661293265382
20
1.39918026630758
30
0
41
1
10
111.74456534894
20
1.43024101806529
30
0
0
SPLINE
5
133
100
AcDbEntity
8
1
62
256
6
ByLayer
370
18
48
1
60
0
100
AcDbSpline
70
4
71
3
72
8
73
4
40
0
40
0
40
0
40
0
40
1
40
1
40
1
40
1
41
1
10
111.653649237459
20
1.67341216263699
30
0
41
1
10
111.686216574619
20
1.59259938562974
30
0
41
1
10
111.716513107295
20
1.51154444100811
30
0
41
1
10
111.74456534894
20
1.43024101806495
30
0
0
SPLINE
5
134
100
AcDbEntity
8
1
62
256
6
ByLayer
370
18
48
1
60
0
100
AcDbSpline
70
4
71
3
72
9
73
5
40
0
40
0
40
0
40
0
40
0.460712770858976
40
1
40
1
40
1
40
1
41
1
10
111.278975034903
20
2.42563069049908
30
0
41
1
10
111.346056649167
20
2.31351774450289
30
0
41
1
10
111.482486651195
20
2.06607029947821
30
0
41
1
10
111.597836738644
20
1.81187618623232
30
0
41
1
10
111.653649237459
20
1.67341216263702
30
0
0
SPLINE
5
135
100
AcDbEntity
8
1
62
256
6
ByLayer
370
18
48
1
60
0
100
AcDbSpline
70
4
71
3
72
36
73
32
40
0
40
0
40
0
40
0
40
0.0624999999999971
40
0.0624999999999971
40
0.0937499999999956
40
0.0937499999999956
40
0.124999999999994
40
0.124999999999994
40
0.187499999999991
40
0.187499999999991
40
0.249999999999988
40
0.249999999999988
40
0.374999999999982
40
0.374999999999982
40
0.437499999999979
40
0.437499999999979
40
0.468749999999978
40
0.468749999999978
40
0.499999999999976
40
0.499999999999976
40
0.624999999999986
40
0.624999999999986
40
0.749999999999996
40
0.749999999999996
40
0.781249999999992
40
0.781249999999992
40
0.812499999999988
40
0.812499999999988
40
0.874999999999992
40
0.874999999999992
40
1
40
1
40
1
40
1
41
1
10
108.102341301848
20
4.87300526454396
30
0
41
1
10
108.17955412128
20
4.85422555985201
30
0
41
1
10
108.256758555207
20
4.8331034456105
30
0
41
1
10
108.372714008071
20
4.79775200774517
30
0
41
1
10
108.411392733486
20
4.78535574186211
30
0
41
1
10
108.488799853335
20
4.75933467277636
30
0
41
1
10
108.527397507354
20
4.74575342620102
30
0
41
1
10
108.642738228556
20
4.70337538616886
30
0
41
1
10
108.719088033692
20
4.67292621824637
30
0
41
1
10
108.870669409801
20
4.60777493473671
30
0
41
1
10
108.945900594594
20
4.5730719168215
30
0
41
1
10
109.169920197329
20
4.46259675628531
30
0
41
1
10
109.317055174093
20
4.3805166097506
30
0
41
1
10
109.534442172295
20
4.24454242555072
30
0
41
1
10
109.606348975161
20
4.19706520751359
30
0
41
1
10
109.713359581894
20
4.12252949277411
30
0
41
1
10
109.748825383332
20
4.09717239296387
30
0
41
1
10
109.819007161765
20
4.04569365057324
30
0
41
1
10
109.853774732298
20
4.0195363124696
30
0
41
1
10
110.026016127369
20
3.88668684907267
30
0
41
1
10
110.158709305824
20
3.77382145397644
30
0
41
1
10
110.414096996071
20
3.53517093143856
30
0
41
1
10
110.536788629109
20
3.40937310635471
30
0
41
1
10
110.683730526064
20
3.24382903874519
30
0
41
1
10
110.712797818261
20
3.21030554390512
30
0
41
1
10
110.770282661129
20
3.14242000290685
30
0
41
1
10
110.798703947206
20
3.10804976791923
30
0
41
1
10
110.882411430275
20
3.00438376889221
30
0
41
1
10
110.936342584852
20
2.93430258872672
30
0
41
1
10
111.092610224214
20
2.72119062057055
30
0
41
1
10
111.18942354006
20
2.57528534948389
30
0
41
1
10
111.278975034903
20
2.42563069049882
30
0
0
SPLINE
5
136
100
AcDbEntity
8
1
62
256
6
ByLayer
370
18
48
1
60
0
100
AcDbSpline
70
4
71
3
72
10
73
6
40
0
40
0
40
0
40
0
40
0.5
40
0.5
40
1
40
1
40
1
40
1
41
1
10
108.118387011631
20
4.85031886489963
30
0
41
1
10
108.207196136389
20
4.82264095141733
30
0
41
1
10
108.295156094857
20
4.79064443269664
30
0
41
1
10
108.469529005085
20
4.71751699774029
30
0
41
1
10
108.556021412969
20
4.67668183597189
30
0
41
1
10
108.642294028691
20
4.63307400294244
30
0
0
SPLINE
5
137
100
AcDbEntity
8
1
62
256
6
ByLayer
370
18
48
1
60
0
100
AcDbSpline
70
4
71
3
72
8
73
4
40
0
40
0
40
0
40
0
40
1
40
1
40
1
40
1
41
1
10
109.470449069379
20
2.85788542311059
30
0
41
1
10
109.557623628763
20
2.72591227990731
30
0
41
1
10
109.64764790554
20
2.595653590186
30
0
41
1
10
109.740735283003
20
2.4672377300908
30
0
0
SPLINE
5
138
100
AcDbEntity
8
1
62
256
6
ByLayer
370
18
48
1
60
0
100
AcDbSpline
70
4
71
3
72
8
73
4
40
0
40
0
40
0
40
0
40
1
40
1
40
1
40
1
41
1
10
111.978362348502
20
-0.0569374097424031
30
0
41
1
10
111.981638252423
20
-0.0585893497824657
30
0
41
1
10
111.984894737307
20
-0.0602410878993851
30
0
41
1
10
111.98813194084
20
-0.0618926255248198
30
0
0
SPLINE
5
139
100
AcDbEntity
8
1
62
256
6
ByLayer
370
18
48
1
60
0
100
AcDbSpline
70
4
71
1
72
4
73
2
40
0
40
0
40
1
40
1
41
1
10
104.135081068982
20
-3.79277502724256
30
0
41
1
10
104.135204305203
20
-3.79262734907462
30
0
0
SPLINE
5
13A
100
AcDbEntity
8
1
62
256
6
ByLayer
370
18
48
1
60
0
100
AcDbSpline
70
4
71
3
72
10
73
6
40
0
40
0
40
0
40
0
40
0.5
40
0.5
40
1
40
1
40
1
40
1
41
1
10
109.071580093586
20
3.09054148801758
30
0
41
1
10
109.136085910469
20
3.04899540207987
30
0
41
1
10
109.201480521468
20
3.00896671320737
30
0
41
1
10
109.334375956874
20
2.93157511117249
30
0
41
1
10
109.401866051619
20
2.89420056629237
30
0
41
1
10
109.470449069379
20
2.85788542311073
30
0
0
SPLINE
5
13B
100
AcDbEntity
8
1
62
256
6
ByLayer
370
18
48
1
60
0
100
AcDbSpline
70
4
71
3
72
8
73
4
40
0
40
0
40
0
40
0
40
1
40
1
40
1
40
1
41
1
10
109.47044906938
20
2.8578854231109
30
0
41
1
10
109.389202570093
20
2.85154282352076
30
0
41
1
10
109.307846461387
20
2.84657774193795
30
0
41
1
10
109.226389098243
20
2.84288517701228
30
0
0
SPLINE
5
13C
100
AcDbEntity
8
1
62
256
6
ByLayer
370
18
48
1
60
0
100
AcDbSpline
70
4
71
3
72
52
73
48
40
0
40
0
40
0
40
0
40
0.124999999999955
40
0.124999999999955
40
0.187499999999933
40
0.187499999999933
40
0.24999999999991
40
0.24999999999991
40
0.374999999999923
40
0.374999999999923
40
0.406249999999901
40
0.406249999999901
40
0.437499999999878
40
0.437499999999878
40
0.499999999999879
40
0.499999999999879
40
0.531249999999898
40
0.531249999999898
40
0.562499999999917
40
0.562499999999917
40
0.593749999999936
40
0.593749999999936
40
0.624999999999955
40
0.624999999999955
40
0.640624999999963
40
0.640624999999963
40
0.656249999999971
40
0.656249999999971
40
0.687499999999974
40
0.687499999999974
40
0.703124999999976
40
0.703124999999976
40
0.718749999999977
40
0.718749999999977
40
0.74999999999998
40
0.74999999999998
40
0.781249999999984
40
0.781249999999984
40
0.812499999999987
40
0.812499999999987
40
0.874999999999991
40
0.874999999999991
40
0.906249999999994
40
0.906249999999994
40
0.937499999999996
40
0.937499999999996
40
1
40
1
40
1
40
1
41
1
10
108.642294028691
20
4.63307400294246
30
0
41
1
10
108.680027095285
20
4.61400107315251
30
0
41
1
10
108.717153976665
20
4.59349773089914
30
0
41
1
10
108.771686604823
20
4.56014053415291
30
0
41
1
10
108.789670202199
20
4.54858600147244
30
0
41
1
10
108.825172826093
20
4.52445827254567
30
0
41
1
10
108.84266610161
20
4.51190054874178
30
0
41
1
10
108.893897686692
20
4.47269853737947
30
0
41
1
10
108.926558773853
20
4.44453056022607
30
0
41
1
10
108.96427970172
20
4.40522978201918
30
0
41
1
10
108.971663594928
20
4.39715877475138
30
0
41
1
10
108.986051249904
20
4.3805204068743
30
0
41
1
10
108.993074737328
20
4.37192726741705
30
0
41
1
10
109.013289533121
20
4.34546514024504
30
0
41
1
10
109.025628579744
20
4.32696932833366
30
0
41
1
10
109.041656303921
20
4.29738060396969
30
0
41
1
10
109.046574654897
20
4.28720001573052
30
0
41
1
10
109.055195826513
20
4.26650314286832
30
0
41
1
10
109.058925642828
20
4.25594249687782
30
0
41
1
10
109.064997017205
20
4.23431554472464
30
0
41
1
10
109.067341611136
20
4.22324074520591
30
0
41
1
10
109.070309450052
20
4.20050459810901
30
0
41
1
10
109.070888200201
20
4.18915885124861
30
0
41
1
10
109.070305090698
20
4.17217596829934
30
0
41
1
10
109.06986856324
20
4.16652097066603
30
0
41
1
10
109.068491728792
20
4.15522337367355
30
0
41
1
10
109.067544333469
20
4.14955100590606
30
0
41
1
10
109.063970701186
20
4.13280410344507
30
0
41
1
10
109.060634038671
20
4.12202371256043
30
0
41
1
10
109.0543240833
20
4.10637819151594
30
0
41
1
10
109.052002879497
20
4.10125069118709
30
0
41
1
10
109.046941680746
20
4.0911641919275
30
0
41
1
10
109.044193707002
20
4.08619545183566
30
0
41
1
10
109.035502562075
20
4.07177573938577
30
0
41
1
10
109.029076177906
20
4.06272167186887
30
0
41
1
10
109.015190594264
20
4.04552756313984
30
0
41
1
10
109.00773022763
20
4.03738856209088
30
0
41
1
10
108.991936472672
20
4.02188449861941
30
0
41
1
10
108.983642955964
20
4.01456498707316
30
0
41
1
10
108.958142654685
20
3.99395475953895
30
0
41
1
10
108.940180712389
20
3.98184867566064
30
0
41
1
10
108.912247100065
20
3.96539097535916
30
0
41
1
10
108.902767514425
20
3.96019414046367
30
0
41
1
10
108.883518819387
20
3.95030087234559
30
0
41
1
10
108.873739222782
20
3.94560138719649
30
0
41
1
10
108.844308036005
20
3.93228672770457
30
0
41
1
10
108.824468887943
20
3.92439492356195
30
0
41
1
10
108.804472184424
20
3.91724526976944
30
0
0
SPLINE
5
13D
100
AcDbEntity
8
1
62
256
6
ByLayer
370
18
48
1
60
0
100
AcDbSpline
70
4
71
3
72
10
73
6
40
0
40
0
40
0
40
0
40
0.5
40
0.5
40
1
40
1
40
1
40
1
41
1
10
111.594556931833
20
-0.627587295030764
30
0
41
1
10
111.592033478432
20
-0.619527427185915
30
0
41
1
10
111.589844570703
20
-0.610715509620064
30
0
41
1
10
111.586370665841
20
-0.591236466710569
30
0
41
1
10
111.585080565785
20
-0.580578098369614
30
0
41
1
10
111.584444780741
20
-0.568671901623361
30
0
0
SPLINE
5
13E
100
AcDbEntity
8
1
62
256
6
ByLayer
370
18
48
1
60
0
100
AcDbSpline
70
4
71
3
72
41
73
37
40
0
40
0
40
0
40
0
40
0.0624999999999726
40
0.0624999999999726
40
0.0937499999999597
40
0.0937499999999597
40
0.124999999999947
40
0.156249999999934
40
0.156249999999934
40
0.187499999999921
40
0.187499999999921
40
0.218749999999908
40
0.218749999999908
40
0.249999999999895
40
0.249999999999895
40
0.281249999999882
40
0.281249999999882
40
0.312499999999869
40
0.312499999999869
40
0.374999999999844
40
0.374999999999844
40
0.406249999999851
40
0.406249999999851
40
0.437499999999859
40
0.437499999999859
40
0.499999999999875
40
0.499999999999875
40
0.562499999999891
40
0.562499999999891
40
0.624999999999906
40
0.624999999999906
40
0.749999999999937
40
0.749999999999937
40
0.874999999999969
40
0.874999999999969
40
1
40
1
40
1
40
1
41
1
10
111.584444780741
20
-0.568671901623361
30
0
41
1
10
111.583129200411
20
-0.558081698913725
30
0
41
1
10
111.582276982826
20
-0.546728693149419
30
0
41
1
10
111.581953827199
20
-0.528185947270345
30
0
41
1
10
111.582008498947
20
-0.521711022975268
30
0
41
1
10
111.582502470566
20
-0.508345592467379
30
0
41
1
10
111.583374912919
20
-0.494632312411596
30
0
41
1
10
111.585096468829
20
-0.480144797409849
30
0
41
1
10
111.587308425766
20
-0.465210989626854
30
0
41
1
10
111.588678633075
20
-0.457439228877263
30
0
41
1
10
111.591873165541
20
-0.44195200613737
30
0
41
1
10
111.593697179935
20
-0.434206679735809
30
0
41
1
10
111.597803672177
20
-0.418711340968969
30
0
41
1
10
111.600109133631
20
-0.410898897581433
30
0
41
1
10
111.605011877142
20
-0.395791722213971
30
0
41
1
10
111.607618199037
20
-0.388448288490707
30
0
41
1
10
111.613104323679
20
-0.374140971266655
30
0
41
1
10
111.616001836252
20
-0.367142568194851
30
0
41
1
10
111.62480537255
20
-0.347228843193079
30
0
41
1
10
111.630884806604
20
-0.335186655300731
30
0
41
1
10
111.640191460394
20
-0.318469911188259
30
0
41
1
10
111.643315247701
20
-0.313147054569527
30
0
41
1
10
111.649499126357
20
-0.303076059389724
30
0
41
1
10
111.652574060076
20
-0.298301356334946
30
0
41
1
10
111.66174647079
20
-0.284637406862117
30
0
41
1
10
111.667791544813
20
-0.276402205297956
30
0
41
1
10
111.679734771044
20
-0.261265613758127
30
0
41
1
10
111.685631540337
20
-0.254375172457571
30
0
41
1
10
111.697067514815
20
-0.241886486662793
30
0
41
1
10
111.702638559362
20
-0.236248877932383
30
0
41
1
10
111.718959413813
20
-0.220786614861396
30
0
41
1
10
111.729319495196
20
-0.212393876944191
30
0
41
1
10
111.749138672739
20
-0.198347141740783
30
0
41
1
10
111.758594973454
20
-0.192714390024605
30
0
41
1
10
111.776491636674
20
-0.1837088426511
30
0
41
1
10
111.784962598793
20
-0.180318275820866
30
0
41
1
10
111.793000400422
20
-0.177835048662615
30
0
0
SPLINE
5
13F
100
AcDbEntity
8
1
62
256
6
ByLayer
370
18
48
1
60
0
100
AcDbSpline
70
4
71
3
72
16
73
12
40
0
40
0
40
0
40
0
40
0.250000000000026
40
0.250000000000026
40
0.500000000000053
40
0.500000000000053
40
0.625000000000039
40
0.625000000000039
40
0.750000000000026
40
0.750000000000026
40
1
40
1
40
1
40
1
41
1
10
104.135081068982
20
-3.79277502724256
30
0
41
1
10
104.220900910142
20
-3.85828245227856
30
0
41
1
10
104.306338279786
20
-3.9219945668292
30
0
41
1
10
104.477496191409
20
-4.04545967511626
30
0
41
1
10
104.563205909906
20
-4.10521674450354
30
0
41
1
10
104.692526895942
20
-4.19159312682183
30
0
41
1
10
104.735758417019
20
-4.2198418687961
30
0
41
1
10
104.822549234096
20
-4.27520279607484
30
0
41
1
10
104.866167484721
20
-4.30234924136886
30
0
41
1
10
104.997037080587
20
-4.38164655398325
30
0
41
1
10
105.084378599947
20
-4.43171172327902
30
0
41
1
10
105.172136585366
20
-4.47891376688577
30
0
0
SPLINE
5
140
100
AcDbEntity
8
1
62
256
6
ByLayer
370
18
48
1
60
0
100
AcDbSpline
70
4
71
3
72
8
73
4
40
0
40
0
40
0
40
0
40
1
40
1
40
1
40
1
41
1
10
104.135081068982
20
-3.79277502724256
30
0
41
1
10
104.134054203445
20
-3.79195539339165
30
0
41
1
10
104.133027180113
20
-3.79113596303844
30
0
41
1
10
104.132
20
-3.79031673756015
30
0
0
SPLINE
5
141
100
AcDbEntity
8
1
62
256
6
ByLayer
370
18
48
1
60
0
100
AcDbSpline
70
4
71
1
72
4
73
2
40
0
40
0
40
1
40
1
41
1
10
104.135204305203
20
-3.79262734907462
30
0
41
1
10
104.263707699996
20
-3.63607782225861
30
0
0
SPLINE
5
142
100
AcDbEntity
8
1
62
256
6
ByLayer
370
18
48
1
60
0
100
AcDbSpline
70
4
71
3
72
12
73
8
40
0
40
0
40
0
40
0
40
0.25
40
0.25
40
0.5
40
0.5
40
1
40
1
40
1
40
1
41
1
10
111.494805482061
20
1.3369339459791
30
0
41
1
10
111.489767583585
20
1.33504861479471
30
0
41
1
10
111.484498179416
20
1.33436612090472
30
0
41
1
10
111.473788441387
20
1.33388923502903
30
0
41
1
10
111.468399928701
20
1.33415678359
30
0
41
1
10
111.452510501596
20
1.33569560213795
30
0
41
1
10
111.442084548078
20
1.33769591966271
30
0
41
1
10
111.431725443477
20
1.34008630295455
30
0
0
SPLINE
5
143
100
AcDbEntity
8
1
62
256
6
ByLayer
370
18
48
1
60
0
100
AcDbSpline
70
4
71
3
72
38
73
34
40
0
40
0
40
0
40
0
40
0.124999999999993
40
0.124999999999993
40
0.249999999999987
40
0.249999999999987
40
0.37499999999998
40
0.37499999999998
40
0.499999999999973
40
0.499999999999973
40
0.56249999999998
40
0.56249999999998
40
0.624999999999987
40
0.624999999999987
40
0.749999999999985
40
0.749999999999985
40
0.812499999999989
40
0.812499999999989
40
0.874999999999992
40
0.874999999999992
40
0.906249999999994
40
0.906249999999994
40
0.937499999999995
40
0.937499999999995
40
0.953124999999996
40
0.953124999999996
40
0.968749999999997
40
0.968749999999997
40
0.976562499999997
40
0.976562499999997
40
0.984374999999998
40
0.984374999999998
40
1
40
1
40
1
40
1
41
1
10
109.071579049948
20
3.09054216019066
30
0
41
1
10
109.039679652711
20
3.11108752930517
30
0
41
1
10
109.010580003192
20
3.13355423128723
30
0
41
1
10
108.957246163191
20
3.18253389844603
30
0
41
1
10
108.933019757551
20
3.20905125784125
30
0
41
1
10
108.888969058336
20
3.26658929564195
30
0
41
1
10
108.869532772113
20
3.2971086520983
30
0
41
1
10
108.835096186756
20
3.36165769748064
30
0
41
1
10
108.820074723294
20
3.39571095985508
30
0
41
1
10
108.80040689554
20
3.44966619657936
30
0
41
1
10
108.794321958058
20
3.46816075835989
30
0
41
1
10
108.783115650981
20
3.50603898400962
30
0
41
1
10
108.778022736175
20
3.52531670518843
30
0
41
1
10
108.764223041627
20
3.58420442901135
30
0
41
1
10
108.756913615667
20
3.6248377860409
30
0
41
1
10
108.749511269444
20
3.6883408544723
30
0
41
1
10
108.747644666142
20
3.71000475891376
30
0
41
1
10
108.745735312226
20
3.75394259723819
30
0
41
1
10
108.745643073444
20
3.77632643996398
30
0
41
1
10
108.748063528419
20
3.81011605889356
30
0
41
1
10
108.74930114185
20
3.82142360375352
30
0
41
1
10
108.753232845229
20
3.84414474990712
30
0
41
1
10
108.755905169588
20
3.85552893325786
30
0
41
1
10
108.761878977423
20
3.87211136715035
30
0
41
1
10
108.764214712505
20
3.87756028740418
30
0
41
1
10
108.769694349855
20
3.88787982444697
30
0
41
1
10
108.772847773747
20
3.89279124021397
30
0
41
1
10
108.778467358774
20
3.89962466575554
30
0
41
1
10
108.780492203497
20
3.90180744819128
30
0
41
1
10
108.78473088188
20
3.90581169198373
30
0
41
1
10
108.786960545751
20
3.9076538032501
30
0
41
1
10
108.793994092198
20
3.91268268585702
30
0
41
1
10
108.799145110078
20
3.91534061896786
30
0
41
1
10
108.804472185027
20
3.91724526998533
30
0
0
SPLINE
5
144
100
AcDbEntity
8
1
62
256
6
ByLayer
370
18
48
1
60
0
100
AcDbSpline
70
4
71
3
72
24
73
20
40
0
40
0
40
0
40
0
40
0.140965492968989
40
0.140965492968989
40
0.226868943672
40
0.226868943672
40
0.31277239437501
40
0.31277239437501
40
0.484579295781329
40
0.484579295781329
40
0.570482746484325
40
0.570482746484325
40
0.65638619718732
40
0.65638619718732
40
0.82819309859366
40
0.82819309859366
40
0.91409654929683
40
0.91409654929683
40
1
40
1
40
1
40
1
41
1
10
111.227530957488
20
1.27167139300499
30
0
41
1
10
111.234932518116
20
1.27745848716276
30
0
41
1
10
111.242664770225
20
1.28322079631059
30
0
41
1
10
111.255694703018
20
1.29234763204923
30
0
41
1
10
111.260764307506
20
1.29576892027839
30
0
41
1
10
111.271201074002
20
1.30249946868051
30
0
41
1
10
111.276590509937
20
1.30582149295782
30
0
41
1
10
111.293058260049
20
1.31541968079196
30
0
41
1
10
111.304427052044
20
1.32134054240666
30
0
41
1
10
111.322207549123
20
1.32908226515448
30
0
41
1
10
111.328256470093
20
1.33147079225455
30
0
41
1
10
111.340634772908
20
1.33576011641153
30
0
41
1
10
111.346999410685
20
1.33766774635717
30
0
41
1
10
111.36620469626
20
1.34237863766003
30
0
41
1
10
111.379205992005
20
1.34419301050883
30
0
41
1
10
111.399021112685
20
1.34446359058725
30
0
41
1
10
111.40571327727
20
1.34413819142867
30
0
41
1
10
111.418848522143
20
1.34268503065192
30
0
41
1
10
111.425327589717
20
1.34156262000371
30
0
41
1
10
111.431725443477
20
1.34008630295486
30
0
0
SPLINE
5
145
100
AcDbEntity
8
1
62
256
6
ByLayer
370
18
48
1
60
0
100
AcDbSpline
70
4
71
3
72
8
73
4
40
0
40
0
40
0
40
0
40
1
40
1
40
1
40
1
41
1
10
111.698521102935
20
-1.27499629626476
30
0
41
1
10
111.708028647387
20
-1.29320167173219
30
0
41
1
10
111.71751044336
20
-1.31137613866767
30
0
41
1
10
111.726967087619
20
-1.32952041342958
30
0
0
SPLINE
5
146
100
AcDbEntity
8
1
62
256
6
ByLayer
370
18
48
1
60
0
100
AcDbSpline
70
4
71
3
72
8
73
4
40
0
40
0
40
0
40
0
40
1
40
1
40
1
40
1
41
1
10
111.678483047834
20
-0.972914137735415
30
0
41
1
10
111.678899140289
20
-0.977101879779354
30
0
41
1
10
111.679256425829
20
-0.98119988518863
30
0
41
1
10
111.679552693955
20
-0.985204780841286
30
0
0
SPLINE
5
147
100
AcDbEntity
8
1
62
256
6
ByLayer
370
18
48
1
60
0
100
AcDbSpline
70
4
71
3
72
8
73
4
40
0
40
0
40
0
40
0
40
1
40
1
40
1
40
1
41
1
10
111.594556931833
20
-0.627587295030793
30
0
41
1
10
111.605441931925
20
-0.662353802799828
30
0
41
1
10
111.615565014992
20
-0.695993830487879
30
0
41
1
10
111.624811587886
20
-0.728337954266493
30
0
0
SPLINE
5
148
100
AcDbEntity
8
1
62
256
6
ByLayer
370
18
48
1
60
0
100
AcDbSpline
70
4
71
3
72
8
73
4
40
0
40
0
40
0
40
0
40
1
40
1
40
1
40
1
41
1
10
104.132
20
3.81299626990574
30
0
41
1
10
104.030915528825
20
3.84216988436583
30
0
41
1
10
103.929916187628
20
3.87187510776664
30
0
41
1
10
103.829001903368
20
3.90211148399689
30
0
0
SPLINE
5
149
100
AcDbEntity
8
1
62
256
6
ByLayer
370
18
48
1
60
0
100
AcDbSpline
70
4
71
3
72
10
73
6
40
0
40
0
40
0
40
0
40
0.5
40
0.5
40
1
40
1
40
1
40
1
41
1
10
102.70721137296
20
-3.6344222251044
30
0
41
1
10
102.896738556748
20
-3.62174613111108
30
0
41
1
10
103.087990014131
20
-3.61271470636697
30
0
41
1
10
103.473594788988
20
-3.60222133916247
30
0
41
1
10
103.667944469546
20
-3.60076128211125
30
0
41
1
10
103.863548653241
20
-3.60330611612866
30
0
0
SPLINE
5
14A
100
AcDbEntity
8
1
62
256
6
ByLayer
370
18
48
1
60
0
100
AcDbSpline
70
4
71
3
72
8
73
4
40
0
40
0
40
0
40
0
40
1
40
1
40
1
40
1
41
1
10
104.132
20
-3.79031673755975
30
0
41
1
10
104.042644506583
20
-3.72481199383881
30
0
41
1
10
103.953169192951
20
-3.6622660021344
30
0
41
1
10
103.863548653241
20
-3.60330611612864
30
0
0
SPLINE
5
14B
100
AcDbEntity
8
1
62
256
6
ByLayer
370
18
48
1
60
0
100
AcDbSpline
70
4
71
3
72
12
73
8
40
0
40
0
40
0
40
0
40
0.5000000000001
40
0.5000000000001
40
0.75000000000005
40
0.75000000000005
40
1
40
1
40
1
40
1
41
1
10
104.132
20
3.2343545615102
30
0
41
1
10
104.087367116434
20
3.21159521363308
30
0
41
1
10
104.042675486855
20
3.18756146794746
30
0
41
1
10
103.975542134223
20
3.14943027784474
30
0
41
1
10
103.953148333077
20
3.13637242016279
30
0
41
1
10
103.908326933917
20
3.10952353748442
30
0
41
1
10
103.885901801647
20
3.09573303485757
30
0
41
1
10
103.863551363085
20
3.08161327535601
30
0
0
SPLINE
5
14C
100
AcDbEntity
8
1
62
256
6
ByLayer
370
18
48
1
60
0
100
AcDbSpline
70
4
71
3
72
10
73
6
40
0
40
0
40
0
40
0
40
0.5
40
0.5
40
1
40
1
40
1
40
1
41
1
10
102.707223521227
20
3.45310188077457
30
0
41
1
10
102.896749281339
20
3.38146142170166
30
0
41
1
10
103.087999235552
20
3.3149243437262
30
0
41
1
10
103.473600856898
20
3.19139913030651
30
0
41
1
10
103.667948887457
20
3.13440371145896
30
0
41
1
10
103.863551363085
20
3.08161327535603
30
0
0
SPLINE
5
14D
100
AcDbEntity
8
1
62
256
6
ByLayer
370
18
48
1
60
0
100
AcDbSpline
70
4
71
3
72
8
73
4
40
0
40
0
40
0
40
0
40
1
40
1
40
1
40
1
41
1
10
109.421967186505
20
-3.86967506255897
30
0
41
1
10
109.385227519014
20
-3.97222281517705
30
0
41
1
10
109.345467986666
20
-4.07484385019143
30
0
41
1
10
109.301916058155
20
-4.1775569168544
30
0
0
SPLINE
5
14E
100
AcDbEntity
8
1
62
256
6
ByLayer
370
18
48
1
60
0
100
AcDbSpline
70
4
71
3
72
8
73
4
40
0
40
0
40
0
40
0
40
1
40
1
40
1
40
1
41
1
10
104.338867805767
20
-3.02230527092365
30
0
41
1
10
104.413447962324
20
-3.10569789210391
30
0
41
1
10
104.486895846067
20
-3.1896247946006
30
0
41
1
10
104.559224481394
20
-3.27407983263944
30
0
0
SPLINE
5
14F
100
AcDbEntity
8
1
62
256
6
ByLayer
370
18
48
1
60
0
100
AcDbSpline
70
4
71
3
72
24
73
20
40
0
40
0
40
0
40
0
40
0.25
40
0.25
40
0.499999999999999
40
0.499999999999999
40
0.624999999999999
40
0.624999999999999
40
0.687499999999999
40
0.687499999999999
40
0.75
40
0.75
40
0.8125
40
0.8125
40
0.875
40
0.875
40
0.9375
40
0.9375
40
1
40
1
40
1
40
1
41
1
10
109.303933690199
20
-3.72646542883217
30
0
41
1
10
109.320466793047
20
-3.73118480611211
30
0
41
1
10
109.336412115055
20
-3.73680088767716
30
0
41
1
10
109.366557585324
20
-3.75069544585057
30
0
41
1
10
109.380846501109
20
-3.75900315010279
30
0
41
1
10
109.399394027777
20
-3.77449232547016
30
0
41
1
10
109.40510936155
20
-3.78017273626415
30
0
41
1
10
109.412667861084
20
-3.7898168166748
30
0
41
1
10
109.415016542178
20
-3.7932206757838
30
0
41
1
10
109.419281214333
20
-3.80050755736721
30
0
41
1
10
109.421208828558
20
-3.80441951162507
30
0
41
1
10
109.424431472821
20
-3.81272048684511
30
0
41
1
10
109.425724801907
20
-3.81709148413663
30
0
41
1
10
109.427531283094
20
-3.82637448608247
30
0
41
1
10
109.428043455955
20
-3.8313397544415
30
0
41
1
10
109.428079656808
20
-3.8416605623265
30
0
41
1
10
109.427613199821
20
-3.84699639979709
30
0
41
1
10
109.425614700971
20
-3.85805386867804
30
0
41
1
10
109.424063193529
20
-3.8638246523343
30
0
41
1
10
109.421967176706
20
-3.86967506283759
30
0
0
SPLINE
5
150
100
AcDbEntity
8
1
62
256
6
ByLayer
370
18
48
1
60
0
100
AcDbSpline
70
4
71
3
72
8
73
4
40
0
40
0
40
0
40
0
40
1
40
1
40
1
40
1
41
1
10
104.338867805767
20
-3.02230527092365
30
0
41
1
10
104.269834440368
20
-3.0214130797809
30
0
41
1
10
104.200874282661
20
-3.02089991200791
30
0
41
1
10
104.132
20
-3.02074628837525
30
0
0
SPLINE
5
151
100
AcDbEntity
8
1
62
256
6
ByLayer
370
18
48
1
60
0
100
AcDbSpline
70
4
71
3
72
8
73
4
40
0
40
0
40
0
40
0
40
1
40
1
40
1
40
1
41
1
10
111.753469912156
20
-1.17659118982877
30
0
41
1
10
111.740951208205
20
-1.20596567538953
30
0
41
1
10
111.728267140147
20
-1.23520815449908
30
0
41
1
10
111.715419815947
20
-1.26432030989903
30
0
0
SPLINE
5
152
100
AcDbEntity
8
1
62
256
6
ByLayer
370
18
48
1
60
0
100
AcDbSpline
70
4
71
3
72
8
73
4
40
0
40
0
40
0
40
0
40
1
40
1
40
1
40
1
41
1
10
111.474841363705
20
-1.75962695386227
30
0
41
1
10
111.449450019536
20
-1.80735139098076
30
0
41
1
10
111.423617582551
20
-1.85463636121668
30
0
41
1
10
111.397344305572
20
-1.90148211645922
30
0
0
SPLINE
5
153
100
AcDbEntity
8
1
62
256
6
ByLayer
370
18
48
1
60
0
100
AcDbSpline
70
4
71
3
72
33
73
29
40
0
40
0
40
0
40
0
40
0.125
40
0.125
40
0.156250000000005
40
0.156250000000005
40
0.187500000000011
40
0.187500000000011
40
0.250000000000021
40
0.250000000000021
40
0.375000000000043
40
0.375000000000043
40
0.437500000000046
40
0.437500000000046
40
0.46875000000004
40
0.46875000000004
40
0.500000000000034
40
0.500000000000034
40
0.625000000000025
40
0.625000000000025
40
0.750000000000017
40
0.750000000000017
40
0.78125000000002
40
0.78125000000002
40
0.812500000000022
40
0.875000000000008
40
0.875000000000008
40
1
40
1
40
1
40
1
41
1
10
111.397344305572
20
-1.90148211645925
30
0
41
1
10
111.350783025578
20
-2.01854843587702
30
0
41
1
10
111.297611447963
20
-2.13580588744136
30
0
41
1
10
111.222595329209
20
-2.28262496679938
30
0
41
1
10
111.207156614053
20
-2.31200605123556
30
0
41
1
10
111.175404384497
20
-2.37077461642283
30
0
41
1
10
111.159183799597
20
-2.39999034734018
30
0
41
1
10
111.109504063639
20
-2.48713943463795
30
0
41
1
10
111.075035148815
20
-2.54457870643915
30
0
41
1
10
110.967567956094
20
-2.71490971569205
30
0
41
1
10
110.890498052551
20
-2.82580917781271
30
0
41
1
10
110.7665754654
20
-2.98808844576376
30
0
41
1
10
110.723888527212
20
-3.04150658039785
30
0
41
1
10
110.657712250461
20
-3.12058379318589
30
0
41
1
10
110.635261426574
20
-3.14680410884319
30
0
41
1
10
110.589767439719
20
-3.19871627749944
30
0
41
1
10
110.566805642454
20
-3.22431711472368
30
0
41
1
10
110.450936250982
20
-3.35056758051914
30
0
41
1
10
110.354855390751
20
-3.44596919501069
30
0
41
1
10
110.15620740328
20
-3.6260452992251
30
0
41
1
10
110.053582227011
20
-3.71062378624086
30
0
41
1
10
109.921128858306
20
-3.80944732176553
30
0
41
1
10
109.894469118281
20
-3.82883480221068
30
0
41
1
10
109.841162823863
20
-3.8666038226755
30
0
41
1
10
109.761073974629
20
-3.92186075907793
30
0
41
1
10
109.680601639317
20
-3.97297903258024
30
0
41
1
10
109.51915821713
20
-4.06983294716966
30
0
41
1
10
109.41086696586
20
-4.12725450786314
30
0
41
1
10
109.301916058169
20
-4.1775569168544
30
0
0
SPLINE
5
154
100
AcDbEntity
8
1
62
256
6
ByLayer
370
18
48
1
60
0
100
AcDbSpline
70
4
71
3
72
62
73
58
40
0
40
0
40
0
40
0
40
0.0312500000000262
40
0.0468750000000392
40
0.0468750000000392
40
0.0625000000000522
40
0.0625000000000522
40
0.125000000000104
40
0.125000000000104
40
0.187500000000156
40
0.187500000000156
40
0.203125000000169
40
0.203125000000169
40
0.218750000000182
40
0.218750000000182
40
0.250000000000208
40
0.250000000000208
40
0.281250000000234
40
0.281250000000234
40
0.296875000000241
40
0.296875000000241
40
0.300781250000242
40
0.300781250000242
40
0.302734375000236
40
0.302734375000236
40
0.304687500000231
40
0.304687500000231
40
0.312500000000234
40
0.375000000000232
40
0.375000000000232
40
0.406250000000231
40
0.406250000000231
40
0.437500000000231
40
0.437500000000231
40
0.45312500000023
40
0.45312500000023
40
0.46875000000023
40
0.46875000000023
40
0.500000000000216
40
0.500000000000216
40
0.56250000000019
40
0.56250000000019
40
0.625000000000163
40
0.625000000000163
40
0.687500000000136
40
0.687500000000136
40
0.718750000000122
40
0.718750000000122
40
0.750000000000109
40
0.750000000000109
40
0.812500000000081
40
0.812500000000081
40
0.875000000000054
40
0.875000000000054
40
0.937500000000027
40
0.937500000000027
40
1
40
1
40
1
40
1
41
1
10
109.301916058169
20
-4.17755691685238
30
0
41
1
10
109.250674555537
20
-4.20644035467404
30
0
41
1
10
109.172961740629
20
-4.24805999236492
30
0
41
1
10
109.093922150477
20
-4.2870496654146
30
0
41
1
10
109.040928033264
20
-4.3124493994487
30
0
41
1
10
109.014238825109
20
-4.32487074959053
30
0
41
1
10
108.880826175557
20
-4.38511653536068
30
0
41
1
10
108.773833332845
20
-4.42758073025644
30
0
41
1
10
108.558955497721
20
-4.50157841203455
30
0
41
1
10
108.451071174083
20
-4.53310605966854
30
0
41
1
10
108.315406322307
20
-4.56566052251912
30
0
41
1
10
108.288232758957
20
-4.57182749844392
30
0
41
1
10
108.233797598898
20
-4.58346873861623
30
0
41
1
10
108.206558818458
20
-4.58893636329523
30
0
41
1
10
108.12516126287
20
-4.60422189991019
30
0
41
1
10
108.071171854507
20
-4.61295929859836
30
0
41
1
10
107.963659023495
20
-4.62763746168477
30
0
41
1
10
107.910136468362
20
-4.6335723033844
30
0
41
1
10
107.830146759675
20
-4.64043101639763
30
0
41
1
10
107.803531639035
20
-4.64238443169774
30
0
41
1
10
107.77032175962
20
-4.64438034216997
30
0
41
1
10
107.763682789252
20
-4.64475675911766
30
0
41
1
10
107.753727600138
20
-4.64529668588682
30
0
41
1
10
107.750410879946
20
-4.64546312408038
30
0
41
1
10
107.743750629172
20
-4.64601725683087
30
0
41
1
10
107.740420618659
20
-4.64629414271599
30
0
41
1
10
107.723774772985
20
-4.64764761294225
30
0
41
1
10
107.604027909511
20
-4.65664903050654
30
0
41
1
10
107.485126414277
20
-4.65932009179789
30
0
41
1
10
107.327257817849
20
-4.65555204022866
30
0
41
1
10
107.274747149754
20
-4.65306729598231
30
0
41
1
10
107.169897157173
20
-4.64567563247235
30
0
41
1
10
107.117555534842
20
-4.6407960388695
30
0
41
1
10
107.039145468999
20
-4.631547532469
30
0
41
1
10
107.013024504824
20
-4.6281562713007
30
0
41
1
10
106.960791320168
20
-4.62096432280939
30
0
41
1
10
106.934730740905
20
-4.617114003003
30
0
41
1
10
106.85689469885
20
-4.60462229714835
30
0
41
1
10
106.805386035507
20
-4.59511608330487
30
0
41
1
10
106.651898704368
20
-4.56316578615676
30
0
41
1
10
106.550955987097
20
-4.53729482275108
30
0
41
1
10
106.351383371956
20
-4.47672661015707
30
0
41
1
10
106.252751852267
20
-4.44203583821317
30
0
41
1
10
106.057438135716
20
-4.3639768204954
30
0
41
1
10
105.960758829934
20
-4.32060177746206
30
0
41
1
10
105.816997852261
20
-4.24896418363474
30
0
41
1
10
105.769188392672
20
-4.22393317045814
30
0
41
1
10
105.67465510631
20
-4.1720507755461
30
0
41
1
10
105.627891029181
20
-4.14518321033952
30
0
41
1
10
105.48902380055
20
-4.06187420670059
30
0
41
1
10
105.398285033097
20
-4.00281450447042
30
0
41
1
10
105.220500244239
20
-3.87739935719307
30
0
41
1
10
105.133489442539
20
-3.81099189098015
30
0
41
1
10
104.963101511769
20
-3.67073349165204
30
0
41
1
10
104.879719948636
20
-3.59688957653538
30
0
41
1
10
104.716650073037
20
-3.44144084983898
30
0
41
1
10
104.63694591947
20
-3.35986002728311
30
0
41
1
10
104.559224481394
20
-3.27407983263947
30
0
0
SPLINE
5
155
100
AcDbEntity
8
1
62
256
6
ByLayer
370
18
48
1
60
0
100
AcDbSpline
70
4
71
1
72
4
73
2
40
0
40
0
40
1
40
1
41
1
10
104.263707699996
20
-3.63607782225861
30
0
41
1
10
104.559224481394
20
-3.27407983263944
30
0
0
SPLINE
5
156
100
AcDbEntity
8
1
62
256
6
ByLayer
370
18
48
1
60
0
100
AcDbSpline
70
4
71
3
72
33
73
29
40
0
40
0
40
0
40
0
40
0.0279894944916315
40
0.0846865514146195
40
0.1492246698601
40
0.214161692383438
40
0.257526072743654
40
0.279169060247859
40
0.322387361019232
40
0.416094958048339
40
0.560631464667453
40
0.661991451543229
40
0.67648038590607
40
0.690971932971889
40
0.708973678687657
40
0.726975821340742
40
0.780995010727889
40
0.844073497436055
40
0.872258076859152
40
0.882692384279974
40
0.884739020531806
40
0.885364969461794
40
0.886175436716049
40
0.891032623704693
40
0.899822278233248
40
0.949938654227002
40
0.989609562255713
40
1
40
1
40
1
40
1
41
1
10
104.263707699996
20
-3.63607782225861
30
0
41
1
10
104.300334915112
20
-3.66401659250349
30
0
41
1
10
104.410709952879
20
-3.74782796111614
30
0
41
1
10
104.603135216049
20
-3.89071580104971
30
0
41
1
10
104.841618037801
20
-4.05860698877564
30
0
41
1
10
105.062877179169
20
-4.20273369619156
30
0
41
1
10
105.229724178547
20
-4.30280187298712
30
0
41
1
10
105.36967213799
20
-4.38191635106122
30
0
41
1
10
105.576388722898
20
-4.49111902846849
30
0
41
1
10
105.948828517348
20
-4.65825451687653
30
0
41
1
10
106.406818224016
20
-4.80108417842112
30
0
41
1
10
106.762541913574
20
-4.86173928677346
30
0
41
1
10
106.941324446664
20
-4.88032740847234
30
0
41
1
10
107.005772848218
20
-4.88598273674142
30
0
41
1
10
107.075376654605
20
-4.89073944352978
30
0
41
1
10
107.199455811229
20
-4.89670173145919
30
0
41
1
10
107.385985822572
20
-4.89801969863331
30
0
41
1
10
107.586750747842
20
-4.88606180014486
30
0
41
1
10
107.727166529791
20
-4.87042361648136
30
0
41
1
10
107.783248758143
20
-4.8629503890586
30
0
41
1
10
107.801323809027
20
-4.8604129394084
30
0
41
1
10
107.806144564488
20
-4.8597288670797
30
0
41
1
10
107.815096138591
20
-4.8584582088987
30
0
41
1
10
107.83562181577
20
-4.85546464619222
30
0
41
1
10
107.926103262508
20
-4.84161877467594
30
0
41
1
10
108.06564142695
20
-4.8156161576432
30
0
41
1
10
108.206862913516
20
-4.78215830438083
30
0
41
1
10
108.277234544767
20
-4.76347493152747
30
0
41
1
10
108.291831025642
20
-4.75951298857504
30
0
0
SPLINE
5
157
100
AcDbEntity
8
1
62
256
6
ByLayer
370
18
48
1
60
0
100
AcDbSpline
70
4
71
3
72
8
73
4
40
0
40
0
40
0
40
0
40
1
40
1
40
1
40
1
41
1
10
111.781234825169
20
-1.19267841316972
30
0
41
1
10
111.771982020421
20
-1.18731963339863
30
0
41
1
10
111.762729192755
20
-1.18196082467722
30
0
41
1
10
111.753469912156
20
-1.17659118982877
30
0
0
SPLINE
5
158
100
AcDbEntity
8
1
62
256
6
ByLayer
370
18
48
1
60
0
100
AcDbSpline
70
4
71
3
72
14
73
10
40
0
40
0
40
0
40
0
40
0.25
40
0.25
40
0.5
40
0.5
40
0.75
40
0.75
40
1
40
1
40
1
40
1
41
1
10
109.139325343179
20
-3.6435904667438
30
0
41
1
10
109.150688877305
20
-3.65363871437492
30
0
41
1
10
109.162853835514
20
-3.66268203522287
30
0
41
1
10
109.188451448123
20
-3.67917907960822
30
0
41
1
10
109.201870498911
20
-3.68661772847889
30
0
41
1
10
109.229636504862
20
-3.70012397243673
30
0
41
1
10
109.244002594338
20
-3.70619898976079
30
0
41
1
10
109.273442835031
20
-3.71716842113952
30
0
41
1
10
109.288530214011
20
-3.72206851651291
30
0
41
1
10
109.303933690938
20
-3.72646542905099
30
0
0
SPLINE
5
159
100
AcDbEntity
8
1
62
256
6
ByLayer
370
18
48
1
60
0
100
AcDbSpline
70
4
71
3
72
12
73
8
40
0
40
0
40
0
40
0
40
0.5
40
0.5
40
0.75
40
0.75
40
1
40
1
40
1
40
1
41
1
10
109.322580604894
20
-2.81850259077299
30
0
41
1
10
109.278726097285
20
-2.95911378321216
30
0
41
1
10
109.240255390756
20
-3.09889545293907
30
0
41
1
10
109.193357357921
20
-3.30598398354024
30
0
41
1
10
109.179555807633
20
-3.37448558019653
30
0
41
1
10
109.156152358273
20
-3.51009063756663
30
0
41
1
10
109.146542886433
20
-3.57722340061133
30
0
41
1
10
109.139325342835
20
-3.64359046680977
30
0
0
SPLINE
5
15A
100
AcDbEntity
8
1
62
256
6
ByLayer
370
18
48
1
60
0
100
AcDbSpline
70
4
71
3
72
12
73
8
40
0
40
0
40
0
40
0
40
0.0179387870855728
40
0.214351029668458
40
0.410763272251344
40
0.607175514834229
40
1
40
1
40
1
40
1
41
1
10
109.1393253432
20
-3.64359046678092
30
0
41
1
10
109.109383562133
20
-3.64013524566067
30
0
41
1
10
108.751608447733
20
-3.59807072350699
30
0
41
1
10
108.066
20
-3.49969606938666
30
0
41
1
10
107.0825
20
-3.31376717191725
30
0
41
1
10
105.771166666667
20
-3.00923924304189
30
0
41
1
10
104.787666666667
20
-2.72111471909841
30
0
41
1
10
104.132
20
-2.50593360085361
30
0
0
SPLINE
5
15B
100
AcDbEntity
8
1
62
256
6
ByLayer
370
18
48
1
60
0
100
AcDbSpline
70
4
71
3
72
10
73
6
40
0
40
0
40
0
40
0
40
0.0713493713684144
40
0.852555479144179
40
1
40
1
40
1
40
1
41
1
10
109.1393253432
20
2.68596114774067
30
0
41
1
10
109.109383562133
20
2.6951382272288
30
0
41
1
10
108.751608447733
20
2.80422380010933
30
0
41
1
10
108.331958204257
20
2.92408126738206
30
0
41
1
10
107.942249741847
20
3.0263395005633
30
0
41
1
10
107.880374612771
20
3.04234362542488
30
0
0
SPLINE
5
15C
100
AcDbEntity
8
1
62
256
6
ByLayer
370
18
48
1
60
0
100
AcDbSpline
70
4
71
3
72
10
73
6
40
0
40
0
40
0
40
0
40
0.29624113310088
40
0.29624113310088
40
1
40
1
40
1
40
1
41
1
10
109.329347201607
20
-2.76545533803969
30
0
41
1
10
109.329680634704
20
-2.77027373052732
30
0
41
1
10
109.329746459343
20
-2.77525996964636
30
0
41
1
10
109.328952164998
20
-2.79252746830591
30
0
41
1
10
109.326726485006
20
-2.80520968408479
30
0
41
1
10
109.322580605403
20
-2.81850258510093
30
0
0
SPLINE
5
15D
100
AcDbEntity
8
1
62
256
6
ByLayer
370
18
48
1
60
0
100
AcDbSpline
70
4
71
3
72
8
73
4
40
0
40
0
40
0
40
0
40
1
40
1
40
1
40
1
41
1
10
109.238254625205
20
0.350996981192623
30
0
41
1
10
109.266369280846
20
0.341709155658123
30
0
41
1
10
109.29479136822
20
0.332462000614555
30
0
41
1
10
109.323527212873
20
0.323256352875717
30
0
0
SPLINE
5
15E
100
AcDbEntity
8
1
62
256
6
ByLayer
370
18
48
1
60
0
100
AcDbSpline
70
4
71
3
72
8
73
4
40
0
40
0
40
0
40
0
40
1
40
1
40
1
40
1
41
1
10
111.117386617985
20
-0.541563770628102
30
0
41
1
10
111.118502025982
20
-0.542345468566651
30
0
41
1
10
111.119617582301
20
-0.543126946701591
30
0
41
1
10
111.120733286732
20
-0.543908205342035
30
0
0
SPLINE
5
15F
100
AcDbEntity
8
1
62
256
6
ByLayer
370
18
48
1
60
0
100
AcDbSpline
70
4
71
3
72
8
73
4
40
0
40
0
40
0
40
0
40
1
40
1
40
1
40
1
41
1
10
111.117386617985
20
-0.541563770628073
30
0
41
1
10
111.089635128908
20
-0.478522514747283
30
0
41
1
10
111.06174384191
20
-0.415288581004177
30
0
41
1
10
111.033700284931
20
-0.351844779659473
30
0
0
SPLINE
5
160
100
AcDbEntity
8
1
62
256
6
ByLayer
370
18
48
1
60
0
100
AcDbSpline
70
4
71
3
72
8
73
4
40
0
40
0
40
0
40
0
40
1
40
1
40
1
40
1
41
1
10
109.226389098238
20
2.84288517700992
30
0
41
1
10
109.252316103059
20
2.81484265356497
30
0
41
1
10
109.277029312341
20
2.78750880867679
30
0
41
1
10
109.300155035645
20
2.76110183845509
30
0
0
SPLINE
5
161
100
AcDbEntity
8
1
62
256
6
ByLayer
370
18
48
1
60
0
100
AcDbSpline
70
4
71
3
72
18
73
14
40
0
40
0
40
0
40
0
40
0.250000000000096
40
0.250000000000096
40
0.375000000000077
40
0.375000000000077
40
0.500000000000058
40
0.500000000000058
40
0.625000000000039
40
0.625000000000039
40
0.75000000000002
40
0.75000000000002
40
1
40
1
40
1
40
1
41
1
10
109.300155013554
20
2.76110185267464
30
0
41
1
10
109.306167770325
20
2.75423596632174
30
0
41
1
10
109.311513521916
20
2.7478153518355
30
0
41
1
10
109.318240106847
20
2.7390469376775
30
0
41
1
10
109.320265531861
20
2.73626883996298
30
0
41
1
10
109.323807431758
20
2.7310523994098
30
0
41
1
10
109.325328741764
20
2.72860536767152
30
0
41
1
10
109.327735824768
20
2.72416157863631
30
0
41
1
10
109.328617181359
20
2.7221753241767
30
0
41
1
10
109.329645287076
20
2.71874009350816
30
0
41
1
10
109.32979065253
20
2.71728552842896
30
0
41
1
10
109.328952164998
20
2.71390060142264
30
0
41
1
10
109.326726485006
20
2.71296545413406
30
0
41
1
10
109.322580605403
20
2.71355277961163
30
0
0
SPLINE
5
162
100
AcDbEntity
8
1
62
256
6
ByLayer
370
18
48
1
60
0
100
AcDbSpline
70
4
71
3
72
12
73
8
40
0
40
0
40
0
40
0
40
0.5
40
0.5
40
0.75
40
0.75
40
1
40
1
40
1
40
1
41
1
10
109.322580604894
20
2.71355277929013
30
0
41
1
10
109.278726097285
20
2.71976523482388
30
0
41
1
10
109.240255390756
20
2.72151000444919
30
0
41
1
10
109.193357357921
20
2.71536537935603
30
0
41
1
10
109.179555807633
20
2.7118530458709
30
0
41
1
10
109.156152358273
20
2.70151268681451
30
0
41
1
10
109.146542886433
20
2.69468460178254
30
0
41
1
10
109.139325342835
20
2.685961147841
30
0
0
SPLINE
5
163
100
AcDbEntity
8
1
62
256
6
ByLayer
370
18
48
1
60
0
100
AcDbSpline
70
4
71
3
72
14
73
10
40
0
40
0
40
0
40
0
40
0.25
40
0.25
40
0.5
40
0.5
40
0.75
40
0.75
40
1
40
1
40
1
40
1
41
1
10
109.139325343179
20
2.68596114767053
30
0
41
1
10
109.150688877305
20
2.67387093917927
30
0
41
1
10
109.162853835514
20
2.66131441484885
30
0
41
1
10
109.188451448123
20
2.63546374603396
30
0
41
1
10
109.201870498911
20
2.62218476165864
30
0
41
1
10
109.229636504862
20
2.5951336746686
30
0
41
1
10
109.244002594338
20
2.58134335548135
30
0
41
1
10
109.273442835031
20
2.55341672964357
30
0
41
1
10
109.288530214012
20
2.5392677056121
30
0
41
1
10
109.303933690938
20
2.52495884140387
30
0
0
SPLINE
5
164
100
AcDbEntity
8
1
62
256
6
ByLayer
370
18
48
1
60
0
100
AcDbSpline
70
4
71
3
72
24
73
20
40
0
40
0
40
0
40
0
40
0.25000000000006
40
0.25000000000006
40
0.500000000000119
40
0.500000000000119
40
0.62500000000009
40
0.62500000000009
40
0.687500000000075
40
0.687500000000075
40
0.75000000000006
40
0.75000000000006
40
0.812500000000045
40
0.812500000000045
40
0.87500000000003
40
0.87500000000003
40
0.937500000000015
40
0.937500000000015
40
1
40
1
40
1
40
1
41
1
10
109.303933690199
20
2.52495884210057
30
0
41
1
10
109.320466793047
20
2.50960062314258
30
0
41
1
10
109.336412115055
20
2.4945484092818
30
0
41
1
10
109.366557585324
20
2.46535253801611
30
0
41
1
10
109.380846501109
20
2.45112554429576
30
0
41
1
10
109.399394027777
20
2.43159746509988
30
0
41
1
10
109.40510936155
20
2.42537536877205
30
0
41
1
10
109.412667861084
20
2.41666603542592
30
0
41
1
10
109.415016542178
20
2.41386795981694
30
0
41
1
10
109.419281214333
20
2.40853786731702
30
0
41
1
10
109.421208828558
20
2.40598927813167
30
0
41
1
10
109.424431472821
20
2.40133145526963
30
0
41
1
10
109.425724801907
20
2.39922775594064
30
0
41
1
10
109.427531283094
20
2.39557290175392
30
0
41
1
10
109.428043455955
20
2.39401058431869
30
0
41
1
10
109.428079656809
20
2.39165228438742
30
0
41
1
10
109.427613199821
20
2.39085251757948
30
0
41
1
10
109.425614700972
20
2.39008728128761
30
0
41
1
10
109.424063193529
20
2.39012755910557
30
0
41
1
10
109.421967176706
20
2.39062065446987
30
0
0
SPLINE
5
165
100
AcDbEntity
8
1
62
256
6
ByLayer
370
18
48
1
60
0
100
AcDbSpline
70
4
71
3
72
14
73
10
40
0
40
0
40
0
40
0
40
0.500000000000057
40
0.500000000000057
40
0.625000000000053
40
0.625000000000053
40
0.750000000000048
40
0.750000000000048
40
1
40
1
40
1
40
1
41
1
10
109.740735283
20
2.46723773008847
30
0
41
1
10
109.955613798068
20
2.29042135629081
30
0
41
1
10
110.175442462346
20
2.11412282023025
30
0
41
1
10
110.455729391716
20
1.89432512304413
30
0
41
1
10
110.512063168571
20
1.85039449701409
30
0
41
1
10
110.625271446868
20
1.76258981044032
30
0
41
1
10
110.682186683512
20
1.71868537070367
30
0
41
1
10
110.853436399896
20
1.58724857519795
30
0
41
1
10
110.967585397116
20
1.50051881897698
30
0
41
1
10
111.081720225604
20
1.41451432287258
30
0
0
SPLINE
5
166
100
AcDbEntity
8
1
62
256
6
ByLayer
370
18
48
1
60
0
100
AcDbSpline
70
4
71
3
72
8
73
4
40
0
40
0
40
0
40
0
40
1
40
1
40
1
40
1
41
1
10
104.132
20
-3.02074628837525
30
0
41
1
10
104.030931038081
20
-3.02265122446642
30
0
41
1
10
103.929945748258
20
-3.0255755515571
30
0
41
1
10
103.829044065846
20
-3.02951848160097
30
0
0
SPLINE
5
167
100
AcDbEntity
8
1
62
256
6
ByLayer
370
18
48
1
60
0
100
AcDbSpline
70
4
71
3
72
22
73
18
40
0
40
0
40
0
40
0
40
0.0312499999997837
40
0.0312499999997837
40
0.0624999999995674
40
0.0624999999995674
40
0.124999999999424
40
0.124999999999424
40
0.249999999999428
40
0.249999999999428
40
0.374999999999432
40
0.374999999999432
40
0.499999999999435
40
0.499999999999435
40
0.749999999999718
40
0.749999999999718
40
1
40
1
40
1
40
1
41
1
10
111.55318699012
20
0.0714399109758972
30
0
41
1
10
111.550392674385
20
0.0714093790810466
30
0
41
1
10
111.547514507458
20
0.071421328054214
30
0
41
1
10
111.541670035422
20
0.0714898787562106
30
0
41
1
10
111.538701544174
20
0.0715474258819881
30
0
41
1
10
111.52971024009
20
0.071764525894082
30
0
41
1
10
111.523813408437
20
0.0719613543876108
30
0
41
1
10
111.506253565999
20
0.0726217411544781
30
0
41
1
10
111.494706092279
20
0.0731575139247411
30
0
41
1
10
111.471823763447
20
0.0742980826271662
30
0
41
1
10
111.460567945199
20
0.0749032486661463
30
0
41
1
10
111.438255374962
20
0.0761510445192357
30
0
41
1
10
111.427202421216
20
0.0767943891530081
30
0
41
1
10
111.394243395219
20
0.0787620315496724
30
0
41
1
10
111.372533020001
20
0.0801231590075986
30
0
41
1
10
111.329392800638
20
0.0828982091737771
30
0
41
1
10
111.307968551217
20
0.0843131847949223
30
0
41
1
10
111.286639820887
20
0.0857461368715917
30
0
0
SPLINE
5
168
100
AcDbEntity
8
1
62
256
6
ByLayer
370
18
48
1
60
0
100
AcDbSpline
70
4
71
3
72
8
73
4
40
0
40
0
40
0
40
0
40
1
40
1
40
1
40
1
41
1
10
111.023351225734
20
-0.330251595366349
30
0
41
1
10
111.027437696761
20
-0.338276360125462
30
0
41
1
10
111.030880142044
20
-0.345464683680746
30
0
41
1
10
111.033700284933
20
-0.351844779662713
30
0
0
SPLINE
5
169
100
AcDbEntity
8
1
62
256
6
ByLayer
370
18
48
1
60
0
100
AcDbSpline
70
4
71
3
72
43
73
39
40
0
40
0
40
0
40
0
40
0.0625000000000509
40
0.0625000000000509
40
0.125000000000102
40
0.125000000000102
40
0.250000000000203
40
0.250000000000203
40
0.281250000000228
40
0.281250000000228
40
0.312500000000253
40
0.375000000000303
40
0.375000000000303
40
0.40625000000031
40
0.40625000000031
40
0.437500000000318
40
0.437500000000318
40
0.500000000000282
40
0.500000000000282
40
0.562500000000247
40
0.562500000000247
40
0.625000000000212
40
0.625000000000212
40
0.687500000000176
40
0.687500000000176
40
0.750000000000141
40
0.750000000000141
40
0.812500000000106
40
0.812500000000106
40
0.843750000000088
40
0.843750000000088
40
0.875000000000071
40
0.875000000000071
40
0.937500000000035
40
0.937500000000035
40
0.968750000000018
40
0.968750000000018
40
1
40
1
40
1
40
1
41
1
10
111.023351225733
20
-0.330251595366292
30
0
41
1
10
111.018894451505
20
-0.321499651567336
30
0
41
1
10
111.014762538443
20
-0.31213842147767
30
0
41
1
10
111.007428347309
20
-0.292272943187356
30
0
41
1
10
111.004212103265
20
-0.281720461139031
30
0
41
1
10
110.996392534994
20
-0.248643646544593
30
0
41
1
10
110.993722537918
20
-0.225360073043646
30
0
41
1
10
110.994145445659
20
-0.194885547340817
30
0
41
1
10
110.994422683078
20
-0.188694507931132
30
0
41
1
10
110.995366526831
20
-0.176340384261834
30
0
41
1
10
110.997362024561
20
-0.157835341497957
30
0
41
1
10
111.001087838952
20
-0.139424262368948
30
0
41
1
10
111.006008820183
20
-0.1210978467563
30
0
41
1
10
111.007848936218
20
-0.115003175808795
30
0
41
1
10
111.011943838414
20
-0.102846424528451
30
0
41
1
10
111.014204632257
20
-0.096774301403002
30
0
41
1
10
111.021508666876
20
-0.0789106513073534
30
0
41
1
10
111.027100468198
20
-0.0673721868695054
30
0
41
1
10
111.039725963623
20
-0.0450410571445161
30
0
41
1
10
111.046759297366
20
-0.0342481376492287
30
0
41
1
10
111.062349852094
20
-0.013457876763141
30
0
41
1
10
111.070744722749
20
-0.0036800587345169
30
0
41
1
10
111.088666529887
20
0.0146034699052962
30
0
41
1
10
111.098202225978
20
0.0231215174850377
30
0
41
1
10
111.118494675323
20
0.0388666891397804
30
0
41
1
10
111.129283786781
20
0.0460937407819415
30
0
41
1
10
111.151487855586
20
0.0587583365283706
30
0
41
1
10
111.162978788343
20
0.0642626735032934
30
0
41
1
10
111.180851851095
20
0.0712419615617819
30
0
41
1
10
111.186916202143
20
0.073354682022881
30
0
41
1
10
111.199274926916
20
0.0771360222532564
30
0
41
1
10
111.205609645677
20
0.0788124832529888
30
0
41
1
10
111.224617153938
20
0.0830617239011815
30
0
41
1
10
111.237299637496
20
0.0848705327054518
30
0
41
1
10
111.256230301819
20
0.0861824854518147
30
0
41
1
10
111.262557635471
20
0.0863841147842948
30
0
41
1
10
111.27482656922
20
0.0863593208424618
30
0
41
1
10
111.280805235045
20
0.0861381284138361
30
0
41
1
10
111.286639820886
20
0.0857461368716201
30
0
0
SPLINE
5
16A
100
AcDbEntity
8
1
62
256
6
ByLayer
370
18
48
1
60
0
100
AcDbSpline
70
4
71
3
72
12
73
8
40
0
40
0
40
0
40
0
40
0.0279225071209087
40
0.222338005696727
40
0.416753504272545
40
0.611169002848364
40
1
40
1
40
1
40
1
41
1
10
109.19075306858
20
-0.919026573540862
30
0
41
1
10
109.143668712387
20
-0.899027376743646
30
0
41
1
10
108.76875102286
20
-0.739452796091058
30
0
41
1
10
108.066
20
-0.435770488154702
30
0
41
1
10
107.0825
20
-0.0051831669626097
30
0
41
1
10
105.771166666667
20
0.568853296089003
30
0
41
1
10
104.787666666667
20
0.991159149947038
30
0
41
1
10
104.132
20
1.26269345562085
30
0
0
SPLINE
5
16B
100
AcDbEntity
8
1
62
256
6
ByLayer
370
18
48
1
60
0
100
AcDbSpline
70
4
71
3
72
8
73
4
40
0
40
0
40
0
40
0
40
1
40
1
40
1
40
1
41
1
10
109.421967186509
20
2.39062064894867
30
0
41
1
10
109.38522280851
20
2.39926492834547
30
0
41
1
10
109.345457795765
20
2.41050425189215
30
0
41
1
10
109.301899306183
20
2.42500257851913
30
0
0
SPLINE
5
16C
100
AcDbEntity
8
1
62
256
6
ByLayer
370
18
48
1
60
0
100
AcDbSpline
70
4
71
3
72
8
73
4
40
0
40
0
40
0
40
0
40
1
40
1
40
1
40
1
41
1
10
104.338857826029
20
3.7493072861227
30
0
41
1
10
104.269827793541
20
3.77015762860754
30
0
41
1
10
104.200870963106
20
3.79138049397923
30
0
41
1
10
104.132
20
3.81299626990574
30
0
0
SPLINE
5
16D
100
AcDbEntity
8
1
62
256
6
ByLayer
370
18
48
1
60
0
100
AcDbSpline
70
4
71
3
72
8
73
4
40
0
40
0
40
0
40
0
40
1
40
1
40
1
40
1
41
1
10
104.338857826029
20
3.74930728612267
30
0
41
1
10
104.413445429482
20
3.76995842797845
30
0
41
1
10
104.486893174942
20
3.78961513847668
30
0
41
1
10
104.559214837455
20
3.80828943520044
30
0
0
SPLINE
5
16E
100
AcDbEntity
8
1
62
256
6
ByLayer
370
18
48
1
60
0
100
AcDbSpline
70
4
71
3
72
22
73
18
40
0
40
0
40
0
40
0
40
0.249999999999908
40
0.249999999999908
40
0.374999999999924
40
0.374999999999924
40
0.499999999999941
40
0.499999999999941
40
0.624999999999957
40
0.624999999999957
40
0.687499999999964
40
0.687499999999964
40
0.749999999999971
40
0.749999999999971
40
0.874999999999986
40
0.874999999999986
40
1
40
1
40
1
40
1
41
1
10
109.425816165147
20
-0.0881246762211845
30
0
41
1
10
109.435350247828
20
-0.106306021517611
30
0
41
1
10
109.44399425005
20
-0.12477046106369
30
0
41
1
10
109.455107786144
20
-0.153056308046388
30
0
41
1
10
109.458500631547
20
-0.162584050912841
30
0
41
1
10
109.464511786316
20
-0.181885881886018
30
0
41
1
10
109.467145225684
20
-0.191728530207797
30
0
41
1
10
109.47132882577
20
-0.211373102999687
30
0
41
1
10
109.472877230673
20
-0.221134033662906
30
0
41
1
10
109.474215113556
20
-0.235664242628218
30
0
41
1
10
109.474496286972
20
-0.240489039155534
30
0
41
1
10
109.474689878479
20
-0.250096995376225
30
0
41
1
10
109.474599513265
20
-0.254892611245481
30
0
41
1
10
109.473731514658
20
-0.26891559952989
30
0
41
1
10
109.472365018457
20
-0.277871074775192
30
0
41
1
10
109.467914181777
20
-0.294924698406106
30
0
41
1
10
109.464807407999
20
-0.303016605204647
30
0
41
1
10
109.460917416096
20
-0.310383566609858
30
0
0
SPLINE
5
16F
100
AcDbEntity
8
1
62
256
6
ByLayer
370
18
48
1
60
0
100
AcDbSpline
70
4
71
3
72
10
73
6
40
0
40
0
40
0
40
0
40
0.5
40
0.5
40
1
40
1
40
1
40
1
41
1
10
109.460917417291
20
-0.31038356722479
30
0
41
1
10
109.409987372496
20
-0.40683793909426
30
0
41
1
10
109.361464625493
20
-0.505475258158242
30
0
41
1
10
109.270767452018
20
-0.708079163489259
30
0
41
1
10
109.228637960532
20
-0.811916613124197
30
0
41
1
10
109.190753068101
20
-0.919026573268383
30
0
0
SPLINE
5
170
100
AcDbEntity
8
1
62
256
6
ByLayer
370
18
48
1
60
0
100
AcDbSpline
70
4
71
3
72
10
73
6
40
0
40
0
40
0
40
0
40
0.499999999999999
40
0.499999999999999
40
1
40
1
40
1
40
1
41
1
10
109.190753068551
20
-0.919026573588667
30
0
41
1
10
109.208077538202
20
-0.946373064982822
30
0
41
1
10
109.226334371708
20
-0.97297387665165
30
0
41
1
10
109.264205522038
20
-1.02486074705678
30
0
41
1
10
109.283809075269
20
-1.05012814698665
30
0
41
1
10
109.303933690678
20
-1.07481325267128
30
0
0
SPLINE
5
171
100
AcDbEntity
8
1
62
256
6
ByLayer
370
18
48
1
60
0
100
AcDbSpline
70
4
71
3
72
24
73
20
40
0
40
0
40
0
40
0
40
0.25
40
0.25
40
0.5
40
0.5
40
0.625
40
0.625
40
0.6875
40
0.6875
40
0.75
40
0.75
40
0.8125
40
0.8125
40
0.875
40
0.875
40
0.9375
40
0.9375
40
1
40
1
40
1
40
1
41
1
10
109.303933690199
20
-1.07481325206584
30
0
41
1
10
109.320466793047
20
-1.09509298208314
30
0
41
1
10
109.336412115055
20
-1.11593881777779
30
0
41
1
10
109.366557585324
20
-1.15931130742681
30
0
41
1
10
109.380846501109
20
-1.18195154701783
30
0
41
1
10
109.399394027777
20
-1.21702885083332
30
0
41
1
10
109.40510936155
20
-1.22893502181787
30
0
41
1
10
109.412667861084
20
-1.24725842073374
30
0
41
1
10
109.415016542178
20
-1.25344437132725
30
0
41
1
10
109.419281214333
20
-1.26601423169009
30
0
41
1
10
109.421208828558
20
-1.27244336878317
30
0
41
1
10
109.424431472821
20
-1.2853208659869
30
0
41
1
10
109.425724801907
20
-1.29174593408041
30
0
41
1
10
109.427531283094
20
-1.3045625059554
30
0
41
1
10
109.428043455955
20
-1.31101754846696
30
0
41
1
10
109.428079656808
20
-1.32352849407877
30
0
41
1
10
109.427613199821
20
-1.32956896236459
30
0
41
1
10
109.425614700972
20
-1.34117708486389
30
0
41
1
10
109.424063193529
20
-1.34678701139649
30
0
41
1
10
109.421967176706
20
-1.35201324622091
30
0
0
SPLINE
5
172
100
AcDbEntity
8
1
62
256
6
ByLayer
370
18
48
1
60
0
100
AcDbSpline
70
4
71
3
72
18
73
14
40
0
40
0
40
0
40
0
40
0.25
40
0.25
40
0.500000000000001
40
0.500000000000001
40
0.562500000000001
40
0.562500000000001
40
0.625000000000001
40
0.625000000000001
40
0.750000000000001
40
0.750000000000001
40
1
40
1
40
1
40
1
41
1
10
109.32352721287
20
0.3232563528816
30
0
41
1
10
109.463487835331
20
0.20976634022901
30
0
41
1
10
109.606574270412
20
0.10749031380044
30
0
41
1
10
109.89852596439
20
-0.0763299619056284
30
0
41
1
10
110.047391867638
20
-0.157871899550145
30
0
41
1
10
110.236875616477
20
-0.247596762309883
30
0
41
1
10
110.274942740818
20
-0.264930508804355
30
0
41
1
10
110.351413663904
20
-0.298390168003294
30
0
41
1
10
110.389872766851
20
-0.314537746981074
30
0
41
1
10
110.505261113267
20
-0.36099502619706
30
0
41
1
10
110.58218944312
20
-0.38931543105889
30
0
41
1
10
110.812982064677
20
-0.466960519370588
30
0
41
1
10
110.966853875073
20
-0.509077693907471
30
0
41
1
10
111.120733286732
20
-0.543908205341978
30
0
0
SPLINE
5
173
100
AcDbEntity
8
1
62
256
6
ByLayer
370
18
48
1
60
0
100
AcDbSpline
70
4
71
3
72
8
73
4
40
0
40
0
40
0
40
0
40
1
40
1
40
1
40
1
41
1
10
104.132
20
0.929469590119027
30
0
41
1
10
104.030929606524
20
0.957343662916742
30
0
41
1
10
103.929944319477
20
0.984761352461561
30
0
41
1
10
103.829044065841
20
1.01172305031182
30
0
0
SPLINE
5
174
100
AcDbEntity
8
1
62
256
6
ByLayer
370
18
48
1
60
0
100
AcDbSpline
70
4
71
3
72
10
73
6
40
0
40
0
40
0
40
0
40
0.5
40
0.5
40
1
40
1
40
1
40
1
41
1
10
104.132
20
-0.414081752728151
30
0
41
1
10
104.086991813877
20
-0.406248537163975
30
0
41
1
10
104.041983041056
20
-0.400573940411846
30
0
41
1
10
103.951964224971
20
-0.393899050943247
30
0
41
1
10
103.906909858235
20
-0.392898011915463
30
0
41
1
10
103.861946842058
20
-0.394503372165815
30
0
0
SPLINE
5
175
100
AcDbEntity
8
1
62
256
6
ByLayer
370
18
48
1
60
0
100
AcDbSpline
70
4
71
3
72
10
73
6
40
0
40
0
40
0
40
0
40
0.5
40
0.5
40
1
40
1
40
1
40
1
41
1
10
102.646562464122
20
-0.0705698799439176
30
0
41
1
10
102.845598485707
20
-0.127219766767041
30
0
41
1
10
103.046606344909
20
-0.181952631350697
30
0
41
1
10
103.45197230978
20
-0.28926068547932
30
0
41
1
10
103.656324870634
20
-0.341850565814042
30
0
41
1
10
103.861946842058
20
-0.394503372165815
30
0
0
SPLINE
5
176
100
AcDbEntity
8
1
62
256
6
ByLayer
370
18
48
1
60
0
100
AcDbSpline
70
4
71
3
72
18
73
14
40
0
40
0
40
0
40
0
40
0.250000000000045
40
0.250000000000045
40
0.375000000000067
40
0.375000000000067
40
0.50000000000009
40
0.50000000000009
40
0.750000000000072
40
0.750000000000072
40
0.875000000000036
40
0.875000000000036
40
1
40
1
40
1
40
1
41
1
10
103.829001903368
20
3.90211148399692
30
0
41
1
10
103.762773414257
20
3.88861930607285
30
0
41
1
10
103.698118926425
20
3.87374986597692
30
0
41
1
10
103.604122905551
20
3.84877702716841
30
0
41
1
10
103.573346779874
20
3.84002050142115
30
0
41
1
10
103.513034939101
20
3.8215167891056
30
0
41
1
10
103.483492288816
20
3.81176638911637
30
0
41
1
10
103.397207735048
20
3.78088402752465
30
0
41
1
10
103.342647808148
20
3.75808307377241
30
0
41
1
10
103.267398064442
20
3.71976645609618
30
0
41
1
10
103.24337921728
20
3.70628193913308
30
0
41
1
10
103.198137533928
20
3.67786009406149
30
0
41
1
10
103.176875413072
20
3.66290646013701
30
0
41
1
10
103.157185283171
20
3.64708249888747
30
0
0
SPLINE
5
177
100
AcDbEntity
8
1
62
256
6
ByLayer
370
18
48
1
60
0
100
AcDbSpline
70
4
71
3
72
36
73
32
40
0
40
0
40
0
40
0
40
0.250000000000011
40
0.250000000000011
40
0.375000000000017
40
0.375000000000017
40
0.500000000000024
40
0.500000000000024
40
0.56250000000009
40
0.56250000000009
40
0.625000000000156
40
0.625000000000156
40
0.687500000000222
40
0.687500000000222
40
0.718750000000282
40
0.718750000000282
40
0.750000000000341
40
0.750000000000341
40
0.765625000000371
40
0.765625000000371
40
0.7812500000004
40
0.7812500000004
40
0.812500000000343
40
0.812500000000343
40
0.843750000000286
40
0.843750000000286
40
0.875000000000229
40
0.875000000000229
40
0.937500000000114
40
0.937500000000114
40
1
40
1
40
1
40
1
41
1
10
100.79093797009
20
-4.076036934635
30
0
41
1
10
100.758696266026
20
-4.07395092032226
30
0
41
1
10
100.726997713518
20
-4.07163927214634
30
0
41
1
10
100.68095879379
20
-4.06767304121868
30
0
41
1
10
100.66586755212
20
-4.06626702327682
30
0
41
1
10
100.636479359579
20
-4.06322438356972
30
0
41
1
10
100.62216482741
20
-4.06159137008419
30
0
41
1
10
100.601790224378
20
-4.05886166703223
30
0
41
1
10
100.595184090996
20
-4.05790452973329
30
0
41
1
10
100.582570114969
20
-4.05584840589006
30
0
41
1
10
100.576579211755
20
-4.05475388897784
30
0
41
1
10
100.566030804936
20
-4.05239115751627
30
0
41
1
10
100.56137242664
20
-4.05111218923273
30
0
41
1
10
100.557021160885
20
-4.04901046347231
30
0
41
1
10
100.556025279786
20
-4.04827201064649
30
0
41
1
10
100.555584895379
20
-4.04677357576853
30
0
41
1
10
100.556172048477
20
-4.04600068574644
30
0
41
1
10
100.558544567425
20
-4.04490901234522
30
0
41
1
10
100.559593251464
20
-4.04455112742457
30
0
41
1
10
100.562084075909
20
-4.04388305259022
30
0
41
1
10
100.563531707262
20
-4.04356869231751
30
0
41
1
10
100.568413401726
20
-4.04267910437909
30
0
41
1
10
100.572236171523
20
-4.04218205387517
30
0
41
1
10
100.580484489305
20
-4.04132634950636
30
0
41
1
10
100.584912968001
20
-4.04096865571483
30
0
41
1
10
100.593911267973
20
-4.04036201900144
30
0
41
1
10
100.598526556301
20
-4.04010943150416
30
0
41
1
10
100.612609727741
20
-4.03945675145334
30
0
41
1
10
100.622266698294
20
-4.03916232537665
30
0
41
1
10
100.641581078484
20
-4.03873660720186
30
0
41
1
10
100.651300812061
20
-4.03860562033137
30
0
41
1
10
100.661060740986
20
-4.03852776661074
30
0
0
SPLINE
5
178
100
AcDbEntity
8
1
62
256
6
ByLayer
370
18
48
1
60
0
100
AcDbSpline
70
4
71
3
72
12
73
8
40
0
40
0
40
0
40
0
40
0.5
40
0.5
40
0.75
40
0.75
40
1
40
1
40
1
40
1
41
1
10
100.661060740986
20
-4.03852776661074
30
0
41
1
10
100.690826819361
20
-4.03829032636219
30
0
41
1
10
100.720331643976
20
-4.03783563513394
30
0
41
1
10
100.763874413154
20
-4.03653782439753
30
0
41
1
10
100.778267751803
20
-4.03600088689589
30
0
41
1
10
100.806689390253
20
-4.03460254602777
30
0
41
1
10
100.820723159272
20
-4.03374665908191
30
0
41
1
10
100.834443532509
20
-4.03260191284397
30
0
0
SPLINE
5
179
100
AcDbEntity
8
1
62
256
6
ByLayer
370
18
48
1
60
0
100
AcDbSpline
70
4
71
3
72
16
73
12
40
0
40
0
40
0
40
0
40
0.250000000000007
40
0.250000000000007
40
0.500000000000015
40
0.500000000000015
40
0.750000000000022
40
0.750000000000022
40
0.875000000000011
40
0.875000000000011
40
1
40
1
40
1
40
1
41
1
10
100.834443532509
20
-4.03260191284397
30
0
41
1
10
100.723015772491
20
-4.017136497498
30
0
41
1
10
100.614863897959
20
-3.99836590034593
30
0
41
1
10
100.405972431099
20
-3.95280115313952
30
0
41
1
10
100.305230496356
20
-3.92601308648577
30
0
41
1
10
100.112203888435
20
-3.86253924288721
30
0
41
1
10
100.019914691817
20
-3.82586440137564
30
0
41
1
10
99.8888209505068
20
-3.76148941263079
30
0
41
1
10
99.8462635913729
20
-3.73840598010881
30
0
41
1
10
99.764470677487
20
-3.68910226779698
30
0
41
1
10
99.7251818212349
20
-3.6628659366904
30
0
41
1
10
99.6875789949568
20
-3.6348888938943
30
0
0
SPLINE
5
17A
100
AcDbEntity
8
1
62
256
6
ByLayer
370
18
48
1
60
0
100
AcDbSpline
70
4
71
3
72
28
73
24
40
0
40
0
40
0
40
0
40
0.12500000000009
40
0.12500000000009
40
0.187500000000134
40
0.187500000000134
40
0.250000000000177
40
0.250000000000177
40
0.312500000000221
40
0.312500000000221
40
0.375000000000263
40
0.375000000000263
40
0.437500000000304
40
0.437500000000304
40
0.500000000000346
40
0.500000000000346
40
0.625000000000259
40
0.625000000000259
40
0.750000000000173
40
0.750000000000173
40
0.875000000000086
40
0.875000000000086
40
1
40
1
40
1
40
1
41
1
10
99.6875789949568
20
-3.63488889389424
30
0
41
1
10
99.6819014531224
20
-3.63066472122955
30
0
41
1
10
99.6768101499027
20
-3.6262898982402
30
0
41
1
10
99.67047094551
20
-3.61940361386371
30
0
41
1
10
99.6685764739619
20
-3.61705364294858
30
0
41
1
10
99.6653459807143
20
-3.61221636472351
30
0
41
1
10
99.6640173692716
20
-3.60973176564747
30
0
41
1
10
99.6621305785804
20
-3.60472564527154
30
0
41
1
10
99.6615613900949
20
-3.60219035630209
30
0
41
1
10
99.6613450736884
20
-3.59704336485652
30
0
41
1
10
99.66171297963
20
-3.59443838315548
30
0
41
1
10
99.6634676451089
20
-3.58937723990422
30
0
41
1
10
99.664850642661
20
-3.58689386454301
30
0
41
1
10
99.6686820960373
20
-3.58202990701571
30
0
41
1
10
99.6711442014177
20
-3.57965437543095
30
0
41
1
10
99.6797086068082
20
-3.57300668957768
30
0
41
1
10
99.6871790429824
20
-3.56905533905626
30
0
41
1
10
99.7036229564936
20
-3.56230747642084
30
0
41
1
10
99.7127294840219
20
-3.55942250279816
30
0
41
1
10
99.7317417362891
20
-3.5544180253074
30
0
41
1
10
99.7415661974684
20
-3.55231437594008
30
0
41
1
10
99.761636731567
20
-3.54864024928384
30
0
41
1
10
99.7718857946647
20
-3.54707340664334
30
0
41
1
10
99.7822917395995
20
-3.54570649454658
30
0
0
SPLINE
5
17B
100
AcDbEntity
8
1
62
256
6
ByLayer
370
18
48
1
60
0
100
AcDbSpline
70
4
71
3
72
26
73
22
40
0
40
0
40
0
40
0
40
0.0624999999999894
40
0.0624999999999894
40
0.124999999999979
40
0.124999999999979
40
0.187499999999968
40
0.187499999999968
40
0.249999999999958
40
0.249999999999958
40
0.374999999999965
40
0.374999999999965
40
0.499999999999972
40
0.499999999999972
40
0.624999999999979
40
0.624999999999979
40
0.749999999999986
40
0.749999999999986
40
0.874999999999993
40
0.874999999999993
40
1
40
1
40
1
40
1
41
1
10
99.7822917395994
20
-3.54570649454658
30
0
41
1
10
99.8420830661868
20
-3.53785237960506
30
0
41
1
10
99.902372699631
20
-3.53156723936223
30
0
41
1
10
100.023617084453
20
-3.52116657059173
30
0
41
1
10
100.084576640164
20
-3.51706441347687
30
0
41
1
10
100.206997832795
20
-3.51053582329425
30
0
41
1
10
100.268539154026
20
-3.50811258310912
30
0
41
1
10
100.391520511097
20
-3.50463998259426
30
0
41
1
10
100.452983830113
20
-3.50358899347589
30
0
41
1
10
100.637306723038
20
-3.50212819724021
30
0
41
1
10
100.760099990342
20
-3.50339368700114
30
0
41
1
10
101.005555865174
20
-3.50919892022603
30
0
41
1
10
101.128243631928
20
-3.51375245606999
30
0
41
1
10
101.373406840923
20
-3.52540594868805
30
0
41
1
10
101.495632338381
20
-3.53249740522901
30
0
41
1
10
101.739490382432
20
-3.54865337204919
30
0
41
1
10
101.86112218621
20
-3.55772035765318
30
0
41
1
10
102.103873883217
20
-3.57740170805198
30
0
41
1
10
102.225030322894
20
-3.58802095113813
30
0
41
1
10
102.466615632907
20
-3.61042416113233
30
0
41
1
10
102.587065561636
20
-3.62221001246371
30
0
41
1
10
102.70721137296
20
-3.63442222510142
30
0
0
SPLINE
5
17C
100
AcDbEntity
8
1
62
256
6
ByLayer
370
18
48
1
60
0
100
AcDbSpline
70
4
71
3
72
8
73
4
40
0
40
0
40
0
40
0
40
1
40
1
40
1
40
1
41
1
10
102.830899347354
20
-3.60576657249419
30
0
41
1
10
102.789257555407
20
-3.61511421438362
30
0
41
1
10
102.748018256499
20
-3.62466766420789
30
0
41
1
10
102.707211372967
20
-3.63442222510596
30
0
0
SPLINE
5
17D
100
AcDbEntity
8
1
62
256
6
ByLayer
370
18
48
1
60
0
100
AcDbSpline
70
4
71
3
72
10
73
6
40
0
40
0
40
0
40
0
40
0.5
40
0.5
40
1
40
1
40
1
40
1
41
1
10
103.157214551506
20
-3.4381604369533
30
0
41
1
10
103.096818098166
20
-3.46451323552458
30
0
41
1
10
103.038722889593
20
-3.49170819353165
30
0
41
1
10
102.929076783734
20
-3.54767357212785
30
0
41
1
10
102.877545060795
20
-3.57643280925851
30
0
41
1
10
102.830899347354
20
-3.60576657249419
30
0
0
SPLINE
5
17E
100
AcDbEntity
8
1
62
256
6
ByLayer
370
18
48
1
60
0
100
AcDbSpline
70
4
71
3
72
18
73
14
40
0
40
0
40
0
40
0
40
0.249999999999986
40
0.249999999999986
40
0.374999999999979
40
0.374999999999979
40
0.499999999999973
40
0.499999999999973
40
0.749999999999959
40
0.749999999999959
40
0.87499999999998
40
0.87499999999998
40
1
40
1
40
1
40
1
41
1
10
103.829044065846
20
-3.02951848160097
30
0
41
1
10
103.762815327769
20
-3.05938485248157
30
0
41
1
10
103.698160635201
20
-3.0902680667202
30
0
41
1
10
103.604163779303
20
-3.1382978435054
30
0
41
1
10
103.57338735028
20
-3.15456418727752
30
0
41
1
10
103.513074839334
20
-3.18764757630248
30
0
41
1
10
103.483531768816
20
-3.20446945478255
30
0
41
1
10
103.397245809823
20
-3.2556895570566
30
0
41
1
10
103.342684665351
20
-3.2909239632813
30
0
41
1
10
103.267432608476
20
-3.34519025528652
30
0
41
1
10
103.243412873973
20
-3.36354622352403
30
0
41
1
10
103.198169160979
20
-3.40057136334471
30
0
41
1
10
103.176905922414
20
-3.41926578845815
30
0
41
1
10
103.157214551506
20
-3.4381604369533
30
0
0
SPLINE
5
17F
100
AcDbEntity
8
1
62
256
6
ByLayer
370
18
48
1
60
0
100
AcDbSpline
70
4
71
3
72
36
73
32
40
0
40
0
40
0
40
0
40
0.250000000000115
40
0.250000000000115
40
0.375000000000172
40
0.375000000000172
40
0.50000000000023
40
0.50000000000023
40
0.562500000000258
40
0.562500000000258
40
0.625000000000287
40
0.625000000000287
40
0.687500000000315
40
0.687500000000315
40
0.71875000000033
40
0.71875000000033
40
0.750000000000345
40
0.750000000000345
40
0.765625000000324
40
0.765625000000324
40
0.781250000000303
40
0.781250000000303
40
0.812500000000259
40
0.812500000000259
40
0.843750000000216
40
0.843750000000216
40
0.875000000000173
40
0.875000000000173
40
0.937500000000086
40
0.937500000000086
40
1
40
1
40
1
40
1
41
1
10
100.790937970092
20
-1.81743998565798
30
0
41
1
10
100.758696266028
20
-1.79848214617135
30
0
41
1
10
100.72699771352
20
-1.77885428365326
30
0
41
1
10
100.680958793792
20
-1.74760599254503
30
0
41
1
10
100.665867552122
20
-1.73688468451613
30
0
41
1
10
100.636479359581
20
-1.71450481263133
30
0
41
1
10
100.622164827411
20
-1.7028663535836
30
0
41
1
10
100.60179022438
20
-1.68413042063136
30
0
41
1
10
100.595184090998
20
-1.67766916187503
30
0
41
1
10
100.582570114971
20
-1.66405431280881
30
0
41
1
10
100.576579211757
20
-1.65693059833151
30
0
41
1
10
100.566030804937
20
-1.64186573965955
30
0
41
1
10
100.561372426642
20
-1.63385564977438
30
0
41
1
10
100.557021160887
20
-1.62098704783571
30
0
41
1
10
100.556025279788
20
-1.61651203226475
30
0
41
1
10
100.55558489538
20
-1.60753196452455
30
0
41
1
10
100.556172048479
20
-1.60295119201953
30
0
41
1
10
100.558544567427
20
-1.59654502422802
30
0
41
1
10
100.559593251466
20
-1.59445583725176
30
0
41
1
10
100.56208407591
20
-1.59057267193791
30
0
41
1
10
100.563531707263
20
-1.58875409200166
30
0
41
1
10
100.568413401728
20
-1.58362650413827
30
0
41
1
10
100.572236171524
20
-1.58078680943373
30
0
41
1
10
100.580484489307
20
-1.57591888291654
30
0
41
1
10
100.584912968002
20
-1.57389672476685
30
0
41
1
10
100.593911267974
20
-1.5704772649737
30
0
41
1
10
100.598526556303
20
-1.56905963926289
30
0
41
1
10
100.612609727742
20
-1.5654041747309
30
0
41
1
10
100.622266698295
20
-1.56376635898752
30
0
41
1
10
100.641581078486
20
-1.56140031902714
30
0
41
1
10
100.651300812063
20
-1.56067484284952
30
0
41
1
10
100.661060740987
20
-1.56024361978768
30
0
0
SPLINE
5
180
100
AcDbEntity
8
1
62
256
6
ByLayer
370
18
48
1
60
0
100
AcDbSpline
70
4
71
3
72
20
73
16
40
0
40
0
40
0
40
0
40
0.250000000000226
40
0.250000000000226
40
0.500000000000452
40
0.500000000000452
40
0.625000000000403
40
0.625000000000403
40
0.750000000000354
40
0.750000000000354
40
0.875000000000305
40
0.875000000000305
40
0.937500000000152
40
0.937500000000152
40
1
40
1
40
1
40
1
41
1
10
100.661060740987
20
-1.56024361978768
30
0
41
1
10
100.681903417748
20
-1.55932272753944
30
0
41
1
10
100.702671176813
20
-1.55778779510862
30
0
41
1
10
100.74398047435
20
-1.55286114786938
30
0
41
1
10
100.764637379099
20
-1.54946017863421
30
0
41
1
10
100.794724709276
20
-1.5421395912285
30
0
41
1
10
100.804610633113
20
-1.53932583698415
30
0
41
1
10
100.823994250094
20
-1.53268357445259
30
0
41
1
10
100.833493947904
20
-1.52886036412929
30
0
41
1
10
100.851930378955
20
-1.51973924263874
30
0
41
1
10
100.860883689724
20
-1.51440350753324
30
0
41
1
10
100.873016083877
20
-1.5051905655788
30
0
41
1
10
100.876867582642
20
-1.50190619314617
30
0
41
1
10
100.884116535143
20
-1.49483352884141
30
0
41
1
10
100.887523677974
20
-1.49102786044986
30
0
41
1
10
100.89060046109
20
-1.48700545220609
30
0
0
SPLINE
5
181
100
AcDbEntity
8
1
62
256
6
ByLayer
370
18
48
1
60
0
100
AcDbSpline
70
4
71
3
72
22
73
18
40
0
40
0
40
0
40
0
40
0.125000000000105
40
0.125000000000105
40
0.250000000000209
40
0.250000000000209
40
0.312500000000261
40
0.312500000000261
40
0.375000000000314
40
0.375000000000314
40
0.500000000000251
40
0.500000000000251
40
0.625000000000188
40
0.625000000000188
40
0.750000000000125
40
0.750000000000125
40
1
40
1
40
1
40
1
41
1
10
100.008370144288
20
-0.181850131715834
30
0
41
1
10
100.005909011814
20
-0.17438510401692
30
0
41
1
10
100.004057728344
20
-0.166802563302525
30
0
41
1
10
100.00197711482
20
-0.151325295443257
30
0
41
1
10
100.00177822813
20
-0.143376755222562
30
0
41
1
10
100.003044427096
20
-0.131816553060133
30
0
41
1
10
100.003721738743
20
-0.128000176485187
30
0
41
1
10
100.005621374546
20
-0.120446524261809
30
0
41
1
10
100.006858565357
20
-0.116677086500374
30
0
41
1
10
100.011321089057
20
-0.105783116864444
30
0
41
1
10
100.015266780087
20
-0.0990678246083405
30
0
41
1
10
100.024825733105
20
-0.0865778033545439
30
0
41
1
10
100.030313471765
20
-0.0809713941450809
30
0
41
1
10
100.042144214552
20
-0.0708764959131258
30
0
41
1
10
100.04855838518
20
-0.0663300023088311
30
0
41
1
10
100.068593565194
20
-0.0540540354778898
30
0
41
1
10
100.082833432215
20
-0.0476954528229214
30
0
41
1
10
100.09757555396
20
-0.0423751909390262
30
0
0
SPLINE
5
182
100
AcDbEntity
8
1
62
256
6
ByLayer
370
18
48
1
60
0
100
AcDbSpline
70
4
71
3
72
26
73
22
40
0
40
0
40
0
40
0
40
0.0625
40
0.0625
40
0.125
40
0.125
40
0.1875
40
0.1875
40
0.25
40
0.25
40
0.3125
40
0.3125
40
0.375
40
0.375
40
0.5
40
0.5
40
0.625
40
0.625
40
0.75
40
0.75
40
1
40
1
40
1
40
1
41
1
10
100.09757555396
20
-0.0423751909390546
30
0
41
1
10
100.148471069745
20
-0.0240075856936812
30
0
41
1
10
100.199971860279
20
-0.0089841699661406
30
0
41
1
10
100.303755575546
20
0.0167416818202639
30
0
41
1
10
100.356045206531
20
0.0274070567398041
30
0
41
1
10
100.461203655777
20
0.0455382334585579
30
0
41
1
10
100.514074695101
20
0.0529917610833479
30
0
41
1
10
100.620273601856
20
0.0653753147909129
30
0
41
1
10
100.673602389853
20
0.0703002536768338
30
0
41
1
10
100.780636929161
20
0.0780678776143873
30
0
41
1
10
100.834247450628
20
0.080900179893888
30
0
41
1
10
100.941366956763
20
0.0847908274432996
30
0
41
1
10
100.994920270113
20
0.0858508889018026
30
0
41
1
10
101.155563601647
20
0.0867480101830154
30
0
41
1
10
101.262637145269
20
0.0843204475448545
30
0
41
1
10
101.476749597547
20
0.0747038927113692
30
0
41
1
10
101.583844237081
20
0.0674967747227697
30
0
41
1
10
101.797482564434
20
0.0491460655957212
30
0
41
1
10
101.904082735197
20
0.0379970835244023
30
0
41
1
10
102.223320488368
20
-0.0005225463980878
30
0
41
1
10
102.435485265952
20
-0.0329491410979585
30
0
41
1
10
102.646562464122
20
-0.0705698799438039
30
0
0
SPLINE
5
183
100
AcDbEntity
8
1
62
256
6
ByLayer
370
18
48
1
60
0
100
AcDbSpline
70
4
71
3
72
8
73
4
40
0
40
0
40
0
40
0
40
1
40
1
40
1
40
1
41
1
10
102.830899347355
20
0.0228564649597445
30
0
41
1
10
102.768516565468
20
-0.0066620118510627
30
0
41
1
10
102.707035410451
20
-0.0377432825753488
30
0
41
1
10
102.646562464122
20
-0.0705698799438608
30
0
0
SPLINE
5
184
100
AcDbEntity
8
1
62
256
6
ByLayer
370
18
48
1
60
0
100
AcDbSpline
70
4
71
3
72
10
73
6
40
0
40
0
40
0
40
0
40
0.5
40
0.5
40
1
40
1
40
1
40
1
41
1
10
103.157214551505
20
0.35155933927922
30
0
41
1
10
103.096818098166
20
0.303253051096931
30
0
41
1
10
103.038722889593
20
0.252019973790738
30
0
41
1
10
102.929076783735
20
0.142727011333449
30
0
41
1
10
102.877545060797
20
0.084690036467066
30
0
41
1
10
102.830899347356
20
0.0228564649597445
30
0
0
SPLINE
5
185
100
AcDbEntity
8
1
62
256
6
ByLayer
370
18
48
1
60
0
100
AcDbSpline
70
4
71
3
72
18
73
14
40
0
40
0
40
0
40
0
40
0.249999999999994
40
0.249999999999994
40
0.375000000000025
40
0.375000000000025
40
0.500000000000056
40
0.500000000000056
40
0.750000000000055
40
0.750000000000055
40
0.875000000000027
40
0.875000000000027
40
1
40
1
40
1
40
1
41
1
10
103.829044065841
20
1.01172305031187
30
0
41
1
10
103.762815327764
20
0.968721124443221
30
0
41
1
10
103.698160635197
20
0.923319390500012
30
0
41
1
10
103.604163779299
20
0.850826460814545
30
0
41
1
10
103.573387350277
20
0.825970387854852
30
0
41
1
10
103.51307483933
20
0.774709015401839
30
0
41
1
10
103.483531768813
20
0.748295689656487
30
0
41
1
10
103.39724580982
20
0.66665396545821
30
0
41
1
10
103.342684665349
20
0.608905199979233
30
0
41
1
10
103.267432608475
20
0.516701363365172
30
0
41
1
10
103.243412873971
20
0.484978886875297
30
0
41
1
10
103.198169160978
20
0.419746065559707
30
0
41
1
10
103.176905922413
20
0.386194383175621
30
0
41
1
10
103.157214551505
20
0.35155933927922
30
0
0
SPLINE
5
186
100
AcDbEntity
8
1
62
256
6
ByLayer
370
18
48
1
60
0
100
AcDbSpline
70
4
71
3
72
36
73
32
40
0
40
0
40
0
40
0
40
0.250000000000024
40
0.250000000000024
40
0.375000000000109
40
0.375000000000109
40
0.500000000000195
40
0.500000000000195
40
0.562500000000301
40
0.562500000000301
40
0.625000000000407
40
0.625000000000407
40
0.687500000000514
40
0.687500000000514
40
0.718750000000543
40
0.718750000000543
40
0.750000000000571
40
0.750000000000571
40
0.765625000000587
40
0.765625000000587
40
0.781250000000602
40
0.781250000000602
40
0.812500000000516
40
0.812500000000516
40
0.84375000000043
40
0.84375000000043
40
0.875000000000345
40
0.875000000000345
40
0.937500000000172
40
0.937500000000172
40
1
40
1
40
1
40
1
41
1
10
100.790937970093
20
2.38781009188608
30
0
41
1
10
100.758696266028
20
2.40499794873787
30
0
41
1
10
100.72699771352
20
2.42263511275965
30
0
41
1
10
100.680958793792
20
2.45041636712608
30
0
41
1
10
100.665867552122
20
2.45990107087579
30
0
41
1
10
100.636479359581
20
2.47958750877476
30
0
41
1
10
100.622164827412
20
2.48977246869538
30
0
41
1
10
100.60179022438
20
2.50606353664767
30
0
41
1
10
100.595184090998
20
2.51166523797897
30
0
41
1
10
100.582570114971
20
2.52342796182359
30
0
41
1
10
100.576579211757
20
2.52956312875253
30
0
41
1
10
100.566030804938
20
2.5424873748035
30
0
41
1
10
100.561372426642
20
2.54933566487827
30
0
41
1
10
100.557021160887
20
2.56028884375004
30
0
41
1
10
100.556025279788
20
2.5640898805502
30
0
41
1
10
100.555584895381
20
2.57170021226537
30
0
41
1
10
100.556172048479
20
2.57557339350197
30
0
41
1
10
100.558544567427
20
2.58097876339465
30
0
41
1
10
100.559593251466
20
2.58273962503949
30
0
41
1
10
100.562084075911
20
2.58600953951083
30
0
41
1
10
100.563531707264
20
2.58753937347126
30
0
41
1
10
100.568413401728
20
2.5918494613513
30
0
41
1
10
100.572236171525
20
2.59423184769975
30
0
41
1
10
100.580484489307
20
2.5983120477859
30
0
41
1
10
100.584912968003
20
2.60000465869135
30
0
41
1
10
100.593911267975
20
2.60286500426986
30
0
41
1
10
100.598526556303
20
2.60404969928948
30
0
41
1
10
100.612609727743
20
2.60710311439564
30
0
41
1
10
100.622266698296
20
2.60846910678458
30
0
41
1
10
100.641581078486
20
2.6104420654905
30
0
41
1
10
100.651300812063
20
2.61104654330251
30
0
41
1
10
100.661060740988
20
2.61140585001215
30
0
0
SPLINE
5
187
100
AcDbEntity
8
1
62
256
6
ByLayer
370
18
48
1
60
0
100
AcDbSpline
70
4
71
3
72
12
73
8
40
0
40
0
40
0
40
0
40
0.499999999999769
40
0.499999999999769
40
0.749999999999884
40
0.749999999999884
40
1
40
1
40
1
40
1
41
1
10
100.661060740988
20
2.61140585001212
30
0
41
1
10
100.690826819362
20
2.61250167271356
30
0
41
1
10
100.720331643978
20
2.61460578780924
30
0
41
1
10
100.763874413156
20
2.62050532690302
30
0
41
1
10
100.778267751805
20
2.62293605437787
30
0
41
1
10
100.806689390255
20
2.62919275385764
30
0
41
1
10
100.820723159274
20
2.63299824758641
30
0
41
1
10
100.834443532511
20
2.63799489993042
30
0
0
SPLINE
5
188
100
AcDbEntity
8
1
62
256
6
ByLayer
370
18
48
1
60
0
100
AcDbSpline
70
4
71
3
72
16
73
12
40
0
40
0
40
0
40
0
40
0.25
40
0.25
40
0.5
40
0.5
40
0.75
40
0.75
40
0.875
40
0.875
40
1
40
1
40
1
40
1
41
1
10
100.834443532511
20
2.63799489993045
30
0
41
1
10
100.723015772493
20
2.70549920899009
30
0
41
1
10
100.614863897961
20
2.77341421820373
30
0
41
1
10
100.405972431101
20
2.90975674866462
30
0
41
1
10
100.305230496358
20
2.97818682111128
30
0
41
1
10
100.112203888437
20
3.1150635270215
30
0
41
1
10
100.019914691819
20
3.18351446596452
30
0
41
1
10
99.8888209505088
20
3.28561447804864
30
0
41
1
10
99.846263591375
20
3.31962157811492
30
0
41
1
10
99.7644706774889
20
3.38674660723439
30
0
41
1
10
99.725181821237
20
3.41990224704085
30
0
41
1
10
99.6875789949588
20
3.45255883034142
30
0
0
SPLINE
5
189
100
AcDbEntity
8
1
62
256
6
ByLayer
370
18
48
1
60
0
100
AcDbSpline
70
4
71
3
72
28
73
24
40
0
40
0
40
0
40
0
40
0.12499999999991
40
0.12499999999991
40
0.187499999999867
40
0.187499999999867
40
0.249999999999824
40
0.249999999999824
40
0.312499999999781
40
0.312499999999781
40
0.374999999999738
40
0.374999999999738
40
0.437499999999695
40
0.437499999999695
40
0.499999999999652
40
0.499999999999652
40
0.624999999999739
40
0.624999999999739
40
0.749999999999826
40
0.749999999999826
40
0.874999999999913
40
0.874999999999913
40
1
40
1
40
1
40
1
41
1
10
99.6875789949588
20
3.45255883034139
30
0
41
1
10
99.6819014531244
20
3.457489553274
30
0
41
1
10
99.6768101499048
20
3.46253896769235
30
0
41
1
10
99.6704709455122
20
3.47038486579214
30
0
41
1
10
99.668576473964
20
3.47304598317385
30
0
41
1
10
99.6653459807163
20
3.47848718619383
30
0
41
1
10
99.6640173692736
20
3.48126391835825
30
0
41
1
10
99.6621305785825
20
3.48682051139753
30
0
41
1
10
99.6615613900969
20
3.48961591931621
30
0
41
1
10
99.6613450736903
20
3.49525179919053
30
0
41
1
10
99.6617129796321
20
3.49808436097445
30
0
41
1
10
99.6634676451109
20
3.50355112595898
30
0
41
1
10
99.6648506426631
20
3.506215231194
30
0
41
1
10
99.6686820960394
20
3.51140073912396
30
0
41
1
10
99.6711442014197
20
3.51391635055092
30
0
41
1
10
99.6797086068103
20
3.5209172242962
30
0
41
1
10
99.6871790429844
20
3.5250247947169
30
0
41
1
10
99.7036229564956
20
3.53198820648606
30
0
41
1
10
99.7127294840239
20
3.53493621750343
30
0
41
1
10
99.7317417362912
20
3.54002365768383
30
0
41
1
10
99.7415661974704
20
3.54214674379588
30
0
41
1
10
99.7616367315691
20
3.54584107182006
30
0
41
1
10
99.7718857946667
20
3.54740825356404
30
0
41
1
10
99.7822917396014
20
3.54877162684409
30
0
0
SPLINE
5
18A
100
AcDbEntity
8
1
62
256
6
ByLayer
370
18
48
1
60
0
100
AcDbSpline
70
4
71
3
72
26
73
22
40
0
40
0
40
0
40
0
40
0.0624999999999894
40
0.0624999999999894
40
0.124999999999979
40
0.124999999999979
40
0.187499999999968
40
0.187499999999968
40
0.249999999999958
40
0.249999999999958
40
0.374999999999965
40
0.374999999999965
40
0.499999999999972
40
0.499999999999972
40
0.624999999999979
40
0.624999999999979
40
0.749999999999986
40
0.749999999999986
40
0.874999999999993
40
0.874999999999993
40
1
40
1
40
1
40
1
41
1
10
99.7822917396014
20
3.54877162684409
30
0
41
1
10
99.8420833180913
20
3.5566054411681
30
0
41
1
10
99.9023732075589
20
3.56272969107485
30
0
41
1
10
100.023618108947
20
3.5727726049181
30
0
41
1
10
100.084577925281
20
3.57667301095537
30
0
41
1
10
100.206999642265
20
3.58284724508866
30
0
41
1
10
100.26854122722
20
3.58511617623927
30
0
41
1
10
100.391523101023
20
3.58836045857677
30
0
41
1
10
100.452986678252
20
3.58933658557339
30
0
41
1
10
100.637310345457
20
3.5906940025761
30
0
41
1
10
100.760104128475
20
3.58952435525245
30
0
41
1
10
101.005561034058
20
3.58410138347193
30
0
41
1
10
101.128249324843
20
3.57983160179114
30
0
41
1
10
101.373413542566
20
3.56870483811375
30
0
41
1
10
101.49563954262
20
3.56185462376143
30
0
41
1
10
101.739498588909
20
3.54587909462316
30
0
41
1
10
101.861130892323
20
3.5367509333071
30
0
41
1
10
102.103883586064
20
3.51637491157479
30
0
41
1
10
102.225040521208
20
3.50512149407024
30
0
41
1
10
102.466626808517
20
3.48060726825824
30
0
41
1
10
102.587077224266
20
3.46734458409384
30
0
41
1
10
102.707223521226
20
3.45310188076996
30
0
0
SPLINE
5
18B
100
AcDbEntity
8
1
62
256
6
ByLayer
370
18
48
1
60
0
100
AcDbSpline
70
4
71
3
72
8
73
4
40
0
40
0
40
0
40
0
40
1
40
1
40
1
40
1
41
1
10
102.830888731204
20
3.48565732794978
30
0
41
1
10
102.789254632088
20
3.47531020543209
30
0
41
1
10
102.748022924965
20
3.46447663577499
30
0
41
1
10
102.707223521234
20
3.45310188076414
30
0
0
SPLINE
5
18C
100
AcDbEntity
8
1
62
256
6
ByLayer
370
18
48
1
60
0
100
AcDbSpline
70
4
71
3
72
10
73
6
40
0
40
0
40
0
40
0
40
0.5
40
0.5
40
1
40
1
40
1
40
1
41
1
10
103.157185283171
20
3.6470824988875
30
0
41
1
10
103.096791535394
20
3.62501269768859
30
0
41
1
10
103.038699183761
20
3.60088103777073
30
0
41
1
10
102.929059237523
20
3.54743487783071
30
0
41
1
10
102.877530819713
20
3.51813210700408
30
0
41
1
10
102.830888731204
20
3.48565732794978
30
0
0
SPLINE
5
18D
100
AcDbEntity
8
1
62
256
6
ByLayer
370
18
48
1
60
0
100
AcDbSpline
70
4
71
3
72
18
73
14
40
0
40
0
40
0
40
0
40
0.249999999999975
40
0.249999999999975
40
0.499999999999951
40
0.499999999999951
40
0.562499999999944
40
0.562499999999944
40
0.624999999999938
40
0.624999999999938
40
0.749999999999951
40
0.749999999999951
40
1
40
1
40
1
40
1
41
1
10
100.89060046109
20
-1.48700545220609
30
0
41
1
10
100.792741470733
20
-1.39946034576232
30
0
41
1
10
100.699743760659
20
-1.30733543073316
30
0
41
1
10
100.524855997171
20
-1.11238442738548
30
0
41
1
10
100.442961004561
20
-1.00956479174104
30
0
41
1
10
100.348595762528
20
-0.873124978815525
30
0
41
1
10
100.330123912906
20
-0.845439886856894
30
0
41
1
10
100.294013925333
20
-0.789238431413139
30
0
41
1
10
100.276345200254
20
-0.760669521883216
30
0
41
1
10
100.224897554015
20
-0.674095430215374
30
0
41
1
10
100.19270025708
20
-0.615282546262307
30
0
41
1
10
100.102531210521
20
-0.435457617198324
30
0
41
1
10
100.050971289189
20
-0.311066551395811
30
0
41
1
10
100.008370144288
20
-0.181850131715834
30
0
0
SPLINE
5
18E
100
AcDbEntity
8
1
62
256
6
ByLayer
370
18
48
1
60
0
100
AcDbSpline
70
4
71
3
72
8
73
4
40
0
40
0
40
0
40
0
40
1
40
1
40
1
40
1
41
1
10
111.615415203416
20
0.766089247391733
30
0
41
1
10
111.54653997326
20
0.884441234059921
30
0
41
1
10
111.473837370919
20
1.00461136620874
30
0
41
1
10
111.39740499702
20
1.12646332258791
30
0
0
SPLINE
5
18F
100
AcDbEntity
8
1
62
256
6
ByLayer
370
18
48
1
60
0
100
AcDbSpline
70
4
71
3
72
35
73
31
40
0
40
0
40
0
40
0
40
0.0624999999999928
40
0.0624999999999928
40
0.124999999999986
40
0.124999999999986
40
0.187499999999978
40
0.187499999999978
40
0.218749999999975
40
0.218749999999975
40
0.249999999999972
40
0.374999999999957
40
0.374999999999957
40
0.499999999999943
40
0.499999999999943
40
0.531249999999936
40
0.531249999999936
40
0.562499999999928
40
0.562499999999928
40
0.62499999999993
40
0.62499999999993
40
0.749999999999934
40
0.749999999999934
40
0.78124999999995
40
0.78124999999995
40
0.812499999999966
40
0.812499999999966
40
0.874999999999977
40
0.874999999999977
40
1
40
1
40
1
40
1
41
1
10
111.39740499702
20
1.12646332258794
30
0
41
1
10
111.374043515062
20
1.13343305174203
30
0
41
1
10
111.349043282636
20
1.14183674492062
30
0
41
1
10
111.295858848812
20
1.16143021558321
30
0
41
1
10
111.267690358004
20
1.17260624575127
30
0
41
1
10
111.208087673297
20
1.19781591060709
30
0
41
1
10
111.176651015038
20
1.21185170169755
30
0
41
1
10
111.126943689767
20
1.23513877332456
30
0
41
1
10
111.109915319916
20
1.24328981105725
30
0
41
1
10
111.075166146567
20
1.26026652709407
30
0
41
1
10
110.986666994294
20
1.3043418686868
30
0
41
1
10
110.89006080829
20
1.3565607985137
30
0
41
1
10
110.725225852169
20
1.45042242975902
30
0
41
1
10
110.637740078512
20
1.50244439385403
30
0
41
1
10
110.521565793224
20
1.57431965525626
30
0
41
1
10
110.497939485505
20
1.58906982964865
30
0
41
1
10
110.450368629655
20
1.61903140553602
30
0
41
1
10
110.426397666022
20
1.63425858003973
30
0
41
1
10
110.353938200466
20
1.68066594037586
30
0
41
1
10
110.304904760342
20
1.7125697898629
30
0
41
1
10
110.155682498449
20
1.81109922107532
30
0
41
1
10
110.053358587958
20
1.88056014468771
30
0
41
1
10
109.921918910056
20
1.97208040743905
30
0
41
1
10
109.895453692672
20
1.99061988558003
30
0
41
1
10
109.842163526058
20
2.02817655633012
30
0
41
1
10
109.815291717356
20
2.0472272215832
30
0
41
1
10
109.73446928445
20
2.10486338737789
30
0
41
1
10
109.680529547224
20
2.1437757997906
30
0
41
1
10
109.518543216991
20
2.26191721668371
30
0
41
1
10
109.410330566171
20
2.34254148813912
30
0
41
1
10
109.301899306199
20
2.42500257850489
30
0
0
SPLINE
5
190
100
AcDbEntity
8
1
62
256
6
ByLayer
370
18
48
1
60
0
100
AcDbSpline
70
4
71
3
72
56
73
52
40
0
40
0
40
0
40
0
40
0.031249999999892
40
0.046874999999838
40
0.046874999999838
40
0.062499999999784
40
0.062499999999784
40
0.124999999999581
40
0.124999999999581
40
0.187499999999378
40
0.187499999999378
40
0.203124999999327
40
0.203124999999327
40
0.218749999999276
40
0.218749999999276
40
0.249999999999174
40
0.249999999999174
40
0.281249999999073
40
0.281249999999073
40
0.296874999999028
40
0.300781249999014
40
0.300781249999014
40
0.302734374999013
40
0.302734374999013
40
0.304687499999013
40
0.304687499999013
40
0.312499999999023
40
0.312499999999023
40
0.374999999999122
40
0.374999999999122
40
0.437499999999221
40
0.437499999999221
40
0.453124999999237
40
0.453124999999237
40
0.468749999999251
40
0.468749999999251
40
0.499999999999295
40
0.499999999999295
40
0.624999999999453
40
0.624999999999453
40
0.687499999999533
40
0.687499999999533
40
0.718749999999573
40
0.718749999999573
40
0.749999999999612
40
0.749999999999612
40
0.874999999999806
40
0.874999999999806
40
0.937499999999903
40
0.937499999999903
40
1
40
1
40
1
40
1
41
1
10
109.301899306199
20
2.42500257851279
30
0
41
1
10
109.250658176459
20
2.44442264715434
30
0
41
1
10
109.172935228823
20
2.4747237391484
30
0
41
1
10
109.093888517577
20
2.50664136158002
30
0
41
1
10
109.040892178696
20
2.52826363955722
30
0
41
1
10
109.014203699517
20
2.53926398823481
30
0
41
1
10
108.88079821544
20
2.59475432989089
30
0
41
1
10
108.773815476138
20
2.64085026447418
30
0
41
1
10
108.558946496912
20
2.73520954318079
30
0
41
1
10
108.451064437632
20
2.78347605214506
30
0
41
1
10
108.315403796194
20
2.84447491382437
30
0
41
1
10
108.288231114926
20
2.85670813567194
30
0
41
1
10
108.233798412306
20
2.88122476467373
30
0
41
1
10
108.206559876531
20
2.89349848027706
30
0
41
1
10
108.125162976533
20
2.93016299546318
30
0
41
1
10
108.071174560852
20
2.95446359676151
30
0
41
1
10
107.963666229971
20
3.00267131134891
30
0
41
1
10
107.910146152107
20
3.02657872415003
30
0
41
1
10
107.830158801111
20
3.06207353336359
30
0
41
1
10
107.796891844831
20
3.07678681309508
30
0
41
1
10
107.763696058169
20
3.09139262113521
30
0
41
1
10
107.753741498576
20
3.09576776168885
30
0
41
1
10
107.750426940098
20
3.0972196795469
30
0
41
1
10
107.74376391721
20
3.10018533506857
30
0
41
1
10
107.740434261223
20
3.10166515736697
30
0
41
1
10
107.723790247388
20
3.10905806581275
30
0
41
1
10
107.710485577304
20
3.11495829964613
30
0
41
1
10
107.590836496772
20
3.16792325345969
30
0
41
1
10
107.485152452249
20
3.21400189919513
30
0
41
1
10
107.274671242582
20
3.30346621890851
30
0
41
1
10
107.169872448423
20
3.34686328678666
30
0
41
1
10
107.039195131065
20
3.39895473860002
30
0
41
1
10
107.01307447472
20
3.40926885312345
30
0
41
1
10
106.960844922949
20
3.42972262394909
30
0
41
1
10
106.934784402486
20
3.43983280950837
30
0
41
1
10
106.856945055622
20
3.46968214125903
30
0
41
1
10
106.805434684165
20
3.48898320563666
30
0
41
1
10
106.549616050912
20
3.58238732648681
30
0
41
1
10
106.350448427193
20
3.64720893936726
30
0
41
1
10
106.05747620007
20
3.72712773527709
30
0
41
1
10
105.960792004724
20
3.75088060623591
30
0
41
1
10
105.817031904578
20
3.7817675848188
30
0
41
1
10
105.769224997367
20
3.7912879609396
30
0
41
1
10
105.674693532787
20
3.80856179714633
30
0
41
1
10
105.627928340324
20
3.81632756196089
30
0
41
1
10
105.396446976293
20
3.85080279094998
30
0
41
1
10
105.218687130087
20
3.86452713324505
30
0
41
1
10
104.963095503098
20
3.86168270043177
30
0
41
1
10
104.879731840774
20
3.85683780449861
30
0
41
1
10
104.716643070502
20
3.83893894657237
30
0
41
1
10
104.636963444173
20
3.82583714447887
30
0
41
1
10
104.559214837455
20
3.80828943520046
30
0
0
SPLINE
5
191
100
AcDbEntity
8
1
62
256
6
ByLayer
370
18
48
1
60
0
100
AcDbSpline
70
4
71
1
72
4
73
2
40
0
40
0
40
1
40
1
41
1
10
104.26370243491
20
3.46543131804455
30
0
41
1
10
104.559214837455
20
3.80828943520046
30
0
0
SPLINE
5
192
100
AcDbEntity
8
1
62
256
6
ByLayer
370
18
48
1
60
0
100
AcDbSpline
70
4
71
3
72
18
73
14
40
0
40
0
40
0
40
0
40
0.250000000000001
40
0.250000000000001
40
0.500000000000002
40
0.500000000000002
40
0.625000000000001
40
0.625000000000001
40
0.750000000000001
40
0.750000000000001
40
0.875
40
0.875
40
1
40
1
40
1
40
1
41
1
10
111.583440616839
20
0.675371095262278
30
0
41
1
10
111.580386578026
20
0.666994633089018
30
0
41
1
10
111.577752434056
20
0.657675993687576
30
0
41
1
10
111.573645597553
20
0.636690666715424
30
0
41
1
10
111.572164111602
20
0.625038882559096
30
0
41
1
10
111.57125155774
20
0.605120728037178
30
0
41
1
10
111.571168131932
20
0.59807043232567
30
0
41
1
10
111.571582640468
20
0.582921801224813
30
0
41
1
10
111.572087547982
20
0.574789585671397
30
0
41
1
10
111.573831590499
20
0.557693166415362
30
0
41
1
10
111.575068089674
20
0.548683230378344
30
0
41
1
10
111.57849872471
20
0.529472459143619
30
0
41
1
10
111.580710168237
20
0.51921864110156
30
0
41
1
10
111.5834932889
20
0.508504544916008
30
0
0
SPLINE
5
193
100
AcDbEntity
8
1
62
256
6
ByLayer
370
18
48
1
60
0
100
AcDbSpline
70
4
71
3
72
8
73
4
40
0
40
0
40
0
40
0
40
1
40
1
40
1
40
1
41
1
10
111.583440616838
20
0.675371095262392
30
0
41
1
10
111.594900494547
20
0.70680266441704
30
0
41
1
10
111.605609946047
20
0.737131577878074
30
0
41
1
10
111.615415203418
20
0.766089247385651
30
0
0
SPLINE
5
194
100
AcDbEntity
8
1
62
256
6
ByLayer
370
18
48
1
60
0
100
AcDbSpline
70
4
71
3
72
25
73
21
40
0
40
0
40
0
40
0
40
0.249999999999958
40
0.249999999999958
40
0.374999999999965
40
0.374999999999965
40
0.499999999999971
40
0.499999999999971
40
0.624999999999978
40
0.624999999999978
40
0.687499999999982
40
0.687499999999982
40
0.749999999999986
40
0.812499999999989
40
0.812499999999989
40
0.874999999999993
40
0.874999999999993
40
0.937499999999996
40
0.937499999999996
40
1
40
1
40
1
40
1
41
1
10
111.935314912263
20
0.110630488939705
30
0
41
1
10
111.939509413723
20
0.0986909331436152
30
0
41
1
10
111.943451996999
20
0.0879573835388214
30
0
41
1
10
111.948779106577
20
0.074884379711591
30
0
41
1
10
111.950455722711
20
0.0710458167786783
30
0
41
1
10
111.953461945257
20
0.0649669913221658
30
0
41
1
10
111.954803077221
20
0.062693553829348
30
0
41
1
10
111.957049818429
20
0.0602829042437634
30
0
41
1
10
111.957926344981
20
0.060194348656438
30
0
41
1
10
111.95876511116
20
0.0621521315201221
30
0
41
1
10
111.958967415509
20
0.0631664972920873
30
0
41
1
10
111.959194637591
20
0.0659090405241045
30
0
41
1
10
111.95924756387
20
0.0693446805633187
30
0
41
1
10
111.958964410985
20
0.0741379277027363
30
0
41
1
10
111.958517655325
20
0.0796023988921775
30
0
41
1
10
111.958212858239
20
0.0826567103795242
30
0
41
1
10
111.957472473059
20
0.0892100559726998
30
0
41
1
10
111.957035441613
20
0.0927276138297373
30
0
41
1
10
111.956044429283
20
0.100191006944016
30
0
41
1
10
111.95548759584
20
0.104154975720064
30
0
41
1
10
111.954890981614
20
0.108230901721157
30
0
0
SPLINE
5
195
100
AcDbEntity
8
1
62
256
6
ByLayer
370
18
48
1
60
0
100
AcDbSpline
70
4
71
3
72
8
73
4
40
0
40
0
40
0
40
0
40
1
40
1
40
1
40
1
41
1
10
111.935314912263
20
0.110630488939705
30
0
41
1
10
111.931964871531
20
0.120166305920776
30
0
41
1
10
111.928554878157
20
0.129746232005033
30
0
41
1
10
111.925085452025
20
0.139369884696976
30
0
0
SPLINE
5
196
100
AcDbEntity
8
1
62
256
6
ByLayer
370
18
48
1
60
0
100
AcDbSpline
70
4
71
3
72
12
73
8
40
0
40
0
40
0
40
0
40
0.25
40
0.25
40
0.5
40
0.5
40
1
40
1
40
1
40
1
41
1
10
111.925085452025
20
0.139369884696919
30
0
41
1
10
111.917055495249
20
0.146254819048124
30
0
41
1
10
111.90809095702
20
0.153107190307878
30
0
41
1
10
111.88838597018
20
0.166688002445
30
0
41
1
10
111.877637452684
20
0.173423973843086
30
0
41
1
10
111.842745278967
20
0.193471102229722
30
0
41
1
10
111.815963236882
20
0.206621973720303
30
0
41
1
10
111.785698537012
20
0.219561269055646
30
0
0
SPLINE
5
197
100
AcDbEntity
8
1
62
256
6
ByLayer
370
18
48
1
60
0
100
AcDbSpline
70
4
71
3
72
30
73
26
40
0
40
0
40
0
40
0
40
0.0624999999999422
40
0.0624999999999422
40
0.0937499999999316
40
0.0937499999999316
40
0.124999999999921
40
0.124999999999921
40
0.187499999999945
40
0.187499999999945
40
0.249999999999968
40
0.249999999999968
40
0.312499999999992
40
0.312499999999992
40
0.375000000000015
40
0.375000000000015
40
0.500000000000012
40
0.500000000000012
40
0.625000000000009
40
0.625000000000009
40
0.750000000000006
40
0.750000000000006
40
0.875000000000003
40
0.875000000000003
40
1
40
1
40
1
40
1
41
1
10
111.5834932889
20
0.508504544915752
30
0
41
1
10
111.585971050426
20
0.495716798543555
30
0
41
1
10
111.589030662445
20
0.483080496456552
30
0
41
1
10
111.594431534212
20
0.464337377923812
30
0
41
1
10
111.596379262509
20
0.458094626144373
30
0
41
1
10
111.600430410248
20
0.445992808353282
30
0
41
1
10
111.602542642563
20
0.440098076143641
30
0
41
1
10
111.609107002629
20
0.422833912035827
30
0
41
1
10
111.613821232131
20
0.41182084491021
30
0
41
1
10
111.623357177489
20
0.391477500740279
30
0
41
1
10
111.628218499
20
0.382032637695886
30
0
41
1
10
111.638057035823
20
0.364268518368647
30
0
41
1
10
111.643052704197
20
0.355929808795764
30
0
41
1
10
111.652882131459
20
0.340527435554975
30
0
41
1
10
111.657746315983
20
0.333406949272359
30
0
41
1
10
111.672186133833
20
0.313420085177569
30
0
41
1
10
111.681631206535
20
0.30188583157269
30
0
41
1
10
111.700006998708
20
0.281489544519417
30
0
41
1
10
111.708818805233
20
0.272762005350899
30
0
41
1
10
111.725801438264
20
0.257421733446421
30
0
41
1
10
111.733970875788
20
0.250819186726062
30
0
41
1
10
111.749725712407
20
0.23929414104245
30
0
41
1
10
111.757310595145
20
0.234375427406093
30
0
41
1
10
111.771930119598
20
0.225946798403726
30
0
41
1
10
111.778964321635
20
0.222440398932889
30
0
41
1
10
111.785698537012
20
0.219561269055646
30
0
0
SPLINE
5
198
100
AcDbEntity
8
1
62
256
6
ByLayer
370
18
48
1
60
0
100
AcDbSpline
70
4
71
3
72
37
73
33
40
0
40
0
40
0
40
0
40
0.0422577086951575
40
0.0960068993634941
40
0.128430813830354
40
0.149990759517321
40
0.193068068342236
40
0.239835197834345
40
0.279467204763982
40
0.329961528051245
40
0.337178492625999
40
0.344396587822389
40
0.353363328060399
40
0.375782842031219
40
0.427688512045747
40
0.439907261088617
40
0.440750017419426
40
0.441239491600679
40
0.441644411594189
40
0.452217803828584
40
0.477784712473055
40
0.504230567321724
40
0.557824392169254
40
0.584858413768958
40
0.64384687085538
40
0.666677963211626
40
0.721801358445356
40
0.777295658555445
40
0.860895882032079
40
0.94404635126269
40
0.998487638350923
40
1
40
1
40
1
40
1
41
1
10
104.26370243491
20
3.46543131804455
30
0
41
1
10
104.374575880313
20
3.50584406600851
30
0
41
1
10
104.622892018505
20
3.56929271167206
30
0
41
1
10
104.952416123073
20
3.59030821074711
30
0
41
1
10
105.229389510888
20
3.57034214152446
30
0
41
1
10
105.481821386207
20
3.53477651475271
30
0
41
1
10
105.776290356468
20
3.47408649634218
30
0
41
1
10
106.123779576344
20
3.37333218463814
30
0
41
1
10
106.495584235128
20
3.23974321748463
30
0
41
1
10
106.762521436524
20
3.12675434847799
30
0
41
1
10
106.941322191184
20
3.04506522485826
30
0
41
1
10
107.005781869697
20
3.01501964829168
30
0
41
1
10
107.112579572702
20
2.96502395781371
30
0
41
1
10
107.343204071366
20
2.85301125269342
30
0
41
1
10
107.583410506887
20
2.72822906963833
30
0
41
1
10
107.763304924974
20
2.63068961918162
30
0
41
1
10
107.80084941239
20
2.61019014836188
30
0
41
1
10
107.805643270305
20
2.60753213345362
30
0
41
1
10
107.838395223639
20
2.59141021963615
30
0
41
1
10
107.942437254887
20
2.53972508627012
30
0
41
1
10
108.120133119729
20
2.44941570649854
30
0
41
1
10
108.418483764891
20
2.29397480115642
30
0
41
1
10
108.717650653433
20
2.13297976758412
30
0
41
1
10
109.099910884033
20
1.92313165445893
30
0
41
1
10
109.389938957444
20
1.76142715468845
30
0
41
1
10
109.741056638381
20
1.56409453847465
30
0
41
1
10
110.068953330174
20
1.37850370121652
30
0
41
1
10
110.511597663659
20
1.12579071036654
30
0
41
1
10
110.961123648937
20
0.866134724977485
30
0
41
1
10
111.32999125655
20
0.652201197374268
30
0
41
1
10
111.515426505045
20
0.546567471872379
30
0
41
1
10
111.581707872244
20
0.509502393221396
30
0
41
1
10
111.5834932889
20
0.508504544915752
30
0
0
SPLINE
5
199
100
AcDbEntity
8
1
62
256
6
ByLayer
370
18
48
1
60
0
100
AcDbSpline
70
4
71
1
72
4
73
2
40
0
40
0
40
1
40
1
41
1
10
104.135204304946
20
3.23604520823753
30
0
41
1
10
104.26370243491
20
3.46543131804455
30
0
0
SPLINE
5
19A
100
AcDbEntity
8
1
62
256
6
ByLayer
370
18
48
1
60
0
100
AcDbSpline
70
4
71
3
72
13
73
9
40
0
40
0
40
0
40
0
40
0.500000000000005
40
0.500000000000005
40
0.625000000000004
40
0.625000000000004
40
0.750000000000002
40
1
40
1
40
1
40
1
41
1
10
111.763429611422
20
0.0737148569382668
30
0
41
1
10
111.832722378397
20
0.0517322315058948
30
0
41
1
10
111.887156573998
20
0.0298418160642768
30
0
41
1
10
111.936332200458
20
0.0025958831722335
30
0
41
1
10
111.945221110372
20
-0.0028485428294402
30
0
41
1
10
111.961045143637
20
-0.0136938006096443
30
0
41
1
10
111.981872251098
20
-0.0299080263524729
30
0
41
1
10
111.993974039712
20
-0.0459612971392289
30
0
41
1
10
111.998155546942
20
-0.0565917865769165
30
0
0
SPLINE
5
19B
100
AcDbEntity
8
1
62
256
6
ByLayer
370
18
48
1
60
0
100
AcDbSpline
70
4
71
3
72
8
73
4
40
0
40
0
40
0
40
0
40
1
40
1
40
1
40
1
41
1
10
111.999320945007
20
-0.0587544955922397
30
0
41
1
10
111.999045950973
20
-0.0580333369447317
30
0
41
1
10
111.998657404294
20
-0.0573124341216271
30
0
41
1
10
111.998155546942
20
-0.056591786577826
30
0
0
SPLINE
5
19C
100
AcDbEntity
8
1
62
256
6
ByLayer
370
18
48
1
60
0
100
AcDbSpline
70
4
71
3
72
8
73
4
40
0
40
0
40
0
40
0
40
1
40
1
40
1
40
1
41
1
10
111.975488464563
20
0.0644656547734712
30
0
41
1
10
111.972602733178
20
0.0791931273169268
30
0
41
1
10
111.965741368868
20
0.0937816989024327
30
0
41
1
10
111.954890981618
20
0.10823090170831
30
0
0
SPLINE
5
19D
100
AcDbEntity
8
1
62
256
6
ByLayer
370
18
48
1
60
0
100
AcDbSpline
70
4
71
3
72
8
73
4
40
0
40
0
40
0
40
0
40
1
40
1
40
1
40
1
41
1
10
108.102341301824
20
2.1382571276931
30
0
41
1
10
108.091349043119
20
2.14447518547047
30
0
41
1
10
108.080236848601
20
2.1504606120634
30
0
41
1
10
108.069007201945
20
2.15621821695305
30
0
0
SPLINE
5
19E
100
AcDbEntity
8
1
62
256
6
ByLayer
370
18
48
1
60
0
100
AcDbSpline
70
4
71
3
72
8
73
4
40
0
40
0
40
0
40
0
40
1
40
1
40
1
40
1
41
1
10
111.553186990126
20
0.0714399109734813
30
0
41
1
10
111.623237134529
20
0.0722053089617987
30
0
41
1
10
111.69332059145
20
0.0729630289040131
30
0
41
1
10
111.763429611422
20
0.0737148569383805
30
0
0
SPLINE
5
19F
100
AcDbEntity
8
1
62
256
6
ByLayer
370
18
48
1
60
0
100
AcDbSpline
70
4
71
3
72
8
73
4
40
0
40
0
40
0
40
0
40
1
40
1
40
1
40
1
41
1
10
111.653649237299
20
0.135265914899293
30
0
41
1
10
111.693452512562
20
0.112929212884183
30
0
41
1
10
111.730064764904
20
0.0924209416947974
30
0
41
1
10
111.763429611422
20
0.0737148569381816
30
0
0
SPLINE
5
1A0
100
AcDbEntity
8
1
62
256
6
ByLayer
370
18
48
1
60
0
100
AcDbSpline
70
4
71
3
72
9
73
5
40
0
40
0
40
0
40
0
40
0.460712771030269
40
1
40
1
40
1
40
1
41
1
10
111.278975034949
20
0.346500031053608
30
0
41
1
10
111.346056649194
20
0.308680707128303
30
0
41
1
10
111.482486651135
20
0.231764095699276
30
0
41
1
10
111.597836738524
20
0.166731930727622
30
0
41
1
10
111.6536492373
20
0.13526591489935
30
0
0
SPLINE
5
1A1
100
AcDbEntity
8
1
62
256
6
ByLayer
370
18
48
1
60
0
100
AcDbSpline
70
4
71
3
72
37
73
33
40
0
40
0
40
0
40
0
40
0.0625000000000099
40
0.0625000000000099
40
0.12500000000002
40
0.12500000000002
40
0.18750000000003
40
0.18750000000003
40
0.250000000000039
40
0.250000000000039
40
0.281250000000044
40
0.281250000000044
40
0.312500000000049
40
0.375000000000059
40
0.375000000000059
40
0.500000000000079
40
0.500000000000079
40
0.562500000000081
40
0.562500000000081
40
0.593750000000082
40
0.593750000000082
40
0.625000000000083
40
0.625000000000083
40
0.750000000000059
40
0.750000000000059
40
0.875000000000035
40
0.875000000000035
40
0.937500000000018
40
0.937500000000018
40
0.968750000000009
40
0.968750000000009
40
1
40
1
40
1
40
1
41
1
10
108.10234130184
20
2.13825712768164
30
0
41
1
10
108.179061307248
20
2.09485845602319
30
0
41
1
10
108.255585311173
20
2.05143677406809
30
0
41
1
10
108.408424609096
20
1.96491515537062
30
0
41
1
10
108.484749403033
20
1.92183380730927
30
0
41
1
10
108.637168466718
20
1.8359463185312
30
0
41
1
10
108.71326228843
20
1.79313931065155
30
0
41
1
10
108.865140378222
20
1.7076489829889
30
0
41
1
10
108.940923222405
20
1.66496279047891
30
0
41
1
10
109.054356202683
20
1.60102475075658
30
0
41
1
10
109.092176044664
20
1.57970011266704
30
0
41
1
10
109.167240212178
20
1.53736618427692
30
0
41
1
10
109.279125530189
20
1.47425230843339
30
0
41
1
10
109.388915350484
20
1.41229777456567
30
0
41
1
10
109.605745827693
20
1.28994312102677
30
0
41
1
10
109.746641676504
20
1.21046861897028
30
0
41
1
10
109.952528092497
20
1.09438780068112
30
0
41
1
10
110.020245194902
20
1.05621229537144
30
0
41
1
10
110.120424968302
20
0.99973167124972
30
0
41
1
10
110.153585333141
20
0.981035423305713
30
0
41
1
10
110.219436532117
20
0.943909155755534
30
0
41
1
10
110.252169602195
20
0.925455326053083
30
0
41
1
10
110.414153174928
20
0.834145382441022
30
0
41
1
10
110.537238343571
20
0.764826953206125
30
0
41
1
10
110.770867791043
20
0.633275733329469
30
0
41
1
10
110.881446838497
20
0.571020094663766
30
0
41
1
10
111.037873504019
20
0.482795186122502
30
0
41
1
10
111.088431222606
20
0.454245830115838
30
0
41
1
10
111.161848975252
20
0.412743604375294
30
0
41
1
10
111.185919417605
20
0.399131141316701
30
0
41
1
10
111.233240186009
20
0.372367333011368
30
0
41
1
10
111.256369460132
20
0.359284475610423
30
0
41
1
10
111.278975034949
20
0.34650003105358
30
0
0
SPLINE
5
1A2
100
AcDbEntity
8
1
62
256
6
ByLayer
370
18
48
1
60
0
100
AcDbSpline
70
4
71
3
72
10
73
6
40
0
40
0
40
0
40
0
40
0.5
40
0.5
40
1
40
1
40
1
40
1
41
1
10
109.164848426335
20
0.348897466502564
30
0
41
1
10
109.211311356622
20
0.278730752656401
30
0
41
1
10
109.256542649877
20
0.207456049410666
30
0
41
1
10
109.343841458592
20
0.0620604860079652
30
0
41
1
10
109.38592260526
20
-0.0120481414731444
30
0
41
1
10
109.425816184489
20
-0.088124690063637
30
0
0
SPLINE
5
1A3
100
AcDbEntity
8
1
62
256
6
ByLayer
370
18
48
1
60
0
100
AcDbSpline
70
4
71
3
72
8
73
4
40
0
40
0
40
0
40
0
40
1
40
1
40
1
40
1
41
1
10
109.238254625206
20
0.350996981192651
30
0
41
1
10
109.213806598505
20
0.350264283007618
30
0
41
1
10
109.189337583209
20
0.349564892838259
30
0
41
1
10
109.164848426335
20
0.348897466502564
30
0
0
SPLINE
5
1A4
100
AcDbEntity
8
1
62
256
6
ByLayer
370
18
48
1
60
0
100
AcDbSpline
70
4
71
3
72
8
73
4
40
0
40
0
40
0
40
0
40
1
40
1
40
1
40
1
41
1
10
109.071580093586
20
0.525920451294922
30
0
41
1
10
109.126461284787
20
0.467007744947438
30
0
41
1
10
109.181985047832
20
0.408657146254569
30
0
41
1
10
109.238254625205
20
0.350996981192338
30
0
0
SPLINE
5
1A5
100
AcDbEntity
8
1
62
256
6
ByLayer
370
18
48
1
60
0
100
AcDbSpline
70
4
71
3
72
38
73
34
40
0
40
0
40
0
40
0
40
0.124999999999987
40
0.124999999999987
40
0.249999999999973
40
0.249999999999973
40
0.37499999999996
40
0.37499999999996
40
0.499999999999946
40
0.499999999999946
40
0.56249999999995
40
0.56249999999995
40
0.624999999999953
40
0.624999999999953
40
0.749999999999946
40
0.749999999999946
40
0.812499999999947
40
0.812499999999947
40
0.874999999999947
40
0.874999999999947
40
0.906249999999948
40
0.906249999999948
40
0.937499999999948
40
0.937499999999948
40
0.953124999999961
40
0.953124999999961
40
0.968749999999974
40
0.968749999999974
40
0.97656249999998
40
0.97656249999998
40
0.984374999999987
40
0.984374999999987
40
1
40
1
40
1
40
1
41
1
10
109.071579049948
20
0.52592157159728
30
0
41
1
10
109.039679652711
20
0.560164274571719
30
0
41
1
10
109.010580003186
20
0.596141123169502
30
0
41
1
10
108.957246163185
20
0.670914332140939
30
0
41
1
10
108.933019757551
20
0.709715774606508
30
0
41
1
10
108.888969058336
20
0.789638476086395
30
0
41
1
10
108.869532772114
20
0.830052145763517
30
0
41
1
10
108.835096186756
20
0.911025096519268
30
0
41
1
10
108.820074723294
20
0.951621332520176
30
0
41
1
10
108.80040689554
20
1.01234049090357
30
0
41
1
10
108.794321958058
20
1.03258264923016
30
0
41
1
10
108.783115650981
20
1.0728248010191
30
0
41
1
10
108.778022736175
20
1.09271426812688
30
0
41
1
10
108.764223041627
20
1.1516276980426
30
0
41
1
10
108.756913615667
20
1.18990743097669
30
0
41
1
10
108.749511269443
20
1.2454935040528
30
0
41
1
10
108.747644666142
20
1.26376809424491
30
0
41
1
10
108.745735312226
20
1.2991708187979
30
0
41
1
10
108.745643073444
20
1.31640423417321
30
0
41
1
10
108.748063528419
20
1.340695048903
30
0
41
1
10
108.74930114185
20
1.34853782676936
30
0
41
1
10
108.753232845229
20
1.36348709267563
30
0
41
1
10
108.755905169588
20
1.37057823779574
30
0
41
1
10
108.761878977423
20
1.3799175711801
30
0
41
1
10
108.764214712505
20
1.38281033604679
30
0
41
1
10
108.769694349855
20
1.38782454341967
30
0
41
1
10
108.772847773747
20
1.38997095378659
30
0
41
1
10
108.778467358775
20
1.39244568619165
30
0
41
1
10
108.780492203497
20
1.39314091873544
30
0
41
1
10
108.784730881879
20
1.39420360073782
30
0
41
1
10
108.78696054575
20
1.39457900825289
30
0
41
1
10
108.793994092198
20
1.39522607435842
30
0
41
1
10
108.799145110078
20
1.39499663861284
30
0
41
1
10
108.804472185027
20
1.39419223194065
30
0
0
SPLINE
5
1A6
100
AcDbEntity
8
1
62
256
6
ByLayer
370
18
48
1
60
0
100
AcDbSpline
70
4
71
3
72
52
73
48
40
0
40
0
40
0
40
0
40
0.125000000000055
40
0.125000000000055
40
0.187500000000082
40
0.187500000000082
40
0.25000000000011
40
0.25000000000011
40
0.375000000000164
40
0.375000000000164
40
0.406250000000177
40
0.406250000000177
40
0.437500000000191
40
0.437500000000191
40
0.500000000000173
40
0.500000000000173
40
0.531250000000164
40
0.531250000000164
40
0.562500000000155
40
0.562500000000155
40
0.593750000000145
40
0.593750000000145
40
0.625000000000136
40
0.625000000000136
40
0.640625000000133
40
0.640625000000133
40
0.65625000000013
40
0.65625000000013
40
0.687500000000124
40
0.687500000000124
40
0.70312500000012
40
0.70312500000012
40
0.718750000000116
40
0.718750000000116
40
0.750000000000107
40
0.750000000000107
40
0.781250000000099
40
0.781250000000099
40
0.812500000000091
40
0.812500000000091
40
0.875000000000018
40
0.875000000000018
40
0.906250000000014
40
0.906250000000014
40
0.937500000000009
40
0.937500000000009
40
1
40
1
40
1
40
1
41
1
10
108.642294028692
20
1.7985529649217
30
0
41
1
10
108.680027095285
20
1.77522671510943
30
0
41
1
10
108.717153976666
20
1.75173430739971
30
0
41
1
10
108.771686604824
20
1.71607756173495
30
0
41
1
10
108.7896702022
20
1.70412156570825
30
0
41
1
10
108.825172826094
20
1.68002189803218
30
0
41
1
10
108.842666101611
20
1.66789505362422
30
0
41
1
10
108.893897686693
20
1.63141602579847
30
0
41
1
10
108.926558773853
20
1.60690973217734
30
0
41
1
10
108.964279701721
20
1.57567316688559
30
0
41
1
10
108.971663594929
20
1.56939422006263
30
0
41
1
10
108.986051249905
20
1.55675556056494
30
0
41
1
10
108.993074737328
20
1.55037722251509
30
0
41
1
10
109.013289533122
20
1.53124039550022
30
0
41
1
10
109.025628579744
20
1.51850565608788
30
0
41
1
10
109.041656303921
20
1.4993954127188
30
0
41
1
10
109.046574654898
20
1.49302262952674
30
0
41
1
10
109.055195826513
20
1.48052323045539
30
0
41
1
10
109.058925642828
20
1.47436699505806
30
0
41
1
10
109.064997017205
20
1.4622666313345
30
0
41
1
10
109.067341611136
20
1.45631757011302
30
0
41
1
10
109.070309450052
20
1.44468899256356
30
0
41
1
10
109.0708882002
20
1.43917178509557
30
0
41
1
10
109.070305090698
20
1.4313645056603
30
0
41
1
10
109.06986856324
20
1.42884027367265
30
0
41
1
10
109.068491728791
20
1.42395345358994
30
0
41
1
10
109.067544333469
20
1.42157905525292
30
0
41
1
10
109.063970701185
20
1.41480791514445
30
0
41
1
10
109.060634038671
20
1.41076786148477
30
0
41
1
10
109.054324083299
20
1.40535334187405
30
0
41
1
10
109.052002879496
20
1.40365632595939
30
0
41
1
10
109.046941680746
20
1.40046944090867
30
0
41
1
10
109.044193707001
20
1.3989774405222
30
0
41
1
10
109.035502562075
20
1.39486671494149
30
0
41
1
10
109.029076177906
20
1.3925821640247
30
0
41
1
10
109.015190594263
20
1.3887607728094
30
0
41
1
10
109.007730227629
20
1.38722480424465
30
0
41
1
10
108.991936472671
20
1.38478979847591
30
0
41
1
10
108.983642955963
20
1.38389998562727
30
0
41
1
10
108.958142654684
20
1.38206826477435
30
0
41
1
10
108.940180712388
20
1.38192884139102
30
0
41
1
10
108.912247100065
20
1.38287292814798
30
0
41
1
10
108.902767514425
20
1.38338338554198
30
0
41
1
10
108.883518819387
20
1.38474812461857
30
0
41
1
10
108.873739222781
20
1.38560432085907
30
0
41
1
10
108.844308036005
20
1.38860158992114
30
0
41
1
10
108.824468887943
20
1.39117266089173
30
0
41
1
10
108.804472184424
20
1.39419223203174
30
0
0
SPLINE
5
1A7
100
AcDbEntity
8
1
62
256
6
ByLayer
370
18
48
1
60
0
100
AcDbSpline
70
4
71
3
72
8
73
4
40
0
40
0
40
0
40
0
40
1
40
1
40
1
40
1
41
1
10
104.13508278189
20
3.23560297002874
30
0
41
1
10
104.134055345557
20
3.23518743222928
30
0
41
1
10
104.133027751256
20
3.23477129622825
30
0
41
1
10
104.132
20
3.23435456151074
30
0
0
SPLINE
5
1A8
100
AcDbEntity
8
1
62
256
6
ByLayer
370
18
48
1
60
0
100
AcDbSpline
70
4
71
3
72
8
73
4
40
0
40
0
40
0
40
0
40
1
40
1
40
1
40
1
41
1
10
104.135081068982
20
-0.415216911780249
30
0
41
1
10
104.134054203445
20
-0.414837716318601
30
0
41
1
10
104.133027180113
20
-0.414459329343202
30
0
41
1
10
104.132
20
-0.414081752727782
30
0
0
SPLINE
5
1A9
100
AcDbEntity
8
1
62
256
6
ByLayer
370
18
48
1
60
0
100
AcDbSpline
70
4
71
3
72
8
73
4
40
0
40
0
40
0
40
0
40
1
40
1
40
1
40
1
41
1
10
108.069007201945
20
2.15621821695296
30
0
41
1
10
108.061781412208
20
2.15986567833079
30
0
41
1
10
108.054513228005
20
2.16339316777476
30
0
41
1
10
108.04720205648
20
2.16679890494609
30
0
0
SPLINE
5
1AA
100
AcDbEntity
8
1
62
256
6
ByLayer
370
18
48
1
60
0
100
AcDbSpline
70
4
71
3
72
26
73
22
40
0
40
0
40
0
40
0
40
0.0896079500879624
40
0.203583717903992
40
0.272338995909298
40
0.31805710502292
40
0.409403026472492
40
0.508573254454267
40
0.592613374197996
40
0.699687158853268
40
0.714990814005665
40
0.730296866654051
40
0.749310940926171
40
0.796851774325022
40
0.906918335706687
40
0.932828331496315
40
0.934615405844623
40
0.935653341391946
40
0.93651197882612
40
0.958932976860701
40
1
40
1
40
1
40
1
41
1
10
104.135204304946
20
3.23604520823753
30
0
41
1
10
104.250883831671
20
3.27824421629694
30
0
41
1
10
104.511334969727
20
3.34342321259226
30
0
41
1
10
104.85742433271
20
3.3611405858218
30
0
41
1
10
105.147810883902
20
3.33563467132089
30
0
41
1
10
105.412824470557
20
3.29402904117978
30
0
41
1
10
105.722175263376
20
3.22538596391891
30
0
41
1
10
106.085895656579
20
3.11401527852564
30
0
41
1
10
106.474471839757
20
2.96827490995923
30
0
41
1
10
106.752696458898
20
2.84618215152898
30
0
41
1
10
106.938875843168
20
2.75836228906394
30
0
41
1
10
107.006099292523
20
2.72609176990684
30
0
41
1
10
107.115922041398
20
2.67243750136646
30
0
41
1
10
107.353499375536
20
2.55254157892367
30
0
41
1
10
107.600136536749
20
2.41972028448274
30
0
41
1
10
107.785035358356
20
2.31629444346774
30
0
41
1
10
107.823604787159
20
2.29457074658308
30
0
41
1
10
107.828603791603
20
2.29175309856302
30
0
41
1
10
107.858640314929
20
2.27481900022369
30
0
41
1
10
107.938267744947
20
2.22992662780328
30
0
41
1
10
108.017527269052
20
2.18524162005903
30
0
41
1
10
108.069007201944
20
2.15621821695223
30
0
0
SPLINE
5
1AB
100
AcDbEntity
8
1
62
256
6
ByLayer
370
18
48
1
60
0
100
AcDbSpline
70
4
71
1
72
4
73
2
40
0
40
0
40
1
40
1
41
1
10
104.13508278189
20
3.23560297002865
30
0
41
1
10
104.135204304946
20
3.23604520823753
30
0
0
SPLINE
5
1AC
100
AcDbEntity
8
1
62
256
6
ByLayer
370
18
48
1
60
0
100
AcDbSpline
70
4
71
3
72
16
73
12
40
0
40
0
40
0
40
0
40
0.25
40
0.25
40
0.5
40
0.5
40
0.625
40
0.625
40
0.75
40
0.75
40
1
40
1
40
1
40
1
41
1
10
104.13508278189
20
3.23560297002865
30
0
41
1
10
104.220907390137
20
3.26694588824773
30
0
41
1
10
104.306340011527
20
3.29087504559982
30
0
41
1
10
104.477497292571
20
3.32681082762213
30
0
41
1
10
104.563206812543
20
3.33879990282253
30
0
41
1
10
104.69252647446
20
3.34908624868194
30
0
41
1
10
104.735757611736
20
3.35122490261807
30
0
41
1
10
104.822548114134
20
3.35307271668992
30
0
41
1
10
104.866166185648
20
3.35277837055392
30
0
41
1
10
104.997035380912
20
3.34846428698245
30
0
41
1
10
105.084375903624
20
3.34103459985747
30
0
41
1
10
105.172135320774
20
3.32960295474149
30
0
0
SPLINE
5
1AD
100
AcDbEntity
8
1
62
256
6
ByLayer
370
18
48
1
60
0
100
AcDbSpline
70
4
71
3
72
10
73
6
40
0
40
0
40
0
40
0
40
0.5
40
0.5
40
1
40
1
40
1
40
1
41
1
10
108.118387011629
20
2.11952149659595
30
0
41
1
10
108.207196136389
20
2.06637113020602
30
0
41
1
10
108.295156094856
20
2.01287199357446
30
0
41
1
10
108.469529005086
20
1.90559762289647
30
0
41
1
10
108.556021412969
20
1.85188574966799
30
0
41
1
10
108.642294028693
20
1.79855296492144
30
0
0
SPLINE
5
1AE
100
AcDbEntity
8
1
62
256
6
ByLayer
370
18
48
1
60
0
100
AcDbSpline
70
4
71
3
72
12
73
8
40
0
40
0
40
0
40
0
40
0.249999999999999
40
0.249999999999999
40
0.499999999999997
40
0.499999999999997
40
1
40
1
40
1
40
1
41
1
10
108.118387011572
20
2.11952149662997
30
0
41
1
10
108.112050402309
20
2.12331382207978
30
0
41
1
10
108.105880300936
20
2.12716372422935
30
0
41
1
10
108.093738687626
20
2.13493602484388
30
0
41
1
10
108.087769703491
20
2.1388592312735
30
0
41
1
10
108.070074189843
20
2.15071033469604
30
0
41
1
10
108.05855522253
20
2.15871849361071
30
0
41
1
10
108.04720205648
20
2.16679890494683
30
0
0
SPLINE
5
1AF
100
AcDbEntity
8
1
62
256
6
ByLayer
370
18
48
1
60
0
100
AcDbSpline
70
4
71
3
72
28
73
24
40
0
40
0
40
0
40
0
40
0.125000000000021
40
0.125000000000021
40
0.250000000000042
40
0.250000000000042
40
0.375000000000063
40
0.375000000000063
40
0.437500000000074
40
0.437500000000074
40
0.468750000000079
40
0.468750000000079
40
0.500000000000084
40
0.500000000000084
40
0.625000000000063
40
0.625000000000063
40
0.750000000000042
40
0.750000000000042
40
0.875000000000021
40
0.875000000000021
40
0.937500000000011
40
0.937500000000011
40
1
40
1
40
1
40
1
41
1
10
105.172135320773
20
3.32960295474186
30
0
41
1
10
105.28761571005
20
3.31456032544909
30
0
41
1
10
105.403450345783
20
3.29405849366717
30
0
41
1
10
105.63625706153
20
3.24314544507485
30
0
41
1
10
105.753225343154
20
3.21274122060285
30
0
41
1
10
105.988752367139
20
3.14281109522577
30
0
41
1
10
106.107309030943
20
3.10328752734651
30
0
41
1
10
106.286709994251
20
3.03764212305157
30
0
41
1
10
106.346771834896
20
3.01469897759841
30
0
41
1
10
106.437310817442
20
2.97873898133665
30
0
41
1
10
106.467564946829
20
2.96649458699244
30
0
41
1
10
106.528231557645
20
2.94149788289849
30
0
41
1
10
106.558665003421
20
2.92873623891612
30
0
41
1
10
106.710568167405
20
2.86397325366599
30
0
41
1
10
106.831737123
20
2.80892085717952
30
0
41
1
10
107.073907214454
20
2.6932689657387
30
0
41
1
10
107.194907277833
20
2.63267412764202
30
0
41
1
10
107.437267132055
20
2.50676311089936
30
0
41
1
10
107.558625876319
20
2.44144479821057
30
0
41
1
10
107.741347186631
20
2.34048463582781
30
0
41
1
10
107.802368552616
20
2.30633262957491
30
0
41
1
10
107.924713791343
20
2.23712406852383
30
0
41
1
10
107.986109682036
20
2.20202298675747
30
0
41
1
10
108.04720205648
20
2.16679890494658
30
0
0
SPLINE
5
1B0
100
AcDbEntity
8
1
62
256
6
ByLayer
370
18
48
1
60
0
100
AcDbSpline
70
4
71
3
72
8
73
4
40
0
40
0
40
0
40
0
40
1
40
1
40
1
40
1
41
1
10
108.06898891874
20
-2.57334027956603
30
0
41
1
10
108.061769775995
20
-2.57138009201122
30
0
41
1
10
108.054508318496
20
-2.56952299140303
30
0
41
1
10
108.047203957823
20
-2.56777121952527
30
0
0
SPLINE
5
1B1
100
AcDbEntity
8
1
62
256
6
ByLayer
370
18
48
1
60
0
100
AcDbSpline
70
4
71
1
72
4
73
2
40
0
40
0
40
1
40
1
41
1
10
104.135081068982
20
-0.41521691178022
30
0
41
1
10
104.135204305203
20
-0.414615091938998
30
0
0
SPLINE
5
1B2
100
AcDbEntity
8
1
62
256
6
ByLayer
370
18
48
1
60
0
100
AcDbSpline
70
4
71
3
72
16
73
12
40
0
40
0
40
0
40
0
40
0.250000000000013
40
0.250000000000013
40
0.500000000000026
40
0.500000000000026
40
0.625000000000033
40
0.625000000000033
40
0.750000000000039
40
0.750000000000039
40
1
40
1
40
1
40
1
41
1
10
104.135081068982
20
-0.41521691178022
30
0
41
1
10
104.220900910142
20
-0.447397016620187
30
0
41
1
10
104.306338279786
20
-0.485403271004742
30
0
41
1
10
104.477496191409
20
-0.569667127988936
30
0
41
1
10
104.563205909906
20
-0.615959208678504
30
0
41
1
10
104.692526895942
20
-0.690054855122611
30
0
41
1
10
104.735758417019
20
-0.715536383135031
30
0
41
1
10
104.822549234096
20
-0.767862481329672
30
0
41
1
10
104.866167484721
20
-0.794744813739527
30
0
41
1
10
104.997037080587
20
-0.876797519672408
30
0
41
1
10
105.084378599947
20
-0.933400811568703
30
0
41
1
10
105.172136585366
20
-0.991275538083784
30
0
0
SPLINE
5
1B3
100
AcDbEntity
8
1
62
256
6
ByLayer
370
18
48
1
60
0
100
AcDbSpline
70
4
71
3
72
28
73
24
40
0
40
0
40
0
40
0
40
0.125000000000045
40
0.125000000000045
40
0.25000000000009
40
0.25000000000009
40
0.375000000000135
40
0.375000000000135
40
0.437500000000157
40
0.437500000000157
40
0.468750000000158
40
0.468750000000158
40
0.500000000000159
40
0.500000000000159
40
0.625000000000119
40
0.625000000000119
40
0.750000000000079
40
0.750000000000079
40
0.875000000000039
40
0.875000000000039
40
0.93750000000002
40
0.93750000000002
40
1
40
1
40
1
40
1
41
1
10
105.172136585366
20
-0.991275538083698
30
0
41
1
10
105.28761566686
20
-1.06743182618112
30
0
41
1
10
105.403450705555
20
-1.14358233198024
30
0
41
1
10
105.636256774841
20
-1.295133266265
30
0
41
1
10
105.753225747674
20
-1.37053665090497
30
0
41
1
10
105.988752674412
20
-1.51983444767472
30
0
41
1
10
106.107309227136
20
-1.59373095048244
30
0
41
1
10
106.28671080085
20
-1.7028327770654
30
0
41
1
10
106.346773027618
20
-1.7389088343109
30
0
41
1
10
106.437312615439
20
-1.79250059459608
30
0
41
1
10
106.467566938168
20
-1.81027734648501
30
0
41
1
10
106.528233867018
20
-1.84564166394986
30
0
41
1
10
106.558667110451
20
-1.8632407923854
30
0
41
1
10
106.710568586347
20
-1.95033584542077
30
0
41
1
10
106.831736572181
20
-2.01742604450985
30
0
41
1
10
107.073905509038
20
-2.14572661193799
30
0
41
1
10
107.194905345966
20
-2.20694386921832
30
0
41
1
10
107.437265680998
20
-2.3226877667079
30
0
41
1
10
107.558624887932
20
-2.37722053435334
30
0
41
1
10
107.741347796705
20
-2.45326529985192
30
0
41
1
10
107.802369792935
20
-2.47765252504047
30
0
41
1
10
107.924716411859
20
-2.52436596497671
30
0
41
1
10
107.986111940321
20
-2.54670674782065
30
0
41
1
10
108.047203957822
20
-2.56777121952635
30
0
0
SPLINE
5
1B4
100
AcDbEntity
8
1
62
256
6
ByLayer
370
18
48
1
60
0
100
AcDbSpline
70
4
71
3
72
8
73
4
40
0
40
0
40
0
40
0
40
1
40
1
40
1
40
1
41
1
10
111.654397151221
20
-1.4732154879336
30
0
41
1
10
111.679986707537
20
-1.42624257075892
30
0
41
1
10
111.704172281817
20
-1.37833828302109
30
0
41
1
10
111.726967087608
20
-1.32952041343262
30
0
0
SPLINE
5
1B5
100
AcDbEntity
8
1
62
256
6
ByLayer
370
18
48
1
60
0
100
AcDbSpline
70
4
71
3
72
14
73
10
40
0
40
0
40
0
40
0
40
0.244405055430296
40
0.244405055430296
40
0.496256506383563
40
0.496256506383563
40
0.748126161542368
40
0.748126161542368
40
1
40
1
40
1
40
1
41
1
10
111.726967087611
20
-1.3295204134165
30
0
41
1
10
111.71635168316
20
-1.318703756324
30
0
41
1
10
111.705705639396
20
-1.30783252331622
30
0
41
1
10
111.684026679827
20
-1.28564730157325
30
0
41
1
10
111.672991816466
20
-1.2743298709257
30
0
41
1
10
111.650855408212
20
-1.25157650605644
30
0
41
1
10
111.639753813653
20
-1.24014051727059
30
0
41
1
10
111.617483961138
20
-1.21714946208491
30
0
41
1
10
111.606315655853
20
-1.20559434610382
30
0
41
1
10
111.595113769907
20
-1.19397910476275
30
0
0
SPLINE
5
1B6
100
AcDbEntity
8
1
62
256
6
ByLayer
370
18
48
1
60
0
100
AcDbSpline
70
4
71
1
72
4
73
2
40
0
40
0
40
1
40
1
41
1
10
104.135204305203
20
-0.414615091938998
30
0
41
1
10
104.263707699996
20
-0.0274456888116106
30
0
0
SPLINE
5
1B7
100
AcDbEntity
8
1
62
256
6
ByLayer
370
18
48
1
60
0
100
AcDbSpline
70
4
71
3
72
31
73
27
40
0
40
0
40
0
40
0
40
0.0295785450007807
40
0.089494469889084
40
0.157696617708034
40
0.226320316627757
40
0.272146627506641
40
0.295018354613247
40
0.340690292511145
40
0.439717960779558
40
0.592460253670073
40
0.699574761717577
40
0.714886277871666
40
0.730200555060256
40
0.749224315775313
40
0.768248495963179
40
0.82533452246139
40
0.891994170717404
40
0.921778876226467
40
0.93280557167788
40
0.934968401824495
40
0.935629887818819
40
0.936486367815572
40
0.941619312391004
40
0.950907982898864
40
1
40
1
40
1
40
1
41
1
10
104.135204305203
20
-0.414615091938998
30
0
41
1
10
104.173404439629
20
-0.428941959953619
30
0
41
1
10
104.288788704838
20
-0.47590378413696
30
0
41
1
10
104.49064836098
20
-0.574068729225047
30
0
41
1
10
104.741041271906
20
-0.715807407163283
30
0
41
1
10
104.97323563827
20
-0.860641013867735
30
0
41
1
10
105.148218520697
20
-0.974831462329774
30
0
41
1
10
105.295005008585
20
-1.07165182237097
30
0
41
1
10
105.512285979531
20
-1.2143494984681
30
0
41
1
10
105.902995528884
20
-1.46723211256384
30
0
41
1
10
106.381872011624
20
-1.76354000919292
30
0
41
1
10
106.75275141134
20
-1.973919947258
30
0
41
1
10
106.938862305866
20
-2.07366224172244
30
0
41
1
10
107.006126777176
20
-2.10915993846544
30
0
41
1
10
107.077611064432
20
-2.14622114219591
30
0
41
1
10
107.205472126023
20
-2.2111462741029
30
0
41
1
10
107.397344725182
20
-2.30431007937625
30
0
41
1
10
107.603617729702
20
-2.39621263702298
30
0
41
1
10
107.747884959923
20
-2.45546864277341
30
0
41
1
10
107.805515536527
20
-2.47825358528814
30
0
41
1
10
107.824116728004
20
-2.48551332917901
30
0
41
1
10
107.829053294664
20
-2.48743444585938
30
0
41
1
10
107.837232319197
20
-2.49061355152429
30
0
41
1
10
107.856099956031
20
-2.49788719163175
30
0
41
1
10
107.934598545433
20
-2.52762973764672
30
0
41
1
10
108.007462754842
20
-2.55320026627567
30
0
41
1
10
108.068988918741
20
-2.573340279566
30
0
0
SPLINE
5
1B8
100
AcDbEntity
8
1
62
256
6
ByLayer
370
18
48
1
60
0
100
AcDbSpline
70
4
71
3
72
8
73
4
40
0
40
0
40
0
40
0
40
1
40
1
40
1
40
1
41
1
10
108.102340955047
20
-2.58311810121091
30
0
41
1
10
108.091348205044
20
-2.57958679593599
30
0
41
1
10
108.080230110996
20
-2.57632880629765
30
0
41
1
10
108.06898891874
20
-2.57334027956597
30
0
0
SPLINE
5
1B9
100
AcDbEntity
8
1
62
256
6
ByLayer
370
18
48
1
60
0
100
AcDbSpline
70
4
71
3
72
36
73
32
40
0
40
0
40
0
40
0
40
0.0624999999999948
40
0.0624999999999948
40
0.0937499999999923
40
0.0937499999999923
40
0.12499999999999
40
0.12499999999999
40
0.187499999999985
40
0.187499999999985
40
0.24999999999998
40
0.24999999999998
40
0.37499999999997
40
0.37499999999997
40
0.437499999999965
40
0.437499999999965
40
0.46874999999997
40
0.46874999999997
40
0.499999999999976
40
0.499999999999976
40
0.624999999999982
40
0.624999999999982
40
0.749999999999988
40
0.749999999999988
40
0.78124999999999
40
0.78124999999999
40
0.812499999999991
40
0.812499999999991
40
0.874999999999994
40
0.874999999999994
40
1
40
1
40
1
40
1
41
1
10
108.102340955048
20
-2.58311810121236
30
0
41
1
10
108.179546175947
20
-2.60791946608666
30
0
41
1
10
108.256741759512
20
-2.63059749283738
30
0
41
1
10
108.37268482588
20
-2.66102154394264
30
0
41
1
10
108.411359517987
20
-2.67055935661031
30
0
41
1
10
108.488758638457
20
-2.68843131642268
30
0
41
1
10
108.527353245484
20
-2.69673537306372
30
0
41
1
10
108.64268336478
20
-2.71977714371792
30
0
41
1
10
108.719025730408
20
-2.73265821825805
30
0
41
1
10
108.87058813635
20
-2.75376941004845
30
0
41
1
10
108.94580733102
20
-2.76199831032426
30
0
41
1
10
109.169806193213
20
-2.77975344949428
30
0
41
1
10
109.316929478238
20
-2.78237383295345
30
0
41
1
10
109.534284379314
20
-2.77209325774919
30
0
41
1
10
109.606182490712
20
-2.76629365436048
30
0
41
1
10
109.713181293424
20
-2.75391503088417
30
0
41
1
10
109.748646794632
20
-2.74918107539116
30
0
41
1
10
109.818826436688
20
-2.73856072932617
30
0
41
1
10
109.853593093185
20
-2.73266851263188
30
0
41
1
10
110.025829101909
20
-2.70033831114398
30
0
41
1
10
110.158503820412
20
-2.66532147222171
30
0
41
1
10
110.413865036904
20
-2.57732939047796
30
0
41
1
10
110.536559593275
20
-2.52430464959508
30
0
41
1
10
110.683492510285
20
-2.44648527729416
30
0
41
1
10
110.712557761382
20
-2.43034548346799
30
0
41
1
10
110.770038136181
20
-2.3969040702745
30
0
41
1
10
110.798459147402
20
-2.37959537440724
30
0
41
1
10
110.882165629889
20
-2.32628467131312
30
0
41
1
10
110.936095343668
20
-2.288788556475
30
0
41
1
10
111.092360533879
20
-2.1705760661099
30
0
41
1
10
111.189176860512
20
-2.08418635458884
30
0
41
1
10
111.278733935315
20
-1.99014736223961
30
0
0
SPLINE
5
1BA
100
AcDbEntity
8
1
62
256
6
ByLayer
370
18
48
1
60
0
100
AcDbSpline
70
4
71
3
72
9
73
5
40
0
40
0
40
0
40
0
40
0.459897980280847
40
1
40
1
40
1
40
1
41
1
10
111.278733935315
20
-1.99014736223975
30
0
41
1
10
111.345909415538
20
-1.91948650323803
30
0
41
1
10
111.48276816223
20
-1.756788917324
30
0
41
1
10
111.598395162186
20
-1.57584296990129
30
0
41
1
10
111.654397151221
20
-1.4732154879336
30
0
0
SPLINE
5
1BB
100
AcDbEntity
8
1
62
256
6
ByLayer
370
18
48
1
60
0
100
AcDbSpline
70
4
71
3
72
8
73
4
40
0
40
0
40
0
40
0
40
1
40
1
40
1
40
1
41
1
10
111.595113769798
20
-1.19397910272045
30
0
41
1
10
111.503955892854
20
-1.08348474778282
30
0
41
1
10
111.412717745141
20
-0.972836573557714
30
0
41
1
10
111.321379144042
20
-0.861995713835228
30
0
0
SPLINE
5
1BC
100
AcDbEntity
8
1
62
256
6
ByLayer
370
18
48
1
60
0
100
AcDbSpline
70
4
71
3
72
32
73
28
40
0
40
0
40
0
40
0
40
0.124999999999968
40
0.124999999999968
40
0.249999999999936
40
0.249999999999936
40
0.281249999999932
40
0.281249999999932
40
0.312499999999927
40
0.374999999999919
40
0.374999999999919
40
0.499999999999901
40
0.499999999999901
40
0.562499999999891
40
0.562499999999891
40
0.593749999999896
40
0.593749999999896
40
0.624999999999901
40
0.624999999999901
40
0.749999999999942
40
0.749999999999942
40
0.874999999999982
40
0.874999999999982
40
0.906249999999986
40
0.906249999999986
40
0.937499999999991
40
1
40
1
40
1
40
1
41
1
10
111.321379144042
20
-0.861995713835228
30
0
41
1
10
111.271277527095
20
-0.951037012176073
30
0
41
1
10
111.215865013094
20
-1.03414557957726
30
0
41
1
10
111.094263756758
20
-1.18832473612847
30
0
41
1
10
111.028135179348
20
-1.25946253469843
30
0
41
1
10
110.938248300414
20
-1.34031254091659
30
0
41
1
10
110.919893116132
20
-1.35608694105801
30
0
41
1
10
110.882746572099
20
-1.3865679582872
30
0
41
1
10
110.826268556049
20
-1.43078406321004
30
0
41
1
10
110.76754843371
20
-1.47054842227246
30
0
41
1
10
110.647178841977
20
-1.5442608645553
30
0
41
1
10
110.563006979566
20
-1.58560839945295
30
0
41
1
10
110.430689072918
20
-1.63559722891659
30
0
41
1
10
110.385573219106
20
-1.65025502580383
30
0
41
1
10
110.316362034951
20
-1.66918917656011
30
0
41
1
10
110.292989043317
20
-1.67500306259316
30
0
41
1
10
110.245976375618
20
-1.68554341110521
30
0
41
1
10
110.222355636837
20
-1.69026675057694
30
0
41
1
10
110.103684169437
20
-1.71116959381371
30
0
41
1
10
110.006925295036
20
-1.71918447114894
30
0
41
1
10
109.809980823747
20
-1.71883511503941
30
0
41
1
10
109.709775313478
20
-1.71037569925247
30
0
41
1
10
109.58230151648
20
-1.68920500658948
30
0
41
1
10
109.556665942005
20
-1.68443354265028
30
0
41
1
10
109.505542206622
20
-1.67389933177935
30
0
41
1
10
109.428954796824
20
-1.65659406983045
30
0
41
1
10
109.352656765988
20
-1.63485662830263
30
0
41
1
10
109.301916058172
20
-1.61845589924118
30
0
0
SPLINE
5
1BD
100
AcDbEntity
8
1
62
256
6
ByLayer
370
18
48
1
60
0
100
AcDbSpline
70
4
71
1
72
4
73
2
40
0
40
0
40
1
40
1
41
1
10
104.263707699996
20
-0.0274456888116106
30
0
41
1
10
104.559224481394
20
0.676591482615663
30
0
0
SPLINE
5
1BE
100
AcDbEntity
8
1
62
256
6
ByLayer
370
18
48
1
60
0
100
AcDbSpline
70
4
71
3
72
42
73
38
40
0
40
0
40
0
40
0
40
0.0139048445826435
40
0.0420712612733632
40
0.0741330231213496
40
0.106392955722486
40
0.127935858882529
40
0.138687835044493
40
0.160158167619732
40
0.206710975968401
40
0.278514975921177
40
0.328869399605896
40
0.336067328119338
40
0.343266554592353
40
0.35220960558128
40
0.361152853763957
40
0.387988938036438
40
0.419325572374235
40
0.433327332806751
40
0.43851097137004
40
0.439527715670564
40
0.439838679578506
40
0.440241309973026
40
0.44265430211212
40
0.447020896878284
40
0.471918110347112
40
0.491626140828307
40
0.569539905620547
40
0.619164777409473
40
0.664600620968275
40
0.71953407840431
40
0.747141822334524
40
0.774824664189766
40
0.858125081099501
40
0.940963284213227
40
0.995201734614511
40
1
40
1
40
1
40
1
41
1
10
104.263707699996
20
-0.0274456888116106
30
0
41
1
10
104.300334915112
20
-0.0411732891678298
30
0
41
1
10
104.410709952881
20
-0.0863035635863127
30
0
41
1
10
104.603135216051
20
-0.181443765981499
30
0
41
1
10
104.841618037803
20
-0.319952417941067
30
0
41
1
10
105.062877179172
20
-0.462306489056374
30
0
41
1
10
105.229724178547
20
-0.574994016829493
30
0
41
1
10
105.369672137994
20
-0.670697431508586
30
0
41
1
10
105.576388722897
20
-0.81191997332968
30
0
41
1
10
105.948828517332
20
-1.06323739773623
30
0
41
1
10
106.406818224038
20
-1.36008774775738
30
0
41
1
10
106.762541913572
20
-1.57295353525115
30
0
41
1
10
106.941324446669
20
-1.67444265655544
30
0
41
1
10
107.005772848216
20
-1.7106227499531
30
0
41
1
10
107.075376654604
20
-1.74846091458082
30
0
41
1
10
107.19945581123
20
-1.81485920269372
30
0
41
1
10
107.385985822577
20
-1.91049839926632
30
0
41
1
10
107.586750747845
20
-2.00550990678238
30
0
41
1
10
107.727166529797
20
-2.06720262987633
30
0
41
1
10
107.783248758147
20
-2.09100858219185
30
0
41
1
10
107.801323809031
20
-2.09860161065117
30
0
41
1
10
107.806144564492
20
-2.10061028022741
30
0
41
1
10
107.815096138596
20
-2.10386231657085
30
0
41
1
10
107.835621815774
20
-2.11124018360434
30
0
41
1
10
107.926103262513
20
-2.14344583967409
30
0
41
1
10
108.065641426953
20
-2.18997002013541
30
0
41
1
10
108.41330726475
20
-2.29266472179396
30
0
41
1
10
108.826485877285
20
-2.37844994776245
30
0
41
1
10
109.294585957628
20
-2.41373099284451
30
0
41
1
10
109.685107248931
20
-2.4006816442554
30
0
41
1
10
110.000650476236
20
-2.35037789112832
30
0
41
1
10
110.257724200619
20
-2.28015576598617
30
0
41
1
10
110.567667346691
20
-2.16954273056942
30
0
41
1
10
110.961074038297
20
-1.95351203956898
30
0
41
1
10
111.329985666881
20
-1.60653716746833
30
0
41
1
10
111.519849175795
20
-1.32941416765567
30
0
41
1
10
111.589514031886
20
-1.20421986190581
30
0
41
1
10
111.59511377037
20
-1.19397910259843
30
0
0
SPLINE
5
1BF
100
AcDbEntity
8
1
62
256
6
ByLayer
370
18
48
1
60
0
100
AcDbSpline
70
4
71
3
72
8
73
4
40
0
40
0
40
0
40
0
40
1
40
1
40
1
40
1
41
1
10
109.421967186505
20
-1.35201325157513
30
0
41
1
10
109.385227519014
20
-1.44362021690634
30
0
41
1
10
109.345467986667
20
-1.53265386627828
30
0
41
1
10
109.301916058157
20
-1.61845589922689
30
0
0
SPLINE
5
1C0
100
AcDbEntity
8
1
62
256
6
ByLayer
370
18
48
1
60
0
100
AcDbSpline
70
4
71
3
72
8
73
4
40
0
40
0
40
0
40
0
40
1
40
1
40
1
40
1
41
1
10
104.338867805767
20
0.863006258586893
30
0
41
1
10
104.269834440368
20
0.885138730277532
30
0
41
1
10
104.200874282662
20
0.907279885995507
30
0
41
1
10
104.132
20
0.929469590119055
30
0
0
SPLINE
5
1C1
100
AcDbEntity
8
1
62
256
6
ByLayer
370
18
48
1
60
0
100
AcDbSpline
70
4
71
3
72
8
73
4
40
0
40
0
40
0
40
0
40
1
40
1
40
1
40
1
41
1
10
104.338867805767
20
0.863006258586864
30
0
41
1
10
104.413441996013
20
0.802401729087165
30
0
41
1
10
104.486890081225
20
0.74025781104325
30
0
41
1
10
104.559224481394
20
0.676591482615663
30
0
0
SPLINE
5
1C2
100
AcDbEntity
8
1
62
256
6
ByLayer
370
18
48
1
60
0
100
AcDbSpline
70
4
71
3
72
61
73
57
40
0
40
0
40
0
40
0
40
0.0312500000000199
40
0.0468750000000362
40
0.0468750000000362
40
0.0625000000000525
40
0.0625000000000525
40
0.125000000000105
40
0.125000000000105
40
0.187500000000157
40
0.187500000000157
40
0.203125000000173
40
0.203125000000173
40
0.21875000000019
40
0.21875000000019
40
0.250000000000209
40
0.250000000000209
40
0.281250000000229
40
0.281250000000229
40
0.296875000000238
40
0.296875000000238
40
0.300781250000241
40
0.300781250000241
40
0.302734375000242
40
0.302734375000242
40
0.304687500000243
40
0.312500000000248
40
0.375000000000221
40
0.375000000000221
40
0.406250000000208
40
0.406250000000208
40
0.437500000000194
40
0.437500000000194
40
0.453125000000187
40
0.453125000000187
40
0.468750000000181
40
0.468750000000181
40
0.500000000000167
40
0.500000000000167
40
0.562500000000141
40
0.562500000000141
40
0.625000000000114
40
0.625000000000114
40
0.687500000000087
40
0.687500000000087
40
0.718750000000074
40
0.718750000000074
40
0.750000000000061
40
0.750000000000061
40
0.812500000000045
40
0.812500000000045
40
0.87500000000003
40
0.87500000000003
40
0.937500000000015
40
0.937500000000015
40
1
40
1
40
1
40
1
41
1
10
109.301916058172
20
-1.61845589923101
30
0
41
1
10
109.250674555539
20
-1.62694050311714
30
0
41
1
10
109.172961740631
20
-1.63680797858544
30
0
41
1
10
109.093922150479
20
-1.64244990342442
30
0
41
1
10
109.040928033266
20
-1.64527845009243
30
0
41
1
10
109.014238825111
20
-1.64622628447663
30
0
41
1
10
108.880826175558
20
-1.64864386345366
30
0
41
1
10
108.773833332846
20
-1.64322731881325
30
0
41
1
10
108.55895549772
20
-1.61948217836394
30
0
41
1
10
108.451071174082
20
-1.60114345176675
30
0
41
1
10
108.315406322306
20
-1.57082789548267
30
0
41
1
10
108.288232758955
20
-1.56439387726985
30
0
41
1
10
108.233797598896
20
-1.5507964688168
30
0
41
1
10
108.206558818456
20
-1.54363715317075
30
0
41
1
10
108.125161262868
20
-1.52122516333563
30
0
41
1
10
108.071171854504
20
-1.50500589052197
30
0
41
1
10
107.963659023491
20
-1.4702264635232
30
0
41
1
10
107.910136468358
20
-1.45166157167955
30
0
41
1
10
107.830146759671
20
-1.42218914815445
30
0
41
1
10
107.80353163903
20
-1.41209994503879
30
0
41
1
10
107.770321759615
20
-1.39914336950415
30
0
41
1
10
107.763682789247
20
-1.39653445020082
30
0
41
1
10
107.753727600133
20
-1.39260196145943
30
0
41
1
10
107.750410879941
20
-1.39128086805869
30
0
41
1
10
107.743750629167
20
-1.38880535597295
30
0
41
1
10
107.727101083149
20
-1.38261191407341
30
0
41
1
10
107.604027909506
20
-1.33602426197308
30
0
41
1
10
107.485126414271
20
-1.28578275286864
30
0
41
1
10
107.327257817842
20
-1.21368056622765
30
0
41
1
10
107.274747149747
20
-1.18878848148694
30
0
41
1
10
107.169897157165
20
-1.13740469461655
30
0
41
1
10
107.117555534834
20
-1.11093171057811
30
0
41
1
10
107.039145468991
20
-1.0700110469173
30
0
41
1
10
107.013024504816
20
-1.05617836457185
30
0
41
1
10
106.960791320159
20
-1.02827985828159
30
0
41
1
10
106.934730740896
20
-1.01420022219929
30
0
41
1
10
106.856894698844
20
-0.971537574851851
30
0
41
1
10
106.805386035502
20
-0.94255162209484
30
0
41
1
10
106.651898704362
20
-0.854129215963383
30
0
41
1
10
106.550955987091
20
-0.793232307964928
30
0
41
1
10
106.351383371952
20
-0.668255234873186
30
0
41
1
10
106.252751852264
20
-0.60417728304256
30
0
41
1
10
106.057438135714
20
-0.473419843443139
30
0
41
1
10
105.960758829933
20
-0.406736098027182
30
0
41
1
10
105.816997852262
20
-0.305095708249297
30
0
41
1
10
105.769188392673
20
-0.270874540020344
30
0
41
1
10
105.674655106313
20
-0.202453180053198
30
0
41
1
10
105.627891029183
20
-0.168225405156448
30
0
41
1
10
105.489023800551
20
-0.0655732976649972
30
0
41
1
10
105.398285033097
20
0.0027940469752537
30
0
41
1
10
105.220500244239
20
0.139165021197186
30
0
41
1
10
105.133489442539
20
0.207182755965277
30
0
41
1
10
104.963101511769
20
0.342595714812887
30
0
41
1
10
104.879719948637
20
0.409989632082784
30
0
41
1
10
104.716650073038
20
0.543949231263724
30
0
41
1
10
104.636945919471
20
0.610509160321385
30
0
41
1
10
104.559224481394
20
0.676591482615692
30
0
0
SPLINE
5
1C3
100
AcDbEntity
8
1
62
256
6
ByLayer
370
18
48
1
60
0
100
AcDbSpline
70
4
71
3
72
8
73
4
40
0
40
0
40
0
40
0
40
1
40
1
40
1
40
1
41
1
10
111.988131940837
20
-0.0618926255357053
30
0
41
1
10
111.987939691355
20
-0.0608465721337836
30
0
41
1
10
111.987747372279
20
-0.0598005288021
30
0
41
1
10
111.987554983253
20
-0.0587544955922397
30
0
0
SPLINE
5
1C4
100
AcDbEntity
8
1
62
256
6
ByLayer
370
18
48
1
60
0
100
AcDbSpline
70
4
71
3
72
8
73
4
40
0
40
0
40
0
40
0
40
1
40
1
40
1
40
1
41
1
10
111.987743432361
20
0.0610050967673885
30
0
41
1
10
111.987680623444
20
0.0606700634647552
30
0
41
1
10
111.987617807079
20
0.0603350312083535
30
0
41
1
10
111.987554983253
20
0.0600000000000307
30
0
0
SPLINE
5
1C5
100
AcDbEntity
8
1
62
256
6
ByLayer
370
18
48
1
60
0
100
AcDbSpline
70
4
71
3
72
8
73
4
40
0
40
0
40
0
40
0
40
1
40
1
40
1
40
1
41
1
10
111.999512382427
20
0.0600000000000307
30
0
41
1
10
111.999519035782
20
0.0595111515065128
30
0
41
1
10
111.999525662219
20
0.0590223025977537
30
0
41
1
10
111.999532261735
20
0.0585334532736681
30
0
0
SPLINE
5
1C6
100
AcDbEntity
8
1
62
256
6
ByLayer
370
18
48
1
60
0
100
AcDbSpline
70
4
71
3
72
8
73
4
40
0
40
0
40
0
40
0
40
1
40
1
40
1
40
1
41
1
10
111.987360040824
20
0.0010480655722631
30
0
41
1
10
111.991379806943
20
-0.0188809564872372
30
0
41
1
10
111.995366659225
20
-0.0388151617747781
30
0
41
1
10
111.999320945007
20
-0.0587544955922397
30
0
0
SPLINE
5
1C7
100
AcDbEntity
8
1
62
256
6
ByLayer
370
18
48
1
60
0
100
AcDbSpline
70
4
71
3
72
8
73
4
40
0
40
0
40
0
40
0
40
1
40
1
40
1
40
1
41
1
10
108.068988918742
20
-4.87285307991698
30
0
41
1
10
108.061769775996
20
-4.87464503881768
30
0
41
1
10
108.054508318497
20
-4.87641759264392
30
0
41
1
10
108.047203957824
20
-4.87817118917366
30
0
0
SPLINE
5
1C8
100
AcDbEntity
8
1
62
256
6
ByLayer
370
18
48
1
60
0
100
AcDbSpline
70
4
71
3
72
16
73
12
40
0
40
0
40
0
40
0
40
0.281690118967178
40
0.281690118967178
40
0.563380237934356
40
0.563380237934356
40
0.845070356901534
40
0.845070356901534
40
0.985915416385122
40
0.985915416385122
40
1
40
1
40
1
40
1
41
1
10
105.172136585366
20
-4.47891376688574
30
0
41
1
10
105.287615666861
20
-4.54102605451178
30
0
41
1
10
105.403450705556
20
-4.59744284494323
30
0
41
1
10
105.636256774841
20
-4.69919921799112
30
0
41
1
10
105.753225747674
20
-4.74454336537522
30
0
41
1
10
105.988752674412
20
-4.82419885943048
30
0
41
1
10
106.107309227137
20
-4.85851255988678
30
0
41
1
10
106.28671080085
20
-4.90157977093091
30
0
41
1
10
106.346773027618
20
-4.91453269726273
30
0
41
1
10
106.413168758638
20
-4.92720998053497
30
0
41
1
10
106.419207742881
20
-4.92834817411838
30
0
41
1
10
106.425249743016
20
-4.92947204642425
30
0
0
SPLINE
5
1C9
100
AcDbEntity
8
1
62
256
6
ByLayer
370
18
48
1
60
0
100
AcDbSpline
70
4
71
3
72
8
73
4
40
0
40
0
40
0
40
0
40
1
40
1
40
1
40
1
41
1
10
107.023965564492
20
-4.99245386492879
30
0
41
1
10
107.113687316573
20
-4.99467924296599
30
0
41
1
10
107.203391090023
20
-4.99367603537644
30
0
41
1
10
107.293184744499
20
-4.98944556118337
30
0
0
SPLINE
5
1CA
100
AcDbEntity
8
1
62
256
6
ByLayer
370
18
48
1
60
0
100
AcDbSpline
70
4
71
3
72
12
73
8
40
0
40
0
40
0
40
0
40
0.0810939302290946
40
0.0810939302290946
40
0.540546965114548
40
0.540546965114548
40
1
40
1
40
1
40
1
41
1
10
107.648199845626
20
-4.95593243820576
30
0
41
1
10
107.65894319226
20
-4.9544100901831
30
0
41
1
10
107.6696899004
20
-4.95284117011809
30
0
41
1
10
107.741347796707
20
-4.94207223665211
30
0
41
1
10
107.802369792937
20
-4.93141845654068
30
0
41
1
10
107.924716411861
20
-4.90706501814805
30
0
41
1
10
107.986111940324
20
-4.89333313232177
30
0
41
1
10
108.047203957825
20
-4.87817118917363
30
0
0
SPLINE
5
1CB
100
AcDbEntity
8
1
62
256
6
ByLayer
370
18
48
1
60
0
100
AcDbSpline
70
4
71
3
72
31
73
27
40
0
40
0
40
0
40
0
40
0.029578545000752
40
0.0894944698885058
40
0.157696617707726
40
0.226320316627894
40
0.272146627506708
40
0.295018354612577
40
0.340690292510716
40
0.439717960783413
40
0.592460253666309
40
0.69957476171779
40
0.714886277872266
40
0.73020055506098
40
0.749224315776099
40
0.768248495963899
40
0.825334522461076
40
0.891994170717127
40
0.921778876226638
40
0.93280557167806
40
0.934968401824674
40
0.935629887818977
40
0.936486367815741
40
0.9416193123912
40
0.950907982899046
40
1
40
1
40
1
40
1
41
1
10
104.135204305203
20
-3.79262734907462
30
0
41
1
10
104.17340443963
20
-3.82178709929855
30
0
41
1
10
104.288788704835
20
-3.90898837016911
30
0
41
1
10
104.490648360984
20
-4.05585772293648
30
0
41
1
10
104.741041271905
20
-4.22552142772091
30
0
41
1
10
104.97323563827
20
-4.3686553938889
30
0
41
1
10
105.148218520695
20
-4.46665446704165
30
0
41
1
10
105.29500500859
20
-4.54351708703629
30
0
41
1
10
105.512285979534
20
-4.64886798596294
30
0
41
1
10
105.902995528852
20
-4.80667597040335
30
0
41
1
10
106.381872011664
20
-4.93359555068196
30
0
41
1
10
106.752751411334
20
-4.97908921905037
30
0
41
1
10
106.938862305867
20
-4.98950847289788
30
0
41
1
10
107.006126777175
20
-4.99215193284047
30
0
41
1
10
107.077611064432
20
-4.99363187043375
30
0
41
1
10
107.205472126021
20
-4.99366977800256
30
0
41
1
10
107.397344725186
20
-4.98585642329428
30
0
41
1
10
107.603617729705
20
-4.96374929122311
30
0
41
1
10
107.747884959923
20
-4.94081610060323
30
0
41
1
10
107.805515536528
20
-4.93039525589649
30
0
41
1
10
107.824116728005
20
-4.92689946252682
30
0
41
1
10
107.829053294664
20
-4.92596402555415
30
0
41
1
10
107.837232319198
20
-4.92440944796874
30
0
41
1
10
107.856099956031
20
-4.92076243826716
30
0
41
1
10
107.934598545434
20
-4.90505820400668
30
0
41
1
10
108.007462754843
20
-4.8884008493815
30
0
41
1
10
108.068988918742
20
-4.87285307991701
30
0
0
SPLINE
5
1CC
100
AcDbEntity
8
1
62
256
6
ByLayer
370
18
48
1
60
0
100
AcDbSpline
70
4
71
3
72
8
73
4
40
0
40
0
40
0
40
0
40
1
40
1
40
1
40
1
41
1
10
108.10234095504
20
-4.864128882816
30
0
41
1
10
108.09134820504
20
-4.866996810003
30
0
41
1
10
108.080230110994
20
-4.86990475195546
30
0
41
1
10
108.068988918742
20
-4.87285307991701
30
0
0
SPLINE
5
1CD
100
AcDbEntity
8
1
62
256
6
ByLayer
370
18
48
1
60
0
100
AcDbSpline
70
4
71
3
72
16
73
12
40
0
40
0
40
0
40
0
40
0.0487512539852082
40
0.0487512539852082
40
0.365834169323472
40
0.365834169323472
40
0.682917084661736
40
0.682917084661736
40
0.841458542330868
40
0.841458542330868
40
1
40
1
40
1
40
1
41
1
10
106.896965040519
20
4.9726660889973
30
0
41
1
10
106.915586720177
20
4.97413490113797
30
0
41
1
10
106.934205436216
20
4.97546396748578
30
0
41
1
10
107.073907214452
20
4.98439164965876
30
0
41
1
10
107.194907277831
20
4.98624841383764
30
0
41
1
10
107.437267132054
20
4.97817731241321
30
0
41
1
10
107.558625876318
20
4.96824832865792
30
0
41
1
10
107.741347186629
20
4.94432307374325
30
0
41
1
10
107.802368552614
20
4.93483795735344
30
0
41
1
10
107.924713791342
20
4.91279694665405
30
0
41
1
10
107.986109682034
20
4.9002137591859
30
0
41
1
10
108.047202056478
20
4.88617354095095
30
0
0
SPLINE
5
1CE
100
AcDbEntity
8
1
62
256
6
ByLayer
370
18
48
1
60
0
100
AcDbSpline
70
4
71
3
72
8
73
4
40
0
40
0
40
0
40
0
40
1
40
1
40
1
40
1
41
1
10
108.06900720194
20
4.88117223338577
30
0
41
1
10
108.061781412204
20
4.8828541638959
30
0
41
1
10
108.054513228002
20
4.88452109324732
30
0
41
1
10
108.047202056478
20
4.88617354095098
30
0
0
SPLINE
5
1CF
100
AcDbEntity
8
1
62
256
6
ByLayer
370
18
48
1
60
0
100
AcDbSpline
70
4
71
3
72
13
73
9
40
0
40
0
40
0
40
0
40
0.115435974630694
40
0.138969433224188
40
0.152637702397264
40
0.163944847242105
40
0.459200402420985
40
1
40
1
40
1
40
1
41
1
10
107.782116723699
20
4.93759672209293
30
0
41
1
10
107.793882580194
20
4.93573509656653
30
0
41
1
10
107.808046900535
20
4.93342660283116
30
0
41
1
10
107.823604787184
20
4.93080175432746
30
0
41
1
10
107.828603791628
20
4.92995136459831
30
0
41
1
10
107.858640314954
20
4.92480581253969
30
0
41
1
10
107.938267744962
20
4.91025972654416
30
0
41
1
10
108.017527269058
20
4.89326760313932
30
0
41
1
10
108.06900720194
20
4.88117223338566
30
0
0
SPLINE
5
1D0
100
AcDbEntity
8
1
62
256
6
ByLayer
370
18
48
1
60
0
100
AcDbSpline
70
4
71
3
72
8
73
4
40
0
40
0
40
0
40
0
40
1
40
1
40
1
40
1
41
1
10
111.999532261734
20
0.058533453327783
30
0
41
1
10
111.99566843538
20
0.0386569215623638
30
0
41
1
10
111.991762150483
20
0.0187867891917222
30
0
41
1
10
111.987812811836
20
-0.0010768539652588
30
0
0
SPLINE
5
1D1
100
AcDbEntity
8
1
62
256
6
ByLayer
370
18
48
1
60
0
100
AcDbSpline
70
4
71
1
72
4
73
2
40
0
40
0
40
1
40
1
41
1
10
111.988014570073
20
5.50160215198E-05
30
0
41
1
10
111.97546776079
20
0.0646312896523966
30
0
0
SPLINE
5
1D2
100
AcDbEntity
8
1
62
256
6
ByLayer
370
18
48
1
60
0
100
AcDbSpline
70
4
71
1
72
4
73
2
40
0
40
0
40
1
40
1
41
1
10
111.997998001728
20
0.0506402521526468
30
0
41
1
10
111.999496535262
20
0.0583389026956525
30
0
0
SPLINE
5
1D3
100
AcDbEntity
8
1
62
256
6
ByLayer
370
18
48
1
60
0
100
AcDbSpline
70
4
71
2
72
6
73
3
40
0
40
0
40
0
40
1
40
1
40
1
41
1
10
108.965755950905
20
2.7807287099686
30
0
41
1
10
108.557015138428
20
2.86684786695503
30
0
41
1
10
108.017361732332
20
3.00653452441213
30
0
0
LINE
5
7F
100
AcDbEntity
8
80
62
256
6
ByLayer
370
18
48
1
60
0
100
AcDbLine
10
0
20
0
30
0
11
-3
21
0
31
0
39
0
210
0
220
0
230
1
0
LINE
5
80
100
AcDbEntity
8
81
62
256
6
ByLayer
370
18
48
1
60
0
100
AcDbLine
10
112
20
0
30
0
11
115
21
0
31
0
39
0
210
0
220
0
230
1
0
LINE
5
81
100
AcDbEntity
8
SK4
62
256
6
ByLayer
370
18
48
0.05
60
0
100
AcDbLine
10
-51
20
0
30
0
11
115
21
0
31
0
39
0
210
0
220
0
230
1
0
LINE
5
83
100
AcDbEntity
8
4
62
256
6
ByLayer
370
18
48
0.05
60
0
100
AcDbLine
10
0
20
0
30
0
11
115
21
0
31
0
39
0
210
0
220
0
230
1
0
LINE
5
85
100
AcDbEntity
8
81
62
256
6
ByLayer
370
18
48
1
60
0
100
AcDbLine
10
-48
20
0
30
0
11
-52.9843
21
0
31
0
39
0
210
0
220
0
230
1
0
LINE
5
86
100
AcDbEntity
8
81
62
256
6
ByLayer
370
13
48
1
60
0
100
AcDbLine
10
-48
20
-3.998406
30
0
11
-48
21
-4.075852
31
0
39
0
210
0
220
0
230
1
0
LINE
5
87
100
AcDbEntity
8
81
62
256
6
ByLayer
370
18
48
1
60
0
100
AcDbLine
10
-48
20
4.075852
30
0
11
-48
21
4.076496
31
0
39
0
210
0
220
0
230
1
0
LINE
5
88
100
AcDbEntity
8
81
62
256
6
ByLayer
370
18
48
1
60
0
100
AcDbLine
10
-48
20
0
30
0
11
-48
21
-4.9843
31
0
39
0
210
0
220
0
230
1
0
LINE
5
89
100
AcDbEntity
8
81
62
256
6
ByLayer
370
18
48
1
60
0
100
AcDbLine
10
-52.9843
20
0
30
0
11
-55.8523
21
0
31
0
39
0
210
0
220
0
230
1
0
LINE
5
8A
100
AcDbEntity
8
81
62
256
6
ByLayer
370
18
48
1
60
0
100
AcDbLine
10
103.919192
20
0
30
0
11
104.131235
21
0
31
0
39
0
210
0
220
0
230
1
0
LINE
5
8B
100
AcDbEntity
8
81
62
256
6
ByLayer
370
18
48
1
60
0
100
AcDbLine
10
-48
20
-7.853065
30
0
11
-48
21
-7.8523
31
0
39
0
210
0
220
0
230
1
0
LINE
5
8C
100
AcDbEntity
8
81
62
256
6
ByLayer
370
18
48
1
60
0
100
AcDbLine
10
-48
20
0
30
0
11
-48
21
4.9843
31
0
39
0
210
0
220
0
230
1
0
LINE
5
8D
100
AcDbEntity
8
81
62
256
6
ByLayer
370
18
48
1
60
0
100
AcDbLine
10
-55.853065
20
0
30
0
11
-55.8523
21
0
31
0
39
0
210
0
220
0
230
1
0
LINE
5
8E
100
AcDbEntity
8
81
62
256
6
ByLayer
370
18
48
1
60
0
100
AcDbLine
10
-57.642526
20
0
30
0
11
-56.365108
21
0
31
0
39
0
210
0
220
0
230
1
0
LINE
5
8F
100
AcDbEntity
8
81
62
256
6
ByLayer
370
18
48
1
60
0
100
AcDbLine
10
107
20
0
30
0
11
104.132
21
0
31
0
39
0
210
0
220
0
230
1
0
LINE
5
90
100
AcDbEntity
8
81
62
256
6
ByLayer
370
18
48
1
60
0
100
AcDbLine
10
-48
20
-9.642526
30
0
11
-48
21
-8.365108
31
0
39
0
210
0
220
0
230
1
0
LINE
5
91
100
AcDbEntity
8
81
62
256
6
ByLayer
370
18
48
1
60
0
100
AcDbLine
10
-48
20
-4.9843
30
0
11
-48
21
-7.8523
31
0
39
0
210
0
220
0
230
1
0
LINE
5
92
100
AcDbEntity
8
81
62
256
6
ByLayer
370
18
48
1
60
0
100
AcDbLine
10
-48
20
4.9843
30
0
11
-48
21
4.076496
31
0
39
0
210
0
220
0
230
1
0
LINE
5
93
100
AcDbEntity
8
81
62
256
6
ByLayer
370
18
48
1
60
0
100
AcDbLine
10
-48
20
-8.065108
30
0
11
-48
21
-8.365108
31
0
39
0
210
0
220
0
230
1
0
LINE
5
94
100
AcDbEntity
8
81
62
256
6
ByLayer
370
18
48
1
60
0
100
AcDbLine
10
-56.065108
20
0
30
0
11
-55.853065
21
0
31
0
39
0
210
0
220
0
230
1
0
LINE
5
95
100
AcDbEntity
8
81
62
256
6
ByLayer
370
13
48
1
60
0
100
AcDbLine
10
-48
20
-4.9843
30
0
11
-48
21
-4.076496
31
0
39
0
210
0
220
0
230
1
0
LINE
5
96
100
AcDbEntity
8
81
62
256
6
ByLayer
370
18
48
1
60
0
100
AcDbLine
10
-56.065108
20
0
30
0
11
-55.853065
21
0
31
0
39
0
210
0
220
0
230
1
0
LINE
5
97
100
AcDbEntity
8
81
62
256
6
ByLayer
370
18
48
1
60
0
100
AcDbLine
10
-48
20
-8.065108
30
0
11
-48
21
-7.853065
31
0
39
0
210
0
220
0
230
1
0
LINE
5
98
100
AcDbEntity
8
81
62
256
6
ByLayer
370
18
48
1
60
0
100
AcDbLine
10
-48
20
0
30
0
11
-52.9843
21
0
31
0
39
0
210
0
220
0
230
1
0
LINE
5
99
100
AcDbEntity
8
81
62
256
6
ByLayer
370
18
48
1
60
0
100
AcDbLine
10
-56.065108
20
0
30
0
11
-56.365108
21
0
31
0
39
0
210
0
220
0
230
1
0
LINE
5
9A
100
AcDbEntity
8
81
62
256
6
ByLayer
370
18
48
1
60
0
100
AcDbLine
10
-48
20
3.998406
30
0
11
-48
21
4.075852
31
0
39
0
210
0
220
0
230
1
0
LINE
5
9B
100
AcDbEntity
8
81
62
256
6
ByLayer
370
13
48
1
60
0
100
AcDbLine
10
-48
20
-4.075852
30
0
11
-48
21
-4.076496
31
0
39
0
210
0
220
0
230
1
0
LINE
5
9C
100
AcDbEntity
8
81
62
256
6
ByLayer
370
18
48
1
60
0
100
AcDbLine
10
-52.9843
20
0
30
0
11
-55.8523
21
0
31
0
39
0
210
0
220
0
230
1
0
LINE
5
9D
100
AcDbEntity
8
81
62
256
6
ByLayer
370
18
48
1
60
0
100
AcDbLine
10
-57.642526
20
0
30
0
11
-56.365108
21
0
31
0
39
0
210
0
220
0
230
1
0
LINE
5
9E
100
AcDbEntity
8
81
62
256
6
ByLayer
370
18
48
1
60
0
100
AcDbLine
10
-48
20
4.095678
30
0
11
-48
21
3.998406
31
0
39
0
210
0
220
0
230
1
0
LINE
5
9F
100
AcDbEntity
8
81
62
256
6
ByLayer
370
18
48
1
60
0
100
AcDbLine
10
-55.853065
20
0
30
0
11
-55.8523
21
0
31
0
39
0
210
0
220
0
230
1
0
LINE
5
A0
100
AcDbEntity
8
81
62
256
6
ByLayer
370
18
48
1
60
0
100
AcDbLine
10
103.919192
20
0
30
0
11
103.619192
21
0
31
0
39
0
210
0
220
0
230
1
0
LINE
5
A1
100
AcDbEntity
8
81
62
256
6
ByLayer
370
18
48
1
60
0
100
AcDbLine
10
111.9843
20
0
30
0
11
107
21
0
31
0
39
0
210
0
220
0
230
1
0
LINE
5
A2
100
AcDbEntity
8
81
62
256
6
ByLayer
370
13
48
1
60
0
100
AcDbLine
10
-48
20
0
30
0
11
-48
21
-4.9843
31
0
39
0
210
0
220
0
230
1
0
LINE
5
A3
100
AcDbEntity
8
81
62
256
6
ByLayer
370
13
48
1
60
0
100
AcDbLine
10
-48
20
-4.095678
30
0
11
-48
21
-3.998406
31
0
39
0
210
0
220
0
230
1
0
LINE
5
A4
100
AcDbEntity
8
81
62
256
6
ByLayer
370
18
48
1
60
0
100
AcDbLine
10
-56.065108
20
0
30
0
11
-56.365108
21
0
31
0
39
0
210
0
220
0
230
1
0
LINE
5
A5
100
AcDbEntity
8
81
62
256
6
ByLayer
370
18
48
1
60
0
100
AcDbLine
10
104.131235
20
0
30
0
11
104.132
21
0
31
0
39
0
210
0
220
0
230
1
0
LINE
5
A6
100
AcDbEntity
8
81
62
256
6
ByLayer
370
18
48
1
60
0
100
AcDbLine
10
102.341774
20
0
30
0
11
103.619192
21
0
31
0
39
0
210
0
220
0
230
1
0
LINE
5
A7
100
AcDbEntity
8
1
62
256
6
ByLayer
370
18
48
1
60
0
100
AcDbLine
10
0
20
-8
30
0
11
0
21
8
31
0
39
0
210
0
220
0
230
1
0
LINE
5
A8
100
AcDbEntity
8
1
62
256
6
ByLayer
370
18
48
1
60
0
100
AcDbLine
10
111.983928
20
0.060897
30
0
11
111.987743
21
0.061005
31
0
39
0
210
0
220
0
230
1
0
LINE
5
A9
100
AcDbEntity
8
1
62
256
6
ByLayer
370
18
48
1
60
0
100
AcDbLine
10
111.999512
20
0.06
30
0
11
111.987555
21
0.06
31
0
39
0
210
0
220
0
230
1
0
LINE
5
AA
100
AcDbEntity
8
1
62
256
6
ByLayer
370
18
48
1
60
0
100
AcDbLine
10
111.816917
20
1.19673
30
0
11
111.686592
21
1.002309
31
0
39
0
210
0
220
0
230
1
0
LINE
5
AB
100
AcDbEntity
8
1
62
256
6
ByLayer
370
18
48
1
60
0
100
AcDbLine
10
111.975749
20
-0.061551
30
0
11
111.974983
21
-0.067525
31
0
39
0
210
0
220
0
230
1
0
LINE
5
AC
100
AcDbEntity
8
1
62
256
6
ByLayer
370
18
48
1
60
0
100
AcDbLine
10
111.978362
20
-0.056937
30
0
11
111.998156
21
-0.056592
31
0
39
0
210
0
220
0
230
1
0
LINE
5
AD
100
AcDbEntity
8
1
62
256
6
ByLayer
370
18
48
1
60
0
100
AcDbLine
10
111.352537
20
-1.901462
30
0
11
111.397344
21
-1.901482
31
0
39
0
210
0
220
0
230
1
0
LINE
5
AE
100
AcDbEntity
8
1
62
256
6
ByLayer
370
18
48
1
60
0
100
AcDbLine
10
100.834444
20
-4.032602
30
0
11
104.053477
21
-3.73562
31
0
39
0
210
0
220
0
230
1
0
LINE
5
AF
100
AcDbEntity
8
1
62
256
6
ByLayer
370
18
48
1
60
0
100
AcDbLine
10
104.135204
20
-3.792627
30
0
11
103.878049
21
-3.58593
31
0
39
0
210
0
220
0
230
1
0
LINE
5
B0
100
AcDbEntity
8
1
62
256
6
ByLayer
370
18
48
1
60
0
100
AcDbLine
10
111.698521
20
-1.274996
30
0
11
111.574907
21
-1.044005
31
0
39
0
210
0
220
0
230
1
0
LINE
5
B1
100
AcDbEntity
8
1
62
256
6
ByLayer
370
18
48
1
60
0
100
AcDbLine
10
111.587749
20
-0.947036
30
0
11
111.75347
21
-1.176591
31
0
39
0
210
0
220
0
230
1
0
LINE
5
B2
100
AcDbEntity
8
1
62
256
6
ByLayer
370
18
48
1
60
0
100
AcDbLine
10
111.511369
20
-0.644003
30
0
11
111.624812
21
-0.728338
31
0
39
0
210
0
220
0
230
1
0
LINE
5
B3
100
AcDbEntity
8
1
62
256
6
ByLayer
370
18
48
1
60
0
100
AcDbLine
10
103.863549
20
-3.603306
30
0
11
103.878049
21
-3.58593
31
0
39
0
210
0
220
0
230
1
0
LINE
5
B4
100
AcDbEntity
8
1
62
256
6
ByLayer
370
18
48
1
60
0
100
AcDbLine
10
104.006546
20
3.363754
30
0
11
104.338858
21
3.749307
31
0
39
0
210
0
220
0
230
1
0
LINE
5
B5
100
AcDbEntity
8
1
62
256
6
ByLayer
370
18
48
1
60
0
100
AcDbLine
10
103.878049
20
-3.58593
30
0
11
104.006552
21
-3.42938
31
0
39
0
210
0
220
0
230
1
0
LINE
5
B6
100
AcDbEntity
8
1
62
256
6
ByLayer
370
18
48
1
60
0
100
AcDbLine
10
104.263702
20
3.465431
30
0
11
104.006546
21
3.363754
31
0
39
0
210
0
220
0
230
1
0
LINE
5
B7
100
AcDbEntity
8
1
62
256
6
ByLayer
370
18
48
1
60
0
100
AcDbLine
10
103.878048
20
3.134368
30
0
11
104.006546
21
3.363754
31
0
39
0
210
0
220
0
230
1
0
LINE
5
B8
100
AcDbEntity
8
1
62
256
6
ByLayer
370
18
48
1
60
0
100
AcDbLine
10
104.135204
20
3.236045
30
0
11
103.878048
21
3.134368
31
0
39
0
210
0
220
0
230
1
0
LINE
5
B9
100
AcDbEntity
8
1
62
256
6
ByLayer
370
18
48
1
60
0
100
AcDbLine
10
103.863551
20
3.081613
30
0
11
103.878048
21
3.134368
31
0
39
0
210
0
220
0
230
1
0
LINE
5
BA
100
AcDbEntity
8
1
62
256
6
ByLayer
370
18
48
1
60
0
100
AcDbLine
10
104.263708
20
-3.636078
30
0
11
104.006552
21
-3.42938
31
0
39
0
210
0
220
0
230
1
0
LINE
5
BB
100
AcDbEntity
8
1
62
256
6
ByLayer
370
18
48
1
60
0
100
AcDbLine
10
104.006552
20
-3.42938
30
0
11
104.338868
21
-3.022305
31
0
39
0
210
0
220
0
230
1
0
LINE
5
BC
100
AcDbEntity
8
1
62
256
6
ByLayer
370
18
48
1
60
0
100
AcDbLine
10
104.132
20
1.598938
30
0
11
104.132
21
1.734653
31
0
39
0
210
0
220
0
230
1
0
LINE
5
BD
100
AcDbEntity
8
1
62
256
6
ByLayer
370
18
48
1
60
0
100
AcDbLine
10
111.095515
20
1.387501
30
0
11
111.397405
21
1.126463
31
0
39
0
210
0
220
0
230
1
0
LINE
5
BE
100
AcDbEntity
8
1
62
256
6
ByLayer
370
18
48
1
60
0
100
AcDbLine
10
111.095515
20
1.387501
30
0
11
111.08172
21
1.414514
31
0
39
0
210
0
220
0
230
1
0
LINE
5
BF
100
AcDbEntity
8
1
62
256
6
ByLayer
370
18
48
1
60
0
100
AcDbLine
10
109.740735
20
2.467238
30
0
11
109.226389
21
2.842885
31
0
39
0
210
0
220
0
230
1
0
LINE
5
C0
100
AcDbEntity
8
1
62
256
6
ByLayer
370
18
48
1
60
0
100
AcDbLine
10
100.834444
20
2.637995
30
0
11
104.132
21
1.262693
31
0
39
0
210
0
220
0
230
1
0
LINE
5
C1
100
AcDbEntity
8
1
62
256
6
ByLayer
370
18
48
1
60
0
100
AcDbLine
10
104.132
20
-2.867697
30
0
11
104.132
21
-3.020746
31
0
39
0
210
0
220
0
230
1
0
LINE
5
C2
100
AcDbEntity
8
1
62
256
6
ByLayer
370
18
48
1
60
0
100
AcDbLine
10
104.132
20
1.262693
30
0
11
104.132
21
1.598938
31
0
39
0
210
0
220
0
230
1
0
LINE
5
C3
100
AcDbEntity
8
1
62
256
6
ByLayer
370
18
48
1
60
0
100
AcDbLine
10
104.132
20
1.163792
30
0
11
104.132
21
1.262693
31
0
39
0
210
0
220
0
230
1
0
LINE
5
C4
100
AcDbEntity
8
1
62
256
6
ByLayer
370
18
48
1
60
0
100
AcDbLine
10
104.132
20
-2.651327
30
0
11
104.132
21
-2.505934
31
0
39
0
210
0
220
0
230
1
0
LINE
5
C5
100
AcDbEntity
8
1
62
256
6
ByLayer
370
18
48
1
60
0
100
AcDbLine
10
104.132
20
-2.867697
30
0
11
104.132
21
-2.651327
31
0
39
0
210
0
220
0
230
1
0
LINE
5
C6
100
AcDbEntity
8
1
62
256
6
ByLayer
370
18
48
1
60
0
100
AcDbLine
10
104.132
20
0.994364
30
0
11
104.132
21
1.163792
31
0
39
0
210
0
220
0
230
1
0
LINE
5
C7
100
AcDbEntity
8
1
62
256
6
ByLayer
370
18
48
1
60
0
100
AcDbLine
10
111.12284
20
-0.550662
30
0
11
111.321379
21
-0.861996
31
0
39
0
210
0
220
0
230
1
0
LINE
5
C8
100
AcDbEntity
8
1
62
256
6
ByLayer
370
18
48
1
60
0
100
AcDbLine
10
111.12284
20
-0.550662
30
0
11
111.120733
21
-0.543908
31
0
39
0
210
0
220
0
230
1
0
LINE
5
C9
100
AcDbEntity
8
1
62
256
6
ByLayer
370
18
48
1
60
0
100
AcDbLine
10
109.323527
20
0.323256
30
0
11
109.164848
21
0.348897
31
0
39
0
210
0
220
0
230
1
0
LINE
5
CA
100
AcDbEntity
8
1
62
256
6
ByLayer
370
18
48
1
60
0
100
AcDbLine
10
104.132
20
-1.478106
30
0
11
104.132
21
-1.310589
31
0
39
0
210
0
220
0
230
1
0
LINE
5
CB
100
AcDbEntity
8
1
62
256
6
ByLayer
370
18
48
1
60
0
100
AcDbLine
10
103.861947
20
-0.394503
30
0
11
103.878049
21
-0.315869
31
0
39
0
210
0
220
0
230
1
0
LINE
5
CC
100
AcDbEntity
8
1
62
256
6
ByLayer
370
18
48
1
60
0
100
AcDbLine
10
100.8906
20
-1.487005
30
0
11
104.132
21
-2.505934
31
0
39
0
210
0
220
0
230
1
0
LINE
5
CD
100
AcDbEntity
8
1
62
256
6
ByLayer
370
18
48
1
60
0
100
AcDbLine
10
104.132
20
-2.505934
30
0
11
104.132
21
-1.478106
31
0
39
0
210
0
220
0
230
1
0
LINE
5
CE
100
AcDbEntity
8
1
62
256
6
ByLayer
370
18
48
1
60
0
100
AcDbLine
10
103.878049
20
-0.315869
30
0
11
104.006552
21
0.0713
31
0
39
0
210
0
220
0
230
1
0
LINE
5
CF
100
AcDbEntity
8
1
62
256
6
ByLayer
370
18
48
1
60
0
100
AcDbLine
10
104.135204
20
-0.414615
30
0
11
103.878049
21
-0.315869
31
0
39
0
210
0
220
0
230
1
0
LINE
5
D0
100
AcDbEntity
8
1
62
256
6
ByLayer
370
18
48
1
60
0
100
AcDbLine
10
104.006552
20
0.0713
30
0
11
104.338868
21
0.863006
31
0
39
0
210
0
220
0
230
1
0
LINE
5
D1
100
AcDbEntity
8
1
62
256
6
ByLayer
370
18
48
1
60
0
100
AcDbLine
10
104.263708
20
-0.027446
30
0
11
104.006552
21
0.0713
31
0
39
0
210
0
220
0
230
1
0
LINE
5
D2
100
AcDbEntity
8
1
62
256
6
ByLayer
370
18
48
1
60
0
100
AcDbLine
10
104.132
20
1.734653
30
0
11
104.132
21
3.234355
31
0
39
0
210
0
220
0
230
1
0
LINE
5
D3
100
AcDbEntity
8
1
62
256
6
ByLayer
370
18
48
1
60
0
100
AcDbLine
10
104.132
20
-1.310589
30
0
11
104.132
21
-0.414082
31
0
39
0
210
0
220
0
230
1
0
LINE
5
D4
100
AcDbEntity
8
1
62
256
6
ByLayer
370
18
48
1
60
0
100
AcDbLine
10
104.132
20
0.994364
30
0
11
104.132
21
0.92947
31
0
39
0
210
0
220
0
230
1
0
LINE
5
D5
100
AcDbEntity
8
1
62
256
6
ByLayer
370
18
48
1
60
0
100
AcDbLine
10
111.975749
20
-0.061551
30
0
11
111.988132
21
-0.061893
31
0
39
0
210
0
220
0
230
1
0
LINE
5
D6
100
AcDbEntity
8
1
62
256
6
ByLayer
370
18
48
1
60
0
100
AcDbLine
10
111.999321
20
-0.058754
30
0
11
111.987555
21
-0.058754
31
0
39
0
210
0
220
0
230
1
0
LINE
5
D7
100
AcDbEntity
8
1
62
256
6
ByLayer
370
18
48
1
60
0
100
AcDbLine
10
1.976309
20
-8
30
0
11
1.976309
21
8
31
0
39
0
210
0
220
0
230
1
0
LINE
5
D8
100
AcDbEntity
8
81
62
256
6
ByLayer
370
18
48
1
60
0
100
AcDbLine
10
102.341774
20
4.095678
30
0
11
102.341774
21
4.051905
31
0
39
0
210
0
220
0
230
1
0
LINE
5
D9
100
AcDbEntity
8
81
62
256
6
ByLayer
370
18
48
1
60
0
100
AcDbLine
10
102.341774
20
-3.893454
30
0
11
102.341774
21
-4.095678
31
0
39
0
210
0
220
0
230
1
0
LINE
5
DA
100
AcDbEntity
8
81
62
256
6
ByLayer
370
18
48
1
60
0
100
AcDbLine
10
103.919192
20
-3.998406
30
0
11
103.619192
21
-3.998406
31
0
39
0
210
0
220
0
230
1
0
LINE
5
DB
100
AcDbEntity
8
81
62
256
6
ByLayer
370
18
48
1
60
0
100
AcDbLine
10
103.619192
20
3.998406
30
0
11
103.919192
21
3.998406
31
0
39
0
210
0
220
0
230
1
0
LINE
5
DC
100
AcDbEntity
8
81
62
256
6
ByLayer
370
18
48
1
60
0
100
AcDbLine
10
104.131235
20
-4.075852
30
0
11
104.132
21
-4.076496
31
0
39
0
210
0
220
0
230
1
0
LINE
5
DD
100
AcDbEntity
8
81
62
256
6
ByLayer
370
18
48
1
60
0
100
AcDbLine
10
104.132
20
4.076496
30
0
11
104.131235
21
4.075852
31
0
39
0
210
0
220
0
230
1
0
LINE
5
DE
100
AcDbEntity
8
SK1
62
256
6
ByLayer
370
18
48
1
60
0
100
AcDbLine
10
-48
20
7.2
30
0
11
-48
21
-7.2
31
0
39
0
210
0
220
0
230
1
0
LINE
5
E0
100
AcDbEntity
8
SK1
62
256
6
ByLayer
370
18
48
1
60
0
100
AcDbLine
10
0
20
-8
30
0
11
0
21
8
31
0
39
0
210
0
220
0
230
1
0
LINE
5
E1
100
AcDbEntity
8
SK1
62
256
6
ByLayer
370
18
48
1
60
0
100
AcDbLine
10
-47.2
20
8
30
0
11
-47.2
21
-8
31
0
39
0
210
0
220
0
230
1
0
LINE
5
E2
100
AcDbEntity
8
1
62
256
6
ByLayer
370
18
48
1
60
0
100
AcDbLine
10
111.974934
20
-0.067851
30
0
11
111.976158
21
-0.061562
31
0
39
0
210
0
220
0
230
1
0
LINE
5
E3
100
AcDbEntity
8
1
62
256
6
ByLayer
370
18
48
1
60
0
100
AcDbLine
10
1.976309
20
8
30
0
11
0
21
8
31
0
39
0
210
0
220
0
230
1
0
LINE
5
E4
100
AcDbEntity
8
1
62
256
6
ByLayer
370
18
48
1
60
0
100
AcDbLine
10
0
20
-8
30
0
11
1.976309
21
-8
31
0
39
0
210
0
220
0
230
1
0
LINE
5
E5
100
AcDbEntity
8
1
62
256
6
ByLayer
370
18
48
1
60
0
100
AcDbLine
10
101.212043
20
4.096
30
0
11
86.999261
21
4.096
31
0
39
0
210
0
220
0
230
1
0
LINE
5
E6
100
AcDbEntity
8
1
62
256
6
ByLayer
370
18
48
1
60
0
100
AcDbLine
10
86.999261
20
-4.096
30
0
11
101.460782
21
-4.096
31
0
39
0
210
0
220
0
230
1
0
LINE
5
E7
100
AcDbEntity
8
1
62
256
6
ByLayer
370
18
48
1
60
0
100
AcDbLine
10
86.95338
20
4.097053
30
0
11
1.976309
21
8
31
0
39
0
210
0
220
0
230
1
0
LINE
5
E8
100
AcDbEntity
8
1
62
256
6
ByLayer
370
18
48
1
60
0
100
AcDbLine
10
1.976309
20
-8
30
0
11
86.95338
21
-4.097053
31
0
39
0
210
0
220
0
230
1
0
LINE
5
E9
100
AcDbEntity
8
SK1
62
256
6
ByLayer
370
18
48
1
60
0
100
AcDbLine
10
-48
20
-7.2
30
0
11
-47.2
21
-8
31
0
39
0
210
0
220
0
230
1
0
LINE
5
EA
100
AcDbEntity
8
SK1
62
256
6
ByLayer
370
18
48
1
60
0
100
AcDbLine
10
-47.2
20
8
30
0
11
-48
21
7.2
31
0
39
0
210
0
220
0
230
1
0
LINE
5
EB
100
AcDbEntity
8
SK1
62
256
6
ByLayer
370
18
48
1
60
0
100
AcDbLine
10
0
20
8
30
0
11
-47.2
21
8
31
0
39
0
210
0
220
0
230
1
0
LINE
5
EC
100
AcDbEntity
8
SK1
62
256
6
ByLayer
370
18
48
1
60
0
100
AcDbLine
10
-47.2
20
-8
30
0
11
0
21
-8
31
0
39
0
210
0
220
0
230
1
0
LINE
5
ED
100
AcDbEntity
8
SK2
62
256
6
ByLayer
370
13
48
1
60
0
100
AcDbLine
10
-54.5
20
-8
30
0
11
-54.5
21
27.625256
31
0
39
0
210
0
220
0
230
1
0
LINE
5
EF
100
AcDbEntity
8
SK2
62
256
6
ByLayer
370
13
48
1
60
0
100
AcDbLine
10
-49.5875
20
-8
30
0
11
-56.5
21
-8
31
0
39
0
210
0
220
0
230
1
0
LINE
5
F0
100
AcDbEntity
8
SK2
62
256
6
ByLayer
370
13
48
1
60
0
100
AcDbLine
10
-49.5875
20
8
30
0
11
-56.5
21
8
31
0
39
0
210
0
220
0
230
1
0
LINE
5
F1
100
AcDbEntity
8
1
62
256
6
ByLayer
370
18
48
1
60
1
100
AcDbLine
10
-54.5
20
-8
30
0
11
-54.960784
21
-4.500002
31
0
39
0
210
0
220
0
230
1
0
LINE
5
F2
100
AcDbEntity
8
1
62
256
6
ByLayer
370
18
48
1
60
1
100
AcDbLine
10
-54.960784
20
-4.500002
30
0
11
-54.039216
21
-4.499998
31
0
39
0
210
0
220
0
230
1
0
LINE
5
F3
100
AcDbEntity
8
1
62
256
6
ByLayer
370
18
48
1
60
1
100
AcDbLine
10
-54.039216
20
-4.499998
30
0
11
-54.5
21
-8
31
0
39
0
210
0
220
0
230
1
0
LINE
5
F4
100
AcDbEntity
8
1
62
256
6
ByLayer
370
18
48
1
60
1
100
AcDbLine
10
-54.5
20
8
30
0
11
-54.039216
21
4.500002
31
0
39
0
210
0
220
0
230
1
0
LINE
5
F5
100
AcDbEntity
8
1
62
256
6
ByLayer
370
18
48
1
60
1
100
AcDbLine
10
-54.039216
20
4.500002
30
0
11
-54.960784
21
4.499998
31
0
39
0
210
0
220
0
230
1
0
LINE
5
F6
100
AcDbEntity
8
1
62
256
6
ByLayer
370
18
48
1
60
1
100
AcDbLine
10
-54.960784
20
4.499998
30
0
11
-54.5
21
8
31
0
39
0
210
0
220
0
230
1
0
LINE
5
F7
100
AcDbEntity
8
SK2
62
256
6
ByLayer
370
13
48
1
60
0
100
AcDbLine
10
91.5
20
4.095678
30
0
11
91.5
21
-34.095678
31
0
39
0
210
0
220
0
230
1
0
LINE
5
F8
100
AcDbEntity
8
SK2
62
256
6
ByLayer
370
13
48
1
60
0
100
AcDbLine
10
88.5875
20
-4.095678
30
0
11
93.5
21
-4.095678
31
0
39
0
210
0
220
0
230
1
0
LINE
5
F9
100
AcDbEntity
8
SK2
62
256
6
ByLayer
370
13
48
1
60
0
100
AcDbLine
10
88.5875
20
4.095678
30
0
11
93.5
21
4.095678
31
0
39
0
210
0
220
0
230
1
0
LINE
5
FA
100
AcDbEntity
8
1
62
256
6
ByLayer
370
18
48
1
60
1
100
AcDbLine
10
91.5
20
-4.095678
30
0
11
91.039216
21
-0.595679
31
0
39
0
210
0
220
0
230
1
0
LINE
5
FB
100
AcDbEntity
8
1
62
256
6
ByLayer
370
18
48
1
60
1
100
AcDbLine
10
91.039216
20
-0.595679
30
0
11
91.960784
21
-0.595676
31
0
39
0
210
0
220
0
230
1
0
LINE
5
FC
100
AcDbEntity
8
1
62
256
6
ByLayer
370
18
48
1
60
1
100
AcDbLine
10
91.960784
20
-0.595676
30
0
11
91.5
21
-4.095678
31
0
39
0
210
0
220
0
230
1
0
LINE
5
FD
100
AcDbEntity
8
1
62
256
6
ByLayer
370
18
48
1
60
1
100
AcDbLine
10
91.5
20
4.095678
30
0
11
91.960784
21
0.595679
31
0
39
0
210
0
220
0
230
1
0
LINE
5
FE
100
AcDbEntity
8
1
62
256
6
ByLayer
370
18
48
1
60
1
100
AcDbLine
10
91.960784
20
0.595679
30
0
11
91.039216
21
0.595676
31
0
39
0
210
0
220
0
230
1
0
LINE
5
FF
100
AcDbEntity
8
1
62
256
6
ByLayer
370
18
48
1
60
1
100
AcDbLine
10
91.039216
20
0.595676
30
0
11
91.5
21
4.095678
31
0
39
0
210
0
220
0
230
1
0
LINE
5
100
100
AcDbEntity
8
2
62
256
6
ByLayer
370
13
48
1
60
0
100
AcDbLine
10
123.5
20
-5
30
0
11
123.5
21
22.764627
31
0
39
0
210
0
220
0
230
1
0
LINE
5
102
100
AcDbEntity
8
2
62
256
6
ByLayer
370
13
48
1
60
0
100
AcDbLine
10
108.5875
20
-5
30
0
11
125.5
21
-5
31
0
39
0
210
0
220
0
230
1
0
LINE
5
103
100
AcDbEntity
8
2
62
256
6
ByLayer
370
13
48
1
60
0
100
AcDbLine
10
108.5875
20
5
30
0
11
125.5
21
5
31
0
39
0
210
0
220
0
230
1
0
LINE
5
104
100
AcDbEntity
8
1
62
256
6
ByLayer
370
18
48
1
60
1
100
AcDbLine
10
123.5
20
-5
30
0
11
123.039216
21
-1.500002
31
0
39
0
210
0
220
0
230
1
0
LINE
5
105
100
AcDbEntity
8
1
62
256
6
ByLayer
370
18
48
1
60
1
100
AcDbLine
10
123.039216
20
-1.500002
30
0
11
123.960784
21
-1.499998
31
0
39
0
210
0
220
0
230
1
0
LINE
5
106
100
AcDbEntity
8
1
62
256
6
ByLayer
370
18
48
1
60
1
100
AcDbLine
10
123.960784
20
-1.499998
30
0
11
123.5
21
-5
31
0
39
0
210
0
220
0
230
1
0
LINE
5
107
100
AcDbEntity
8
1
62
256
6
ByLayer
370
18
48
1
60
1
100
AcDbLine
10
123.5
20
5
30
0
11
123.960784
21
1.500002
31
0
39
0
210
0
220
0
230
1
0
LINE
5
108
100
AcDbEntity
8
1
62
256
6
ByLayer
370
18
48
1
60
1
100
AcDbLine
10
123.960784
20
1.500002
30
0
11
123.039216
21
1.499998
31
0
39
0
210
0
220
0
230
1
0
LINE
5
109
100
AcDbEntity
8
1
62
256
6
ByLayer
370
18
48
1
60
1
100
AcDbLine
10
123.039216
20
1.499998
30
0
11
123.5
21
5
31
0
39
0
210
0
220
0
230
1
0
LINE
5
10A
100
AcDbEntity
8
SK2
62
256
6
ByLayer
370
13
48
1
60
0
100
AcDbLine
10
0.39048
20
8.072822
30
0
11
-12.776112
21
8.677437
31
0
39
0
210
0
220
0
230
1
0
LINE
5
10B
100
AcDbEntity
8
SK2
62
256
6
ByLayer
370
13
48
1
60
0
100
AcDbLine
10
-46.4125
20
0
30
0
11
-8.975242
21
0
31
0
39
0
210
0
220
0
230
1
0
LINE
5
10C
100
AcDbEntity
8
1
62
256
6
ByLayer
370
18
48
1
60
1
100
AcDbLine
10
-10.778217
20
8.585693
30
0
11
-10.46203
21
5.069682
31
0
39
0
210
0
220
0
230
1
0
LINE
5
10D
100
AcDbEntity
8
1
62
256
6
ByLayer
370
18
48
1
60
1
100
AcDbLine
10
-10.46203
20
5.069682
30
0
11
-11.382815
21
5.107648
31
0
39
0
210
0
220
0
230
1
0
LINE
5
10E
100
AcDbEntity
8
1
62
256
6
ByLayer
370
18
48
1
60
1
100
AcDbLine
10
-11.382815
20
5.107648
30
0
11
-10.778217
21
8.585693
31
0
39
0
210
0
220
0
230
1
0
LINE
5
10F
100
AcDbEntity
8
1
62
256
6
ByLayer
370
18
48
1
60
1
100
AcDbLine
10
-10.975242
20
0
30
0
11
-11.419659
21
3.502114
31
0
39
0
210
0
220
0
230
1
0
LINE
5
110
100
AcDbEntity
8
1
62
256
6
ByLayer
370
18
48
1
60
1
100
AcDbLine
10
-11.419659
20
3.502114
30
0
11
-10.498102
21
3.497809
31
0
39
0
210
0
220
0
230
1
0
LINE
5
111
100
AcDbEntity
8
1
62
256
6
ByLayer
370
18
48
1
60
1
100
AcDbLine
10
-10.498102
20
3.497809
30
0
11
-10.975242
21
0
31
0
39
0
210
0
220
0
230
1
0
LINE
5
1D8
100
AcDbEntity
8
1
62
256
6
ByLayer
370
18
48
1
60
1
100
AcDbLine
10
-54.5
20
-8
30
0
11
-54.960784
21
-4.500002
31
0
39
0
210
0
220
0
230
1
0
LINE
5
1D9
100
AcDbEntity
8
1
62
256
6
ByLayer
370
18
48
1
60
1
100
AcDbLine
10
-54.960784
20
-4.500002
30
0
11
-54.039216
21
-4.499998
31
0
39
0
210
0
220
0
230
1
0
LINE
5
1DA
100
AcDbEntity
8
1
62
256
6
ByLayer
370
18
48
1
60
1
100
AcDbLine
10
-54.039216
20
-4.499998
30
0
11
-54.5
21
-8
31
0
39
0
210
0
220
0
230
1
0
LINE
5
1DC
100
AcDbEntity
8
1
62
256
6
ByLayer
370
18
48
1
60
1
100
AcDbLine
10
-54.5
20
8
30
0
11
-54.039216
21
4.500002
31
0
39
0
210
0
220
0
230
1
0
LINE
5
1DD
100
AcDbEntity
8
1
62
256
6
ByLayer
370
18
48
1
60
1
100
AcDbLine
10
-54.039216
20
4.500002
30
0
11
-54.960784
21
4.499998
31
0
39
0
210
0
220
0
230
1
0
LINE
5
1DE
100
AcDbEntity
8
1
62
256
6
ByLayer
370
18
48
1
60
1
100
AcDbLine
10
-54.960784
20
4.499998
30
0
11
-54.5
21
8
31
0
39
0
210
0
220
0
230
1
0
LINE
5
1E2
100
AcDbEntity
8
1
62
256
6
ByLayer
370
18
48
1
60
1
100
AcDbLine
10
91.5
20
-4.095678
30
0
11
91.039216
21
-0.595679
31
0
39
0
210
0
220
0
230
1
0
LINE
5
1E3
100
AcDbEntity
8
1
62
256
6
ByLayer
370
18
48
1
60
1
100
AcDbLine
10
91.039216
20
-0.595679
30
0
11
91.960784
21
-0.595676
31
0
39
0
210
0
220
0
230
1
0
LINE
5
1E4
100
AcDbEntity
8
1
62
256
6
ByLayer
370
18
48
1
60
1
100
AcDbLine
10
91.960784
20
-0.595676
30
0
11
91.5
21
-4.095678
31
0
39
0
210
0
220
0
230
1
0
LINE
5
1E6
100
AcDbEntity
8
1
62
256
6
ByLayer
370
18
48
1
60
1
100
AcDbLine
10
91.5
20
4.095678
30
0
11
91.960784
21
0.595679
31
0
39
0
210
0
220
0
230
1
0
LINE
5
1E7
100
AcDbEntity
8
1
62
256
6
ByLayer
370
18
48
1
60
1
100
AcDbLine
10
91.960784
20
0.595679
30
0
11
91.039216
21
0.595676
31
0
39
0
210
0
220
0
230
1
0
LINE
5
1E8
100
AcDbEntity
8
1
62
256
6
ByLayer
370
18
48
1
60
1
100
AcDbLine
10
91.039216
20
0.595676
30
0
11
91.5
21
4.095678
31
0
39
0
210
0
220
0
230
1
0
LINE
5
1EC
100
AcDbEntity
8
1
62
256
6
ByLayer
370
18
48
1
60
1
100
AcDbLine
10
123.5
20
-5
30
0
11
123.039216
21
-1.500002
31
0
39
0
210
0
220
0
230
1
0
LINE
5
1ED
100
AcDbEntity
8
1
62
256
6
ByLayer
370
18
48
1
60
1
100
AcDbLine
10
123.039216
20
-1.500002
30
0
11
123.960784
21
-1.499998
31
0
39
0
210
0
220
0
230
1
0
LINE
5
1EE
100
AcDbEntity
8
1
62
256
6
ByLayer
370
18
48
1
60
1
100
AcDbLine
10
123.960784
20
-1.499998
30
0
11
123.5
21
-5
31
0
39
0
210
0
220
0
230
1
0
LINE
5
1F0
100
AcDbEntity
8
1
62
256
6
ByLayer
370
18
48
1
60
1
100
AcDbLine
10
123.5
20
5
30
0
11
123.960784
21
1.500002
31
0
39
0
210
0
220
0
230
1
0
LINE
5
1F1
100
AcDbEntity
8
1
62
256
6
ByLayer
370
18
48
1
60
1
100
AcDbLine
10
123.960784
20
1.500002
30
0
11
123.039216
21
1.499998
31
0
39
0
210
0
220
0
230
1
0
LINE
5
1F2
100
AcDbEntity
8
1
62
256
6
ByLayer
370
18
48
1
60
1
100
AcDbLine
10
123.039216
20
1.499998
30
0
11
123.5
21
5
31
0
39
0
210
0
220
0
230
1
0
LINE
5
1F5
100
AcDbEntity
8
1
62
256
6
ByLayer
370
18
48
1
60
1
100
AcDbLine
10
-10.778217
20
8.585693
30
0
11
-10.46203
21
5.069682
31
0
39
0
210
0
220
0
230
1
0
LINE
5
1F6
100
AcDbEntity
8
1
62
256
6
ByLayer
370
18
48
1
60
1
100
AcDbLine
10
-10.46203
20
5.069682
30
0
11
-11.382815
21
5.107648
31
0
39
0
210
0
220
0
230
1
0
LINE
5
1F7
100
AcDbEntity
8
1
62
256
6
ByLayer
370
18
48
1
60
1
100
AcDbLine
10
-11.382815
20
5.107648
30
0
11
-10.778217
21
8.585693
31
0
39
0
210
0
220
0
230
1
0
LINE
5
1F9
100
AcDbEntity
8
1
62
256
6
ByLayer
370
18
48
1
60
1
100
AcDbLine
10
-10.975242
20
0
30
0
11
-11.419659
21
3.502114
31
0
39
0
210
0
220
0
230
1
0
LINE
5
1FA
100
AcDbEntity
8
1
62
256
6
ByLayer
370
18
48
1
60
1
100
AcDbLine
10
-11.419659
20
3.502114
30
0
11
-10.498102
21
3.497809
31
0
39
0
210
0
220
0
230
1
0
LINE
5
1FB
100
AcDbEntity
8
1
62
256
6
ByLayer
370
18
48
1
60
1
100
AcDbLine
10
-10.498102
20
3.497809
30
0
11
-10.975242
21
0
31
0
39
0
210
0
220
0
230
1
0
MTEXT
5
1D4
100
AcDbEntity
8
SK2
62
256
6
ByLayer
370
18
48
1
60
0
100
AcDbMText
10
-55.841114
20
12.658437
30
0
210
0
220
0
230
1
1
%%c
40
3
41
0
44
1.084337
50
90
71
7
72
5
7
iso_b_vert
0
MTEXT
5
1D7
100
AcDbEntity
8
SK2
62
256
6
ByLayer
370
18
48
1
60
0
100
AcDbMText
10
-55.841114
20
18.635
30
0
210
0
220
0
230
1
1
\W0.6563;16 h6
40
3
41
0
44
1.084337
50
90
71
7
72
5
7
iso_b_vert
0
MTEXT
5
1E0
100
AcDbEntity
8
SK2
62
256
6
ByLayer
370
18
48
1
60
0
100
AcDbMText
10
90.158886
20
-32.43724
30
0
210
0
220
0
230
1
1
%%c
40
3
41
0
44
1.084337
50
90
71
7
72
5
7
iso_b_vert
0
MTEXT
5
1E1
100
AcDbEntity
8
SK2
62
256
6
ByLayer
370
18
48
1
60
0
100
AcDbMText
10
90.158886
20
-26.460678
30
0
210
0
220
0
230
1
1
\W0.6662;8.19
40
3
41
0
44
1.084337
50
90
71
7
72
5
7
iso_b_vert
0
MTEXT
5
1EA
100
AcDbEntity
8
2
62
256
6
ByLayer
370
18
48
1
60
0
100
AcDbMText
10
122.158886
20
11.658437
30
0
210
0
220
0
230
1
1
%%c
40
3
41
0
44
1.084337
50
90
71
7
72
5
7
iso_b_vert
0
MTEXT
5
1EB
100
AcDbEntity
8
2
62
256
6
ByLayer
370
18
48
1
60
0
100
AcDbMText
10
122.158886
20
17.635
30
0
210
0
220
0
230
1
1
\W0.5742;(10)
40
3
41
0
44
1.084337
50
90
71
7
72
5
7
iso_b_vert
0
MTEXT
5
1F4
100
AcDbEntity
8
SK2
62
256
6
ByLayer
370
18
48
1
60
0
100
AcDbMText
10
-10.909774
20
16.084832
30
0
210
0
220
0
230
1
1
\W0.7635;(3%%d)
40
3
41
0
44
1.084337
50
84.2658575265306
71
7
72
5
7
iso_b_vert
0
MTEXT
5
1FD
100
AcDbEntity
8
SK6
62
256
6
ByLayer
370
18
48
1
60
0
100
AcDbMText
10
3.806141
20
-42.936149
30
0
210
0
220
0
230
1
1
\W0.7440;2L486-1000-TI1600   T2CH
40
3
41
0
44
1.084337
50
0
71
7
72
5
7
iso_b_vert
0
HATCH
5
1DB
100
AcDbEntity
8
SK2
62
256
6
ByLayer
370
13
48
1
60
0
100
AcDbHatch
10
0
20
0
30
0
210
0
220
0
230
1
2
ANSI31
70
0
71
0
91
1
92
5
93
3
72
1
10
-54.5
20
-8
11
-54.9607837415528
21
-4.50000169255318
72
1
10
-54.9607837415528
20
-4.50000169255318
11
-54.0392162584472
21
-4.49999830744682
72
1
10
-54.0392162584472
20
-4.49999830744682
11
-54.5
21
-8
97
0
75
0
76
1
52
0
41
0.0062
77
0
78
1
53
45
43
0
44
0
45
-0.0139193969876572
46
0.0139193969876572
79
0
47
0
98
1
10
0
20
0
0
HATCH
5
1DF
100
AcDbEntity
8
SK2
62
256
6
ByLayer
370
13
48
1
60
0
100
AcDbHatch
10
0
20
0
30
0
210
0
220
0
230
1
2
ANSI31
70
0
71
0
91
1
92
5
93
3
72
1
10
-54.5
20
8
11
-54.0392162584472
21
4.50000169255318
72
1
10
-54.0392162584472
20
4.50000169255318
11
-54.9607837415528
21
4.49999830744682
72
1
10
-54.9607837415528
20
4.49999830744682
11
-54.5
21
8
97
0
75
0
76
1
52
0
41
0.0062
77
0
78
1
53
45
43
0
44
0
45
-0.0139193969876572
46
0.0139193969876572
79
0
47
0
98
1
10
0
20
0
0
HATCH
5
1E5
100
AcDbEntity
8
SK2
62
256
6
ByLayer
370
13
48
1
60
0
100
AcDbHatch
10
0
20
0
30
0
210
0
220
0
230
1
2
ANSI31
70
0
71
0
91
1
92
5
93
3
72
1
10
91.5
20
-4.09567772169638
11
91.0392162584472
21
-0.59567941424956
72
1
10
91.0392162584472
20
-0.59567941424956
11
91.9607837415528
21
-0.595676029143192
72
1
10
91.9607837415528
20
-0.595676029143192
11
91.5
21
-4.09567772169638
97
0
75
0
76
1
52
0
41
0.0062
77
0
78
1
53
45
43
0
44
0
45
-0.0139193969876572
46
0.0139193969876572
79
0
47
0
98
1
10
0
20
0
0
HATCH
5
1E9
100
AcDbEntity
8
SK2
62
256
6
ByLayer
370
13
48
1
60
0
100
AcDbHatch
10
0
20
0
30
0
210
0
220
0
230
1
2
ANSI31
70
0
71
0
91
1
92
5
93
3
72
1
10
91.5
20
4.09567772169615
11
91.9607837415528
21
0.595679414249332
72
1
10
91.9607837415528
20
0.595679414249332
11
91.0392162584472
21
0.595676029142965
72
1
10
91.0392162584472
20
0.595676029142965
11
91.5
21
4.09567772169615
97
0
75
0
76
1
52
0
41
0.0062
77
0
78
1
53
45
43
0
44
0
45
-0.0139193969876572
46
0.0139193969876572
79
0
47
0
98
1
10
0
20
0
0
HATCH
5
1EF
100
AcDbEntity
8
2
62
256
6
ByLayer
370
13
48
1
60
0
100
AcDbHatch
10
0
20
0
30
0
210
0
220
0
230
1
2
ANSI31
70
0
71
0
91
1
92
5
93
3
72
1
10
123.5
20
-5
11
123.039216258447
21
-1.50000169255318
72
1
10
123.039216258447
20
-1.50000169255318
11
123.960783741553
21
-1.49999830744682
72
1
10
123.960783741553
20
-1.49999830744682
11
123.5
21
-5
97
0
75
0
76
1
52
0
41
0.0062
77
0
78
1
53
45
43
0
44
0
45
-0.0139193969876572
46
0.0139193969876572
79
0
47
0
98
1
10
0
20
0
0
HATCH
5
1F3
100
AcDbEntity
8
2
62
256
6
ByLayer
370
13
48
1
60
0
100
AcDbHatch
10
0
20
0
30
0
210
0
220
0
230
1
2
ANSI31
70
0
71
0
91
1
92
5
93
3
72
1
10
123.5
20
5
11
123.960783741553
21
1.50000169255318
72
1
10
123.960783741553
20
1.50000169255318
11
123.039216258447
21
1.49999830744682
72
1
10
123.039216258447
20
1.49999830744682
11
123.5
21
5
97
0
75
0
76
1
52
0
41
0.0062
77
0
78
1
53
45
43
0
44
0
45
-0.0139193969876572
46
0.0139193969876572
79
0
47
0
98
1
10
0
20
0
0
HATCH
5
1F8
100
AcDbEntity
8
SK2
62
256
6
ByLayer
370
13
48
1
60
0
100
AcDbHatch
10
0
20
0
30
0
210
0
220
0
230
1
2
ANSI31
70
0
71
0
91
1
92
5
93
3
72
1
10
-10.7782168581722
20
8.58569298006222
11
-10.4620300776022
21
5.06968164213927
72
1
10
-10.4620300776022
20
5.06968164213927
11
-11.382815152722
21
5.10764835605548
72
1
10
-11.382815152722
20
5.10764835605548
11
-10.7782168581722
21
8.58569298006222
97
0
75
0
76
1
52
0
41
0.0062
77
0
78
1
53
45
43
0
44
0
45
-0.0139193969876572
46
0.0139193969876572
79
0
47
0
98
1
10
0
20
0
0
HATCH
5
1FC
100
AcDbEntity
8
SK2
62
256
6
ByLayer
370
13
48
1
60
0
100
AcDbHatch
10
0
20
0
30
0
210
0
220
0
230
1
2
ANSI31
70
0
71
0
91
1
92
5
93
3
72
1
10
-10.97524229359
20
2.84E-14
11
-11.4196590679576
21
3.5021141528041
72
1
10
-11.4196590679576
20
3.5021141528041
11
-10.4981016391097
21
3.49780935732593
72
1
10
-10.4981016391097
20
3.49780935732593
11
-10.97524229359
21
2.84E-14
97
0
75
0
76
1
52
0
41
0.0062
77
0
78
1
53
45
43
0
44
0
45
-0.0139193969876572
46
0.0139193969876572
79
0
47
0
98
1
10
0
20
0
0
DIMENSION
5
200
100
AcDbEntity
8
2
62
256
6
ByLayer
370
18
48
1
60
0
100
AcDbDimension
2
_U0
10
87
20
15.85
30
0
11
99.5
21
15.85
31
0
70
32
71
1
72
1
41
1
210
0
220
0
230
1
3
Standard
100
AcDbAlignedDimension
13
112
23
0
33
0
14
87
24
4.095678
34
0
50
0
100
AcDbRotatedDimension
1001
ACAD
1000
DSTYLE
1002
{
1070
   371
1070
    13
1070
   372
1070
    13
1070
     3
1000

1070
   170
1070
     0
1070
   144
1040
1.0
1070
   277
1070
     2
1070
   284
1070
     8
1070
   278
1070
    46
1070
   146
1040
1.166667
1070
   345
1005
16
1070
   347
1005
16
1070
   346
1005
16
1070
   344
1005
0
1070
   343
1005
0
1070
   172
1070
     1
1070
    76
1070
     0
1070
    75
1070
     0
1070
   282
1070
     0
1070
   281
1070
     0
1070
    71
1070
     0
1070
    74
1070
     0
1070
   279
1070
     0
1070
   173
1070
     1
1070
   340
1005
1D5
1070
   271
1070
     2
1070
   272
1070
     2
1070
    77
1070
     1
1070
    73
1070
     1
1070
   171
1070
     3
1070
   274
1070
     4
1070
   177
1070
     2
1070
   176
1070
     2
1070
   178
1070
     2
1070
    78
1070
     8
1070
    48
1040
-0.1
1070
    41
1040
3.5
1070
   147
1040
1.5
1070
    42
1040
1.5875
1070
    44
1040
2.0
1070
   140
1040
3.0
1002
}
1001
ACAD_DSTYLE_DIM_LINETYPE
1070
   380
1005
16
1001
ACAD_DSTYLE_DIM_EXT1_LINETYPE
1070
   381
1005
16
1001
ACAD_DSTYLE_DIM_EXT2_LINETYPE
1070
   382
1005
16
0
DIMENSION
5
219
100
AcDbEntity
8
2
62
256
6
ByLayer
370
18
48
1
60
0
100
AcDbDimension
2
_U1
10
1.976309
20
25.85
30
0
11
56.988154
21
25.85
31
0
70
32
71
1
72
1
41
1
210
0
220
0
230
1
3
Standard
100
AcDbAlignedDimension
13
112
23
0
33
0
14
1.976309
24
8
34
0
50
0
100
AcDbRotatedDimension
1001
ACAD
1000
DSTYLE
1002
{
1070
   371
1070
    13
1070
   372
1070
    13
1070
     3
1000

1070
   170
1070
     0
1070
   144
1040
1.0
1070
   277
1070
     2
1070
   284
1070
     8
1070
   278
1070
    46
1070
   146
1040
1.166667
1070
   345
1005
16
1070
   347
1005
16
1070
   346
1005
16
1070
   344
1005
0
1070
   343
1005
0
1070
   172
1070
     1
1070
    76
1070
     0
1070
    75
1070
     0
1070
   282
1070
     0
1070
   281
1070
     0
1070
    71
1070
     0
1070
    74
1070
     0
1070
   279
1070
     0
1070
   173
1070
     1
1070
   340
1005
1D5
1070
   271
1070
     2
1070
   272
1070
     2
1070
    77
1070
     1
1070
    73
1070
     1
1070
   171
1070
     3
1070
   274
1070
     4
1070
   177
1070
     2
1070
   176
1070
     2
1070
   178
1070
     2
1070
    78
1070
     8
1070
    48
1040
-0.1
1070
    41
1040
3.5
1070
   147
1040
1.5
1070
    42
1040
1.5875
1070
    44
1040
2.0
1070
   140
1040
3.0
1002
}
1001
ACAD_DSTYLE_DIM_LINETYPE
1070
   380
1005
16
1001
ACAD_DSTYLE_DIM_EXT1_LINETYPE
1070
   381
1005
16
1001
ACAD_DSTYLE_DIM_EXT2_LINETYPE
1070
   382
1005
16
0
DIMENSION
5
231
100
AcDbEntity
8
SK2
62
256
6
ByLayer
370
18
48
1
60
0
100
AcDbDimension
2
_U2
10
-48
20
35.85
30
0
11
32
21
35.85
31
0
70
32
71
1
72
1
41
1
210
0
220
0
230
1
3
Standard
100
AcDbAlignedDimension
13
112
23
0
33
0
14
-48
24
0
34
0
50
0
100
AcDbRotatedDimension
1001
ACAD
1000
DSTYLE
1002
{
1070
   371
1070
    13
1070
   372
1070
    13
1070
     3
1000

1070
   170
1070
     0
1070
   144
1040
1.0
1070
   277
1070
     2
1070
   284
1070
     8
1070
   278
1070
    46
1070
   146
1040
1.166667
1070
   345
1005
16
1070
   347
1005
16
1070
   346
1005
16
1070
   344
1005
0
1070
   343
1005
0
1070
   172
1070
     1
1070
    76
1070
     0
1070
    75
1070
     0
1070
   282
1070
     0
1070
   281
1070
     0
1070
    71
1070
     0
1070
    74
1070
     0
1070
   279
1070
     0
1070
   173
1070
     1
1070
   340
1005
1D5
1070
   271
1070
     2
1070
   272
1070
     2
1070
    77
1070
     1
1070
    73
1070
     1
1070
   171
1070
     3
1070
   274
1070
     4
1070
   177
1070
     2
1070
   176
1070
     2
1070
   178
1070
     2
1070
    78
1070
     8
1070
    48
1040
-0.1
1070
    41
1040
3.5
1070
   147
1040
1.5
1070
    42
1040
1.5875
1070
    44
1040
2.0
1070
   140
1040
3.0
1002
}
1001
ACAD_DSTYLE_DIM_LINETYPE
1070
   380
1005
16
1001
ACAD_DSTYLE_DIM_EXT1_LINETYPE
1070
   381
1005
16
1001
ACAD_DSTYLE_DIM_EXT2_LINETYPE
1070
   382
1005
16
0
DIMENSION
5
249
100
AcDbEntity
8
SK2
62
256
6
ByLayer
370
18
48
1
60
0
100
AcDbDimension
2
_U3
10
0.6
20
-19.492526
30
0
11
-23.7
21
-19.492526
31
0
70
32
71
1
72
1
41
1
210
0
220
0
230
1
3
Standard
100
AcDbAlignedDimension
13
-48
23
0
33
0
14
0.6
24
-8
34
0
50
0
100
AcDbRotatedDimension
1001
ACAD
1000
DSTYLE
1002
{
1070
   371
1070
    13
1070
   372
1070
    13
1070
     3
1000

1070
   170
1070
     0
1070
   144
1040
1.0
1070
   277
1070
     2
1070
   284
1070
     8
1070
   278
1070
    46
1070
   146
1040
1.166667
1070
   345
1005
16
1070
   347
1005
16
1070
   346
1005
16
1070
   344
1005
0
1070
   343
1005
0
1070
   172
1070
     1
1070
    76
1070
     0
1070
    75
1070
     0
1070
   282
1070
     0
1070
   281
1070
     0
1070
    71
1070
     0
1070
    74
1070
     0
1070
   279
1070
     0
1070
   173
1070
     1
1070
   340
1005
1D5
1070
   271
1070
     2
1070
   272
1070
     2
1070
    77
1070
     1
1070
    73
1070
     1
1070
   171
1070
     3
1070
   274
1070
     4
1070
   177
1070
     2
1070
   176
1070
     2
1070
   178
1070
     2
1070
    78
1070
     8
1070
    48
1040
-0.1
1070
    41
1040
3.5
1070
   147
1040
1.5
1070
    42
1040
1.5875
1070
    44
1040
2.0
1070
   140
1040
3.0
1002
}
1001
ACAD_DSTYLE_DIM_LINETYPE
1070
   380
1005
16
1001
ACAD_DSTYLE_DIM_EXT1_LINETYPE
1070
   381
1005
16
1001
ACAD_DSTYLE_DIM_EXT2_LINETYPE
1070
   382
1005
16
0
DIMENSION
5
261
100
AcDbEntity
8
SK2
62
256
6
ByLayer
370
18
48
1
60
0
100
AcDbDimension
2
_U4
10
104.132
20
-11.5
30
0
11
128.071429
21
-11.5
31
0
70
32
71
1
72
1
41
1
210
0
220
0
230
1
3
Standard
100
AcDbAlignedDimension
13
112
23
0
33
0
14
104.132
24
4.095678
34
0
50
0
100
AcDbRotatedDimension
1001
ACAD
1000
DSTYLE
1002
{
1070
   371
1070
    13
1070
   372
1070
    13
1070
     3
1000

1070
   170
1070
     0
1070
   144
1040
1.0
1070
   277
1070
     2
1070
   284
1070
     8
1070
   278
1070
    46
1070
   146
1040
1.166667
1070
   345
1005
16
1070
   347
1005
16
1070
   346
1005
16
1070
   344
1005
0
1070
   343
1005
0
1070
   172
1070
     1
1070
    76
1070
     0
1070
    75
1070
     0
1070
   282
1070
     0
1070
   281
1070
     0
1070
    71
1070
     0
1070
    74
1070
     0
1070
   279
1070
     0
1070
   173
1070
     1
1070
   340
1005
1D5
1070
   271
1070
     2
1070
   272
1070
     2
1070
    77
1070
     1
1070
    73
1070
     1
1070
   171
1070
     3
1070
   274
1070
     4
1070
   177
1070
     2
1070
   176
1070
     2
1070
   178
1070
     2
1070
    78
1070
     8
1070
    48
1040
-0.1
1070
    41
1040
3.5
1070
   147
1040
1.5
1070
    42
1040
1.5875
1070
    44
1040
2.0
1070
   140
1040
3.0
1002
}
1001
ACAD_DSTYLE_DIM_LINETYPE
1070
   380
1005
16
1001
ACAD_DSTYLE_DIM_EXT1_LINETYPE
1070
   381
1005
16
1001
ACAD_DSTYLE_DIM_EXT2_LINETYPE
1070
   382
1005
16
0
ENDSEC
0
SECTION
2
OBJECTS
0
DICTIONARY
5
2eb
330
0
100
AcDbDictionary
280
0
281
1
3
ACAD_GROUP
350
2ec
3
ACAD_MLINESTYLE
350
2ed
0
DICTIONARY
5
2ec
330
0
100
AcDbDictionary
280
0
281
1
0
DICTIONARY
5
2ed
330
0
100
AcDbDictionary
280
0
281
1
3
Standard
350
18
0
MLINESTYLE
5
18
330
2ed
100
AcDbMlineStyle
2
Standard
70
0
3

62
256
51
90
52
90
71
2
49
-0.5
62
256
6
ByLayer
49
0.5
62
256
6
ByLayer
0
RASTERVARIABLES
5
2d9
330

100
AcDbRasterVariables
90
0
70
1
71
1
72
1
0
ENDSEC
0
EOF
