0
SECTION
2
HEADER
9
$ACADVER
1
AC1015
9
$DWGCODEPAGE
3
ANSI_1252
9
$HANDSEED
5
2c0
9
$ANGBASE
50
0
9
$ANGDIR
70
0
9
$ATTMODE
70
1
9
$AUNITS
70
0
9
$AUPREC
70
0
9
$CECOLOR
62
256
9
$CELTSCALE
40
1
9
$CELTYPE
6
ByLayer
9
$CELWEIGHT
370
18
9
$CLAYER
8
0
9
$CMLJUST
70
0
9
$CMLSCALE
40
1
9
$CMLSTYLE
2
Standard
9
$DIMSTYLE
2
Standard
9
$TEXTSIZE
40
0.2
9
$TEXTSTYLE
7
Standard
9
$LUNITS
70
2
9
$LUPREC
70
4
9
$EXTNAMES
290
1
9
$INSUNITS
70
4
9
$LTSCALE
40
1
9
$LWDISPLAY
290
1
9
$PDMODE
70
0
9
$PDSIZE
40
0
9
$PLINEGEN
70
0
0
ENDSEC
0
SECTION
2
CLASSES
0
CLASS
1
RASTERVARIABLES
2
AcDbRasterVariables
3
ISM
90
0
280
0
281
0
0
ENDSEC
0
SECTION
2
TABLES
0
TABLE
2
VPORT
5
2b6
100
AcDbSymbolTable
0
VPORT
5
1
100
AcDbSymbolTableRecord
100
AcDbViewportTableRecord
2
*Active
70
0
10
0
20
0
11
1
21
1
12
-1
22
1
13
0
23
0
14
0.5
24
0.5
15
10
25
10
16
0
26
0
36
1
17
0
27
0
37
0
0
ENDTAB
0
TABLE
2
LTYPE
5
2b7
100
AcDbSymbolTable
0
LTYPE
5
14
100
AcDbSymbolTableRecord
100
AcDbLinetypeTableRecord
70
0
2
ByBlock
3

72
65
73
0
40
0
0
LTYPE
5
15
100
AcDbSymbolTableRecord
100
AcDbLinetypeTableRecord
70
0
2
ByLayer
3

72
65
73
0
40
0
0
LTYPE
5
16
100
AcDbSymbolTableRecord
100
AcDbLinetypeTableRecord
70
0
2
Continuous
3
Solid line
72
65
73
0
40
0
0
LTYPE
5
6E
100
AcDbSymbolTableRecord
100
AcDbLinetypeTableRecord
70
0
2
CENTER
3
____ _ ____ _ ____ _ ____
72
65
73
4
40
47.5
49
22
74
0
49
-8.5
74
0
49
8.5
74
0
49
-8.5
74
0
0
LTYPE
5
6F
100
AcDbSymbolTableRecord
100
AcDbLinetypeTableRecord
70
0
2
DASHED
3
__ __ __ __ __ __ __ __ __
72
65
73
2
40
25.72
49
12.86
74
0
49
-12.86
74
0
0
ENDTAB
0
TABLE
2
LAYER
5
2b8
100
AcDbSymbolTable
0
LAYER
5
10
100
AcDbSymbolTableRecord
100
AcDbLayerTableRecord
2
0
70
0
62
7
6
Continuous
290
1
370
-3
390
0
0
LAYER
5
71
100
AcDbSymbolTableRecord
100
AcDbLayerTableRecord
2
81
70
0
62
-3
6
Continuous
290
1
370
-3
390
0
0
LAYER
5
73
100
AcDbSymbolTableRecord
100
AcDbLayerTableRecord
2
80
70
0
62
-6
6
Continuous
290
1
370
-3
390
0
0
LAYER
5
75
100
AcDbSymbolTableRecord
100
AcDbLayerTableRecord
2
1
70
0
62
4
6
Continuous
290
1
370
-3
390
0
0
LAYER
5
82
100
AcDbSymbolTableRecord
100
AcDbLayerTableRecord
2
4
70
0
62
-2
6
CENTER
290
1
370
-3
390
0
0
LAYER
5
EB
100
AcDbSymbolTableRecord
100
AcDbLayerTableRecord
2
2
70
0
62
7
6
Continuous
290
1
370
-3
390
0
0
LAYER
5
1CA
100
AcDbSymbolTableRecord
100
AcDbLayerTableRecord
2
Defpoints
70
0
62
7
6
Continuous
290
0
370
-3
390
0
0
LAYER
5
2a2
100
AcDbSymbolTableRecord
100
AcDbLayerTableRecord
2
SK4
70
0
62
2
6
CENTER
290
1
370
-3
390
0
0
LAYER
5
2a3
100
AcDbSymbolTableRecord
100
AcDbLayerTableRecord
2
SK1
70
0
62
4
6
Continuous
290
1
370
-3
390
0
0
LAYER
5
2a4
100
AcDbSymbolTableRecord
100
AcDbLayerTableRecord
2
SK2
70
0
62
7
6
Continuous
290
1
370
-3
390
0
0
LAYER
5
2a5
100
AcDbSymbolTableRecord
100
AcDbLayerTableRecord
2
SK6
70
0
62
5
6
Continuous
290
1
370
-3
390
0
0
ENDTAB
0
TABLE
2
STYLE
5
2b9
100
AcDbSymbolTable
0
STYLE
5
11
100
AcDbSymbolTableRecord
100
AcDbTextStyleTableRecord
2
Standard
3
txt
70
0
71
0
40
0
41
1
42
0
50
0
0
STYLE
5
19C
100
AcDbSymbolTableRecord
100
AcDbTextStyleTableRecord
2
iso_b_vert
3
simplex.shx
70
0
71
0
40
0
41
1
42
0
50
0
0
STYLE
5
19D
100
AcDbSymbolTableRecord
100
AcDbTextStyleTableRecord
2
DWGDirectTextStyle
3
simplex
70
0
71
0
40
0
41
1
42
0
50
0
0
ENDTAB
0
TABLE
2
DIMSTYLE
5
2ba
100
AcDbSymbolTable
100
AcDbDimStyleTable
0
DIMSTYLE
105
27
100
AcDbSymbolTableRecord
100
AcDbDimStyleTableRecord
2
Standard
70
0
3
<>
41
0.18
42
0.0625
44
0.18
140
0.18
147
0.09
73
0
74
0
77
1
271
2
275
0
278
52
280
0
340
11
0
ENDTAB
0
TABLE
2
VIEW
5
2bb
100
AcDbSymbolTable
0
ENDTAB
0
TABLE
2
UCS
5
2bc
100
AcDbSymbolTable
0
ENDTAB
0
TABLE
2
APPID
5
2bd
100
AcDbSymbolTable
0
APPID
5
12
100
AcDbSymbolTableRecord
100
AcDbRegAppTableRecord
2
ACAD
70
0
0
APPID
5
1C6
100
AcDbSymbolTableRecord
100
AcDbRegAppTableRecord
2
ACAD_DSTYLE_DIMBREAK
70
0
0
APPID
5
261
100
AcDbSymbolTableRecord
100
AcDbRegAppTableRecord
2
ACAD_DSTYLE_DIM_LINETYPE
70
0
0
APPID
5
262
100
AcDbSymbolTableRecord
100
AcDbRegAppTableRecord
2
ACAD_DSTYLE_DIM_EXT1_LINETYPE
70
0
0
APPID
5
263
100
AcDbSymbolTableRecord
100
AcDbRegAppTableRecord
2
ACAD_DSTYLE_DIM_EXT2_LINETYPE
70
0
0
APPID
5
29E
100
AcDbSymbolTableRecord
100
AcDbRegAppTableRecord
2
ACAD_MLEADERVER
70
0
0
ENDTAB
0
TABLE
2
BLOCK_RECORD
5
2be
100
AcDbSymbolTable
0
BLOCK_RECORD
5
1F
100
AcDbSymbolTableRecord
100
AcDbBlockTableRecord
2
*Model_Space
340
0
70
0
0
BLOCK_RECORD
5
1B
100
AcDbSymbolTableRecord
100
AcDbBlockTableRecord
2
*Paper_Space
340
0
70
0
0
BLOCK_RECORD
5
23
100
AcDbSymbolTableRecord
100
AcDbBlockTableRecord
2
*Paper_Space0
340
0
70
0
0
BLOCK_RECORD
5
1CB
100
AcDbSymbolTableRecord
100
AcDbBlockTableRecord
2
*D1
340
0
70
0
0
BLOCK_RECORD
5
1D8
100
AcDbSymbolTableRecord
100
AcDbBlockTableRecord
2
_U0
340
0
70
0
0
BLOCK_RECORD
5
1E4
100
AcDbSymbolTableRecord
100
AcDbBlockTableRecord
2
*D3
340
0
70
0
0
BLOCK_RECORD
5
1F0
100
AcDbSymbolTableRecord
100
AcDbBlockTableRecord
2
_U1
340
0
70
0
0
BLOCK_RECORD
5
1FC
100
AcDbSymbolTableRecord
100
AcDbBlockTableRecord
2
*D5
340
0
70
0
0
BLOCK_RECORD
5
208
100
AcDbSymbolTableRecord
100
AcDbBlockTableRecord
2
_U2
340
0
70
0
0
BLOCK_RECORD
5
214
100
AcDbSymbolTableRecord
100
AcDbBlockTableRecord
2
*D7
340
0
70
0
0
BLOCK_RECORD
5
220
100
AcDbSymbolTableRecord
100
AcDbBlockTableRecord
2
_U3
340
0
70
0
0
BLOCK_RECORD
5
22C
100
AcDbSymbolTableRecord
100
AcDbBlockTableRecord
2
*D9
340
0
70
0
0
BLOCK_RECORD
5
23A
100
AcDbSymbolTableRecord
100
AcDbBlockTableRecord
2
_U4
340
0
70
0
0
ENDTAB
0
ENDSEC
0
SECTION
2
BLOCKS
0
BLOCK
5
20
100
AcDbEntity
8
0
100
AcDbBlockBegin
2
*Model_Space
70
0
10
0
20
0
30
0
3
*Model_Space
0
ENDBLK
5
21
100
AcDbEntity
8
0
100
AcDbBlockEnd
0
BLOCK
5
1C
100
AcDbEntity
8
0
100
AcDbBlockBegin
2
*Paper_Space
70
0
10
0
20
0
30
0
3
*Paper_Space
0
ENDBLK
5
1D
100
AcDbEntity
8
0
100
AcDbBlockEnd
0
BLOCK
5
24
100
AcDbEntity
8
0
100
AcDbBlockBegin
2
*Paper_Space0
70
0
10
0
20
0
30
0
3
*Paper_Space0
0
ENDBLK
5
25
100
AcDbEntity
8
0
100
AcDbBlockEnd
0
BLOCK
5
1CC
100
AcDbEntity
8
0
100
AcDbBlockBegin
2
*D1
70
1
10
0
20
0
30
0
3
*D1
0
LINE
5
1CE
100
AcDbEntity
8
0
62
256
6
ByLayer
370
-2
48
1
60
0
100
AcDbLine
10
44
20
1.5875
30
0
11
44
21
12.85
31
0
39
0
210
0
220
0
230
1
0
LINE
5
1CF
100
AcDbEntity
8
0
62
256
6
ByLayer
370
-2
48
1
60
0
100
AcDbLine
10
33.5
20
2.816483
30
0
11
33.5
21
12.85
31
0
39
0
210
0
220
0
230
1
0
LINE
5
1D0
100
AcDbEntity
8
0
62
256
6
ByLayer
370
-2
48
1
60
0
100
AcDbLine
10
47.5
20
10.85
30
0
11
51
21
10.85
31
0
39
0
210
0
220
0
230
1
0
LINE
5
1D1
100
AcDbEntity
8
0
62
256
6
ByLayer
370
-2
48
1
60
0
100
AcDbLine
10
30
20
10.85
30
0
11
26.5
21
10.85
31
0
39
0
210
0
220
0
230
1
0
SOLID
5
1D2
100
AcDbEntity
8
0
62
256
6
ByLayer
370
-1
48
1
60
0
100
AcDbTrace
10
47.5
20
11.433333
30
0
11
47.5
21
10.266667
31
0
12
44
22
10.85
32
0
13
44
23
10.85
33
0
39
0
210
0
220
0
230
1
0
SOLID
5
1D3
100
AcDbEntity
8
0
62
256
6
ByLayer
370
-1
48
1
60
0
100
AcDbTrace
10
30
20
10.266667
30
0
11
30
21
11.433333
31
0
12
33.5
22
10.85
32
0
13
33.5
23
10.85
33
0
39
0
210
0
220
0
230
1
0
MTEXT
5
1D4
100
AcDbEntity
8
0
62
256
6
ByLayer
370
18
48
1
60
0
100
AcDbMText
10
38.75
20
16.85
30
0
210
0
220
0
230
1
1
\A1;10.5
40
3
41
0
44
1
50
0
71
5
72
5
7
iso_b_vert
0
POINT
5
1D5
100
AcDbEntity
8
Defpoints
62
0
6
ByLayer
370
-1
48
1
60
0
100
AcDbPoint
10
44
20
0
30
0
39
0
210
0
220
0
230
1
50
360
0
POINT
5
1D6
100
AcDbEntity
8
Defpoints
62
0
6
ByLayer
370
-1
48
1
60
0
100
AcDbPoint
10
33.5
20
1.228983
30
0
39
0
210
0
220
0
230
1
50
360
0
POINT
5
1D7
100
AcDbEntity
8
Defpoints
62
0
6
ByLayer
370
-1
48
1
60
0
100
AcDbPoint
10
33.5
20
10.85
30
0
39
0
210
0
220
0
230
1
50
360
0
ENDBLK
5
1CD
100
AcDbEntity
8
0
100
AcDbBlockEnd
0
BLOCK
5
1DF
100
AcDbEntity
8
0
100
AcDbBlockBegin
2
_U0
70
0
10
0
20
0
30
0
3
_U0
0
MTEXT
5
1D9
100
AcDbEntity
8
2
62
256
6
ByLayer
370
18
48
1
60
0
100
AcDbMText
10
34.642572
20
11.735114
30
0
210
0
220
0
230
1
1
\W0.6864;10.50
40
3
41
0
44
1.084337
50
0
71
7
72
5
7
iso_b_vert
0
LINE
5
1DA
100
AcDbEntity
8
2
62
256
6
ByLayer
370
13
48
1
60
0
100
AcDbLine
10
44
20
1.5875
30
0
11
44
21
12.85
31
0
39
0
210
0
220
0
230
1
0
LINE
5
1DB
100
AcDbEntity
8
2
62
256
6
ByLayer
370
13
48
1
60
0
100
AcDbLine
10
33.5
20
2.816483
30
0
11
33.5
21
12.85
31
0
39
0
210
0
220
0
230
1
0
LINE
5
1DC
100
AcDbEntity
8
2
62
256
6
ByLayer
370
13
48
1
60
0
100
AcDbLine
10
44
20
10.85
30
0
11
33.5
21
10.85
31
0
39
0
210
0
220
0
230
1
0
SOLID
5
1DD
100
AcDbEntity
8
2
62
256
6
ByLayer
370
18
48
1
60
0
100
AcDbTrace
10
44
20
10.85
30
0
11
40.500002
21
10.389216
31
0
12
40.499998
22
11.310784
32
0
13
40.499998
23
11.310784
33
0
39
0
210
0
220
0
230
1
0
SOLID
5
1DE
100
AcDbEntity
8
2
62
256
6
ByLayer
370
18
48
1
60
0
100
AcDbTrace
10
33.5
20
10.85
30
0
11
36.999998
21
11.310784
31
0
12
37.000002
22
10.389216
32
0
13
37.000002
23
10.389216
33
0
39
0
210
0
220
0
230
1
0
ENDBLK
5
1E0
100
AcDbEntity
8
0
100
AcDbBlockEnd
0
BLOCK
5
1E5
100
AcDbEntity
8
0
100
AcDbBlockBegin
2
*D3
70
1
10
0
20
0
30
0
3
*D3
0
LINE
5
1E7
100
AcDbEntity
8
0
62
256
6
ByLayer
370
-2
48
1
60
0
100
AcDbLine
10
44
20
1.5875
30
0
11
44
21
22.85
31
0
39
0
210
0
220
0
230
1
0
LINE
5
1E8
100
AcDbEntity
8
0
62
256
6
ByLayer
370
-2
48
1
60
0
100
AcDbLine
10
25.880273
20
4.5875
30
0
11
25.880273
21
22.85
31
0
39
0
210
0
220
0
230
1
0
LINE
5
1E9
100
AcDbEntity
8
0
62
256
6
ByLayer
370
-2
48
1
60
0
100
AcDbLine
10
40.5
20
20.85
30
0
11
29.380273
21
20.85
31
0
39
0
210
0
220
0
230
1
0
SOLID
5
1EA
100
AcDbEntity
8
0
62
256
6
ByLayer
370
-1
48
1
60
0
100
AcDbTrace
10
40.5
20
20.266667
30
0
11
40.5
21
21.433333
31
0
12
44
22
20.85
32
0
13
44
23
20.85
33
0
39
0
210
0
220
0
230
1
0
SOLID
5
1EB
100
AcDbEntity
8
0
62
256
6
ByLayer
370
-1
48
1
60
0
100
AcDbTrace
10
29.380273
20
21.433333
30
0
11
29.380273
21
20.266667
31
0
12
25.880273
22
20.85
32
0
13
25.880273
23
20.85
33
0
39
0
210
0
220
0
230
1
0
MTEXT
5
1EC
100
AcDbEntity
8
0
62
256
6
ByLayer
370
18
48
1
60
0
100
AcDbMText
10
34.940137
20
26.85
30
0
210
0
220
0
230
1
1
\A1;18.12
40
3
41
0
44
1
50
0
71
5
72
5
7
iso_b_vert
0
POINT
5
1ED
100
AcDbEntity
8
Defpoints
62
0
6
ByLayer
370
-1
48
1
60
0
100
AcDbPoint
10
44
20
0
30
0
39
0
210
0
220
0
230
1
50
360
0
POINT
5
1EE
100
AcDbEntity
8
Defpoints
62
0
6
ByLayer
370
-1
48
1
60
0
100
AcDbPoint
10
25.880273
20
3
30
0
39
0
210
0
220
0
230
1
50
360
0
POINT
5
1EF
100
AcDbEntity
8
Defpoints
62
0
6
ByLayer
370
-1
48
1
60
0
100
AcDbPoint
10
25.880273
20
20.85
30
0
39
0
210
0
220
0
230
1
50
360
0
ENDBLK
5
1E6
100
AcDbEntity
8
0
100
AcDbBlockEnd
0
BLOCK
5
1F7
100
AcDbEntity
8
0
100
AcDbBlockBegin
2
_U1
70
0
10
0
20
0
30
0
3
_U1
0
MTEXT
5
1F1
100
AcDbEntity
8
2
62
256
6
ByLayer
370
18
48
1
60
0
100
AcDbMText
10
33.682251
20
21.735114
30
0
210
0
220
0
230
1
1
\W0.5321;18
40
3
41
0
44
1.084337
50
0
71
7
72
5
7
iso_b_vert
0
LINE
5
1F2
100
AcDbEntity
8
2
62
256
6
ByLayer
370
13
48
1
60
0
100
AcDbLine
10
44
20
1.5875
30
0
11
44
21
22.85
31
0
39
0
210
0
220
0
230
1
0
LINE
5
1F3
100
AcDbEntity
8
2
62
256
6
ByLayer
370
13
48
1
60
0
100
AcDbLine
10
25.880273
20
4.5875
30
0
11
25.880273
21
22.85
31
0
39
0
210
0
220
0
230
1
0
LINE
5
1F4
100
AcDbEntity
8
2
62
256
6
ByLayer
370
13
48
1
60
0
100
AcDbLine
10
44
20
20.85
30
0
11
25.880273
21
20.85
31
0
39
0
210
0
220
0
230
1
0
SOLID
5
1F5
100
AcDbEntity
8
2
62
256
6
ByLayer
370
18
48
1
60
0
100
AcDbTrace
10
44
20
20.85
30
0
11
40.500002
21
20.389216
31
0
12
40.499998
22
21.310784
32
0
13
40.499998
23
21.310784
33
0
39
0
210
0
220
0
230
1
0
SOLID
5
1F6
100
AcDbEntity
8
2
62
256
6
ByLayer
370
18
48
1
60
0
100
AcDbTrace
10
25.880273
20
20.85
30
0
11
29.380271
21
21.310784
31
0
12
29.380275
22
20.389216
32
0
13
29.380275
23
20.389216
33
0
39
0
210
0
220
0
230
1
0
ENDBLK
5
1F8
100
AcDbEntity
8
0
100
AcDbBlockEnd
0
BLOCK
5
1FD
100
AcDbEntity
8
0
100
AcDbBlockBegin
2
*D5
70
1
10
0
20
0
30
0
3
*D5
0
LINE
5
1FF
100
AcDbEntity
8
0
62
256
6
ByLayer
370
-2
48
1
60
0
100
AcDbLine
10
44
20
1.5875
30
0
11
44
21
32.85
31
0
39
0
210
0
220
0
230
1
0
LINE
5
200
100
AcDbEntity
8
0
62
256
6
ByLayer
370
-2
48
1
60
0
100
AcDbLine
10
-36
20
1.5875
30
0
11
-36
21
32.85
31
0
39
0
210
0
220
0
230
1
0
LINE
5
201
100
AcDbEntity
8
0
62
256
6
ByLayer
370
-2
48
1
60
0
100
AcDbLine
10
40.5
20
30.85
30
0
11
-32.5
21
30.85
31
0
39
0
210
0
220
0
230
1
0
SOLID
5
202
100
AcDbEntity
8
0
62
256
6
ByLayer
370
-1
48
1
60
0
100
AcDbTrace
10
40.5
20
30.266667
30
0
11
40.5
21
31.433333
31
0
12
44
22
30.85
32
0
13
44
23
30.85
33
0
39
0
210
0
220
0
230
1
0
SOLID
5
203
100
AcDbEntity
8
0
62
256
6
ByLayer
370
-1
48
1
60
0
100
AcDbTrace
10
-32.5
20
31.433333
30
0
11
-32.5
21
30.266667
31
0
12
-36
22
30.85
32
0
13
-36
23
30.85
33
0
39
0
210
0
220
0
230
1
0
MTEXT
5
204
100
AcDbEntity
8
0
62
256
6
ByLayer
370
18
48
1
60
0
100
AcDbMText
10
4
20
36.85
30
0
210
0
220
0
230
1
1
\A1;80
40
3
41
0
44
1
50
0
71
5
72
5
7
iso_b_vert
0
POINT
5
205
100
AcDbEntity
8
Defpoints
62
0
6
ByLayer
370
-1
48
1
60
0
100
AcDbPoint
10
44
20
0
30
0
39
0
210
0
220
0
230
1
50
360
0
POINT
5
206
100
AcDbEntity
8
Defpoints
62
0
6
ByLayer
370
-1
48
1
60
0
100
AcDbPoint
10
-36
20
0
30
0
39
0
210
0
220
0
230
1
50
360
0
POINT
5
207
100
AcDbEntity
8
Defpoints
62
0
6
ByLayer
370
-1
48
1
60
0
100
AcDbPoint
10
-36
20
30.85
30
0
39
0
210
0
220
0
230
1
50
360
0
ENDBLK
5
1FE
100
AcDbEntity
8
0
100
AcDbBlockEnd
0
BLOCK
5
20F
100
AcDbEntity
8
0
100
AcDbBlockBegin
2
_U2
70
0
10
0
20
0
30
0
3
_U2
0
MTEXT
5
209
100
AcDbEntity
8
SK2
62
256
6
ByLayer
370
18
48
1
60
0
100
AcDbMText
10
2.367172
20
31.735114
30
0
210
0
220
0
230
1
1
\W0.6740;80
40
3
41
0
44
1.084337
50
0
71
7
72
5
7
iso_b_vert
0
LINE
5
20A
100
AcDbEntity
8
SK2
62
256
6
ByLayer
370
13
48
1
60
0
100
AcDbLine
10
44
20
1.5875
30
0
11
44
21
32.85
31
0
39
0
210
0
220
0
230
1
0
LINE
5
20B
100
AcDbEntity
8
SK2
62
256
6
ByLayer
370
13
48
1
60
0
100
AcDbLine
10
-36
20
1.5875
30
0
11
-36
21
32.85
31
0
39
0
210
0
220
0
230
1
0
LINE
5
20C
100
AcDbEntity
8
SK2
62
256
6
ByLayer
370
13
48
1
60
0
100
AcDbLine
10
44
20
30.85
30
0
11
-36
21
30.85
31
0
39
0
210
0
220
0
230
1
0
SOLID
5
20D
100
AcDbEntity
8
SK2
62
256
6
ByLayer
370
18
48
1
60
0
100
AcDbTrace
10
44
20
30.85
30
0
11
40.500002
21
30.389216
31
0
12
40.499998
22
31.310784
32
0
13
40.499998
23
31.310784
33
0
39
0
210
0
220
0
230
1
0
SOLID
5
20E
100
AcDbEntity
8
SK2
62
256
6
ByLayer
370
18
48
1
60
0
100
AcDbTrace
10
-36
20
30.85
30
0
11
-32.500002
21
31.310784
31
0
12
-32.499998
22
30.389216
32
0
13
-32.499998
23
30.389216
33
0
39
0
210
0
220
0
230
1
0
ENDBLK
5
210
100
AcDbEntity
8
0
100
AcDbBlockEnd
0
BLOCK
5
215
100
AcDbEntity
8
0
100
AcDbBlockBegin
2
*D7
70
1
10
0
20
0
30
0
3
*D7
0
LINE
5
217
100
AcDbEntity
8
0
62
256
6
ByLayer
370
-2
48
1
60
0
100
AcDbLine
10
-36
20
-1.5875
30
0
11
-36
21
-15.119027
31
0
39
0
210
0
220
0
230
1
0
LINE
5
218
100
AcDbEntity
8
0
62
256
6
ByLayer
370
-2
48
1
60
0
100
AcDbLine
10
0.4
20
-4.5875
30
0
11
0.4
21
-15.119027
31
0
39
0
210
0
220
0
230
1
0
LINE
5
219
100
AcDbEntity
8
0
62
256
6
ByLayer
370
-2
48
1
60
0
100
AcDbLine
10
-32.5
20
-13.119027
30
0
11
-3.1
21
-13.119027
31
0
39
0
210
0
220
0
230
1
0
SOLID
5
21A
100
AcDbEntity
8
0
62
256
6
ByLayer
370
-1
48
1
60
0
100
AcDbTrace
10
-32.5
20
-12.535694
30
0
11
-32.5
21
-13.70236
31
0
12
-36
22
-13.119027
32
0
13
-36
23
-13.119027
33
0
39
0
210
0
220
0
230
1
0
SOLID
5
21B
100
AcDbEntity
8
0
62
256
6
ByLayer
370
-1
48
1
60
0
100
AcDbTrace
10
-3.1
20
-13.70236
30
0
11
-3.1
21
-12.535694
31
0
12
0.4
22
-13.119027
32
0
13
0.4
23
-13.119027
33
0
39
0
210
0
220
0
230
1
0
MTEXT
5
21C
100
AcDbEntity
8
0
62
256
6
ByLayer
370
18
48
1
60
0
100
AcDbMText
10
-17.8
20
-7.119027
30
0
210
0
220
0
230
1
1
\A1;36.4
40
3
41
0
44
1
50
0
71
5
72
5
7
iso_b_vert
0
POINT
5
21D
100
AcDbEntity
8
Defpoints
62
0
6
ByLayer
370
-1
48
1
60
0
100
AcDbPoint
10
-36
20
0
30
0
39
0
210
0
220
0
230
1
50
360
0
POINT
5
21E
100
AcDbEntity
8
Defpoints
62
0
6
ByLayer
370
-1
48
1
60
0
100
AcDbPoint
10
0.4
20
-3
30
0
39
0
210
0
220
0
230
1
50
360
0
POINT
5
21F
100
AcDbEntity
8
Defpoints
62
0
6
ByLayer
370
-1
48
1
60
0
100
AcDbPoint
10
0.4
20
-13.119027
30
0
39
0
210
0
220
0
230
1
50
360
0
ENDBLK
5
216
100
AcDbEntity
8
0
100
AcDbBlockEnd
0
BLOCK
5
227
100
AcDbEntity
8
0
100
AcDbBlockBegin
2
_U3
70
0
10
0
20
0
30
0
3
_U3
0
MTEXT
5
221
100
AcDbEntity
8
SK2
62
256
6
ByLayer
370
18
48
1
60
0
100
AcDbMText
10
-25.364913
20
-12.233912
30
0
210
0
220
0
230
1
1
\W0.7245;(MIN. 36)
40
3
41
0
44
1.084337
50
0
71
7
72
5
7
iso_b_vert
0
LINE
5
222
100
AcDbEntity
8
SK2
62
256
6
ByLayer
370
13
48
1
60
0
100
AcDbLine
10
-36
20
-1.5875
30
0
11
-36
21
-15.119027
31
0
39
0
210
0
220
0
230
1
0
LINE
5
223
100
AcDbEntity
8
SK2
62
256
6
ByLayer
370
13
48
1
60
0
100
AcDbLine
10
0.4
20
-4.5875
30
0
11
0.4
21
-15.119027
31
0
39
0
210
0
220
0
230
1
0
LINE
5
224
100
AcDbEntity
8
SK2
62
256
6
ByLayer
370
13
48
1
60
0
100
AcDbLine
10
-36
20
-13.119027
30
0
11
0.4
21
-13.119027
31
0
39
0
210
0
220
0
230
1
0
SOLID
5
225
100
AcDbEntity
8
SK2
62
256
6
ByLayer
370
18
48
1
60
0
100
AcDbTrace
10
-36
20
-13.119027
30
0
11
-32.500002
21
-12.658243
31
0
12
-32.499998
22
-13.579811
32
0
13
-32.499998
23
-13.579811
33
0
39
0
210
0
220
0
230
1
0
SOLID
5
226
100
AcDbEntity
8
SK2
62
256
6
ByLayer
370
18
48
1
60
0
100
AcDbTrace
10
0.4
20
-13.119027
30
0
11
-3.099998
21
-13.579811
31
0
12
-3.100002
22
-12.658243
32
0
13
-3.100002
23
-12.658243
33
0
39
0
210
0
220
0
230
1
0
ENDBLK
5
228
100
AcDbEntity
8
0
100
AcDbBlockEnd
0
BLOCK
5
22D
100
AcDbEntity
8
0
100
AcDbBlockBegin
2
*D9
70
1
10
0
20
0
30
0
3
*D9
0
LINE
5
22F
100
AcDbEntity
8
0
62
256
6
ByLayer
370
-2
48
1
60
0
100
AcDbLine
10
44
20
-1.5875
30
0
11
44
21
-13.5
31
0
39
0
210
0
220
0
230
1
0
LINE
5
230
100
AcDbEntity
8
0
62
256
6
ByLayer
370
-2
48
1
60
0
100
AcDbLine
10
41.64
20
-0.358517
30
0
11
41.64
21
-13.5
31
0
39
0
210
0
220
0
230
1
0
LINE
5
231
100
AcDbEntity
8
0
62
256
6
ByLayer
370
-2
48
1
60
0
100
AcDbLine
10
44
20
-11.5
30
0
11
69.142857
21
-11.5
31
0
39
0
210
0
220
0
230
1
0
LINE
5
232
100
AcDbEntity
8
0
62
256
6
ByLayer
370
-2
48
1
60
0
100
AcDbLine
10
47.5
20
-11.5
30
0
11
51
21
-11.5
31
0
39
0
210
0
220
0
230
1
0
LINE
5
233
100
AcDbEntity
8
0
62
256
6
ByLayer
370
-2
48
1
60
0
100
AcDbLine
10
38.14
20
-11.5
30
0
11
34.64
21
-11.5
31
0
39
0
210
0
220
0
230
1
0
SOLID
5
234
100
AcDbEntity
8
0
62
256
6
ByLayer
370
-1
48
1
60
0
100
AcDbTrace
10
47.5
20
-10.916667
30
0
11
47.5
21
-12.083333
31
0
12
44
22
-11.5
32
0
13
44
23
-11.5
33
0
39
0
210
0
220
0
230
1
0
SOLID
5
235
100
AcDbEntity
8
0
62
256
6
ByLayer
370
-1
48
1
60
0
100
AcDbTrace
10
38.14
20
-12.083333
30
0
11
38.14
21
-10.916667
31
0
12
41.64
22
-11.5
32
0
13
41.64
23
-11.5
33
0
39
0
210
0
220
0
230
1
0
MTEXT
5
236
100
AcDbEntity
8
0
62
256
6
ByLayer
370
18
48
1
60
0
100
AcDbMText
10
60.071429
20
-5.5
30
0
210
0
220
0
230
1
1
\A1;2.36
40
3
41
0
44
1
50
0
71
5
72
5
7
iso_b_vert
0
POINT
5
237
100
AcDbEntity
8
Defpoints
62
0
6
ByLayer
370
-1
48
1
60
0
100
AcDbPoint
10
44
20
0
30
0
39
0
210
0
220
0
230
1
50
360
0
POINT
5
238
100
AcDbEntity
8
Defpoints
62
0
6
ByLayer
370
-1
48
1
60
0
100
AcDbPoint
10
41.64
20
1.228983
30
0
39
0
210
0
220
0
230
1
50
360
0
POINT
5
239
100
AcDbEntity
8
Defpoints
62
0
6
ByLayer
370
-1
48
1
60
0
100
AcDbPoint
10
41.64
20
-11.5
30
0
39
0
210
0
220
0
230
1
50
360
0
ENDBLK
5
22E
100
AcDbEntity
8
0
100
AcDbBlockEnd
0
BLOCK
5
241
100
AcDbEntity
8
0
100
AcDbBlockBegin
2
_U4
70
0
10
0
20
0
30
0
3
_U4
0
MTEXT
5
23B
100
AcDbEntity
8
SK2
62
256
6
ByLayer
370
18
48
1
60
0
100
AcDbMText
10
54.159
20
-10.614886
30
0
210
0
220
0
230
1
1
\W0.7346;2.36
40
3
41
0
44
1.084337
50
0
71
7
72
5
7
iso_b_vert
0
LINE
5
23C
100
AcDbEntity
8
SK2
62
256
6
ByLayer
370
13
48
1
60
0
100
AcDbLine
10
44
20
-1.5875
30
0
11
44
21
-13.5
31
0
39
0
210
0
220
0
230
1
0
LINE
5
23D
100
AcDbEntity
8
SK2
62
256
6
ByLayer
370
13
48
1
60
0
100
AcDbLine
10
41.64
20
-0.358517
30
0
11
41.64
21
-13.5
31
0
39
0
210
0
220
0
230
1
0
LINE
5
23E
100
AcDbEntity
8
SK2
62
256
6
ByLayer
370
13
48
1
60
0
100
AcDbLine
10
34.14
20
-11.5
30
0
11
61.040913
21
-11.5
31
0
39
0
210
0
220
0
230
1
0
SOLID
5
23F
100
AcDbEntity
8
SK2
62
256
6
ByLayer
370
18
48
1
60
0
100
AcDbTrace
10
44
20
-11.5
30
0
11
47.499998
21
-11.039216
31
0
12
47.500002
22
-11.960784
32
0
13
47.500002
23
-11.960784
33
0
39
0
210
0
220
0
230
1
0
SOLID
5
240
100
AcDbEntity
8
SK2
62
256
6
ByLayer
370
18
48
1
60
0
100
AcDbTrace
10
41.64
20
-11.5
30
0
11
38.140002
21
-11.960784
31
0
12
38.139998
22
-11.039216
32
0
13
38.139998
23
-11.039216
33
0
39
0
210
0
220
0
230
1
0
ENDBLK
5
242
100
AcDbEntity
8
0
100
AcDbBlockEnd
0
ENDSEC
0
SECTION
2
ENTITIES
0
ARC
5
FC
100
AcDbEntity
8
81
62
256
6
ByLayer
370
18
48
1
60
0
100
AcDbCircle
39
0
10
41.500067
20
-1.378832
30
0
40
0.215236915505317
210
0
220
0
230
1
100
AcDbArc
50
49.714825
51
62.112496
0
ARC
5
FD
100
AcDbEntity
8
81
62
256
6
ByLayer
370
18
48
1
60
0
100
AcDbCircle
39
0
10
41.500067
20
1.378832
30
0
40
0.215236915505317
210
0
220
0
230
1
100
AcDbArc
50
303.096213
51
310.285175
0
ARC
5
FE
100
AcDbEntity
8
81
62
256
6
ByLayer
370
18
48
1
60
0
100
AcDbCircle
39
0
10
42.5
20
0
30
0
40
1.4888
210
0
220
0
230
1
100
AcDbArc
50
7.939931
51
125.285175
0
ARC
5
FF
100
AcDbEntity
8
81
62
256
6
ByLayer
370
18
48
1
60
0
100
AcDbCircle
39
0
10
42.5
20
0
30
0
40
1.4888
210
0
220
0
230
1
100
AcDbArc
50
234.714825
51
350.885521
0
ARC
5
100
100
AcDbEntity
8
1
62
256
6
ByLayer
370
18
48
1
60
0
100
AcDbCircle
39
0
10
42.499501
20
1.6E-05
30
0
40
1.5
210
0
220
0
230
1
100
AcDbArc
50
0
51
2.800078
0
ARC
5
101
100
AcDbEntity
8
1
62
256
6
ByLayer
370
18
48
1
60
0
100
AcDbCircle
39
0
10
42.499501
20
1.6E-05
30
0
40
1.5
210
0
220
0
230
1
100
AcDbArc
50
2.800078
51
3.794077
0
ARC
5
102
100
AcDbEntity
8
1
62
256
6
ByLayer
370
18
48
1
60
0
100
AcDbCircle
39
0
10
42.499501
20
1.6E-05
30
0
40
1.5
210
0
220
0
230
1
100
AcDbArc
50
356.248161
51
357.249371
0
ARC
5
103
100
AcDbEntity
8
1
62
256
6
ByLayer
370
18
48
1
60
0
100
AcDbCircle
39
0
10
42.499501
20
1.6E-05
30
0
40
1.5
210
0
220
0
230
1
100
AcDbArc
50
357.249371
51
0
0
ARC
5
104
100
AcDbEntity
8
1
62
256
6
ByLayer
370
18
48
1
60
0
100
AcDbCircle
39
0
10
33.49677
20
2.2285
30
0
40
1
210
0
220
0
230
1
100
AcDbArc
50
256.71031
51
270
0
ARC
5
105
100
AcDbEntity
8
1
62
256
6
ByLayer
370
18
48
1
60
0
100
AcDbCircle
39
0
10
33.49677
20
-2.2285
30
0
40
1
210
0
220
0
230
1
100
AcDbArc
50
90
51
103.28969
0
ARC
5
106
100
AcDbEntity
8
SK2
62
256
6
ByLayer
370
13
48
1
60
0
100
AcDbCircle
39
0
10
38.787651
20
0
30
0
40
28.2221350644751
210
0
220
0
230
1
100
AcDbArc
50
166.915332
51
194.88231
0
ARC
5
107
100
AcDbEntity
8
SK2
62
256
6
ByLayer
370
13
48
1
60
0
100
AcDbCircle
39
0
10
38.787651
20
0
30
0
40
28.2221350644751
210
0
220
0
230
1
100
AcDbArc
50
146.118431
51
166.915332
0
ELLIPSE
5
108
100
AcDbEntity
8
1
62
256
6
ByLayer
370
18
48
1
60
0
100
AcDbEllipse
10
42.499501
20
0.062189
30
0
11
-1.49786501051486
21
1.83429500904472E-16
31
0
210
0
220
0
230
1
40
0.62932
41
-3.12163142835997
42
-3.0992485342283
0
ELLIPSE
5
109
100
AcDbEntity
8
1
62
256
6
ByLayer
370
18
48
1
60
0
100
AcDbEllipse
10
42.499501
20
-0.024714
30
0
11
1.49786370678349
21
0
31
0
210
0
220
0
230
1
40
0.951057
41
0.0199837640584562
42
0.0376282244874256
0
ELLIPSE
5
10A
100
AcDbEntity
8
1
62
256
6
ByLayer
370
18
48
1
60
0
100
AcDbEllipse
10
41.625101
20
2.487756
30
0
11
-6.65738590191927
21
2.47796297556557
31
0
210
0
220
0
230
1
40
0.196659
41
1.61309361077459
42
1.64063496430776
0
ELLIPSE
5
10B
100
AcDbEntity
8
1
62
256
6
ByLayer
370
18
48
1
60
0
100
AcDbEllipse
10
41.59262
20
2.400492
30
0
11
-6.58487808896736
21
2.45097465333502
31
0
210
0
220
0
230
1
40
0.196659
41
1.60682528987227
42
1.63967431308669
0
ELLIPSE
5
10C
100
AcDbEntity
8
1
62
256
6
ByLayer
370
18
48
1
60
0
100
AcDbEllipse
10
41.592659
20
-6.459664
30
0
11
-5.68538349780581
21
4.12861917495485
31
0
210
0
220
0
230
1
40
0.813139
41
-1.03320671521115
42
-1.00036865104168
0
ELLIPSE
5
10D
100
AcDbEntity
8
1
62
256
6
ByLayer
370
18
48
1
60
0
100
AcDbEllipse
10
43.97872
20
0
30
0
11
3.8284256859338
21
0.454622920544228
31
0
210
0
220
0
230
1
40
0.298108
41
-2.66529101765259
42
-2.33065529795517
0
ELLIPSE
5
10E
100
AcDbEntity
8
1
62
256
6
ByLayer
370
18
48
1
60
0
100
AcDbEllipse
10
41.625149
20
-6.414922
30
0
11
-5.7479522772483
21
4.1740554525005
31
0
210
0
220
0
230
1
40
0.813139
41
-1.03417561537076
42
-1.00666683436225
0
ELLIPSE
5
10F
100
AcDbEntity
8
1
62
256
6
ByLayer
370
18
48
1
60
0
100
AcDbEllipse
10
43.978728
20
0
30
0
11
3.82672904154193
21
-1.0413884835783
31
0
210
0
220
0
230
1
40
0.170304
41
-2.58359006878533
42
-2.24895711050735
0
ELLIPSE
5
110
100
AcDbEntity
8
1
62
256
6
ByLayer
370
18
48
1
60
0
100
AcDbEllipse
10
43.97872
20
0
30
0
11
3.82639084746635
21
-1.01181593109411
31
0
210
0
220
0
230
1
40
0.182087
41
2.34338220282739
42
2.5385583153164
0
POINT
5
70
100
AcDbEntity
8
81
62
256
6
ByLayer
370
18
48
1
60
0
100
AcDbPoint
10
44
20
0
30
0
39
0
210
0
220
0
230
1
50
360
0
POINT
5
72
100
AcDbEntity
8
80
62
256
6
ByLayer
370
18
48
1
60
0
100
AcDbPoint
10
0
20
0
30
0
39
0
210
0
220
0
230
1
50
360
0
POINT
5
74
100
AcDbEntity
8
1
62
256
6
ByLayer
370
18
48
1
60
1
100
AcDbPoint
10
44
20
0
30
0
39
0
210
0
220
0
230
1
50
360
0
POINT
5
76
100
AcDbEntity
8
1
62
256
6
ByLayer
370
18
48
1
60
1
100
AcDbPoint
10
33.5
20
1.228983
30
0
39
0
210
0
220
0
230
1
50
360
0
POINT
5
77
100
AcDbEntity
8
1
62
256
6
ByLayer
370
18
48
1
60
1
100
AcDbPoint
10
44
20
0
30
0
39
0
210
0
220
0
230
1
50
360
0
POINT
5
78
100
AcDbEntity
8
1
62
256
6
ByLayer
370
18
48
1
60
1
100
AcDbPoint
10
25.880273
20
3
30
0
39
0
210
0
220
0
230
1
50
360
0
POINT
5
79
100
AcDbEntity
8
1
62
256
6
ByLayer
370
18
48
1
60
1
100
AcDbPoint
10
44
20
0
30
0
39
0
210
0
220
0
230
1
50
360
0
POINT
5
7A
100
AcDbEntity
8
1
62
256
6
ByLayer
370
18
48
1
60
1
100
AcDbPoint
10
-36
20
0
30
0
39
0
210
0
220
0
230
1
50
360
0
POINT
5
7B
100
AcDbEntity
8
1
62
256
6
ByLayer
370
18
48
1
60
1
100
AcDbPoint
10
-36
20
0
30
0
39
0
210
0
220
0
230
1
50
360
0
POINT
5
7C
100
AcDbEntity
8
1
62
256
6
ByLayer
370
18
48
1
60
1
100
AcDbPoint
10
0.4
20
-3
30
0
39
0
210
0
220
0
230
1
50
360
0
POINT
5
7D
100
AcDbEntity
8
1
62
256
6
ByLayer
370
18
48
1
60
1
100
AcDbPoint
10
44
20
0
30
0
39
0
210
0
220
0
230
1
50
360
0
POINT
5
7E
100
AcDbEntity
8
1
62
256
6
ByLayer
370
18
48
1
60
1
100
AcDbPoint
10
41.64
20
1.228983
30
0
39
0
210
0
220
0
230
1
50
360
0
SPLINE
5
111
100
AcDbEntity
8
1
62
256
6
ByLayer
370
18
48
1
60
0
100
AcDbSpline
70
4
71
1
72
4
73
2
40
0
40
0
40
1
40
1
41
1
10
41.6420536959277
20
-1.2241464865514
30
0
41
1
10
41.6694281710244
20
-1.22887581136436
30
0
0
SPLINE
5
112
100
AcDbEntity
8
1
62
256
6
ByLayer
370
18
48
1
60
0
100
AcDbSpline
70
4
71
3
72
8
73
4
40
0
40
0
40
0
40
0
40
1
40
1
40
1
40
1
41
1
10
43.9947789930506
20
0.0028700233482652
30
0
41
1
10
43.994753311955
20
-0.0013628293731358
30
0
41
1
10
43.9947463980247
20
-0.0055640079394266
30
0
41
1
10
43.994757151245
20
-0.0097346387368589
30
0
0
SPLINE
5
113
100
AcDbEntity
8
1
62
256
6
ByLayer
370
18
48
1
60
0
100
AcDbSpline
70
4
71
3
72
8
73
4
40
0
40
0
40
0
40
0
40
1
40
1
40
1
40
1
41
1
10
43.0297271326848
20
0.952454926882268
30
0
41
1
10
43.0693882681223
20
0.926408124426843
30
0
41
1
10
43.1090060513046
20
0.903451328422335
30
0
41
1
10
43.1484039974429
20
0.883478016622831
30
0
0
SPLINE
5
114
100
AcDbEntity
8
1
62
256
6
ByLayer
370
18
48
1
60
0
100
AcDbSpline
70
4
71
3
72
36
73
32
40
0
40
0
40
0
40
0
40
0.125000000000042
40
0.125000000000042
40
0.250000000000085
40
0.250000000000085
40
0.375000000000127
40
0.375000000000127
40
0.437500000000148
40
0.437500000000148
40
0.50000000000017
40
0.50000000000017
40
0.531250000000159
40
0.531250000000159
40
0.562500000000148
40
0.562500000000148
40
0.593750000000138
40
0.593750000000138
40
0.625000000000127
40
0.625000000000127
40
0.687500000000106
40
0.687500000000106
40
0.750000000000085
40
0.750000000000085
40
0.812500000000064
40
0.812500000000064
40
0.875000000000042
40
0.875000000000042
40
0.937500000000021
40
0.937500000000021
40
1
40
1
40
1
40
1
41
1
10
42.9636818184232
20
1.39208527132945
30
0
41
1
10
42.9760886610341
20
1.38684269688403
30
0
41
1
10
42.9883101294605
20
1.38111748931232
30
0
41
1
10
43.0122373856255
20
1.3683981715088
30
0
41
1
10
43.023996327229
20
1.36137467914824
30
0
41
1
10
43.0462898235764
20
1.34574888942348
30
0
41
1
10
43.0568796253932
20
1.3371653404314
30
0
41
1
10
43.07123252439
20
1.32226324607186
30
0
41
1
10
43.0757583161397
20
1.31695407744306
30
0
41
1
10
43.0839856919652
20
1.30526762701788
30
0
41
1
10
43.0875614525022
20
1.2990675435419
30
0
41
1
10
43.0916598983729
20
1.28902509233379
30
0
41
1
10
43.0928192732357
20
1.28551790363196
30
0
41
1
10
43.0945341578216
20
1.27839134077425
30
0
41
1
10
43.095098033328
20
1.27476426038342
30
0
41
1
10
43.0955373804103
20
1.26736159669517
30
0
41
1
10
43.095400422066
20
1.26357797110589
30
0
41
1
10
43.0943916053872
20
1.25621790438967
30
0
41
1
10
43.0935257267039
20
1.25259635853959
30
0
41
1
10
43.0898535206746
20
1.24190582563855
30
0
41
1
10
43.0860531545239
20
1.23531627686103
30
0
41
1
10
43.0768872784858
20
1.22352963780554
30
0
41
1
10
43.0716277426536
20
1.21839241681096
30
0
41
1
10
43.0602440836152
20
1.20908842569113
30
0
41
1
10
43.0541573057163
20
1.20497435624631
30
0
41
1
10
43.0417243372336
20
1.19763585660149
30
0
41
1
10
43.0353284942405
20
1.19437925464939
30
0
41
1
10
43.0222819556119
20
1.18846490003784
30
0
41
1
10
43.0156051629583
20
1.18580111158943
30
0
41
1
10
43.0021897499678
20
1.18099304951164
30
0
41
1
10
42.9954593171601
20
1.17884960132119
30
0
41
1
10
42.9887139194029
20
1.17690918384869
30
0
0
SPLINE
5
115
100
AcDbEntity
8
1
62
256
6
ByLayer
370
18
48
1
60
0
100
AcDbSpline
70
4
71
3
72
8
73
4
40
0
40
0
40
0
40
0
40
1
40
1
40
1
40
1
41
1
10
43.9963042176497
20
0.0288766273961016
30
0
41
1
10
43.9942839695084
20
0.0305499538964114
30
0
41
1
10
43.9922637578318
20
0.032223320124757
30
0
41
1
10
43.990243601905
20
0.0338967470922285
30
0
0
SPLINE
5
116
100
AcDbEntity
8
1
62
256
6
ByLayer
370
18
48
1
60
0
100
AcDbSpline
70
4
71
3
72
16
73
12
40
0
40
0
40
0
40
0
40
0.125000000000001
40
0.125000000000001
40
0.250000000000002
40
0.250000000000002
40
0.500000000000001
40
0.500000000000001
40
0.750000000000001
40
0.750000000000001
40
1
40
1
40
1
40
1
41
1
10
43.9963042176498
20
0.0288766273960448
30
0
41
1
10
43.9964630822592
20
0.0311779499800764
30
0
41
1
10
43.9965888206996
20
0.0337378223452447
30
0
41
1
10
43.9967753886287
20
0.0393453662830723
30
0
41
1
10
43.9968353342392
20
0.0423876816748816
30
0
41
1
10
43.9969166029279
20
0.0519220864692898
30
0
41
1
10
43.9968407279375
20
0.0589876309091153
30
0
41
1
10
43.9964638152847
20
0.0736394118279691
30
0
41
1
10
43.9961658752617
20
0.0812219302673043
30
0
41
1
10
43.9953698066835
20
0.0967942755153501
30
0
41
1
10
43.9948700918024
20
0.104783727922836
30
0
41
1
10
43.994283717568
20
0.112781102020278
30
0
0
SPLINE
5
117
100
AcDbEntity
8
1
62
256
6
ByLayer
370
18
48
1
60
0
100
AcDbSpline
70
4
71
3
72
12
73
8
40
0
40
0
40
0
40
0
40
0.250000000000016
40
0.250000000000016
40
0.500000000000032
40
0.500000000000032
40
1
40
1
40
1
40
1
41
1
10
43.9947570101382
20
0.112854534638842
30
0
41
1
10
43.9943477980431
20
0.118351779903691
30
0
41
1
10
43.9938992300776
20
0.123893860131858
30
0
41
1
10
43.9929387613174
20
0.134844728749613
30
0
41
1
10
43.9924248484745
20
0.140282232204925
30
0
41
1
10
43.9907799938926
20
0.156491144126164
30
0
41
1
10
43.9895459896601
20
0.167159920213578
30
0
41
1
10
43.9881683619236
20
0.177703165400601
30
0
0
SPLINE
5
118
100
AcDbEntity
8
1
62
256
6
ByLayer
370
18
48
1
60
0
100
AcDbSpline
70
4
71
3
72
28
73
24
40
0
40
0
40
0
40
0
40
0.249999999999986
40
0.249999999999986
40
0.374999999999979
40
0.374999999999979
40
0.499999999999972
40
0.499999999999972
40
0.624999999999965
40
0.624999999999965
40
0.749999999999958
40
0.749999999999958
40
0.812499999999955
40
0.812499999999955
40
0.874999999999953
40
0.874999999999953
40
0.906249999999964
40
0.906249999999964
40
0.937499999999976
40
0.937499999999976
40
0.968749999999988
40
0.968749999999988
40
1
40
1
40
1
40
1
41
1
10
43.0297270987663
20
0.952454949157556
30
0
41
1
10
43.0135224385409
20
0.963097095622885
30
0
41
1
10
43.0008364392503
20
0.975628230837714
30
0
41
1
10
42.9858828176331
20
0.99824750442184
30
0
41
1
10
42.9815852981612
20
1.00645681423691
30
0
41
1
10
42.9743840338827
20
1.02383387085814
30
0
41
1
10
42.9714397215693
20
1.03304988554015
30
0
41
1
10
42.9666706762118
20
1.05262500176929
30
0
41
1
10
42.9648363368359
20
1.06302206484332
30
0
41
1
10
42.9623055869752
20
1.08493311457877
30
0
41
1
10
42.9615908875458
20
1.09641571863625
30
0
41
1
10
42.9617077144694
20
1.11432044259624
30
0
41
1
10
42.961946480243
20
1.12039547733542
30
0
41
1
10
42.9630595382547
20
1.13280663267537
30
0
41
1
10
42.9639197590849
20
1.13916057132457
30
0
41
1
10
42.9661603758218
20
1.14873901153737
30
0
41
1
10
42.9670773471268
20
1.15196154173634
30
0
41
1
10
42.9694034104676
20
1.15825011153981
30
0
41
1
10
42.9708061657373
20
1.16133419613951
30
0
41
1
10
42.9745122384346
20
1.16725462948258
30
0
41
1
10
42.9768219233173
20
1.17002719673744
30
0
41
1
10
42.9823406936965
20
1.1744234336557
30
0
41
1
10
42.9854630408192
20
1.17597401859484
30
0
41
1
10
42.9887139194914
20
1.1769091838741
30
0
0
SPLINE
5
119
100
AcDbEntity
8
1
62
256
6
ByLayer
370
18
48
1
60
0
100
AcDbSpline
70
4
71
1
72
4
73
2
40
0
40
0
40
1
40
1
41
1
10
41.680707394919
20
-1.23082445561224
30
0
41
1
10
41.8000394278937
20
-1.21184786082946
30
0
0
SPLINE
5
11A
100
AcDbEntity
8
1
62
256
6
ByLayer
370
18
48
1
60
0
100
AcDbSpline
70
4
71
3
72
8
73
4
40
0
40
0
40
0
40
0
40
1
40
1
40
1
40
1
41
1
10
41.7321996142383
20
-1.15545679434555
30
0
41
1
10
41.7013607104037
20
-1.16332289823623
30
0
41
1
10
41.6706259767309
20
-1.17133534242595
30
0
41
1
10
41.64
20
-1.17949312306013
30
0
0
SPLINE
5
11B
100
AcDbEntity
8
1
62
256
6
ByLayer
370
18
48
1
60
0
100
AcDbSpline
70
4
71
3
72
8
73
4
40
0
40
0
40
0
40
0
40
1
40
1
40
1
40
1
41
1
10
41.7321996142383
20
-1.15545679434558
30
0
41
1
10
41.7551141101056
20
-1.17429064452742
30
0
41
1
10
41.7777268613415
20
-1.19308760311515
30
0
41
1
10
41.8000394278937
20
-1.21184786082949
30
0
0
SPLINE
5
11C
100
AcDbEntity
8
1
62
256
6
ByLayer
370
18
48
1
60
0
100
AcDbSpline
70
4
71
3
72
16
73
12
40
0
40
0
40
0
40
0
40
0.102971938848628
40
0.102971938848628
40
0.401981292565783
40
0.401981292565783
40
0.551485969424337
40
0.551485969424337
40
0.700990646282891
40
0.700990646282891
40
1
40
1
40
1
40
1
41
1
10
42.3463896126754
20
-1.41807274453123
30
0
41
1
10
42.3258723113709
20
-1.41673351318013
30
0
41
1
10
42.3055296614951
20
-1.41480795980274
30
0
41
1
10
42.2267188213027
20
-1.40501398667541
30
0
41
1
10
42.1693612320998
20
-1.39290694691255
30
0
41
1
10
42.0848496888329
20
-1.36682203750058
30
0
41
1
10
42.0571502927241
20
-1.35689477626448
30
0
41
1
10
42.0029074032959
20
-1.33464076250044
30
0
41
1
10
41.9763249702436
20
-1.32229249447272
30
0
41
1
10
41.8980973496435
20
-1.28156515029141
30
0
41
1
10
41.8479834796551
20
-1.24948887187233
30
0
41
1
10
41.8000394278936
20
-1.21184786082946
30
0
0
SPLINE
5
11D
100
AcDbEntity
8
1
62
256
6
ByLayer
370
18
48
1
60
0
100
AcDbSpline
70
4
71
3
72
8
73
4
40
0
40
0
40
0
40
0
40
1
40
1
40
1
40
1
41
1
10
41.7320302987063
20
1.15797053456842
30
0
41
1
10
41.7012482458379
20
1.16940697154638
30
0
41
1
10
41.6705699616211
20
1.18108591790272
30
0
41
1
10
41.64
20
1.19301534066386
30
0
0
SPLINE
5
11E
100
AcDbEntity
8
1
62
256
6
ByLayer
370
18
48
1
60
0
100
AcDbSpline
70
4
71
3
72
14
73
10
40
0
40
0
40
0
40
0
40
0.500000000000001
40
0.500000000000001
40
0.750000000000001
40
0.750000000000001
40
0.875000000000001
40
0.875000000000001
40
1
40
1
40
1
40
1
41
1
10
41.5554843846124
20
1.22331654919304
30
0
41
1
10
41.5388094274186
20
1.20062414064151
30
0
41
1
10
41.520794516952
20
1.17852546376019
30
0
41
1
10
41.4921931334139
20
1.14614822519292
30
0
41
1
10
41.4823911919657
20
1.13548188825499
30
0
41
1
10
41.4671011082899
20
1.11978787980979
30
0
41
1
10
41.461905125401
20
1.11460878059901
30
0
41
1
10
41.4511963657747
20
1.10441750332521
30
0
41
1
10
41.4456917849712
20
1.09940099859486
30
0
41
1
10
41.439874904214
20
1.09454917114917
30
0
0
SPLINE
5
11F
100
AcDbEntity
8
1
62
256
6
ByLayer
370
18
48
1
60
0
100
AcDbSpline
70
4
71
3
72
8
73
4
40
0
40
0
40
0
40
0
40
1
40
1
40
1
40
1
41
1
10
41.7320302987063
20
1.15797053456839
30
0
41
1
10
41.7549500069281
20
1.16480439997136
30
0
41
1
10
41.7775626376364
20
1.17136108277245
30
0
41
1
10
41.7998701956437
20
1.17764239260956
30
0
0
SPLINE
5
120
100
AcDbEntity
8
1
62
256
6
ByLayer
370
18
48
1
60
0
100
AcDbSpline
70
4
71
3
72
11
73
7
40
0
40
0
40
0
40
0
40
0.0240168527200037
40
0.414410111632002
40
0.609606741088002
40
1
40
1
40
1
40
1
41
1
10
43.1512965875597
20
-1.1191496651621
30
0
41
1
10
43.1391977250399
20
-1.11953568014715
30
0
41
1
10
42.9304321958533
20
-1.1255702622546
30
0
41
1
10
42.6233333333333
20
-1.11853375693215
30
0
41
1
10
42.1316666666666
20
-1.07173862458041
30
0
41
1
10
41.8366666666667
20
-1.02271042051205
30
0
41
1
10
41.64
20
-0.981069173775154
30
0
0
SPLINE
5
121
100
AcDbEntity
8
1
62
256
6
ByLayer
370
18
48
1
60
0
100
AcDbSpline
70
4
71
3
72
8
73
4
40
0
40
0
40
0
40
0
40
1
40
1
40
1
40
1
41
1
10
41.64
20
0.969148948992284
30
0
41
1
10
41.6130403940706
20
0.95438253812091
30
0
41
1
10
41.5861425004504
20
0.937969387209307
30
0
41
1
10
41.5593738339155
20
0.919621161211381
30
0
0
SPLINE
5
122
100
AcDbEntity
8
1
62
256
6
ByLayer
370
18
48
1
60
0
100
AcDbSpline
70
4
71
3
72
8
73
4
40
0
40
0
40
0
40
0
40
1
40
1
40
1
40
1
41
1
10
41.3281453400411
20
1.00845854920186
30
0
41
1
10
41.4047095952582
20
0.977526753856154
30
0
41
1
10
41.4817996952736
20
0.947942958476432
30
0
41
1
10
41.5593738339155
20
0.919621161211381
30
0
0
SPLINE
5
123
100
AcDbEntity
8
1
62
256
6
ByLayer
370
18
48
1
60
0
100
AcDbSpline
70
4
71
3
72
8
73
4
40
0
40
0
40
0
40
0
40
1
40
1
40
1
40
1
41
1
10
41.6400000000001
20
-1.1794931230601
30
0
41
1
10
41.6118547015746
20
-1.18692470569016
30
0
41
1
10
41.5837374353474
20
-1.19448166684168
30
0
41
1
10
41.5556481616561
20
-1.20216382911806
30
0
0
SPLINE
5
124
100
AcDbEntity
8
1
62
256
6
ByLayer
370
18
48
1
60
0
100
AcDbSpline
70
4
71
3
72
14
73
10
40
0
40
0
40
0
40
0
40
0.25
40
0.25
40
0.5
40
0.5
40
0.75
40
0.75
40
1
40
1
40
1
40
1
41
1
10
41.5556481616561
20
-1.20216382911803
30
0
41
1
10
41.5478372313246
20
-1.19455828145513
30
0
41
1
10
41.5395649034317
20
-1.18742369916458
30
0
41
1
10
41.5219968422539
20
-1.17419916191074
30
0
41
1
10
41.5126244418666
20
-1.16807150493239
30
0
41
1
10
41.493208052551
20
-1.15736377687836
30
0
41
1
10
41.4831419955839
20
-1.15275021781323
30
0
41
1
10
41.4621829627256
20
-1.14523373577617
30
0
41
1
10
41.4512927187227
20
-1.14232516138318
30
0
41
1
10
41.439874904214
20
-1.14050796502366
30
0
0
SPLINE
5
125
100
AcDbEntity
8
1
62
256
6
ByLayer
370
18
48
1
60
0
100
AcDbSpline
70
4
71
3
72
9
73
5
40
0
40
0
40
0
40
0
40
0.163964895899367
40
1
40
1
40
1
40
1
41
1
10
43.1620021122998
20
0.879008732302566
30
0
41
1
10
43.1463347415332
20
0.883298775379188
30
0
41
1
10
43.0507815398516
20
0.909171546039943
30
0
41
1
10
42.9552283381701
20
0.933239048168844
30
0
41
1
10
42.8753425072552
20
0.95202131892458
30
0
0
SPLINE
5
126
100
AcDbEntity
8
1
62
256
6
ByLayer
370
18
48
1
60
0
100
AcDbSpline
70
4
71
3
72
9
73
5
40
0
40
0
40
0
40
0
40
0.811173474719647
40
1
40
1
40
1
40
1
41
1
10
43.2288397920882
20
0.810947027045188
30
0
41
1
10
43.1908931947255
20
0.822664035711028
30
0
41
1
10
43.1441133152727
20
0.836792180970036
30
0
41
1
10
43.0973334358198
20
0.850515957624793
30
0
41
1
10
43.0885001537297
20
0.85309282350417
30
0
0
SPLINE
5
127
100
AcDbEntity
8
1
62
256
6
ByLayer
370
18
48
1
60
0
100
AcDbSpline
70
4
71
3
72
10
73
6
40
0
40
0
40
0
40
0
40
0.5
40
0.5
40
1
40
1
40
1
40
1
41
1
10
43.1484378370195
20
0.0034183407790067
30
0
41
1
10
43.1609522423538
20
-0.0144521442118162
30
0
41
1
10
43.1731956936562
20
-0.0325066455769445
30
0
41
1
10
43.1967462972721
20
-0.0689439578600286
30
0
41
1
10
43.2080658201624
20
-0.0873282774078632
30
0
41
1
10
43.2185166923294
20
-0.10582440698235
30
0
0
SPLINE
5
128
100
AcDbEntity
8
1
62
256
6
ByLayer
370
18
48
1
60
0
100
AcDbSpline
70
4
71
3
72
8
73
4
40
0
40
0
40
0
40
0
40
1
40
1
40
1
40
1
41
1
10
43.2577396571349
20
0.775233829297093
30
0
41
1
10
43.2471112153794
20
0.779550978525378
30
0
41
1
10
43.236008312119
20
0.784315451992086
30
0
41
1
10
43.2243869631132
20
0.789568719131381
30
0
0
SPLINE
5
129
100
AcDbEntity
8
1
62
256
6
ByLayer
370
18
48
1
60
0
100
AcDbSpline
70
4
71
3
72
20
73
16
40
0
40
0
40
0
40
0
40
0.249999999999987
40
0.249999999999987
40
0.499999999999973
40
0.499999999999973
40
0.624999999999965
40
0.624999999999965
40
0.749999999999958
40
0.749999999999958
40
0.87499999999995
40
0.87499999999995
40
0.937499999999975
40
0.937499999999975
40
1
40
1
40
1
40
1
41
1
10
43.2288398223904
20
0.810947015833563
30
0
41
1
10
43.2336035396787
20
0.806449374259728
30
0
41
1
10
43.2381660903337
20
0.802059850239999
30
0
41
1
10
43.2466796454916
20
0.793609490032452
30
0
41
1
10
43.2506335820655
20
0.789548034455578
30
0
41
1
10
43.2555697236732
20
0.784082479134554
30
0
41
1
10
43.2570531217891
20
0.782360583839477
30
0
41
1
10
43.2595245512627
20
0.779222475403174
30
0
41
1
10
43.2604915484211
20
0.777831492811885
30
0
41
1
10
43.2615596923945
20
0.775661016233045
30
0
41
1
10
43.26164308193
20
0.774902331011361
30
0
41
1
10
43.2608568010947
20
0.77447609802357
30
0
41
1
10
43.2604357165979
20
0.774453268494256
30
0
41
1
10
43.2593030095211
20
0.774660765524885
30
0
41
1
10
43.2585914655532
20
0.774887763160507
30
0
41
1
10
43.2577396553031
20
0.775233830257775
30
0
0
SPLINE
5
12A
100
AcDbEntity
8
1
62
256
6
ByLayer
370
18
48
1
60
0
100
AcDbSpline
70
4
71
3
72
12
73
8
40
0
40
0
40
0
40
0
40
0.500000000000025
40
0.500000000000025
40
0.750000000000013
40
0.750000000000013
40
1
40
1
40
1
40
1
41
1
10
43.2296519787789
20
0.866562784136022
30
0
41
1
10
43.2999409878752
20
0.80496691283463
30
0
41
1
10
43.3731147237
20
0.742422681427286
30
0
41
1
10
43.4865443022166
20
0.647400150979877
30
0
41
1
10
43.5249977760971
20
0.615499792146807
30
0
41
1
10
43.6029302895318
20
0.551422334787247
30
0
41
1
10
43.6421085139578
20
0.519491811994584
30
0
41
1
10
43.6814772343786
20
0.487658534146647
30
0
0
SPLINE
5
12B
100
AcDbEntity
8
1
62
256
6
ByLayer
370
18
48
1
60
0
100
AcDbSpline
70
4
71
3
72
10
73
6
40
0
40
0
40
0
40
0
40
0.5
40
0.5
40
1
40
1
40
1
40
1
41
1
10
43.2296519787881
20
0.866562784128121
30
0
41
1
10
43.21637743389
20
0.870318863803732
30
0
41
1
10
43.2039371075129
20
0.873359286632706
30
0
41
1
10
43.1812105589457
20
0.877643352571681
30
0
41
1
10
43.1709283528195
20
0.878888513590027
30
0
41
1
10
43.1620021326445
20
0.879008726745667
30
0
0
SPLINE
5
12C
100
AcDbEntity
8
1
62
256
6
ByLayer
370
18
48
1
60
0
100
AcDbSpline
70
4
71
3
72
12
73
8
40
0
40
0
40
0
40
0
40
0.249999999999959
40
0.249999999999959
40
0.499999999999918
40
0.499999999999918
40
1
40
1
40
1
40
1
41
1
10
43.1620021134687
20
0.879008736590691
30
0
41
1
10
43.1659857784126
20
0.874288429408807
30
0
41
1
10
43.1705338207825
20
0.869218964520741
30
0
41
1
10
43.1804829868372
20
0.858552247758581
30
0
41
1
10
43.1858855368311
20
0.852955574533809
30
0
41
1
10
43.2029654720153
20
0.835687507127062
30
0
41
1
10
43.2155513231404
20
0.823493676923647
30
0
41
1
10
43.2288398011841
20
0.810947032505794
30
0
0
SPLINE
5
12D
100
AcDbEntity
8
1
62
256
6
ByLayer
370
18
48
1
60
0
100
AcDbSpline
70
4
71
3
72
14
73
10
40
0
40
0
40
0
40
0
40
0.5
40
0.5
40
0.624999999999988
40
0.624999999999988
40
0.749999999999976
40
0.749999999999976
40
1
40
1
40
1
40
1
41
1
10
43.2299313336736
20
-0.125778728571135
30
0
41
1
10
43.305971837579
20
-0.186686626702283
30
0
41
1
10
43.3852431433885
20
-0.240059826161314
30
0
41
1
10
43.4876693549782
20
-0.298993772445215
30
0
41
1
10
43.5083225005754
20
-0.310388986900449
30
0
41
1
10
43.5499511717317
20
-0.332427578977615
30
0
41
1
10
43.5709323056276
20
-0.343072131410821
30
0
41
1
10
43.6339697913762
20
-0.373747912176611
30
0
41
1
10
43.6762448295714
20
-0.392589349820753
30
0
41
1
10
43.7187416631103
20
-0.410003511418381
30
0
0
SPLINE
5
12E
100
AcDbEntity
8
1
62
256
6
ByLayer
370
18
48
1
60
0
100
AcDbSpline
70
4
71
3
72
8
73
4
40
0
40
0
40
0
40
0
40
1
40
1
40
1
40
1
41
1
10
43.996171666148
20
-0.0800000000000125
30
0
41
1
10
43.9939093144144
20
-0.0800000000000125
30
0
41
1
10
43.9916472498393
20
-0.0800000000000125
30
0
41
1
10
43.9893855115076
20
-0.0800000000000125
30
0
0
SPLINE
5
12F
100
AcDbEntity
8
1
62
256
6
ByLayer
370
18
48
1
60
0
100
AcDbSpline
70
4
71
3
72
18
73
14
40
0
40
0
40
0
40
0
40
0.125
40
0.125
40
0.25
40
0.25
40
0.375
40
0.375
40
0.5
40
0.5
40
0.75
40
0.75
40
1
40
1
40
1
40
1
41
1
10
43.9961716661469
20
-0.0800000000096475
30
0
41
1
10
43.9963538750813
20
-0.0759617152041017
30
0
41
1
10
43.9965002035346
20
-0.0720229553701017
30
0
41
1
10
43.9967236894546
20
-0.0643306363753311
30
0
41
1
10
43.9968006143779
20
-0.0605590767379454
30
0
41
1
10
43.9968828274885
20
-0.053401584142506
30
0
41
1
10
43.9968891967877
20
-0.049989015830306
30
0
41
1
10
43.996836331071
20
-0.0434594726638409
30
0
41
1
10
43.9967763686126
20
-0.0403313288083496
30
0
41
1
10
43.9965068239607
20
-0.0315509816517476
30
0
41
1
10
43.996209175874
20
-0.0264219397024306
30
0
41
1
10
43.9954003891625
20
-0.0172999113016488
30
0
41
1
10
43.9948870895625
20
-0.0133181518087611
30
0
41
1
10
43.9942813047836
20
-0.0099052498134711
30
0
0
SPLINE
5
130
100
AcDbEntity
8
1
62
256
6
ByLayer
370
18
48
1
60
0
100
AcDbSpline
70
4
71
3
72
8
73
4
40
0
40
0
40
0
40
0
40
1
40
1
40
1
40
1
41
1
10
43.9942833754035
20
-0.0099046721652201
30
0
41
1
10
43.9944412512793
20
-0.0098477133557822
30
0
41
1
10
43.9945991767086
20
-0.0097910363830067
30
0
41
1
10
43.994757151245
20
-0.0097346387368873
30
0
0
SPLINE
5
131
100
AcDbEntity
8
1
62
256
6
ByLayer
370
18
48
1
60
0
100
AcDbSpline
70
4
71
3
72
12
73
8
40
0
40
0
40
0
40
0
40
0.250000000000016
40
0.250000000000016
40
0.500000000000032
40
0.500000000000032
40
1
40
1
40
1
40
1
41
1
10
43.994757151245
20
-0.0097346387369157
30
0
41
1
10
43.9943474105248
20
-0.0074784813636484
30
0
41
1
10
43.9938982217808
20
-0.0054563398197445
30
0
41
1
10
43.9929363506418
20
-0.0019060848105994
30
0
41
1
10
43.992421650467
20
-0.0003656563199854
30
0
41
1
10
43.9907742345069
20
0.0036223081601747
30
0
41
1
10
43.9895382316995
20
0.0054430749501364
30
0
41
1
10
43.9881587188345
20
0.0065092307690975
30
0
0
SPLINE
5
132
100
AcDbEntity
8
1
62
256
6
ByLayer
370
18
48
1
60
0
100
AcDbSpline
70
4
71
3
72
10
73
6
40
0
40
0
40
0
40
0
40
0.5
40
0.5
40
1
40
1
40
1
40
1
41
1
10
43.2299313336608
20
-0.125778728562949
30
0
41
1
10
43.2145382956031
20
-0.167738120345092
30
0
41
1
10
43.2003893143319
20
-0.210511319531406
30
0
41
1
10
43.1753709284676
20
-0.297886433086916
30
0
41
1
10
43.1645312035717
20
-0.342364436454886
30
0
41
1
10
43.1558504169298
20
-0.387853451313106
30
0
0
SPLINE
5
133
100
AcDbEntity
8
1
62
256
6
ByLayer
370
18
48
1
60
0
100
AcDbSpline
70
4
71
3
72
8
73
4
40
0
40
0
40
0
40
0
40
1
40
1
40
1
40
1
41
1
10
43.2185166923295
20
-0.105824406982379
30
0
41
1
10
43.2222814193875
20
-0.112487407069921
30
0
41
1
10
43.2260862632479
20
-0.119138910673598
30
0
41
1
10
43.2299313336678
20
-0.125778728572414
30
0
0
SPLINE
5
134
100
AcDbEntity
8
1
62
256
6
ByLayer
370
18
48
1
60
0
100
AcDbSpline
70
4
71
3
72
14
73
10
40
0
40
0
40
0
40
0
40
0.25
40
0.25
40
0.5
40
0.5
40
0.75
40
0.75
40
1
40
1
40
1
40
1
41
1
10
43.1558504210577
20
-0.387853453115042
30
0
41
1
10
43.1595450453292
20
-0.39998438318915
30
0
41
1
10
43.164149791449
20
-0.411641689520934
30
0
41
1
10
43.1746715293669
20
-0.434273413697298
30
0
41
1
10
43.180526503458
20
-0.445104115329372
30
0
41
1
10
43.1931114793293
20
-0.466033944227092
30
0
41
1
10
43.1998579678547
20
-0.476146429597975
30
0
41
1
10
43.2139334959901
20
-0.495620203818163
30
0
41
1
10
43.2212763958541
20
-0.505003833067349
30
0
41
1
10
43.2288689859254
20
-0.514098394582533
30
0
0
SPLINE
5
135
100
AcDbEntity
8
1
62
256
6
ByLayer
370
18
48
1
60
0
100
AcDbSpline
70
4
71
3
72
11
73
7
40
0
40
0
40
0
40
0
40
0.124253962088724
40
0.416169308059149
40
0.6107795387061
40
1
40
1
40
1
40
1
41
1
10
43.1558504207067
20
-0.38785345259555
30
0
41
1
10
43.0930669471378
20
-0.362282875047072
30
0
41
1
10
42.8827834735689
20
-0.275501389509344
30
0
41
1
10
42.5741666666666
20
-0.143665677308292
30
0
41
1
10
42.1316666666667
20
0.0482695004051266
30
0
41
1
10
41.8366666666667
20
0.176160386882287
30
0
41
1
10
41.64
20
0.259459986881808
30
0
0
SPLINE
5
136
100
AcDbEntity
8
1
62
256
6
ByLayer
370
18
48
1
60
0
100
AcDbSpline
70
4
71
3
72
20
73
16
40
0
40
0
40
0
40
0
40
0.250000000000078
40
0.250000000000078
40
0.500000000000156
40
0.500000000000156
40
0.625000000000102
40
0.625000000000102
40
0.750000000000047
40
0.750000000000047
40
0.874999999999993
40
0.874999999999993
40
0.937499999999996
40
0.937499999999996
40
1
40
1
40
1
40
1
41
1
10
43.2288689826332
20
-0.514098390579761
30
0
41
1
10
43.2336326411288
20
-0.51980430925326
30
0
41
1
10
43.2381951295961
20
-0.525737956992003
30
0
41
1
10
43.2467085589454
20
-0.538297498466079
30
0
41
1
10
43.2506624584527
20
-0.544914623601727
30
0
41
1
10
43.2555986160193
20
-0.555439356351172
30
0
41
1
10
43.2570820329537
20
-0.559057066367103
30
0
41
1
10
43.2595535755224
20
-0.566627226204588
30
0
41
1
10
43.2605207253862
20
-0.570523941758637
30
0
41
1
10
43.2615892294869
20
-0.578460153543801
30
0
41
1
10
43.2616728713733
20
-0.582455612701011
30
0
41
1
10
43.2608869854892
20
-0.588208664899042
30
0
41
1
10
43.2604660339694
20
-0.590112776595845
30
0
41
1
10
43.2593335146486
20
-0.593694283151734
30
0
41
1
10
43.2586220441112
20
-0.595390360505661
30
0
41
1
10
43.2577702841911
20
-0.596994964643898
30
0
0
SPLINE
5
137
100
AcDbEntity
8
1
62
256
6
ByLayer
370
18
48
1
60
0
100
AcDbSpline
70
4
71
3
72
10
73
6
40
0
40
0
40
0
40
0
40
0.5
40
0.5
40
1
40
1
40
1
40
1
41
1
10
41.64
20
-0.416166446268392
30
0
41
1
10
41.6264340124889
20
-0.412227847013185
30
0
41
1
10
41.6128909259643
20
-0.408975397902424
30
0
41
1
10
41.5858541034848
20
-0.403949121570264
30
0
41
1
10
41.5723255020315
20
-0.402173824137918
30
0
41
1
10
41.5589380629775
20
-0.401226448703596
30
0
0
SPLINE
5
138
100
AcDbEntity
8
1
62
256
6
ByLayer
370
18
48
1
60
0
100
AcDbSpline
70
4
71
3
72
8
73
4
40
0
40
0
40
0
40
0
40
1
40
1
40
1
40
1
41
1
10
41.3207758040323
20
-0.361763984798983
30
0
41
1
10
41.399633870133
20
-0.374921499065522
30
0
41
1
10
41.4790428937052
20
-0.388013277223166
30
0
41
1
10
41.5589380629775
20
-0.401226448703596
30
0
0
SPLINE
5
139
100
AcDbEntity
8
1
62
256
6
ByLayer
370
18
48
1
60
0
100
AcDbSpline
70
4
71
3
72
8
73
4
40
0
40
0
40
0
40
0
40
1
40
1
40
1
40
1
41
1
10
41.4398749042145
20
1.09454917114968
30
0
41
1
10
41.4324617382514
20
1.08836589121313
30
0
41
1
10
41.4257140393615
20
1.08183781210627
30
0
41
1
10
41.4197285536992
20
1.0749120661601
30
0
0
SPLINE
5
13A
100
AcDbEntity
8
1
62
256
6
ByLayer
370
18
48
1
60
0
100
AcDbSpline
70
4
71
3
72
28
73
24
40
0
40
0
40
0
40
0
40
0.250000000000059
40
0.250000000000059
40
0.375000000000089
40
0.375000000000089
40
0.500000000000119
40
0.500000000000119
40
0.562500000000037
40
0.562500000000037
40
0.624999999999955
40
0.624999999999955
40
0.687499999999872
40
0.687499999999872
40
0.718749999999835
40
0.718749999999835
40
0.749999999999798
40
0.749999999999798
40
0.812499999999918
40
0.812499999999918
40
0.875000000000038
40
0.875000000000038
40
1
40
1
40
1
40
1
41
1
10
40.6385494671348
20
-0.927295783910125
30
0
41
1
10
40.6283424699425
20
-0.922910927172268
30
0
41
1
10
40.6183092148566
20
-0.918341123247018
30
0
41
1
10
40.6037638269241
20
-0.910984479812328
30
0
41
1
10
40.5990005474794
20
-0.908447594777243
30
0
41
1
10
40.5897516290019
20
-0.903106613880084
30
0
41
1
10
40.5852570424224
20
-0.900310577373034
30
0
41
1
10
40.5789333760524
20
-0.895725716942707
30
0
41
1
10
40.5769092250208
20
-0.894138941280488
30
0
41
1
10
40.5731818542662
20
-0.89080916996366
30
0
41
1
10
40.571463280922
20
-0.889067940016957
30
0
41
1
10
40.568658819632
20
-0.885259347987017
30
0
41
1
10
40.5675561848128
20
-0.883169638142562
30
0
41
1
10
40.5674254718662
20
-0.879938211947433
30
0
41
1
10
40.5676640867009
20
-0.878837128232334
30
0
41
1
10
40.5687892769796
20
-0.876834005803971
30
0
41
1
10
40.5696870580107
20
-0.875910295885944
30
0
41
1
10
40.5729573879904
20
-0.87357835003229
30
0
41
1
10
40.5758060225262
20
-0.872561591567376
30
0
41
1
10
40.5815916288795
20
-0.871069782399786
30
0
41
1
10
40.5845755393584
20
-0.870588025777437
30
0
41
1
10
40.5936562229284
20
-0.869518200949045
30
0
41
1
10
40.5998469197326
20
-0.869315283905081
30
0
41
1
10
40.6060117563955
20
-0.869316809976652
30
0
0
SPLINE
5
13B
100
AcDbEntity
8
1
62
256
6
ByLayer
370
18
48
1
60
0
100
AcDbSpline
70
4
71
3
72
22
73
18
40
0
40
0
40
0
40
0
40
0.250000000000092
40
0.250000000000092
40
0.500000000000184
40
0.500000000000184
40
0.62500000000023
40
0.62500000000023
40
0.750000000000276
40
0.750000000000276
40
0.812500000000207
40
0.812500000000207
40
0.875000000000138
40
0.875000000000138
40
0.937500000000069
40
0.937500000000069
40
1
40
1
40
1
40
1
41
1
10
40.6060117563955
20
-0.869316809976652
30
0
41
1
10
40.6189932849542
20
-0.869320023482942
30
0
41
1
10
40.6319519865224
20
-0.868989612822077
30
0
41
1
10
40.657787469738
20
-0.867126364270092
30
0
41
1
10
40.6705575804184
20
-0.865643820403136
30
0
41
1
10
40.6890982150582
20
-0.861507016049558
30
0
41
1
10
40.6952099262241
20
-0.859782170475484
30
0
41
1
10
40.7066066325449
20
-0.855324167324738
30
0
41
1
10
40.7119729986848
20
-0.852536602603408
30
0
41
1
10
40.7185303532443
20
-0.84740896758683
30
0
41
1
10
40.7205034072698
20
-0.845514119941015
30
0
41
1
10
40.7238191452991
20
-0.841412869600902
30
0
41
1
10
40.7251276545629
20
-0.839258075169965
30
0
41
1
10
40.7270929323855
20
-0.834749482177102
30
0
41
1
10
40.7277505081643
20
-0.832371084773087
30
0
41
1
10
40.7284435980363
20
-0.827585434770413
30
0
41
1
10
40.728490514974
20
-0.825172039604837
30
0
41
1
10
40.72829790235
20
-0.822740235629851
30
0
0
SPLINE
5
13C
100
AcDbEntity
8
1
62
256
6
ByLayer
370
18
48
1
60
0
100
AcDbSpline
70
4
71
3
72
19
73
15
40
0
40
0
40
0
40
0
40
0.250000000000001
40
0.250000000000001
40
0.375000000000001
40
0.437499999999985
40
0.437499999999985
40
0.499999999999968
40
0.499999999999968
40
0.749999999999984
40
0.749999999999984
40
0.874999999999992
40
0.874999999999992
40
1
40
1
40
1
40
1
41
1
10
40.7282979023495
20
-0.822740235629936
30
0
41
1
10
40.7038259230787
20
-0.798356860958336
30
0
41
1
10
40.6819807501182
20
-0.772110372526924
30
0
41
1
10
40.6535146643509
20
-0.729464305075624
30
0
41
1
10
40.6403573164132
20
-0.707320730133148
30
0
41
1
10
40.6288873286983
20
-0.683838707344307
30
0
41
1
10
40.6216246170085
20
-0.667873029314052
30
0
41
1
10
40.6181831499078
20
-0.659725464710732
30
0
41
1
10
40.6021282005671
20
-0.61864759447613
30
0
41
1
10
40.5927971130826
20
-0.584356992144478
30
0
41
1
10
40.5836091848932
20
-0.530736582408565
30
0
41
1
10
40.5813494596757
20
-0.512498564861346
30
0
41
1
10
40.5783797499885
20
-0.475279312854042
30
0
41
1
10
40.577674322932
20
-0.456270769786272
30
0
41
1
10
40.5777143687903
20
-0.437112137048757
30
0
0
SPLINE
5
13D
100
AcDbEntity
8
1
62
256
6
ByLayer
370
18
48
1
60
0
100
AcDbSpline
70
4
71
3
72
14
73
10
40
0
40
0
40
0
40
0
40
0.25
40
0.25
40
0.5
40
0.5
40
0.75
40
0.75
40
1
40
1
40
1
40
1
41
1
10
40.5777143687902
20
-0.437112137048729
30
0
41
1
10
40.5777206067308
20
-0.434127798172142
30
0
41
1
10
40.5781709870352
20
-0.431220613503854
30
0
41
1
10
40.5800345799813
20
-0.42557570878634
30
0
41
1
10
40.5814640419692
20
-0.422859829203901
30
0
41
1
10
40.5850021610364
20
-0.417977164288146
30
0
41
1
10
40.5871546001587
20
-0.415732038299353
30
0
41
1
10
40.5918475518266
20
-0.411744285949283
30
0
41
1
10
40.5943941672333
20
-0.409980753003481
30
0
41
1
10
40.5970862767332
20
-0.408385123339599
30
0
0
SPLINE
5
13E
100
AcDbEntity
8
1
62
256
6
ByLayer
370
18
48
1
60
0
100
AcDbSpline
70
4
71
3
72
24
73
20
40
0
40
0
40
0
40
0
40
0.0624999999999791
40
0.0624999999999791
40
0.124999999999958
40
0.124999999999958
40
0.187499999999937
40
0.187499999999937
40
0.249999999999917
40
0.249999999999917
40
0.37499999999993
40
0.37499999999993
40
0.499999999999944
40
0.499999999999944
40
0.624999999999958
40
0.624999999999958
40
0.749999999999972
40
0.749999999999972
40
1
40
1
40
1
40
1
41
1
10
40.5970862767332
20
-0.408385123339571
30
0
41
1
10
40.6103176055441
20
-0.400542834329968
30
0
41
1
10
40.6240657576119
20
-0.394080756068718
30
0
41
1
10
40.6521608425578
20
-0.382769456749458
30
0
41
1
10
40.6665167905685
20
-0.377943927342017
30
0
41
1
10
40.695652162321
20
-0.369441200591382
30
0
41
1
10
40.7104340704501
20
-0.365770541065189
30
0
41
1
10
40.7403212427734
20
-0.359311359993995
30
0
41
1
10
40.7554596628006
20
-0.356520989115069
30
0
41
1
10
40.8009176301175
20
-0.349273227561469
30
0
41
1
10
40.8313477886481
20
-0.345897852834355
30
0
41
1
10
40.8923777027303
20
-0.341139019289358
30
0
41
1
10
40.9229787107487
20
-0.339769784675951
30
0
41
1
10
40.9843124602284
20
-0.338582537795844
30
0
41
1
10
41.0150488839157
20
-0.338770990614194
30
0
41
1
10
41.0763844606964
20
-0.34041758589305
30
0
41
1
10
41.1070185520815
20
-0.341876673289193
30
0
41
1
10
41.1988350627766
20
-0.347866596818193
30
0
41
1
10
41.2599506812759
20
-0.354002023113082
30
0
41
1
10
41.3207758040324
20
-0.361763984798983
30
0
0
SPLINE
5
13F
100
AcDbEntity
8
1
62
256
6
ByLayer
370
18
48
1
60
0
100
AcDbSpline
70
4
71
3
72
8
73
4
40
0
40
0
40
0
40
0
40
1
40
1
40
1
40
1
41
1
10
41.3482037796269
20
-0.339193227643733
30
0
41
1
10
41.3388834831384
20
-0.346573442312348
30
0
41
1
10
41.3297348918925
20
-0.3540925239611
30
0
41
1
10
41.3207758040323
20
-0.361763984798983
30
0
0
SPLINE
5
140
100
AcDbEntity
8
1
62
256
6
ByLayer
370
18
48
1
60
0
100
AcDbSpline
70
4
71
3
72
10
73
6
40
0
40
0
40
0
40
0
40
0.5
40
0.5
40
1
40
1
40
1
40
1
41
1
10
41.4200220669333
20
-0.23344768245002
30
0
41
1
10
41.4059929615009
20
-0.249809661221491
30
0
41
1
10
41.3927911579008
20
-0.26678935785705
30
0
41
1
10
41.36861651091
20
-0.302052036955615
30
0
41
1
10
41.3576530902372
20
-0.320326537412313
30
0
41
1
10
41.3482037796269
20
-0.339193227643733
30
0
0
SPLINE
5
141
100
AcDbEntity
8
1
62
256
6
ByLayer
370
18
48
1
60
0
100
AcDbSpline
70
4
71
3
72
28
73
24
40
0
40
0
40
0
40
0
40
0.250000000000196
40
0.250000000000196
40
0.375000000000294
40
0.375000000000294
40
0.500000000000392
40
0.500000000000392
40
0.562500000000441
40
0.562500000000441
40
0.62500000000049
40
0.62500000000049
40
0.687500000000538
40
0.687500000000538
40
0.718750000000563
40
0.718750000000563
40
0.750000000000587
40
0.750000000000587
40
0.812500000000441
40
0.812500000000441
40
0.875000000000294
40
0.875000000000294
40
1
40
1
40
1
40
1
41
1
10
40.6385517289422
20
0.538350583777373
30
0
41
1
10
40.6283446398798
20
0.544359452110314
30
0
41
1
10
40.6183112909385
20
0.550543303705609
30
0
41
1
10
40.6037657537219
20
0.560348675447045
30
0
41
1
10
40.5990024230972
20
0.563706603495831
30
0
41
1
10
40.5897533960252
20
0.570719438671034
30
0
41
1
10
40.5852587526475
20
0.574364437271953
30
0
41
1
10
40.578934986921
20
0.58028643961751
30
0
41
1
10
40.5769107925027
20
0.582327435360014
30
0
41
1
10
40.5731833312331
20
0.586589397364406
30
0
41
1
10
40.5714647089242
20
0.588808415299127
30
0
41
1
10
40.5686601125521
20
0.593634697145177
30
0
41
1
10
40.5675573688573
20
0.596269364700305
30
0
41
1
10
40.567426425158
20
0.600317658433966
30
0
41
1
10
40.5676649500842
20
0.601692754830566
30
0
41
1
10
40.5687899828782
20
0.604187586272644
30
0
41
1
10
40.569687701417
20
0.605334500600605
30
0
41
1
10
40.5729579041927
20
0.608224515852015
30
0
41
1
10
40.5758065453403
20
0.609477744539987
30
0
41
1
10
40.5815921771462
20
0.611315382229918
30
0
41
1
10
40.5845761036879
20
0.611907265131777
30
0
41
1
10
40.5936568359999
20
0.613221291836965
30
0
41
1
10
40.5998475830043
20
0.613469599249811
30
0
41
1
10
40.606012465939
20
0.613467744164666
30
0
0
SPLINE
5
142
100
AcDbEntity
8
1
62
256
6
ByLayer
370
18
48
1
60
0
100
AcDbSpline
70
4
71
3
72
20
73
16
40
0
40
0
40
0
40
0
40
0.250000000000102
40
0.250000000000102
40
0.500000000000204
40
0.500000000000204
40
0.625000000000111
40
0.625000000000111
40
0.750000000000018
40
0.750000000000018
40
0.874999999999925
40
0.874999999999925
40
0.937499999999963
40
0.937499999999963
40
1
40
1
40
1
40
1
41
1
10
40.606012465939
20
0.613467744164637
30
0
41
1
10
40.6177341527877
20
0.613464216972403
30
0
41
1
10
40.6294367038105
20
0.613799049613789
30
0
41
1
10
40.6527777858631
20
0.615598498523354
30
0
41
1
10
40.6643809408348
20
0.617040612222439
30
0
41
1
10
40.6813210850053
20
0.620781796800401
30
0
41
1
10
40.6869105684038
20
0.622301105650649
30
0
41
1
10
40.6978043005598
20
0.626182219910902
30
0
41
1
10
40.7030122870935
20
0.628503548148842
30
0
41
1
10
40.7126513158808
20
0.634374791709547
30
0
41
1
10
40.7168808596149
20
0.637815618519994
30
0
41
1
10
40.7219528280709
20
0.643985523630931
30
0
41
1
10
40.7234085251385
20
0.64619849901726
30
0
41
1
10
40.7257313883826
20
0.650756603777722
30
0
41
1
10
40.7266195908291
20
0.653125495632139
30
0
41
1
10
40.7272479193387
20
0.655578444135983
30
0
0
SPLINE
5
143
100
AcDbEntity
8
1
62
256
6
ByLayer
370
18
48
1
60
0
100
AcDbSpline
70
4
71
3
72
16
73
12
40
0
40
0
40
0
40
0
40
0.249999999999991
40
0.249999999999991
40
0.499999999999982
40
0.499999999999982
40
0.624999999999978
40
0.624999999999978
40
0.749999999999974
40
0.749999999999974
40
1
40
1
40
1
40
1
41
1
10
40.7272479193399
20
0.655578444135102
30
0
41
1
10
40.7008768436687
20
0.679453889918307
30
0
41
1
10
40.6761124955068
20
0.703720163689439
30
0
41
1
10
40.6301970345039
20
0.75296572871963
30
0
41
1
10
40.6090445451057
20
0.777945686612298
30
0
41
1
10
40.5803838281066
20
0.815853284733606
30
0
41
1
10
40.5713110429146
20
0.828611495910394
30
0
41
1
10
40.554471505367
20
0.853921723206582
30
0
41
1
10
40.5466914947459
20
0.866484243343649
30
0
41
1
10
40.5252745495298
20
0.903831471916305
30
0
41
1
10
40.513557637988
20
0.928277983819356
30
0
41
1
10
40.5044366006545
20
0.952083574200117
30
0
0
SPLINE
5
144
100
AcDbEntity
8
1
62
256
6
ByLayer
370
18
48
1
60
0
100
AcDbSpline
70
4
71
3
72
18
73
14
40
0
40
0
40
0
40
0
40
0.125
40
0.125
40
0.25
40
0.25
40
0.375
40
0.375
40
0.5
40
0.5
40
0.75
40
0.75
40
1
40
1
40
1
40
1
41
1
10
40.5044366006545
20
0.952083574200117
30
0
41
1
10
40.5035516047393
20
0.954393382775038
30
0
41
1
10
40.5029470400578
20
0.956706942079592
30
0
41
1
10
40.50241303834
20
0.961347025902995
30
0
41
1
10
40.5024908960445
20
0.963701441545169
30
0
41
1
10
40.5034445936232
20
0.968279513829657
30
0
41
1
10
40.504308325397
20
0.970492725672045
30
0
41
1
10
40.5068209373937
20
0.974769923729809
30
0
41
1
10
40.5084918602516
20
0.976845983251906
30
0
41
1
10
40.5143890674158
20
0.982594929989347
30
0
41
1
10
40.51960091029
20
0.985916767501124
30
0
41
1
10
40.5310574078914
20
0.991519777824209
30
0
41
1
10
40.5373864080854
20
0.993871820735876
30
0
41
1
10
40.5440214858805
20
0.995909846582748
30
0
0
SPLINE
5
145
100
AcDbEntity
8
1
62
256
6
ByLayer
370
18
48
1
60
0
100
AcDbSpline
70
4
71
3
72
20
73
16
40
0
40
0
40
0
40
0
40
0.0624999999999775
40
0.0624999999999775
40
0.124999999999955
40
0.124999999999955
40
0.249999999999962
40
0.249999999999962
40
0.374999999999968
40
0.374999999999968
40
0.499999999999974
40
0.499999999999974
40
0.749999999999987
40
0.749999999999987
40
1
40
1
40
1
40
1
41
1
10
40.5440214858805
20
0.995909846582748
30
0
41
1
10
40.5589447416018
20
1.00049366335463
30
0
41
1
10
40.5742658164392
20
1.00413727538646
30
0
41
1
10
40.6053667853813
20
1.01037709177007
30
0
41
1
10
40.6211537842761
20
1.01295542539452
30
0
41
1
10
40.6690015913743
20
1.01960862430263
30
0
41
1
10
40.7015405967126
20
1.02262273318908
30
0
41
1
10
40.7673901777778
20
1.02701968639767
30
0
41
1
10
40.8004420729734
20
1.02835899890246
30
0
41
1
10
40.8665956745627
20
1.02987501169147
30
0
41
1
10
40.8997444425196
20
1.03004399582122
30
0
41
1
10
40.9991721232701
20
1.02919266217253
30
0
41
1
10
41.0652375193214
20
1.02684228924548
30
0
41
1
10
41.1970631076674
20
1.01954101934376
30
0
41
1
10
41.2627769444809
20
1.01456671571208
30
0
41
1
10
41.3281453400411
20
1.00845854920186
30
0
0
SPLINE
5
146
100
AcDbEntity
8
1
62
256
6
ByLayer
370
18
48
1
60
0
100
AcDbSpline
70
4
71
3
72
8
73
4
40
0
40
0
40
0
40
0
40
1
40
1
40
1
40
1
41
1
10
41.3481219053071
20
1.01806979903949
30
0
41
1
10
41.3413700650384
20
1.0149484582586
30
0
41
1
10
41.3347089978967
20
1.01174693721416
30
0
41
1
10
41.3281453400411
20
1.00845854920186
30
0
0
SPLINE
5
147
100
AcDbEntity
8
1
62
256
6
ByLayer
370
18
48
1
60
0
100
AcDbSpline
70
4
71
3
72
10
73
6
40
0
40
0
40
0
40
0
40
0.5
40
0.5
40
1
40
1
40
1
40
1
41
1
10
41.4197285536992
20
1.07491206616007
30
0
41
1
10
41.4057294473413
20
1.06683814848995
30
0
41
1
10
41.3925599141038
20
1.05813224145109
30
0
41
1
10
41.3684555071349
20
1.03924152475938
30
0
41
1
10
41.3575301076156
20
1.02906019378707
30
0
41
1
10
41.3481219053071
20
1.01806979903949
30
0
0
SPLINE
5
148
100
AcDbEntity
8
1
62
256
6
ByLayer
370
18
48
1
60
0
100
AcDbSpline
70
4
71
3
72
14
73
10
40
0
40
0
40
0
40
0
40
0.25
40
0.25
40
0.5
40
0.5
40
0.75
40
0.75
40
1
40
1
40
1
40
1
41
1
10
43.9344645399127
20
0.137310650050921
30
0
41
1
10
43.9177890665418
20
0.163918146631289
30
0
41
1
10
43.8998905633117
20
0.191196188092988
30
0
41
1
10
43.8617794097138
20
0.24715782080159
30
0
41
1
10
43.8415236609877
20
0.275896234130329
30
0
41
1
10
43.7990604517767
20
0.3344573368353
30
0
41
1
10
43.7768420221987
20
0.364307146561998
30
0
41
1
10
43.7304492804182
20
0.425254970685188
30
0
41
1
10
43.7063599047775
20
0.456236965023891
30
0
41
1
10
43.6814772343788
20
0.487658534146561
30
0
0
SPLINE
5
149
100
AcDbEntity
8
1
62
256
6
ByLayer
370
18
48
1
60
0
100
AcDbSpline
70
4
71
3
72
22
73
18
40
0
40
0
40
0
40
0
40
0.249999999999963
40
0.249999999999963
40
0.312499999999954
40
0.312499999999954
40
0.374999999999944
40
0.374999999999944
40
0.499999999999926
40
0.499999999999926
40
0.624999999999907
40
0.624999999999907
40
0.687499999999898
40
0.687499999999898
40
0.749999999999888
40
0.749999999999888
40
1
40
1
40
1
40
1
41
1
10
43.6814772343789
20
0.487658534146362
30
0
41
1
10
43.6522956810162
20
0.502892495578408
30
0
41
1
10
43.6202893764426
20
0.520952401247456
30
0
41
1
10
43.5766101255599
20
0.547200204092718
30
0
41
1
10
43.5676906349402
20
0.552633482664959
30
0
41
1
10
43.5494800850004
20
0.56387176544095
30
0
41
1
10
43.5402122631343
20
0.569662703990502
30
0
41
1
10
43.5121761109456
20
0.587386946093517
30
0
41
1
10
43.4930772728556
20
0.599734358170167
30
0
41
1
10
43.4540598330261
20
0.625496401256697
30
0
41
1
10
43.4341443753555
20
0.638906939123416
30
0
41
1
10
43.4036506576387
20
0.659830591767161
30
0
41
1
10
43.3933823402517
20
0.666940204053617
30
0
41
1
10
43.3726358308348
20
0.681432656394918
30
0
41
1
10
43.3621347568407
20
0.688831786604709
30
0
41
1
10
43.309365110144
20
0.726327927633321
30
0
41
1
10
43.2669633813614
20
0.7574295763919
30
0
41
1
10
43.2243869631091
20
0.789568719135588
30
0
0
SPLINE
5
14A
100
AcDbEntity
8
1
62
256
6
ByLayer
370
18
48
1
60
0
100
AcDbSpline
70
4
71
3
72
37
73
33
40
0
40
0
40
0
40
0
40
0.0625000000001077
40
0.0625000000001077
40
0.0937500000001616
40
0.0937500000001616
40
0.125000000000215
40
0.125000000000215
40
0.250000000000387
40
0.250000000000387
40
0.312500000000472
40
0.312500000000472
40
0.343750000000526
40
0.343750000000526
40
0.359375000000553
40
0.359375000000553
40
0.367187500000555
40
0.367187500000555
40
0.375000000000558
40
0.375000000000558
40
0.500000000000462
40
0.500000000000462
40
0.625000000000366
40
0.625000000000366
40
0.75000000000027
40
0.75000000000027
40
0.781250000000236
40
0.781250000000236
40
0.812500000000203
40
0.875000000000135
40
0.875000000000135
40
1
40
1
40
1
40
1
41
1
10
43.224386963109
20
0.789568719132973
30
0
41
1
10
43.1941827263467
20
0.801469414344695
30
0
41
1
10
43.1634079962849
20
0.814134393941487
30
0
41
1
10
43.1163245897349
20
0.834064299261058
30
0
41
1
10
43.1004617195044
20
0.840869417399745
30
0
41
1
10
43.0684808924883
20
0.854727171093145
30
0
41
1
10
43.0524865905433
20
0.861725874291523
30
0
41
1
10
42.9724624337104
20
0.89696775633837
30
0
41
1
10
42.9082770070217
20
0.925948699046899
30
0
41
1
10
42.8110285810488
20
0.968800290365834
30
0
41
1
10
42.7789625356076
20
0.98275558479537
30
0
41
1
10
42.7312667647414
20
1.00304860029527
30
0
41
1
10
42.7154343518156
20
1.00970701436097
30
0
41
1
10
42.6917699251063
20
1.01951909411704
30
0
41
1
10
42.6838945055227
20
1.0227635805783
30
0
41
1
10
42.6721066909039
20
1.02757073785776
30
0
41
1
10
42.6681809096265
20
1.0291645968579
30
0
41
1
10
42.6603152281297
20
1.03238416853893
30
0
41
1
10
42.6563797411097
20
1.03400003318541
30
0
41
1
10
42.5895747888395
20
1.06123372182535
30
0
41
1
10
42.5274788298487
20
1.08489164278293
30
0
41
1
10
42.4038217487119
20
1.12718413593962
30
0
41
1
10
42.3439004095081
20
1.14501426435041
30
0
41
1
10
42.2266392945819
20
1.17364977919098
30
0
41
1
10
42.1692826523647
20
1.18448331944947
30
0
41
1
10
42.0988761312666
20
1.19284945377637
30
0
41
1
10
42.084875429332
20
1.19426374538585
30
0
41
1
10
42.0571952172744
20
1.19654978527552
30
0
41
1
10
42.0160840815361
20
1.1991735446758
30
0
41
1
10
41.9761948295609
20
1.19930835224562
30
0
41
1
10
41.8979399839715
20
1.19617225079307
30
0
41
1
10
41.8478180292823
20
1.18952588523248
30
0
41
1
10
41.7998701956437
20
1.17764239260958
30
0
0
SPLINE
5
14B
100
AcDbEntity
8
1
62
256
6
ByLayer
370
18
48
1
60
0
100
AcDbSpline
70
4
71
1
72
4
73
2
40
0
40
0
40
1
40
1
41
1
10
41.6806422416539
20
1.03922070044129
30
0
41
1
10
41.7998701956437
20
1.17764239260956
30
0
0
SPLINE
5
14C
100
AcDbEntity
8
1
62
256
6
ByLayer
370
18
48
1
60
0
100
AcDbSpline
70
4
71
3
72
8
73
4
40
0
40
0
40
0
40
0
40
1
40
1
40
1
40
1
41
1
10
41.4398749042145
20
-0.192901278911989
30
0
41
1
10
41.4325820738743
20
-0.206135064295353
30
0
41
1
10
41.4259337302625
20
-0.219637875428418
30
0
41
1
10
41.4200220669333
20
-0.233447682450048
30
0
0
SPLINE
5
14D
100
AcDbEntity
8
1
62
256
6
ByLayer
370
18
48
1
60
0
100
AcDbSpline
70
4
71
3
72
8
73
4
40
0
40
0
40
0
40
0
40
1
40
1
40
1
40
1
41
1
10
41.6400000000001
20
0.0564162213908332
30
0
41
1
10
41.6118546909142
20
0.0611835110585446
30
0
41
1
10
41.583737414069
20
0.0658657842217565
30
0
41
1
10
41.5556481298025
20
0.0704631611675381
30
0
0
SPLINE
5
14E
100
AcDbEntity
8
1
62
256
6
ByLayer
370
18
48
1
60
0
100
AcDbSpline
70
4
71
3
72
14
73
10
40
0
40
0
40
0
40
0
40
0.50000000000003
40
0.50000000000003
40
0.750000000000044
40
0.750000000000044
40
0.875000000000022
40
0.875000000000022
40
1
40
1
40
1
40
1
41
1
10
41.5556481298025
20
0.0704631611675381
30
0
41
1
10
41.5389542063592
20
0.0256700017725677
30
0
41
1
10
41.5209139714881
20
-0.0187166824276801
30
0
41
1
10
41.4922709284113
20
-0.0847213055866973
30
0
41
1
10
41.4824544584308
20
-0.106632994315305
30
0
41
1
10
41.467141835098
20
-0.139258806447401
30
0
41
1
10
41.4619382016178
20
-0.150092271309575
30
0
41
1
10
41.4512135809998
20
-0.171625812629515
30
0
41
1
10
41.4457008446129
20
-0.182329355352692
30
0
41
1
10
41.439874904214
20
-0.192901278913013
30
0
0
SPLINE
5
14F
100
AcDbEntity
8
1
62
256
6
ByLayer
370
18
48
1
60
0
100
AcDbSpline
70
4
71
3
72
12
73
8
40
0
40
0
40
0
40
0
40
0.500000000000111
40
0.500000000000111
40
0.750000000000055
40
0.750000000000055
40
1
40
1
40
1
40
1
41
1
10
41.5556481298028
20
0.0704631611676518
30
0
41
1
10
41.5400334898555
20
0.0847915494719871
30
0
41
1
10
41.5227166070284
20
0.0985203609597534
30
0
41
1
10
41.493435049339
20
0.117949031727562
30
0
41
1
10
41.4832488738968
20
0.124128745915726
30
0
41
1
10
41.4621857554488
20
0.135629248357049
30
0
41
1
10
41.4512712162121
20
0.140978962793127
30
0
41
1
10
41.439874904214
20
0.145824818786593
30
0
0
SPLINE
5
150
100
AcDbEntity
8
1
62
256
6
ByLayer
370
18
48
1
60
0
100
AcDbSpline
70
4
71
3
72
8
73
4
40
0
40
0
40
0
40
0
40
1
40
1
40
1
40
1
41
1
10
43.9970654987512
20
-0.0800000000093917
30
0
41
1
10
43.9963121499236
20
-0.092427788354172
30
0
41
1
10
43.9953841809812
20
-0.104812587566727
30
0
41
1
10
43.9942814731532
20
-0.117154288649516
30
0
0
SPLINE
5
151
100
AcDbEntity
8
1
62
256
6
ByLayer
370
18
48
1
60
0
100
AcDbSpline
70
4
71
3
72
20
73
16
40
0
40
0
40
0
40
0
40
0.25000000000006
40
0.25000000000006
40
0.375000000000049
40
0.375000000000049
40
0.500000000000039
40
0.500000000000039
40
0.625000000000029
40
0.625000000000029
40
0.750000000000019
40
0.750000000000019
40
0.87500000000001
40
0.87500000000001
40
1
40
1
40
1
40
1
41
1
10
43.9817651870052
20
-0.154599992957856
30
0
41
1
10
43.9832526021326
20
-0.150286785390904
30
0
41
1
10
43.9846165765591
20
-0.145502984161453
30
0
41
1
10
43.9864141722042
20
-0.137366791114431
30
0
41
1
10
43.986973539844
20
-0.134475290402776
30
0
41
1
10
43.9879637706916
20
-0.12846710538571
30
0
41
1
10
43.9883984223897
20
-0.125337180243974
30
0
41
1
10
43.9891318406189
20
-0.118789546923296
30
0
41
1
10
43.9894318552715
20
-0.115334794534704
30
0
41
1
10
43.989859421183
20
-0.108375876836277
30
0
41
1
10
43.9899907844257
20
-0.104853351634148
30
0
41
1
10
43.9900898634693
20
-0.0977208789776967
30
0
41
1
10
43.9900556630269
20
-0.0940708435051363
30
0
41
1
10
43.9898300395397
20
-0.0869290510558756
30
0
41
1
10
43.9896410148608
20
-0.0834316175879906
30
0
41
1
10
43.9893855115086
20
-0.0800000000000125
30
0
0
SPLINE
5
152
100
AcDbEntity
8
1
62
256
6
ByLayer
370
18
48
1
60
0
100
AcDbSpline
70
4
71
3
72
8
73
4
40
0
40
0
40
0
40
0
40
1
40
1
40
1
40
1
41
1
10
43.9817651804432
20
-0.154600011988748
30
0
41
1
10
43.970889720534
20
-0.186136676166484
30
0
41
1
10
43.9579325392239
20
-0.215993745104157
30
0
41
1
10
43.943079822686
20
-0.244021104703421
30
0
0
SPLINE
5
153
100
AcDbEntity
8
1
62
256
6
ByLayer
370
18
48
1
60
0
100
AcDbSpline
70
4
71
1
72
4
73
2
40
0
40
0
40
1
40
1
41
1
10
41.6420536959278
20
-0.41664405065012
30
0
41
1
10
41.680707394919
20
-0.306092574643174
30
0
0
SPLINE
5
154
100
AcDbEntity
8
1
62
256
6
ByLayer
370
18
48
1
60
0
100
AcDbSpline
70
4
71
3
72
8
73
4
40
0
40
0
40
0
40
0
40
1
40
1
40
1
40
1
41
1
10
42.8204628063333
20
-1.04850821260155
30
0
41
1
10
42.8397194199771
20
-1.05224799984185
30
0
41
1
10
42.8589557707341
20
-1.05551637423966
30
0
41
1
10
42.8781742802533
20
-1.05829920485959
30
0
0
SPLINE
5
155
100
AcDbEntity
8
1
62
256
6
ByLayer
370
18
48
1
60
0
100
AcDbSpline
70
4
71
3
72
12
73
8
40
0
40
0
40
0
40
0
40
0.0232029673701097
40
0.349209222528274
40
0.593664923897356
40
0.756575252603092
40
1
40
1
40
1
40
1
41
1
10
42.8781742802608
20
-1.05829920486067
30
0
41
1
10
42.8844087216276
20
-1.05918726055006
30
0
41
1
10
42.9784400826323
20
-1.0717485891449
30
0
41
1
10
43.1440392266404
20
-1.07222525224148
30
0
41
1
10
43.3464070688077
20
-1.02143875571306
30
0
41
1
10
43.5157740089715
20
-0.94270546133825
30
0
41
1
10
43.6111420102817
20
-0.87341257115466
30
0
41
1
10
43.6631456528208
20
-0.825817287049404
30
0
0
SPLINE
5
156
100
AcDbEntity
8
1
62
256
6
ByLayer
370
18
48
1
60
0
100
AcDbSpline
70
4
71
3
72
18
73
14
40
0
40
0
40
0
40
0
40
0.0646142621981015
40
0.134545804167394
40
0.209778391730068
40
0.290292027772884
40
0.376063956796454
40
0.467075387791793
40
0.563307957832294
40
0.664741229508849
40
0.771352244133967
40
0.883115019412532
40
1
40
1
40
1
40
1
41
1
10
43.6631456528216
20
-0.825817287048665
30
0
41
1
10
43.6669661054649
20
-0.822270325054859
30
0
41
1
10
43.6749214059772
20
-0.814884512115469
30
0
41
1
10
43.6870928490297
20
-0.803098808258568
30
0
41
1
10
43.6999818625867
20
-0.790185650364776
30
0
41
1
10
43.7135149955625
20
-0.77607341139759
30
0
41
1
10
43.7276353599828
20
-0.760713819385728
30
0
41
1
10
43.7422772995694
20
-0.744052066721167
30
0
41
1
10
43.7573718113511
20
-0.726033940434576
30
0
41
1
10
43.7728482233061
20
-0.706607622002394
30
0
41
1
10
43.7886143465534
20
-0.685707904043483
30
0
41
1
10
43.8046378524748
20
-0.663326393231756
30
0
41
1
10
43.8150591962638
20
-0.647614083594021
30
0
41
1
10
43.8203865985026
20
-0.639581933879583
30
0
0
SPLINE
5
157
100
AcDbEntity
8
1
62
256
6
ByLayer
370
18
48
1
60
0
100
AcDbSpline
70
4
71
3
72
8
73
4
40
0
40
0
40
0
40
0
40
1
40
1
40
1
40
1
41
1
10
43.9881683619239
20
-0.176644903696115
30
0
41
1
10
43.9908240207751
20
-0.157148119245676
30
0
41
1
10
43.9930247913532
20
-0.13758093509918
30
0
41
1
10
43.9947785552568
20
-0.117963649986933
30
0
0
SPLINE
5
158
100
AcDbEntity
8
1
62
256
6
ByLayer
370
18
48
1
60
0
100
AcDbSpline
70
4
71
3
72
8
73
4
40
0
40
0
40
0
40
0
40
1
40
1
40
1
40
1
41
1
10
42.7661578550182
20
-1.03668114361705
30
0
41
1
10
42.7613922996226
20
-1.03553391078091
30
0
41
1
10
42.7565676614357
20
-1.03449916758055
30
0
41
1
10
42.7516832515069
20
-1.03357999155563
30
0
0
SPLINE
5
159
100
AcDbEntity
8
1
62
256
6
ByLayer
370
18
48
1
60
0
100
AcDbSpline
70
4
71
3
72
8
73
4
40
0
40
0
40
0
40
0
40
1
40
1
40
1
40
1
41
1
10
42.7661578662563
20
-1.03668114632262
30
0
41
1
10
42.7842578237986
20
-1.04103842749788
30
0
41
1
10
42.802356871084
20
-1.04498425938911
30
0
41
1
10
42.8204628063334
20
-1.04850821260155
30
0
0
SPLINE
5
15A
100
AcDbEntity
8
1
62
256
6
ByLayer
370
18
48
1
60
0
100
AcDbSpline
70
4
71
3
72
25
73
21
40
0
40
0
40
0
40
0
40
0.0658811690975125
40
0.110750262647452
40
0.201867903031029
40
0.247873781825903
40
0.339795509140578
40
0.408630511752791
40
0.546029027233909
40
0.712722113708031
40
0.727873470044914
40
0.746673108801855
40
0.76547689528669
40
0.812527897764696
40
0.86205719797977
40
0.882777604371917
40
0.885441273316676
40
0.889502700580532
40
0.902577206583899
40
1
40
1
40
1
40
1
41
1
10
41.6420536959278
20
-0.41664405065012
30
0
41
1
10
41.6684162023647
20
-0.430528509324205
30
0
41
1
10
41.7117679225503
20
-0.455642566503627
30
0
41
1
10
41.7900483270523
20
-0.505523188619804
30
0
41
1
10
41.8599737158059
20
-0.553233056071491
30
0
41
1
10
41.9465580673908
20
-0.614028121340624
30
0
41
1
10
42.02559309021
20
-0.669205367442345
30
0
41
1
10
42.142993986271
20
-0.746663464641841
30
0
41
1
10
42.2906118565426
20
-0.837164243656019
30
0
41
1
10
42.4199898015724
20
-0.904862492885883
30
0
41
1
10
42.5025296790144
20
-0.942426455637133
30
0
41
1
10
42.5239062855037
20
-0.951862143876184
30
0
41
1
10
42.5583255500756
20
-0.966576183541349
30
0
41
1
10
42.6051930637462
20
-0.985382332301157
30
0
41
1
10
42.6528302524173
20
-1.0025815746034
30
0
41
1
10
42.6822547544608
20
-1.01229242011479
30
0
41
1
10
42.6933606054286
20
-1.015844762098
30
0
41
1
10
42.7004684094889
20
-1.01808829970474
30
0
41
1
10
42.7423881809682
20
-1.03098640099839
30
0
41
1
10
42.783656543896
20
-1.04126720324285
30
0
41
1
10
42.8204628063334
20
-1.0485082126016
30
0
0
SPLINE
5
15B
100
AcDbEntity
8
1
62
256
6
ByLayer
370
18
48
1
60
0
100
AcDbSpline
70
4
71
1
72
4
73
2
40
0
40
0
40
1
40
1
41
1
10
41.6419311916974
20
-0.417184953555676
30
0
41
1
10
41.6420536959278
20
-0.41664405065012
30
0
0
SPLINE
5
15C
100
AcDbEntity
8
1
62
256
6
ByLayer
370
18
48
1
60
0
100
AcDbSpline
70
4
71
3
72
17
73
13
40
0
40
0
40
0
40
0
40
0.250000000000048
40
0.250000000000048
40
0.500000000000095
40
0.500000000000095
40
0.562500000000098
40
0.562500000000098
40
0.6250000000001
40
0.750000000000067
40
0.750000000000067
40
1
40
1
40
1
40
1
41
1
10
41.9531615473651
20
-0.618865100239816
30
0
41
1
10
42.0174569214279
20
-0.663990827056921
30
0
41
1
10
42.0821159823523
20
-0.707490127361211
30
0
41
1
10
42.2129634433461
20
-0.790206367122408
30
0
41
1
10
42.2791574989169
20
-0.829405680422866
30
0
41
1
10
42.3634817597855
20
-0.874789506787437
30
0
41
1
10
42.3804339430939
20
-0.883686079971284
30
0
41
1
10
42.4142220637049
20
-0.900937613807542
30
0
41
1
10
42.4648390442739
20
-0.926061689507662
30
0
41
1
10
42.5153341499481
20
-0.948867041401769
30
0
41
1
10
42.6163535002777
20
-0.991174381844218
30
0
41
1
10
42.6837329807692
20
-1.01500321541411
30
0
41
1
10
42.7516832515075
20
-1.03357999155475
30
0
0
SPLINE
5
15D
100
AcDbEntity
8
1
62
256
6
ByLayer
370
18
48
1
60
0
100
AcDbSpline
70
4
71
3
72
14
73
10
40
0
40
0
40
0
40
0
40
0.25
40
0.25
40
0.5
40
0.5
40
0.75
40
0.75
40
1
40
1
40
1
40
1
41
1
10
41.6419311916974
20
-0.417184953555704
30
0
41
1
10
41.667687112669
20
-0.430686621877186
30
0
41
1
10
41.6933212146742
20
-0.44550733113698
30
0
41
1
10
41.7446878951646
20
-0.476903909064731
30
0
41
1
10
41.7704132491039
20
-0.493487825971243
30
0
41
1
10
41.8221623001162
20
-0.527867215674121
30
0
41
1
10
41.8482438078468
20
-0.545708051422395
30
0
41
1
10
41.9006121589314
20
-0.581992891316446
30
0
41
1
10
41.9268277987144
20
-0.600382768347146
30
0
41
1
10
41.9531615473653
20
-0.618865100240015
30
0
0
SPLINE
5
15E
100
AcDbEntity
8
1
62
256
6
ByLayer
370
18
48
1
60
0
100
AcDbSpline
70
4
71
3
72
8
73
4
40
0
40
0
40
0
40
0
40
1
40
1
40
1
40
1
41
1
10
41.6419311916975
20
-0.41718495355579
30
0
41
1
10
41.6412876661133
20
-0.41684448772844
30
0
41
1
10
41.6406439346226
20
-0.416504983527773
30
0
41
1
10
41.64
20
-0.41616644626896
30
0
0
SPLINE
5
15F
100
AcDbEntity
8
1
62
256
6
ByLayer
370
18
48
1
60
0
100
AcDbSpline
70
4
71
3
72
8
73
4
40
0
40
0
40
0
40
0
40
1
40
1
40
1
40
1
41
1
10
43.0297362063926
20
0.171218260817739
30
0
41
1
10
43.0694055927077
20
0.11558256524529
30
0
41
1
10
43.1090320876101
20
0.0596898226899611
30
0
41
1
10
43.1484378370195
20
0.0034183407789783
30
0
0
SPLINE
5
160
100
AcDbEntity
8
1
62
256
6
ByLayer
370
18
48
1
60
0
100
AcDbSpline
70
4
71
3
72
28
73
24
40
0
40
0
40
0
40
0
40
0.249999999999967
40
0.249999999999967
40
0.374999999999973
40
0.374999999999973
40
0.499999999999979
40
0.499999999999979
40
0.624999999999984
40
0.624999999999984
40
0.74999999999999
40
0.74999999999999
40
0.812499999999993
40
0.812499999999993
40
0.874999999999995
40
0.874999999999995
40
0.906249999999996
40
0.906249999999996
40
0.937499999999998
40
0.937499999999998
40
0.968749999999999
40
0.968749999999999
40
1
40
1
40
1
40
1
41
1
10
43.0297361724538
20
0.171218308416343
30
0
41
1
10
43.0135306692221
20
0.193946273848241
30
0
41
1
10
43.0008436795098
20
0.218181369490509
30
0
41
1
10
42.9858887323316
20
0.255900344843724
30
0
41
1
10
42.9815907657782
20
0.268732585280674
30
0
41
1
10
42.9743887021581
20
0.29401235182354
30
0
41
1
10
42.9714440360895
20
0.306548251129271
30
0
41
1
10
42.9666743589711
20
0.331311466552052
30
0
41
1
10
42.9648397454576
20
0.343584005706134
30
0
41
1
10
42.9623084656639
20
0.367523009635732
30
0
41
1
10
42.9615935361596
20
0.379164692364697
30
0
41
1
10
42.9617100519821
20
0.395746397275957
30
0
41
1
10
42.9619487209546
20
0.40112114206832
30
0
41
1
10
42.9630615922799
20
0.411487239357115
30
0
41
1
10
42.9639217265946
20
0.416497804303987
30
0
41
1
10
42.9661622232344
20
0.423383999350733
30
0
41
1
10
42.9670791633474
20
0.425586838503193
30
0
41
1
10
42.9694051789859
20
0.429573073677119
30
0
41
1
10
42.9708079139031
20
0.431373922779102
30
0
41
1
10
42.974513920003
20
0.434325234509458
30
0
41
1
10
42.976823612822
20
0.435422022464366
30
0
41
1
10
42.9823426467439
20
0.43632977772296
30
0
41
1
10
42.9854650653203
20
0.436127337170717
30
0
41
1
10
42.9887160526407
20
0.435420202521669
30
0
0
SPLINE
5
161
100
AcDbEntity
8
1
62
256
6
ByLayer
370
18
48
1
60
0
100
AcDbSpline
70
4
71
3
72
8
73
4
40
0
40
0
40
0
40
0
40
1
40
1
40
1
40
1
41
1
10
41.6419467982239
20
0.969938629792864
30
0
41
1
10
41.64129807376
20
0.969676197040144
30
0
41
1
10
41.6406491400725
20
0.969412970580549
30
0
41
1
10
41.64
20
0.969148948992398
30
0
0
SPLINE
5
162
100
AcDbEntity
8
1
62
256
6
ByLayer
370
18
48
1
60
0
100
AcDbSpline
70
4
71
3
72
8
73
4
40
0
40
0
40
0
40
0
40
1
40
1
40
1
40
1
41
1
10
43.9970654160266
20
0.0037519113894007
30
0
41
1
10
43.9963120808347
20
0.0041592408439044
30
0
41
1
10
43.9953841417478
20
0.0046597243208453
30
0
41
1
10
43.9942814807519
20
0.005253478573394
30
0
0
SPLINE
5
163
100
AcDbEntity
8
1
62
256
6
ByLayer
370
18
48
1
60
0
100
AcDbSpline
70
4
71
3
72
8
73
4
40
0
40
0
40
0
40
0
40
1
40
1
40
1
40
1
41
1
10
43.9902436019045
20
0.0338967470921716
30
0
41
1
10
43.9925302795303
20
0.0238510838546802
30
0
41
1
10
43.9948042175758
20
0.0138027900034103
30
0
41
1
10
43.9970654160253
20
0.0037519113934934
30
0
0
SPLINE
5
164
100
AcDbEntity
8
1
62
256
6
ByLayer
370
18
48
1
60
0
100
AcDbSpline
70
4
71
3
72
20
73
16
40
0
40
0
40
0
40
0
40
0.25
40
0.25
40
0.375
40
0.375
40
0.5
40
0.5
40
0.625
40
0.625
40
0.75
40
0.75
40
0.875
40
0.875
40
1
40
1
40
1
40
1
41
1
10
43.9840136234028
20
0.0309246117860482
30
0
41
1
10
43.9855098398419
20
0.027125932949815
30
0
41
1
10
43.9868606599074
20
0.0239647185798333
30
0
41
1
10
43.9885922171885
20
0.0205514323224918
30
0
41
1
10
43.9891186571013
20
0.0196432004205747
30
0
41
1
10
43.9900238729527
20
0.0184143647585699
30
0
41
1
10
43.9904071962157
20
0.0180838696873877
30
0
41
1
10
43.9910172856669
20
0.01807995177262
30
0
41
1
10
43.9912409885742
20
0.0184171744364789
30
0
41
1
10
43.991502370422
20
0.0197734510475982
30
0
41
1
10
43.9915441328644
20
0.0207902232769186
30
0
41
1
10
43.9914508960714
20
0.0235160651626245
30
0
41
1
10
43.9913136260265
20
0.0252313544517051
30
0
41
1
10
43.9908876868811
20
0.029172399509747
30
0
41
1
10
43.9905988949849
20
0.0314124806291431
30
0
41
1
10
43.9902436019043
20
0.0338967470926548
30
0
0
SPLINE
5
165
100
AcDbEntity
8
1
62
256
6
ByLayer
370
18
48
1
60
0
100
AcDbSpline
70
4
71
3
72
10
73
6
40
0
40
0
40
0
40
0
40
0.5
40
0.5
40
1
40
1
40
1
40
1
41
1
10
43.9840136184484
20
0.03092462436544
30
0
41
1
10
43.9774345367406
20
0.0476279679010929
30
0
41
1
10
43.9699825561579
20
0.064870606532196
30
0
41
1
10
43.9534348611714
20
0.100353744941572
30
0
41
1
10
43.9443439013658
20
0.118582343055635
30
0
41
1
10
43.9344645399127
20
0.137310650050892
30
0
0
SPLINE
5
166
100
AcDbEntity
8
1
62
256
6
ByLayer
370
18
48
1
60
0
100
AcDbSpline
70
4
71
3
72
34
73
30
40
0
40
0
40
0
40
0
40
0.0293954515045223
40
0.0494105090080179
40
0.0900408935894301
40
0.110552365570764
40
0.151535253966046
40
0.182226561659212
40
0.243530415784506
40
0.297695945843622
40
0.317972661226661
40
0.324732702573604
40
0.341500076261963
40
0.362478932689135
40
0.384577184442669
40
0.391709172790084
40
0.394351433886492
40
0.395648919082405
40
0.397982343141717
40
0.40134908050884
40
0.456891170232969
40
0.52710901218455
40
0.603818413862545
40
0.654843058543165
40
0.731370329865214
40
0.782489468713704
40
0.884582765878675
40
0.935002142236189
40
1
40
1
40
1
40
1
41
1
10
41.6806422416539
20
1.03922070044129
30
0
41
1
10
41.7056146328944
20
1.0482928037664
30
0
41
1
10
41.7468982417077
20
1.0599540997552
30
0
41
1
10
41.8209866241681
20
1.07234253185439
30
0
41
1
10
41.8871672564511
20
1.07532328124592
30
0
41
1
10
41.969955127054
20
1.070631253686
30
0
41
1
10
42.0455672268226
20
1.05991674612764
30
0
41
1
10
42.1567222106666
20
1.03563908348428
30
0
41
1
10
42.281206544218
20
0.99764336379792
30
0
41
1
10
42.3996827549288
20
0.950849430748804
30
0
41
1
10
42.4711701150423
20
0.918718473298981
30
0
41
1
10
42.5098299838348
20
0.900709826845286
30
0
41
1
10
42.5491791065011
20
0.882104288902781
30
0
41
1
10
42.6021497703392
20
0.85588865502632
30
0
41
1
10
42.6465178883809
20
0.833034388434982
30
0
41
1
10
42.6745706092226
20
0.818269398013371
30
0
41
1
10
42.6842901296055
20
0.813060038890569
30
0
41
1
10
42.689822346515
20
0.810272529096608
30
0
41
1
10
42.6960395685832
20
0.807343426905703
30
0
41
1
10
42.750198774937
20
0.781073665684346
30
0
41
1
10
42.8646090208588
20
0.723546431521982
30
0
41
1
10
43.0431270148221
20
0.629058471344791
30
0
41
1
10
43.2134692287692
20
0.536243217848096
30
0
41
1
10
43.3808824076292
20
0.443888229333908
30
0
41
1
10
43.5168949183803
20
0.367967145122691
30
0
41
1
10
43.6728763790113
20
0.280109543867383
30
0
41
1
10
43.7880702220043
20
0.215094238498608
30
0
41
1
10
43.881433335283
20
0.164012551105969
30
0
41
1
10
43.9182585176
20
0.145129074925165
30
0
41
1
10
43.9344645399127
20
0.137310650050892
30
0
0
SPLINE
5
167
100
AcDbEntity
8
1
62
256
6
ByLayer
370
18
48
1
60
0
100
AcDbSpline
70
4
71
1
72
4
73
2
40
0
40
0
40
1
40
1
41
1
10
41.6420536957905
20
0.970327314393899
30
0
41
1
10
41.6806422416539
20
1.03922070044129
30
0
0
SPLINE
5
168
100
AcDbEntity
8
1
62
256
6
ByLayer
370
18
48
1
60
0
100
AcDbSpline
70
4
71
3
72
8
73
4
40
0
40
0
40
0
40
0
40
1
40
1
40
1
40
1
41
1
10
43.9881587188344
20
0.0065092307691259
30
0
41
1
10
43.9878860957392
20
0.0067101579181781
30
0
41
1
10
43.9876151369001
20
0.0068840561337709
30
0
41
1
10
43.9873460417989
20
0.0070306591512974
30
0
0
SPLINE
5
169
100
AcDbEntity
8
1
62
256
6
ByLayer
370
18
48
1
60
0
100
AcDbSpline
70
4
71
3
72
8
73
4
40
0
40
0
40
0
40
0
40
1
40
1
40
1
40
1
41
1
10
43.9881587188344
20
0.0065092307691259
30
0
41
1
10
43.9908158230739
20
0.005048603237924
30
0
41
1
10
43.9930209612128
20
0.0038364248722473
30
0
41
1
10
43.9947789930506
20
0.0028700233482652
30
0
0
SPLINE
5
16A
100
AcDbEntity
8
1
62
256
6
ByLayer
370
18
48
1
60
0
100
AcDbSpline
70
4
71
3
72
8
73
4
40
0
40
0
40
0
40
0
40
1
40
1
40
1
40
1
41
1
10
43.9942833754032
20
0.0052443942240643
30
0
41
1
10
43.9944479685023
20
0.0044530897642119
30
0
41
1
10
43.994613189882
20
0.0036615640087518
30
0
41
1
10
43.9947789930506
20
0.0028700233482652
30
0
0
SPLINE
5
16B
100
AcDbEntity
8
1
62
256
6
ByLayer
370
18
48
1
60
0
100
AcDbSpline
70
4
71
3
72
36
73
32
40
0
40
0
40
0
40
0
40
0.125000000000048
40
0.125000000000048
40
0.250000000000096
40
0.250000000000096
40
0.375000000000144
40
0.375000000000144
40
0.437500000000129
40
0.437500000000129
40
0.500000000000115
40
0.500000000000115
40
0.531250000000107
40
0.531250000000107
40
0.5625000000001
40
0.5625000000001
40
0.593750000000093
40
0.593750000000093
40
0.625000000000086
40
0.625000000000086
40
0.687500000000072
40
0.687500000000072
40
0.750000000000057
40
0.750000000000057
40
0.812500000000043
40
0.812500000000043
40
0.875000000000029
40
0.875000000000029
40
0.937500000000014
40
0.937500000000014
40
1
40
1
40
1
40
1
41
1
10
42.9636802043314
20
0.552805043250885
30
0
41
1
10
42.9760872419509
20
0.545177967252187
30
0
41
1
10
42.9883088862718
20
0.537488882917245
30
0
41
1
10
43.012236446045
20
0.521894262189761
30
0
41
1
10
43.0239955737183
20
0.513955233274771
30
0
41
1
10
43.046289541841
20
0.497971081581113
30
0
41
1
10
43.0568795476278
20
0.489914188633634
30
0
41
1
10
43.0712326488063
20
0.477536341981391
30
0
41
1
10
43.0757584904298
20
0.473360740233431
30
0
41
1
10
43.0839859040047
20
0.464824553669871
30
0
41
1
10
43.0875612679555
20
0.460594560365905
30
0
41
1
10
43.0916595821018
20
0.454347051829529
30
0
41
1
10
43.0928189124998
20
0.452262099424075
30
0
41
1
10
43.0945337143309
20
0.44824799464044
30
0
41
1
10
43.0950975833021
20
0.446312132059688
30
0
41
1
10
43.0955369663107
20
0.442602249168175
30
0
41
1
10
43.0954000518841
20
0.440828564358298
30
0
41
1
10
43.0943914057735
20
0.437625508416261
30
0
41
1
10
43.0935256426974
20
0.43617241943096
30
0
41
1
10
43.0898537897565
20
0.432251171160687
30
0
41
1
10
43.0860537717794
20
0.430340345460337
30
0
41
1
10
43.0768884749611
20
0.427706660050319
30
0
41
1
10
43.071629159063
20
0.426978325687685
30
0
41
1
10
43.0602457619118
20
0.426292958239941
30
0
41
1
10
43.0541591366478
20
0.426349171921714
30
0
41
1
10
43.0417263337129
20
0.427006694382499
30
0
41
1
10
43.0353305230207
20
0.4276089946502
30
0
41
1
10
43.0222839675676
20
0.429227843494857
30
0
41
1
10
43.0156070953302
20
0.430250593029882
30
0
41
1
10
43.0021918061675
20
0.432614502635033
30
0
41
1
10
42.9954614181467
20
0.433952992348423
30
0
41
1
10
42.9887160525522
20
0.435420202540968
30
0
0
SPLINE
5
16C
100
AcDbEntity
8
1
62
256
6
ByLayer
370
18
48
1
60
0
100
AcDbSpline
70
4
71
3
72
8
73
4
40
0
40
0
40
0
40
0
40
1
40
1
40
1
40
1
41
1
10
43.9741517367504
20
0.0142089642473309
30
0
41
1
10
43.9793290896031
20
0.0113950195294592
30
0
41
1
10
43.9837216414905
20
0.0090052325253964
30
0
41
1
10
43.9873460417994
20
0.0070306591509564
30
0
0
SPLINE
5
16D
100
AcDbEntity
8
1
62
256
6
ByLayer
370
18
48
1
60
0
100
AcDbSpline
70
4
71
3
72
11
73
7
40
0
40
0
40
0
40
0
40
0.0802320036314258
40
0.436307321013865
40
0.958723082709406
40
1
40
1
40
1
40
1
41
1
10
43.8256718946384
20
0.0958293712067189
30
0
41
1
10
43.8313844085053
20
0.0926891634703111
30
0
41
1
10
43.8617113563357
20
0.0760182328707515
30
0
41
1
10
43.9193783852561
20
0.0443182560836988
30
0
41
1
10
43.9570704415613
20
0.0235986714969556
30
0
41
1
10
43.9730217398478
20
0.0148301314277148
30
0
41
1
10
43.9741517367505
20
0.0142089642473024
30
0
0
SPLINE
5
16E
100
AcDbEntity
8
1
62
256
6
ByLayer
370
18
48
1
60
0
100
AcDbSpline
70
4
71
3
72
18
73
14
40
0
40
0
40
0
40
0
40
0.0616952256169805
40
0.129296657089156
40
0.202788661944139
40
0.282153603679994
40
0.367371285313613
40
0.458418479842001
40
0.555268392370058
40
0.657890063179833
40
0.766247727361332
40
0.880300154349545
40
1
40
1
40
1
40
1
41
1
10
43.6576515699286
20
0.188191279565899
30
0
41
1
10
43.6615789505894
20
0.186051266093244
30
0
41
1
10
43.6698096878219
20
0.181566371429653
30
0
41
1
10
43.6824717690811
20
0.174646840464902
30
0
41
1
10
43.696015289955
20
0.167233572893508
30
0
41
1
10
43.7103553113706
20
0.159371281588477
30
0
41
1
10
43.7254241832253
20
0.151097803475096
30
0
41
1
10
43.7411401497056
20
0.142457955232203
30
0
41
1
10
43.7574149737734
20
0.133500348084965
30
0
41
1
10
43.7741567153895
20
0.124275607433305
30
0
41
1
10
43.7912457953338
20
0.114849380852945
30
0
41
1
10
43.8086328377243
20
0.105249464989072
30
0
41
1
10
43.8199014596143
20
0.0990195735381008
30
0
41
1
10
43.8256718946381
20
0.095829371206861
30
0
0
SPLINE
5
16F
100
AcDbEntity
8
1
62
256
6
ByLayer
370
18
48
1
60
0
100
AcDbSpline
70
4
71
3
72
12
73
8
40
0
40
0
40
0
40
0
40
0.167690371893194
40
0.420773372494745
40
0.589116103606197
40
0.841598211801139
40
1
40
1
40
1
40
1
41
1
10
42.8976679323803
20
0.605959529924348
30
0
41
1
10
42.9414542459569
20
0.581889892231573
30
0
41
1
10
43.0527612719638
20
0.520703624438539
30
0
41
1
10
43.2118393628175
20
0.433257329112365
30
0
41
1
10
43.3898904224542
20
0.335381421031286
30
0
41
1
10
43.5339027405034
20
0.256216874939668
30
0
41
1
10
43.6247097259718
20
0.206299638328176
30
0
41
1
10
43.6576515699284
20
0.188191279565956
30
0
0
SPLINE
5
170
100
AcDbEntity
8
1
62
256
6
ByLayer
370
18
48
1
60
0
100
AcDbSpline
70
4
71
3
72
13
73
9
40
0
40
0
40
0
40
0
40
0.156160302152843
40
0.316456850704667
40
0.480939424044901
40
0.649659980086655
40
0.822664566687257
40
1
40
1
40
1
40
1
41
1
10
42.7999160426215
20
0.659694392530668
30
0
41
1
10
42.8050104655024
20
0.656913034854767
30
0
41
1
10
42.815334248172
20
0.651276649175031
30
0
41
1
10
42.8310195087159
20
0.64268503905322
30
0
41
1
10
42.8471084710452
20
0.633852284573663
30
0
41
1
10
42.8636025803033
20
0.62477458690276
30
0
41
1
10
42.8805049867663
20
0.615452196255291
30
0
41
1
10
42.8918999953147
20
0.609149722518197
30
0
41
1
10
42.897667931216
20
0.605959530568725
30
0
0
SPLINE
5
171
100
AcDbEntity
8
1
62
256
6
ByLayer
370
18
48
1
60
0
100
AcDbSpline
70
4
71
3
72
8
73
4
40
0
40
0
40
0
40
0
40
1
40
1
40
1
40
1
41
1
10
42.766157054806
20
0.678024651945094
30
0
41
1
10
42.7613917993627
20
0.680601896099773
30
0
41
1
10
42.7565674556956
20
0.683012364684032
30
0
41
1
10
42.7516833453259
20
0.685254185807167
30
0
0
SPLINE
5
172
100
AcDbEntity
8
1
62
256
6
ByLayer
370
18
48
1
60
0
100
AcDbSpline
70
4
71
3
72
8
73
4
40
0
40
0
40
0
40
0
40
1
40
1
40
1
40
1
41
1
10
42.7661570626808
20
0.678024647686215
30
0
41
1
10
42.7774060031293
20
0.671940762694277
30
0
41
1
10
42.7886582380232
20
0.665829418533548
30
0
41
1
10
42.7999160426213
20
0.659694392530724
30
0
0
SPLINE
5
173
100
AcDbEntity
8
1
62
256
6
ByLayer
370
18
48
1
60
0
100
AcDbSpline
70
4
71
3
72
26
73
22
40
0
40
0
40
0
40
0
40
0.0671050465984519
40
0.112796175589485
40
0.205548751620822
40
0.252373114325319
40
0.345930399372685
40
0.415993675407091
40
0.555940428295362
40
0.679591545478836
40
0.725879996956884
40
0.741312074587136
40
0.779589268339981
40
0.82748059390479
40
0.877927317386383
40
0.894208489673165
40
0.900240343069685
40
0.90320229126494
40
0.908529119812206
40
0.916214834994053
40
1
40
1
40
1
40
1
41
1
10
41.6420536957905
20
0.970327314393899
30
0
41
1
10
41.6684127736305
20
0.979910184551073
30
0
41
1
10
41.7117773464603
20
0.991986716853773
30
0
41
1
10
41.7900631665478
20
1.00445742005957
30
0
41
1
10
41.8600222822818
20
1.00674769343817
30
0
41
1
10
41.9466256902876
20
1.00038254499467
30
0
41
1
10
42.025665387919
20
0.987808222208429
30
0
41
1
10
42.1430987168969
20
0.96047569636869
30
0
41
1
10
42.2727792874896
20
0.918513515858649
30
0
41
1
10
42.3954152649946
20
0.867680277767676
30
0
41
1
10
42.4698859994564
20
0.833120992383869
30
0
41
1
10
42.510205576431
20
0.813777026295725
30
0
41
1
10
42.5506181393511
20
0.793826597953881
30
0
41
1
10
42.6052308603257
20
0.76580771059767
30
0
41
1
10
42.6508884219391
20
0.741458947748043
30
0
41
1
10
42.6797096860016
20
0.725761567708133
30
0
41
1
10
42.689805548088
20
0.720223199433946
30
0
41
1
10
42.6951594061605
20
0.71727976706083
30
0
41
1
10
42.7007892996356
20
0.714185071928
30
0
41
1
10
42.7356186241676
20
0.695039109947089
30
0
41
1
10
42.7689917109538
20
0.676693699588242
30
0
41
1
10
42.799916042644
20
0.659694392518276
30
0
0
SPLINE
5
174
100
AcDbEntity
8
1
62
256
6
ByLayer
370
18
48
1
60
0
100
AcDbSpline
70
4
71
1
72
4
73
2
40
0
40
0
40
1
40
1
41
1
10
41.6419467982238
20
0.96993862979258
30
0
41
1
10
41.6420536957905
20
0.970327314393899
30
0
0
SPLINE
5
175
100
AcDbEntity
8
1
62
256
6
ByLayer
370
18
48
1
60
0
100
AcDbSpline
70
4
71
3
72
14
73
10
40
0
40
0
40
0
40
0
40
0.25
40
0.25
40
0.5
40
0.5
40
0.75
40
0.75
40
1
40
1
40
1
40
1
41
1
10
41.6419467982238
20
0.96993862979258
30
0
41
1
10
41.6677014499686
20
0.979329333524419
30
0
41
1
10
41.6933346568662
20
0.986514864188649
30
0
41
1
10
41.7446989218263
20
0.997290202448028
30
0
41
1
10
41.7704230073915
20
1.00088238097106
30
0
41
1
10
41.8221697734706
20
1.00499575977395
30
0
41
1
10
41.8482499666013
20
1.00551053801249
30
0
41
1
10
41.9006156422709
20
1.00377719462895
30
0
41
1
10
41.9268299560643
20
1.00153435824225
30
0
41
1
10
41.9531624702404
20
0.998099870737974
30
0
0
SPLINE
5
176
100
AcDbEntity
8
1
62
256
6
ByLayer
370
18
48
1
60
0
100
AcDbSpline
70
4
71
3
72
8
73
4
40
0
40
0
40
0
40
0
40
1
40
1
40
1
40
1
41
1
10
42.7714599539008
20
0.67180253435842
30
0
41
1
10
42.835849230184
20
0.632027992918182
30
0
41
1
10
42.8997524793864
20
0.592104145622784
30
0
41
1
10
42.9636802043549
20
0.552805043240483
30
0
0
SPLINE
5
177
100
AcDbEntity
8
1
62
256
6
ByLayer
370
18
48
1
60
0
100
AcDbSpline
70
4
71
3
72
10
73
6
40
0
40
0
40
0
40
0
40
0.5
40
0.5
40
1
40
1
40
1
40
1
41
1
10
42.7714599538979
20
0.671802534360211
30
0
41
1
10
42.7679501349212
20
0.673970619612817
30
0
41
1
10
42.7645991851187
20
0.676191139925635
30
0
41
1
10
42.7580400944504
20
0.680684865853664
30
0
41
1
10
42.7548377656154
20
0.682959817615199
30
0
41
1
10
42.7516833453255
20
0.685254185806969
30
0
0
SPLINE
5
178
100
AcDbEntity
8
1
62
256
6
ByLayer
370
18
48
1
60
0
100
AcDbSpline
70
4
71
3
72
17
73
13
40
0
40
0
40
0
40
0
40
0.24999999999999
40
0.24999999999999
40
0.499999999999979
40
0.499999999999979
40
0.562499999999967
40
0.562499999999967
40
0.624999999999955
40
0.74999999999997
40
0.74999999999997
40
1
40
1
40
1
40
1
41
1
10
41.9531624702401
20
0.998099870738088
30
0
41
1
10
42.0174574254787
20
0.989713998626144
30
0
41
1
10
42.0821156953178
20
0.975694093188253
30
0
41
1
10
42.2129632117422
20
0.938212579925505
30
0
41
1
10
42.27915642935
20
0.914710764343653
30
0
41
1
10
42.3634810719981
20
0.880107580074593
30
0
41
1
10
42.3804331656737
20
0.872919585425848
30
0
41
1
10
42.414221055393
20
0.858164595414792
30
0
41
1
10
42.4648378220776
20
0.83542075993347
30
0
41
1
10
42.5153328240991
20
0.810973357316442
30
0
41
1
10
42.6163523830255
20
0.760123027756435
30
0
41
1
10
42.6837324368798
20
0.723626964790725
30
0
41
1
10
42.7516833453256
20
0.685254185806969
30
0
0
SPLINE
5
179
100
AcDbEntity
8
1
62
256
6
ByLayer
370
18
48
1
60
0
100
AcDbSpline
70
4
71
3
72
14
73
10
40
0
40
0
40
0
40
0
40
0.25
40
0.25
40
0.5
40
0.5
40
0.75
40
0.75
40
1
40
1
40
1
40
1
41
1
10
43.943079822686
20
-0.24402110470345
30
0
41
1
10
43.9280160799936
20
-0.262995039542801
30
0
41
1
10
43.9119534133665
20
-0.280723836893714
30
0
41
1
10
43.8779403573905
20
-0.313696987886061
30
0
41
1
10
43.8599570053893
20
-0.328961440639517
30
0
41
1
10
43.8223289638708
20
-0.356802418557265
30
0
41
1
10
43.8026867681693
20
-0.369383691270144
30
0
41
1
10
43.7618087461396
20
-0.391821908025833
30
0
41
1
10
43.7405730796354
20
-0.401677014762214
30
0
41
1
10
43.7187416631076
20
-0.410003511406387
30
0
0
SPLINE
5
17A
100
AcDbEntity
8
1
62
256
6
ByLayer
370
18
48
1
60
0
100
AcDbSpline
70
4
71
3
72
23
73
19
40
0
40
0
40
0
40
0
40
0.25
40
0.25
40
0.3125
40
0.3125
40
0.375
40
0.375
40
0.5
40
0.625
40
0.625
40
0.6875
40
0.6875
40
0.75
40
0.75
40
0.875
40
0.875
40
1
40
1
40
1
40
1
41
1
10
43.7187416631049
20
-0.410003511395075
30
0
41
1
10
43.6893745313823
20
-0.453625548103332
30
0
41
1
10
43.6562916644719
20
-0.492071291555788
30
0
41
1
10
43.6102590454845
20
-0.533610229419537
30
0
41
1
10
43.6008181667687
20
-0.541591543300825
30
0
41
1
10
43.5814656400387
20
-0.556898354698319
30
0
41
1
10
43.5715337093741
20
-0.564239507691525
30
0
41
1
10
43.5413968107325
20
-0.584994196588013
30
0
41
1
10
43.5000852371817
20
-0.609433999465068
30
0
41
1
10
43.4564856566243
20
-0.627321883922406
30
0
41
1
10
43.4229304406024
20
-0.638287906724827
30
0
41
1
10
43.4116031093581
20
-0.64153587525459
30
0
41
1
10
43.388664453927
20
-0.647218572413465
30
0
41
1
10
43.3770275520277
20
-0.649652651476458
30
0
41
1
10
43.3421228113756
20
-0.655625289621582
30
0
41
1
10
43.3187340714136
20
-0.657878289982961
30
0
41
1
10
43.2717316362563
20
-0.659113885407038
30
0
41
1
10
43.2481164370087
20
-0.658074614514788
30
0
41
1
10
43.2243865524404
20
-0.655368045311036
30
0
0
SPLINE
5
17B
100
AcDbEntity
8
1
62
256
6
ByLayer
370
18
48
1
60
0
100
AcDbSpline
70
4
71
1
72
4
73
2
40
0
40
0
40
1
40
1
41
1
10
41.680707394919
20
-0.306092574643174
30
0
41
1
10
41.8000394442386
20
-0.0275039468776015
30
0
0
SPLINE
5
17C
100
AcDbEntity
8
1
62
256
6
ByLayer
370
18
48
1
60
0
100
AcDbSpline
70
4
71
3
72
34
73
30
40
0
40
0
40
0
40
0
40
0.0290396456643194
40
0.0488174151820534
40
0.0889810010253995
40
0.109259852129291
40
0.149777870049091
40
0.18011953083842
40
0.240683182926462
40
0.314159537888156
40
0.32083807783188
40
0.329124737822851
40
0.337413226083569
40
0.358152755433602
40
0.379984689322306
40
0.389118001130389
40
0.390292115120509
40
0.392082344563147
40
0.397845433269297
40
0.449351144320671
40
0.470294972623081
40
0.571308072197792
40
0.647052717318239
40
0.697530513357207
40
0.798649969978798
40
0.874218040985711
40
0.923948624123096
40
0.996860213324965
40
1
40
1
40
1
40
1
41
1
10
41.680707394919
20
-0.306092574643174
30
0
41
1
10
41.7056807162051
20
-0.319245464856351
30
0
41
1
10
41.7469509727279
20
-0.343420676158019
30
0
41
1
10
41.8210217090172
20
-0.391924729145103
30
0
41
1
10
41.8871722495167
20
-0.438770900818042
30
0
41
1
10
41.9699305633903
20
-0.499261966281466
30
0
41
1
10
42.0455293012964
20
-0.554442402294683
30
0
41
1
10
42.1566520025221
20
-0.632032505874804
30
0
41
1
10
42.2983732674145
20
-0.723999983812718
30
0
41
1
10
42.4234300426844
20
-0.79380884074078
30
0
41
1
10
42.502433009642
20
-0.833063707253501
30
0
41
1
10
42.5232258773086
20
-0.842966279642212
30
0
41
1
10
42.5566083483319
20
-0.858451127274492
30
0
41
1
10
42.6021478309359
20
-0.878361624101075
30
0
41
1
10
42.6484051057655
20
-0.89679393685887
30
0
41
1
10
42.6770316983531
20
-0.907285809855125
30
0
41
1
10
42.6877978668717
20
-0.911153518952631
30
0
41
1
10
42.6956131195139
20
-0.913506458659867
30
0
41
1
10
42.748462589157
20
-0.929508251245892
30
0
41
1
10
42.818644187061
20
-0.94650559756721
30
0
41
1
10
42.973661612372
20
-0.971560530285302
30
0
41
1
10
43.1494245785581
20
-0.974474256645038
30
0
41
1
10
43.3402382846042
20
-0.931046856377122
30
0
41
1
10
43.5178482283543
20
-0.854833783960856
30
0
41
1
10
43.674579740859
20
-0.740923361927628
30
0
41
1
10
43.7989630936043
20
-0.588034098249608
30
0
41
1
10
43.8852779843964
20
-0.431754371985022
30
0
41
1
10
43.9248828091407
20
-0.319363185145789
30
0
41
1
10
43.9423689813728
20
-0.247015421278178
30
0
41
1
10
43.943079822686
20
-0.244021104703364
30
0
0
SPLINE
5
17D
100
AcDbEntity
8
1
62
256
6
ByLayer
370
18
48
1
60
0
100
AcDbSpline
70
4
71
3
72
8
73
4
40
0
40
0
40
0
40
0
40
1
40
1
40
1
40
1
41
1
10
43.2577703033255
20
-0.596994971999209
30
0
41
1
10
43.2471325091337
20
-0.617035882079307
30
0
41
1
10
43.2360192434746
20
-0.63651100969463
30
0
41
1
10
43.2243865524472
20
-0.655368045319193
30
0
0
SPLINE
5
17E
100
AcDbEntity
8
1
62
256
6
ByLayer
370
18
48
1
60
0
100
AcDbSpline
70
4
71
3
72
8
73
4
40
0
40
0
40
0
40
0
40
1
40
1
40
1
40
1
41
1
10
41.7321996346936
20
0.0361144381412544
30
0
41
1
10
41.7013607270468
20
0.0427001311506672
30
0
41
1
10
41.6706259867112
20
0.0494620643501094
30
0
41
1
10
41.64
20
0.0564162213908332
30
0
0
SPLINE
5
17F
100
AcDbEntity
8
1
62
256
6
ByLayer
370
18
48
1
60
0
100
AcDbSpline
70
4
71
3
72
8
73
4
40
0
40
0
40
0
40
0
40
1
40
1
40
1
40
1
41
1
10
41.7321996346936
20
0.0361144381412828
30
0
41
1
10
41.7551161277613
20
0.0153297406873207
30
0
41
1
10
41.7777288206588
20
-0.0058771895201346
30
0
41
1
10
41.8000394442387
20
-0.0275039468775731
30
0
0
SPLINE
5
180
100
AcDbEntity
8
1
62
256
6
ByLayer
370
18
48
1
60
0
100
AcDbSpline
70
4
71
3
72
40
73
36
40
0
40
0
40
0
40
0
40
0.0624999999999841
40
0.0624999999999841
40
0.0937499999999653
40
0.0937499999999653
40
0.124999999999946
40
0.124999999999946
40
0.187499999999909
40
0.187499999999909
40
0.249999999999871
40
0.249999999999871
40
0.312499999999833
40
0.312499999999833
40
0.343749999999803
40
0.343749999999803
40
0.359374999999799
40
0.359374999999799
40
0.367187499999797
40
0.367187499999797
40
0.374999999999795
40
0.374999999999795
40
0.499999999999832
40
0.499999999999832
40
0.56249999999985
40
0.56249999999985
40
0.624999999999869
40
0.624999999999869
40
0.749999999999906
40
0.749999999999906
40
0.812499999999934
40
0.812499999999934
40
0.874999999999962
40
0.874999999999962
40
1
40
1
40
1
40
1
41
1
10
43.2243865524402
20
-0.655368045315811
30
0
41
1
10
43.1941688691002
20
-0.664418357792925
30
0
41
1
10
43.1633637527327
20
-0.671164630063146
30
0
41
1
10
43.116265664744
20
-0.678085913561517
30
0
41
1
10
43.1003941325568
20
-0.679855589873654
30
0
41
1
10
43.0684258867214
20
-0.68231654312217
30
0
41
1
10
43.0524371805268
20
-0.683001342545907
30
0
41
1
10
43.0044348501637
20
-0.683515151297854
30
0
41
1
10
42.9723847716612
20
-0.681806938655342
30
0
41
1
10
42.9080762023468
20
-0.674710396563
30
0
41
1
10
42.8758086174731
20
-0.669332848754749
30
0
41
1
10
42.8109924507151
20
-0.655139240809234
30
0
41
1
10
42.7789451999883
20
-0.646424978175872
30
0
41
1
10
42.7312649000438
20
-0.631304830356157
30
0
41
1
10
42.7154369566533
20
-0.625922249896604
30
0
41
1
10
42.6917773412676
20
-0.617374139744385
30
0
41
1
10
42.6839038837275
20
-0.614449623503077
30
0
41
1
10
42.6721163029196
20
-0.60992569696586
30
0
41
1
10
42.6681936593661
20
-0.608377868964141
30
0
41
1
10
42.6603227750499
20
-0.605435343269818
30
0
41
1
10
42.6563909302123
20
-0.603942417947678
30
0
41
1
10
42.5896031129889
20
-0.578230475350352
30
0
41
1
10
42.5274752836986
20
-0.549313610362788
30
0
41
1
10
42.434751820514
20
-0.500423253314466
30
0
41
1
10
42.4043444025832
20
-0.483276590915864
30
0
41
1
10
42.3442957251406
20
-0.447655354044144
30
0
41
1
10
42.314658676905
20
-0.429173866549974
30
0
41
1
10
42.2267233681242
20
-0.372001629561197
30
0
41
1
10
42.1693641693464
20
-0.331645402528466
30
0
41
1
10
42.0848492829707
20
-0.268270108619589
30
0
41
1
10
42.0571512519666
20
-0.246856412753459
30
0
41
1
10
42.0029086493728
20
-0.203748195451681
30
0
41
1
10
41.9763262636932
20
-0.182017646539379
30
0
41
1
10
41.8980985254278
20
-0.116434345768596
30
0
41
1
10
41.8479842289198
20
-0.0721809520719034
30
0
41
1
10
41.8000394442387
20
-0.0275039468776015
30
0
0
SPLINE
5
181
100
AcDbEntity
8
1
62
256
6
ByLayer
370
18
48
1
60
0
100
AcDbSpline
70
4
71
3
72
11
73
7
40
0
40
0
40
0
40
0
40
0.101434684968138
40
0.44637303549111
40
0.952098119064372
40
1
40
1
40
1
40
1
41
1
10
43.8203865985023
20
-0.639581933880123
30
0
41
1
10
43.8279376108407
20
-0.627966753452284
30
0
41
1
10
43.8601693236752
20
-0.576096011916945
30
0
41
1
10
43.9194011150212
20
-0.458768578303108
30
0
41
1
10
43.9573743700265
20
-0.338395692112272
30
0
41
1
10
43.9734751543575
20
-0.262231373932906
30
0
41
1
10
43.9748138223069
20
-0.255627962773076
30
0
0
SPLINE
5
182
100
AcDbEntity
8
1
62
256
6
ByLayer
370
18
48
1
60
0
100
AcDbSpline
70
4
71
3
72
8
73
4
40
0
40
0
40
0
40
0
40
1
40
1
40
1
40
1
41
1
10
43.9748138223055
20
-0.255627962779556
30
0
41
1
10
43.9797069290577
20
-0.231438083119343
30
0
41
1
10
43.9838832545058
20
-0.207023370839096
30
0
41
1
10
43.9873502310904
20
-0.182387498495331
30
0
0
SPLINE
5
183
100
AcDbEntity
8
1
62
256
6
ByLayer
370
18
48
1
60
0
100
AcDbSpline
70
4
71
3
72
14
73
10
40
0
40
0
40
0
40
0
40
0.5
40
0.5
40
0.75
40
0.75
40
0.875
40
0.875
40
1
40
1
40
1
40
1
41
1
10
41.5556481616561
20
-1.20216382911803
30
0
41
1
10
41.5389542346571
20
-1.20470521623844
30
0
41
1
10
41.5209139950497
20
-1.20761948905818
30
0
41
1
10
41.4922709439558
20
-1.21244574716152
30
0
41
1
10
41.4824544711382
20
-1.21413131194947
30
0
41
1
10
41.4671418433531
20
-1.2168319011831
30
0
41
1
10
41.4619382083475
20
-1.21776126351875
30
0
41
1
10
41.4512135845295
20
-1.21971337211931
30
0
41
1
10
41.4457008464781
20
-1.22073368103727
30
0
41
1
10
41.439874904214
20
-1.22184629747724
30
0
0
SPLINE
5
184
100
AcDbEntity
8
1
62
256
6
ByLayer
370
18
48
1
60
0
100
AcDbSpline
70
4
71
3
72
8
73
4
40
0
40
0
40
0
40
0
40
1
40
1
40
1
40
1
41
1
10
43.9947785552567
20
0.117695506256894
30
0
41
1
10
43.9947529801108
20
0.116269290829905
30
0
41
1
10
43.9947461668782
20
0.114653392402715
30
0
41
1
10
43.9947570101383
20
0.112854534638871
30
0
0
SPLINE
5
185
100
AcDbEntity
8
1
62
256
6
ByLayer
370
18
48
1
60
0
100
AcDbSpline
70
4
71
3
72
8
73
4
40
0
40
0
40
0
40
0
40
1
40
1
40
1
40
1
41
1
10
43.9942833753998
20
-0.117157405724754
30
0
41
1
10
43.9944478240185
20
-0.11743324927383
30
0
41
1
10
43.9946128994314
20
-0.117702018399655
30
0
41
1
10
43.9947785552568
20
-0.117963649987075
30
0
0
SPLINE
5
186
100
AcDbEntity
8
1
62
256
6
ByLayer
370
18
48
1
60
0
100
AcDbSpline
70
4
71
3
72
8
73
4
40
0
40
0
40
0
40
0
40
1
40
1
40
1
40
1
41
1
10
43.9947785552568
20
-0.117963649986933
30
0
41
1
10
43.994752980111
20
-0.119364215958825
30
0
41
1
10
43.9947461668783
20
-0.12055019508179
30
0
41
1
10
43.9947570101384
20
-0.121529196301765
30
0
0
SPLINE
5
187
100
AcDbEntity
8
1
62
256
6
ByLayer
370
18
48
1
60
0
100
AcDbSpline
70
4
71
3
72
10
73
6
40
0
40
0
40
0
40
0
40
0.325310016560795
40
0.325310016560795
40
1
40
1
40
1
40
1
41
1
10
43.9963577863813
20
-0.0970381645380485
30
0
41
1
10
43.9962143179687
20
-0.0992365599842628
30
0
41
1
10
43.9960428809845
20
-0.101607255114942
30
0
41
1
10
43.9954345084363
20
-0.109357970065929
30
0
41
1
10
43.9949074322415
20
-0.115254380873466
30
0
41
1
10
43.9942816352322
20
-0.121569368945615
30
0
0
SPLINE
5
188
100
AcDbEntity
8
1
62
256
6
ByLayer
370
18
48
1
60
0
100
AcDbSpline
70
4
71
3
72
12
73
8
40
0
40
0
40
0
40
0
40
0.249999999999984
40
0.249999999999984
40
0.499999999999968
40
0.499999999999968
40
1
40
1
40
1
40
1
41
1
10
43.9947570101384
20
-0.121529196301822
30
0
41
1
10
43.9943477980432
20
-0.125609547429463
30
0
41
1
10
43.9938992300777
20
-0.129893050711701
30
0
41
1
10
43.9929387613175
20
-0.138656876007076
30
0
41
1
10
43.9924248484748
20
-0.143158159726596
30
0
41
1
10
43.9907799938928
20
-0.156982892608909
30
0
41
1
10
43.9895459896605
20
-0.166623811171746
30
0
41
1
10
43.988168361924
20
-0.176644903695461
30
0
0
SPLINE
5
189
100
AcDbEntity
8
1
62
256
6
ByLayer
370
18
48
1
60
0
100
AcDbSpline
70
4
71
3
72
8
73
4
40
0
40
0
40
0
40
0
40
1
40
1
40
1
40
1
41
1
10
43.988168361924
20
-0.176644903695404
30
0
41
1
10
43.9878939099149
20
-0.178547996355633
30
0
41
1
10
43.9876211332034
20
-0.180462504279518
30
0
41
1
10
43.9873502310904
20
-0.182387498495217
30
0
0
SPLINE
5
18A
100
AcDbEntity
8
1
62
256
6
ByLayer
370
18
48
1
60
0
100
AcDbSpline
70
4
71
3
72
8
73
4
40
0
40
0
40
0
40
0
40
1
40
1
40
1
40
1
41
1
10
43.9942833754035
20
0.112781113007031
30
0
41
1
10
43.9944410984562
20
0.112805728155706
30
0
41
1
10
43.9945991885496
20
0.112830234126363
30
0
41
1
10
43.9947570101383
20
0.112854534638842
30
0
0
SPLINE
5
18B
100
AcDbEntity
8
1
62
256
6
ByLayer
370
18
48
1
60
0
100
AcDbSpline
70
4
71
3
72
8
73
4
40
0
40
0
40
0
40
0
40
1
40
1
40
1
40
1
41
1
10
41.6400000000001
20
1.19301534066386
30
0
41
1
10
41.6118000099665
20
1.20303999318907
30
0
41
1
10
41.5836281514549
20
1.21314043181979
30
0
41
1
10
41.5554843846124
20
1.22331654919304
30
0
0
SPLINE
5
18C
100
AcDbEntity
8
1
62
256
6
ByLayer
370
18
48
1
60
0
100
AcDbSpline
70
4
71
3
72
14
73
10
40
0
40
0
40
0
40
0
40
0.25
40
0.25
40
0.5
40
0.5
40
0.75
40
0.75
40
1
40
1
40
1
40
1
41
1
10
41.5554843846124
20
1.22331654919304
30
0
41
1
10
41.5477010623451
20
1.21988999094455
30
0
41
1
10
41.5394499551594
20
1.21684436634564
30
0
41
1
10
41.5219012374284
20
1.21160532150199
30
0
41
1
10
41.5125816659512
20
1.2094165137344
30
0
41
1
10
41.4932783179348
20
1.20614337377069
30
0
41
1
10
41.4832387281239
20
1.20503705388674
30
0
41
1
10
41.462242284992
20
1.20407824049732
30
0
41
1
10
41.4512148319265
20
1.20423309708482
30
0
41
1
10
41.439874904214
20
1.20517491536719
30
0
0
SPLINE
5
18D
100
AcDbEntity
8
1
62
256
6
ByLayer
370
18
48
1
60
0
100
AcDbSpline
70
4
71
3
72
8
73
4
40
0
40
0
40
0
40
0
40
1
40
1
40
1
40
1
41
1
10
42.7661578550184
20
1.46628444030142
30
0
41
1
10
42.7613922996279
20
1.46686387867524
30
0
41
1
10
42.7565676614462
20
1.46744340110917
30
0
41
1
10
42.7516832515227
20
1.46802476930199
30
0
0
SPLINE
5
18E
100
AcDbEntity
8
1
62
256
6
ByLayer
370
18
48
1
60
0
100
AcDbSpline
70
4
71
3
72
8
73
4
40
0
40
0
40
0
40
0
40
1
40
1
40
1
40
1
41
1
10
42.7661578662565
20
1.46628443893525
30
0
41
1
10
42.7842578238018
20
1.46408368582507
30
0
41
1
10
42.8023568710901
20
1.46143640600971
30
0
41
1
10
42.8204628063424
20
1.45834138617127
30
0
0
SPLINE
5
18F
100
AcDbEntity
8
1
62
256
6
ByLayer
370
18
48
1
60
0
100
AcDbSpline
70
4
71
3
72
8
73
4
40
0
40
0
40
0
40
0
40
1
40
1
40
1
40
1
41
1
10
43.9970673937255
20
0.0810041774873014
30
0
41
1
10
43.9964273636682
20
0.0916007806470702
30
0
41
1
10
43.9956612007958
20
0.102212226726095
30
0
41
1
10
43.9947688323095
20
0.112838571412198
30
0
0
SPLINE
5
190
100
AcDbEntity
8
1
62
256
6
ByLayer
370
18
48
1
60
0
100
AcDbSpline
70
4
71
3
72
8
73
4
40
0
40
0
40
0
40
0
40
1
40
1
40
1
40
1
41
1
10
42.8204628063424
20
1.45834138617124
30
0
41
1
10
42.8397194199692
20
1.45503748971512
30
0
41
1
10
42.8589557707093
20
1.45124660489165
30
0
41
1
10
42.8781742802117
20
1.44695777911707
30
0
0
SPLINE
5
191
100
AcDbEntity
8
1
62
256
6
ByLayer
370
18
48
1
60
0
100
AcDbSpline
70
4
71
3
72
12
73
8
40
0
40
0
40
0
40
0
40
0.0232029682421142
40
0.34920922310548
40
0.593664924251353
40
0.756575252811068
40
1
40
1
40
1
40
1
41
1
10
42.8781742795403
20
1.44695777926742
30
0
41
1
10
42.8844087211461
20
1.44556150892697
30
0
41
1
10
42.9784400823842
20
1.42368465207468
30
0
41
1
10
43.1440392266374
20
1.36390979145924
30
0
41
1
10
43.3464070688089
20
1.24043778235273
30
0
41
1
10
43.5157740089728
20
1.10153781131072
30
0
41
1
10
43.611142010287
20
0.99882459075107
30
0
41
1
10
43.6631456528288
20
0.933185656780012
30
0
0
SPLINE
5
192
100
AcDbEntity
8
1
62
256
6
ByLayer
370
18
48
1
60
0
100
AcDbSpline
70
4
71
3
72
18
73
14
40
0
40
0
40
0
40
0
40
0.0646142622044846
40
0.134545804178956
40
0.209778391745567
40
0.290292027791004
40
0.376063956815892
40
0.467075387811208
40
0.563307957850423
40
0.664741229524274
40
0.771352244145477
40
0.883115019418872
40
1
40
1
40
1
40
1
41
1
10
43.6631456528287
20
0.933185656780125
30
0
41
1
10
43.6669661054721
20
0.928326284886225
30
0
41
1
10
43.674921405985
20
0.918207650439911
30
0
41
1
10
43.6870928490378
20
0.902237383283847
30
0
41
1
10
43.699981862595
20
0.884893270959736
30
0
41
1
10
43.7135149955707
20
0.866130552792441
30
0
41
1
10
43.7276353599907
20
0.845922922649947
30
0
41
1
10
43.7422772995767
20
0.824240394753588
30
0
41
1
10
43.7573718113576
20
0.801054917123906
30
0
41
1
10
43.7728482233115
20
0.776341388002237
30
0
41
1
10
43.7886143465577
20
0.750069272581669
30
0
41
1
10
43.8046378524776
20
0.722242530140647
30
0
41
1
10
43.8150591962659
20
0.703004704425211
30
0
41
1
10
43.8203865985041
20
0.693170307071227
30
0
0
SPLINE
5
193
100
AcDbEntity
8
1
62
256
6
ByLayer
370
18
48
1
60
0
100
AcDbSpline
70
4
71
3
72
11
73
7
40
0
40
0
40
0
40
0
40
0.101434684958546
40
0.446373035471354
40
0.952098119026577
40
1
40
1
40
1
40
1
41
1
10
43.8203865985034
20
0.69317030707262
30
0
41
1
10
43.8279376108413
20
0.679021603380193
30
0
41
1
10
43.860169323675
20
0.616378542481812
30
0
41
1
10
43.9194011150207
20
0.479659303092575
30
0
41
1
10
43.9573743700277
20
0.347684155783185
30
0
41
1
10
43.9734751543595
20
0.267062139358671
30
0
41
1
10
43.97481382231
20
0.260093079198839
30
0
0
SPLINE
5
194
100
AcDbEntity
8
1
62
256
6
ByLayer
370
18
48
1
60
0
100
AcDbSpline
70
4
71
3
72
8
73
4
40
0
40
0
40
0
40
0
40
1
40
1
40
1
40
1
41
1
10
43.9748138223085
20
0.260093079206456
30
0
41
1
10
43.9797069290592
20
0.234589181012126
30
0
41
1
10
43.9838832545064
20
0.209121319229809
30
0
41
1
10
43.9873502310902
20
0.183688042895199
30
0
0
SPLINE
5
195
100
AcDbEntity
8
1
62
256
6
ByLayer
370
18
48
1
60
0
100
AcDbSpline
70
4
71
3
72
8
73
4
40
0
40
0
40
0
40
0
40
1
40
1
40
1
40
1
41
1
10
43.9881683619236
20
0.177703165401027
30
0
41
1
10
43.9878939099145
20
0.179705418474413
30
0
41
1
10
43.9876211332031
20
0.181700741242111
30
0
41
1
10
43.9873502310902
20
0.183688042895056
30
0
0
SPLINE
5
196
100
AcDbEntity
8
1
62
256
6
ByLayer
370
18
48
1
60
0
100
AcDbSpline
70
4
71
3
72
8
73
4
40
0
40
0
40
0
40
0
40
1
40
1
40
1
40
1
41
1
10
43.9881683619235
20
0.177703165401283
30
0
41
1
10
43.9908240207748
20
0.157598549885279
30
0
41
1
10
43.993024791353
20
0.137590310689973
30
0
41
1
10
43.9947785552567
20
0.117695506256894
30
0
0
SPLINE
5
197
100
AcDbEntity
8
1
62
256
6
ByLayer
370
18
48
1
60
0
100
AcDbSpline
70
4
71
3
72
8
73
4
40
0
40
0
40
0
40
0
40
1
40
1
40
1
40
1
41
1
10
41.680707394919
20
-1.23082445561224
30
0
41
1
10
41.698293572588
20
-1.24260807021497
30
0
41
1
10
41.7156698888664
20
-1.25366353413588
30
0
41
1
10
41.7329059044451
20
-1.26406556733258
30
0
0
SPLINE
5
198
100
AcDbEntity
8
1
62
256
6
ByLayer
370
18
48
1
60
0
100
AcDbSpline
70
4
71
3
72
10
73
6
40
0
40
0
40
0
40
0
40
0.617436831428283
40
0.617436831428283
40
1
40
1
40
1
40
1
41
1
10
41.4200220669339
20
-1.22543874920532
30
0
41
1
10
41.4059929615015
20
-1.22661453515497
30
0
41
1
10
41.3927911579013
20
-1.22750259585206
30
0
41
1
10
41.3732145423188
20
-1.22832909946479
30
0
41
1
10
41.3661567196392
20
-1.22849975882443
30
0
41
1
10
41.359623183296
20
-1.22850008871453
30
0
0
SPLINE
5
199
100
AcDbEntity
8
1
62
256
6
ByLayer
370
18
48
1
60
0
100
AcDbSpline
70
4
71
3
72
8
73
4
40
0
40
0
40
0
40
0
40
1
40
1
40
1
40
1
41
1
10
41.4398749042145
20
-1.22184629747713
30
0
41
1
10
41.4325820738745
20
-1.2232390546591
30
0
41
1
10
41.425933730263
20
-1.22444636452559
30
0
41
1
10
41.4200220669339
20
-1.22543874920532
30
0
0
SPLINE
5
19A
100
AcDbEntity
8
1
62
256
6
ByLayer
370
18
48
1
60
0
100
AcDbSpline
70
4
71
1
72
4
73
2
40
0
40
0
40
1
40
1
41
1
10
43.2052754601793
20
0.873629248894531
30
0
41
1
10
42.9407805262481
20
0.936338011741441
30
0
0
LINE
5
7F
100
AcDbEntity
8
81
62
256
6
ByLayer
370
18
48
1
60
0
100
AcDbLine
10
44
20
0
30
0
11
47
21
0
31
0
39
0
210
0
220
0
230
1
0
LINE
5
80
100
AcDbEntity
8
80
62
256
6
ByLayer
370
18
48
1
60
0
100
AcDbLine
10
0
20
0
30
0
11
-3
21
0
31
0
39
0
210
0
220
0
230
1
0
LINE
5
81
100
AcDbEntity
8
4
62
256
6
ByLayer
370
18
48
0.05
60
0
100
AcDbLine
10
0
20
0
30
0
11
47
21
0
31
0
39
0
210
0
220
0
230
1
0
LINE
5
83
100
AcDbEntity
8
SK4
62
256
6
ByLayer
370
18
48
0.05
60
0
100
AcDbLine
10
-39
20
0
30
0
11
47
21
0
31
0
39
0
210
0
220
0
230
1
0
LINE
5
85
100
AcDbEntity
8
81
62
256
6
ByLayer
370
13
48
1
60
0
100
AcDbLine
10
-36
20
-1.214642
30
0
11
-36
21
-1.215288
31
0
39
0
210
0
220
0
230
1
0
LINE
5
86
100
AcDbEntity
8
81
62
256
6
ByLayer
370
18
48
1
60
0
100
AcDbLine
10
-36
20
1.4888
30
0
11
-36
21
1.215288
31
0
39
0
210
0
220
0
230
1
0
LINE
5
87
100
AcDbEntity
8
81
62
256
6
ByLayer
370
18
48
1
60
0
100
AcDbLine
10
-36
20
-3.269027
30
0
11
-36
21
-2.788733
31
0
39
0
210
0
220
0
230
1
0
LINE
5
88
100
AcDbEntity
8
81
62
256
6
ByLayer
370
18
48
1
60
0
100
AcDbLine
10
-38.488733
20
0
30
0
11
-38.349563
21
0
31
0
39
0
210
0
220
0
230
1
0
LINE
5
89
100
AcDbEntity
8
81
62
256
6
ByLayer
370
18
48
1
60
0
100
AcDbLine
10
-38.349563
20
0
30
0
11
-38.3488
21
0
31
0
39
0
210
0
220
0
230
1
0
LINE
5
8A
100
AcDbEntity
8
81
62
256
6
ByLayer
370
18
48
1
60
0
100
AcDbLine
10
41.500067
20
0
30
0
11
41.200067
21
0
31
0
39
0
210
0
220
0
230
1
0
LINE
5
8B
100
AcDbEntity
8
81
62
256
6
ByLayer
370
18
48
1
60
0
100
AcDbLine
10
-36
20
-2.488733
30
0
11
-36
21
-2.349563
31
0
39
0
210
0
220
0
230
1
0
LINE
5
8C
100
AcDbEntity
8
81
62
256
6
ByLayer
370
18
48
1
60
0
100
AcDbLine
10
-36
20
0
30
0
11
-37.4888
21
0
31
0
39
0
210
0
220
0
230
1
0
LINE
5
8D
100
AcDbEntity
8
81
62
256
6
ByLayer
370
18
48
1
60
0
100
AcDbLine
10
-36
20
1.163595
30
0
11
-36
21
1.214642
31
0
39
0
210
0
220
0
230
1
0
LINE
5
8E
100
AcDbEntity
8
81
62
256
6
ByLayer
370
18
48
1
60
0
100
AcDbLine
10
-36
20
1.228983
30
0
11
-36
21
1.163595
31
0
39
0
210
0
220
0
230
1
0
LINE
5
8F
100
AcDbEntity
8
81
62
256
6
ByLayer
370
18
48
1
60
0
100
AcDbLine
10
-38.488733
20
0
30
0
11
-38.788733
21
0
31
0
39
0
210
0
220
0
230
1
0
LINE
5
90
100
AcDbEntity
8
81
62
256
6
ByLayer
370
18
48
1
60
0
100
AcDbLine
10
41.639237
20
0
30
0
11
41.64
21
0
31
0
39
0
210
0
220
0
230
1
0
LINE
5
91
100
AcDbEntity
8
81
62
256
6
ByLayer
370
13
48
1
60
0
100
AcDbLine
10
-36
20
0
30
0
11
-36
21
-1.4888
31
0
39
0
210
0
220
0
230
1
0
LINE
5
92
100
AcDbEntity
8
81
62
256
6
ByLayer
370
18
48
1
60
0
100
AcDbLine
10
-37.4888
20
0
30
0
11
-38.3488
21
0
31
0
39
0
210
0
220
0
230
1
0
LINE
5
93
100
AcDbEntity
8
81
62
256
6
ByLayer
370
18
48
1
60
0
100
AcDbLine
10
-36
20
1.214642
30
0
11
-36
21
1.215288
31
0
39
0
210
0
220
0
230
1
0
LINE
5
94
100
AcDbEntity
8
81
62
256
6
ByLayer
370
18
48
1
60
0
100
AcDbLine
10
-38.488733
20
0
30
0
11
-38.788733
21
0
31
0
39
0
210
0
220
0
230
1
0
LINE
5
95
100
AcDbEntity
8
81
62
256
6
ByLayer
370
13
48
1
60
0
100
AcDbLine
10
-36
20
-1.4888
30
0
11
-36
21
-1.215288
31
0
39
0
210
0
220
0
230
1
0
LINE
5
96
100
AcDbEntity
8
81
62
256
6
ByLayer
370
18
48
1
60
0
100
AcDbLine
10
43.9888
20
0
30
0
11
42.5
21
0
31
0
39
0
210
0
220
0
230
1
0
LINE
5
97
100
AcDbEntity
8
81
62
256
6
ByLayer
370
18
48
1
60
0
100
AcDbLine
10
-38.349563
20
0
30
0
11
-38.3488
21
0
31
0
39
0
210
0
220
0
230
1
0
LINE
5
98
100
AcDbEntity
8
81
62
256
6
ByLayer
370
13
48
1
60
0
100
AcDbLine
10
-36
20
-1.163595
30
0
11
-36
21
-1.214642
31
0
39
0
210
0
220
0
230
1
0
LINE
5
99
100
AcDbEntity
8
81
62
256
6
ByLayer
370
18
48
1
60
0
100
AcDbLine
10
-38.488733
20
0
30
0
11
-38.349563
21
0
31
0
39
0
210
0
220
0
230
1
0
LINE
5
9A
100
AcDbEntity
8
81
62
256
6
ByLayer
370
18
48
1
60
0
100
AcDbLine
10
-36
20
0
30
0
11
-37.4888
21
0
31
0
39
0
210
0
220
0
230
1
0
LINE
5
9B
100
AcDbEntity
8
81
62
256
6
ByLayer
370
18
48
1
60
0
100
AcDbLine
10
40.719773
20
0
30
0
11
41.200067
21
0
31
0
39
0
210
0
220
0
230
1
0
LINE
5
9C
100
AcDbEntity
8
81
62
256
6
ByLayer
370
18
48
1
60
0
100
AcDbLine
10
-36
20
-2.488733
30
0
11
-36
21
-2.788733
31
0
39
0
210
0
220
0
230
1
0
LINE
5
9D
100
AcDbEntity
8
81
62
256
6
ByLayer
370
13
48
1
60
0
100
AcDbLine
10
-36
20
-1.228983
30
0
11
-36
21
-1.163595
31
0
39
0
210
0
220
0
230
1
0
LINE
5
9E
100
AcDbEntity
8
81
62
256
6
ByLayer
370
18
48
1
60
0
100
AcDbLine
10
-36
20
0
30
0
11
-36
21
-1.4888
31
0
39
0
210
0
220
0
230
1
0
LINE
5
9F
100
AcDbEntity
8
81
62
256
6
ByLayer
370
18
48
1
60
0
100
AcDbLine
10
-37.4888
20
0
30
0
11
-38.3488
21
0
31
0
39
0
210
0
220
0
230
1
0
LINE
5
A0
100
AcDbEntity
8
81
62
256
6
ByLayer
370
18
48
1
60
0
100
AcDbLine
10
41.500067
20
0
30
0
11
41.639237
21
0
31
0
39
0
210
0
220
0
230
1
0
LINE
5
A1
100
AcDbEntity
8
81
62
256
6
ByLayer
370
18
48
1
60
0
100
AcDbLine
10
-39.269027
20
0
30
0
11
-38.788733
21
0
31
0
39
0
210
0
220
0
230
1
0
LINE
5
A2
100
AcDbEntity
8
81
62
256
6
ByLayer
370
18
48
1
60
0
100
AcDbLine
10
-36
20
-2.349563
30
0
11
-36
21
-2.3488
31
0
39
0
210
0
220
0
230
1
0
LINE
5
A3
100
AcDbEntity
8
81
62
256
6
ByLayer
370
18
48
1
60
0
100
AcDbLine
10
-36
20
0
30
0
11
-36
21
1.4888
31
0
39
0
210
0
220
0
230
1
0
LINE
5
A4
100
AcDbEntity
8
81
62
256
6
ByLayer
370
18
48
1
60
0
100
AcDbLine
10
-36
20
-1.4888
30
0
11
-36
21
-2.3488
31
0
39
0
210
0
220
0
230
1
0
LINE
5
A5
100
AcDbEntity
8
81
62
256
6
ByLayer
370
18
48
1
60
0
100
AcDbLine
10
-39.269027
20
0
30
0
11
-38.788733
21
0
31
0
39
0
210
0
220
0
230
1
0
LINE
5
A6
100
AcDbEntity
8
81
62
256
6
ByLayer
370
18
48
1
60
0
100
AcDbLine
10
42.5
20
0
30
0
11
41.64
21
0
31
0
39
0
210
0
220
0
230
1
0
LINE
5
A7
100
AcDbEntity
8
1
62
256
6
ByLayer
370
18
48
1
60
0
100
AcDbLine
10
41.642054
20
-1.224146
30
0
11
41.595982
21
-1.191324
31
0
39
0
210
0
220
0
230
1
0
LINE
5
A8
100
AcDbEntity
8
1
62
256
6
ByLayer
370
18
48
1
60
0
100
AcDbLine
10
0
20
-3
30
0
11
0
21
3
31
0
39
0
210
0
220
0
230
1
0
LINE
5
A9
100
AcDbEntity
8
1
62
256
6
ByLayer
370
18
48
1
60
0
100
AcDbLine
10
43.997065
20
-0.08
30
0
11
43.996172
21
-0.08
31
0
39
0
210
0
220
0
230
1
0
LINE
5
AA
100
AcDbEntity
8
1
62
256
6
ByLayer
370
18
48
1
60
0
100
AcDbLine
10
41.680707
20
-1.230824
30
0
11
41.603617
21
-1.175904
31
0
39
0
210
0
220
0
230
1
0
LINE
5
AB
100
AcDbEntity
8
1
62
256
6
ByLayer
370
18
48
1
60
0
100
AcDbLine
10
41.60354
20
1.008796
30
0
11
41.73203
21
1.157971
31
0
39
0
210
0
220
0
230
1
0
LINE
5
AC
100
AcDbEntity
8
1
62
256
6
ByLayer
370
18
48
1
60
0
100
AcDbLine
10
41.680642
20
1.039221
30
0
11
41.60354
21
1.008796
31
0
39
0
210
0
220
0
230
1
0
LINE
5
AD
100
AcDbEntity
8
1
62
256
6
ByLayer
370
18
48
1
60
0
100
AcDbLine
10
41.564952
20
0.939902
30
0
11
41.60354
21
1.008796
31
0
39
0
210
0
220
0
230
1
0
LINE
5
AE
100
AcDbEntity
8
1
62
256
6
ByLayer
370
18
48
1
60
0
100
AcDbLine
10
41.642054
20
0.970327
30
0
11
41.564952
21
0.939902
31
0
39
0
210
0
220
0
230
1
0
LINE
5
AF
100
AcDbEntity
8
1
62
256
6
ByLayer
370
18
48
1
60
0
100
AcDbLine
10
41.559374
20
0.919621
30
0
11
41.564952
21
0.939902
31
0
39
0
210
0
220
0
230
1
0
LINE
5
B0
100
AcDbEntity
8
1
62
256
6
ByLayer
370
18
48
1
60
0
100
AcDbLine
10
41.64
20
-1.101211
30
0
11
41.64
21
-1.179493
31
0
39
0
210
0
220
0
230
1
0
LINE
5
B1
100
AcDbEntity
8
1
62
256
6
ByLayer
370
18
48
1
60
0
100
AcDbLine
10
41.64
20
-1.101211
30
0
11
41.64
21
-1.048882
31
0
39
0
210
0
220
0
230
1
0
LINE
5
B2
100
AcDbEntity
8
1
62
256
6
ByLayer
370
18
48
1
60
0
100
AcDbLine
10
41.64
20
-1.048882
30
0
11
41.64
21
-0.981069
31
0
39
0
210
0
220
0
230
1
0
LINE
5
B3
100
AcDbEntity
8
1
62
256
6
ByLayer
370
18
48
1
60
0
100
AcDbLine
10
41.64
20
0.459269
30
0
11
41.64
21
0.520274
31
0
39
0
210
0
220
0
230
1
0
LINE
5
B4
100
AcDbEntity
8
1
62
256
6
ByLayer
370
18
48
1
60
0
100
AcDbLine
10
40.727248
20
0.655578
30
0
11
41.64
21
0.25946
31
0
39
0
210
0
220
0
230
1
0
LINE
5
B5
100
AcDbEntity
8
1
62
256
6
ByLayer
370
18
48
1
60
0
100
AcDbLine
10
41.64
20
0.25946
30
0
11
41.64
21
0.459269
31
0
39
0
210
0
220
0
230
1
0
LINE
5
B6
100
AcDbEntity
8
1
62
256
6
ByLayer
370
18
48
1
60
0
100
AcDbLine
10
41.64
20
0.164735
30
0
11
41.64
21
0.25946
31
0
39
0
210
0
220
0
230
1
0
LINE
5
B7
100
AcDbEntity
8
1
62
256
6
ByLayer
370
18
48
1
60
0
100
AcDbLine
10
41.64
20
-0.621592
30
0
11
41.64
21
-0.589501
31
0
39
0
210
0
220
0
230
1
0
LINE
5
B8
100
AcDbEntity
8
1
62
256
6
ByLayer
370
18
48
1
60
0
100
AcDbLine
10
41.64
20
0.10374
30
0
11
41.64
21
0.164735
31
0
39
0
210
0
220
0
230
1
0
LINE
5
B9
100
AcDbEntity
8
1
62
256
6
ByLayer
370
18
48
1
60
0
100
AcDbLine
10
41.558938
20
-0.401226
30
0
11
41.564964
21
-0.374621
31
0
39
0
210
0
220
0
230
1
0
LINE
5
BA
100
AcDbEntity
8
1
62
256
6
ByLayer
370
18
48
1
60
0
100
AcDbLine
10
40.728298
20
-0.82274
30
0
11
41.64
21
-0.981069
31
0
39
0
210
0
220
0
230
1
0
LINE
5
BB
100
AcDbEntity
8
1
62
256
6
ByLayer
370
18
48
1
60
0
100
AcDbLine
10
41.64
20
-0.981069
30
0
11
41.64
21
-0.621592
31
0
39
0
210
0
220
0
230
1
0
LINE
5
BC
100
AcDbEntity
8
1
62
256
6
ByLayer
370
18
48
1
60
0
100
AcDbLine
10
41.642054
20
-0.416644
30
0
11
41.564964
21
-0.374621
31
0
39
0
210
0
220
0
230
1
0
LINE
5
BD
100
AcDbEntity
8
1
62
256
6
ByLayer
370
18
48
1
60
0
100
AcDbLine
10
41.564964
20
-0.374621
30
0
11
41.603617
21
-0.264069
31
0
39
0
210
0
220
0
230
1
0
LINE
5
BE
100
AcDbEntity
8
1
62
256
6
ByLayer
370
18
48
1
60
0
100
AcDbLine
10
41.680707
20
-0.306093
30
0
11
41.603617
21
-0.264069
31
0
39
0
210
0
220
0
230
1
0
LINE
5
BF
100
AcDbEntity
8
1
62
256
6
ByLayer
370
18
48
1
60
0
100
AcDbLine
10
41.603617
20
-0.264069
30
0
11
41.7322
21
0.036114
31
0
39
0
210
0
220
0
230
1
0
LINE
5
C0
100
AcDbEntity
8
1
62
256
6
ByLayer
370
18
48
1
60
0
100
AcDbLine
10
41.64
20
-0.41349
30
0
11
41.64
21
-0.589501
31
0
39
0
210
0
220
0
230
1
0
LINE
5
C1
100
AcDbEntity
8
1
62
256
6
ByLayer
370
18
48
1
60
0
100
AcDbLine
10
41.64
20
0.520274
30
0
11
41.64
21
0.969149
31
0
39
0
210
0
220
0
230
1
0
LINE
5
C2
100
AcDbEntity
8
1
62
256
6
ByLayer
370
18
48
1
60
0
100
AcDbLine
10
41.64
20
0.10374
30
0
11
41.64
21
0.056416
31
0
39
0
210
0
220
0
230
1
0
LINE
5
C3
100
AcDbEntity
8
1
62
256
6
ByLayer
370
18
48
1
60
0
100
AcDbLine
10
25.880273
20
-3
30
0
11
25.880273
21
3
31
0
39
0
210
0
220
0
230
1
0
LINE
5
C4
100
AcDbEntity
8
81
62
256
6
ByLayer
370
18
48
1
60
0
100
AcDbLine
10
40.719773
20
1.228983
30
0
11
40.719773
21
1.228484
31
0
39
0
210
0
220
0
230
1
0
LINE
5
C5
100
AcDbEntity
8
81
62
256
6
ByLayer
370
18
48
1
60
0
100
AcDbLine
10
40.719773
20
-1.228484
30
0
11
40.719773
21
-1.228983
31
0
39
0
210
0
220
0
230
1
0
LINE
5
C6
100
AcDbEntity
8
81
62
256
6
ByLayer
370
18
48
1
60
0
100
AcDbLine
10
41.639237
20
-1.214642
30
0
11
41.64
21
-1.215288
31
0
39
0
210
0
220
0
230
1
0
LINE
5
C7
100
AcDbEntity
8
81
62
256
6
ByLayer
370
18
48
1
60
0
100
AcDbLine
10
41.64
20
1.215288
30
0
11
41.639237
21
1.214642
31
0
39
0
210
0
220
0
230
1
0
LINE
5
C8
100
AcDbEntity
8
SK1
62
256
6
ByLayer
370
18
48
1
60
0
100
AcDbLine
10
0
20
-3
30
0
11
0
21
3
31
0
39
0
210
0
220
0
230
1
0
LINE
5
CA
100
AcDbEntity
8
SK1
62
256
6
ByLayer
370
18
48
1
60
0
100
AcDbLine
10
-35.6
20
3
30
0
11
-35.6
21
-3
31
0
39
0
210
0
220
0
230
1
0
LINE
5
CB
100
AcDbEntity
8
SK1
62
256
6
ByLayer
370
18
48
1
60
0
100
AcDbLine
10
-36
20
2.6
30
0
11
-36
21
-2.6
31
0
39
0
210
0
220
0
230
1
0
LINE
5
CC
100
AcDbEntity
8
1
62
256
6
ByLayer
370
18
48
1
60
0
100
AcDbLine
10
25.880273
20
3
30
0
11
0
21
3
31
0
39
0
210
0
220
0
230
1
0
LINE
5
CD
100
AcDbEntity
8
1
62
256
6
ByLayer
370
18
48
1
60
0
100
AcDbLine
10
0
20
-3
30
0
11
25.880273
21
-3
31
0
39
0
210
0
220
0
230
1
0
LINE
5
CE
100
AcDbEntity
8
1
62
256
6
ByLayer
370
18
48
1
60
0
100
AcDbLine
10
40.931722
20
1.2285
30
0
11
33.49677
21
1.2285
31
0
39
0
210
0
220
0
230
1
0
LINE
5
CF
100
AcDbEntity
8
1
62
256
6
ByLayer
370
18
48
1
60
0
100
AcDbLine
10
33.49677
20
-1.2285
30
0
11
41.125153
21
-1.2285
31
0
39
0
210
0
220
0
230
1
0
LINE
5
D0
100
AcDbEntity
8
1
62
256
6
ByLayer
370
18
48
1
60
0
100
AcDbLine
10
41.125153
20
-1.2285
30
0
11
41.359691
21
-1.2285
31
0
39
0
210
0
220
0
230
1
0
LINE
5
D1
100
AcDbEntity
8
1
62
256
6
ByLayer
370
18
48
1
60
0
100
AcDbLine
10
33.266896
20
1.25528
30
0
11
25.880273
21
3
31
0
39
0
210
0
220
0
230
1
0
LINE
5
D2
100
AcDbEntity
8
1
62
256
6
ByLayer
370
18
48
1
60
0
100
AcDbLine
10
25.880273
20
-3
30
0
11
33.266896
21
-1.25528
31
0
39
0
210
0
220
0
230
1
0
LINE
5
D3
100
AcDbEntity
8
SK1
62
256
6
ByLayer
370
18
48
1
60
0
100
AcDbLine
10
0
20
3
30
0
11
-35.6
21
3
31
0
39
0
210
0
220
0
230
1
0
LINE
5
D4
100
AcDbEntity
8
SK1
62
256
6
ByLayer
370
18
48
1
60
0
100
AcDbLine
10
-35.6
20
-3
30
0
11
0
21
-3
31
0
39
0
210
0
220
0
230
1
0
LINE
5
D5
100
AcDbEntity
8
SK1
62
256
6
ByLayer
370
18
48
1
60
0
100
AcDbLine
10
-36
20
-2.6
30
0
11
-35.6
21
-3
31
0
39
0
210
0
220
0
230
1
0
LINE
5
D6
100
AcDbEntity
8
SK1
62
256
6
ByLayer
370
18
48
1
60
0
100
AcDbLine
10
-35.6
20
3
30
0
11
-36
21
2.6
31
0
39
0
210
0
220
0
230
1
0
LINE
5
D7
100
AcDbEntity
8
SK2
62
256
6
ByLayer
370
13
48
1
60
0
100
AcDbLine
10
-42.5
20
-10.5
30
0
11
-42.5
21
21.133313
31
0
39
0
210
0
220
0
230
1
0
LINE
5
D9
100
AcDbEntity
8
SK2
62
256
6
ByLayer
370
13
48
1
60
0
100
AcDbLine
10
-37.5875
20
-3
30
0
11
-44.5
21
-3
31
0
39
0
210
0
220
0
230
1
0
LINE
5
DA
100
AcDbEntity
8
SK2
62
256
6
ByLayer
370
13
48
1
60
0
100
AcDbLine
10
-37.5875
20
3
30
0
11
-44.5
21
3
31
0
39
0
210
0
220
0
230
1
0
LINE
5
DB
100
AcDbEntity
8
1
62
256
6
ByLayer
370
18
48
1
60
1
100
AcDbLine
10
-42.5
20
-3
30
0
11
-42.039216
21
-6.499998
31
0
39
0
210
0
220
0
230
1
0
LINE
5
DC
100
AcDbEntity
8
1
62
256
6
ByLayer
370
18
48
1
60
1
100
AcDbLine
10
-42.039216
20
-6.499998
30
0
11
-42.960784
21
-6.500002
31
0
39
0
210
0
220
0
230
1
0
LINE
5
DD
100
AcDbEntity
8
1
62
256
6
ByLayer
370
18
48
1
60
1
100
AcDbLine
10
-42.960784
20
-6.500002
30
0
11
-42.5
21
-3
31
0
39
0
210
0
220
0
230
1
0
LINE
5
DE
100
AcDbEntity
8
1
62
256
6
ByLayer
370
18
48
1
60
1
100
AcDbLine
10
-42.5
20
3
30
0
11
-42.960784
21
6.499998
31
0
39
0
210
0
220
0
230
1
0
LINE
5
DF
100
AcDbEntity
8
1
62
256
6
ByLayer
370
18
48
1
60
1
100
AcDbLine
10
-42.960784
20
6.499998
30
0
11
-42.039216
21
6.500002
31
0
39
0
210
0
220
0
230
1
0
LINE
5
E0
100
AcDbEntity
8
1
62
256
6
ByLayer
370
18
48
1
60
1
100
AcDbLine
10
-42.039216
20
6.500002
30
0
11
-42.5
21
3
31
0
39
0
210
0
220
0
230
1
0
LINE
5
E1
100
AcDbEntity
8
SK2
62
256
6
ByLayer
370
13
48
1
60
0
100
AcDbLine
10
38
20
-31.228983
30
0
11
38
21
8.728983
31
0
39
0
210
0
220
0
230
1
0
LINE
5
E2
100
AcDbEntity
8
SK2
62
256
6
ByLayer
370
13
48
1
60
0
100
AcDbLine
10
35.0875
20
-1.228983
30
0
11
40
21
-1.228983
31
0
39
0
210
0
220
0
230
1
0
LINE
5
E3
100
AcDbEntity
8
SK2
62
256
6
ByLayer
370
13
48
1
60
0
100
AcDbLine
10
35.0875
20
1.228983
30
0
11
40
21
1.228983
31
0
39
0
210
0
220
0
230
1
0
LINE
5
E4
100
AcDbEntity
8
1
62
256
6
ByLayer
370
18
48
1
60
1
100
AcDbLine
10
38
20
-1.228983
30
0
11
38.460784
21
-4.728982
31
0
39
0
210
0
220
0
230
1
0
LINE
5
E5
100
AcDbEntity
8
1
62
256
6
ByLayer
370
18
48
1
60
1
100
AcDbLine
10
38.460784
20
-4.728982
30
0
11
37.539216
21
-4.728985
31
0
39
0
210
0
220
0
230
1
0
LINE
5
E6
100
AcDbEntity
8
1
62
256
6
ByLayer
370
18
48
1
60
1
100
AcDbLine
10
37.539216
20
-4.728985
30
0
11
38
21
-1.228983
31
0
39
0
210
0
220
0
230
1
0
LINE
5
E7
100
AcDbEntity
8
1
62
256
6
ByLayer
370
18
48
1
60
1
100
AcDbLine
10
38
20
1.228983
30
0
11
37.539216
21
4.728982
31
0
39
0
210
0
220
0
230
1
0
LINE
5
E8
100
AcDbEntity
8
1
62
256
6
ByLayer
370
18
48
1
60
1
100
AcDbLine
10
37.539216
20
4.728982
30
0
11
38.460784
21
4.728985
31
0
39
0
210
0
220
0
230
1
0
LINE
5
E9
100
AcDbEntity
8
1
62
256
6
ByLayer
370
18
48
1
60
1
100
AcDbLine
10
38.460784
20
4.728985
30
0
11
38
21
1.228983
31
0
39
0
210
0
220
0
230
1
0
LINE
5
EA
100
AcDbEntity
8
2
62
256
6
ByLayer
370
13
48
1
60
0
100
AcDbLine
10
59
20
-9
30
0
11
59
21
17.772684
31
0
39
0
210
0
220
0
230
1
0
LINE
5
EC
100
AcDbEntity
8
2
62
256
6
ByLayer
370
13
48
1
60
0
100
AcDbLine
10
44.0875
20
-1.5
30
0
11
61
21
-1.5
31
0
39
0
210
0
220
0
230
1
0
LINE
5
ED
100
AcDbEntity
8
2
62
256
6
ByLayer
370
13
48
1
60
0
100
AcDbLine
10
44.0875
20
1.5
30
0
11
61
21
1.5
31
0
39
0
210
0
220
0
230
1
0
LINE
5
EE
100
AcDbEntity
8
1
62
256
6
ByLayer
370
18
48
1
60
1
100
AcDbLine
10
59
20
-1.5
30
0
11
59.460784
21
-4.999998
31
0
39
0
210
0
220
0
230
1
0
LINE
5
EF
100
AcDbEntity
8
1
62
256
6
ByLayer
370
18
48
1
60
1
100
AcDbLine
10
59.460784
20
-4.999998
30
0
11
58.539216
21
-5.000002
31
0
39
0
210
0
220
0
230
1
0
LINE
5
F0
100
AcDbEntity
8
1
62
256
6
ByLayer
370
18
48
1
60
1
100
AcDbLine
10
58.539216
20
-5.000002
30
0
11
59
21
-1.5
31
0
39
0
210
0
220
0
230
1
0
LINE
5
F1
100
AcDbEntity
8
1
62
256
6
ByLayer
370
18
48
1
60
1
100
AcDbLine
10
59
20
1.5
30
0
11
58.539216
21
4.999998
31
0
39
0
210
0
220
0
230
1
0
LINE
5
F2
100
AcDbEntity
8
1
62
256
6
ByLayer
370
18
48
1
60
1
100
AcDbLine
10
58.539216
20
4.999998
30
0
11
59.460784
21
5.000002
31
0
39
0
210
0
220
0
230
1
0
LINE
5
F3
100
AcDbEntity
8
1
62
256
6
ByLayer
370
18
48
1
60
1
100
AcDbLine
10
59.460784
20
5.000002
30
0
11
59
21
1.5
31
0
39
0
210
0
220
0
230
1
0
LINE
5
F4
100
AcDbEntity
8
SK2
62
256
6
ByLayer
370
13
48
1
60
0
100
AcDbLine
10
24.33399
20
3.359395
30
0
11
9.350185
21
6.842009
31
0
39
0
210
0
220
0
230
1
0
LINE
5
F5
100
AcDbEntity
8
SK2
62
256
6
ByLayer
370
13
48
1
60
0
100
AcDbLine
10
-34.4125
20
0
30
0
11
12.565515
21
0
31
0
39
0
210
0
220
0
230
1
0
LINE
5
F6
100
AcDbEntity
8
1
62
256
6
ByLayer
370
18
48
1
60
1
100
AcDbLine
10
11.298259
20
6.389228
30
0
11
11.750415
21
9.890351
31
0
39
0
210
0
220
0
230
1
0
LINE
5
F7
100
AcDbEntity
8
1
62
256
6
ByLayer
370
18
48
1
60
1
100
AcDbLine
10
11.750415
20
9.890351
30
0
11
12.641167
21
9.65403
31
0
39
0
210
0
220
0
230
1
0
LINE
5
F8
100
AcDbEntity
8
1
62
256
6
ByLayer
370
18
48
1
60
1
100
AcDbLine
10
12.641167
20
9.65403
30
0
11
11.298259
21
6.389228
31
0
39
0
210
0
220
0
230
1
0
LINE
5
F9
100
AcDbEntity
8
1
62
256
6
ByLayer
370
18
48
1
60
1
100
AcDbLine
10
10.565515
20
0
30
0
11
11.134436
21
-3.484055
31
0
39
0
210
0
220
0
230
1
0
LINE
5
FA
100
AcDbEntity
8
1
62
256
6
ByLayer
370
18
48
1
60
1
100
AcDbLine
10
11.134436
20
-3.484055
30
0
11
10.213311
21
-3.51259
31
0
39
0
210
0
220
0
230
1
0
LINE
5
FB
100
AcDbEntity
8
1
62
256
6
ByLayer
370
18
48
1
60
1
100
AcDbLine
10
10.213311
20
-3.51259
30
0
11
10.565515
21
0
31
0
39
0
210
0
220
0
230
1
0
LINE
5
19F
100
AcDbEntity
8
1
62
256
6
ByLayer
370
18
48
1
60
1
100
AcDbLine
10
-42.5
20
-3
30
0
11
-42.039216
21
-6.499998
31
0
39
0
210
0
220
0
230
1
0
LINE
5
1A0
100
AcDbEntity
8
1
62
256
6
ByLayer
370
18
48
1
60
1
100
AcDbLine
10
-42.039216
20
-6.499998
30
0
11
-42.960784
21
-6.500002
31
0
39
0
210
0
220
0
230
1
0
LINE
5
1A1
100
AcDbEntity
8
1
62
256
6
ByLayer
370
18
48
1
60
1
100
AcDbLine
10
-42.960784
20
-6.500002
30
0
11
-42.5
21
-3
31
0
39
0
210
0
220
0
230
1
0
LINE
5
1A3
100
AcDbEntity
8
1
62
256
6
ByLayer
370
18
48
1
60
1
100
AcDbLine
10
-42.5
20
3
30
0
11
-42.960784
21
6.499998
31
0
39
0
210
0
220
0
230
1
0
LINE
5
1A4
100
AcDbEntity
8
1
62
256
6
ByLayer
370
18
48
1
60
1
100
AcDbLine
10
-42.960784
20
6.499998
30
0
11
-42.039216
21
6.500002
31
0
39
0
210
0
220
0
230
1
0
LINE
5
1A5
100
AcDbEntity
8
1
62
256
6
ByLayer
370
18
48
1
60
1
100
AcDbLine
10
-42.039216
20
6.500002
30
0
11
-42.5
21
3
31
0
39
0
210
0
220
0
230
1
0
LINE
5
1A9
100
AcDbEntity
8
1
62
256
6
ByLayer
370
18
48
1
60
1
100
AcDbLine
10
38
20
-1.228983
30
0
11
38.460784
21
-4.728982
31
0
39
0
210
0
220
0
230
1
0
LINE
5
1AA
100
AcDbEntity
8
1
62
256
6
ByLayer
370
18
48
1
60
1
100
AcDbLine
10
38.460784
20
-4.728982
30
0
11
37.539216
21
-4.728985
31
0
39
0
210
0
220
0
230
1
0
LINE
5
1AB
100
AcDbEntity
8
1
62
256
6
ByLayer
370
18
48
1
60
1
100
AcDbLine
10
37.539216
20
-4.728985
30
0
11
38
21
-1.228983
31
0
39
0
210
0
220
0
230
1
0
LINE
5
1AD
100
AcDbEntity
8
1
62
256
6
ByLayer
370
18
48
1
60
1
100
AcDbLine
10
38
20
1.228983
30
0
11
37.539216
21
4.728982
31
0
39
0
210
0
220
0
230
1
0
LINE
5
1AE
100
AcDbEntity
8
1
62
256
6
ByLayer
370
18
48
1
60
1
100
AcDbLine
10
37.539216
20
4.728982
30
0
11
38.460784
21
4.728985
31
0
39
0
210
0
220
0
230
1
0
LINE
5
1AF
100
AcDbEntity
8
1
62
256
6
ByLayer
370
18
48
1
60
1
100
AcDbLine
10
38.460784
20
4.728985
30
0
11
38
21
1.228983
31
0
39
0
210
0
220
0
230
1
0
LINE
5
1B3
100
AcDbEntity
8
1
62
256
6
ByLayer
370
18
48
1
60
1
100
AcDbLine
10
59
20
-1.5
30
0
11
59.460784
21
-4.999998
31
0
39
0
210
0
220
0
230
1
0
LINE
5
1B4
100
AcDbEntity
8
1
62
256
6
ByLayer
370
18
48
1
60
1
100
AcDbLine
10
59.460784
20
-4.999998
30
0
11
58.539216
21
-5.000002
31
0
39
0
210
0
220
0
230
1
0
LINE
5
1B5
100
AcDbEntity
8
1
62
256
6
ByLayer
370
18
48
1
60
1
100
AcDbLine
10
58.539216
20
-5.000002
30
0
11
59
21
-1.5
31
0
39
0
210
0
220
0
230
1
0
LINE
5
1B7
100
AcDbEntity
8
1
62
256
6
ByLayer
370
18
48
1
60
1
100
AcDbLine
10
59
20
1.5
30
0
11
58.539216
21
4.999998
31
0
39
0
210
0
220
0
230
1
0
LINE
5
1B8
100
AcDbEntity
8
1
62
256
6
ByLayer
370
18
48
1
60
1
100
AcDbLine
10
58.539216
20
4.999998
30
0
11
59.460784
21
5.000002
31
0
39
0
210
0
220
0
230
1
0
LINE
5
1B9
100
AcDbEntity
8
1
62
256
6
ByLayer
370
18
48
1
60
1
100
AcDbLine
10
59.460784
20
5.000002
30
0
11
59
21
1.5
31
0
39
0
210
0
220
0
230
1
0
LINE
5
1BC
100
AcDbEntity
8
1
62
256
6
ByLayer
370
18
48
1
60
1
100
AcDbLine
10
11.298259
20
6.389228
30
0
11
11.750415
21
9.890351
31
0
39
0
210
0
220
0
230
1
0
LINE
5
1BD
100
AcDbEntity
8
1
62
256
6
ByLayer
370
18
48
1
60
1
100
AcDbLine
10
11.750415
20
9.890351
30
0
11
12.641167
21
9.65403
31
0
39
0
210
0
220
0
230
1
0
LINE
5
1BE
100
AcDbEntity
8
1
62
256
6
ByLayer
370
18
48
1
60
1
100
AcDbLine
10
12.641167
20
9.65403
30
0
11
11.298259
21
6.389228
31
0
39
0
210
0
220
0
230
1
0
LINE
5
1C0
100
AcDbEntity
8
1
62
256
6
ByLayer
370
18
48
1
60
1
100
AcDbLine
10
10.565515
20
0
30
0
11
11.134436
21
-3.484055
31
0
39
0
210
0
220
0
230
1
0
LINE
5
1C1
100
AcDbEntity
8
1
62
256
6
ByLayer
370
18
48
1
60
1
100
AcDbLine
10
11.134436
20
-3.484055
30
0
11
10.213311
21
-3.51259
31
0
39
0
210
0
220
0
230
1
0
LINE
5
1C2
100
AcDbEntity
8
1
62
256
6
ByLayer
370
18
48
1
60
1
100
AcDbLine
10
10.213311
20
-3.51259
30
0
11
10.565515
21
0
31
0
39
0
210
0
220
0
230
1
0
MTEXT
5
19B
100
AcDbEntity
8
SK2
62
256
6
ByLayer
370
18
48
1
60
0
100
AcDbMText
10
-43.841114
20
7.658437
30
0
210
0
220
0
230
1
1
%%c
40
3
41
0
44
1.084337
50
90
71
7
72
5
7
iso_b_vert
0
MTEXT
5
19E
100
AcDbEntity
8
SK2
62
256
6
ByLayer
370
18
48
1
60
0
100
AcDbMText
10
-43.841114
20
13.635
30
0
210
0
220
0
230
1
1
\W0.6903;6 h6
40
3
41
0
44
1.084337
50
90
71
7
72
5
7
iso_b_vert
0
MTEXT
5
1A7
100
AcDbEntity
8
SK2
62
256
6
ByLayer
370
18
48
1
60
0
100
AcDbMText
10
36.658886
20
-29.570546
30
0
210
0
220
0
230
1
1
%%c
40
3
41
0
44
1.084337
50
90
71
7
72
5
7
iso_b_vert
0
MTEXT
5
1A8
100
AcDbEntity
8
SK2
62
256
6
ByLayer
370
18
48
1
60
0
100
AcDbMText
10
36.658886
20
-23.593983
30
0
210
0
220
0
230
1
1
\W0.7640;2.46
40
3
41
0
44
1.084337
50
90
71
7
72
5
7
iso_b_vert
0
MTEXT
5
1B1
100
AcDbEntity
8
2
62
256
6
ByLayer
370
18
48
1
60
0
100
AcDbMText
10
57.658886
20
8.158437
30
0
210
0
220
0
230
1
1
%%c
40
3
41
0
44
1.084337
50
90
71
7
72
5
7
iso_b_vert
0
MTEXT
5
1B2
100
AcDbEntity
8
2
62
256
6
ByLayer
370
18
48
1
60
0
100
AcDbMText
10
57.658886
20
14.135
30
0
210
0
220
0
230
1
1
\W0.5966;(3)
40
3
41
0
44
1.084337
50
90
71
7
72
5
7
iso_b_vert
0
MTEXT
5
1BB
100
AcDbEntity
8
SK2
62
256
6
ByLayer
370
18
48
1
60
0
100
AcDbMText
10
11.442532
20
9.921263
30
0
210
0
220
0
230
1
1
\W0.6927;(13%%d)
40
3
41
0
44
1.084337
50
63.3589351465125
71
7
72
5
7
iso_b_vert
0
MTEXT
5
1C4
100
AcDbEntity
8
SK6
62
256
6
ByLayer
370
18
48
1
60
0
100
AcDbMText
10
-22.901738
20
-42.249399
30
0
210
0
220
0
230
1
1
\W0.7831;2L445-0300-TA0600   T2CH
40
3
41
0
44
1.084337
50
0
71
7
72
5
7
iso_b_vert
0
HATCH
5
1A2
100
AcDbEntity
8
SK2
62
256
6
ByLayer
370
13
48
1
60
0
100
AcDbHatch
10
0
20
0
30
0
210
0
220
0
230
1
2
ANSI31
70
0
71
0
91
1
92
5
93
3
72
1
10
-42.5
20
-3.00000000000003
11
-42.0392162584472
21
-6.49999830744684
72
1
10
-42.0392162584472
20
-6.49999830744684
11
-42.9607837415528
21
-6.50000169255321
72
1
10
-42.9607837415528
20
-6.50000169255321
11
-42.5
21
-3.00000000000003
97
0
75
0
76
1
52
0
41
0.0062
77
0
78
1
53
45
43
0
44
0
45
-0.0139193969876572
46
0.0139193969876572
79
0
47
0
98
1
10
0
20
0
0
HATCH
5
1A6
100
AcDbEntity
8
SK2
62
256
6
ByLayer
370
13
48
1
60
0
100
AcDbHatch
10
0
20
0
30
0
210
0
220
0
230
1
2
ANSI31
70
0
71
0
91
1
92
5
93
3
72
1
10
-42.5
20
3
11
-42.9607837415528
21
6.49999830744682
72
1
10
-42.9607837415528
20
6.49999830744682
11
-42.0392162584472
21
6.50000169255318
72
1
10
-42.0392162584472
20
6.50000169255318
11
-42.5
21
3
97
0
75
0
76
1
52
0
41
0.0062
77
0
78
1
53
45
43
0
44
0
45
-0.0139193969876572
46
0.0139193969876572
79
0
47
0
98
1
10
0
20
0
0
HATCH
5
1AC
100
AcDbEntity
8
SK2
62
256
6
ByLayer
370
13
48
1
60
0
100
AcDbHatch
10
0
20
0
30
0
210
0
220
0
230
1
2
ANSI31
70
0
71
0
91
1
92
5
93
3
72
1
10
38
20
-1.22898331965899
11
38.4607837415528
21
-4.72898162710581
72
1
10
38.4607837415528
20
-4.72898162710581
11
37.5392162584472
21
-4.72898501221218
72
1
10
37.5392162584472
20
-4.72898501221218
11
38
21
-1.22898331965899
97
0
75
0
76
1
52
0
41
0.0062
77
0
78
1
53
45
43
0
44
0
45
-0.0139193969876572
46
0.0139193969876572
79
0
47
0
98
1
10
0
20
0
0
HATCH
5
1B0
100
AcDbEntity
8
SK2
62
256
6
ByLayer
370
13
48
1
60
0
100
AcDbHatch
10
0
20
0
30
0
210
0
220
0
230
1
2
ANSI31
70
0
71
0
91
1
92
5
93
3
72
1
10
38
20
1.22898331965885
11
37.5392162584472
21
4.72898162710567
72
1
10
37.5392162584472
20
4.72898162710567
11
38.4607837415528
21
4.72898501221204
72
1
10
38.4607837415528
20
4.72898501221204
11
38
21
1.22898331965885
97
0
75
0
76
1
52
0
41
0.0062
77
0
78
1
53
45
43
0
44
0
45
-0.0139193969876572
46
0.0139193969876572
79
0
47
0
98
1
10
0
20
0
0
HATCH
5
1B6
100
AcDbEntity
8
2
62
256
6
ByLayer
370
13
48
1
60
0
100
AcDbHatch
10
0
20
0
30
0
210
0
220
0
230
1
2
ANSI31
70
0
71
0
91
1
92
5
93
3
72
1
10
59
20
-1.5
11
59.4607837415528
21
-4.99999830744682
72
1
10
59.4607837415528
20
-4.99999830744682
11
58.5392162584472
21
-5.00000169255318
72
1
10
58.5392162584472
20
-5.00000169255318
11
59
21
-1.5
97
0
75
0
76
1
52
0
41
0.0062
77
0
78
1
53
45
43
0
44
0
45
-0.0139193969876572
46
0.0139193969876572
79
0
47
0
98
1
10
0
20
0
0
HATCH
5
1BA
100
AcDbEntity
8
2
62
256
6
ByLayer
370
13
48
1
60
0
100
AcDbHatch
10
0
20
0
30
0
210
0
220
0
230
1
2
ANSI31
70
0
71
0
91
1
92
5
93
3
72
1
10
59
20
1.5
11
58.5392162584472
21
4.99999830744682
72
1
10
58.5392162584472
20
4.99999830744682
11
59.4607837415528
21
5.00000169255318
72
1
10
59.4607837415528
20
5.00000169255318
11
59
21
1.5
97
0
75
0
76
1
52
0
41
0.0062
77
0
78
1
53
45
43
0
44
0
45
-0.0139193969876572
46
0.0139193969876572
79
0
47
0
98
1
10
0
20
0
0
HATCH
5
1BF
100
AcDbEntity
8
SK2
62
256
6
ByLayer
370
13
48
1
60
0
100
AcDbHatch
10
0
20
0
30
0
210
0
220
0
230
1
2
ANSI31
70
0
71
0
91
1
92
5
93
3
72
1
10
11.2982585038146
20
6.38922788333943
11
11.7504147818064
21
9.89035120434406
72
1
10
11.7504147818064
20
9.89035120434406
11
12.6411666016648
21
9.65402976784682
72
1
10
12.6411666016648
20
9.65402976784682
11
11.2982585038146
21
6.38922788333943
97
0
75
0
76
1
52
0
41
0.0062
77
0
78
1
53
45
43
0
44
0
45
-0.0139193969876572
46
0.0139193969876572
79
0
47
0
98
1
10
0
20
0
0
HATCH
5
1C3
100
AcDbEntity
8
SK2
62
256
6
ByLayer
370
13
48
1
60
0
100
AcDbHatch
10
0
20
0
30
0
210
0
220
0
230
1
2
ANSI31
70
0
71
0
91
1
92
5
93
3
72
1
10
10.5655154779466
20
0
11
11.1344363248336
21
-3.48405494769918
72
1
10
11.1344363248336
20
-3.48405494769918
11
10.2133107075874
21
-3.51258954392495
72
1
10
10.2133107075874
20
-3.51258954392495
11
10.5655154779466
21
0
97
0
75
0
76
1
52
0
41
0.0062
77
0
78
1
53
45
43
0
44
0
45
-0.0139193969876572
46
0.0139193969876572
79
0
47
0
98
1
10
0
20
0
0
DIMENSION
5
1C7
100
AcDbEntity
8
2
62
256
6
ByLayer
370
18
48
1
60
0
100
AcDbDimension
2
_U0
10
33.5
20
10.85
30
0
11
38.75
21
10.85
31
0
70
32
71
1
72
1
41
1
210
0
220
0
230
1
3
Standard
100
AcDbAlignedDimension
13
44
23
0
33
0
14
33.5
24
1.228983
34
0
50
0
100
AcDbRotatedDimension
1001
ACAD
1000
DSTYLE
1002
{
1070
   371
1070
    13
1070
   372
1070
    13
1070
     3
1000

1070
   170
1070
     0
1070
   144
1040
1.0
1070
   277
1070
     2
1070
   284
1070
     8
1070
   278
1070
    46
1070
   146
1040
1.166667
1070
   345
1005
16
1070
   347
1005
16
1070
   346
1005
16
1070
   344
1005
0
1070
   343
1005
0
1070
   172
1070
     1
1070
    76
1070
     0
1070
    75
1070
     0
1070
   282
1070
     0
1070
   281
1070
     0
1070
    71
1070
     0
1070
    74
1070
     0
1070
   279
1070
     0
1070
   173
1070
     1
1070
   340
1005
19C
1070
   271
1070
     2
1070
   272
1070
     2
1070
    77
1070
     1
1070
    73
1070
     1
1070
   171
1070
     3
1070
   274
1070
     4
1070
   177
1070
     2
1070
   176
1070
     2
1070
   178
1070
     2
1070
    78
1070
     8
1070
    48
1040
-0.1
1070
    41
1040
3.5
1070
   147
1040
1.5
1070
    42
1040
1.5875
1070
    44
1040
2.0
1070
   140
1040
3.0
1002
}
1001
ACAD_DSTYLE_DIM_LINETYPE
1070
   380
1005
16
1001
ACAD_DSTYLE_DIM_EXT1_LINETYPE
1070
   381
1005
16
1001
ACAD_DSTYLE_DIM_EXT2_LINETYPE
1070
   382
1005
16
0
DIMENSION
5
1E1
100
AcDbEntity
8
2
62
256
6
ByLayer
370
18
48
1
60
0
100
AcDbDimension
2
_U1
10
25.880273
20
20.85
30
0
11
34.940137
21
20.85
31
0
70
32
71
1
72
1
41
1
210
0
220
0
230
1
3
Standard
100
AcDbAlignedDimension
13
44
23
0
33
0
14
25.880273
24
3
34
0
50
0
100
AcDbRotatedDimension
1001
ACAD
1000
DSTYLE
1002
{
1070
   371
1070
    13
1070
   372
1070
    13
1070
     3
1000

1070
   170
1070
     0
1070
   144
1040
1.0
1070
   277
1070
     2
1070
   284
1070
     8
1070
   278
1070
    46
1070
   146
1040
1.166667
1070
   345
1005
16
1070
   347
1005
16
1070
   346
1005
16
1070
   344
1005
0
1070
   343
1005
0
1070
   172
1070
     1
1070
    76
1070
     0
1070
    75
1070
     0
1070
   282
1070
     0
1070
   281
1070
     0
1070
    71
1070
     0
1070
    74
1070
     0
1070
   279
1070
     0
1070
   173
1070
     1
1070
   340
1005
19C
1070
   271
1070
     2
1070
   272
1070
     2
1070
    77
1070
     1
1070
    73
1070
     1
1070
   171
1070
     3
1070
   274
1070
     4
1070
   177
1070
     2
1070
   176
1070
     2
1070
   178
1070
     2
1070
    78
1070
     8
1070
    48
1040
-0.1
1070
    41
1040
3.5
1070
   147
1040
1.5
1070
    42
1040
1.5875
1070
    44
1040
2.0
1070
   140
1040
3.0
1002
}
1001
ACAD_DSTYLE_DIM_LINETYPE
1070
   380
1005
16
1001
ACAD_DSTYLE_DIM_EXT1_LINETYPE
1070
   381
1005
16
1001
ACAD_DSTYLE_DIM_EXT2_LINETYPE
1070
   382
1005
16
0
DIMENSION
5
1F9
100
AcDbEntity
8
SK2
62
256
6
ByLayer
370
18
48
1
60
0
100
AcDbDimension
2
_U2
10
-36
20
30.85
30
0
11
4
21
30.85
31
0
70
32
71
1
72
1
41
1
210
0
220
0
230
1
3
Standard
100
AcDbAlignedDimension
13
44
23
0
33
0
14
-36
24
0
34
0
50
0
100
AcDbRotatedDimension
1001
ACAD
1000
DSTYLE
1002
{
1070
   371
1070
    13
1070
   372
1070
    13
1070
     3
1000

1070
   170
1070
     0
1070
   144
1040
1.0
1070
   277
1070
     2
1070
   284
1070
     8
1070
   278
1070
    46
1070
   146
1040
1.166667
1070
   345
1005
16
1070
   347
1005
16
1070
   346
1005
16
1070
   344
1005
0
1070
   343
1005
0
1070
   172
1070
     1
1070
    76
1070
     0
1070
    75
1070
     0
1070
   282
1070
     0
1070
   281
1070
     0
1070
    71
1070
     0
1070
    74
1070
     0
1070
   279
1070
     0
1070
   173
1070
     1
1070
   340
1005
19C
1070
   271
1070
     2
1070
   272
1070
     2
1070
    77
1070
     1
1070
    73
1070
     1
1070
   171
1070
     3
1070
   274
1070
     4
1070
   177
1070
     2
1070
   176
1070
     2
1070
   178
1070
     2
1070
    78
1070
     8
1070
    48
1040
-0.1
1070
    41
1040
3.5
1070
   147
1040
1.5
1070
    42
1040
1.5875
1070
    44
1040
2.0
1070
   140
1040
3.0
1002
}
1001
ACAD_DSTYLE_DIM_LINETYPE
1070
   380
1005
16
1001
ACAD_DSTYLE_DIM_EXT1_LINETYPE
1070
   381
1005
16
1001
ACAD_DSTYLE_DIM_EXT2_LINETYPE
1070
   382
1005
16
0
DIMENSION
5
211
100
AcDbEntity
8
SK2
62
256
6
ByLayer
370
18
48
1
60
0
100
AcDbDimension
2
_U3
10
0.4
20
-13.119027
30
0
11
-17.8
21
-13.119027
31
0
70
32
71
1
72
1
41
1
210
0
220
0
230
1
3
Standard
100
AcDbAlignedDimension
13
-36
23
0
33
0
14
0.4
24
-3
34
0
50
0
100
AcDbRotatedDimension
1001
ACAD
1000
DSTYLE
1002
{
1070
   371
1070
    13
1070
   372
1070
    13
1070
     3
1000

1070
   170
1070
     0
1070
   144
1040
1.0
1070
   277
1070
     2
1070
   284
1070
     8
1070
   278
1070
    46
1070
   146
1040
1.166667
1070
   345
1005
16
1070
   347
1005
16
1070
   346
1005
16
1070
   344
1005
0
1070
   343
1005
0
1070
   172
1070
     1
1070
    76
1070
     0
1070
    75
1070
     0
1070
   282
1070
     0
1070
   281
1070
     0
1070
    71
1070
     0
1070
    74
1070
     0
1070
   279
1070
     0
1070
   173
1070
     1
1070
   340
1005
19C
1070
   271
1070
     2
1070
   272
1070
     2
1070
    77
1070
     1
1070
    73
1070
     1
1070
   171
1070
     3
1070
   274
1070
     4
1070
   177
1070
     2
1070
   176
1070
     2
1070
   178
1070
     2
1070
    78
1070
     8
1070
    48
1040
-0.1
1070
    41
1040
3.5
1070
   147
1040
1.5
1070
    42
1040
1.5875
1070
    44
1040
2.0
1070
   140
1040
3.0
1002
}
1001
ACAD_DSTYLE_DIM_LINETYPE
1070
   380
1005
16
1001
ACAD_DSTYLE_DIM_EXT1_LINETYPE
1070
   381
1005
16
1001
ACAD_DSTYLE_DIM_EXT2_LINETYPE
1070
   382
1005
16
0
DIMENSION
5
229
100
AcDbEntity
8
SK2
62
256
6
ByLayer
370
18
48
1
60
0
100
AcDbDimension
2
_U4
10
41.64
20
-11.5
30
0
11
60.071429
21
-11.5
31
0
70
32
71
1
72
1
41
1
210
0
220
0
230
1
3
Standard
100
AcDbAlignedDimension
13
44
23
0
33
0
14
41.64
24
1.228983
34
0
50
0
100
AcDbRotatedDimension
1001
ACAD
1000
DSTYLE
1002
{
1070
   371
1070
    13
1070
   372
1070
    13
1070
     3
1000

1070
   170
1070
     0
1070
   144
1040
1.0
1070
   277
1070
     2
1070
   284
1070
     8
1070
   278
1070
    46
1070
   146
1040
1.166667
1070
   345
1005
16
1070
   347
1005
16
1070
   346
1005
16
1070
   344
1005
0
1070
   343
1005
0
1070
   172
1070
     1
1070
    76
1070
     0
1070
    75
1070
     0
1070
   282
1070
     0
1070
   281
1070
     0
1070
    71
1070
     0
1070
    74
1070
     0
1070
   279
1070
     0
1070
   173
1070
     1
1070
   340
1005
19C
1070
   271
1070
     2
1070
   272
1070
     2
1070
    77
1070
     1
1070
    73
1070
     1
1070
   171
1070
     3
1070
   274
1070
     4
1070
   177
1070
     2
1070
   176
1070
     2
1070
   178
1070
     2
1070
    78
1070
     8
1070
    48
1040
-0.1
1070
    41
1040
3.5
1070
   147
1040
1.5
1070
    42
1040
1.5875
1070
    44
1040
2.0
1070
   140
1040
3.0
1002
}
1001
ACAD_DSTYLE_DIM_LINETYPE
1070
   380
1005
16
1001
ACAD_DSTYLE_DIM_EXT1_LINETYPE
1070
   381
1005
16
1001
ACAD_DSTYLE_DIM_EXT2_LINETYPE
1070
   382
1005
16
0
ENDSEC
0
SECTION
2
OBJECTS
0
DICTIONARY
5
2b3
330
0
100
AcDbDictionary
280
0
281
1
3
ACAD_GROUP
350
2b4
3
ACAD_MLINESTYLE
350
2b5
0
DICTIONARY
5
2b4
330
0
100
AcDbDictionary
280
0
281
1
0
DICTIONARY
5
2b5
330
0
100
AcDbDictionary
280
0
281
1
3
Standard
350
18
0
MLINESTYLE
5
18
330
2b5
100
AcDbMlineStyle
2
Standard
70
0
3

62
256
51
90
52
90
71
2
49
-0.5
62
256
6
ByLayer
49
0.5
62
256
6
ByLayer
0
RASTERVARIABLES
5
2a1
330

100
AcDbRasterVariables
90
0
70
1
71
1
72
1
0
ENDSEC
0
EOF
