0
SECTION
2
HEADER
9
$ACADVER
1
AC1015
9
$DWGCODEPAGE
3
ANSI_1252
9
$HANDSEED
5
2fc
9
$ANGBASE
50
0
9
$ANGDIR
70
0
9
$ATTMODE
70
1
9
$AUNITS
70
0
9
$AUPREC
70
0
9
$CECOLOR
62
256
9
$CELTSCALE
40
1
9
$CELTYPE
6
ByLayer
9
$CELWEIGHT
370
18
9
$CLAYER
8
0
9
$CMLJUST
70
0
9
$CMLSCALE
40
1
9
$CMLSTYLE
2
Standard
9
$DIMSTYLE
2
Standard
9
$TEXTSIZE
40
0.2
9
$TEXTSTYLE
7
Standard
9
$LUNITS
70
2
9
$LUPREC
70
4
9
$EXTNAMES
290
1
9
$INSUNITS
70
4
9
$LTSCALE
40
1
9
$LWDISPLAY
290
1
9
$PDMODE
70
0
9
$PDSIZE
40
0
9
$PLINEGEN
70
0
0
ENDSEC
0
SECTION
2
CLASSES
0
CLASS
1
RASTERVARIABLES
2
AcDbRasterVariables
3
ISM
90
0
280
0
281
0
0
ENDSEC
0
SECTION
2
TABLES
0
TABLE
2
VPORT
5
2f2
100
AcDbSymbolTable
0
VPORT
5
1
100
AcDbSymbolTableRecord
100
AcDbViewportTableRecord
2
*Active
70
0
10
0
20
0
11
1
21
1
12
-1
22
1
13
0
23
0
14
0.5
24
0.5
15
10
25
10
16
0
26
0
36
1
17
0
27
0
37
0
0
ENDTAB
0
TABLE
2
LTYPE
5
2f3
100
AcDbSymbolTable
0
LTYPE
5
14
100
AcDbSymbolTableRecord
100
AcDbLinetypeTableRecord
70
0
2
ByBlock
3

72
65
73
0
40
0
0
LTYPE
5
15
100
AcDbSymbolTableRecord
100
AcDbLinetypeTableRecord
70
0
2
ByLayer
3

72
65
73
0
40
0
0
LTYPE
5
16
100
AcDbSymbolTableRecord
100
AcDbLinetypeTableRecord
70
0
2
Continuous
3
Solid line
72
65
73
0
40
0
0
LTYPE
5
6E
100
AcDbSymbolTableRecord
100
AcDbLinetypeTableRecord
70
0
2
CENTER
3
____ _ ____ _ ____ _ ____
72
65
73
4
40
47.5
49
22
74
0
49
-8.5
74
0
49
8.5
74
0
49
-8.5
74
0
0
LTYPE
5
6F
100
AcDbSymbolTableRecord
100
AcDbLinetypeTableRecord
70
0
2
DASHED
3
__ __ __ __ __ __ __ __ __
72
65
73
2
40
25.72
49
12.86
74
0
49
-12.86
74
0
0
ENDTAB
0
TABLE
2
LAYER
5
2f4
100
AcDbSymbolTable
0
LAYER
5
10
100
AcDbSymbolTableRecord
100
AcDbLayerTableRecord
2
0
70
0
62
7
6
Continuous
290
1
370
-3
390
0
0
LAYER
5
71
100
AcDbSymbolTableRecord
100
AcDbLayerTableRecord
2
81
70
0
62
-3
6
Continuous
290
1
370
-3
390
0
0
LAYER
5
73
100
AcDbSymbolTableRecord
100
AcDbLayerTableRecord
2
80
70
0
62
-6
6
Continuous
290
1
370
-3
390
0
0
LAYER
5
75
100
AcDbSymbolTableRecord
100
AcDbLayerTableRecord
2
1
70
0
62
4
6
Continuous
290
1
370
-3
390
0
0
LAYER
5
84
100
AcDbSymbolTableRecord
100
AcDbLayerTableRecord
2
4
70
0
62
-2
6
CENTER
290
1
370
-3
390
0
0
LAYER
5
101
100
AcDbSymbolTableRecord
100
AcDbLayerTableRecord
2
2
70
0
62
7
6
Continuous
290
1
370
-3
390
0
0
LAYER
5
207
100
AcDbSymbolTableRecord
100
AcDbLayerTableRecord
2
Defpoints
70
0
62
7
6
Continuous
290
0
370
-3
390
0
0
LAYER
5
2de
100
AcDbSymbolTableRecord
100
AcDbLayerTableRecord
2
SK4
70
0
62
2
6
CENTER
290
1
370
-3
390
0
0
LAYER
5
2df
100
AcDbSymbolTableRecord
100
AcDbLayerTableRecord
2
SK1
70
0
62
4
6
Continuous
290
1
370
-3
390
0
0
LAYER
5
2e0
100
AcDbSymbolTableRecord
100
AcDbLayerTableRecord
2
SK2
70
0
62
7
6
Continuous
290
1
370
-3
390
0
0
LAYER
5
2e1
100
AcDbSymbolTableRecord
100
AcDbLayerTableRecord
2
SK6
70
0
62
5
6
Continuous
290
1
370
-3
390
0
0
ENDTAB
0
TABLE
2
STYLE
5
2f5
100
AcDbSymbolTable
0
STYLE
5
11
100
AcDbSymbolTableRecord
100
AcDbTextStyleTableRecord
2
Standard
3
txt
70
0
71
0
40
0
41
1
42
0
50
0
0
STYLE
5
1D9
100
AcDbSymbolTableRecord
100
AcDbTextStyleTableRecord
2
iso_b_vert
3
simplex.shx
70
0
71
0
40
0
41
1
42
0
50
0
0
STYLE
5
1DA
100
AcDbSymbolTableRecord
100
AcDbTextStyleTableRecord
2
DWGDirectTextStyle
3
simplex
70
0
71
0
40
0
41
1
42
0
50
0
0
ENDTAB
0
TABLE
2
DIMSTYLE
5
2f6
100
AcDbSymbolTable
100
AcDbDimStyleTable
0
DIMSTYLE
105
27
100
AcDbSymbolTableRecord
100
AcDbDimStyleTableRecord
2
Standard
70
0
3
<>
41
0.18
42
0.0625
44
0.18
140
0.18
147
0.09
73
0
74
0
77
1
271
2
275
0
278
52
280
0
340
11
0
ENDTAB
0
TABLE
2
VIEW
5
2f7
100
AcDbSymbolTable
0
ENDTAB
0
TABLE
2
UCS
5
2f8
100
AcDbSymbolTable
0
ENDTAB
0
TABLE
2
APPID
5
2f9
100
AcDbSymbolTable
0
APPID
5
12
100
AcDbSymbolTableRecord
100
AcDbRegAppTableRecord
2
ACAD
70
0
0
APPID
5
203
100
AcDbSymbolTableRecord
100
AcDbRegAppTableRecord
2
ACAD_DSTYLE_DIMBREAK
70
0
0
APPID
5
29D
100
AcDbSymbolTableRecord
100
AcDbRegAppTableRecord
2
ACAD_DSTYLE_DIM_LINETYPE
70
0
0
APPID
5
29E
100
AcDbSymbolTableRecord
100
AcDbRegAppTableRecord
2
ACAD_DSTYLE_DIM_EXT1_LINETYPE
70
0
0
APPID
5
29F
100
AcDbSymbolTableRecord
100
AcDbRegAppTableRecord
2
ACAD_DSTYLE_DIM_EXT2_LINETYPE
70
0
0
APPID
5
2DA
100
AcDbSymbolTableRecord
100
AcDbRegAppTableRecord
2
ACAD_MLEADERVER
70
0
0
ENDTAB
0
TABLE
2
BLOCK_RECORD
5
2fa
100
AcDbSymbolTable
0
BLOCK_RECORD
5
1F
100
AcDbSymbolTableRecord
100
AcDbBlockTableRecord
2
*Model_Space
340
0
70
0
0
BLOCK_RECORD
5
1B
100
AcDbSymbolTableRecord
100
AcDbBlockTableRecord
2
*Paper_Space
340
0
70
0
0
BLOCK_RECORD
5
23
100
AcDbSymbolTableRecord
100
AcDbBlockTableRecord
2
*Paper_Space0
340
0
70
0
0
BLOCK_RECORD
5
208
100
AcDbSymbolTableRecord
100
AcDbBlockTableRecord
2
*D1
340
0
70
0
0
BLOCK_RECORD
5
214
100
AcDbSymbolTableRecord
100
AcDbBlockTableRecord
2
_U0
340
0
70
0
0
BLOCK_RECORD
5
220
100
AcDbSymbolTableRecord
100
AcDbBlockTableRecord
2
*D3
340
0
70
0
0
BLOCK_RECORD
5
22C
100
AcDbSymbolTableRecord
100
AcDbBlockTableRecord
2
_U1
340
0
70
0
0
BLOCK_RECORD
5
238
100
AcDbSymbolTableRecord
100
AcDbBlockTableRecord
2
*D5
340
0
70
0
0
BLOCK_RECORD
5
244
100
AcDbSymbolTableRecord
100
AcDbBlockTableRecord
2
_U2
340
0
70
0
0
BLOCK_RECORD
5
250
100
AcDbSymbolTableRecord
100
AcDbBlockTableRecord
2
*D7
340
0
70
0
0
BLOCK_RECORD
5
25C
100
AcDbSymbolTableRecord
100
AcDbBlockTableRecord
2
_U3
340
0
70
0
0
BLOCK_RECORD
5
268
100
AcDbSymbolTableRecord
100
AcDbBlockTableRecord
2
*D9
340
0
70
0
0
BLOCK_RECORD
5
276
100
AcDbSymbolTableRecord
100
AcDbBlockTableRecord
2
_U4
340
0
70
0
0
ENDTAB
0
ENDSEC
0
SECTION
2
BLOCKS
0
BLOCK
5
20
100
AcDbEntity
8
0
100
AcDbBlockBegin
2
*Model_Space
70
0
10
0
20
0
30
0
3
*Model_Space
0
ENDBLK
5
21
100
AcDbEntity
8
0
100
AcDbBlockEnd
0
BLOCK
5
1C
100
AcDbEntity
8
0
100
AcDbBlockBegin
2
*Paper_Space
70
0
10
0
20
0
30
0
3
*Paper_Space
0
ENDBLK
5
1D
100
AcDbEntity
8
0
100
AcDbBlockEnd
0
BLOCK
5
24
100
AcDbEntity
8
0
100
AcDbBlockBegin
2
*Paper_Space0
70
0
10
0
20
0
30
0
3
*Paper_Space0
0
ENDBLK
5
25
100
AcDbEntity
8
0
100
AcDbBlockEnd
0
BLOCK
5
209
100
AcDbEntity
8
0
100
AcDbBlockBegin
2
*D1
70
1
10
0
20
0
30
0
3
*D1
0
LINE
5
20B
100
AcDbEntity
8
0
62
256
6
ByLayer
370
-2
48
1
60
0
100
AcDbLine
10
44
20
1.5875
30
0
11
44
21
12.85
31
0
39
0
210
0
220
0
230
1
0
LINE
5
20C
100
AcDbEntity
8
0
62
256
6
ByLayer
370
-2
48
1
60
0
100
AcDbLine
10
26.5
20
3.635339
30
0
11
26.5
21
12.85
31
0
39
0
210
0
220
0
230
1
0
LINE
5
20D
100
AcDbEntity
8
0
62
256
6
ByLayer
370
-2
48
1
60
0
100
AcDbLine
10
40.5
20
10.85
30
0
11
30
21
10.85
31
0
39
0
210
0
220
0
230
1
0
SOLID
5
20E
100
AcDbEntity
8
0
62
256
6
ByLayer
370
-1
48
1
60
0
100
AcDbTrace
10
40.5
20
10.266667
30
0
11
40.5
21
11.433333
31
0
12
44
22
10.85
32
0
13
44
23
10.85
33
0
39
0
210
0
220
0
230
1
0
SOLID
5
20F
100
AcDbEntity
8
0
62
256
6
ByLayer
370
-1
48
1
60
0
100
AcDbTrace
10
30
20
11.433333
30
0
11
30
21
10.266667
31
0
12
26.5
22
10.85
32
0
13
26.5
23
10.85
33
0
39
0
210
0
220
0
230
1
0
MTEXT
5
210
100
AcDbEntity
8
0
62
256
6
ByLayer
370
18
48
1
60
0
100
AcDbMText
10
35.25
20
16.85
30
0
210
0
220
0
230
1
1
\A1;17.5
40
3
41
0
44
1
50
0
71
5
72
5
7
iso_b_vert
0
POINT
5
211
100
AcDbEntity
8
Defpoints
62
0
6
ByLayer
370
-1
48
1
60
0
100
AcDbPoint
10
44
20
0
30
0
39
0
210
0
220
0
230
1
50
360
0
POINT
5
212
100
AcDbEntity
8
Defpoints
62
0
6
ByLayer
370
-1
48
1
60
0
100
AcDbPoint
10
26.5
20
2.047839
30
0
39
0
210
0
220
0
230
1
50
360
0
POINT
5
213
100
AcDbEntity
8
Defpoints
62
0
6
ByLayer
370
-1
48
1
60
0
100
AcDbPoint
10
26.5
20
10.85
30
0
39
0
210
0
220
0
230
1
50
360
0
ENDBLK
5
20A
100
AcDbEntity
8
0
100
AcDbBlockEnd
0
BLOCK
5
21B
100
AcDbEntity
8
0
100
AcDbBlockBegin
2
_U0
70
0
10
0
20
0
30
0
3
_U0
0
MTEXT
5
215
100
AcDbEntity
8
2
62
256
6
ByLayer
370
18
48
1
60
0
100
AcDbMText
10
31.142572
20
11.735114
30
0
210
0
220
0
230
1
1
\W0.6864;17.50
40
3
41
0
44
1.084337
50
0
71
7
72
5
7
iso_b_vert
0
LINE
5
216
100
AcDbEntity
8
2
62
256
6
ByLayer
370
13
48
1
60
0
100
AcDbLine
10
44
20
1.5875
30
0
11
44
21
12.85
31
0
39
0
210
0
220
0
230
1
0
LINE
5
217
100
AcDbEntity
8
2
62
256
6
ByLayer
370
13
48
1
60
0
100
AcDbLine
10
26.5
20
3.635339
30
0
11
26.5
21
12.85
31
0
39
0
210
0
220
0
230
1
0
LINE
5
218
100
AcDbEntity
8
2
62
256
6
ByLayer
370
13
48
1
60
0
100
AcDbLine
10
44
20
10.85
30
0
11
26.5
21
10.85
31
0
39
0
210
0
220
0
230
1
0
SOLID
5
219
100
AcDbEntity
8
2
62
256
6
ByLayer
370
18
48
1
60
0
100
AcDbTrace
10
44
20
10.85
30
0
11
40.500002
21
10.389216
31
0
12
40.499998
22
11.310784
32
0
13
40.499998
23
11.310784
33
0
39
0
210
0
220
0
230
1
0
SOLID
5
21A
100
AcDbEntity
8
2
62
256
6
ByLayer
370
18
48
1
60
0
100
AcDbTrace
10
26.5
20
10.85
30
0
11
29.999998
21
11.310784
31
0
12
30.000002
22
10.389216
32
0
13
30.000002
23
10.389216
33
0
39
0
210
0
220
0
230
1
0
ENDBLK
5
21C
100
AcDbEntity
8
0
100
AcDbBlockEnd
0
BLOCK
5
221
100
AcDbEntity
8
0
100
AcDbBlockBegin
2
*D3
70
1
10
0
20
0
30
0
3
*D3
0
LINE
5
223
100
AcDbEntity
8
0
62
256
6
ByLayer
370
-2
48
1
60
0
100
AcDbLine
10
44
20
1.5875
30
0
11
44
21
22.85
31
0
39
0
210
0
220
0
230
1
0
LINE
5
224
100
AcDbEntity
8
0
62
256
6
ByLayer
370
-2
48
1
60
0
100
AcDbLine
10
13.960764
20
4.5875
30
0
11
13.960764
21
22.85
31
0
39
0
210
0
220
0
230
1
0
LINE
5
225
100
AcDbEntity
8
0
62
256
6
ByLayer
370
-2
48
1
60
0
100
AcDbLine
10
40.5
20
20.85
30
0
11
17.460764
21
20.85
31
0
39
0
210
0
220
0
230
1
0
SOLID
5
226
100
AcDbEntity
8
0
62
256
6
ByLayer
370
-1
48
1
60
0
100
AcDbTrace
10
40.5
20
20.266667
30
0
11
40.5
21
21.433333
31
0
12
44
22
20.85
32
0
13
44
23
20.85
33
0
39
0
210
0
220
0
230
1
0
SOLID
5
227
100
AcDbEntity
8
0
62
256
6
ByLayer
370
-1
48
1
60
0
100
AcDbTrace
10
17.460764
20
21.433333
30
0
11
17.460764
21
20.266667
31
0
12
13.960764
22
20.85
32
0
13
13.960764
23
20.85
33
0
39
0
210
0
220
0
230
1
0
MTEXT
5
228
100
AcDbEntity
8
0
62
256
6
ByLayer
370
18
48
1
60
0
100
AcDbMText
10
28.980382
20
26.85
30
0
210
0
220
0
230
1
1
\A1;30.04
40
3
41
0
44
1
50
0
71
5
72
5
7
iso_b_vert
0
POINT
5
229
100
AcDbEntity
8
Defpoints
62
0
6
ByLayer
370
-1
48
1
60
0
100
AcDbPoint
10
44
20
0
30
0
39
0
210
0
220
0
230
1
50
360
0
POINT
5
22A
100
AcDbEntity
8
Defpoints
62
0
6
ByLayer
370
-1
48
1
60
0
100
AcDbPoint
10
13.960764
20
3
30
0
39
0
210
0
220
0
230
1
50
360
0
POINT
5
22B
100
AcDbEntity
8
Defpoints
62
0
6
ByLayer
370
-1
48
1
60
0
100
AcDbPoint
10
13.960764
20
20.85
30
0
39
0
210
0
220
0
230
1
50
360
0
ENDBLK
5
222
100
AcDbEntity
8
0
100
AcDbBlockEnd
0
BLOCK
5
233
100
AcDbEntity
8
0
100
AcDbBlockBegin
2
_U1
70
0
10
0
20
0
30
0
3
_U1
0
MTEXT
5
22D
100
AcDbEntity
8
2
62
256
6
ByLayer
370
18
48
1
60
0
100
AcDbMText
10
27.347554
20
21.735114
30
0
210
0
220
0
230
1
1
\W0.6740;30
40
3
41
0
44
1.084337
50
0
71
7
72
5
7
iso_b_vert
0
LINE
5
22E
100
AcDbEntity
8
2
62
256
6
ByLayer
370
13
48
1
60
0
100
AcDbLine
10
44
20
1.5875
30
0
11
44
21
22.85
31
0
39
0
210
0
220
0
230
1
0
LINE
5
22F
100
AcDbEntity
8
2
62
256
6
ByLayer
370
13
48
1
60
0
100
AcDbLine
10
13.960764
20
4.5875
30
0
11
13.960764
21
22.85
31
0
39
0
210
0
220
0
230
1
0
LINE
5
230
100
AcDbEntity
8
2
62
256
6
ByLayer
370
13
48
1
60
0
100
AcDbLine
10
44
20
20.85
30
0
11
13.960764
21
20.85
31
0
39
0
210
0
220
0
230
1
0
SOLID
5
231
100
AcDbEntity
8
2
62
256
6
ByLayer
370
18
48
1
60
0
100
AcDbTrace
10
44
20
20.85
30
0
11
40.500002
21
20.389216
31
0
12
40.499998
22
21.310784
32
0
13
40.499998
23
21.310784
33
0
39
0
210
0
220
0
230
1
0
SOLID
5
232
100
AcDbEntity
8
2
62
256
6
ByLayer
370
18
48
1
60
0
100
AcDbTrace
10
13.960764
20
20.85
30
0
11
17.460762
21
21.310784
31
0
12
17.460765
22
20.389216
32
0
13
17.460765
23
20.389216
33
0
39
0
210
0
220
0
230
1
0
ENDBLK
5
234
100
AcDbEntity
8
0
100
AcDbBlockEnd
0
BLOCK
5
239
100
AcDbEntity
8
0
100
AcDbBlockBegin
2
*D5
70
1
10
0
20
0
30
0
3
*D5
0
LINE
5
23B
100
AcDbEntity
8
0
62
256
6
ByLayer
370
-2
48
1
60
0
100
AcDbLine
10
44
20
1.5875
30
0
11
44
21
32.85
31
0
39
0
210
0
220
0
230
1
0
LINE
5
23C
100
AcDbEntity
8
0
62
256
6
ByLayer
370
-2
48
1
60
0
100
AcDbLine
10
-36
20
1.5875
30
0
11
-36
21
32.85
31
0
39
0
210
0
220
0
230
1
0
LINE
5
23D
100
AcDbEntity
8
0
62
256
6
ByLayer
370
-2
48
1
60
0
100
AcDbLine
10
40.5
20
30.85
30
0
11
-32.5
21
30.85
31
0
39
0
210
0
220
0
230
1
0
SOLID
5
23E
100
AcDbEntity
8
0
62
256
6
ByLayer
370
-1
48
1
60
0
100
AcDbTrace
10
40.5
20
30.266667
30
0
11
40.5
21
31.433333
31
0
12
44
22
30.85
32
0
13
44
23
30.85
33
0
39
0
210
0
220
0
230
1
0
SOLID
5
23F
100
AcDbEntity
8
0
62
256
6
ByLayer
370
-1
48
1
60
0
100
AcDbTrace
10
-32.5
20
31.433333
30
0
11
-32.5
21
30.266667
31
0
12
-36
22
30.85
32
0
13
-36
23
30.85
33
0
39
0
210
0
220
0
230
1
0
MTEXT
5
240
100
AcDbEntity
8
0
62
256
6
ByLayer
370
18
48
1
60
0
100
AcDbMText
10
4
20
36.85
30
0
210
0
220
0
230
1
1
\A1;80
40
3
41
0
44
1
50
0
71
5
72
5
7
iso_b_vert
0
POINT
5
241
100
AcDbEntity
8
Defpoints
62
0
6
ByLayer
370
-1
48
1
60
0
100
AcDbPoint
10
44
20
0
30
0
39
0
210
0
220
0
230
1
50
360
0
POINT
5
242
100
AcDbEntity
8
Defpoints
62
0
6
ByLayer
370
-1
48
1
60
0
100
AcDbPoint
10
-36
20
0
30
0
39
0
210
0
220
0
230
1
50
360
0
POINT
5
243
100
AcDbEntity
8
Defpoints
62
0
6
ByLayer
370
-1
48
1
60
0
100
AcDbPoint
10
-36
20
30.85
30
0
39
0
210
0
220
0
230
1
50
360
0
ENDBLK
5
23A
100
AcDbEntity
8
0
100
AcDbBlockEnd
0
BLOCK
5
24B
100
AcDbEntity
8
0
100
AcDbBlockBegin
2
_U2
70
0
10
0
20
0
30
0
3
_U2
0
MTEXT
5
245
100
AcDbEntity
8
SK2
62
256
6
ByLayer
370
18
48
1
60
0
100
AcDbMText
10
2.367172
20
31.735114
30
0
210
0
220
0
230
1
1
\W0.6740;80
40
3
41
0
44
1.084337
50
0
71
7
72
5
7
iso_b_vert
0
LINE
5
246
100
AcDbEntity
8
SK2
62
256
6
ByLayer
370
13
48
1
60
0
100
AcDbLine
10
44
20
1.5875
30
0
11
44
21
32.85
31
0
39
0
210
0
220
0
230
1
0
LINE
5
247
100
AcDbEntity
8
SK2
62
256
6
ByLayer
370
13
48
1
60
0
100
AcDbLine
10
-36
20
1.5875
30
0
11
-36
21
32.85
31
0
39
0
210
0
220
0
230
1
0
LINE
5
248
100
AcDbEntity
8
SK2
62
256
6
ByLayer
370
13
48
1
60
0
100
AcDbLine
10
44
20
30.85
30
0
11
-36
21
30.85
31
0
39
0
210
0
220
0
230
1
0
SOLID
5
249
100
AcDbEntity
8
SK2
62
256
6
ByLayer
370
18
48
1
60
0
100
AcDbTrace
10
44
20
30.85
30
0
11
40.500002
21
30.389216
31
0
12
40.499998
22
31.310784
32
0
13
40.499998
23
31.310784
33
0
39
0
210
0
220
0
230
1
0
SOLID
5
24A
100
AcDbEntity
8
SK2
62
256
6
ByLayer
370
18
48
1
60
0
100
AcDbTrace
10
-36
20
30.85
30
0
11
-32.500002
21
31.310784
31
0
12
-32.499998
22
30.389216
32
0
13
-32.499998
23
30.389216
33
0
39
0
210
0
220
0
230
1
0
ENDBLK
5
24C
100
AcDbEntity
8
0
100
AcDbBlockEnd
0
BLOCK
5
251
100
AcDbEntity
8
0
100
AcDbBlockBegin
2
*D7
70
1
10
0
20
0
30
0
3
*D7
0
LINE
5
253
100
AcDbEntity
8
0
62
256
6
ByLayer
370
-2
48
1
60
0
100
AcDbLine
10
-36
20
-1.5875
30
0
11
-36
21
-16.939663
31
0
39
0
210
0
220
0
230
1
0
LINE
5
254
100
AcDbEntity
8
0
62
256
6
ByLayer
370
-2
48
1
60
0
100
AcDbLine
10
0.4
20
-4.5875
30
0
11
0.4
21
-16.939663
31
0
39
0
210
0
220
0
230
1
0
LINE
5
255
100
AcDbEntity
8
0
62
256
6
ByLayer
370
-2
48
1
60
0
100
AcDbLine
10
-32.5
20
-14.939663
30
0
11
-3.1
21
-14.939663
31
0
39
0
210
0
220
0
230
1
0
SOLID
5
256
100
AcDbEntity
8
0
62
256
6
ByLayer
370
-1
48
1
60
0
100
AcDbTrace
10
-32.5
20
-14.35633
30
0
11
-32.5
21
-15.522997
31
0
12
-36
22
-14.939663
32
0
13
-36
23
-14.939663
33
0
39
0
210
0
220
0
230
1
0
SOLID
5
257
100
AcDbEntity
8
0
62
256
6
ByLayer
370
-1
48
1
60
0
100
AcDbTrace
10
-3.1
20
-15.522997
30
0
11
-3.1
21
-14.35633
31
0
12
0.4
22
-14.939663
32
0
13
0.4
23
-14.939663
33
0
39
0
210
0
220
0
230
1
0
MTEXT
5
258
100
AcDbEntity
8
0
62
256
6
ByLayer
370
18
48
1
60
0
100
AcDbMText
10
-17.8
20
-8.939663
30
0
210
0
220
0
230
1
1
\A1;36.4
40
3
41
0
44
1
50
0
71
5
72
5
7
iso_b_vert
0
POINT
5
259
100
AcDbEntity
8
Defpoints
62
0
6
ByLayer
370
-1
48
1
60
0
100
AcDbPoint
10
-36
20
0
30
0
39
0
210
0
220
0
230
1
50
360
0
POINT
5
25A
100
AcDbEntity
8
Defpoints
62
0
6
ByLayer
370
-1
48
1
60
0
100
AcDbPoint
10
0.4
20
-3
30
0
39
0
210
0
220
0
230
1
50
360
0
POINT
5
25B
100
AcDbEntity
8
Defpoints
62
0
6
ByLayer
370
-1
48
1
60
0
100
AcDbPoint
10
0.4
20
-14.939663
30
0
39
0
210
0
220
0
230
1
50
360
0
ENDBLK
5
252
100
AcDbEntity
8
0
100
AcDbBlockEnd
0
BLOCK
5
263
100
AcDbEntity
8
0
100
AcDbBlockBegin
2
_U3
70
0
10
0
20
0
30
0
3
_U3
0
MTEXT
5
25D
100
AcDbEntity
8
SK2
62
256
6
ByLayer
370
18
48
1
60
0
100
AcDbMText
10
-25.364913
20
-14.054549
30
0
210
0
220
0
230
1
1
\W0.7245;(MIN. 36)
40
3
41
0
44
1.084337
50
0
71
7
72
5
7
iso_b_vert
0
LINE
5
25E
100
AcDbEntity
8
SK2
62
256
6
ByLayer
370
13
48
1
60
0
100
AcDbLine
10
-36
20
-1.5875
30
0
11
-36
21
-16.939663
31
0
39
0
210
0
220
0
230
1
0
LINE
5
25F
100
AcDbEntity
8
SK2
62
256
6
ByLayer
370
13
48
1
60
0
100
AcDbLine
10
0.4
20
-4.5875
30
0
11
0.4
21
-16.939663
31
0
39
0
210
0
220
0
230
1
0
LINE
5
260
100
AcDbEntity
8
SK2
62
256
6
ByLayer
370
13
48
1
60
0
100
AcDbLine
10
-36
20
-14.939663
30
0
11
0.4
21
-14.939663
31
0
39
0
210
0
220
0
230
1
0
SOLID
5
261
100
AcDbEntity
8
SK2
62
256
6
ByLayer
370
18
48
1
60
0
100
AcDbTrace
10
-36
20
-14.939663
30
0
11
-32.500002
21
-14.478879
31
0
12
-32.499998
22
-15.400447
32
0
13
-32.499998
23
-15.400447
33
0
39
0
210
0
220
0
230
1
0
SOLID
5
262
100
AcDbEntity
8
SK2
62
256
6
ByLayer
370
18
48
1
60
0
100
AcDbTrace
10
0.4
20
-14.939663
30
0
11
-3.099998
21
-15.400447
31
0
12
-3.100002
22
-14.478879
32
0
13
-3.100002
23
-14.478879
33
0
39
0
210
0
220
0
230
1
0
ENDBLK
5
264
100
AcDbEntity
8
0
100
AcDbBlockEnd
0
BLOCK
5
269
100
AcDbEntity
8
0
100
AcDbBlockBegin
2
*D9
70
1
10
0
20
0
30
0
3
*D9
0
LINE
5
26B
100
AcDbEntity
8
0
62
256
6
ByLayer
370
-2
48
1
60
0
100
AcDbLine
10
44
20
-1.5875
30
0
11
44
21
-13.5
31
0
39
0
210
0
220
0
230
1
0
LINE
5
26C
100
AcDbEntity
8
0
62
256
6
ByLayer
370
-2
48
1
60
0
100
AcDbLine
10
40.066
20
0.460339
30
0
11
40.066
21
-13.5
31
0
39
0
210
0
220
0
230
1
0
LINE
5
26D
100
AcDbEntity
8
0
62
256
6
ByLayer
370
-2
48
1
60
0
100
AcDbLine
10
44
20
-11.5
30
0
11
69.142857
21
-11.5
31
0
39
0
210
0
220
0
230
1
0
LINE
5
26E
100
AcDbEntity
8
0
62
256
6
ByLayer
370
-2
48
1
60
0
100
AcDbLine
10
47.5
20
-11.5
30
0
11
51
21
-11.5
31
0
39
0
210
0
220
0
230
1
0
LINE
5
26F
100
AcDbEntity
8
0
62
256
6
ByLayer
370
-2
48
1
60
0
100
AcDbLine
10
36.566
20
-11.5
30
0
11
33.066
21
-11.5
31
0
39
0
210
0
220
0
230
1
0
SOLID
5
270
100
AcDbEntity
8
0
62
256
6
ByLayer
370
-1
48
1
60
0
100
AcDbTrace
10
47.5
20
-10.916667
30
0
11
47.5
21
-12.083333
31
0
12
44
22
-11.5
32
0
13
44
23
-11.5
33
0
39
0
210
0
220
0
230
1
0
SOLID
5
271
100
AcDbEntity
8
0
62
256
6
ByLayer
370
-1
48
1
60
0
100
AcDbTrace
10
36.566
20
-12.083333
30
0
11
36.566
21
-10.916667
31
0
12
40.066
22
-11.5
32
0
13
40.066
23
-11.5
33
0
39
0
210
0
220
0
230
1
0
MTEXT
5
272
100
AcDbEntity
8
0
62
256
6
ByLayer
370
18
48
1
60
0
100
AcDbMText
10
60.071429
20
-5.5
30
0
210
0
220
0
230
1
1
\A1;3.93
40
3
41
0
44
1
50
0
71
5
72
5
7
iso_b_vert
0
POINT
5
273
100
AcDbEntity
8
Defpoints
62
0
6
ByLayer
370
-1
48
1
60
0
100
AcDbPoint
10
44
20
0
30
0
39
0
210
0
220
0
230
1
50
360
0
POINT
5
274
100
AcDbEntity
8
Defpoints
62
0
6
ByLayer
370
-1
48
1
60
0
100
AcDbPoint
10
40.066
20
2.047839
30
0
39
0
210
0
220
0
230
1
50
360
0
POINT
5
275
100
AcDbEntity
8
Defpoints
62
0
6
ByLayer
370
-1
48
1
60
0
100
AcDbPoint
10
40.066
20
-11.5
30
0
39
0
210
0
220
0
230
1
50
360
0
ENDBLK
5
26A
100
AcDbEntity
8
0
100
AcDbBlockEnd
0
BLOCK
5
27D
100
AcDbEntity
8
0
100
AcDbBlockBegin
2
_U4
70
0
10
0
20
0
30
0
3
_U4
0
MTEXT
5
277
100
AcDbEntity
8
SK2
62
256
6
ByLayer
370
18
48
1
60
0
100
AcDbMText
10
54.159
20
-10.614886
30
0
210
0
220
0
230
1
1
\W0.7346;3.93
40
3
41
0
44
1.084337
50
0
71
7
72
5
7
iso_b_vert
0
LINE
5
278
100
AcDbEntity
8
SK2
62
256
6
ByLayer
370
13
48
1
60
0
100
AcDbLine
10
44
20
-1.5875
30
0
11
44
21
-13.5
31
0
39
0
210
0
220
0
230
1
0
LINE
5
279
100
AcDbEntity
8
SK2
62
256
6
ByLayer
370
13
48
1
60
0
100
AcDbLine
10
40.066
20
0.460339
30
0
11
40.066
21
-13.5
31
0
39
0
210
0
220
0
230
1
0
LINE
5
27A
100
AcDbEntity
8
SK2
62
256
6
ByLayer
370
13
48
1
60
0
100
AcDbLine
10
32.566
20
-11.5
30
0
11
61.040913
21
-11.5
31
0
39
0
210
0
220
0
230
1
0
SOLID
5
27B
100
AcDbEntity
8
SK2
62
256
6
ByLayer
370
18
48
1
60
0
100
AcDbTrace
10
44
20
-11.5
30
0
11
47.499998
21
-11.039216
31
0
12
47.500002
22
-11.960784
32
0
13
47.500002
23
-11.960784
33
0
39
0
210
0
220
0
230
1
0
SOLID
5
27C
100
AcDbEntity
8
SK2
62
256
6
ByLayer
370
18
48
1
60
0
100
AcDbTrace
10
40.066
20
-11.5
30
0
11
36.566002
21
-11.960784
31
0
12
36.565998
22
-11.039216
32
0
13
36.565998
23
-11.039216
33
0
39
0
210
0
220
0
230
1
0
ENDBLK
5
27E
100
AcDbEntity
8
0
100
AcDbBlockEnd
0
ENDSEC
0
SECTION
2
ENTITIES
0
ARC
5
112
100
AcDbEntity
8
81
62
256
6
ByLayer
370
18
48
1
60
0
100
AcDbCircle
39
0
10
39.608707
20
-5.427981
30
0
40
3.45422823075198
210
0
220
0
230
1
100
AcDbArc
50
90
51
101.888024
0
ARC
5
113
100
AcDbEntity
8
81
62
256
6
ByLayer
370
18
48
1
60
0
100
AcDbCircle
39
0
10
39.908707
20
-2.216188
30
0
40
0.24243517546167
210
0
220
0
230
1
100
AcDbArc
50
49.785108
51
90
0
ARC
5
114
100
AcDbEntity
8
81
62
256
6
ByLayer
370
18
48
1
60
0
100
AcDbCircle
39
0
10
39.908707
20
2.216188
30
0
40
0.24243517546167
210
0
220
0
230
1
100
AcDbArc
50
270
51
310.214892
0
ARC
5
115
100
AcDbEntity
8
81
62
256
6
ByLayer
370
18
48
1
60
0
100
AcDbCircle
39
0
10
39.608707
20
5.427981
30
0
40
3.45422823075198
210
0
220
0
230
1
100
AcDbArc
50
258.111976
51
258.771398
0
ARC
5
116
100
AcDbEntity
8
81
62
256
6
ByLayer
370
18
48
1
60
0
100
AcDbCircle
39
0
10
41.5
20
0
30
0
40
2.4868
210
0
220
0
230
1
100
AcDbArc
50
74.283741
51
125.214892
0
ARC
5
117
100
AcDbEntity
8
81
62
256
6
ByLayer
370
18
48
1
60
0
100
AcDbCircle
39
0
10
41.5
20
0
30
0
40
2.4868
210
0
220
0
230
1
100
AcDbArc
50
18.911365
51
71.427274
0
ARC
5
118
100
AcDbEntity
8
81
62
256
6
ByLayer
370
18
48
1
60
0
100
AcDbCircle
39
0
10
41.5
20
0
30
0
40
2.4868
210
0
220
0
230
1
100
AcDbArc
50
0.978233
51
15.964899
0
ARC
5
119
100
AcDbEntity
8
81
62
256
6
ByLayer
370
18
48
1
60
0
100
AcDbCircle
39
0
10
41.5
20
0
30
0
40
2.4868
210
0
220
0
230
1
100
AcDbArc
50
277.248612
51
358.849594
0
ARC
5
11A
100
AcDbEntity
8
81
62
256
6
ByLayer
370
18
48
1
60
0
100
AcDbCircle
39
0
10
41.5
20
0
30
0
40
2.4868
210
0
220
0
230
1
100
AcDbArc
50
234.785108
51
258.634626
0
ARC
5
11B
100
AcDbEntity
8
1
62
256
6
ByLayer
370
18
48
1
60
0
100
AcDbCircle
39
0
10
26.498789
20
3.048
30
0
40
1
210
0
220
0
230
1
100
AcDbArc
50
265.644761
51
270
0
ARC
5
11C
100
AcDbEntity
8
1
62
256
6
ByLayer
370
18
48
1
60
0
100
AcDbCircle
39
0
10
26.498789
20
-3.048
30
0
40
1
210
0
220
0
230
1
100
AcDbArc
50
90
51
94.355239
0
ARC
5
11D
100
AcDbEntity
8
SK2
62
256
6
ByLayer
370
13
48
1
60
0
100
AcDbCircle
39
0
10
53.468477
20
0
30
0
40
53.2769117228287
210
0
220
0
230
1
100
AcDbArc
50
175.657605
51
188.013096
0
ARC
5
11E
100
AcDbEntity
8
SK2
62
256
6
ByLayer
370
13
48
1
60
0
100
AcDbCircle
39
0
10
53.468477
20
0
30
0
40
53.2769117228287
210
0
220
0
230
1
100
AcDbArc
50
162.375022
51
175.657605
0
ELLIPSE
5
11F
100
AcDbEntity
8
1
62
256
6
ByLayer
370
18
48
1
60
0
100
AcDbEllipse
10
43.825185
20
0.461711
30
0
11
0.0802225667861902
21
0.126013387533104
31
0
210
0
220
0
230
1
40
0.079532
41
1.33978838912825
42
2.48274638826591
0
ELLIPSE
5
120
100
AcDbEntity
8
1
62
256
6
ByLayer
370
18
48
1
60
0
100
AcDbEllipse
10
43.825518
20
-0.565297
30
0
11
0.0748733845364398
21
-0.126349311507785
31
0
210
0
220
0
230
1
40
0.118759
41
2.22239351441317
42
-1.92276345907829
0
ELLIPSE
5
121
100
AcDbEntity
8
1
62
256
6
ByLayer
370
18
48
1
60
0
100
AcDbEllipse
10
39.515054
20
-9.84842
30
0
11
5.44205451782551
21
6.43579574850443
31
0
210
0
220
0
230
1
40
0.894081
41
0.703801885841028
42
0.756599596585944
0
ELLIPSE
5
122
100
AcDbEntity
8
1
62
256
6
ByLayer
370
18
48
1
60
0
100
AcDbEllipse
10
39.569151
20
3.62428
30
0
11
-8.02023437783938
21
2.98517585355986
31
0
210
0
220
0
230
1
40
0.196578
41
1.65465714170171
42
1.69801503281538
0
ELLIPSE
5
123
100
AcDbEntity
8
1
62
256
6
ByLayer
370
18
48
1
60
0
100
AcDbEllipse
10
39.515054
20
3.478938
30
0
11
-7.8988509452446
21
2.93999626466837
31
0
210
0
220
0
230
1
40
0.196578
41
1.64476672657304
42
1.69756443731805
0
ELLIPSE
5
124
100
AcDbEntity
8
1
62
256
6
ByLayer
370
18
48
1
60
0
100
AcDbEllipse
10
39.569151
20
-9.894164
30
0
11
5.52568380293558
21
6.53469608031825
31
0
210
0
220
0
230
1
40
0.894081
41
0.703351290343699
42
0.746709181457305
0
ELLIPSE
5
125
100
AcDbEntity
8
1
62
256
6
ByLayer
370
18
48
1
60
0
100
AcDbEllipse
10
43.960365
20
0
30
0
11
6.3804169651046
21
-0.117365359617413
31
0
210
0
220
0
230
1
40
0.320455
41
-2.6245232526253
42
-2.26170046655962
0
ELLIPSE
5
126
100
AcDbEntity
8
1
62
256
6
ByLayer
370
18
48
1
60
0
100
AcDbEllipse
10
43.960365
20
0
30
0
11
6.3761598003562
21
-1.88613855056803
31
0
210
0
220
0
230
1
40
0.125152
41
-2.59341341948594
42
-2.23059063341902
0
ELLIPSE
5
127
100
AcDbEntity
8
1
62
256
6
ByLayer
370
18
48
1
60
0
100
AcDbEllipse
10
39.51505
20
-6.097072
30
0
11
-7.46772816645027
21
3.90745875072606
31
0
210
0
220
0
230
1
40
0.675102
41
-1.28496562701018
42
-1.23216846694808
0
ELLIPSE
5
128
100
AcDbEntity
8
1
62
256
6
ByLayer
370
18
48
1
60
0
100
AcDbEllipse
10
39.569149
20
-5.993682
30
0
11
-7.58248076723371
21
3.96750258790191
31
0
210
0
220
0
230
1
40
0.675102
41
-1.28541701575941
42
-1.24206186544352
0
ELLIPSE
5
129
100
AcDbEntity
8
1
62
256
6
ByLayer
370
18
48
1
60
0
100
AcDbEllipse
10
43.960365
20
0
30
0
11
6.37406847657762
21
-1.76698495661278
31
0
210
0
220
0
230
1
40
0.162441
41
2.3125955372838
42
2.61155027424149
0
ELLIPSE
5
12A
100
AcDbEntity
8
1
62
256
6
ByLayer
370
18
48
1
60
0
100
AcDbEllipse
10
43.960365
20
0
30
0
11
6.37360590490821
21
1.73150766751693
31
0
210
0
220
0
230
1
40
0.171599
41
-2.67700205494561
42
-2.31417926888593
0
POINT
5
70
100
AcDbEntity
8
81
62
256
6
ByLayer
370
18
48
1
60
0
100
AcDbPoint
10
44
20
0
30
0
39
0
210
0
220
0
230
1
50
360
0
POINT
5
72
100
AcDbEntity
8
80
62
256
6
ByLayer
370
18
48
1
60
0
100
AcDbPoint
10
0
20
0
30
0
39
0
210
0
220
0
230
1
50
360
0
POINT
5
74
100
AcDbEntity
8
1
62
256
6
ByLayer
370
18
48
1
60
1
100
AcDbPoint
10
44
20
0
30
0
39
0
210
0
220
0
230
1
50
360
0
POINT
5
76
100
AcDbEntity
8
1
62
256
6
ByLayer
370
18
48
1
60
1
100
AcDbPoint
10
26.5
20
2.047839
30
0
39
0
210
0
220
0
230
1
50
360
0
POINT
5
77
100
AcDbEntity
8
1
62
256
6
ByLayer
370
18
48
1
60
1
100
AcDbPoint
10
44
20
0
30
0
39
0
210
0
220
0
230
1
50
360
0
POINT
5
78
100
AcDbEntity
8
1
62
256
6
ByLayer
370
18
48
1
60
1
100
AcDbPoint
10
13.960764
20
3
30
0
39
0
210
0
220
0
230
1
50
360
0
POINT
5
79
100
AcDbEntity
8
1
62
256
6
ByLayer
370
18
48
1
60
1
100
AcDbPoint
10
44
20
0
30
0
39
0
210
0
220
0
230
1
50
360
0
POINT
5
7A
100
AcDbEntity
8
1
62
256
6
ByLayer
370
18
48
1
60
1
100
AcDbPoint
10
-36
20
0
30
0
39
0
210
0
220
0
230
1
50
360
0
POINT
5
7B
100
AcDbEntity
8
1
62
256
6
ByLayer
370
18
48
1
60
1
100
AcDbPoint
10
-36
20
0
30
0
39
0
210
0
220
0
230
1
50
360
0
POINT
5
7C
100
AcDbEntity
8
1
62
256
6
ByLayer
370
18
48
1
60
1
100
AcDbPoint
10
0.4
20
-3
30
0
39
0
210
0
220
0
230
1
50
360
0
POINT
5
7D
100
AcDbEntity
8
1
62
256
6
ByLayer
370
18
48
1
60
1
100
AcDbPoint
10
44
20
0
30
0
39
0
210
0
220
0
230
1
50
360
0
POINT
5
7E
100
AcDbEntity
8
1
62
256
6
ByLayer
370
18
48
1
60
1
100
AcDbPoint
10
40.066
20
2.047839
30
0
39
0
210
0
220
0
230
1
50
360
0
SPLINE
5
12B
100
AcDbEntity
8
1
62
256
6
ByLayer
370
18
48
1
60
0
100
AcDbSpline
70
4
71
3
72
8
73
4
40
0
40
0
40
0
40
0
40
1
40
1
40
1
40
1
41
1
10
43.9803626856232
20
-0.0369375131247125
30
0
41
1
10
43.9842079739907
20
-0.0376811448032015
30
0
41
1
10
43.9879848848707
20
-0.0384252023121689
30
0
41
1
10
43.991694740138
20
-0.0391696637281598
30
0
0
SPLINE
5
12C
100
AcDbEntity
8
1
62
256
6
ByLayer
370
18
48
1
60
0
100
AcDbSpline
70
4
71
3
72
12
73
8
40
0
40
0
40
0
40
0
40
0.249999999999863
40
0.249999999999863
40
0.499999999999726
40
0.499999999999726
40
1
40
1
40
1
40
1
41
1
10
42.063482171068
20
2.41739638901717
30
0
41
1
10
42.0590603565879
20
2.41884106145912
30
0
41
1
10
42.0547933936722
20
2.42067119579147
30
0
41
1
10
42.0464181154394
20
2.42471878970846
30
0
41
1
10
42.0423138144308
20
2.42694642810019
30
0
41
1
10
42.0301628947526
20
2.43401700272699
30
0
41
1
10
42.0222754790515
20
2.43924051517462
30
0
41
1
10
42.0145083860797
20
2.44473719568296
30
0
0
SPLINE
5
12D
100
AcDbEntity
8
1
62
256
6
ByLayer
370
18
48
1
60
0
100
AcDbSpline
70
4
71
3
72
8
73
4
40
0
40
0
40
0
40
0
40
1
40
1
40
1
40
1
41
1
10
43.8337963272253
20
0.49677381224754
30
0
41
1
10
43.8338918079031
20
0.497353750189802
30
0
41
1
10
43.8339844855603
20
0.497929408503666
30
0
41
1
10
43.8340743305169
20
0.498500741873642
30
0
0
SPLINE
5
12E
100
AcDbEntity
8
1
62
256
6
ByLayer
370
18
48
1
60
0
100
AcDbSpline
70
4
71
3
72
8
73
4
40
0
40
0
40
0
40
0
40
1
40
1
40
1
40
1
41
1
10
43.8340743305169
20
0.498500741873642
30
0
41
1
10
43.826964397766
20
0.516192333396049
30
0
41
1
10
43.8197858539235
20
0.533863386795872
30
0
41
1
10
43.8125372872152
20
0.551513479470742
30
0
0
SPLINE
5
12F
100
AcDbEntity
8
1
62
256
6
ByLayer
370
18
48
1
60
0
100
AcDbSpline
70
4
71
3
72
8
73
4
40
0
40
0
40
0
40
0
40
1
40
1
40
1
40
1
41
1
10
43.8739836461194
20
0.706123402489794
30
0
41
1
10
43.8852968002511
20
0.672272171364739
30
0
41
1
10
43.8958655593087
20
0.638250956958075
30
0
41
1
10
43.9056875427352
20
0.604059217390301
30
0
0
SPLINE
5
130
100
AcDbEntity
8
1
62
256
6
ByLayer
370
18
48
1
60
0
100
AcDbSpline
70
4
71
3
72
8
73
4
40
0
40
0
40
0
40
0
40
1
40
1
40
1
40
1
41
1
10
43.8125372872152
20
0.551513479470572
30
0
41
1
10
43.8161810963186
20
0.542200141729495
30
0
41
1
10
43.8198147676213
20
0.532883536679833
30
0
41
1
10
43.8234383838793
20
0.523563690993086
30
0
0
SPLINE
5
131
100
AcDbEntity
8
1
62
256
6
ByLayer
370
18
48
1
60
0
100
AcDbSpline
70
4
71
3
72
9
73
5
40
0
40
0
40
0
40
0
40
0.411551827877006
40
1
40
1
40
1
40
1
41
1
10
43.8173626934015
20
0.856075215831112
30
0
41
1
10
43.8258127080271
20
0.835637257690308
30
0
41
1
10
43.8456689285642
20
0.785827945665943
30
0
41
1
10
43.8638627832874
20
0.735704529841883
30
0
41
1
10
43.8739836711763
20
0.706123330298254
30
0
0
SPLINE
5
132
100
AcDbEntity
8
1
62
256
6
ByLayer
370
18
48
1
60
0
100
AcDbSpline
70
4
71
3
72
8
73
4
40
0
40
0
40
0
40
0
40
1
40
1
40
1
40
1
41
1
10
43.8735650830426
20
0.707293858402068
30
0
41
1
10
43.8737047244075
20
0.70690371546354
30
0
41
1
10
43.8738442538706
20
0.706513539568704
30
0
41
1
10
43.8739836713926
20
0.706123330796885
30
0
0
SPLINE
5
133
100
AcDbEntity
8
1
62
256
6
ByLayer
370
18
48
1
60
0
100
AcDbSpline
70
4
71
3
72
8
73
4
40
0
40
0
40
0
40
0
40
1
40
1
40
1
40
1
41
1
10
43.8337963272253
20
0.49677381224754
30
0
41
1
10
43.8303505452736
20
0.505734994627858
30
0
41
1
10
43.8268982785249
20
0.514664932986562
30
0
41
1
10
43.8234383838793
20
0.523563690993115
30
0
0
SPLINE
5
134
100
AcDbEntity
8
1
62
256
6
ByLayer
370
18
48
1
60
0
100
AcDbSpline
70
4
71
3
72
8
73
4
40
0
40
0
40
0
40
0
40
1
40
1
40
1
40
1
41
1
10
43.761027911904
20
0.657712807792592
30
0
41
1
10
43.7984683724773
20
0.674373305984034
30
0
41
1
10
43.8359875241926
20
0.690887775731738
30
0
41
1
10
43.8735650830416
20
0.707293858403574
30
0
0
SPLINE
5
135
100
AcDbEntity
8
1
62
256
6
ByLayer
370
18
48
1
60
0
100
AcDbSpline
70
4
71
3
72
8
73
4
40
0
40
0
40
0
40
0
40
1
40
1
40
1
40
1
41
1
10
43.8173626933821
20
0.856075215877979
30
0
41
1
10
43.8377675126796
20
0.806692523220903
30
0
41
1
10
43.8564977350886
20
0.757097082603593
30
0
41
1
10
43.8735650830426
20
0.707293858402068
30
0
0
SPLINE
5
136
100
AcDbEntity
8
1
62
256
6
ByLayer
370
18
48
1
60
0
100
AcDbSpline
70
4
71
3
72
40
73
36
40
0
40
0
40
0
40
0
40
0.0152721791288027
40
0.0314866345992873
40
0.0486436947600089
40
0.0667436447148758
40
0.0857867130344713
40
0.105773058632076
40
0.126702756951412
40
0.148575785562376
40
0.17139200928794
40
0.195151165015816
40
0.219852846383117
40
0.245496488561068
40
0.272081353410523
40
0.299606515325717
40
0.32807084813821
40
0.357473013510223
40
0.38781145131107
40
0.4190843942013
40
0.451290621674055
40
0.484429760411823
40
0.518501471950432
40
0.553505392386784
40
0.589441128761635
40
0.626308257059447
40
0.664106322351864
40
0.702834841679846
40
0.74249331034186
40
0.783081212334239
40
0.82459810171753
40
0.867045152320049
40
0.910425399862701
40
0.954742361752687
40
1
40
1
40
1
40
1
41
1
10
43.2419508082115
20
1.72841180817849
30
0
41
1
10
43.2456876934002
20
1.72453721646767
30
0
41
1
10
43.2533920254069
20
1.71654897507844
30
0
41
1
10
43.2652064595768
20
1.70411587664631
30
0
41
1
10
43.27763393904
20
1.69088462429565
30
0
41
1
10
43.2906540259994
20
1.6768353686364
30
0
41
1
10
43.3042536461346
20
1.66195680388137
30
0
41
1
10
43.31841618549
20
1.64623471964887
30
0
41
1
10
43.3331245952423
20
1.6296554008386
30
0
41
1
10
43.3483604278018
20
1.61220472172664
30
0
41
1
10
43.3641040458705
20
1.5938684884492
30
0
41
1
10
43.3803344904758
20
1.57463242564646
30
0
41
1
10
43.3970294437201
20
1.55448226900043
30
0
41
1
10
43.4141651611522
20
1.53340383117165
30
0
41
1
10
43.4317164098246
20
1.51138307923907
30
0
41
1
10
43.4496564005494
20
1.48840621202768
30
0
41
1
10
43.4679567222519
20
1.46445974363496
30
0
41
1
10
43.4865872579027
20
1.43953057964273
30
0
41
1
10
43.5055161638827
20
1.41360612969527
30
0
41
1
10
43.5247097609348
20
1.38667405061383
30
0
41
1
10
43.5441335121427
20
1.3587225674664
30
0
41
1
10
43.5637525634313
20
1.32974074386601
30
0
41
1
10
43.5835304581062
20
1.29971800258079
30
0
41
1
10
43.6034291466356
20
1.26864462225339
30
0
41
1
10
43.6234088550555
20
1.23651180638464
30
0
41
1
10
43.643428051597
20
1.2033117956359
30
0
41
1
10
43.6634433756221
20
1.16903796463586
30
0
41
1
10
43.6834096193878
20
1.13368493679801
30
0
41
1
10
43.7032795217602
20
1.09724865915825
30
0
41
1
10
43.7230042856991
20
1.05972662136887
30
0
41
1
10
43.742531571941
20
1.02111698008142
30
0
41
1
10
43.7618142902858
20
0.981420063577929
30
0
41
1
10
43.7807813177161
20
0.940632037019896
30
0
41
1
10
43.7994502541921
20
0.898769486122262
30
0
41
1
10
43.8113502240888
20
0.870405926850452
30
0
41
1
10
43.8173626933816
20
0.856075215879258
30
0
0
SPLINE
5
137
100
AcDbEntity
8
1
62
256
6
ByLayer
370
18
48
1
60
0
100
AcDbSpline
70
4
71
3
72
10
73
6
40
0
40
0
40
0
40
0
40
0.0887666147562823
40
0.545185498628886
40
1
40
1
40
1
40
1
41
1
10
42.542564665075
20
2.25120889755351
30
0
41
1
10
42.5643048702746
20
2.24006233151951
30
0
41
1
10
42.6977493747434
20
2.16910836281195
30
0
41
1
10
42.9405398054092
20
2.01069773484034
30
0
41
1
10
43.1460239973204
20
1.82752971444336
30
0
41
1
10
43.2419508082094
20
1.72841180818057
30
0
0
SPLINE
5
138
100
AcDbEntity
8
1
62
256
6
ByLayer
370
18
48
1
60
0
100
AcDbSpline
70
4
71
3
72
10
73
6
40
0
40
0
40
0
40
0
40
0.5
40
0.5
40
1
40
1
40
1
40
1
41
1
10
42.063482171068
20
2.41739638901808
30
0
41
1
10
42.1076529823244
20
2.40296512917072
30
0
41
1
10
42.1519523576097
20
2.38663622209131
30
0
41
1
10
42.2400118137452
20
2.35131527794107
30
0
41
1
10
42.2838627302427
20
2.33228962167925
30
0
41
1
10
42.3276216344932
20
2.31208741559658
30
0
0
SPLINE
5
139
100
AcDbEntity
8
1
62
256
6
ByLayer
370
18
48
1
60
0
100
AcDbSpline
70
4
71
3
72
8
73
4
40
0
40
0
40
0
40
0
40
1
40
1
40
1
40
1
41
1
10
42.7283073939587
20
1.42814211934524
30
0
41
1
10
42.7693524754923
20
1.36609242043144
30
0
41
1
10
42.8117403150509
20
1.30485194415113
30
0
41
1
10
42.8555293128356
20
1.244455885799
30
0
0
SPLINE
5
13A
100
AcDbEntity
8
1
62
256
6
ByLayer
370
18
48
1
60
0
100
AcDbSpline
70
4
71
3
72
12
73
8
40
0
40
0
40
0
40
0
40
0.25
40
0.25
40
0.5
40
0.5
40
1
40
1
40
1
40
1
41
1
10
43.761027911905
20
0.657712807792734
30
0
41
1
10
43.7577952378841
20
0.656274311608257
30
0
41
1
10
43.754216728902
20
0.655920758567476
30
0
41
1
10
43.7471493836444
20
0.655849069862001
30
0
41
1
10
43.7436542576996
20
0.656182015086756
30
0
41
1
10
43.7332196382887
20
0.657666474313572
30
0
41
1
10
43.7263370854027
20
0.659317959511043
30
0
41
1
10
43.7196021545933
20
0.661178758195632
30
0
0
SPLINE
5
13B
100
AcDbEntity
8
1
62
256
6
ByLayer
370
18
48
1
60
0
100
AcDbSpline
70
4
71
3
72
18
73
14
40
0
40
0
40
0
40
0
40
0.13494909873801
40
0.13494909873801
40
0.307959278990407
40
0.307959278990407
40
0.480969459242806
40
0.480969459242806
40
0.653979639495204
40
0.653979639495204
40
0.826989819747602
40
0.826989819747602
40
1
40
1
40
1
40
1
41
1
10
43.6130256963992
20
0.634903109450676
30
0
41
1
10
43.6168580018291
20
0.637476946222392
30
0
41
1
10
43.6208717834889
20
0.640039475686052
30
0
41
1
10
43.6303087965206
20
0.645668577649303
30
0
41
1
10
43.6358471477963
20
0.648701979687075
30
0
41
1
10
43.6474762640926
20
0.654288683344873
30
0
41
1
10
43.6536265345178
20
0.656862625763011
30
0
41
1
10
43.6662931190589
20
0.661074423680844
30
0
41
1
10
43.6727813412809
20
0.66270868881557
30
0
41
1
10
43.6861020188575
20
0.664691920150688
30
0
41
1
10
43.6929891832153
20
0.665014897343355
30
0
41
1
10
43.706432658035
20
0.664150240843526
30
0
41
1
10
43.7130623044262
20
0.662985657978368
30
0
41
1
10
43.7196021546162
20
0.661178758253584
30
0
0
SPLINE
5
13C
100
AcDbEntity
8
1
62
256
6
ByLayer
370
18
48
1
60
0
100
AcDbSpline
70
4
71
3
72
10
73
6
40
0
40
0
40
0
40
0
40
0.5
40
0.5
40
1
40
1
40
1
40
1
41
1
10
39.9259633227479
20
1.95615196898257
30
0
41
1
10
39.9166917608404
20
1.95528238821521
30
0
41
1
10
39.9069029671192
20
1.9548708183502
30
0
41
1
10
39.8867262157649
20
1.95515164978718
30
0
41
1
10
39.8763278964017
20
1.95583335163227
30
0
41
1
10
39.8655598719726
20
1.95716070696889
30
0
0
SPLINE
5
13D
100
AcDbEntity
8
1
62
256
6
ByLayer
370
18
48
1
60
0
100
AcDbSpline
70
4
71
3
72
8
73
4
40
0
40
0
40
0
40
0
40
1
40
1
40
1
40
1
41
1
10
43.980362685623
20
-0.0369375131236609
30
0
41
1
10
43.9844273847751
20
-0.0389672889313317
30
0
41
1
10
43.9884323747624
20
-0.0409964637966596
30
0
41
1
10
43.9923785734807
20
-0.0430250207291465
30
0
0
SPLINE
5
13E
100
AcDbEntity
8
1
62
256
6
ByLayer
370
18
48
1
60
0
100
AcDbSpline
70
4
71
1
72
4
73
2
40
0
40
0
40
1
40
1
41
1
10
40.0688789281784
20
-1.89660546032974
30
0
41
1
10
40.0689745168438
20
-1.89649102428089
30
0
0
SPLINE
5
13F
100
AcDbEntity
8
1
62
256
6
ByLayer
370
18
48
1
60
0
100
AcDbSpline
70
4
71
3
72
8
73
4
40
0
40
0
40
0
40
0
40
1
40
1
40
1
40
1
41
1
10
42.7283073939505
20
1.42814211934021
30
0
41
1
10
42.6900665876609
20
1.42524876296207
30
0
41
1
10
42.6517783769775
20
1.42296858790553
30
0
41
1
10
42.6134460626828
20
1.42125889816691
30
0
0
SPLINE
5
140
100
AcDbEntity
8
1
62
256
6
ByLayer
370
18
48
1
60
0
100
AcDbSpline
70
4
71
3
72
10
73
6
40
0
40
0
40
0
40
0
40
0.5
40
0.5
40
1
40
1
40
1
40
1
41
1
10
42.5364919515434
20
1.53959200963769
30
0
41
1
10
42.5674753715113
20
1.51966875902039
30
0
41
1
10
42.5989009009445
20
1.50048186707531
30
0
41
1
10
42.662810855188
20
1.46341137001789
30
0
41
1
10
42.6952894364013
20
1.44552118812021
30
0
41
1
10
42.7283073939558
20
1.42814211934404
30
0
0
SPLINE
5
141
100
AcDbEntity
8
1
62
256
6
ByLayer
370
18
48
1
60
0
100
AcDbSpline
70
4
71
3
72
30
73
26
40
0
40
0
40
0
40
0
40
0.25000000000004
40
0.25000000000004
40
0.375000000000042
40
0.375000000000042
40
0.500000000000044
40
0.500000000000044
40
0.625000000000046
40
0.625000000000046
40
0.750000000000049
40
0.750000000000049
40
0.81250000000005
40
0.81250000000005
40
0.875000000000051
40
0.875000000000051
40
0.906250000000051
40
0.906250000000051
40
0.937500000000051
40
0.937500000000051
40
0.968750000000051
40
0.968750000000051
40
0.984375000000025
40
0.984375000000025
40
1
40
1
40
1
40
1
41
1
10
42.5364917991571
20
1.53959210762341
30
0
41
1
10
42.5052117733994
20
1.55970608786663
30
0
41
1
10
42.4794627344345
20
1.58350662856998
30
0
41
1
10
42.4474103696857
20
1.62578926028832
30
0
41
1
10
42.4380045600266
20
1.64078213630427
30
0
41
1
10
42.4214589131516
20
1.67246052695535
30
0
41
1
10
42.4142947592301
20
1.68917574177331
30
0
41
1
10
42.401892083173
20
1.72449669589645
30
0
41
1
10
42.3966404142603
20
1.74317916317381
30
0
41
1
10
42.3881667963472
20
1.7817503945825
30
0
41
1
10
42.3848759945812
20
1.80171274791141
30
0
41
1
10
42.3817613946457
20
1.8329237191823
30
0
41
1
10
42.3810316454373
20
1.84357100450862
30
0
41
1
10
42.3805176056929
20
1.86515519968913
30
0
41
1
10
42.3807076347848
20
1.8761499213818
30
0
41
1
10
42.3823409469153
20
1.89271764759039
30
0
41
1
10
42.38311239439
20
1.89825917297995
30
0
41
1
10
42.3854374957101
20
1.90938414386298
30
0
41
1
10
42.3869715382418
20
1.91492319691665
30
0
41
1
10
42.3914443544605
20
1.92562797685369
30
0
41
1
10
42.3943252634555
20
1.93065764162679
30
0
41
1
10
42.40034253434
20
1.93699103507106
30
0
41
1
10
42.4025471164961
20
1.93879700917751
30
0
41
1
10
42.4073782007063
20
1.9417673544211
30
0
41
1
10
42.409962578687
20
1.94289803943764
30
0
41
1
10
42.4126172149396
20
1.94369483770018
30
0
0
SPLINE
5
142
100
AcDbEntity
8
1
62
256
6
ByLayer
370
18
48
1
60
0
100
AcDbSpline
70
4
71
3
72
42
73
38
40
0
40
0
40
0
40
0
40
0.125000000000066
40
0.125000000000066
40
0.250000000000133
40
0.250000000000133
40
0.375000000000199
40
0.375000000000199
40
0.437500000000208
40
0.437500000000208
40
0.500000000000217
40
0.500000000000217
40
0.531250000000204
40
0.531250000000204
40
0.56250000000019
40
0.56250000000019
40
0.593750000000177
40
0.593750000000177
40
0.625000000000163
40
0.625000000000163
40
0.656250000000149
40
0.656250000000149
40
0.687500000000136
40
0.687500000000136
40
0.718750000000122
40
0.718750000000122
40
0.750000000000109
40
0.750000000000109
40
0.781250000000095
40
0.781250000000095
40
0.812500000000081
40
0.812500000000081
40
0.875000000000054
40
0.875000000000054
40
0.937500000000027
40
0.937500000000027
40
1
40
1
40
1
40
1
41
1
10
42.3276216344925
20
2.31208741559661
30
0
41
1
10
42.3483527884559
20
2.30251672750069
30
0
41
1
10
42.3688040690213
20
2.29222843910389
30
0
41
1
10
42.4089575492377
20
2.26982369763053
30
0
41
1
10
42.4286974795896
20
2.2576976836836
30
0
41
1
10
42.4669187524645
20
2.23093273791082
30
0
41
1
10
42.4852404614143
20
2.21645007407139
30
0
41
1
10
42.5107155827158
20
2.19202745024933
30
0
41
1
10
42.5188680655026
20
2.18343087891441
30
0
41
1
10
42.5341730245921
20
2.16491699640738
30
0
41
1
10
42.5412439329598
20
2.15509744084187
30
0
41
1
10
42.5503691380807
20
2.13933376013324
30
0
41
1
10
42.5531777733418
20
2.13386755485723
30
0
41
1
10
42.558069299696
20
2.12270595210188
30
0
41
1
10
42.5601651966809
20
2.11699512820411
30
0
41
1
10
42.563504269021
20
2.10525777703265
30
0
41
1
10
42.5647535018414
20
2.09918618131249
30
0
41
1
10
42.5661475332026
20
2.08684913283739
30
0
41
1
10
42.5662854273897
20
2.08069130499774
30
0
41
1
10
42.5653550837774
20
2.06839868442807
30
0
41
1
10
42.5642604473606
20
2.06220727347784
30
0
41
1
10
42.5609343685703
20
2.05037828314462
30
0
41
1
10
42.558710650195
20
2.04468572944478
30
0
41
1
10
42.5532445057396
20
2.03370361786921
30
0
41
1
10
42.5500295277712
20
2.02848374880847
30
0
41
1
10
42.5429667716447
20
2.01872334211654
30
0
41
1
10
42.5390965594765
20
2.01413911219237
30
0
41
1
10
42.530801288388
20
2.00545599237222
30
0
41
1
10
42.5263664186
20
2.00135507503364
30
0
41
1
10
42.5172396863435
20
1.99372421740017
30
0
41
1
10
42.5125223854287
20
1.99016648073828
30
0
41
1
10
42.4980019308005
20
1.98011325781164
30
0
41
1
10
42.4878349377766
20
1.97422995121121
30
0
41
1
10
42.4668201669814
20
1.96362455826096
30
0
41
1
10
42.4561045527215
20
1.95897530662322
30
0
41
1
10
42.4345080600317
20
1.9506628262798
30
0
41
1
10
42.4236020197462
20
1.94699196483623
30
0
41
1
10
42.4126172124284
20
1.94369483694644
30
0
0
SPLINE
5
143
100
AcDbEntity
8
1
62
256
6
ByLayer
370
18
48
1
60
0
100
AcDbSpline
70
4
71
3
72
16
73
12
40
0
40
0
40
0
40
0
40
0.249999999999974
40
0.249999999999974
40
0.499999999999948
40
0.499999999999948
40
0.624999999999961
40
0.624999999999961
40
0.749999999999974
40
0.749999999999974
40
1
40
1
40
1
40
1
41
1
10
40.0688789281784
20
-1.89660546032974
30
0
41
1
10
40.1116778002341
20
-1.92925819117744
30
0
41
1
10
40.154289537483
20
-1.96101726456624
30
0
41
1
10
40.2396556409644
20
-2.02256568163449
30
0
41
1
10
40.2824088414312
20
-2.05234934941905
30
0
41
1
10
40.3469081290885
20
-2.09541498815224
30
0
41
1
10
40.3684692213414
20
-2.10950078772544
30
0
41
1
10
40.4117565385091
20
-2.13710247494455
30
0
41
1
10
40.4335116591515
20
-2.15063649690347
30
0
41
1
10
40.49878414097
20
-2.19018340147727
30
0
41
1
10
40.5423422861583
20
-2.21516134955519
30
0
41
1
10
40.586107984554
20
-2.23870703192645
30
0
0
SPLINE
5
144
100
AcDbEntity
8
1
62
256
6
ByLayer
370
18
48
1
60
0
100
AcDbSpline
70
4
71
3
72
8
73
4
40
0
40
0
40
0
40
0
40
1
40
1
40
1
40
1
41
1
10
40.0688789281784
20
-1.89660546032974
30
0
41
1
10
40.0679195593171
20
-1.89584004520361
30
0
41
1
10
40.0669599154938
20
-1.89507498340916
30
0
41
1
10
40.066
20
-1.8943102794062
30
0
0
SPLINE
5
145
100
AcDbEntity
8
1
62
256
6
ByLayer
370
18
48
1
60
0
100
AcDbSpline
70
4
71
3
72
8
73
4
40
0
40
0
40
0
40
0
40
1
40
1
40
1
40
1
41
1
10
43.8924013907201
20
0.0210775915569172
30
0
41
1
10
43.8925384106361
20
0.0210346070470848
30
0
41
1
10
43.8926753040163
20
0.0209916221446917
30
0
41
1
10
43.8928120708438
20
0.0209486368501643
30
0
0
SPLINE
5
146
100
AcDbEntity
8
1
62
256
6
ByLayer
370
18
48
1
60
0
100
AcDbSpline
70
4
71
1
72
4
73
2
40
0
40
0
40
1
40
1
41
1
10
40.0689745168438
20
-1.89649102428089
30
0
41
1
10
40.1332261073073
20
-1.81824107507268
30
0
0
SPLINE
5
147
100
AcDbEntity
8
1
62
256
6
ByLayer
370
18
48
1
60
0
100
AcDbSpline
70
4
71
3
72
8
73
4
40
0
40
0
40
0
40
0
40
1
40
1
40
1
40
1
41
1
10
43.8419789163409
20
-0.635399278890304
30
0
41
1
10
43.8486535569988
20
-0.648165048682188
30
0
41
1
10
43.8553003483191
20
-0.660897427938806
30
0
41
1
10
43.8619202067636
20
-0.673597515470902
30
0
0
SPLINE
5
148
100
AcDbEntity
8
1
62
256
6
ByLayer
370
18
48
1
60
0
100
AcDbSpline
70
4
71
3
72
8
73
4
40
0
40
0
40
0
40
0
40
1
40
1
40
1
40
1
41
1
10
40.0660000000001
20
1.91042587795172
30
0
41
1
10
40.0192685232774
20
1.92550955978965
30
0
41
1
10
39.9725896695473
20
1.94075170663328
30
0
41
1
10
39.9259633227479
20
1.95615196898257
30
0
0
SPLINE
5
149
100
AcDbEntity
8
1
62
256
6
ByLayer
370
18
48
1
60
0
100
AcDbSpline
70
4
71
3
72
12
73
8
40
0
40
0
40
0
40
0
40
0.5
40
0.5
40
0.75
40
0.75
40
1
40
1
40
1
40
1
41
1
10
39.9259633227479
20
1.95615196898257
30
0
41
1
10
39.9177177151307
20
1.94885327829545
30
0
41
1
10
39.9089399747616
20
1.94185620040969
30
0
41
1
10
39.8942950296071
20
1.93220195312094
30
0
41
1
10
39.8891631518722
20
1.92912629287596
30
0
41
1
10
39.8781086221534
20
1.92342595935506
30
0
41
1
10
39.8722037156517
20
1.92079111172757
30
0
41
1
10
39.8655598719641
20
1.9185785100041
30
0
0
SPLINE
5
14A
100
AcDbEntity
8
1
62
256
6
ByLayer
370
18
48
1
60
0
100
AcDbSpline
70
4
71
3
72
8
73
4
40
0
40
0
40
0
40
0
40
1
40
1
40
1
40
1
41
1
10
40.066
20
-1.89431027940543
30
0
41
1
10
40.0217852317231
20
-1.86193741428508
30
0
41
1
10
39.9775132057708
20
-1.83101427532094
30
0
41
1
10
39.9331719166949
20
-1.80184483246788
30
0
0
SPLINE
5
14B
100
AcDbEntity
8
1
62
256
6
ByLayer
370
18
48
1
60
0
100
AcDbSpline
70
4
71
3
72
8
73
4
40
0
40
0
40
0
40
0
40
1
40
1
40
1
40
1
41
1
10
39.5067173041471
20
-1.83322631616093
30
0
41
1
10
39.6475142987811
20
-1.81980593579183
30
0
41
1
10
39.7896881464541
20
-1.80931729193131
30
0
41
1
10
39.9331719166949
20
-1.80184483246788
30
0
0
SPLINE
5
14C
100
AcDbEntity
8
1
62
256
6
ByLayer
370
18
48
1
60
0
100
AcDbSpline
70
4
71
3
72
10
73
6
40
0
40
0
40
0
40
0
40
0.5
40
0.5
40
1
40
1
40
1
40
1
41
1
10
40.066
20
1.61622398996229
30
0
41
1
10
40.0439143229595
20
1.60495242452799
30
0
41
1
10
40.0218003554382
20
1.5930567244211
30
0
41
1
10
39.9775108824362
20
1.56790769529186
30
0
41
1
10
39.9552904874325
20
1.55462570172057
30
0
41
1
10
39.933171916695
20
1.54067149196948
30
0
0
SPLINE
5
14D
100
AcDbEntity
8
1
62
256
6
ByLayer
370
18
48
1
60
0
100
AcDbSpline
70
4
71
3
72
8
73
4
40
0
40
0
40
0
40
0
40
1
40
1
40
1
40
1
41
1
10
39.5067173041464
20
1.70730206991706
30
0
41
1
10
39.6475142987807
20
1.64796646399046
30
0
41
1
10
39.789688146454
20
1.59245995703742
30
0
41
1
10
39.933171916695
20
1.54067149196948
30
0
0
SPLINE
5
14E
100
AcDbEntity
8
1
62
256
6
ByLayer
370
18
48
1
60
0
100
AcDbSpline
70
4
71
3
72
8
73
4
40
0
40
0
40
0
40
0
40
1
40
1
40
1
40
1
41
1
10
42.7109695285016
20
-1.93483805250025
30
0
41
1
10
42.6927309455715
20
-1.98574598385486
30
0
41
1
10
42.6730040121745
20
-2.03669005570404
30
0
41
1
10
42.6514111285135
20
-2.08767943703438
30
0
0
SPLINE
5
14F
100
AcDbEntity
8
1
62
256
6
ByLayer
370
18
48
1
60
0
100
AcDbSpline
70
4
71
3
72
8
73
4
40
0
40
0
40
0
40
0
40
1
40
1
40
1
40
1
41
1
10
40.1707434980899
20
-1.51150447481373
30
0
41
1
10
40.2080343692327
20
-1.55318135339755
30
0
41
1
10
40.2447592731083
20
-1.59512521726481
30
0
41
1
10
40.2809246927008
20
-1.63733300817981
30
0
0
SPLINE
5
150
100
AcDbEntity
8
1
62
256
6
ByLayer
370
18
48
1
60
0
100
AcDbSpline
70
4
71
3
72
22
73
18
40
0
40
0
40
0
40
0
40
0.25
40
0.25
40
0.500000000000001
40
0.500000000000001
40
0.625
40
0.625
40
0.75
40
0.75
40
0.8125
40
0.8125
40
0.875
40
0.875
40
0.9375
40
0.9375
40
1
40
1
40
1
40
1
41
1
10
42.6519520529289
20
-1.86323344359539
30
0
41
1
10
42.6602187361094
20
-1.86559304810683
30
0
41
1
10
42.6681915500996
20
-1.86840101403388
30
0
41
1
10
42.683264642204
20
-1.8753481893755
30
0
41
1
10
42.6904090896156
20
-1.87950186586068
30
0
41
1
10
42.6996831892535
20
-1.88724648448272
30
0
41
1
10
42.7025410330144
20
-1.89008676307992
30
0
41
1
10
42.7075804399124
20
-1.89651662733533
30
0
41
1
10
42.709786003172
20
-1.90013659339709
30
0
41
1
10
42.7122024449525
20
-1.90636152167451
30
0
41
1
10
42.7128490191649
20
-1.9085468544358
30
0
41
1
10
42.7137521358174
20
-1.91318838766517
30
0
41
1
10
42.7140081323984
20
-1.91567133972276
30
0
41
1
10
42.7140260878077
20
-1.92083065917089
30
0
41
1
10
42.7137928851636
20
-1.92349827518166
30
0
41
1
10
42.7127935471959
20
-1.92902706039553
30
0
41
1
10
42.7120175728637
20
-1.93191298175736
30
0
41
1
10
42.7109695284414
20
-1.9348380525025
30
0
0
SPLINE
5
151
100
AcDbEntity
8
1
62
256
6
ByLayer
370
18
48
1
60
0
100
AcDbSpline
70
4
71
3
72
8
73
4
40
0
40
0
40
0
40
0
40
1
40
1
40
1
40
1
41
1
10
40.1707434980898
20
-1.51150447481373
30
0
41
1
10
40.1357656917554
20
-1.51343274144691
30
0
41
1
10
40.1008498888355
20
-1.51545966990705
30
0
41
1
10
40.0660000000001
20
-1.51757861800266
30
0
0
SPLINE
5
152
100
AcDbEntity
8
1
62
256
6
ByLayer
370
18
48
1
60
0
100
AcDbSpline
70
4
71
3
72
12
73
8
40
0
40
0
40
0
40
0
40
0.5
40
0.5
40
0.75
40
0.75
40
1
40
1
40
1
40
1
41
1
10
39.9259633227478
20
-1.52996953825385
30
0
41
1
10
39.9177177151307
20
-1.53841892824872
30
0
41
1
10
39.9089399747616
20
-1.54682457669762
30
0
41
1
10
39.8942950296071
20
-1.55931472280511
30
0
41
1
10
39.8891631518722
20
-1.56345808406704
30
0
41
1
10
39.8781086221534
20
-1.57168237442656
30
0
41
1
10
39.8722037156517
20
-1.57576465463543
30
0
41
1
10
39.8655598719641
20
-1.57978935630169
30
0
0
SPLINE
5
153
100
AcDbEntity
8
1
62
256
6
ByLayer
370
18
48
1
60
0
100
AcDbSpline
70
4
71
3
72
8
73
4
40
0
40
0
40
0
40
0
40
1
40
1
40
1
40
1
41
1
10
43.7630573974559
20
-0.830718502043709
30
0
41
1
10
43.7405948370279
20
-0.874809081561978
30
0
41
1
10
43.71738544325
20
-0.918162739753058
30
0
41
1
10
43.693428272853
20
-0.960778545866731
30
0
0
SPLINE
5
154
100
AcDbEntity
8
1
62
256
6
ByLayer
370
18
48
1
60
0
100
AcDbSpline
70
4
71
3
72
27
73
23
40
0
40
0
40
0
40
0
40
0.125000000000008
40
0.125000000000008
40
0.187500000000012
40
0.187500000000012
40
0.250000000000016
40
0.375000000000011
40
0.375000000000011
40
0.437500000000008
40
0.437500000000008
40
0.500000000000005
40
0.500000000000005
40
0.624999999999999
40
0.624999999999999
40
0.749999999999994
40
0.749999999999994
40
0.781250000000002
40
0.781250000000002
40
0.81250000000001
40
0.875000000000007
40
1
40
1
40
1
40
1
41
1
10
43.6934282728533
20
-0.960778545865963
30
0
41
1
10
43.6699186609544
20
-1.018831870638
30
0
41
1
10
43.6431688867923
20
-1.0769643238753
30
0
41
1
10
43.5980589187274
20
-1.16428475061866
30
0
41
1
10
43.5821325687781
20
-1.19347462383965
30
0
41
1
10
43.5490492690201
20
-1.25097921905913
30
0
41
1
10
43.4974317709024
20
-1.3362487137874
30
0
41
1
10
43.4398040626275
20
-1.41853987692045
30
0
41
1
10
43.378111473571
20
-1.49881670735198
30
0
41
1
10
43.3568740290646
20
-1.52524202584814
30
0
41
1
10
43.3129965337995
20
-1.57739760785785
30
0
41
1
10
43.2902991287655
20
-1.6031751210565
30
0
41
1
10
43.2212279214801
20
-1.67810093859944
30
0
41
1
10
43.1735279391348
20
-1.7252898657062
30
0
41
1
10
43.0749599350358
20
-1.81437340396607
30
0
41
1
10
43.0240773937013
20
-1.85624375050674
30
0
41
1
10
42.9584116232926
20
-1.90513474962037
30
0
41
1
10
42.9451854764618
20
-1.91473170686643
30
0
41
1
10
42.918745382422
20
-1.93342859259909
30
0
41
1
10
42.8790238455373
20
-1.96078911563805
30
0
41
1
10
42.7859218051674
20
-2.0199629204053
30
0
41
1
10
42.7054061428281
20
-2.06272037425251
30
0
41
1
10
42.651411128521
20
-2.08767943703449
30
0
0
SPLINE
5
155
100
AcDbEntity
8
1
62
256
6
ByLayer
370
18
48
1
60
0
100
AcDbSpline
70
4
71
3
72
54
73
50
40
0
40
0
40
0
40
0
40
0.0312500000000132
40
0.0312500000000132
40
0.0468750000000133
40
0.0468750000000133
40
0.0625000000000134
40
0.0625000000000134
40
0.124999999999988
40
0.124999999999988
40
0.187499999999963
40
0.187499999999963
40
0.218749999999944
40
0.218749999999944
40
0.249999999999924
40
0.249999999999924
40
0.281249999999905
40
0.281249999999905
40
0.285156249999908
40
0.285156249999908
40
0.28906249999991
40
0.28906249999991
40
0.292968749999913
40
0.292968749999913
40
0.296874999999915
40
0.296874999999915
40
0.312499999999926
40
0.312499999999926
40
0.374999999999941
40
0.374999999999941
40
0.437499999999956
40
0.437499999999956
40
0.468749999999964
40
0.468749999999964
40
0.499999999999972
40
0.499999999999972
40
0.625000000000002
40
0.625000000000002
40
0.687500000000018
40
0.687500000000018
40
0.71875000000002
40
0.71875000000002
40
0.750000000000021
40
0.750000000000021
40
0.875000000000005
40
0.875000000000005
40
0.937500000000003
40
0.937500000000003
40
1
40
1
40
1
40
1
41
1
10
42.6514111285215
20
-2.08767943703327
30
0
41
1
10
42.6258030866325
20
-2.10210167309373
30
0
41
1
10
42.5999105101781
20
-2.11595102837472
30
0
41
1
10
42.560635251353
20
-2.13585565125405
30
0
41
1
10
42.547470503318
20
-2.14234513326301
30
0
41
1
10
42.5209919393179
20
-2.15502888680814
30
0
41
1
10
42.5076560679988
20
-2.16123282522898
30
0
41
1
10
42.4409746926971
20
-2.19133346292026
30
0
41
1
10
42.3875040077413
20
-2.21255034719098
30
0
41
1
10
42.2801217996486
20
-2.24948793526752
30
0
41
1
10
42.2262105255759
20
-2.26520619545244
30
0
41
1
10
42.1448669649373
20
-2.28468409669512
30
0
41
1
10
42.1175955074545
20
-2.29050574936557
30
0
41
1
10
42.0633461916442
20
-2.30067269698705
30
0
41
1
10
42.0363600453642
20
-2.30502547220527
30
0
41
1
10
41.9826219377536
20
-2.31232403470793
30
0
41
1
10
41.9558691182144
20
-2.31527676633758
30
0
41
1
10
41.9258845434422
20
-2.31781607152124
30
0
41
1
10
41.9225545075811
20
-2.31808717453421
30
0
41
1
10
41.9158975582313
20
-2.31860715192522
30
0
41
1
10
41.9125745804524
20
-2.31882463876934
30
0
41
1
10
41.9059105718363
20
-2.31940567528991
30
0
41
1
10
41.9025653967721
20
-2.31980302014108
30
0
41
1
10
41.89589340423
20
-2.32045500070311
30
0
41
1
10
41.8925606202298
20
-2.32075695891186
30
0
41
1
10
41.8758962423385
20
-2.32227848682729
30
0
41
1
10
41.8625819896242
20
-2.32338370714856
30
0
41
1
10
41.7961301285423
20
-2.32801039177767
30
0
41
1
10
41.7433066801283
20
-2.32917977925214
30
0
41
1
10
41.6380987615919
20
-2.32669253082551
30
0
41
1
10
41.5857158291319
20
-2.32303225925543
30
0
41
1
10
41.5073358685958
20
-2.31380636591098
30
0
41
1
10
41.4811698897544
20
-2.31025345808865
30
0
41
1
10
41.4292761196702
20
-2.3019534302548
30
0
41
1
10
41.4035312677361
20
-2.29719114446624
30
0
41
1
10
41.2757049663987
20
-2.27045859922362
30
0
41
1
10
41.1762682271337
20
-2.23982663896103
30
0
41
1
10
41.0299530674607
20
-2.18119722635896
30
0
41
1
10
40.9816552063907
20
-2.15954712459884
30
0
41
1
10
40.9098157748892
20
-2.12389418818157
30
0
41
1
10
40.885920504029
20
-2.11144597866223
30
0
41
1
10
40.8386288199339
20
-2.08556983849931
30
0
41
1
10
40.8152451845108
20
-2.07215448580013
30
0
41
1
10
40.6995272484368
20
-2.00281125573812
30
0
41
1
10
40.6107248163649
20
-1.9401818782209
30
0
41
1
10
40.4828792469825
20
-1.83524881276818
30
0
41
1
10
40.4411479473184
20
-1.79845404296216
30
0
41
1
10
40.3596144321711
20
-1.72087643971494
30
0
41
1
10
40.3197603536141
20
-1.68017087747728
30
0
41
1
10
40.2809246927008
20
-1.63733300817984
30
0
0
SPLINE
5
156
100
AcDbEntity
8
1
62
256
6
ByLayer
370
18
48
1
60
0
100
AcDbSpline
70
4
71
1
72
4
73
2
40
0
40
0
40
1
40
1
41
1
10
40.1332261073073
20
-1.81824107507268
30
0
41
1
10
40.2809246927008
20
-1.63733300817981
30
0
0
SPLINE
5
157
100
AcDbEntity
8
1
62
256
6
ByLayer
370
18
48
1
60
0
100
AcDbSpline
70
4
71
3
72
29
73
25
40
0
40
0
40
0
40
0
40
0.0428040281245072
40
0.0861238779646148
40
0.151686349108619
40
0.195599965965122
40
0.261538467766444
40
0.30534278968935
40
0.349119337853675
40
0.392946236426864
40
0.524397843036617
40
0.641218473053606
40
0.685123689807027
40
0.699780241875536
40
0.718000956193427
40
0.763554788277099
40
0.854752827320983
40
0.89471576024556
40
0.906427608846632
40
0.910145714511319
40
0.914676224292427
40
0.915772503253061
40
0.934974868067113
40
1
40
1
40
1
40
1
41
1
10
40.1332261073073
20
-1.81824107507268
30
0
41
1
10
40.1607528142736
20
-1.83922410025971
30
0
41
1
10
40.2157283440619
20
-1.88088579821732
30
0
41
1
10
40.3118064772534
20
-1.95177233470224
30
0
41
1
10
40.4080127408392
20
-2.0196484383863
30
0
41
1
10
40.5186769505842
20
-2.09268131772492
30
0
41
1
10
40.6156831477119
20
-2.15196394628111
30
0
41
1
10
40.7139453817729
20
-2.20629592537
30
0
41
1
10
40.798933503353
20
-2.24897618732402
30
0
41
1
10
40.9416104615719
20
-2.31367151502658
30
0
41
1
10
41.1354138786778
20
-2.38194270970266
30
0
41
1
10
41.3324673272309
20
-2.42358397088
30
0
41
1
10
41.4513308228699
20
-2.43791816087654
30
0
41
1
10
41.5033997553646
20
-2.4424936265435
30
0
41
1
10
41.5568511022265
20
-2.44614889875143
30
0
41
1
10
41.6625758497701
20
-2.44959956526549
30
0
41
1
10
41.7833511924377
20
-2.44424600934482
30
0
41
1
10
41.8808627322508
20
-2.4327288323507
30
0
41
1
10
41.9185865238631
20
-2.42718839505469
30
0
41
1
10
41.9322428549679
20
-2.42505633449341
30
0
41
1
10
41.9385412198148
20
-2.42405054402116
30
0
41
1
10
41.9559581645444
20
-2.42121440225799
30
0
41
1
10
42.0156442770883
20
-2.41085106224264
30
0
41
1
10
42.074383149704
20
-2.39787182534366
30
0
41
1
10
42.1195503465902
20
-2.38625274200481
30
0
0
SPLINE
5
158
100
AcDbEntity
8
1
62
256
6
ByLayer
370
18
48
1
60
0
100
AcDbSpline
70
4
71
3
72
10
73
6
40
0
40
0
40
0
40
0
40
0.5
40
0.5
40
1
40
1
40
1
40
1
41
1
10
42.5696582381145
20
-1.82179313402369
30
0
41
1
10
42.5810196776733
20
-1.83184214632442
30
0
41
1
10
42.5939853430381
20
-1.83993146326719
30
0
41
1
10
42.6217475727314
20
-1.85343845009137
30
0
41
1
10
42.6365500703017
20
-1.85883623902913
30
0
41
1
10
42.651952058457
20
-1.86323344519025
30
0
0
SPLINE
5
159
100
AcDbEntity
8
1
62
256
6
ByLayer
370
18
48
1
60
0
100
AcDbSpline
70
4
71
3
72
10
73
6
40
0
40
0
40
0
40
0
40
0.5
40
0.5
40
1
40
1
40
1
40
1
41
1
10
42.6604522623496
20
-1.40803299227363
30
0
41
1
10
42.6385474519456
20
-1.47858714025907
30
0
41
1
10
42.6193860169187
20
-1.54871322910262
30
0
41
1
10
42.5883929547244
20
-1.6871909001346
30
0
41
1
10
42.5766100066969
20
-1.7552896615106
30
0
41
1
10
42.5696582310829
20
-1.82179313406365
30
0
0
SPLINE
5
15A
100
AcDbEntity
8
1
62
256
6
ByLayer
370
18
48
1
60
0
100
AcDbSpline
70
4
71
3
72
11
73
7
40
0
40
0
40
0
40
0
40
0.116143343396206
40
0.410762228930804
40
0.607174819287203
40
1
40
1
40
1
40
1
41
1
10
42.5696582385463
20
-1.82179313479608
30
0
41
1
10
42.4727304923642
20
-1.81060901332225
30
0
41
1
10
42.1299277461821
20
-1.76623436377403
30
0
41
0.999999999999999
10
41.6232083333334
20
-1.67591811168839
30
0
41
1
10
40.8855833333333
20
-1.50461877496815
30
0
41
1
10
40.3938333333333
20
-1.36055778012655
30
0
41
1
10
40.066
20
-1.25296679782014
30
0
0
SPLINE
5
15B
100
AcDbEntity
8
1
62
256
6
ByLayer
370
18
48
1
60
0
100
AcDbSpline
70
4
71
3
72
9
73
5
40
0
40
0
40
0
40
0
40
0.520420649371998
40
1
40
1
40
1
40
1
41
1
10
42.5696582385463
20
1.34298488399313
30
0
41
1
10
42.4727304923642
20
1.37269410046119
30
0
41
1
10
42.2864816448232
20
1.42785528200793
30
0
41
1
10
42.1002327972821
20
1.47906903864756
30
0
41
1
10
42.0109116959231
20
1.50267741526875
30
0
0
SPLINE
5
15C
100
AcDbEntity
8
1
62
256
6
ByLayer
370
18
48
1
60
0
100
AcDbSpline
70
4
71
3
72
8
73
4
40
0
40
0
40
0
40
0
40
1
40
1
40
1
40
1
41
1
10
42.6128733187536
20
0.175204001599354
30
0
41
1
10
42.6241769733287
20
0.171453778566445
30
0
41
1
10
42.6355883557875
20
0.167717742269929
30
0
41
1
10
42.6471094734142
20
0.163996157050036
30
0
0
SPLINE
5
15D
100
AcDbEntity
8
1
62
256
6
ByLayer
370
18
48
1
60
0
100
AcDbSpline
70
4
71
3
72
8
73
4
40
0
40
0
40
0
40
0
40
1
40
1
40
1
40
1
41
1
10
43.551706988613
20
-0.271595511686797
30
0
41
1
10
43.5553700032996
20
-0.27421770503102
30
0
41
1
10
43.5590360525469
20
-0.276835543874114
30
0
41
1
10
43.562705117935
20
-0.279449054647927
30
0
0
SPLINE
5
15E
100
AcDbEntity
8
1
62
256
6
ByLayer
370
18
48
1
60
0
100
AcDbSpline
70
4
71
3
72
8
73
4
40
0
40
0
40
0
40
0
40
1
40
1
40
1
40
1
41
1
10
43.5517069886131
20
-0.271595511686826
30
0
41
1
10
43.5385007700938
20
-0.24173350815704
30
0
41
1
10
43.5252349158627
20
-0.211789456743304
30
0
41
1
10
43.51190524573
20
-0.181757606265222
30
0
0
SPLINE
5
15F
100
AcDbEntity
8
1
62
256
6
ByLayer
370
18
48
1
60
0
100
AcDbSpline
70
4
71
3
72
8
73
4
40
0
40
0
40
0
40
0
40
1
40
1
40
1
40
1
41
1
10
42.613446062677
20
1.42125889816373
30
0
41
1
10
42.6260406817447
20
1.40761132041447
30
0
41
1
10
42.6380502262597
20
1.3943055843458
30
0
41
1
10
42.6492981460533
20
1.38144484870378
30
0
0
SPLINE
5
160
100
AcDbEntity
8
1
62
256
6
ByLayer
370
18
48
1
60
0
100
AcDbSpline
70
4
71
3
72
14
73
10
40
0
40
0
40
0
40
0
40
0.25
40
0.25
40
0.5
40
0.5
40
0.75
40
0.75
40
1
40
1
40
1
40
1
41
1
10
42.6492981423382
20
1.38144485377029
30
0
41
1
10
42.6522828302036
20
1.37803222814853
30
0
41
1
10
42.6549363561952
20
1.37484081879475
30
0
41
1
10
42.6593886431049
20
1.36902898545472
30
0
41
1
10
42.6611968538851
20
1.36639626153487
30
0
41
1
10
42.6635900665496
20
1.36197360597561
30
0
41
1
10
42.6641538786346
20
1.36021797170517
30
0
41
1
10
42.6636064019003
20
1.35796359672241
30
0
41
1
10
42.6625060562042
20
1.35749169425375
30
0
41
1
10
42.6604522532197
20
1.35777563536271
30
0
0
SPLINE
5
161
100
AcDbEntity
8
1
62
256
6
ByLayer
370
18
48
1
60
0
100
AcDbSpline
70
4
71
3
72
10
73
6
40
0
40
0
40
0
40
0
40
0.5
40
0.5
40
1
40
1
40
1
40
1
41
1
10
42.6604522623496
20
1.35777563121135
30
0
41
1
10
42.6385474519456
20
1.36080641469209
30
0
41
1
10
42.6193860169188
20
1.36156184593148
30
0
41
1
10
42.5883929547245
20
1.35713561877316
30
0
41
1
10
42.5766100066969
20
1.35196887245445
30
0
41
1
10
42.5696582310829
20
1.34298488625944
30
0
0
SPLINE
5
162
100
AcDbEntity
8
1
62
256
6
ByLayer
370
18
48
1
60
0
100
AcDbSpline
70
4
71
3
72
10
73
6
40
0
40
0
40
0
40
0
40
0.5
40
0.5
40
1
40
1
40
1
40
1
41
1
10
42.5696582381145
20
1.34298488253441
30
0
41
1
10
42.5810196776733
20
1.3308963125522
30
0
41
1
10
42.5939853430381
20
1.31786260868142
30
0
41
1
10
42.6217475727313
20
1.29081461906887
30
0
41
1
10
42.6365500703017
20
1.27679968373658
30
0
41
1
10
42.651952058457
20
1.26249204048497
30
0
0
SPLINE
5
163
100
AcDbEntity
8
1
62
256
6
ByLayer
370
18
48
1
60
0
100
AcDbSpline
70
4
71
3
72
22
73
18
40
0
40
0
40
0
40
0
40
0.25000000000003
40
0.25000000000003
40
0.50000000000006
40
0.50000000000006
40
0.625000000000075
40
0.625000000000075
40
0.75000000000009
40
0.75000000000009
40
0.812500000000067
40
0.812500000000067
40
0.875000000000045
40
0.875000000000045
40
0.937500000000022
40
0.937500000000022
40
1
40
1
40
1
40
1
41
1
10
42.6519520529289
20
1.26249204564158
30
0
41
1
10
42.6602187361093
20
1.25481284121716
30
0
41
1
10
42.6681915500996
20
1.24728661888199
30
0
41
1
10
42.683264642204
20
1.2326883980119
30
0
41
1
10
42.6904090896156
20
1.22557494988132
30
0
41
1
10
42.6996831892534
20
1.21581061254673
30
0
41
1
10
42.7025410330144
20
1.21269939489028
30
0
41
1
10
42.7075804399124
20
1.20689271297712
30
0
41
1
10
42.709786003172
20
1.20416964890043
30
0
41
1
10
42.7122024449526
20
1.20067693093174
30
0
41
1
10
42.7128490191648
20
1.19962519676687
30
0
41
1
10
42.7137521358173
20
1.19779786955746
30
0
41
1
10
42.7140081323984
20
1.19701671685033
30
0
41
1
10
42.7140260878076
20
1.19583793678143
30
0
41
1
10
42.7137928851637
20
1.19543809928265
30
0
41
1
10
42.7127935471959
20
1.19505554624155
30
0
41
1
10
42.7120175728636
20
1.19507575649365
30
0
41
1
10
42.7109695284414
20
1.19532236563649
30
0
0
SPLINE
5
164
100
AcDbEntity
8
1
62
256
6
ByLayer
370
18
48
1
60
0
100
AcDbSpline
70
4
71
3
72
12
73
8
40
0
40
0
40
0
40
0
40
0.500000000000019
40
0.500000000000019
40
0.750000000000009
40
0.750000000000009
40
1
40
1
40
1
40
1
41
1
10
42.8555293128355
20
1.2444558857988
30
0
41
1
10
42.9655312578768
20
1.15393214699588
30
0
41
1
10
43.0781988695632
20
1.06370513728464
30
0
41
1
10
43.2503572320112
20
0.928716038525863
30
0
41
1
10
43.3082756304422
20
0.88377521983233
30
0
41
1
10
43.4250294084309
20
0.794010520327646
30
0
41
1
10
43.4834176042884
20
0.749529780237935
30
0
41
1
10
43.5418153056047
20
0.705386665510702
30
0
0
SPLINE
5
165
100
AcDbEntity
8
1
62
256
6
ByLayer
370
18
48
1
60
0
100
AcDbSpline
70
4
71
3
72
8
73
4
40
0
40
0
40
0
40
0
40
1
40
1
40
1
40
1
41
1
10
40.0660000000001
20
-1.51757861800266
30
0
41
1
10
40.0192688781385
20
-1.52139125404213
30
0
41
1
10
39.9725900233549
20
-1.52552178968963
30
0
41
1
10
39.9259633227478
20
-1.52996953825385
30
0
0
SPLINE
5
166
100
AcDbEntity
8
1
62
256
6
ByLayer
370
18
48
1
60
0
100
AcDbSpline
70
4
71
3
72
10
73
6
40
0
40
0
40
0
40
0
40
0.5
40
0.5
40
1
40
1
40
1
40
1
41
1
10
39.9259633227478
20
-1.52996953825382
30
0
41
1
10
39.9166917608404
20
-1.5236340588236
30
0
41
1
10
39.9069029671192
20
-1.51787523847838
30
0
41
1
10
39.8867262157649
20
-1.5080785188816
30
0
41
1
10
39.8763278964016
20
-1.5040156769561
30
0
41
1
10
39.8655598719726
20
-1.50094945217157
30
0
0
SPLINE
5
167
100
AcDbEntity
8
1
62
256
6
ByLayer
370
18
48
1
60
0
100
AcDbSpline
70
4
71
3
72
8
73
4
40
0
40
0
40
0
40
0
40
1
40
1
40
1
40
1
41
1
10
43.5094219948338
20
-0.176409400568872
30
0
41
1
10
43.5103388085439
20
-0.17830979367838
30
0
41
1
10
43.5111656896422
20
-0.180091380647497
30
0
41
1
10
43.5119052457312
20
-0.181757606267809
30
0
0
SPLINE
5
168
100
AcDbEntity
8
1
62
256
6
ByLayer
370
18
48
1
60
0
100
AcDbSpline
70
4
71
3
72
11
73
7
40
0
40
0
40
0
40
0
40
0.125128653306832
40
0.416752435537888
40
0.611168290358592
40
1
40
1
40
1
40
1
41
1
10
42.5953718994961
20
-0.459506158122195
30
0
41
1
10
42.4898729329973
20
-0.414694938448008
30
0
41
1
10
42.1384989664987
20
-0.264077830132862
30
0
41
0.999999999999999
10
41.6232083333334
20
-0.0384686101160696
30
0
41
1
10
40.8855833333333
20
0.284426512776463
30
0
41
1
10
40.3938333333333
20
0.495579646337546
30
0
41
1
10
40.066
20
0.631346731107584
30
0
0
SPLINE
5
169
100
AcDbEntity
8
1
62
256
6
ByLayer
370
18
48
1
60
0
100
AcDbSpline
70
4
71
3
72
8
73
4
40
0
40
0
40
0
40
0
40
1
40
1
40
1
40
1
41
1
10
42.7109695285017
20
1.19532236560261
30
0
41
1
10
42.6927309455715
20
1.19961298317051
30
0
41
1
10
42.6730040121743
20
1.20518224713854
30
0
41
1
10
42.6514111285133
20
1.21235455467394
30
0
0
SPLINE
5
16A
100
AcDbEntity
8
1
62
256
6
ByLayer
370
18
48
1
60
0
100
AcDbSpline
70
4
71
3
72
8
73
4
40
0
40
0
40
0
40
0
40
1
40
1
40
1
40
1
41
1
10
40.1707434980903
20
1.87443554484511
30
0
41
1
10
40.1357656917556
20
1.8862465138906
30
0
41
1
10
40.1008498888356
20
1.89824098498045
30
0
41
1
10
40.0660000000001
20
1.91042587795172
30
0
0
SPLINE
5
16B
100
AcDbEntity
8
1
62
256
6
ByLayer
370
18
48
1
60
0
100
AcDbSpline
70
4
71
3
72
8
73
4
40
0
40
0
40
0
40
0
40
1
40
1
40
1
40
1
41
1
10
40.1707434980903
20
1.87443554484511
30
0
41
1
10
40.2080380375589
20
1.88473981227438
30
0
41
1
10
40.2447628163914
20
1.89454703604966
30
0
41
1
10
40.2809246927009
20
1.90386319900182
30
0
0
SPLINE
5
16C
100
AcDbEntity
8
1
62
256
6
ByLayer
370
18
48
1
60
0
100
AcDbSpline
70
4
71
3
72
20
73
16
40
0
40
0
40
0
40
0
40
0.25
40
0.25
40
0.375
40
0.375
40
0.5
40
0.5
40
0.625
40
0.625
40
0.75
40
0.75
40
0.875
40
0.875
40
1
40
1
40
1
40
1
41
1
10
42.711969133225
20
-0.0422550654940892
30
0
41
1
10
42.7167071777256
20
-0.0513142518529719
30
0
41
1
10
42.7210032922748
20
-0.0605130044378939
30
0
41
1
10
42.7265283767201
20
-0.0746013908217265
30
0
41
1
10
42.7282154441
20
-0.0793463526066773
30
0
41
1
10
42.7312055841177
20
-0.0889575458001559
30
0
41
1
10
42.7325160659581
20
-0.093856969631986
30
0
41
1
10
42.7346017887236
20
-0.103641972424612
30
0
41
1
10
42.7353752283571
20
-0.10850373785479
30
0
41
1
10
42.736271453081
20
-0.118153041240788
30
0
41
1
10
42.7363906817127
20
-0.122988630662661
30
0
41
1
10
42.7358291427
20
-0.132306798199977
30
0
41
1
10
42.7351574891332
20
-0.13677076043993
30
0
41
1
10
42.7329615832982
20
-0.145273084648892
30
0
41
1
10
42.731425380603
20
-0.149311094750857
30
0
41
1
10
42.7294986370392
20
-0.152989096081598
30
0
0
SPLINE
5
16D
100
AcDbEntity
8
1
62
256
6
ByLayer
370
18
48
1
60
0
100
AcDbSpline
70
4
71
3
72
10
73
6
40
0
40
0
40
0
40
0
40
0.5
40
0.5
40
1
40
1
40
1
40
1
41
1
10
42.7294986426792
20
-0.152989098991838
30
0
41
1
10
42.7040797109459
20
-0.201505336009234
30
0
41
1
10
42.6799118743111
20
-0.251150612214929
30
0
41
1
10
42.6348716776444
20
-0.353186287491496
30
0
41
1
10
42.6140229869096
20
-0.405508400787767
30
0
41
1
10
42.5953718943767
20
-0.459506154990294
30
0
0
SPLINE
5
16E
100
AcDbEntity
8
1
62
256
6
ByLayer
370
18
48
1
60
0
100
AcDbSpline
70
4
71
3
72
8
73
4
40
0
40
0
40
0
40
0
40
1
40
1
40
1
40
1
41
1
10
42.5953718991812
20
-0.45950615863859
30
0
41
1
10
42.6126925878963
20
-0.486850997361785
30
0
41
1
10
42.6318305574857
20
-0.512711118750872
30
0
41
1
10
42.6519520564052
20
-0.537394473101301
30
0
0
SPLINE
5
16F
100
AcDbEntity
8
1
62
256
6
ByLayer
370
18
48
1
60
0
100
AcDbSpline
70
4
71
3
72
22
73
18
40
0
40
0
40
0
40
0
40
0.250000000000029
40
0.250000000000029
40
0.500000000000059
40
0.500000000000059
40
0.625000000000074
40
0.625000000000074
40
0.75000000000009
40
0.75000000000009
40
0.812500000000067
40
0.812500000000067
40
0.875000000000045
40
0.875000000000045
40
0.937500000000022
40
0.937500000000022
40
1
40
1
40
1
40
1
41
1
10
42.6519520529289
20
-0.53739446879905
30
0
41
1
10
42.6602187361093
20
-0.547534348226208
30
0
41
1
10
42.6681915500996
20
-0.557957310431703
30
0
41
1
10
42.683264642204
20
-0.579643744475476
30
0
41
1
10
42.6904090896156
20
-0.590963642594289
30
0
41
1
10
42.6996831892534
20
-0.608502628352596
30
0
41
1
10
42.7025410330144
20
-0.614455958329984
30
0
41
1
10
42.7075804399124
20
-0.626672493678512
30
0
41
1
10
42.709786003172
20
-0.632993587926592
30
0
41
1
10
42.7122024449527
20
-0.642650262500837
30
0
41
1
10
42.7128490191648
20
-0.645862516350093
30
0
41
1
10
42.7137521358173
20
-0.652270732038772
30
0
41
1
10
42.7140081323984
20
-0.655498558446055
30
0
41
1
10
42.7140260878076
20
-0.661752592145433
30
0
41
1
10
42.7137928851636
20
-0.664772483045709
30
0
41
1
10
42.7127935471958
20
-0.67057652763782
30
0
41
1
10
42.7120175728636
20
-0.67338193670841
30
0
41
1
10
42.7109695284414
20
-0.675994859744634
30
0
0
SPLINE
5
170
100
AcDbEntity
8
1
62
256
6
ByLayer
370
18
48
1
60
0
100
AcDbSpline
70
4
71
3
72
16
73
12
40
0
40
0
40
0
40
0
40
0.499999999999875
40
0.499999999999875
40
0.562499999999884
40
0.562499999999884
40
0.624999999999893
40
0.624999999999893
40
0.749999999999938
40
0.749999999999938
40
1
40
1
40
1
40
1
41
1
10
42.6471094734111
20
0.163996157057198
30
0
41
1
10
42.789258805539
20
0.0470791955541188
30
0
41
1
10
42.9384014012443
20
-0.0446776472704187
30
0
41
1
10
43.1122251249701
20
-0.126179698471247
30
0
41
1
10
43.1316231215302
20
-0.134932372112729
30
0
41
1
10
43.1705818489931
20
-0.151852239478728
30
0
41
1
10
43.1901676143586
20
-0.160029276317857
30
0
41
1
10
43.2489522669703
20
-0.18363042789008
30
0
41
1
10
43.2881517593509
20
-0.198119358734687
30
0
41
1
10
43.4057761873717
20
-0.23826309995107
30
0
41
1
10
43.4842269807345
20
-0.26060678779595
30
0
41
1
10
43.5627051179278
20
-0.279449054639827
30
0
0
SPLINE
5
171
100
AcDbEntity
8
1
62
256
6
ByLayer
370
18
48
1
60
0
100
AcDbSpline
70
4
71
3
72
10
73
6
40
0
40
0
40
0
40
0
40
0.5
40
0.5
40
1
40
1
40
1
40
1
41
1
10
39.9260009747784
20
0.496143893065778
30
0
41
1
10
39.916727218614
20
0.501463600826298
30
0
41
1
10
39.9070789081307
20
0.506611477028827
30
0
41
1
10
39.8868994634736
20
0.516502222836721
30
0
41
1
10
39.8763556725891
20
0.521244510604845
30
0
41
1
10
39.8655598719645
20
0.52561161337772
30
0
0
SPLINE
5
172
100
AcDbEntity
8
1
62
256
6
ByLayer
370
18
48
1
60
0
100
AcDbSpline
70
4
71
3
72
12
73
8
40
0
40
0
40
0
40
0
40
0.5
40
0.5
40
0.75
40
0.75
40
1
40
1
40
1
40
1
41
1
10
39.8655598719646
20
1.91857851000427
30
0
41
1
10
39.823106208627
20
1.90444015078245
30
0
41
1
10
39.7832728161557
20
1.88824211586612
30
0
41
1
10
39.7297965604606
20
1.8597278480504
30
0
41
1
10
39.7130799932332
20
1.84954529948001
30
0
41
1
10
39.6823395476991
20
1.8275549733797
30
0
41
1
10
39.6684074101103
20
1.81581465636287
30
0
41
1
10
39.65618971598
20
1.80317539966762
30
0
0
SPLINE
5
173
100
AcDbEntity
8
1
62
256
6
ByLayer
370
18
48
1
60
0
100
AcDbSpline
70
4
71
3
72
34
73
30
40
0
40
0
40
0
40
0
40
0.249999999999941
40
0.249999999999941
40
0.374999999999911
40
0.374999999999911
40
0.499999999999882
40
0.499999999999882
40
0.56249999999993
40
0.56249999999993
40
0.624999999999979
40
0.624999999999979
40
0.687500000000027
40
0.687500000000027
40
0.718750000000025
40
0.718750000000025
40
0.750000000000022
40
0.750000000000022
40
0.781250000000019
40
0.781250000000019
40
0.812500000000017
40
0.812500000000017
40
0.843750000000014
40
0.843750000000014
40
0.875000000000011
40
0.875000000000011
40
0.937500000000006
40
0.937500000000006
40
1
40
1
40
1
40
1
41
1
10
38.3954577421048
20
-2.03801752856418
30
0
41
1
10
38.3793370810379
20
-2.03697447416164
30
0
41
1
10
38.3634879996013
20
-2.03581860140633
30
0
41
1
10
38.340468848275
20
-2.03383540747887
30
0
41
1
10
38.3329233330284
20
-2.03313237143178
30
0
41
1
10
38.3182294594527
20
-2.03161099386924
30
0
41
1
10
38.3110723096055
20
-2.03079445674274
30
0
41
1
10
38.3008852059808
20
-2.02942955303166
30
0
41
1
10
38.2975822092401
20
-2.02895096583495
30
0
41
1
10
38.2912753787862
20
-2.0279228623503
30
0
41
1
10
38.2882800375041
20
-2.02737558514855
30
0
41
1
10
38.2830060865479
20
-2.02619417413214
30
0
41
1
10
38.2806770490924
20
-2.02555466567833
30
0
41
1
10
38.2785017641842
20
-2.02450375999419
30
0
41
1
10
38.2780039723176
20
-2.02413452348526
30
0
41
1
10
38.2777841245621
20
-2.02338528681986
30
0
41
1
10
38.2780779025312
20
-2.02299883989767
30
0
41
1
10
38.2796599722737
20
-2.02227105959193
30
0
41
1
10
38.2809446556877
20
-2.02193112474612
30
0
41
1
10
38.2841993667174
20
-2.02133808535666
30
0
41
1
10
38.2861107796344
20
-2.02108957704078
30
0
41
1
10
38.2902350212193
20
-2.02066174382557
30
0
41
1
10
38.2924492588039
20
-2.0204829064991
30
0
41
1
10
38.2969484068303
20
-2.02017960216793
30
0
41
1
10
38.2992560444438
20
-2.02005331380684
30
0
41
1
10
38.3062976017443
20
-2.01972698768321
30
0
41
1
10
38.3111260411476
20
-2.01957978139618
30
0
41
1
10
38.3207831446201
20
-2.01936693318802
30
0
41
1
10
38.3256429654195
20
-2.01930144404739
30
0
41
1
10
38.3305228824499
20
-2.01926252107981
30
0
0
SPLINE
5
174
100
AcDbEntity
8
1
62
256
6
ByLayer
370
18
48
1
60
0
100
AcDbSpline
70
4
71
3
72
12
73
8
40
0
40
0
40
0
40
0
40
0.5
40
0.5
40
0.75
40
0.75
40
1
40
1
40
1
40
1
41
1
10
38.3305228824498
20
-2.01926252107981
30
0
41
1
10
38.3454060279476
20
-2.01914381082597
30
0
41
1
10
38.3601585527215
20
-2.01891647315338
30
0
41
1
10
38.3819301239034
20
-2.01826757587477
30
0
41
1
10
38.389126858454
20
-2.01799910917461
30
0
41
1
10
38.4033378177723
20
-2.01729994146956
30
0
41
1
10
38.410354776942
20
-2.01687199859549
30
0
41
1
10
38.4172150472202
20
-2.01629962571573
30
0
0
SPLINE
5
175
100
AcDbEntity
8
1
62
256
6
ByLayer
370
18
48
1
60
0
100
AcDbSpline
70
4
71
3
72
16
73
12
40
0
40
0
40
0
40
0
40
0.25
40
0.25
40
0.5
40
0.5
40
0.75
40
0.75
40
0.875
40
0.875
40
1
40
1
40
1
40
1
41
1
10
38.4172150472135
20
-2.01629962574302
30
0
41
1
10
38.361501844204
20
-2.00856677087842
30
0
41
1
10
38.3074265938284
20
-1.99918132662373
30
0
41
1
10
38.2029822533252
20
-1.9763986686356
30
0
41
1
10
38.1526119920068
20
-1.96300449654956
30
0
41
1
10
38.056100117452
20
-1.93126731097419
30
0
41
1
10
38.0099562425263
20
-1.91292976509806
30
0
41
1
10
37.9444104671015
20
-1.88074210224903
30
0
41
1
10
37.9231321579546
20
-1.86920033416121
30
0
41
1
10
37.8822364535018
20
-1.84454839525719
30
0
41
1
10
37.8625924005254
20
-1.83143019454676
30
0
41
1
10
37.8437913603216
20
-1.81744164589131
30
0
0
SPLINE
5
176
100
AcDbEntity
8
1
62
256
6
ByLayer
370
18
48
1
60
0
100
AcDbSpline
70
4
71
3
72
24
73
20
40
0
40
0
40
0
40
0
40
0.12499999999991
40
0.12499999999991
40
0.249999999999819
40
0.249999999999819
40
0.312499999999776
40
0.312499999999776
40
0.374999999999733
40
0.374999999999733
40
0.43749999999969
40
0.43749999999969
40
0.499999999999647
40
0.499999999999647
40
0.624999999999735
40
0.624999999999735
40
0.749999999999822
40
0.749999999999822
40
1
40
1
40
1
40
1
41
1
10
37.8437913603216
20
-1.81744164589131
30
0
41
1
10
37.8409526261934
20
-1.8153295409204
30
0
41
1
10
37.8384070156333
20
-1.8131421105964
30
0
41
1
10
37.8341809749591
20
-1.8085512160016
30
0
41
1
10
37.8324824746686
20
-1.80611451605304
30
0
41
1
10
37.8310674804761
20
-1.80235990345122
30
0
41
1
10
37.8307829210307
20
-1.80109225196017
30
0
41
1
10
37.830674836683
20
-1.79851874333701
30
0
41
1
10
37.8308588283998
20
-1.79721625019917
30
0
41
1
10
37.8317362357512
20
-1.79468567568745
30
0
41
1
10
37.8324277711092
20
-1.79344398766691
30
0
41
1
10
37.8343435678593
20
-1.79101201039606
30
0
41
1
10
37.8355746510897
20
-1.78982424929552
30
0
41
1
10
37.8398569326391
20
-1.7865004202404
30
0
41
1
10
37.8435921862205
20
-1.78452475694223
30
0
41
1
10
37.8518141873716
20
-1.78115084781925
30
0
41
1
10
37.8563674634997
20
-1.77970837089137
30
0
41
1
10
37.8706266742001
20
-1.77595503981826
30
0
41
1
10
37.8807426676097
20
-1.77421731954701
30
0
41
1
10
37.8911486070308
20
-1.77285042097691
30
0
0
SPLINE
5
177
100
AcDbEntity
8
1
62
256
6
ByLayer
370
18
48
1
60
0
100
AcDbSpline
70
4
71
3
72
22
73
18
40
0
40
0
40
0
40
0
40
0.0624999999999968
40
0.0624999999999968
40
0.124999999999994
40
0.124999999999994
40
0.187499999999991
40
0.187499999999991
40
0.249999999999987
40
0.249999999999987
40
0.374999999999981
40
0.374999999999981
40
0.499999999999975
40
0.499999999999975
40
0.749999999999987
40
0.749999999999987
40
1
40
1
40
1
40
1
41
1
10
37.8911486070307
20
-1.77285042097691
30
0
41
1
10
37.924230924888
20
-1.76850480919268
30
0
41
1
10
37.957617098973
20
-1.76511636863424
30
0
41
1
10
38.0247803553912
20
-1.7596196266287
30
0
41
1
10
38.0585610139063
20
-1.75752128700918
30
0
41
1
10
38.1264132258481
20
-1.75429977563721
30
0
41
1
10
38.1604952645709
20
-1.75318092269541
30
0
41
1
10
38.2285215129682
20
-1.7517315674404
30
0
41
1
10
38.2625190092629
20
-1.75139954554737
30
0
41
1
10
38.3644733853291
20
-1.75136576064958
30
0
41
1
10
38.4323925917835
20
-1.75261645468814
30
0
41
1
10
38.5681570103057
20
-1.75695596398648
30
0
41
1
10
38.6360556435591
20
-1.76005608536423
30
0
41
1
10
38.8390409613478
20
-1.77143507568826
30
0
41
1
10
38.9735925521804
20
-1.78176860243838
30
0
41
1
10
39.2414800128827
20
-1.80557524448867
30
0
41
1
10
39.374466796966
20
-1.81903850225626
30
0
41
1
10
39.5067173041471
20
-1.83322631616093
30
0
0
SPLINE
5
178
100
AcDbEntity
8
1
62
256
6
ByLayer
370
18
48
1
60
0
100
AcDbSpline
70
4
71
3
72
8
73
4
40
0
40
0
40
0
40
0
40
1
40
1
40
1
40
1
41
1
10
39.5224453541592
20
-1.82844467621976
30
0
41
1
10
39.5171811421134
20
-1.8300338902107
30
0
41
1
10
39.5119382508615
20
-1.83162778085872
30
0
41
1
10
39.5067173041471
20
-1.83322631616096
30
0
0
SPLINE
5
179
100
AcDbEntity
8
1
62
256
6
ByLayer
370
18
48
1
60
0
100
AcDbSpline
70
4
71
3
72
10
73
6
40
0
40
0
40
0
40
0
40
0.5
40
0.5
40
1
40
1
40
1
40
1
41
1
10
39.6561897159803
20
-1.74250794487807
30
0
41
1
10
39.6305114559476
20
-1.75646773470706
30
0
41
1
10
39.6061603391947
20
-1.77066382276186
30
0
41
1
10
39.5611405015136
20
-1.79939261412875
30
0
41
1
10
39.5404861004738
20
-1.81391801891925
30
0
41
1
10
39.5224453541592
20
-1.82844467621976
30
0
0
SPLINE
5
17A
100
AcDbEntity
8
1
62
256
6
ByLayer
370
18
48
1
60
0
100
AcDbSpline
70
4
71
3
72
12
73
8
40
0
40
0
40
0
40
0
40
0.5
40
0.5
40
0.75
40
0.75
40
1
40
1
40
1
40
1
41
1
10
39.8655598719646
20
-1.57978935630138
30
0
41
1
10
39.8231062086271
20
-1.60550689837626
30
0
41
1
10
39.7832728161558
20
-1.6320582435288
30
0
41
1
10
39.7297965604607
20
-1.67296086941343
30
0
41
1
10
39.7130799932334
20
-1.68673184450503
30
0
41
1
10
39.6823395476994
20
-1.71454417559792
30
0
41
1
10
39.6684074101105
20
-1.72850091602135
30
0
41
1
10
39.6561897159804
20
-1.74250794487807
30
0
0
SPLINE
5
17B
100
AcDbEntity
8
1
62
256
6
ByLayer
370
18
48
1
60
0
100
AcDbSpline
70
4
71
3
72
34
73
30
40
0
40
0
40
0
40
0
40
0.250000000000126
40
0.250000000000126
40
0.375000000000116
40
0.375000000000116
40
0.500000000000107
40
0.500000000000107
40
0.562500000000103
40
0.562500000000103
40
0.625000000000099
40
0.625000000000099
40
0.687500000000095
40
0.687500000000095
40
0.71875000000012
40
0.71875000000012
40
0.750000000000144
40
0.750000000000144
40
0.781250000000169
40
0.781250000000169
40
0.812500000000194
40
0.812500000000194
40
0.843750000000218
40
0.843750000000218
40
0.875000000000243
40
0.875000000000243
40
0.937500000000121
40
0.937500000000121
40
1
40
1
40
1
40
1
41
1
10
38.3954577421054
20
-0.908711461565446
30
0
41
1
10
38.3793370810386
20
-0.899232535272006
30
0
41
1
10
38.3634879996018
20
-0.889418595328436
30
0
41
1
10
38.3404688482755
20
-0.873794424015159
30
0
41
1
10
38.332923333029
20
-0.868433759277707
30
0
41
1
10
38.3182294594532
20
-0.85724379174269
30
0
41
1
10
38.311072309606
20
-0.851424542290459
30
0
41
1
10
38.3008852059814
20
-0.842056523071818
30
0
41
1
10
38.2975822092407
20
-0.838825872231439
30
0
41
1
10
38.2912753787867
20
-0.832018386810063
30
0
41
1
10
38.2882800375046
20
-0.82845651784902
30
0
41
1
10
38.2830060865484
20
-0.820924028267058
30
0
41
1
10
38.2806770490929
20
-0.816918950318808
30
0
41
1
10
38.2785017641847
20
-0.810484575503352
30
0
41
1
10
38.2780039723181
20
-0.808247071561794
30
0
41
1
10
38.2777841245626
20
-0.803757050658163
30
0
41
1
10
38.2780779025317
20
-0.801466717756568
30
0
41
1
10
38.2796599722743
20
-0.797196067939154
30
0
41
1
10
38.2809446556882
20
-0.795223034072819
30
0
41
1
10
38.2841993667178
20
-0.79180484165812
30
0
41
1
10
38.2861107796349
20
-0.79038512675848
30
0
41
1
10
38.2902350212198
20
-0.78795133119894
30
0
41
1
10
38.2924492588044
20
-0.786940330433396
30
0
41
1
10
38.2969484068307
20
-0.785230719999021
30
0
41
1
10
38.2992560444442
20
-0.784521953825362
30
0
41
1
10
38.3062976017448
20
-0.782694341487115
30
0
41
1
10
38.3111260411482
20
-0.781875489508991
30
0
41
1
10
38.3207831446205
20
-0.780692556348811
30
0
41
1
10
38.3256429654199
20
-0.780329850010844
30
0
41
1
10
38.3305228824503
20
-0.780114264761181
30
0
0
SPLINE
5
17C
100
AcDbEntity
8
1
62
256
6
ByLayer
370
18
48
1
60
0
100
AcDbSpline
70
4
71
3
72
16
73
12
40
0
40
0
40
0
40
0
40
0.25
40
0.25
40
0.5
40
0.5
40
0.75
40
0.75
40
0.875
40
0.875
40
1
40
1
40
1
40
1
41
1
10
38.3305228824503
20
-0.780114264761181
30
0
41
1
10
38.340944298412
20
-0.779653866859348
30
0
41
1
10
38.3513282574878
20
-0.778886450121973
30
0
41
1
10
38.3719830715747
20
-0.776423231865209
30
0
41
1
10
38.3823116118867
20
-0.774722803220016
30
0
41
1
10
38.4023700280092
20
-0.769842534072296
30
0
41
1
10
38.412131086642
20
-0.766703364664977
30
0
41
1
10
38.4259585836534
20
-0.759862657913942
30
0
41
1
10
38.4304353287613
20
-0.757194826760013
30
0
41
1
10
38.4385237728443
20
-0.75105294145024
30
0
41
1
10
38.4422172007993
20
-0.747518335773151
30
0
41
1
10
38.4452940993799
20
-0.743495950556365
30
0
0
SPLINE
5
17D
100
AcDbEntity
8
1
62
256
6
ByLayer
370
18
48
1
60
0
100
AcDbSpline
70
4
71
3
72
18
73
14
40
0
40
0
40
0
40
0
40
0.125
40
0.125
40
0.25
40
0.25
40
0.375
40
0.375
40
0.5
40
0.5
40
0.75
40
0.75
40
1
40
1
40
1
40
1
41
1
10
38.0041874787627
20
-0.09091965861208
30
0
41
1
10
38.002956942838
20
-0.0871871369760981
30
0
41
1
10
38.0020313345477
20
-0.0833958609770775
30
0
41
1
10
38.0009911012405
20
-0.0756572217987923
30
0
41
1
10
38.0008916984752
20
-0.0716829528701339
30
0
41
1
10
38.0017359117537
20
-0.0639761648242825
30
0
41
1
10
38.0026882351796
20
-0.0601488044453902
30
0
41
1
10
38.0056633226309
20
-0.052886194444568
30
0
41
1
10
38.0076361989957
20
-0.0495285686414206
30
0
41
1
10
38.0148054897432
20
-0.0401611169914133
30
0
41
1
10
38.0209429020863
20
-0.0352057625786983
30
0
41
1
10
38.0342997216361
20
-0.0270218564974982
30
0
41
1
10
38.0414196634651
20
-0.0238425951791328
30
0
41
1
10
38.0487907286975
20
-0.0211824922436108
30
0
0
SPLINE
5
17E
100
AcDbEntity
8
1
62
256
6
ByLayer
370
18
48
1
60
0
100
AcDbSpline
70
4
71
3
72
10
73
6
40
0
40
0
40
0
40
0
40
0.5
40
0.5
40
1
40
1
40
1
40
1
41
1
10
39.6562211464351
20
0.132046545132567
30
0
41
1
10
39.6305391941982
20
0.105535154886752
30
0
41
1
10
39.6061841358657
20
0.0777122429828694
30
0
41
1
10
39.5611557646765
20
0.019128013837161
30
0
41
1
10
39.540496765379
20
-0.0116208053226785
30
0
41
1
10
39.5224510485111
20
-0.0438607079407802
30
0
0
SPLINE
5
17F
100
AcDbEntity
8
1
62
256
6
ByLayer
370
18
48
1
60
0
100
AcDbSpline
70
4
71
3
72
34
73
30
40
0
40
0
40
0
40
0
40
0.250000000000022
40
0.250000000000022
40
0.375000000000032
40
0.375000000000032
40
0.500000000000043
40
0.500000000000043
40
0.562500000000047
40
0.562500000000047
40
0.625000000000051
40
0.625000000000051
40
0.687500000000056
40
0.687500000000056
40
0.718750000000084
40
0.718750000000084
40
0.750000000000113
40
0.750000000000113
40
0.781250000000141
40
0.781250000000141
40
0.81250000000017
40
0.81250000000017
40
0.843750000000198
40
0.843750000000198
40
0.875000000000227
40
0.875000000000227
40
0.937500000000113
40
0.937500000000113
40
1
40
1
40
1
40
1
41
1
10
38.3954577421051
20
1.19391278067036
30
0
41
1
10
38.3793370810383
20
1.20250666659476
30
0
41
1
10
38.3634879996016
20
1.21132520680405
30
0
41
1
10
38.3404688482753
20
1.22521577859987
30
0
41
1
10
38.3329233330287
20
1.2299581132346
30
0
41
1
10
38.3182294594529
20
1.23980130436257
30
0
41
1
10
38.3110723096058
20
1.24489377303959
30
0
41
1
10
38.3008852059811
20
1.25303930654366
30
0
41
1
10
38.2975822092404
20
1.25584015981599
30
0
41
1
10
38.2912753787865
20
1.26172154064383
30
0
41
1
10
38.2882800375043
20
1.26478911656207
30
0
41
1
10
38.2830060865481
20
1.27125125396145
30
0
41
1
10
38.2806770490926
20
1.27467540739161
30
0
41
1
10
38.2785017641844
20
1.28015202767361
30
0
41
1
10
38.2780039723179
20
1.28205253163679
30
0
41
1
10
38.2777841245623
20
1.28585766423538
30
0
41
1
10
38.2780779025314
20
1.28779419838202
30
0
41
1
10
38.2796599722739
20
1.29139764891423
30
0
41
1
10
38.2809446556878
20
1.29305858395239
30
0
41
1
10
38.2841993667175
20
1.29593179217704
30
0
41
1
10
38.2861107796346
20
1.29712286772391
30
0
41
1
10
38.2902350212194
20
1.29916281626282
30
0
41
1
10
38.292449258804
20
1.30000905170928
30
0
41
1
10
38.2969484068304
20
1.30143911710667
30
0
41
1
10
38.2992560444439
20
1.30203142255445
30
0
41
1
10
38.3062976017444
20
1.30355802211136
30
0
41
1
10
38.3111260411478
20
1.30424096825655
30
0
41
1
10
38.3207831446202
20
1.30522737027602
30
0
41
1
10
38.3256429654196
20
1.30552958122945
30
0
41
1
10
38.33052288245
20
1.30570921179884
30
0
0
SPLINE
5
180
100
AcDbEntity
8
1
62
256
6
ByLayer
370
18
48
1
60
0
100
AcDbSpline
70
4
71
3
72
12
73
8
40
0
40
0
40
0
40
0
40
0.499999999999768
40
0.499999999999768
40
0.749999999999884
40
0.749999999999884
40
1
40
1
40
1
40
1
41
1
10
38.33052288245
20
1.30570921179884
30
0
41
1
10
38.3454060279477
20
1.30625706289618
30
0
41
1
10
38.3601585527218
20
1.30730905581186
30
0
41
1
10
38.3819301239035
20
1.31025871268375
30
0
41
1
10
38.3891268584541
20
1.31147403620108
30
0
41
1
10
38.4033378177724
20
1.31460229563174
30
0
41
1
10
38.4103547769422
20
1.31650499267783
30
0
41
1
10
38.4172150472203
20
1.31900325798207
30
0
0
SPLINE
5
181
100
AcDbEntity
8
1
62
256
6
ByLayer
370
18
48
1
60
0
100
AcDbSpline
70
4
71
3
72
16
73
12
40
0
40
0
40
0
40
0
40
0.250000000000007
40
0.250000000000007
40
0.500000000000015
40
0.500000000000015
40
0.750000000000023
40
0.750000000000023
40
0.875000000000011
40
0.875000000000011
40
1
40
1
40
1
40
1
41
1
10
38.4172150472136
20
1.31900325811753
30
0
41
1
10
38.3615018442041
20
1.35275524687424
30
0
41
1
10
38.3074265938286
20
1.38671257713634
30
0
41
1
10
38.2029822533252
20
1.45488347339412
30
0
41
1
10
38.1526119920068
20
1.48909831498264
30
0
41
1
10
38.056100117452
20
1.5575362549192
30
0
41
1
10
38.0099562425262
20
1.59176150598933
30
0
41
1
10
37.9444104671015
20
1.64281116403208
30
0
41
1
10
37.9231321579546
20
1.65981459223477
30
0
41
1
10
37.8822364535017
20
1.69337684484137
30
0
41
1
10
37.8625924005253
20
1.70995453042553
30
0
41
1
10
37.8437913603215
20
1.72628268472417
30
0
0
SPLINE
5
182
100
AcDbEntity
8
1
62
256
6
ByLayer
370
18
48
1
60
0
100
AcDbSpline
70
4
71
3
72
24
73
20
40
0
40
0
40
0
40
0
40
0.124999999999918
40
0.124999999999918
40
0.249999999999837
40
0.249999999999837
40
0.312499999999792
40
0.312499999999792
40
0.374999999999748
40
0.374999999999748
40
0.437499999999704
40
0.437499999999704
40
0.49999999999966
40
0.49999999999966
40
0.624999999999745
40
0.624999999999745
40
0.74999999999983
40
0.74999999999983
40
1
40
1
40
1
40
1
41
1
10
37.8437913603215
20
1.72628268472417
30
0
41
1
10
37.8409526261933
20
1.72874804240419
30
0
41
1
10
37.8384070156332
20
1.73127274512274
30
0
41
1
10
37.834180974959
20
1.73650333310806
30
0
41
1
10
37.8324824746683
20
1.7392460552953
30
0
41
1
10
37.831067480476
20
1.74341348136511
30
0
41
1
10
37.8307829210305
20
1.74481117846452
30
0
41
1
10
37.8306748366829
20
1.74762910315283
30
0
41
1
10
37.8308588283996
20
1.74904537176644
30
0
41
1
10
37.8317362357511
20
1.75177872901111
30
0
41
1
10
37.8324277711089
20
1.75311076820719
30
0
41
1
10
37.8343435678591
20
1.75570349386561
30
0
41
1
10
37.8355746510895
20
1.75696128169602
30
0
41
1
10
37.8398569326389
20
1.7604616682608
30
0
41
1
10
37.8435921862203
20
1.76251542033342
30
0
41
1
10
37.8518141873714
20
1.7659970685815
30
0
41
1
10
37.8563674634995
20
1.76747104945559
30
0
41
1
10
37.8706266741999
20
1.77128656472257
30
0
41
1
10
37.8807426676094
20
1.77302528561776
30
0
41
1
10
37.8911486070306
20
1.77438863238788
30
0
0
SPLINE
5
183
100
AcDbEntity
8
1
62
256
6
ByLayer
370
18
48
1
60
0
100
AcDbSpline
70
4
71
3
72
22
73
18
40
0
40
0
40
0
40
0
40
0.0625
40
0.0625
40
0.125
40
0.125
40
0.1875
40
0.1875
40
0.25
40
0.25
40
0.375
40
0.375
40
0.5
40
0.5
40
0.75
40
0.75
40
1
40
1
40
1
40
1
41
1
10
37.8911486070306
20
1.77438863238788
30
0
41
1
10
37.9242309248878
20
1.77872295237313
30
0
41
1
10
37.9576170989727
20
1.78201523505075
30
0
41
1
10
38.0247803553909
20
1.7873085237361
30
0
41
1
10
38.0585610139061
20
1.78929594759848
30
0
41
1
10
38.1264132258478
20
1.79233269393907
30
0
41
1
10
38.1604952645707
20
1.79337667417047
30
0
41
1
10
38.2285215129679
20
1.79472750211087
30
0
41
1
10
38.2625190092626
20
1.79503525247969
30
0
41
1
10
38.3644733853288
20
1.79506663085238
30
0
41
1
10
38.4323925917831
20
1.79390996766765
30
0
41
1
10
38.5681570103052
20
1.78983443653604
30
0
41
1
10
38.6360556435587
20
1.7869027393443
30
0
41
1
10
38.8390409613474
20
1.7758908143098
30
0
41
1
10
38.9735925521799
20
1.76561835937505
30
0
41
1
10
39.2414800128821
20
1.74010937303166
30
0
41
1
10
39.3744667969654
20
1.7248791872729
30
0
41
1
10
39.5067173041464
20
1.70730206991706
30
0
0
SPLINE
5
184
100
AcDbEntity
8
1
62
256
6
ByLayer
370
18
48
1
60
0
100
AcDbSpline
70
4
71
3
72
8
73
4
40
0
40
0
40
0
40
0
40
1
40
1
40
1
40
1
41
1
10
39.5224453541588
20
1.71317199203241
30
0
41
1
10
39.5171811421129
20
1.71123883966891
30
0
41
1
10
39.5119382508609
20
1.70928247667976
30
0
41
1
10
39.5067173041464
20
1.70730206991706
30
0
0
SPLINE
5
185
100
AcDbEntity
8
1
62
256
6
ByLayer
370
18
48
1
60
0
100
AcDbSpline
70
4
71
3
72
10
73
6
40
0
40
0
40
0
40
0
40
0.5
40
0.5
40
1
40
1
40
1
40
1
41
1
10
39.65618971598
20
1.80317539966762
30
0
41
1
10
39.6305114559473
20
1.79057876915698
30
0
41
1
10
39.6061603391943
20
1.7769227138584
30
0
41
1
10
39.5611405015133
20
1.74705196093993
30
0
41
1
10
39.5404861004734
20
1.73084251472744
30
0
41
1
10
39.5224453541588
20
1.71317199203241
30
0
0
SPLINE
5
186
100
AcDbEntity
8
1
62
256
6
ByLayer
370
18
48
1
60
0
100
AcDbSpline
70
4
71
3
72
18
73
14
40
0
40
0
40
0
40
0
40
0.250000000000006
40
0.250000000000006
40
0.500000000000011
40
0.500000000000011
40
0.562500000000013
40
0.562500000000013
40
0.625000000000015
40
0.625000000000015
40
0.750000000000017
40
0.750000000000017
40
1
40
1
40
1
40
1
41
1
10
38.4452940993799
20
-0.743495950556337
30
0
41
1
10
38.3963652712591
20
-0.699723387341663
30
0
41
1
10
38.3498671024139
20
-0.653660934349062
30
0
41
1
10
38.2624246251725
20
-0.556185486836938
30
0
41
1
10
38.2214778472582
20
-0.504775718513599
30
0
41
1
10
38.174296137078
20
-0.436555917496293
30
0
41
1
10
38.1650603950592
20
-0.422713394812718
30
0
41
1
10
38.1470057678478
20
-0.394612718611143
30
0
41
1
10
38.1381715890659
20
-0.380328291411416
30
0
41
1
10
38.1124483253712
20
-0.337041353410967
30
0
41
1
10
38.0963500475259
20
-0.307634995770997
30
0
41
1
10
38.051266622361
20
-0.217722826226805
30
0
41
1
10
38.0254873756823
20
-0.155527545711635
30
0
41
1
10
38.0041874787627
20
-0.09091965861208
30
0
0
SPLINE
5
187
100
AcDbEntity
8
1
62
256
6
ByLayer
370
18
48
1
60
0
100
AcDbSpline
70
4
71
3
72
8
73
4
40
0
40
0
40
0
40
0
40
1
40
1
40
1
40
1
41
1
10
39.5224510485112
20
-0.0438607079407518
30
0
41
1
10
39.5111569230937
20
-0.0514265141595445
30
0
41
1
10
39.4999608325852
20
-0.0591222118157191
30
0
41
1
10
39.4888691694583
20
-0.0669561876082128
30
0
0
SPLINE
5
188
100
AcDbEntity
8
1
62
256
6
ByLayer
370
18
48
1
60
0
100
AcDbSpline
70
4
71
3
72
12
73
8
40
0
40
0
40
0
40
0
40
0.5
40
0.5
40
0.75
40
0.75
40
1
40
1
40
1
40
1
41
1
10
39.8655598719646
20
0.408978138792378
30
0
41
1
10
39.8231150395963
20
0.369388334020101
30
0
41
1
10
39.7832894352276
20
0.326883294224842
30
0
41
1
10
39.7298217881761
20
0.257775129253162
30
0
41
1
10
39.7131075416116
20
0.233914450694925
30
0
41
1
10
39.6823702949992
20
0.184272143947339
30
0
41
1
10
39.6684389802446
20
0.158642037853866
30
0
41
1
10
39.6562211464351
20
0.132046545132539
30
0
0
SPLINE
5
189
100
AcDbEntity
8
1
62
256
6
ByLayer
370
18
48
1
60
0
100
AcDbSpline
70
4
71
3
72
8
73
4
40
0
40
0
40
0
40
0
40
1
40
1
40
1
40
1
41
1
10
40.0660000000001
20
0.461667102968534
30
0
41
1
10
40.0192811008682
20
0.473308894730025
30
0
41
1
10
39.9726147977882
20
0.484801048104202
30
0
41
1
10
39.926000974778
20
0.49614389306555
30
0
0
SPLINE
5
18A
100
AcDbEntity
8
1
62
256
6
ByLayer
370
18
48
1
60
0
100
AcDbSpline
70
4
71
3
72
12
73
8
40
0
40
0
40
0
40
0
40
0.500000000000108
40
0.500000000000108
40
0.750000000000054
40
0.750000000000054
40
1
40
1
40
1
40
1
41
1
10
39.926000974778
20
0.49614389306555
30
0
41
1
10
39.9177509722738
20
0.480415566298205
30
0
41
1
10
39.908968405307
20
0.465037778423721
30
0
41
1
10
39.8943147628267
20
0.442945500049888
30
0
41
1
10
39.8891797402944
20
0.43574633930632
30
0
41
1
10
39.8781179559761
20
0.421869462337611
30
0
41
1
10
39.8722089974743
20
0.41518001464263
30
0
41
1
10
39.8655598719641
20
0.408978138791866
30
0
0
SPLINE
5
18B
100
AcDbEntity
8
1
62
256
6
ByLayer
370
18
48
1
60
0
100
AcDbSpline
70
4
71
3
72
8
73
4
40
0
40
0
40
0
40
0
40
1
40
1
40
1
40
1
41
1
10
40.066
20
-0.20718230579169
30
0
41
1
10
40.0214573031455
20
-0.199490769907385
30
0
41
1
10
39.9768920671934
20
-0.19598483080938
30
0
41
1
10
39.9323823778345
20
-0.197531892946444
30
0
0
SPLINE
5
18C
100
AcDbEntity
8
1
62
256
6
ByLayer
370
18
48
1
60
0
100
AcDbSpline
70
4
71
3
72
8
73
4
40
0
40
0
40
0
40
0
40
1
40
1
40
1
40
1
41
1
10
39.4888691694583
20
-0.0669561876082412
30
0
41
1
10
39.635249616991
20
-0.111547983995536
30
0
41
1
10
39.7831473162892
20
-0.154902562123709
30
0
41
1
10
39.9323823778346
20
-0.197531892946415
30
0
0
SPLINE
5
18D
100
AcDbEntity
8
1
62
256
6
ByLayer
370
18
48
1
60
0
100
AcDbSpline
70
4
71
3
72
22
73
18
40
0
40
0
40
0
40
0
40
0.0624999999999893
40
0.0624999999999893
40
0.124999999999979
40
0.124999999999979
40
0.187499999999968
40
0.187499999999968
40
0.249999999999957
40
0.249999999999957
40
0.374999999999964
40
0.374999999999964
40
0.499999999999972
40
0.499999999999972
40
0.749999999999986
40
0.749999999999986
40
1
40
1
40
1
40
1
41
1
10
38.0487907286975
20
-0.0211824922436392
30
0
41
1
10
38.0775773251207
20
-0.0107938567840051
30
0
41
1
10
38.1067490166223
20
-0.0025329308745654
30
0
41
1
10
38.1655662814256
20
0.011370905988997
30
0
41
1
10
38.1952172633086
20
0.0169839267983605
30
0
41
1
10
38.2548638621281
20
0.0263061224598289
30
0
41
1
10
38.2848611052017
20
0.0300063107574431
30
0
41
1
10
38.3451245594945
20
0.0359209209255198
30
0
41
1
10
38.3754307637834
20
0.0381333538473427
30
0
41
1
10
38.4663220062593
20
0.0429264006859853
30
0
41
1
10
38.5268985437439
20
0.0436997975632778
30
0
41
1
10
38.6480264758718
20
0.0417916551769224
30
0
41
1
10
38.7085785243461
20
0.0390907908647193
30
0
41
1
10
38.8901998443442
20
0.0268579890849026
30
0
41
1
10
39.0106802485691
20
0.0132916475413083
30
0
41
1
10
39.2507911646722
20
-0.0215031973720272
30
0
41
1
10
39.3701620598717
20
-0.0427504080700487
30
0
41
1
10
39.4888691694583
20
-0.0669561876082128
30
0
0
SPLINE
5
18E
100
AcDbEntity
8
1
62
256
6
ByLayer
370
18
48
1
60
0
100
AcDbSpline
70
4
71
3
72
8
73
4
40
0
40
0
40
0
40
0
40
1
40
1
40
1
40
1
41
1
10
43.8025101067375
20
0.385309457178579
30
0
41
1
10
43.7680589661076
20
0.444500452038994
30
0
41
1
10
43.7316971471732
20
0.504574031178009
30
0
41
1
10
43.6934282728533
20
0.565528521089732
30
0
0
SPLINE
5
18F
100
AcDbEntity
8
1
62
256
6
ByLayer
370
18
48
1
60
0
100
AcDbSpline
70
4
71
3
72
30
73
26
40
0
40
0
40
0
40
0
40
0.124999999999972
40
0.124999999999972
40
0.187499999999959
40
0.187499999999959
40
0.218749999999958
40
0.218749999999958
40
0.249999999999957
40
0.374999999999968
40
0.374999999999968
40
0.499999999999978
40
0.499999999999978
40
0.531249999999981
40
0.531249999999981
40
0.562499999999984
40
0.562499999999984
40
0.624999999999989
40
0.624999999999989
40
0.749999999999999
40
0.749999999999999
40
0.812500000000004
40
0.812500000000004
40
0.875000000000009
40
1
40
1
40
1
40
1
41
1
10
43.6934282728533
20
0.565528521089732
30
0
41
1
10
43.6698709527555
20
0.572779989072018
30
0
41
1
10
43.6431626395511
20
0.582795125223356
30
0
41
1
10
43.5983795779687
20
0.601958158797146
30
0
41
1
10
43.5826496906724
20
0.609049429082177
30
0
41
1
10
43.5578042670837
20
0.62078320237535
30
0
41
1
10
43.5492982464776
20
0.624884913787497
30
0
41
1
10
43.5319391261049
20
0.633423787551578
30
0
41
1
10
43.4877457921014
20
0.655573092447924
30
0
41
1
10
43.4395920907857
20
0.681715558491248
30
0
41
1
10
43.3575500873406
20
0.728580955568759
30
0
41
1
10
43.314058769034
20
0.75450442615616
30
0
41
1
10
43.2563734049006
20
0.790257481982849
30
0
41
1
10
43.2446432334935
20
0.797592849455953
30
0
41
1
10
43.2210020096497
20
0.812505567354606
30
0
41
1
10
43.2090918400616
20
0.8200819817217
30
0
41
1
10
43.1730979204842
20
0.843164336918932
30
0
41
1
10
43.1487519571091
20
0.85902178464849
30
0
41
1
10
43.0746917522804
20
0.907964579123728
30
0
41
1
10
43.0239479838284
20
0.942430045505063
30
0
41
1
10
42.9457706936885
20
0.996891947590399
30
0
41
1
10
42.919359212325
20
1.01551289209635
30
0
41
1
10
42.8658825618984
20
1.05365293034936
30
0
41
1
10
42.7856037825281
20
1.11155673207557
30
0
41
1
10
42.705137095192
20
1.17150367592583
30
0
41
1
10
42.6514111285205
20
1.21235455466777
30
0
0
SPLINE
5
190
100
AcDbEntity
8
1
62
256
6
ByLayer
370
18
48
1
60
0
100
AcDbSpline
70
4
71
3
72
54
73
50
40
0
40
0
40
0
40
0
40
0.0312499999999945
40
0.0312499999999945
40
0.0468749999999982
40
0.0468749999999982
40
0.0625000000000019
40
0.0625000000000019
40
0.124999999999991
40
0.124999999999991
40
0.187499999999979
40
0.187499999999979
40
0.218749999999981
40
0.218749999999981
40
0.249999999999982
40
0.249999999999982
40
0.281249999999983
40
0.281249999999983
40
0.285156249999983
40
0.285156249999983
40
0.289062499999983
40
0.289062499999983
40
0.292968749999983
40
0.292968749999983
40
0.296874999999983
40
0.296874999999983
40
0.312499999999984
40
0.312499999999984
40
0.374999999999985
40
0.374999999999985
40
0.437499999999987
40
0.437499999999987
40
0.468749999999988
40
0.468749999999988
40
0.499999999999989
40
0.499999999999989
40
0.62499999999998
40
0.62499999999998
40
0.687499999999981
40
0.687499999999981
40
0.718749999999988
40
0.718749999999988
40
0.749999999999994
40
0.749999999999994
40
0.874999999999997
40
0.874999999999997
40
0.937499999999999
40
0.937499999999999
40
1
40
1
40
1
40
1
41
1
10
42.6514111285203
20
1.21235455467121
30
0
41
1
10
42.6258030866313
20
1.22205101752829
30
0
41
1
10
42.599910510177
20
1.23213624678783
30
0
41
1
10
42.560635251352
20
1.24780033928099
30
0
41
1
10
42.547470503317
20
1.25311118750904
30
0
41
1
10
42.520991939317
20
1.2639045374583
30
0
41
1
10
42.507656067998
20
1.2693962857312
30
0
41
1
10
42.4409746926963
20
1.29710749970681
30
0
41
1
10
42.3875040077405
20
1.3201257422601
30
0
41
1
10
42.280121799648
20
1.36724023052656
30
0
41
1
10
42.2262105255755
20
1.39133818513287
30
0
41
1
10
42.144866964937
20
1.42788073553507
30
0
41
1
10
42.1175955074543
20
1.44016280692978
30
0
41
1
10
42.0633461916441
20
1.4645762286321
30
0
41
1
10
42.036360045364
20
1.47671113520707
30
0
41
1
10
41.9826219377535
20
1.50078389853232
30
0
41
1
10
41.9558691182142
20
1.51272326582313
30
0
41
1
10
41.925884543442
20
1.52601311049256
30
0
41
1
10
41.9225545075809
20
1.52748775377489
30
0
41
1
10
41.9158975582311
20
1.53043288345165
30
0
41
1
10
41.9125745804523
20
1.5318966449185
30
0
41
1
10
41.9059105718361
20
1.53485593586188
30
0
41
1
10
41.9025653967719
20
1.53635887489642
30
0
41
1
10
41.8958934042298
20
1.53933501402887
30
0
41
1
10
41.8925606202296
20
1.54081829406562
30
0
41
1
10
41.8758962423383
20
1.54823904138399
30
0
41
1
10
41.8625819896241
20
1.55415743634936
30
0
41
1
10
41.7961301285421
20
1.58356867940879
30
0
41
1
10
41.7433066801282
20
1.6065923440261
30
0
41
1
10
41.6380987615919
20
1.65130533907495
30
0
41
1
10
41.5857158291319
20
1.67299584587005
30
0
41
1
10
41.507335868596
20
1.70423608205059
30
0
41
1
10
41.4811698897547
20
1.7145000448908
30
0
41
1
10
41.4292761196704
20
1.73440371242722
30
0
41
1
10
41.4035312677362
20
1.74404606330094
30
0
41
1
10
41.2757049663988
20
1.79067605583731
30
0
41
1
10
41.1762682271339
20
1.82294485384406
30
0
41
1
10
41.0299530674612
20
1.86279181913198
30
0
41
1
10
40.9816552063912
20
1.87465578168994
30
0
41
1
10
40.90981577489
20
1.89014120491535
30
0
41
1
10
40.8859205040298
20
1.89492450579388
30
0
41
1
10
40.8386288199346
20
1.90359872597554
30
0
41
1
10
40.8152451845115
20
1.90749008519592
30
0
41
1
10
40.6995272484372
20
1.92474729496106
30
0
41
1
10
40.610724816365
20
1.9315780054159
30
0
41
1
10
40.4828792469829
20
1.9303080209491
30
0
41
1
10
40.441147947319
20
1.92797659918554
30
0
41
1
10
40.3596144321715
20
1.91910592670686
30
0
41
1
10
40.3197603536142
20
1.91262147239149
30
0
41
1
10
40.2809246927009
20
1.90386319900182
30
0
0
SPLINE
5
191
100
AcDbEntity
8
1
62
256
6
ByLayer
370
18
48
1
60
0
100
AcDbSpline
70
4
71
1
72
4
73
2
40
0
40
0
40
1
40
1
41
1
10
40.1332261073073
20
1.73245296273893
30
0
41
1
10
40.2809246927009
20
1.90386319900182
30
0
0
SPLINE
5
192
100
AcDbEntity
8
1
62
256
6
ByLayer
370
18
48
1
60
0
100
AcDbSpline
70
4
71
3
72
18
73
14
40
0
40
0
40
0
40
0
40
0.25
40
0.25
40
0.5
40
0.5
40
0.625
40
0.625
40
0.75
40
0.75
40
0.875
40
0.875
40
1
40
1
40
1
40
1
41
1
10
43.7894465871149
20
0.348465498369194
30
0
41
1
10
43.7876797133337
20
0.343617748721613
30
0
41
1
10
43.7861883626822
20
0.33813640072691
30
0
41
1
10
43.7840214163163
20
0.325516376365812
30
0
41
1
10
43.7833338226569
20
0.318398386004503
30
0
41
1
10
43.7833283890638
20
0.305817515019896
30
0
41
1
10
43.7835053447459
20
0.301257578286538
30
0
41
1
10
43.7843380889287
20
0.291514870817224
30
0
41
1
10
43.7849886290948
20
0.286333042598017
30
0
41
1
10
43.786938844863
20
0.275128160918712
30
0
41
1
10
43.7882248313925
20
0.269210929951299
30
0
41
1
10
43.7915260680784
20
0.256861843818228
30
0
41
1
10
43.7935851272878
20
0.250295430813679
30
0
41
1
10
43.7960243667599
20
0.243650178639399
30
0
0
SPLINE
5
193
100
AcDbEntity
8
1
62
256
6
ByLayer
370
18
48
1
60
0
100
AcDbSpline
70
4
71
3
72
8
73
4
40
0
40
0
40
0
40
0
40
1
40
1
40
1
40
1
41
1
10
43.7894465871149
20
0.348465498369194
30
0
41
1
10
43.7940672610181
20
0.361143183964941
30
0
41
1
10
43.7984374921655
20
0.373453977107943
30
0
41
1
10
43.8025101067375
20
0.385309457178579
30
0
0
SPLINE
5
194
100
AcDbEntity
8
1
62
256
6
ByLayer
370
18
48
1
60
0
100
AcDbSpline
70
4
71
3
72
10
73
6
40
0
40
0
40
0
40
0
40
0.5
40
0.5
40
1
40
1
40
1
40
1
41
1
10
42.5829838809626
20
0.174358295796821
30
0
41
1
10
42.6059506515443
20
0.139574393809085
30
0
41
1
10
42.6283070661095
20
0.104242825274611
30
0
41
1
10
42.6714544343651
20
0.0321750153133564
30
0
41
1
10
42.6922520609898
20
-0.0045552385539338
30
0
41
1
10
42.7119691317426
20
-0.0422550647476214
30
0
0
SPLINE
5
195
100
AcDbEntity
8
1
62
256
6
ByLayer
370
18
48
1
60
0
100
AcDbSpline
70
4
71
3
72
8
73
4
40
0
40
0
40
0
40
0
40
1
40
1
40
1
40
1
41
1
10
42.6128733187435
20
0.17520400159799
30
0
41
1
10
42.6029169237255
20
0.174911162567383
30
0
41
1
10
42.5929537039439
20
0.174629380284841
30
0
41
1
10
42.5829838809626
20
0.17435829579685
30
0
0
SPLINE
5
196
100
AcDbEntity
8
1
62
256
6
ByLayer
370
18
48
1
60
0
100
AcDbSpline
70
4
71
3
72
8
73
4
40
0
40
0
40
0
40
0
40
1
40
1
40
1
40
1
41
1
10
42.5364919515434
20
0.255912699779657
30
0
41
1
10
42.5616455049915
20
0.228730478823053
30
0
41
1
10
42.5870901203308
20
0.201808359198736
30
0
41
1
10
42.6128733187503
20
0.175204001604754
30
0
0
SPLINE
5
197
100
AcDbEntity
8
1
62
256
6
ByLayer
370
18
48
1
60
0
100
AcDbSpline
70
4
71
3
72
30
73
26
40
0
40
0
40
0
40
0
40
0.250000000000029
40
0.250000000000029
40
0.375000000000027
40
0.375000000000027
40
0.500000000000024
40
0.500000000000024
40
0.625000000000021
40
0.625000000000021
40
0.750000000000019
40
0.750000000000019
40
0.812500000000018
40
0.812500000000018
40
0.875000000000017
40
0.875000000000017
40
0.906250000000013
40
0.906250000000013
40
0.937500000000008
40
0.937500000000008
40
0.968750000000004
40
0.968750000000004
40
0.984375000000002
40
0.984375000000002
40
1
40
1
40
1
40
1
41
1
10
42.536491799162
20
0.25591286445399
30
0
41
1
10
42.5052117734036
20
0.28971566874219
30
0
41
1
10
42.4794627344376
20
0.326916323157661
30
0
41
1
10
42.4474103696878
20
0.386166149023722
30
0
41
1
10
42.4380045600283
20
0.406192076277648
30
0
41
1
10
42.4214589131529
20
0.446262372612466
30
0
41
1
10
42.4142947592313
20
0.466350571957719
30
0
41
1
10
42.4018920831738
20
0.506411628083555
30
0
41
1
10
42.396640414261
20
0.526454448684518
30
0
41
1
10
42.3881667963476
20
0.565330474310457
30
0
41
1
10
42.3848759945815
20
0.584274722517165
30
0
41
1
10
42.3817613946458
20
0.611780199837568
30
0
41
1
10
42.3810316454375
20
0.620820004379453
30
0
41
1
10
42.380517605693
20
0.638311307943212
30
0
41
1
10
42.3807076347848
20
0.646818527968549
30
0
41
1
10
42.3823409469153
20
0.658758800529597
30
0
41
1
10
42.3831123943899
20
0.662606556195158
30
0
41
1
10
42.3854374957099
20
0.669909570627311
30
0
41
1
10
42.3869715382417
20
0.673338550380691
30
0
41
1
10
42.3914443544605
20
0.679268087975203
30
0
41
1
10
42.3943252634556
20
0.681691834478642
30
0
41
1
10
42.4003425343401
20
0.683766991731829
30
0
41
1
10
42.4025471164963
20
0.684160001291332
30
0
41
1
10
42.4073782007066
20
0.684332259003611
30
0
41
1
10
42.4099625786895
20
0.684104796239524
30
0
41
1
10
42.4126172149421
20
0.683621911896893
30
0
0
SPLINE
5
198
100
AcDbEntity
8
1
62
256
6
ByLayer
370
18
48
1
60
0
100
AcDbSpline
70
4
71
3
72
8
73
4
40
0
40
0
40
0
40
0
40
1
40
1
40
1
40
1
41
1
10
40.0688789281785
20
1.61738956733475
30
0
41
1
10
40.0679195593171
20
1.61700208173855
30
0
41
1
10
40.066959915494
20
1.61661355649653
30
0
41
1
10
40.066
20
1.61622398996246
30
0
0
SPLINE
5
199
100
AcDbEntity
8
1
62
256
6
ByLayer
370
18
48
1
60
0
100
AcDbSpline
70
4
71
3
72
22
73
18
40
0
40
0
40
0
40
0
40
0.25
40
0.25
40
0.375
40
0.375
40
0.499999999999999
40
0.499999999999999
40
0.562499999999999
40
0.562499999999999
40
0.624999999999999
40
0.624999999999999
40
0.749999999999999
40
0.749999999999999
40
0.875
40
0.875
40
1
40
1
40
1
40
1
41
1
10
43.9647584261747
20
0.0552488643835432
30
0
41
1
10
43.9671508996656
20
0.0484702385029721
30
0
41
1
10
43.969389631778
20
0.0424455472505656
30
0
41
1
10
43.9723640846011
20
0.0354683033072831
30
0
41
1
10
43.9732785771304
20
0.0335246701528149
30
0
41
1
10
43.9748772442091
20
0.0307483917172249
30
0
41
1
10
43.9755727509432
20
0.0299053571304455
30
0
41
1
10
43.9763444327236
20
0.0298573795940626
30
0
41
1
10
43.9765571013855
20
0.0300404441464366
30
0
41
1
10
43.9768836773996
20
0.0308562096879541
30
0
41
1
10
43.9769974274273
20
0.0314992246825341
30
0
41
1
10
43.9771688640963
20
0.0340934824861563
30
0
41
1
10
43.9770617266354
20
0.0367361470763399
30
0
41
1
10
43.9764517124241
20
0.0435809345544556
30
0
41
1
10
43.9759601776709
20
0.0476849725463069
30
0
41
1
10
43.9747220657926
20
0.0567840761409286
30
0
41
1
10
43.9739917455695
20
0.0616679699880365
30
0
41
1
10
43.9731872620396
20
0.0667838462287307
30
0
0
SPLINE
5
19A
100
AcDbEntity
8
1
62
256
6
ByLayer
370
18
48
1
60
0
100
AcDbSpline
70
4
71
3
72
8
73
4
40
0
40
0
40
0
40
0
40
1
40
1
40
1
40
1
41
1
10
43.9647584261747
20
0.0552488643835716
30
0
41
1
10
43.9611654244471
20
0.065428962341997
30
0
41
1
10
43.95743604696
20
0.0757113373801417
30
0
41
1
10
43.9535751885604
20
0.0860872102461485
30
0
0
SPLINE
5
19B
100
AcDbEntity
8
1
62
256
6
ByLayer
370
18
48
1
60
0
100
AcDbSpline
70
4
71
3
72
8
73
4
40
0
40
0
40
0
40
0
40
1
40
1
40
1
40
1
41
1
10
43.9535751885604
20
0.0860872102461201
30
0
41
1
10
43.9382543620015
20
0.0980674880042329
30
0
41
1
10
43.9174050513149
20
0.109711172739821
30
0
41
1
10
43.8912308066418
20
0.121030657281665
30
0
0
SPLINE
5
19C
100
AcDbEntity
8
1
62
256
6
ByLayer
370
18
48
1
60
0
100
AcDbSpline
70
4
71
3
72
20
73
16
40
0
40
0
40
0
40
0
40
0.0624999999999776
40
0.0624999999999776
40
0.124999999999955
40
0.124999999999955
40
0.249999999999962
40
0.249999999999962
40
0.374999999999968
40
0.374999999999968
40
0.499999999999974
40
0.499999999999974
40
0.749999999999987
40
0.749999999999987
40
1
40
1
40
1
40
1
41
1
10
43.7960243667599
20
0.243650178639399
30
0
41
1
10
43.7977818753344
20
0.237823530493444
30
0
41
1
10
43.7996985379295
20
0.232302954311848
30
0
41
1
10
43.8037744799936
20
0.221749761808496
30
0
41
1
10
43.8059564018956
20
0.216674271000898
30
0
41
1
10
43.8125905190893
20
0.20249458795567
30
0
41
1
10
43.8171467158549
20
0.194319203786137
30
0
41
1
10
43.8262939858181
20
0.179664696842821
30
0
41
1
10
43.8307617902481
20
0.173392227548618
30
0
41
1
10
43.8394976088799
20
0.162208823731248
30
0
41
1
10
43.8437675311834
20
0.157309192136694
30
0
41
1
10
43.8562652683015
20
0.144176491120902
30
0
41
1
10
43.863958970159
20
0.137694202235025
30
0
41
1
10
43.8783368013772
20
0.127443446280836
30
0
41
1
10
43.88501445194
20
0.12371902257479
30
0
41
1
10
43.8912308066418
20
0.121030657281665
30
0
0
SPLINE
5
19D
100
AcDbEntity
8
1
62
256
6
ByLayer
370
18
48
1
60
0
100
AcDbSpline
70
4
71
3
72
37
73
33
40
0
40
0
40
0
40
0
40
0.0210181795729235
40
0.042289644500658
40
0.0744829648989082
40
0.0960459888762307
40
0.128423952641499
40
0.149933309227654
40
0.17142902798855
40
0.192949470449086
40
0.257496514125283
40
0.314859269152964
40
0.336418168404763
40
0.343615015449228
40
0.352561982878666
40
0.374930406247135
40
0.419711630008136
40
0.439334738796466
40
0.445085640003986
40
0.44691135164739
40
0.449135980316779
40
0.449674289187771
40
0.459103279158662
40
0.4945364513096
40
0.512191359667333
40
0.610839474447967
40
0.692743612325607
40
0.775549987439065
40
0.858910307617521
40
0.9419090876137
40
0.996316331299114
40
1
40
1
40
1
40
1
41
1
10
40.1332261073073
20
1.73245296273893
30
0
41
1
10
40.1607528142727
20
1.74248882873039
30
0
41
1
10
40.2157283440631
20
1.75946277026665
30
0
41
1
10
40.3118064772532
20
1.7799885162961
30
0
41
1
10
40.4080127408385
20
1.78992230153258
30
0
41
1
10
40.5186769505835
20
1.79129022635462
30
0
41
1
10
40.6156831477123
20
1.78420292632421
30
0
41
1
10
40.7139453817727
20
1.77040860353341
30
0
41
1
10
40.7989335033548
20
1.75474523186398
30
0
41
1
10
40.9416104615721
20
1.72193934648152
30
0
41
1
10
41.1354138786793
20
1.66298738767793
30
0
41
1
10
41.3324673272309
20
1.58487831980619
30
0
41
1
10
41.4513308228708
20
1.53157097320087
30
0
41
1
10
41.5033997553643
20
1.50722966683603
30
0
41
1
10
41.5568511022265
20
1.48220928836935
30
0
41
1
10
41.6625758497699
20
1.43086995412415
30
0
41
1
10
41.783351192438
20
1.36846989679944
30
0
41
1
10
41.8808627322506
20
1.31586923216651
30
0
41
1
10
41.9185865238629
20
1.29515210878006
30
0
41
1
10
41.9322428549676
20
1.28771749485173
30
0
41
1
10
41.9385412198146
20
1.28412158852387
30
0
41
1
10
41.9559581645441
20
1.27546190515045
30
0
41
1
10
42.0206356502955
20
1.24295155918389
30
0
41
1
10
42.1094016987296
20
1.19711421805727
30
0
41
1
10
42.323359808731
20
1.08400847032857
30
0
41
1
10
42.5977856104322
20
0.932345879091599
30
0
41
1
10
42.9383706312507
20
0.739401571264324
30
0
41
1
10
43.2284465312887
20
0.572939645762801
30
0
41
1
10
43.4810915964551
20
0.425985754148911
30
0
41
1
10
43.6654949995176
20
0.318275823355407
30
0
41
1
10
43.7596116093491
20
0.26418650469509
30
0
41
1
10
43.7938701702267
20
0.244863541973075
30
0
41
1
10
43.7960243667631
20
0.24365017863758
30
0
0
SPLINE
5
19E
100
AcDbEntity
8
1
62
256
6
ByLayer
370
18
48
1
60
0
100
AcDbSpline
70
4
71
1
72
4
73
2
40
0
40
0
40
1
40
1
41
1
10
40.0689745168438
20
1.61773737804174
30
0
41
1
10
40.1332261073073
20
1.73245296273893
30
0
0
SPLINE
5
19F
100
AcDbEntity
8
1
62
256
6
ByLayer
370
18
48
1
60
0
100
AcDbSpline
70
4
71
3
72
8
73
4
40
0
40
0
40
0
40
0
40
1
40
1
40
1
40
1
41
1
10
42.050245753174
20
1.07002822425284
30
0
41
1
10
42.0411138151647
20
1.07517413161889
30
0
41
1
10
42.0318168703011
20
1.08000062259148
30
0
41
1
10
42.0223592304545
20
1.08451601422428
30
0
0
SPLINE
5
1A0
100
AcDbEntity
8
1
62
256
6
ByLayer
370
18
48
1
60
0
100
AcDbSpline
70
4
71
3
72
9
73
5
40
0
40
0
40
0
40
0
40
0.29842540040902
40
1
40
1
40
1
40
1
41
1
10
43.8173626933755
20
0.0638502784740638
30
0
41
1
10
43.8258127080104
20
0.0590454742733471
30
0
41
1
10
43.8531959798577
20
0.0434749381947483
30
0
41
1
10
43.8774176722598
20
0.0297021248278497
30
0
41
1
10
43.8928120709585
20
0.0209486419527138
30
0
0
SPLINE
5
1A1
100
AcDbEntity
8
1
62
256
6
ByLayer
370
18
48
1
60
0
100
AcDbSpline
70
4
71
3
72
12
73
8
40
0
40
0
40
0
40
0
40
0.5
40
0.5
40
0.75
40
0.75
40
1
40
1
40
1
40
1
41
1
10
43.8928120679439
20
0.0209486407042618
30
0
41
1
10
43.922029109773
20
0.0112405734951153
30
0
41
1
10
43.9454061772057
20
0.0015790559623099
30
0
41
1
10
43.9716441652513
20
-0.012842845042826
30
0
41
1
10
43.9789212927245
20
-0.0176434398723586
30
0
41
1
10
43.9904378933081
20
-0.0271837662864698
30
0
41
1
10
43.9946831990715
20
-0.0319258578465451
30
0
41
1
10
43.9974117291785
20
-0.0366398076057521
30
0
0
SPLINE
5
1A2
100
AcDbEntity
8
1
62
256
6
ByLayer
370
18
48
1
60
0
100
AcDbSpline
70
4
71
3
72
8
73
4
40
0
40
0
40
0
40
0
40
1
40
1
40
1
40
1
41
1
10
43.9994526541577
20
-0.0391696637281598
30
0
41
1
10
43.9990826661937
20
-0.0383256780652914
30
0
41
1
10
43.9984020724421
20
-0.0374823933356083
30
0
41
1
10
43.9974117291787
20
-0.0366398076068606
30
0
0
SPLINE
5
1A3
100
AcDbEntity
8
1
62
256
6
ByLayer
370
18
48
1
60
0
100
AcDbSpline
70
4
71
3
72
8
73
4
40
0
40
0
40
0
40
0
40
1
40
1
40
1
40
1
41
1
10
43.9840030471868
20
0.042255765433822
30
0
41
1
10
43.9829182250205
20
0.0505185518685494
30
0
41
1
10
43.9793165301397
20
0.0586947015800376
30
0
41
1
10
43.9731872620396
20
0.0667838462313739
30
0
0
SPLINE
5
1A4
100
AcDbEntity
8
1
62
256
6
ByLayer
370
18
48
1
60
0
100
AcDbSpline
70
4
71
3
72
8
73
4
40
0
40
0
40
0
40
0
40
1
40
1
40
1
40
1
41
1
10
43.8190341321242
20
0.0196174284307631
30
0
41
1
10
43.8434129789999
20
0.0201176309527966
30
0
41
1
10
43.8678749762131
20
0.0206032573717323
30
0
41
1
10
43.8924013907201
20
0.0210775915566614
30
0
0
SPLINE
5
1A5
100
AcDbEntity
8
1
62
256
6
ByLayer
370
18
48
1
60
0
100
AcDbSpline
70
4
71
3
72
8
73
4
40
0
40
0
40
0
40
0
40
1
40
1
40
1
40
1
41
1
10
43.8173626933767
20
0.0638502784733248
30
0
41
1
10
43.8456982776907
20
0.0476393995174931
30
0
41
1
10
43.8706749862277
20
0.033400980810427
30
0
41
1
10
43.8924013907201
20
0.021077591556633
30
0
0
SPLINE
5
1A6
100
AcDbEntity
8
1
62
256
6
ByLayer
370
18
48
1
60
0
100
AcDbSpline
70
4
71
3
72
40
73
36
40
0
40
0
40
0
40
0
40
0.0152721791296658
40
0.0314866346009361
40
0.0486436947624189
40
0.0667436447179689
40
0.0857867130382138
40
0.105773058636424
40
0.126702756956287
40
0.148575785567734
40
0.171392009293742
40
0.195151165022016
40
0.219852846389624
40
0.245496488567866
40
0.272081353417536
40
0.299606515332892
40
0.328070848145507
40
0.357473013517592
40
0.387811451318419
40
0.419084394208582
40
0.45129062168122
40
0.484429760418805
40
0.518501471957171
40
0.553505392393227
40
0.589441128767734
40
0.626308257065141
40
0.664106322357101
40
0.702834841684571
40
0.742493310346039
40
0.783081212337832
40
0.824598101720498
40
0.867045152322324
40
0.910425399864264
40
0.954742361753489
40
1
40
1
40
1
40
1
41
1
10
43.2419508082152
20
0.391038000922436
30
0
41
1
10
43.245687693404
20
0.388932141304053
30
0
41
1
10
43.253392025411
20
0.384590492888236
30
0
41
1
10
43.2652064595812
20
0.377924017759255
30
0
41
1
10
43.2776339390446
20
0.370906042549763
30
0
41
1
10
43.2906540260042
20
0.363547402988644
30
0
41
1
10
43.3042536461397
20
0.355855757856347
30
0
41
1
10
43.3184161854952
20
0.34784048663505
30
0
41
1
10
43.3331245952474
20
0.339511302335552
30
0
41
1
10
43.348360427807
20
0.330878690192265
30
0
41
1
10
43.3641040458756
20
0.321953820378923
30
0
41
1
10
43.3803344904809
20
0.312748614041226
30
0
41
1
10
43.397029443725
20
0.303275767127474
30
0
41
1
10
43.4141651611569
20
0.293548788151185
30
0
41
1
10
43.431716409829
20
0.283582033662555
30
0
41
1
10
43.4496564005536
20
0.273390746730286
30
0
41
1
10
43.4679567222557
20
0.262991094291351
30
0
41
1
10
43.4865872579062
20
0.252400214912598
30
0
41
1
10
43.5055161638856
20
0.241636230519276
30
0
41
1
10
43.5247097609374
20
0.230718308087972
30
0
41
1
10
43.5441335121447
20
0.219666104019353
30
0
41
1
10
43.5637525634328
20
0.208499457280737
30
0
41
1
10
43.5835304581072
20
0.197239118901166
30
0
41
1
10
43.6034291466361
20
0.185906746251249
30
0
41
1
10
43.6234088550555
20
0.17452497733774
30
0
41
1
10
43.6434280515963
20
0.163117449229674
30
0
41
1
10
43.6634433756208
20
0.151708837758633
30
0
41
1
10
43.6834096193859
20
0.140324867201997
30
0
41
1
10
43.7032795217577
20
0.128992426277421
30
0
41
1
10
43.723004285696
20
0.117739274344757
30
0
41
1
10
43.7425315719375
20
0.106595174676642
30
0
41
1
10
43.7618142902816
20
0.0955869165815955
30
0
41
1
10
43.7807813177114
20
0.0847548868036654
30
0
41
1
10
43.7994502541869
20
0.0740892470650181
30
0
41
1
10
43.8113502240833
20
0.0672870792128322
30
0
41
1
10
43.817362693376
20
0.0638502784737511
30
0
0
SPLINE
5
1A7
100
AcDbEntity
8
1
62
256
6
ByLayer
370
18
48
1
60
0
100
AcDbSpline
70
4
71
3
72
10
73
6
40
0
40
0
40
0
40
0
40
0.088766614771033
40
0.545185498634837
40
1
40
1
40
1
40
1
41
1
10
42.5425646650664
20
0.788719326261486
30
0
41
1
10
42.5643048702701
20
0.776357517529647
30
0
41
1
10
42.6977493747425
20
0.700478962915867
30
0
41
1
10
42.9405398054132
20
0.562424799907035
30
0
41
1
10
43.1460239973241
20
0.445583412101257
30
0
41
1
10
43.2419508082133
20
0.391038000923515
30
0
0
SPLINE
5
1A8
100
AcDbEntity
8
1
62
256
6
ByLayer
370
18
48
1
60
0
100
AcDbSpline
70
4
71
3
72
12
73
8
40
0
40
0
40
0
40
0
40
0.250000000000015
40
0.250000000000015
40
0.500000000000031
40
0.500000000000031
40
1
40
1
40
1
40
1
41
1
10
42.0502457531757
20
1.0700282242521
30
0
41
1
10
42.0916746289329
20
1.04668277920987
30
0
41
1
10
42.1330902419326
20
1.0232412045959
30
0
41
1
10
42.2159046022804
20
0.976180359234291
30
0
41
1
10
42.2573204411352
20
0.952547884453679
30
0
41
1
10
42.3806753941668
20
0.881947400430334
30
0
41
1
10
42.462020562704
20
0.8351010394762
30
0
41
1
10
42.5425646650655
20
0.788719326261997
30
0
0
SPLINE
5
1A9
100
AcDbEntity
8
1
62
256
6
ByLayer
370
18
48
1
60
0
100
AcDbSpline
70
4
71
3
72
42
73
38
40
0
40
0
40
0
40
0
40
0.125000000000001
40
0.125000000000001
40
0.250000000000002
40
0.250000000000002
40
0.375000000000002
40
0.375000000000002
40
0.437500000000003
40
0.437500000000003
40
0.500000000000004
40
0.500000000000004
40
0.531250000000004
40
0.531250000000004
40
0.562500000000003
40
0.562500000000003
40
0.593750000000003
40
0.593750000000003
40
0.625000000000003
40
0.625000000000003
40
0.656250000000003
40
0.656250000000003
40
0.687500000000002
40
0.687500000000002
40
0.718750000000002
40
0.718750000000002
40
0.750000000000002
40
0.750000000000002
40
0.781250000000002
40
0.781250000000002
40
0.812500000000001
40
0.812500000000001
40
0.875000000000001
40
0.875000000000001
40
0.9375
40
0.9375
40
1
40
1
40
1
40
1
41
1
10
42.3276216344931
20
0.894272528832062
30
0
41
1
10
42.3483527884566
20
0.881719088251486
30
0
41
1
10
42.368804069022
20
0.869081152619401
30
0
41
1
10
42.4089575492384
20
0.843515096350586
30
0
41
1
10
42.4286974795903
20
0.830569212175902
30
0
41
1
10
42.4669187524652
20
0.804238245105267
30
0
41
1
10
42.4852404614151
20
0.790985195831894
30
0
41
1
10
42.5107155827167
20
0.770729508801054
30
0
41
1
10
42.5188680655033
20
0.76391355984876
30
0
41
1
10
42.5341730245929
20
0.750058449824735
30
0
41
1
10
42.5412439329605
20
0.743093287872085
30
0
41
1
10
42.5503691380814
20
0.732682040897743
30
0
41
1
10
42.5531777733425
20
0.729194650346017
30
0
41
1
10
42.5580692996967
20
0.722356764088659
30
0
41
1
10
42.5601651966816
20
0.718994709296112
30
0
41
1
10
42.5635042690216
20
0.712401015868636
30
0
41
1
10
42.5647535018421
20
0.709146263107243
30
0
41
1
10
42.5661475332032
20
0.702897374407854
30
0
41
1
10
42.5662854273903
20
0.699955953783359
30
0
41
1
10
42.5653550837779
20
0.694460415364148
30
0
41
1
10
42.5642604473612
20
0.691887805644939
30
0
41
1
10
42.5609343685708
20
0.687353103340513
30
0
41
1
10
42.5587106501955
20
0.68536276152534
30
0
41
1
10
42.55324450574
20
0.681883434720788
30
0
41
1
10
42.5500295277718
20
0.680418782694119
30
0
41
1
10
42.5429667716452
20
0.678002957381523
30
0
41
1
10
42.5390965594768
20
0.677038187549527
30
0
41
1
10
42.5308012883883
20
0.675509328587935
30
0
41
1
10
42.5263664186004
20
0.674947354374495
30
0
41
1
10
42.5172396863439
20
0.674175404871534
30
0
41
1
10
42.512522385429
20
0.673960189597722
30
0
41
1
10
42.4980019308007
20
0.673729914084362
30
0
41
1
10
42.4878349377769
20
0.674125173249308
30
0
41
1
10
42.4668201669817
20
0.675717580140713
30
0
41
1
10
42.4561045527217
20
0.676907701589158
30
0
41
1
10
42.4345080600319
20
0.67985866502724
30
0
41
1
10
42.4236020197463
20
0.681623751008715
30
0
41
1
10
42.4126172124286
20
0.683621912354113
30
0
0
SPLINE
5
1AA
100
AcDbEntity
8
1
62
256
6
ByLayer
370
18
48
1
60
0
100
AcDbSpline
70
4
71
3
72
8
73
4
40
0
40
0
40
0
40
0
40
1
40
1
40
1
40
1
41
1
10
40.0688840013892
20
-0.208243371554005
30
0
41
1
10
40.0679229424174
20
-0.207888270093861
30
0
41
1
10
40.0669616075174
20
-0.207534579479557
30
0
41
1
10
40.066
20
-0.207182305791207
30
0
0
SPLINE
5
1AB
100
AcDbEntity
8
1
62
256
6
ByLayer
370
18
48
1
60
0
100
AcDbSpline
70
4
71
3
72
10
73
6
40
0
40
0
40
0
40
0
40
0.5
40
0.5
40
1
40
1
40
1
40
1
41
1
10
42.0634821710732
20
1.05460900759383
30
0
41
1
10
42.1076529807355
20
1.02799988995363
30
0
41
1
10
42.1519523554517
20
1.0010529301185
30
0
41
1
10
42.2400118129228
20
0.947467717727449
30
0
41
1
10
42.2838627299093
20
0.920770374470095
30
0
41
1
10
42.3276216344938
20
0.894272528831806
30
0
0
SPLINE
5
1AC
100
AcDbEntity
8
1
62
256
6
ByLayer
370
18
48
1
60
0
100
AcDbSpline
70
4
71
3
72
12
73
8
40
0
40
0
40
0
40
0
40
0.25
40
0.25
40
0.5
40
0.5
40
1
40
1
40
1
40
1
41
1
10
42.0634821710677
20
1.05460900759672
30
0
41
1
10
42.0590603565882
20
1.05727277089582
30
0
41
1
10
42.0547933936668
20
1.05998791707802
30
0
41
1
10
42.0464181154351
20
1.06547552245053
30
0
41
1
10
42.0423138144271
20
1.06824919900149
30
0
41
1
10
42.0301628947506
20
1.07663355513677
30
0
41
1
10
42.0222754790505
20
1.08230673849724
30
0
41
1
10
42.0145083860797
20
1.088036066776
30
0
0
SPLINE
5
1AD
100
AcDbEntity
8
1
62
256
6
ByLayer
370
18
48
1
60
0
100
AcDbSpline
70
4
71
3
72
8
73
4
40
0
40
0
40
0
40
0
40
1
40
1
40
1
40
1
41
1
10
42.0223592304545
20
1.08451601422425
30
0
41
1
10
42.0197505097433
20
1.08572181384628
30
0
41
1
10
42.0171335805776
20
1.08689525745069
30
0
41
1
10
42.0145083860795
20
1.08803606677577
30
0
0
SPLINE
5
1AE
100
AcDbEntity
8
1
62
256
6
ByLayer
370
18
48
1
60
0
100
AcDbSpline
70
4
71
3
72
29
73
25
40
0
40
0
40
0
40
0
40
0.0450427878010821
40
0.0906283761073309
40
0.159619931454906
40
0.205830342303779
40
0.275217595669378
40
0.321312995182288
40
0.367379168297778
40
0.413498325276724
40
0.551825185669502
40
0.674755832133566
40
0.720957403532958
40
0.736380530599504
40
0.755554234677403
40
0.803490648187195
40
0.899458576919616
40
0.94151167300644
40
0.953836081114983
40
0.957748653174542
40
0.962516120154438
40
0.96366973729637
40
0.983876434692014
40
1
40
1
40
1
40
1
41
1
10
40.0689745168438
20
1.61773737804174
30
0
41
1
10
40.0979727105088
20
1.62831687191238
30
0
41
1
10
40.1559136590966
20
1.64606086801723
30
0
41
1
10
40.2569122336649
20
1.66693380597755
30
0
41
1
10
40.3589130698398
20
1.67647842833159
30
0
41
1
10
40.475294262339
20
1.67628892311981
30
0
41
1
10
40.5766354827477
20
1.66712490544683
30
0
41
1
10
40.6795856397356
20
1.65090239291769
30
0
41
1
10
40.7688121269179
20
1.63300455590726
30
0
41
1
10
40.9195941962917
20
1.59624988763727
30
0
41
1
10
41.1212557181192
20
1.5310587898376
30
0
41
1
10
41.3253988893002
20
1.44628444849368
30
0
41
1
10
41.4491097097148
20
1.38890480908034
30
0
41
1
10
41.5035717641878
20
1.36276554415792
30
0
41
1
10
41.5585193221449
20
1.33591395631171
30
0
41
1
10
41.6674107645803
20
1.28095299929356
30
0
41
1
10
41.7914799526155
20
1.21451952378118
30
0
41
1
10
41.891597263879
20
1.15870432214658
30
0
41
1
10
41.9303975810598
20
1.136782880993
30
0
41
1
10
41.9443505114148
20
1.12887118440526
30
0
41
1
10
41.9510103263383
20
1.12508601828856
30
0
41
1
10
41.9669849682509
20
1.11600261646717
30
0
41
1
10
41.9899859763617
20
1.10292395064039
30
0
41
1
10
42.0123943776233
20
1.09018218975524
30
0
41
1
10
42.0223592304544
20
1.08451601422428
30
0
0
SPLINE
5
1AF
100
AcDbEntity
8
1
62
256
6
ByLayer
370
18
48
1
60
0
100
AcDbSpline
70
4
71
1
72
4
73
2
40
0
40
0
40
1
40
1
41
1
10
40.0688789281784
20
1.6173895673345
30
0
41
1
10
40.0689745168438
20
1.61773737804174
30
0
0
SPLINE
5
1B0
100
AcDbEntity
8
1
62
256
6
ByLayer
370
18
48
1
60
0
100
AcDbSpline
70
4
71
3
72
16
73
12
40
0
40
0
40
0
40
0
40
0.250000000000039
40
0.250000000000039
40
0.500000000000078
40
0.500000000000078
40
0.625000000000072
40
0.625000000000072
40
0.750000000000066
40
0.750000000000066
40
1
40
1
40
1
40
1
41
1
10
40.0688789281784
20
1.6173895673345
30
0
41
1
10
40.111677800234
20
1.63300253582401
30
0
41
1
10
40.154289537483
20
1.64492494141419
30
0
41
1
10
40.2396556409643
20
1.66285839252905
30
0
41
1
10
40.282408841431
20
1.66884608939847
30
0
41
1
10
40.3469081290885
20
1.67400916695362
30
0
41
1
10
40.3684692213414
20
1.67508914487669
30
0
41
1
10
40.4117565385091
20
1.67603480009041
30
0
41
1
10
40.4335116591515
20
1.67589961894563
30
0
41
1
10
40.49878414097
20
1.67378813419424
30
0
41
1
10
40.5423422861583
20
1.67011493637986
30
0
41
1
10
40.5861079845539
20
1.66443921580745
30
0
0
SPLINE
5
1B1
100
AcDbEntity
8
1
62
256
6
ByLayer
370
18
48
1
60
0
100
AcDbSpline
70
4
71
3
72
22
73
18
40
0
40
0
40
0
40
0
40
0.250000000000016
40
0.250000000000016
40
0.375000000000023
40
0.375000000000023
40
0.437500000000027
40
0.437500000000027
40
0.500000000000031
40
0.500000000000031
40
0.750000000000005
40
0.750000000000005
40
0.874999999999992
40
0.874999999999992
40
0.937499999999996
40
0.937499999999996
40
1
40
1
40
1
40
1
41
1
10
40.5861079845539
20
1.66443921580748
30
0
41
1
10
40.7009040472676
20
1.64955192165729
30
0
41
1
10
40.8163931824967
20
1.62392282850291
30
0
41
1
10
40.9919390656471
20
1.57202410305101
30
0
41
1
10
41.050843599951
20
1.5524610194843
30
0
41
1
10
41.1399672777025
20
1.51995742887851
30
0
41
1
10
41.1698026747409
20
1.5085971771878
30
0
41
1
10
41.2297635465004
20
1.48485569512147
30
0
41
1
10
41.2599515212839
20
1.47244738943579
30
0
41
1
10
41.4109296824998
20
1.40825716778113
30
0
41
1
10
41.5309871191414
20
1.3504703181903
30
0
41
1
10
41.7115682417428
20
1.25677839858432
30
0
41
1
10
41.7718435382732
20
1.22436946694998
30
0
41
1
10
41.8625846333688
20
1.17426938622933
30
0
41
1
10
41.8928865217642
20
1.15732106204882
30
0
41
1
10
41.9536369671127
20
1.12297215357699
30
0
41
1
10
41.9841406890096
20
1.10554007298103
30
0
41
1
10
42.0145083860795
20
1.08803606677583
30
0
0
SPLINE
5
1B2
100
AcDbEntity
8
1
62
256
6
ByLayer
370
18
48
1
60
0
100
AcDbSpline
70
4
71
3
72
21
73
17
40
0
40
0
40
0
40
0
40
0.250000000000011
40
0.250000000000011
40
0.375000000000016
40
0.437500000000019
40
0.437500000000019
40
0.500000000000021
40
0.500000000000021
40
0.750000000000011
40
0.750000000000011
40
0.875000000000005
40
0.875000000000005
40
0.937500000000003
40
0.937500000000003
40
1
40
1
40
1
40
1
41
1
10
40.5861081269778
20
-0.495272655877926
30
0
41
1
10
40.7009017391857
20
-0.570931206505861
30
0
41
1
10
40.8163942884246
20
-0.64658740318589
30
0
41
1
10
40.9919422491388
20
-0.757905724529849
30
0
41
1
10
41.0802962689658
20
-0.813021618100692
30
0
41
1
10
41.1698069232941
20
-0.866859449357122
30
0
41
1
10
41.229770369148
20
-0.902414515285471
30
0
41
1
10
41.2599590278904
20
-0.920060117751802
30
0
41
1
10
41.4109325395698
20
-1.00684701725433
30
0
41
1
10
41.5309878385179
20
-1.07122042586531
30
0
41
1
10
41.7115685760876
20
-1.1579993758825
30
0
41
1
10
41.771844212518
20
-1.18528557196794
30
0
41
1
10
41.8625865622886
20
-1.22339462414141
30
0
41
1
10
41.8928889325699
20
-1.23562725610068
30
0
41
1
10
41.9536407145498
20
-1.25907664627152
30
0
41
1
10
41.9841439077025
20
-1.27031160469693
30
0
41
1
10
42.0145111500207
20
-1.28092308802366
30
0
0
SPLINE
5
1B3
100
AcDbEntity
8
1
62
256
6
ByLayer
370
18
48
1
60
0
100
AcDbSpline
70
4
71
3
72
8
73
4
40
0
40
0
40
0
40
0
40
1
40
1
40
1
40
1
41
1
10
42.0228463332314
20
-1.28281226114211
30
0
41
1
10
42.0200771425004
20
-1.28215123285739
30
0
41
1
10
42.0172987685298
20
-1.2815213543029
30
0
41
1
10
42.0145111500207
20
-1.28092308802368
30
0
0
SPLINE
5
1B4
100
AcDbEntity
8
1
62
256
6
ByLayer
370
18
48
1
60
0
100
AcDbSpline
70
4
71
1
72
4
73
2
40
0
40
0
40
1
40
1
41
1
10
40.0688840013891
20
-0.208243371554005
30
0
41
1
10
40.0689745168064
20
-0.207801573521891
30
0
0
SPLINE
5
1B5
100
AcDbEntity
8
1
62
256
6
ByLayer
370
18
48
1
60
0
100
AcDbSpline
70
4
71
3
72
16
73
12
40
0
40
0
40
0
40
0
40
0.250000000000013
40
0.250000000000013
40
0.500000000000026
40
0.500000000000026
40
0.625000000000033
40
0.625000000000033
40
0.75000000000004
40
0.75000000000004
40
1
40
1
40
1
40
1
41
1
10
40.0688840013891
20
-0.208243371553976
30
0
41
1
10
40.1116885944632
20
-0.224302733678655
30
0
41
1
10
40.1543031270798
20
-0.243249077151575
30
0
41
1
10
40.2396670689247
20
-0.285235713543614
30
0
41
1
10
40.2824169987564
20
-0.308295340525433
30
0
41
1
10
40.3469109093328
20
-0.345199086395411
30
0
41
1
10
40.3684690524979
20
-0.357889411801977
30
0
41
1
10
40.4117459509429
20
-0.383948888229782
30
0
41
1
10
40.4334950653189
20
-0.39733721304134
30
0
41
1
10
40.4987768502286
20
-0.438220968555726
30
0
41
1
10
40.5423417753372
20
-0.466427014976233
30
0
41
1
10
40.5861081269782
20
-0.495272655878182
30
0
0
SPLINE
5
1B6
100
AcDbEntity
8
1
62
256
6
ByLayer
370
18
48
1
60
0
100
AcDbSpline
70
4
71
3
72
9
73
5
40
0
40
0
40
0
40
0
40
0.546860483720268
40
1
40
1
40
1
40
1
41
1
10
43.816027341527
20
-0.761960365863985
30
0
41
1
10
43.824958032656
20
-0.746276844271733
30
0
41
1
10
43.8407248326998
20
-0.717163912977071
30
0
41
1
10
43.8554440159947
20
-0.687281577378258
30
0
41
1
10
43.8618967894012
20
-0.673586243239896
30
0
0
SPLINE
5
1B7
100
AcDbEntity
8
1
62
256
6
ByLayer
370
18
48
1
60
0
100
AcDbSpline
70
4
71
3
72
8
73
4
40
0
40
0
40
0
40
0
40
1
40
1
40
1
40
1
41
1
10
43.861896786034
20
-0.673586256291031
30
0
41
1
10
43.8402054093623
20
-0.65160679965166
30
0
41
1
10
43.8182364603222
20
-0.629133294653741
30
0
41
1
10
43.7959810296053
20
-0.606147787696784
30
0
0
SPLINE
5
1B8
100
AcDbEntity
8
1
62
256
6
ByLayer
370
18
48
1
60
0
100
AcDbSpline
70
4
71
1
72
4
73
2
40
0
40
0
40
1
40
1
41
1
10
40.0689745168064
20
-0.207801573521891
30
0
41
1
10
40.1332340067427
20
-0.0142219586966519
30
0
0
SPLINE
5
1B9
100
AcDbEntity
8
1
62
256
6
ByLayer
370
18
48
1
60
0
100
AcDbSpline
70
4
71
3
72
30
73
26
40
0
40
0
40
0
40
0
40
0.0449355541078971
40
0.113331572284942
40
0.182418614736028
40
0.228630671248019
40
0.297902559821147
40
0.343945879664608
40
0.390024411886914
40
0.443829217706574
40
0.59748336638777
40
0.705175406992143
40
0.720595390034775
40
0.736027611183258
40
0.755212790927979
40
0.803174604699785
40
0.899177508236171
40
0.949646209678266
40
0.957472875672951
40
0.961074765185311
40
0.961946729607467
40
0.962809001144818
40
0.964538224468652
40
0.969731516446265
40
1
40
1
40
1
40
1
41
1
10
40.0689745168064
20
-0.207801573521891
30
0
41
1
10
40.0980023254967
20
-0.21869635310162
30
0
41
1
10
40.1705225153112
20
-0.249394724441231
30
0
41
1
10
40.2861227986095
20
-0.308797161636306
30
0
41
1
10
40.4026783023021
20
-0.377426915159106
30
0
41
1
10
40.5186666373658
20
-0.450422616792252
30
0
41
1
10
40.6204749601362
20
-0.517648504491831
30
0
41
1
10
40.7240254686623
20
-0.585630293978255
30
0
41
1
10
40.8189522172339
20
-0.647350994004626
30
0
41
1
10
40.9850938345904
20
-0.753960401697157
30
0
41
1
10
41.1922999642138
20
-0.882033990225068
30
0
41
1
10
41.3768673721748
20
-0.986736680273935
30
0
41
1
10
41.4698345277704
20
-1.03654501269929
30
0
41
1
10
41.5035894483709
20
-1.05435717459199
30
0
41
1
10
41.5585104744578
20
-1.08282429889465
30
0
41
1
10
41.6674241248978
20
-1.13724375923161
30
0
41
1
10
41.797059705792
20
-1.19631677763473
30
0
41
1
10
41.8998365881815
20
-1.23776668673656
30
0
41
1
10
41.9409934265969
20
-1.25343795522491
30
0
41
1
10
41.9492437920686
20
-1.25654286579865
30
0
41
1
10
41.9526799864479
20
-1.25783002260189
30
0
41
1
10
41.9547527782193
20
-1.25860452461532
30
0
41
1
10
41.9595441359753
20
-1.26038952445538
30
0
41
1
10
41.9822852343087
20
-1.26878546108441
30
0
41
1
10
42.0041326001851
20
-1.27648613061817
30
0
41
1
10
42.0228463332313
20
-1.28281226114208
30
0
0
SPLINE
5
1BA
100
AcDbEntity
8
1
62
256
6
ByLayer
370
18
48
1
60
0
100
AcDbSpline
70
4
71
3
72
8
73
4
40
0
40
0
40
0
40
0
40
1
40
1
40
1
40
1
41
1
10
42.0502344080847
20
-1.2902866501999
30
0
41
1
10
42.0412632435421
20
-1.28743166186547
30
0
41
1
10
42.0321324360064
20
-1.28494219448541
30
0
41
1
10
42.0228463332313
20
-1.28281226114208
30
0
0
SPLINE
5
1BB
100
AcDbEntity
8
1
62
256
6
ByLayer
370
18
48
1
60
0
100
AcDbSpline
70
4
71
3
72
12
73
8
40
0
40
0
40
0
40
0
40
0.25
40
0.25
40
0.5
40
0.5
40
1
40
1
40
1
40
1
41
1
10
42.0502343665616
20
-1.29028664427275
30
0
41
1
10
42.0912067456968
20
-1.30332571319323
30
0
41
1
10
42.1321585248748
20
-1.31519715865181
30
0
41
1
10
42.2140345374834
20
-1.33656786371802
30
0
41
1
10
42.2550060757039
20
-1.34607310345928
30
0
41
1
10
42.3770807519464
20
-1.37074841293423
30
0
41
1
10
42.4575803258996
20
-1.38217601284302
30
0
41
1
10
42.53728450856
20
-1.38822995472748
30
0
0
SPLINE
5
1BC
100
AcDbEntity
8
1
62
256
6
ByLayer
370
18
48
1
60
0
100
AcDbSpline
70
4
71
3
72
11
73
7
40
0
40
0
40
0
40
0
40
0.394606138476117
40
0.545350439266908
40
0.848542414713481
40
1
40
1
40
1
40
1
41
1
10
42.5372845078682
20
-1.38822995467481
30
0
41
1
10
42.6351933814381
20
-1.39489011959847
30
0
41
1
10
42.7702602684637
20
-1.39301829540858
30
0
41
1
10
42.9740282495867
20
-1.36402731930355
30
0
41
1
10
43.1140255143475
20
-1.32786676615251
30
0
41
1
10
43.2133001069453
20
-1.28909904959878
30
0
41
1
10
43.245622794791
20
-1.27492853183051
30
0
0
SPLINE
5
1BD
100
AcDbEntity
8
1
62
256
6
ByLayer
370
18
48
1
60
0
100
AcDbSpline
70
4
71
3
72
40
73
36
40
0
40
0
40
0
40
0
40
0.0150291438593783
40
0.0310165349007635
40
0.0479623731710632
40
0.0658667545537287
40
0.084729651478713
40
0.104550893229426
40
0.125330146066589
40
0.147066911375515
40
0.16976084054069
40
0.193411764961452
40
0.2180194379651
40
0.243583513121263
40
0.270103531538306
40
0.297578909078953
40
0.326008923740607
40
0.355392703492248
40
0.385729214912733
40
0.417017253030823
40
0.449255432830748
40
0.482442182954127
40
0.516575742203514
40
0.55165418114831
40
0.587676453173523
40
0.624643009357389
40
0.662554543093828
40
0.701411887397777
40
0.741216022330073
40
0.781968084762455
40
0.823669381059982
40
0.866321403323374
40
0.909925849903175
40
0.954484650969938
40
1
40
1
40
1
40
1
41
1
10
43.2456227947914
20
-1.27492853183031
30
0
41
1
10
43.2492627982134
20
-1.27330237162593
30
0
41
1
10
43.2567748890039
20
-1.26994636843602
30
0
41
1
10
43.2683075373829
20
-1.26463541786896
30
0
41
1
10
43.2804610242063
20
-1.25890358560295
30
0
41
1
10
43.2932152007318
20
-1.25272190015633
30
0
41
1
10
43.3065567744626
20
-1.24607195279882
30
0
41
1
10
43.3204689062342
20
-1.23893096789578
30
0
41
1
10
43.3349341791857
20
-1.23127619933143
30
0
41
1
10
43.3499336649849
20
-1.22308354052004
30
0
41
1
10
43.3654475741263
20
-1.21432839664976
30
0
41
1
10
43.3814552065776
20
-1.20498563896962
30
0
41
1
10
43.3979345845157
20
-1.19502928729636
30
0
41
1
10
43.4148624059283
20
-1.18443267390018
30
0
41
1
10
43.4322139693839
20
-1.17316845923332
30
0
41
1
10
43.449963122487
20
-1.16120868202435
30
0
41
1
10
43.4680822013958
20
-1.14852480139012
30
0
41
1
10
43.4865419699733
20
-1.13508774326388
30
0
41
1
10
43.5053115564501
20
-1.12086794801542
30
0
41
1
10
43.524358386913
20
-1.10583541879836
30
0
41
1
10
43.5436481207584
20
-1.08995977609894
30
0
41
1
10
43.563144567257
20
-1.0732102961546
30
0
41
1
10
43.5828096688138
20
-1.0555560169341
30
0
41
1
10
43.6026034258599
20
-1.03696538944231
30
0
41
1
10
43.6224849686367
20
-1.01740693514876
30
0
41
1
10
43.6424134332232
20
-0.996850042840265
30
0
41
1
10
43.6623463386853
20
-0.975263623097845
30
0
41
1
10
43.6822395949921
20
-0.952616745506873
30
0
41
1
10
43.7020472254826
20
-0.928878543741746
30
0
41
1
10
43.721721848472
20
-0.904018700172202
30
0
41
1
10
43.741212653239
20
-0.878006012544944
30
0
41
1
10
43.7604729506311
20
-0.850814272830434
30
0
41
1
10
43.7794307820575
20
-0.822399957598435
30
0
41
1
10
43.7981020322121
20
-0.792788669337511
30
0
41
1
10
43.8100100856544
20
-0.772308962190067
30
0
41
1
10
43.8160273415276
20
-0.761960365863075
30
0
0
SPLINE
5
1BE
100
AcDbEntity
8
1
62
256
6
ByLayer
370
18
48
1
60
0
100
AcDbSpline
70
4
71
3
72
8
73
4
40
0
40
0
40
0
40
0
40
1
40
1
40
1
40
1
41
1
10
43.795981029574
20
-0.606147787106551
30
0
41
1
10
43.7492985056898
20
-0.549736378951906
30
0
41
1
10
43.7025322552407
20
-0.493164882019812
30
0
41
1
10
43.6556605935045
20
-0.436391432733103
30
0
0
SPLINE
5
1BF
100
AcDbEntity
8
1
62
256
6
ByLayer
370
18
48
1
60
0
100
AcDbSpline
70
4
71
3
72
27
73
23
40
0
40
0
40
0
40
0
40
0.250000000000002
40
0.250000000000002
40
0.28125
40
0.28125
40
0.312499999999998
40
0.375000000000011
40
0.500000000000036
40
0.500000000000036
40
0.562500000000039
40
0.562500000000039
40
0.625000000000043
40
0.625000000000043
40
0.750000000000028
40
0.750000000000028
40
0.875000000000014
40
0.875000000000014
40
0.90625000000001
40
0.90625000000001
40
0.937500000000007
40
1
40
1
40
1
40
1
41
1
10
43.6556605935048
20
-0.436391432732847
30
0
41
1
10
43.6053723073387
20
-0.524161068818358
30
0
41
1
10
43.5448981150325
20
-0.600433578878949
30
0
41
1
10
43.4642242995712
20
-0.671972626096164
30
0
41
1
10
43.455071334301
20
-0.679733046420068
30
0
41
1
10
43.4365514325978
20
-0.694741211600757
30
0
41
1
10
43.4084109366474
20
-0.716527200942465
30
0
41
1
10
43.3402196059992
20
-0.762265949586379
30
0
41
1
10
43.2774132810927
20
-0.792697307487231
30
0
41
1
10
43.2116830943415
20
-0.817240634894063
30
0
41
1
10
43.1892862635493
20
-0.824441496613701
30
0
41
1
10
43.1434904921842
20
-0.836825185939063
30
0
41
1
10
43.1200343958727
20
-0.842009456814054
30
0
41
1
10
43.0492660529056
20
-0.854293871914564
30
0
41
1
10
43.0012330129552
20
-0.8582741728369
30
0
41
1
10
42.9034934999964
20
-0.857987931288335
30
0
41
1
10
42.853785788651
20
-0.853715286169887
30
0
41
1
10
42.790611549888
20
-0.84325123035461
30
0
41
1
10
42.7779013317604
20
-0.8408971160286
30
0
41
1
10
42.7525060121373
20
-0.835693301919548
30
0
41
1
10
42.7144666152724
20
-0.827150805465408
30
0
41
1
10
42.676586180284
20
-0.816422538845018
30
0
41
1
10
42.6514019135065
20
-0.808316689206293
30
0
0
SPLINE
5
1C0
100
AcDbEntity
8
1
62
256
6
ByLayer
370
18
48
1
60
0
100
AcDbSpline
70
4
71
1
72
4
73
2
40
0
40
0
40
1
40
1
41
1
10
40.1332340067427
20
-0.0142219586966519
30
0
41
1
10
40.2809526272233
20
0.337700203050076
30
0
0
SPLINE
5
1C1
100
AcDbEntity
8
1
62
256
6
ByLayer
370
18
48
1
60
0
100
AcDbSpline
70
4
71
3
72
39
73
35
40
0
40
0
40
0
40
0
40
0.020979445668316
40
0.0529120784300937
40
0.0851673355925391
40
0.106742752833117
40
0.13908431068221
40
0.160580948394195
40
0.182094026010027
40
0.207214334923487
40
0.278952158746204
40
0.329231260887563
40
0.336430519979205
40
0.343635492779777
40
0.352592641391426
40
0.374984982737956
40
0.419806677690377
40
0.443369431079655
40
0.447023533432666
40
0.448705178331189
40
0.449112279803119
40
0.449514855875192
40
0.450322193127197
40
0.452746829677186
40
0.472788218745412
40
0.496878180048315
40
0.583913223114203
40
0.665518835759796
40
0.692917216088666
40
0.748023571767581
40
0.803436832260727
40
0.886769784084299
40
0.996341611735434
40
1
40
1
40
1
40
1
41
1
10
40.1332340067427
20
-0.0142219586966519
30
0
41
1
10
40.1607549644583
20
-0.0245429238759129
30
0
41
1
10
40.2296941501266
20
-0.0539808752673991
30
0
41
1
10
40.3394279254343
20
-0.111610883812006
30
0
41
1
10
40.4494454957128
20
-0.178602175355252
30
0
41
1
10
40.5602175611923
20
-0.250536756235476
30
0
41
1
10
40.6575424704809
20
-0.317023126150445
30
0
41
1
10
40.7563640430294
20
-0.384391256846442
30
0
41
1
10
40.8463581407998
20
-0.445589917939543
30
0
41
1
10
41.0041763246834
20
-0.551697072888857
30
0
41
1
10
41.2041407267771
20
-0.680317921115801
30
0
41
1
10
41.3819497149684
20
-0.786249285289188
30
0
41
1
10
41.4711770440741
20
-0.836936521177392
30
0
41
1
10
41.5033942436814
20
-0.855088134972192
30
0
41
1
10
41.5568593106958
20
-0.884150064078909
30
0
41
1
10
41.662568005968
20
-0.939880739557225
30
0
41
1
10
41.788820411507
20
-1.00084656171535
30
0
41
1
10
41.8888611750386
20
-1.04406348286642
30
0
41
1
10
41.9289468753193
20
-1.06048819774151
30
0
41
1
10
41.9369114168382
20
-1.06372594559255
30
0
41
1
10
41.9403730054761
20
-1.065102303553
30
0
41
1
10
41.942708364967
20
-1.06587074194689
30
0
41
1
10
41.9478775944214
20
-1.0676937935495
30
0
41
1
10
41.9809942997442
20
-1.07917557258804
30
0
41
1
10
42.0472373635915
20
-1.10099012939523
30
0
41
1
10
42.2329866469113
20
-1.15531825356808
30
0
41
1
10
42.5021736697437
20
-1.20712681223918
30
0
41
1
10
42.7618793054688
20
-1.2103010247302
30
0
41
1
10
42.9674388849162
20
-1.18544860551444
30
0
41
1
10
43.1315840722757
20
-1.14745735699546
30
0
41
1
10
43.3437020592371
20
-1.06276789072666
30
0
41
1
10
43.581383619084
20
-0.90568791612975
30
0
41
1
10
43.727021548912
20
-0.72943068425397
30
0
41
1
10
43.7938401397629
20
-0.610024442058545
30
0
41
1
10
43.7959810297426
20
-0.606147787065026
30
0
0
SPLINE
5
1C2
100
AcDbEntity
8
1
62
256
6
ByLayer
370
18
48
1
60
0
100
AcDbSpline
70
4
71
3
72
8
73
4
40
0
40
0
40
0
40
0
40
1
40
1
40
1
40
1
41
1
10
42.7109695285017
20
-0.675994859776949
30
0
41
1
10
42.6927283510944
20
-0.721478036245401
30
0
41
1
10
42.6729984021892
20
-0.765692612995394
30
0
41
1
10
42.6514019134989
20
-0.808316689199756
30
0
0
SPLINE
5
1C3
100
AcDbEntity
8
1
62
256
6
ByLayer
370
18
48
1
60
0
100
AcDbSpline
70
4
71
3
72
8
73
4
40
0
40
0
40
0
40
0
40
1
40
1
40
1
40
1
41
1
10
40.1707700032285
20
0.430913097193837
30
0
41
1
10
40.1357833300863
20
0.441069401853412
30
0
41
1
10
40.1008586909769
20
0.451316213585358
30
0
41
1
10
40.066
20
0.461667102968534
30
0
0
SPLINE
5
1C4
100
AcDbEntity
8
1
62
256
6
ByLayer
370
18
48
1
60
0
100
AcDbSpline
70
4
71
3
72
8
73
4
40
0
40
0
40
0
40
0
40
1
40
1
40
1
40
1
41
1
10
40.1707700032285
20
0.430913097193837
30
0
41
1
10
40.2080583453873
20
0.40060866385582
30
0
41
1
10
40.2447838273168
20
0.369534884244842
30
0
41
1
10
40.2809526272233
20
0.337700203050076
30
0
0
SPLINE
5
1C5
100
AcDbEntity
8
1
62
256
6
ByLayer
370
18
48
1
60
0
100
AcDbSpline
70
4
71
3
72
56
73
52
40
0
40
0
40
0
40
0
40
0.0312500000002245
40
0.0468750000003303
40
0.0468750000003303
40
0.0625000000004361
40
0.0625000000004361
40
0.125000000000859
40
0.125000000000859
40
0.187500000001282
40
0.187500000001282
40
0.2187500000015
40
0.2187500000015
40
0.250000000001719
40
0.250000000001719
40
0.281250000001937
40
0.281250000001937
40
0.285156250001961
40
0.285156250001961
40
0.287109375001966
40
0.287109375001966
40
0.289062500001971
40
0.289062500001971
40
0.292968750001969
40
0.292968750001969
40
0.296875000001966
40
0.312500000001928
40
0.312500000001928
40
0.375000000001763
40
0.375000000001763
40
0.437500000001598
40
0.437500000001598
40
0.453125000001557
40
0.453125000001557
40
0.468750000001516
40
0.468750000001516
40
0.500000000001433
40
0.500000000001433
40
0.625000000001078
40
0.625000000001078
40
0.687500000000901
40
0.687500000000901
40
0.718750000000812
40
0.718750000000812
40
0.750000000000723
40
0.750000000000723
40
0.875000000000356
40
0.875000000000356
40
0.937500000000178
40
0.937500000000178
40
1
40
1
40
1
40
1
41
1
10
42.6514019135064
20
-0.808316689201718
30
0
41
1
10
42.6258060924322
20
-0.812565490472451
30
0
41
1
10
42.586982609425
20
-0.817493573773504
30
0
41
1
10
42.5474967470563
20
-0.820304198530494
30
0
41
1
10
42.5210234711416
20
-0.82171264046255
30
0
41
1
10
42.5076894536721
20
-0.822184367561249
30
0
41
1
10
42.4409951444127
20
-0.823388519499275
30
0
41
1
10
42.3875199562763
20
-0.820690829881443
30
0
41
1
10
42.2801414710123
20
-0.80884027944856
30
0
41
1
10
42.2262385439852
20
-0.799682763606569
30
0
41
1
10
42.1449100468177
20
-0.781506604841866
30
0
41
1
10
42.1176435372893
20
-0.774681517688862
30
0
41
1
10
42.0633814520207
20
-0.759735016906575
30
0
41
1
10
42.036389543128
20
-0.751621998521784
30
0
41
1
10
41.9826411001241
20
-0.734224352202858
30
0
41
1
10
41.9558849190454
20
-0.724937845533333
30
0
41
1
10
41.9258957271581
20
-0.713880774067974
30
0
41
1
10
41.9225652167804
20
-0.712643308833094
30
0
41
1
10
41.91757098266
20
-0.710778960216459
30
0
41
1
10
41.9159062296923
20
-0.710157728157128
30
0
41
1
10
41.9125783572706
20
-0.708905821987145
30
0
41
1
10
41.9109197874489
20
-0.708247886314552
30
0
41
1
10
41.9059184143202
20
-0.706428219878632
30
0
41
1
10
41.9025760525035
20
-0.70526470924284
30
0
41
1
10
41.8959023536882
20
-0.702873507798813
30
0
41
1
10
41.8792264601372
20
-0.696849985118178
30
0
41
1
10
41.8625860005438
20
-0.690634065089881
30
0
41
1
10
41.7961292387413
20
-0.665168653591422
30
0
41
1
10
41.7433022426254
20
-0.642853133406504
30
0
41
1
10
41.6380987106625
20
-0.594826023116383
30
0
41
1
10
41.5857193973727
20
-0.569139199858341
30
0
41
1
10
41.5204142843717
20
-0.535061889375783
30
0
41
1
10
41.5073607829823
20
-0.528154657957145
30
0
41
1
10
41.4812562254522
20
-0.514242388993779
30
0
41
1
10
41.4682124741811
20
-0.507208597925199
30
0
41
1
10
41.4292938965307
20
-0.485878281036918
30
0
41
1
10
41.4035474528751
20
-0.471380476675904
30
0
41
1
10
41.2757044588533
20
-0.397667855639924
30
0
41
1
10
41.1762938263527
20
-0.334758891942755
30
0
41
1
10
41.0300098450738
20
-0.236762820361008
30
0
41
1
10
40.9817252037241
20
-0.203484715252557
30
0
41
1
10
40.9099253089231
20
-0.152796542369003
30
0
41
1
10
40.8860496750991
20
-0.135740185431558
30
0
41
1
10
40.8387292809344
20
-0.101549452378293
30
0
41
1
10
40.8153312068317
20
-0.0844419584830973
30
0
41
1
10
40.6995934612436
20
0.0010908502816847
30
0
41
1
10
40.6107784691238
20
0.0694002428322449
30
0
41
1
10
40.4828883178641
20
0.170857365316209
30
0
41
1
10
40.4411718955481
20
0.204519155686683
30
0
41
1
10
40.3596327635515
20
0.271438339985622
30
0
41
1
10
40.3197798934689
20
0.304684506274384
30
0
41
1
10
40.2809526272233
20
0.337700203050076
30
0
0
SPLINE
5
1C6
100
AcDbEntity
8
1
62
256
6
ByLayer
370
18
48
1
60
0
100
AcDbSpline
70
4
71
3
72
8
73
4
40
0
40
0
40
0
40
0
40
1
40
1
40
1
40
1
41
1
10
43.9923785734784
20
-0.0430250207388951
30
0
41
1
10
43.9921508348797
20
-0.0417398732840013
30
0
41
1
10
43.99192289127
20
-0.0404547541381532
30
0
41
1
10
43.9916947401379
20
-0.0391696637279892
30
0
0
SPLINE
5
1C7
100
AcDbEntity
8
1
62
256
6
ByLayer
370
18
48
1
60
0
100
AcDbSpline
70
4
71
3
72
8
73
4
40
0
40
0
40
0
40
0
40
1
40
1
40
1
40
1
41
1
10
43.9921489364375
20
0.0424870722320918
30
0
41
1
10
43.99199906844
20
0.0416580358040903
30
0
41
1
10
43.991849109631
20
0.0408290116844512
30
0
41
1
10
43.9916990592462
20
0.039999999999992
30
0
0
SPLINE
5
1C8
100
AcDbEntity
8
1
62
256
6
ByLayer
370
18
48
1
60
0
100
AcDbSpline
70
4
71
3
72
8
73
4
40
0
40
0
40
0
40
0
40
1
40
1
40
1
40
1
41
1
10
43.9915786578838
20
0.000677619099946
30
0
41
1
10
43.9942325447611
20
-0.0126002481275407
30
0
41
1
10
43.9968570328588
20
-0.0258827034110425
30
0
41
1
10
43.9994526541577
20
-0.0391696637281598
30
0
0
SPLINE
5
1C9
100
AcDbEntity
8
1
62
256
6
ByLayer
370
18
48
1
60
0
100
AcDbSpline
70
4
71
3
72
8
73
4
40
0
40
0
40
0
40
0
40
1
40
1
40
1
40
1
41
1
10
43.9995642828733
20
0.0400000000000205
30
0
41
1
10
43.9995698890618
20
0.0396528409133623
30
0
41
1
10
43.9995754680638
20
0.039305681319604
30
0
41
1
10
43.9995810198756
20
0.0389585212165287
30
0
0
SPLINE
5
1CA
100
AcDbEntity
8
1
62
256
6
ByLayer
370
18
48
1
60
0
100
AcDbSpline
70
4
71
3
72
8
73
4
40
0
40
0
40
0
40
0
40
1
40
1
40
1
40
1
41
1
10
42.0502457531958
20
-2.43169906246513
30
0
41
1
10
42.0411138151857
20
-2.43408931750392
30
0
41
1
10
42.0318168703211
20
-2.43653382924492
30
0
41
1
10
42.0223592304736
20
-2.43903469062252
30
0
0
SPLINE
5
1CB
100
AcDbEntity
8
1
62
256
6
ByLayer
370
18
48
1
60
0
100
AcDbSpline
70
4
71
3
72
29
73
25
40
0
40
0
40
0
40
0
40
0.0450427878005577
40
0.0906283761060383
40
0.159619931452877
40
0.205830342301803
40
0.275217595666941
40
0.32131299517891
40
0.367379168293998
40
0.413498325272554
40
0.55182518566389
40
0.674755832127278
40
0.720957403526339
40
0.736380530592544
40
0.755554234670302
40
0.803490648179765
40
0.899458576911425
40
0.941511672997936
40
0.953836081106347
40
0.95774865316586
40
0.962516120145959
40
0.963669737288029
40
0.983876434682777
40
1
40
1
40
1
40
1
41
1
10
40.0689745168438
20
-1.89649102428089
30
0
41
1
10
40.0979727105095
20
-1.91861417172021
30
0
41
1
10
40.1559136590958
20
-1.96213996618758
30
0
41
1
10
40.2569122336658
20
-2.0349553722518
30
0
41
1
10
40.3589130698406
20
-2.10401078767069
30
0
41
1
10
40.4752942623385
20
-2.17671887532015
30
0
41
1
10
40.5766354827467
20
-2.23463192529337
30
0
41
1
10
40.6795856397364
20
-2.28712277717665
30
0
41
1
10
40.7688121269178
20
-2.32798812674818
30
0
41
1
10
40.9195941962916
20
-2.38929692898967
30
0
41
1
10
41.12125571812
20
-2.45087746541944
30
0
41
1
10
41.3253988893007
20
-2.48443383270924
30
0
41
1
10
41.4491097097139
20
-2.49343630967289
30
0
41
1
10
41.5035717641879
20
-2.49557750775304
30
0
41
1
10
41.5585193221453
20
-2.49671441069952
30
0
41
1
10
41.6674107645808
20
-2.49506786025995
30
0
41
1
10
41.7914799526172
20
-2.48363922908592
30
0
41
1
10
41.8915972638807
20
-2.46706465382536
30
0
41
1
10
41.9303975810621
20
-2.45951597573554
30
0
41
1
10
41.9443505114164
20
-2.45668110617189
30
0
41
1
10
41.9510103263414
20
-2.45529722407412
30
0
41
1
10
41.9669849682527
20
-2.45192560965762
30
0
41
1
10
41.9899859763693
20
-2.44684287331313
30
0
41
1
10
42.0123943776364
20
-2.44149248134383
30
0
41
1
10
42.0223592304736
20
-2.43903469062252
30
0
0
SPLINE
5
1CC
100
AcDbEntity
8
1
62
256
6
ByLayer
370
18
48
1
60
0
100
AcDbSpline
70
4
71
3
72
8
73
4
40
0
40
0
40
0
40
0
40
1
40
1
40
1
40
1
41
1
10
42.0223592304738
20
-2.43903469062246
30
0
41
1
10
42.0197505097625
20
-2.4396580041323
30
0
41
1
10
42.0171335805966
20
-2.44027582931534
30
0
41
1
10
42.0145083860985
20
-2.44088827648332
30
0
0
SPLINE
5
1CD
100
AcDbEntity
8
1
62
256
6
ByLayer
370
18
48
1
60
0
100
AcDbSpline
70
4
71
3
72
22
73
18
40
0
40
0
40
0
40
0
40
0.249999999999985
40
0.249999999999985
40
0.374999999999987
40
0.374999999999987
40
0.437499999999999
40
0.437499999999999
40
0.500000000000011
40
0.500000000000011
40
0.750000000000016
40
0.750000000000016
40
0.875000000000008
40
0.875000000000008
40
0.937500000000004
40
0.937500000000004
40
1
40
1
40
1
40
1
41
1
10
40.5861079845539
20
-2.23870703192642
30
0
41
1
10
40.7009040472691
20
-2.30046664424262
30
0
41
1
10
40.8163931824998
20
-2.35104602839718
30
0
41
1
10
40.9919390656525
20
-2.41068942577331
30
0
41
1
10
41.050843599957
20
-2.42784054777934
30
0
41
1
10
41.1399672777097
20
-2.44941316306313
30
0
41
1
10
41.1698026747487
20
-2.45591289197497
30
0
41
1
10
41.229763546509
20
-2.46750480060356
30
0
41
1
10
41.259951521293
20
-2.47260513704609
30
0
41
1
10
41.4109296825108
20
-2.49439722599635
30
0
41
1
10
41.530987119154
20
-2.49997518302544
30
0
41
1
10
41.7115682417577
20
-2.49104504116872
30
0
41
1
10
41.771843538289
20
-2.48516700549706
30
0
41
1
10
41.8625846333858
20
-2.47192198434894
30
0
41
1
10
41.8928865217816
20
-2.46676727015537
30
0
41
1
10
41.953636967131
20
-2.45495122581102
30
0
41
1
10
41.9841406890283
20
-2.44827668412955
30
0
41
1
10
42.0145083860986
20
-2.44088827648332
30
0
0
SPLINE
5
1CE
100
AcDbEntity
8
1
62
256
6
ByLayer
370
18
48
1
60
0
100
AcDbSpline
70
4
71
3
72
12
73
8
40
0
40
0
40
0
40
0
40
0.431697521779884
40
0.431697521779884
40
0.863395043559768
40
0.863395043559768
40
1
40
1
40
1
40
1
41
1
10
42.0502457531977
20
-2.43169906246462
30
0
41
1
10
42.0916746289547
20
-2.42085518913566
30
0
41
1
10
42.1330902419541
20
-2.40869873914687
30
0
41
1
10
42.2159046023015
20
-2.38172242988327
30
0
41
1
10
42.257320441156
20
-2.36688425995595
30
0
41
1
10
42.3114501052311
20
-2.34572503882467
30
0
41
1
10
42.3244391354936
20
-2.34051369448505
30
0
41
1
10
42.3374062076692
20
-2.33517662172099
30
0
0
SPLINE
5
1CF
100
AcDbEntity
8
1
62
256
6
ByLayer
370
18
48
1
60
0
100
AcDbSpline
70
4
71
3
72
10
73
6
40
0
40
0
40
0
40
0
40
0.5
40
0.5
40
1
40
1
40
1
40
1
41
1
10
39.9260009747808
20
-1.97720529637345
30
0
41
1
10
39.9167290017794
20
-1.97609697823273
30
0
41
1
10
39.9069578334722
20
-1.97546056802594
30
0
41
1
10
39.8867442296228
20
-1.97533780034658
30
0
41
1
10
39.8763329107087
20
-1.97584234663708
30
0
41
1
10
39.8655598719703
20
-1.97701913176601
30
0
0
SPLINE
5
1D0
100
AcDbEntity
8
1
62
256
6
ByLayer
370
18
48
1
60
0
100
AcDbSpline
70
4
71
3
72
8
73
4
40
0
40
0
40
0
40
0
40
1
40
1
40
1
40
1
41
1
10
42.0223592304541
20
2.44298924336553
30
0
41
1
10
42.0197505097431
20
2.44357614458215
30
0
41
1
10
42.0171335805775
20
2.44415875412764
30
0
41
1
10
42.0145083860796
20
2.44473719568279
30
0
0
SPLINE
5
1D1
100
AcDbEntity
8
1
62
256
6
ByLayer
370
18
48
1
60
0
100
AcDbSpline
70
4
71
3
72
14
73
10
40
0
40
0
40
0
40
0
40
0.238891819651144
40
0.238891819651144
40
0.619445909825605
40
0.619445909825605
40
0.809722954912803
40
0.809722954912803
40
1
40
1
40
1
40
1
41
1
10
41.5380801157974
20
2.49076851112699
30
0
41
1
10
41.5758341638673
20
2.49194080291522
30
0
41
1
10
41.6135880955767
20
2.4919653891987
30
0
41
1
10
41.7115682430637
20
2.48907396911741
30
0
41
1
10
41.7718435393635
20
2.48438710652283
30
0
41
1
10
41.8625846338687
20
2.47290223337873
30
0
41
1
10
41.8928865220265
20
2.46832978727827
30
0
41
1
10
41.9536369668139
20
2.45766706518464
30
0
41
1
10
41.9841406886494
20
2.45156458871702
30
0
41
1
10
42.0145083860796
20
2.44473719568279
30
0
0
SPLINE
5
1D2
100
AcDbEntity
8
1
62
256
6
ByLayer
370
18
48
1
60
0
100
AcDbSpline
70
4
71
3
72
14
73
10
40
0
40
0
40
0
40
0
40
0.146158566989158
40
0.326076352656545
40
0.383194008532613
40
0.452791841931062
40
0.469632913717774
40
0.764620244470619
40
1
40
1
40
1
40
1
41
1
10
41.8913886793068
20
2.46831899932673
30
0
41
1
10
41.8980547440946
20
2.46726459305063
30
0
41
1
10
41.9129252304407
20
2.46483235357684
30
0
41
1
10
41.9303975810552
20
2.46176445939329
30
0
41
1
10
41.9443505114101
20
2.45919302555467
30
0
41
1
10
41.9510103263336
20
2.4579346387111
30
0
41
1
10
41.9669849682456
20
2.45486318991794
30
0
41
1
10
41.9899859763582
20
2.45020818678864
30
0
41
1
10
42.0123943776213
20
2.44526672127461
30
0
41
1
10
42.022359230454
20
2.44298924336556
30
0
0
SPLINE
5
1D3
100
AcDbEntity
8
1
62
256
6
ByLayer
370
18
48
1
60
0
100
AcDbSpline
70
4
71
3
72
8
73
4
40
0
40
0
40
0
40
0
40
1
40
1
40
1
40
1
41
1
10
42.0502457531738
20
2.4360941123239
30
0
41
1
10
42.0411138151646
20
2.43832370090982
30
0
41
1
10
42.0318168703008
20
2.44062147836834
30
0
41
1
10
42.0223592304542
20
2.4429892433655
30
0
0
SPLINE
5
1D4
100
AcDbEntity
8
1
62
256
6
ByLayer
370
18
48
1
60
0
100
AcDbSpline
70
4
71
3
72
12
73
8
40
0
40
0
40
0
40
0
40
0.25
40
0.25
40
0.5
40
0.5
40
1
40
1
40
1
40
1
41
1
10
42.0502457531757
20
2.43609411232336
30
0
41
1
10
42.0916746289336
20
2.42597913471141
30
0
41
1
10
42.1330902419341
20
2.4145298064862
30
0
41
1
10
42.2159046022834
20
2.38892285845239
30
0
41
1
10
42.2573204411389
20
2.37474710230211
30
0
41
1
10
42.3806753941726
20
2.32843068146306
30
0
41
1
10
42.4620205627111
20
2.29244406165213
30
0
41
1
10
42.542564665074
20
2.25120889755402
30
0
0
SPLINE
5
1D5
100
AcDbEntity
8
1
62
256
6
ByLayer
370
18
48
1
60
0
100
AcDbSpline
70
4
71
3
72
8
73
4
40
0
40
0
40
0
40
0
40
1
40
1
40
1
40
1
41
1
10
43.9995810198031
20
0.03895852598734
30
0
41
1
10
43.9970472869006
20
0.0257356627383842
30
0
41
1
10
43.9944758674499
20
0.0125183972805303
30
0
41
1
10
43.9918660811333
20
-0.0006931596708171
30
0
0
SPLINE
5
1D6
100
AcDbEntity
8
1
62
256
6
ByLayer
370
18
48
1
60
0
100
AcDbSpline
70
4
71
1
72
4
73
2
40
0
40
0
40
1
40
1
41
1
10
43.9920987746842
20
6.201002995E-05
30
0
41
1
10
43.9835786927018
20
0.044870049323066
30
0
0
SPLINE
5
1D7
100
AcDbEntity
8
1
62
256
6
ByLayer
370
18
48
1
60
0
100
AcDbSpline
70
4
71
1
72
4
73
2
40
0
40
0
40
1
40
1
41
1
10
42.3178016125229
20
1.42031804311526
30
0
41
1
10
42.0058972056652
20
1.50400178933879
30
0
0
LINE
5
7F
100
AcDbEntity
8
80
62
256
6
ByLayer
370
18
48
1
60
0
100
AcDbLine
10
0
20
0
30
0
11
-3
21
0
31
0
39
0
210
0
220
0
230
1
0
LINE
5
80
100
AcDbEntity
8
81
62
256
6
ByLayer
370
18
48
1
60
0
100
AcDbLine
10
44
20
0
30
0
11
47
21
0
31
0
39
0
210
0
220
0
230
1
0
LINE
5
81
100
AcDbEntity
8
SK4
62
256
6
ByLayer
370
18
48
0.05
60
0
100
AcDbLine
10
-39
20
0
30
0
11
47
21
0
31
0
39
0
210
0
220
0
230
1
0
LINE
5
83
100
AcDbEntity
8
4
62
256
6
ByLayer
370
18
48
0.05
60
0
100
AcDbLine
10
0
20
0
30
0
11
47
21
0
31
0
39
0
210
0
220
0
230
1
0
LINE
5
85
100
AcDbEntity
8
81
62
256
6
ByLayer
370
18
48
1
60
0
100
AcDbLine
10
43.9868
20
0
30
0
11
41.5
21
0
31
0
39
0
210
0
220
0
230
1
0
LINE
5
86
100
AcDbEntity
8
81
62
256
6
ByLayer
370
18
48
1
60
0
100
AcDbLine
10
-36
20
0
30
0
11
-38.4868
21
0
31
0
39
0
210
0
220
0
230
1
0
LINE
5
87
100
AcDbEntity
8
81
62
256
6
ByLayer
370
18
48
1
60
0
100
AcDbLine
10
-36
20
0
30
0
11
-36
21
-2.4868
31
0
39
0
210
0
220
0
230
1
0
LINE
5
88
100
AcDbEntity
8
81
62
256
6
ByLayer
370
18
48
1
60
0
100
AcDbLine
10
-41.089663
20
0
30
0
11
-40.378093
21
0
31
0
39
0
210
0
220
0
230
1
0
LINE
5
89
100
AcDbEntity
8
81
62
256
6
ByLayer
370
13
48
1
60
0
100
AcDbLine
10
-36
20
-1.973753
30
0
11
-36
21
-2.031058
31
0
39
0
210
0
220
0
230
1
0
LINE
5
8A
100
AcDbEntity
8
81
62
256
6
ByLayer
370
18
48
1
60
0
100
AcDbLine
10
-40.078093
20
0
30
0
11
-40.378093
21
0
31
0
39
0
210
0
220
0
230
1
0
LINE
5
8B
100
AcDbEntity
8
81
62
256
6
ByLayer
370
18
48
1
60
0
100
AcDbLine
10
40.065236
20
0
30
0
11
40.066
21
0
31
0
39
0
210
0
220
0
230
1
0
LINE
5
8C
100
AcDbEntity
8
81
62
256
6
ByLayer
370
18
48
1
60
0
100
AcDbLine
10
38.897137
20
0
30
0
11
39.608707
21
0
31
0
39
0
210
0
220
0
230
1
0
LINE
5
8D
100
AcDbEntity
8
81
62
256
6
ByLayer
370
18
48
1
60
0
100
AcDbLine
10
-36
20
-5.089663
30
0
11
-36
21
-4.378093
31
0
39
0
210
0
220
0
230
1
0
LINE
5
8E
100
AcDbEntity
8
81
62
256
6
ByLayer
370
13
48
1
60
0
100
AcDbLine
10
-36
20
-2.031058
30
0
11
-36
21
-2.031703
31
0
39
0
210
0
220
0
230
1
0
LINE
5
8F
100
AcDbEntity
8
81
62
256
6
ByLayer
370
18
48
1
60
0
100
AcDbLine
10
-40.078093
20
0
30
0
11
-40.378093
21
0
31
0
39
0
210
0
220
0
230
1
0
LINE
5
90
100
AcDbEntity
8
81
62
256
6
ByLayer
370
18
48
1
60
0
100
AcDbLine
10
-38.4868
20
0
30
0
11
-39.9208
21
0
31
0
39
0
210
0
220
0
230
1
0
LINE
5
91
100
AcDbEntity
8
81
62
256
6
ByLayer
370
18
48
1
60
0
100
AcDbLine
10
39.908707
20
0
30
0
11
40.065236
21
0
31
0
39
0
210
0
220
0
230
1
0
LINE
5
92
100
AcDbEntity
8
81
62
256
6
ByLayer
370
18
48
1
60
0
100
AcDbLine
10
-36
20
0
30
0
11
-36
21
2.4868
31
0
39
0
210
0
220
0
230
1
0
LINE
5
93
100
AcDbEntity
8
81
62
256
6
ByLayer
370
18
48
1
60
0
100
AcDbLine
10
-39.921564
20
0
30
0
11
-39.9208
21
0
31
0
39
0
210
0
220
0
230
1
0
LINE
5
94
100
AcDbEntity
8
81
62
256
6
ByLayer
370
18
48
1
60
0
100
AcDbLine
10
-41.089663
20
0
30
0
11
-40.378093
21
0
31
0
39
0
210
0
220
0
230
1
0
LINE
5
95
100
AcDbEntity
8
81
62
256
6
ByLayer
370
18
48
1
60
0
100
AcDbLine
10
41.5
20
0
30
0
11
40.066
21
0
31
0
39
0
210
0
220
0
230
1
0
LINE
5
96
100
AcDbEntity
8
81
62
256
6
ByLayer
370
18
48
1
60
0
100
AcDbLine
10
-40.078093
20
0
30
0
11
-39.921564
21
0
31
0
39
0
210
0
220
0
230
1
0
LINE
5
97
100
AcDbEntity
8
81
62
256
6
ByLayer
370
18
48
1
60
0
100
AcDbLine
10
-36
20
2.4868
30
0
11
-36
21
2.031703
31
0
39
0
210
0
220
0
230
1
0
LINE
5
98
100
AcDbEntity
8
81
62
256
6
ByLayer
370
18
48
1
60
0
100
AcDbLine
10
-36
20
-4.078093
30
0
11
-36
21
-4.378093
31
0
39
0
210
0
220
0
230
1
0
LINE
5
99
100
AcDbEntity
8
81
62
256
6
ByLayer
370
18
48
1
60
0
100
AcDbLine
10
-40.078093
20
0
30
0
11
-39.921564
21
0
31
0
39
0
210
0
220
0
230
1
0
LINE
5
9A
100
AcDbEntity
8
81
62
256
6
ByLayer
370
18
48
1
60
0
100
AcDbLine
10
-36
20
2.047839
30
0
11
-36
21
1.973753
31
0
39
0
210
0
220
0
230
1
0
LINE
5
9B
100
AcDbEntity
8
81
62
256
6
ByLayer
370
18
48
1
60
0
100
AcDbLine
10
-36
20
-3.921564
30
0
11
-36
21
-3.9208
31
0
39
0
210
0
220
0
230
1
0
LINE
5
9C
100
AcDbEntity
8
81
62
256
6
ByLayer
370
18
48
1
60
0
100
AcDbLine
10
-36
20
-2.4868
30
0
11
-36
21
-3.9208
31
0
39
0
210
0
220
0
230
1
0
LINE
5
9D
100
AcDbEntity
8
81
62
256
6
ByLayer
370
13
48
1
60
0
100
AcDbLine
10
-36
20
0
30
0
11
-36
21
-2.4868
31
0
39
0
210
0
220
0
230
1
0
LINE
5
9E
100
AcDbEntity
8
81
62
256
6
ByLayer
370
18
48
1
60
0
100
AcDbLine
10
-36
20
-4.078093
30
0
11
-36
21
-3.921564
31
0
39
0
210
0
220
0
230
1
0
LINE
5
9F
100
AcDbEntity
8
81
62
256
6
ByLayer
370
18
48
1
60
0
100
AcDbLine
10
-36
20
1.973753
30
0
11
-36
21
2.031058
31
0
39
0
210
0
220
0
230
1
0
LINE
5
A0
100
AcDbEntity
8
81
62
256
6
ByLayer
370
13
48
1
60
0
100
AcDbLine
10
-36
20
-2.4868
30
0
11
-36
21
-2.031703
31
0
39
0
210
0
220
0
230
1
0
LINE
5
A1
100
AcDbEntity
8
81
62
256
6
ByLayer
370
18
48
1
60
0
100
AcDbLine
10
-38.4868
20
0
30
0
11
-39.9208
21
0
31
0
39
0
210
0
220
0
230
1
0
LINE
5
A2
100
AcDbEntity
8
81
62
256
6
ByLayer
370
18
48
1
60
0
100
AcDbLine
10
-36
20
2.031058
30
0
11
-36
21
2.031703
31
0
39
0
210
0
220
0
230
1
0
LINE
5
A3
100
AcDbEntity
8
81
62
256
6
ByLayer
370
13
48
1
60
0
100
AcDbLine
10
-36
20
-2.047839
30
0
11
-36
21
-1.973753
31
0
39
0
210
0
220
0
230
1
0
LINE
5
A4
100
AcDbEntity
8
81
62
256
6
ByLayer
370
18
48
1
60
0
100
AcDbLine
10
-36
20
0
30
0
11
-38.4868
21
0
31
0
39
0
210
0
220
0
230
1
0
LINE
5
A5
100
AcDbEntity
8
81
62
256
6
ByLayer
370
18
48
1
60
0
100
AcDbLine
10
-39.921564
20
0
30
0
11
-39.9208
21
0
31
0
39
0
210
0
220
0
230
1
0
LINE
5
A6
100
AcDbEntity
8
81
62
256
6
ByLayer
370
18
48
1
60
0
100
AcDbLine
10
39.908707
20
0
30
0
11
39.608707
21
0
31
0
39
0
210
0
220
0
230
1
0
LINE
5
A7
100
AcDbEntity
8
1
62
256
6
ByLayer
370
18
48
1
60
0
100
AcDbLine
10
0
20
-3
30
0
11
0
21
3
31
0
39
0
210
0
220
0
230
1
0
LINE
5
A8
100
AcDbEntity
8
1
62
256
6
ByLayer
370
18
48
1
60
0
100
AcDbLine
10
43.999564
20
0.04
30
0
11
43.991699
21
0.04
31
0
39
0
210
0
220
0
230
1
0
LINE
5
A9
100
AcDbEntity
8
1
62
256
6
ByLayer
370
18
48
1
60
0
100
AcDbLine
10
43.878719
20
0.563827
30
0
11
43.834074
21
0.498501
31
0
39
0
210
0
220
0
230
1
0
LINE
5
AA
100
AcDbEntity
8
1
62
256
6
ByLayer
370
18
48
1
60
0
100
AcDbLine
10
43.905688
20
0.604059
30
0
11
43.878719
21
0.563827
31
0
39
0
210
0
220
0
230
1
0
LINE
5
AB
100
AcDbEntity
8
1
62
256
6
ByLayer
370
18
48
1
60
0
100
AcDbLine
10
43.812537
20
0.551513
30
0
11
43.878719
21
0.563827
31
0
39
0
210
0
220
0
230
1
0
LINE
5
AC
100
AcDbEntity
8
1
62
256
6
ByLayer
370
18
48
1
60
0
100
AcDbLine
10
43.983766
20
-0.042788
30
0
11
43.983388
21
-0.046053
31
0
39
0
210
0
220
0
230
1
0
LINE
5
AD
100
AcDbEntity
8
1
62
256
6
ByLayer
370
18
48
1
60
0
100
AcDbLine
10
43.980363
20
-0.036938
30
0
11
43.997412
21
-0.03664
31
0
39
0
210
0
220
0
230
1
0
LINE
5
AE
100
AcDbEntity
8
1
62
256
6
ByLayer
370
18
48
1
60
0
100
AcDbLine
10
43.655592
20
-0.960762
30
0
11
43.693428
21
-0.960779
31
0
39
0
210
0
220
0
230
1
0
LINE
5
AF
100
AcDbEntity
8
1
62
256
6
ByLayer
370
18
48
1
60
0
100
AcDbLine
10
39.933172
20
-1.801845
30
0
11
39.940397
21
-1.793196
31
0
39
0
210
0
220
0
230
1
0
LINE
5
B0
100
AcDbEntity
8
1
62
256
6
ByLayer
370
18
48
1
60
0
100
AcDbLine
10
38.417215
20
-2.0163
30
0
11
40.027769
21
-1.867715
31
0
39
0
210
0
220
0
230
1
0
LINE
5
B1
100
AcDbEntity
8
1
62
256
6
ByLayer
370
18
48
1
60
0
100
AcDbLine
10
40.068975
20
-1.896491
30
0
11
39.940397
21
-1.793196
31
0
39
0
210
0
220
0
230
1
0
LINE
5
B2
100
AcDbEntity
8
1
62
256
6
ByLayer
370
18
48
1
60
0
100
AcDbLine
10
43.841979
20
-0.635399
30
0
11
43.785621
21
-0.530085
31
0
39
0
210
0
220
0
230
1
0
LINE
5
B3
100
AcDbEntity
8
1
62
256
6
ByLayer
370
18
48
1
60
0
100
AcDbLine
10
43.792042
20
-0.481601
30
0
11
43.873314
21
-0.594179
31
0
39
0
210
0
220
0
230
1
0
LINE
5
B4
100
AcDbEntity
8
1
62
256
6
ByLayer
370
18
48
1
60
0
100
AcDbLine
10
39.940397
20
-1.793196
30
0
11
40.004648
21
-1.714946
31
0
39
0
210
0
220
0
230
1
0
LINE
5
B5
100
AcDbEntity
8
1
62
256
6
ByLayer
370
18
48
1
60
0
100
AcDbLine
10
40.004648
20
1.681675
30
0
11
40.170743
21
1.874436
31
0
39
0
210
0
220
0
230
1
0
LINE
5
B6
100
AcDbEntity
8
1
62
256
6
ByLayer
370
18
48
1
60
0
100
AcDbLine
10
40.133226
20
1.732453
30
0
11
40.004648
21
1.681675
31
0
39
0
210
0
220
0
230
1
0
LINE
5
B7
100
AcDbEntity
8
1
62
256
6
ByLayer
370
18
48
1
60
0
100
AcDbLine
10
39.940397
20
1.56696
30
0
11
40.004648
21
1.681675
31
0
39
0
210
0
220
0
230
1
0
LINE
5
B8
100
AcDbEntity
8
1
62
256
6
ByLayer
370
18
48
1
60
0
100
AcDbLine
10
40.068975
20
1.617737
30
0
11
39.940397
21
1.56696
31
0
39
0
210
0
220
0
230
1
0
LINE
5
B9
100
AcDbEntity
8
1
62
256
6
ByLayer
370
18
48
1
60
0
100
AcDbLine
10
39.933172
20
1.540671
30
0
11
39.940397
21
1.56696
31
0
39
0
210
0
220
0
230
1
0
LINE
5
BA
100
AcDbEntity
8
1
62
256
6
ByLayer
370
18
48
1
60
0
100
AcDbLine
10
40.133226
20
-1.818241
30
0
11
40.004648
21
-1.714946
31
0
39
0
210
0
220
0
230
1
0
LINE
5
BB
100
AcDbEntity
8
1
62
256
6
ByLayer
370
18
48
1
60
0
100
AcDbLine
10
40.004648
20
-1.714946
30
0
11
40.170743
21
-1.511504
31
0
39
0
210
0
220
0
230
1
0
LINE
5
BC
100
AcDbEntity
8
1
62
256
6
ByLayer
370
18
48
1
60
0
100
AcDbLine
10
40.066
20
0.799469
30
0
11
40.066
21
0.867326
31
0
39
0
210
0
220
0
230
1
0
LINE
5
BD
100
AcDbEntity
8
1
62
256
6
ByLayer
370
18
48
1
60
0
100
AcDbLine
10
43.549828
20
0.689697
30
0
11
43.693428
21
0.565529
31
0
39
0
210
0
220
0
230
1
0
LINE
5
BE
100
AcDbEntity
8
1
62
256
6
ByLayer
370
18
48
1
60
0
100
AcDbLine
10
43.549828
20
0.689697
30
0
11
43.541815
21
0.705387
31
0
39
0
210
0
220
0
230
1
0
LINE
5
BF
100
AcDbEntity
8
1
62
256
6
ByLayer
370
18
48
1
60
0
100
AcDbLine
10
42.855529
20
1.244456
30
0
11
42.613446
21
1.421259
31
0
39
0
210
0
220
0
230
1
0
LINE
5
C0
100
AcDbEntity
8
1
62
256
6
ByLayer
370
18
48
1
60
0
100
AcDbLine
10
38.417215
20
1.319003
30
0
11
40.066
21
0.631347
31
0
39
0
210
0
220
0
230
1
0
LINE
5
C1
100
AcDbEntity
8
1
62
256
6
ByLayer
370
18
48
1
60
0
100
AcDbLine
10
40.066
20
-1.433848
30
0
11
40.066
21
-1.517579
31
0
39
0
210
0
220
0
230
1
0
LINE
5
C2
100
AcDbEntity
8
1
62
256
6
ByLayer
370
18
48
1
60
0
100
AcDbLine
10
40.066
20
0.631347
30
0
11
40.066
21
0.799469
31
0
39
0
210
0
220
0
230
1
0
LINE
5
C3
100
AcDbEntity
8
1
62
256
6
ByLayer
370
18
48
1
60
0
100
AcDbLine
10
40.066
20
0.581896
30
0
11
40.066
21
0.631347
31
0
39
0
210
0
220
0
230
1
0
LINE
5
C4
100
AcDbEntity
8
1
62
256
6
ByLayer
370
18
48
1
60
0
100
AcDbLine
10
40.066
20
-1.325664
30
0
11
40.066
21
-1.252967
31
0
39
0
210
0
220
0
230
1
0
LINE
5
C5
100
AcDbEntity
8
1
62
256
6
ByLayer
370
18
48
1
60
0
100
AcDbLine
10
40.066
20
-1.433848
30
0
11
40.066
21
-1.325664
31
0
39
0
210
0
220
0
230
1
0
LINE
5
C6
100
AcDbEntity
8
1
62
256
6
ByLayer
370
18
48
1
60
0
100
AcDbLine
10
40.066
20
0.497182
30
0
11
40.066
21
0.581896
31
0
39
0
210
0
220
0
230
1
0
LINE
5
C7
100
AcDbEntity
8
1
62
256
6
ByLayer
370
18
48
1
60
0
100
AcDbLine
10
43.569533
20
-0.301332
30
0
11
43.655661
21
-0.436391
31
0
39
0
210
0
220
0
230
1
0
LINE
5
C8
100
AcDbEntity
8
1
62
256
6
ByLayer
370
18
48
1
60
0
100
AcDbLine
10
43.569533
20
-0.301332
30
0
11
43.562705
21
-0.279449
31
0
39
0
210
0
220
0
230
1
0
LINE
5
C9
100
AcDbEntity
8
1
62
256
6
ByLayer
370
18
48
1
60
0
100
AcDbLine
10
42.647109
20
0.163996
30
0
11
42.582984
21
0.174358
31
0
39
0
210
0
220
0
230
1
0
LINE
5
CA
100
AcDbEntity
8
1
62
256
6
ByLayer
370
18
48
1
60
0
100
AcDbLine
10
40.066
20
-0.739053
30
0
11
40.066
21
-0.655295
31
0
39
0
210
0
220
0
230
1
0
LINE
5
CB
100
AcDbEntity
8
1
62
256
6
ByLayer
370
18
48
1
60
0
100
AcDbLine
10
38.445294
20
-0.743496
30
0
11
40.066
21
-1.252967
31
0
39
0
210
0
220
0
230
1
0
LINE
5
CC
100
AcDbEntity
8
1
62
256
6
ByLayer
370
18
48
1
60
0
100
AcDbLine
10
40.066
20
-1.252967
30
0
11
40.066
21
-0.739053
31
0
39
0
210
0
220
0
230
1
0
LINE
5
CD
100
AcDbEntity
8
1
62
256
6
ByLayer
370
18
48
1
60
0
100
AcDbLine
10
39.932382
20
-0.197532
30
0
11
39.940397
21
-0.158412
31
0
39
0
210
0
220
0
230
1
0
LINE
5
CE
100
AcDbEntity
8
1
62
256
6
ByLayer
370
18
48
1
60
0
100
AcDbLine
10
39.940397
20
-0.158412
30
0
11
40.004657
21
0.035168
31
0
39
0
210
0
220
0
230
1
0
LINE
5
CF
100
AcDbEntity
8
1
62
256
6
ByLayer
370
18
48
1
60
0
100
AcDbLine
10
40.068975
20
-0.207802
30
0
11
39.940397
21
-0.158412
31
0
39
0
210
0
220
0
230
1
0
LINE
5
D0
100
AcDbEntity
8
1
62
256
6
ByLayer
370
18
48
1
60
0
100
AcDbLine
10
40.004657
20
0.035168
30
0
11
40.17077
21
0.430913
31
0
39
0
210
0
220
0
230
1
0
LINE
5
D1
100
AcDbEntity
8
1
62
256
6
ByLayer
370
18
48
1
60
0
100
AcDbLine
10
40.133234
20
-0.014222
30
0
11
40.004657
21
0.035168
31
0
39
0
210
0
220
0
230
1
0
LINE
5
D2
100
AcDbEntity
8
1
62
256
6
ByLayer
370
18
48
1
60
0
100
AcDbLine
10
40.066
20
0.867326
30
0
11
40.066
21
1.616224
31
0
39
0
210
0
220
0
230
1
0
LINE
5
D3
100
AcDbEntity
8
1
62
256
6
ByLayer
370
18
48
1
60
0
100
AcDbLine
10
40.066
20
-0.655295
30
0
11
40.066
21
-0.207182
31
0
39
0
210
0
220
0
230
1
0
LINE
5
D4
100
AcDbEntity
8
1
62
256
6
ByLayer
370
18
48
1
60
0
100
AcDbLine
10
40.066
20
0.497182
30
0
11
40.066
21
0.461667
31
0
39
0
210
0
220
0
230
1
0
LINE
5
D5
100
AcDbEntity
8
1
62
256
6
ByLayer
370
18
48
1
60
0
100
AcDbLine
10
43.983766
20
-0.042788
30
0
11
43.992379
21
-0.043025
31
0
39
0
210
0
220
0
230
1
0
LINE
5
D6
100
AcDbEntity
8
1
62
256
6
ByLayer
370
18
48
1
60
0
100
AcDbLine
10
43.999453
20
-0.03917
30
0
11
43.991695
21
-0.03917
31
0
39
0
210
0
220
0
230
1
0
LINE
5
D7
100
AcDbEntity
8
1
62
256
6
ByLayer
370
18
48
1
60
0
100
AcDbLine
10
43.98644
20
0.042325
30
0
11
43.992149
21
0.042487
31
0
39
0
210
0
220
0
230
1
0
LINE
5
D8
100
AcDbEntity
8
1
62
256
6
ByLayer
370
18
48
1
60
0
100
AcDbLine
10
13.960764
20
-3
30
0
11
13.960764
21
3
31
0
39
0
210
0
220
0
230
1
0
LINE
5
D9
100
AcDbEntity
8
81
62
256
6
ByLayer
370
18
48
1
60
0
100
AcDbLine
10
38.897137
20
2.047839
30
0
11
38.897137
21
2.041567
31
0
39
0
210
0
220
0
230
1
0
LINE
5
DA
100
AcDbEntity
8
81
62
256
6
ByLayer
370
18
48
1
60
0
100
AcDbLine
10
38.897137
20
-1.972005
30
0
11
38.897137
21
-2.047839
31
0
39
0
210
0
220
0
230
1
0
LINE
5
DB
100
AcDbEntity
8
81
62
256
6
ByLayer
370
18
48
1
60
0
100
AcDbLine
10
39.908707
20
-1.973753
30
0
11
39.608707
21
-1.973753
31
0
39
0
210
0
220
0
230
1
0
LINE
5
DC
100
AcDbEntity
8
81
62
256
6
ByLayer
370
18
48
1
60
0
100
AcDbLine
10
39.726053
20
1.973753
30
0
11
39.908707
21
1.973753
31
0
39
0
210
0
220
0
230
1
0
LINE
5
DD
100
AcDbEntity
8
81
62
256
6
ByLayer
370
18
48
1
60
0
100
AcDbLine
10
40.065236
20
-2.031058
30
0
11
40.066
21
-2.031703
31
0
39
0
210
0
220
0
230
1
0
LINE
5
DE
100
AcDbEntity
8
81
62
256
6
ByLayer
370
18
48
1
60
0
100
AcDbLine
10
40.066
20
2.031703
30
0
11
40.065236
21
2.031058
31
0
39
0
210
0
220
0
230
1
0
LINE
5
DF
100
AcDbEntity
8
SK1
62
256
6
ByLayer
370
18
48
1
60
0
100
AcDbLine
10
0
20
-3
30
0
11
0
21
3
31
0
39
0
210
0
220
0
230
1
0
LINE
5
E1
100
AcDbEntity
8
SK1
62
256
6
ByLayer
370
18
48
1
60
0
100
AcDbLine
10
-35.6
20
3
30
0
11
-35.6
21
-3
31
0
39
0
210
0
220
0
230
1
0
LINE
5
E2
100
AcDbEntity
8
SK1
62
256
6
ByLayer
370
18
48
1
60
0
100
AcDbLine
10
-36
20
2.6
30
0
11
-36
21
-2.6
31
0
39
0
210
0
220
0
230
1
0
LINE
5
E3
100
AcDbEntity
8
1
62
256
6
ByLayer
370
18
48
1
60
0
100
AcDbLine
10
13.960764
20
3
30
0
11
0
21
3
31
0
39
0
210
0
220
0
230
1
0
LINE
5
E4
100
AcDbEntity
8
1
62
256
6
ByLayer
370
18
48
1
60
0
100
AcDbLine
10
0
20
-3
30
0
11
13.960764
21
-3
31
0
39
0
210
0
220
0
230
1
0
LINE
5
E5
100
AcDbEntity
8
1
62
256
6
ByLayer
370
18
48
1
60
0
100
AcDbLine
10
38.606024
20
2.048
30
0
11
26.498789
21
2.048
31
0
39
0
210
0
220
0
230
1
0
LINE
5
E6
100
AcDbEntity
8
1
62
256
6
ByLayer
370
18
48
1
60
0
100
AcDbLine
10
26.498789
20
-2.048
30
0
11
38.730394
21
-2.048
31
0
39
0
210
0
220
0
230
1
0
LINE
5
E7
100
AcDbEntity
8
1
62
256
6
ByLayer
370
18
48
1
60
0
100
AcDbLine
10
26.422848
20
2.050888
30
0
11
13.960764
21
3
31
0
39
0
210
0
220
0
230
1
0
LINE
5
E8
100
AcDbEntity
8
1
62
256
6
ByLayer
370
18
48
1
60
0
100
AcDbLine
10
13.960764
20
-3
30
0
11
26.422848
21
-2.050888
31
0
39
0
210
0
220
0
230
1
0
LINE
5
E9
100
AcDbEntity
8
SK1
62
256
6
ByLayer
370
18
48
1
60
0
100
AcDbLine
10
0
20
3
30
0
11
-35.6
21
3
31
0
39
0
210
0
220
0
230
1
0
LINE
5
EA
100
AcDbEntity
8
SK1
62
256
6
ByLayer
370
18
48
1
60
0
100
AcDbLine
10
-35.6
20
-3
30
0
11
0
21
-3
31
0
39
0
210
0
220
0
230
1
0
LINE
5
EB
100
AcDbEntity
8
SK1
62
256
6
ByLayer
370
18
48
1
60
0
100
AcDbLine
10
-36
20
-2.6
30
0
11
-35.6
21
-3
31
0
39
0
210
0
220
0
230
1
0
LINE
5
EC
100
AcDbEntity
8
SK1
62
256
6
ByLayer
370
18
48
1
60
0
100
AcDbLine
10
-35.6
20
3
30
0
11
-36
21
2.6
31
0
39
0
210
0
220
0
230
1
0
LINE
5
ED
100
AcDbEntity
8
SK2
62
256
6
ByLayer
370
13
48
1
60
0
100
AcDbLine
10
-42.5
20
-10.5
30
0
11
-42.5
21
21.133313
31
0
39
0
210
0
220
0
230
1
0
LINE
5
EF
100
AcDbEntity
8
SK2
62
256
6
ByLayer
370
13
48
1
60
0
100
AcDbLine
10
-37.5875
20
-3
30
0
11
-44.5
21
-3
31
0
39
0
210
0
220
0
230
1
0
LINE
5
F0
100
AcDbEntity
8
SK2
62
256
6
ByLayer
370
13
48
1
60
0
100
AcDbLine
10
-37.5875
20
3
30
0
11
-44.5
21
3
31
0
39
0
210
0
220
0
230
1
0
LINE
5
F1
100
AcDbEntity
8
1
62
256
6
ByLayer
370
18
48
1
60
1
100
AcDbLine
10
-42.5
20
-3
30
0
11
-42.039216
21
-6.499998
31
0
39
0
210
0
220
0
230
1
0
LINE
5
F2
100
AcDbEntity
8
1
62
256
6
ByLayer
370
18
48
1
60
1
100
AcDbLine
10
-42.039216
20
-6.499998
30
0
11
-42.960784
21
-6.500002
31
0
39
0
210
0
220
0
230
1
0
LINE
5
F3
100
AcDbEntity
8
1
62
256
6
ByLayer
370
18
48
1
60
1
100
AcDbLine
10
-42.960784
20
-6.500002
30
0
11
-42.5
21
-3
31
0
39
0
210
0
220
0
230
1
0
LINE
5
F4
100
AcDbEntity
8
1
62
256
6
ByLayer
370
18
48
1
60
1
100
AcDbLine
10
-42.5
20
3
30
0
11
-42.960784
21
6.499998
31
0
39
0
210
0
220
0
230
1
0
LINE
5
F5
100
AcDbEntity
8
1
62
256
6
ByLayer
370
18
48
1
60
1
100
AcDbLine
10
-42.960784
20
6.499998
30
0
11
-42.039216
21
6.500002
31
0
39
0
210
0
220
0
230
1
0
LINE
5
F6
100
AcDbEntity
8
1
62
256
6
ByLayer
370
18
48
1
60
1
100
AcDbLine
10
-42.039216
20
6.500002
30
0
11
-42.5
21
3
31
0
39
0
210
0
220
0
230
1
0
LINE
5
F7
100
AcDbEntity
8
SK2
62
256
6
ByLayer
370
13
48
1
60
0
100
AcDbLine
10
31
20
-32.047839
30
0
11
31
21
9.547839
31
0
39
0
210
0
220
0
230
1
0
LINE
5
F8
100
AcDbEntity
8
SK2
62
256
6
ByLayer
370
13
48
1
60
0
100
AcDbLine
10
28.0875
20
-2.047839
30
0
11
33
21
-2.047839
31
0
39
0
210
0
220
0
230
1
0
LINE
5
F9
100
AcDbEntity
8
SK2
62
256
6
ByLayer
370
13
48
1
60
0
100
AcDbLine
10
28.0875
20
2.047839
30
0
11
33
21
2.047839
31
0
39
0
210
0
220
0
230
1
0
LINE
5
FA
100
AcDbEntity
8
1
62
256
6
ByLayer
370
18
48
1
60
1
100
AcDbLine
10
31
20
-2.047839
30
0
11
31.460784
21
-5.547837
31
0
39
0
210
0
220
0
230
1
0
LINE
5
FB
100
AcDbEntity
8
1
62
256
6
ByLayer
370
18
48
1
60
1
100
AcDbLine
10
31.460784
20
-5.547837
30
0
11
30.539216
21
-5.547841
31
0
39
0
210
0
220
0
230
1
0
LINE
5
FC
100
AcDbEntity
8
1
62
256
6
ByLayer
370
18
48
1
60
1
100
AcDbLine
10
30.539216
20
-5.547841
30
0
11
31
21
-2.047839
31
0
39
0
210
0
220
0
230
1
0
LINE
5
FD
100
AcDbEntity
8
1
62
256
6
ByLayer
370
18
48
1
60
1
100
AcDbLine
10
31
20
2.047839
30
0
11
30.539216
21
5.547837
31
0
39
0
210
0
220
0
230
1
0
LINE
5
FE
100
AcDbEntity
8
1
62
256
6
ByLayer
370
18
48
1
60
1
100
AcDbLine
10
30.539216
20
5.547837
30
0
11
31.460784
21
5.547841
31
0
39
0
210
0
220
0
230
1
0
LINE
5
FF
100
AcDbEntity
8
1
62
256
6
ByLayer
370
18
48
1
60
1
100
AcDbLine
10
31.460784
20
5.547841
30
0
11
31
21
2.047839
31
0
39
0
210
0
220
0
230
1
0
LINE
5
100
100
AcDbEntity
8
2
62
256
6
ByLayer
370
13
48
1
60
0
100
AcDbLine
10
58
20
-10
30
0
11
58
21
18.772684
31
0
39
0
210
0
220
0
230
1
0
LINE
5
102
100
AcDbEntity
8
2
62
256
6
ByLayer
370
13
48
1
60
0
100
AcDbLine
10
43.0875
20
-2.5
30
0
11
60
21
-2.5
31
0
39
0
210
0
220
0
230
1
0
LINE
5
103
100
AcDbEntity
8
2
62
256
6
ByLayer
370
13
48
1
60
0
100
AcDbLine
10
43.0875
20
2.5
30
0
11
60
21
2.5
31
0
39
0
210
0
220
0
230
1
0
LINE
5
104
100
AcDbEntity
8
1
62
256
6
ByLayer
370
18
48
1
60
1
100
AcDbLine
10
58
20
-2.5
30
0
11
58.460784
21
-5.999998
31
0
39
0
210
0
220
0
230
1
0
LINE
5
105
100
AcDbEntity
8
1
62
256
6
ByLayer
370
18
48
1
60
1
100
AcDbLine
10
58.460784
20
-5.999998
30
0
11
57.539216
21
-6.000002
31
0
39
0
210
0
220
0
230
1
0
LINE
5
106
100
AcDbEntity
8
1
62
256
6
ByLayer
370
18
48
1
60
1
100
AcDbLine
10
57.539216
20
-6.000002
30
0
11
58
21
-2.5
31
0
39
0
210
0
220
0
230
1
0
LINE
5
107
100
AcDbEntity
8
1
62
256
6
ByLayer
370
18
48
1
60
1
100
AcDbLine
10
58
20
2.5
30
0
11
57.539216
21
5.999998
31
0
39
0
210
0
220
0
230
1
0
LINE
5
108
100
AcDbEntity
8
1
62
256
6
ByLayer
370
18
48
1
60
1
100
AcDbLine
10
57.539216
20
5.999998
30
0
11
58.460784
21
6.000002
31
0
39
0
210
0
220
0
230
1
0
LINE
5
109
100
AcDbEntity
8
1
62
256
6
ByLayer
370
18
48
1
60
1
100
AcDbLine
10
58.460784
20
6.000002
30
0
11
58
21
2.5
31
0
39
0
210
0
220
0
230
1
0
LINE
5
10A
100
AcDbEntity
8
SK2
62
256
6
ByLayer
370
13
48
1
60
0
100
AcDbLine
10
12.377821
20
3.1202
30
0
11
-1.649756
21
4.185378
31
0
39
0
210
0
220
0
230
1
0
LINE
5
10B
100
AcDbEntity
8
SK2
62
256
6
ByLayer
370
13
48
1
60
0
100
AcDbLine
10
-34.4125
20
0
30
0
11
2.191565
21
0
31
0
39
0
210
0
220
0
230
1
0
LINE
5
10C
100
AcDbEntity
8
1
62
256
6
ByLayer
370
18
48
1
60
1
100
AcDbLine
10
0.344503
20
4.033944
30
0
11
0.207943
21
7.561502
31
0
39
0
210
0
220
0
230
1
0
LINE
5
10D
100
AcDbEntity
8
1
62
256
6
ByLayer
370
18
48
1
60
1
100
AcDbLine
10
0.207943
20
7.561502
30
0
11
1.125596
21
7.476651
31
0
39
0
210
0
220
0
230
1
0
LINE
5
10E
100
AcDbEntity
8
1
62
256
6
ByLayer
370
18
48
1
60
1
100
AcDbLine
10
1.125596
20
7.476651
30
0
11
0.344503
21
4.033944
31
0
39
0
210
0
220
0
230
1
0
LINE
5
10F
100
AcDbEntity
8
1
62
256
6
ByLayer
370
18
48
1
60
1
100
AcDbLine
10
0.191565
20
0
30
0
11
0.709746
21
-3.491962
31
0
39
0
210
0
220
0
230
1
0
LINE
5
110
100
AcDbEntity
8
1
62
256
6
ByLayer
370
18
48
1
60
1
100
AcDbLine
10
0.709746
20
-3.491962
30
0
11
-0.211697
21
-3.507095
31
0
39
0
210
0
220
0
230
1
0
LINE
5
111
100
AcDbEntity
8
1
62
256
6
ByLayer
370
18
48
1
60
1
100
AcDbLine
10
-0.211697
20
-3.507095
30
0
11
0.191565
21
0
31
0
39
0
210
0
220
0
230
1
0
LINE
5
1DC
100
AcDbEntity
8
1
62
256
6
ByLayer
370
18
48
1
60
1
100
AcDbLine
10
-42.5
20
-3
30
0
11
-42.039216
21
-6.499998
31
0
39
0
210
0
220
0
230
1
0
LINE
5
1DD
100
AcDbEntity
8
1
62
256
6
ByLayer
370
18
48
1
60
1
100
AcDbLine
10
-42.039216
20
-6.499998
30
0
11
-42.960784
21
-6.500002
31
0
39
0
210
0
220
0
230
1
0
LINE
5
1DE
100
AcDbEntity
8
1
62
256
6
ByLayer
370
18
48
1
60
1
100
AcDbLine
10
-42.960784
20
-6.500002
30
0
11
-42.5
21
-3
31
0
39
0
210
0
220
0
230
1
0
LINE
5
1E0
100
AcDbEntity
8
1
62
256
6
ByLayer
370
18
48
1
60
1
100
AcDbLine
10
-42.5
20
3
30
0
11
-42.960784
21
6.499998
31
0
39
0
210
0
220
0
230
1
0
LINE
5
1E1
100
AcDbEntity
8
1
62
256
6
ByLayer
370
18
48
1
60
1
100
AcDbLine
10
-42.960784
20
6.499998
30
0
11
-42.039216
21
6.500002
31
0
39
0
210
0
220
0
230
1
0
LINE
5
1E2
100
AcDbEntity
8
1
62
256
6
ByLayer
370
18
48
1
60
1
100
AcDbLine
10
-42.039216
20
6.500002
30
0
11
-42.5
21
3
31
0
39
0
210
0
220
0
230
1
0
LINE
5
1E6
100
AcDbEntity
8
1
62
256
6
ByLayer
370
18
48
1
60
1
100
AcDbLine
10
31
20
-2.047839
30
0
11
31.460784
21
-5.547837
31
0
39
0
210
0
220
0
230
1
0
LINE
5
1E7
100
AcDbEntity
8
1
62
256
6
ByLayer
370
18
48
1
60
1
100
AcDbLine
10
31.460784
20
-5.547837
30
0
11
30.539216
21
-5.547841
31
0
39
0
210
0
220
0
230
1
0
LINE
5
1E8
100
AcDbEntity
8
1
62
256
6
ByLayer
370
18
48
1
60
1
100
AcDbLine
10
30.539216
20
-5.547841
30
0
11
31
21
-2.047839
31
0
39
0
210
0
220
0
230
1
0
LINE
5
1EA
100
AcDbEntity
8
1
62
256
6
ByLayer
370
18
48
1
60
1
100
AcDbLine
10
31
20
2.047839
30
0
11
30.539216
21
5.547837
31
0
39
0
210
0
220
0
230
1
0
LINE
5
1EB
100
AcDbEntity
8
1
62
256
6
ByLayer
370
18
48
1
60
1
100
AcDbLine
10
30.539216
20
5.547837
30
0
11
31.460784
21
5.547841
31
0
39
0
210
0
220
0
230
1
0
LINE
5
1EC
100
AcDbEntity
8
1
62
256
6
ByLayer
370
18
48
1
60
1
100
AcDbLine
10
31.460784
20
5.547841
30
0
11
31
21
2.047839
31
0
39
0
210
0
220
0
230
1
0
LINE
5
1F0
100
AcDbEntity
8
1
62
256
6
ByLayer
370
18
48
1
60
1
100
AcDbLine
10
58
20
-2.5
30
0
11
58.460784
21
-5.999998
31
0
39
0
210
0
220
0
230
1
0
LINE
5
1F1
100
AcDbEntity
8
1
62
256
6
ByLayer
370
18
48
1
60
1
100
AcDbLine
10
58.460784
20
-5.999998
30
0
11
57.539216
21
-6.000002
31
0
39
0
210
0
220
0
230
1
0
LINE
5
1F2
100
AcDbEntity
8
1
62
256
6
ByLayer
370
18
48
1
60
1
100
AcDbLine
10
57.539216
20
-6.000002
30
0
11
58
21
-2.5
31
0
39
0
210
0
220
0
230
1
0
LINE
5
1F4
100
AcDbEntity
8
1
62
256
6
ByLayer
370
18
48
1
60
1
100
AcDbLine
10
58
20
2.5
30
0
11
57.539216
21
5.999998
31
0
39
0
210
0
220
0
230
1
0
LINE
5
1F5
100
AcDbEntity
8
1
62
256
6
ByLayer
370
18
48
1
60
1
100
AcDbLine
10
57.539216
20
5.999998
30
0
11
58.460784
21
6.000002
31
0
39
0
210
0
220
0
230
1
0
LINE
5
1F6
100
AcDbEntity
8
1
62
256
6
ByLayer
370
18
48
1
60
1
100
AcDbLine
10
58.460784
20
6.000002
30
0
11
58
21
2.5
31
0
39
0
210
0
220
0
230
1
0
LINE
5
1F9
100
AcDbEntity
8
1
62
256
6
ByLayer
370
18
48
1
60
1
100
AcDbLine
10
0.344503
20
4.033944
30
0
11
0.207943
21
7.561502
31
0
39
0
210
0
220
0
230
1
0
LINE
5
1FA
100
AcDbEntity
8
1
62
256
6
ByLayer
370
18
48
1
60
1
100
AcDbLine
10
0.207943
20
7.561502
30
0
11
1.125596
21
7.476651
31
0
39
0
210
0
220
0
230
1
0
LINE
5
1FB
100
AcDbEntity
8
1
62
256
6
ByLayer
370
18
48
1
60
1
100
AcDbLine
10
1.125596
20
7.476651
30
0
11
0.344503
21
4.033944
31
0
39
0
210
0
220
0
230
1
0
LINE
5
1FD
100
AcDbEntity
8
1
62
256
6
ByLayer
370
18
48
1
60
1
100
AcDbLine
10
0.191565
20
0
30
0
11
0.709746
21
-3.491962
31
0
39
0
210
0
220
0
230
1
0
LINE
5
1FE
100
AcDbEntity
8
1
62
256
6
ByLayer
370
18
48
1
60
1
100
AcDbLine
10
0.709746
20
-3.491962
30
0
11
-0.211697
21
-3.507095
31
0
39
0
210
0
220
0
230
1
0
LINE
5
1FF
100
AcDbEntity
8
1
62
256
6
ByLayer
370
18
48
1
60
1
100
AcDbLine
10
-0.211697
20
-3.507095
30
0
11
0.191565
21
0
31
0
39
0
210
0
220
0
230
1
0
MTEXT
5
1D8
100
AcDbEntity
8
SK2
62
256
6
ByLayer
370
18
48
1
60
0
100
AcDbMText
10
-43.841114
20
7.658438
30
0
210
0
220
0
230
1
1
%%c
40
3
41
0
44
1.084337
50
90
71
7
72
5
7
iso_b_vert
0
MTEXT
5
1DB
100
AcDbEntity
8
SK2
62
256
6
ByLayer
370
18
48
1
60
0
100
AcDbMText
10
-43.841114
20
13.635
30
0
210
0
220
0
230
1
1
\W0.6903;6 h6
40
3
41
0
44
1.084337
50
90
71
7
72
5
7
iso_b_vert
0
MTEXT
5
1E4
100
AcDbEntity
8
SK2
62
256
6
ByLayer
370
18
48
1
60
0
100
AcDbMText
10
29.658886
20
-30.389401
30
0
210
0
220
0
230
1
1
%%c
40
3
41
0
44
1.084337
50
90
71
7
72
5
7
iso_b_vert
0
MTEXT
5
1E5
100
AcDbEntity
8
SK2
62
256
6
ByLayer
370
18
48
1
60
0
100
AcDbMText
10
29.658886
20
-24.412839
30
0
210
0
220
0
230
1
1
\W0.6856;4.10
40
3
41
0
44
1.084337
50
90
71
7
72
5
7
iso_b_vert
0
MTEXT
5
1EE
100
AcDbEntity
8
2
62
256
6
ByLayer
370
18
48
1
60
0
100
AcDbMText
10
56.658886
20
9.158437
30
0
210
0
220
0
230
1
1
%%c
40
3
41
0
44
1.084337
50
90
71
7
72
5
7
iso_b_vert
0
MTEXT
5
1EF
100
AcDbEntity
8
2
62
256
6
ByLayer
370
18
48
1
60
0
100
AcDbMText
10
56.658886
20
15.135
30
0
210
0
220
0
230
1
1
\W0.5966;(5)
40
3
41
0
44
1.084337
50
90
71
7
72
5
7
iso_b_vert
0
MTEXT
5
1F8
100
AcDbEntity
8
SK2
62
256
6
ByLayer
370
18
48
1
60
0
100
AcDbMText
10
0.553224
20
10.672003
30
0
210
0
220
0
230
1
1
\W0.8014;(4%%d)
40
3
41
0
44
1.084337
50
75.5952686417351
71
7
72
5
7
iso_b_vert
0
MTEXT
5
201
100
AcDbEntity
8
SK6
62
256
6
ByLayer
370
18
48
1
60
0
100
AcDbMText
10
-23.812056
20
-43.159717
30
0
210
0
220
0
230
1
1
\W0.7831;2L446-0500-TA0600   T2CH
40
3
41
0
44
1.084337
50
0
71
7
72
5
7
iso_b_vert
0
HATCH
5
1DF
100
AcDbEntity
8
SK2
62
256
6
ByLayer
370
13
48
1
60
0
100
AcDbHatch
10
0
20
0
30
0
210
0
220
0
230
1
2
ANSI31
70
0
71
0
91
1
92
5
93
3
72
1
10
-42.5
20
-3
11
-42.0392162584472
21
-6.49999830744682
72
1
10
-42.0392162584472
20
-6.49999830744682
11
-42.9607837415528
21
-6.50000169255318
72
1
10
-42.9607837415528
20
-6.50000169255318
11
-42.5
21
-3
97
0
75
0
76
1
52
0
41
0.0062
77
0
78
1
53
45
43
0
44
0
45
-0.0139193969876572
46
0.0139193969876572
79
0
47
0
98
1
10
0
20
0
0
HATCH
5
1E3
100
AcDbEntity
8
SK2
62
256
6
ByLayer
370
13
48
1
60
0
100
AcDbHatch
10
0
20
0
30
0
210
0
220
0
230
1
2
ANSI31
70
0
71
0
91
1
92
5
93
3
72
1
10
-42.5
20
3.00000000000003
11
-42.9607837415528
21
6.49999830744684
72
1
10
-42.9607837415528
20
6.49999830744684
11
-42.0392162584472
21
6.50000169255321
72
1
10
-42.0392162584472
20
6.50000169255321
11
-42.5
21
3.00000000000003
97
0
75
0
76
1
52
0
41
0.0062
77
0
78
1
53
45
43
0
44
0
45
-0.0139193969876572
46
0.0139193969876572
79
0
47
0
98
1
10
0
20
0
0
HATCH
5
1E9
100
AcDbEntity
8
SK2
62
256
6
ByLayer
370
13
48
1
60
0
100
AcDbHatch
10
0
20
0
30
0
210
0
220
0
230
1
2
ANSI31
70
0
71
0
91
1
92
5
93
3
72
1
10
31
20
-2.04783886084817
11
31.4607837415528
21
-5.54783716829499
72
1
10
31.4607837415528
20
-5.54783716829499
11
30.5392162584472
21
-5.54784055340136
72
1
10
30.5392162584472
20
-5.54784055340136
11
31
21
-2.04783886084817
97
0
75
0
76
1
52
0
41
0.0062
77
0
78
1
53
45
43
0
44
0
45
-0.0139193969876572
46
0.0139193969876572
79
0
47
0
98
1
10
0
20
0
0
HATCH
5
1ED
100
AcDbEntity
8
SK2
62
256
6
ByLayer
370
13
48
1
60
0
100
AcDbHatch
10
0
20
0
30
0
210
0
220
0
230
1
2
ANSI31
70
0
71
0
91
1
92
5
93
3
72
1
10
31
20
2.04783886084803
11
30.5392162584472
21
5.54783716829485
72
1
10
30.5392162584472
20
5.54783716829485
11
31.4607837415528
21
5.54784055340122
72
1
10
31.4607837415528
20
5.54784055340122
11
31
21
2.04783886084803
97
0
75
0
76
1
52
0
41
0.0062
77
0
78
1
53
45
43
0
44
0
45
-0.0139193969876572
46
0.0139193969876572
79
0
47
0
98
1
10
0
20
0
0
HATCH
5
1F3
100
AcDbEntity
8
2
62
256
6
ByLayer
370
13
48
1
60
0
100
AcDbHatch
10
0
20
0
30
0
210
0
220
0
230
1
2
ANSI31
70
0
71
0
91
1
92
5
93
3
72
1
10
58
20
-2.5
11
58.4607837415528
21
-5.99999830744682
72
1
10
58.4607837415528
20
-5.99999830744682
11
57.5392162584472
21
-6.00000169255318
72
1
10
57.5392162584472
20
-6.00000169255318
11
58
21
-2.5
97
0
75
0
76
1
52
0
41
0.0062
77
0
78
1
53
45
43
0
44
0
45
-0.0139193969876572
46
0.0139193969876572
79
0
47
0
98
1
10
0
20
0
0
HATCH
5
1F7
100
AcDbEntity
8
2
62
256
6
ByLayer
370
13
48
1
60
0
100
AcDbHatch
10
0
20
0
30
0
210
0
220
0
230
1
2
ANSI31
70
0
71
0
91
1
92
5
93
3
72
1
10
58
20
2.5
11
57.5392162584472
21
5.99999830744682
72
1
10
57.5392162584472
20
5.99999830744682
11
58.4607837415528
21
6.00000169255318
72
1
10
58.4607837415528
20
6.00000169255318
11
58
21
2.5
97
0
75
0
76
1
52
0
41
0.0062
77
0
78
1
53
45
43
0
44
0
45
-0.0139193969876572
46
0.0139193969876572
79
0
47
0
98
1
10
0
20
0
0
HATCH
5
1FC
100
AcDbEntity
8
SK2
62
256
6
ByLayer
370
13
48
1
60
0
100
AcDbHatch
10
0
20
0
30
0
210
0
220
0
230
1
2
ANSI31
70
0
71
0
91
1
92
5
93
3
72
1
10
0.344502756155237
20
4.03394449621351
11
0.207943032256623
21
7.56150190190073
72
1
10
0.207943032256623
20
7.56150190190073
11
1.12559597387056
21
7.4766508283879
72
1
10
1.12559597387056
20
7.4766508283879
11
0.344502756155237
21
4.03394449621351
97
0
75
0
76
1
52
0
41
0.0062
77
0
78
1
53
45
43
0
44
0
45
-0.0139193969876572
46
0.0139193969876572
79
0
47
0
98
1
10
0
20
0
0
HATCH
5
200
100
AcDbEntity
8
SK2
62
256
6
ByLayer
370
13
48
1
60
0
100
AcDbHatch
10
0
20
0
30
0
210
0
220
0
230
1
2
ANSI31
70
0
71
0
91
1
92
5
93
3
72
1
10
0.19156504246439
20
0
11
0.709746102183431
21
-3.49196194108103
72
1
10
0.709746102183431
20
-3.49196194108103
11
-0.211697127757475
21
-3.50709468455338
72
1
10
-0.211697127757475
20
-3.50709468455338
11
0.19156504246439
21
0
97
0
75
0
76
1
52
0
41
0.0062
77
0
78
1
53
45
43
0
44
0
45
-0.0139193969876572
46
0.0139193969876572
79
0
47
0
98
1
10
0
20
0
0
DIMENSION
5
204
100
AcDbEntity
8
2
62
256
6
ByLayer
370
18
48
1
60
0
100
AcDbDimension
2
_U0
10
26.5
20
10.85
30
0
11
35.25
21
10.85
31
0
70
32
71
1
72
1
41
1
210
0
220
0
230
1
3
Standard
100
AcDbAlignedDimension
13
44
23
0
33
0
14
26.5
24
2.047839
34
0
50
0
100
AcDbRotatedDimension
1001
ACAD
1000
DSTYLE
1002
{
1070
   371
1070
    13
1070
   372
1070
    13
1070
     3
1000

1070
   170
1070
     0
1070
   144
1040
1.0
1070
   277
1070
     2
1070
   284
1070
     8
1070
   278
1070
    46
1070
   146
1040
1.166667
1070
   345
1005
16
1070
   347
1005
16
1070
   346
1005
16
1070
   344
1005
0
1070
   343
1005
0
1070
   172
1070
     1
1070
    76
1070
     0
1070
    75
1070
     0
1070
   282
1070
     0
1070
   281
1070
     0
1070
    71
1070
     0
1070
    74
1070
     0
1070
   279
1070
     0
1070
   173
1070
     1
1070
   340
1005
1D9
1070
   271
1070
     2
1070
   272
1070
     2
1070
    77
1070
     1
1070
    73
1070
     1
1070
   171
1070
     3
1070
   274
1070
     4
1070
   177
1070
     2
1070
   176
1070
     2
1070
   178
1070
     2
1070
    78
1070
     8
1070
    48
1040
-0.1
1070
    41
1040
3.5
1070
   147
1040
1.5
1070
    42
1040
1.5875
1070
    44
1040
2.0
1070
   140
1040
3.0
1002
}
1001
ACAD_DSTYLE_DIM_LINETYPE
1070
   380
1005
16
1001
ACAD_DSTYLE_DIM_EXT1_LINETYPE
1070
   381
1005
16
1001
ACAD_DSTYLE_DIM_EXT2_LINETYPE
1070
   382
1005
16
0
DIMENSION
5
21D
100
AcDbEntity
8
2
62
256
6
ByLayer
370
18
48
1
60
0
100
AcDbDimension
2
_U1
10
13.960764
20
20.85
30
0
11
28.980382
21
20.85
31
0
70
32
71
1
72
1
41
1
210
0
220
0
230
1
3
Standard
100
AcDbAlignedDimension
13
44
23
0
33
0
14
13.960764
24
3
34
0
50
0
100
AcDbRotatedDimension
1001
ACAD
1000
DSTYLE
1002
{
1070
   371
1070
    13
1070
   372
1070
    13
1070
     3
1000

1070
   170
1070
     0
1070
   144
1040
1.0
1070
   277
1070
     2
1070
   284
1070
     8
1070
   278
1070
    46
1070
   146
1040
1.166667
1070
   345
1005
16
1070
   347
1005
16
1070
   346
1005
16
1070
   344
1005
0
1070
   343
1005
0
1070
   172
1070
     1
1070
    76
1070
     0
1070
    75
1070
     0
1070
   282
1070
     0
1070
   281
1070
     0
1070
    71
1070
     0
1070
    74
1070
     0
1070
   279
1070
     0
1070
   173
1070
     1
1070
   340
1005
1D9
1070
   271
1070
     2
1070
   272
1070
     2
1070
    77
1070
     1
1070
    73
1070
     1
1070
   171
1070
     3
1070
   274
1070
     4
1070
   177
1070
     2
1070
   176
1070
     2
1070
   178
1070
     2
1070
    78
1070
     8
1070
    48
1040
-0.1
1070
    41
1040
3.5
1070
   147
1040
1.5
1070
    42
1040
1.5875
1070
    44
1040
2.0
1070
   140
1040
3.0
1002
}
1001
ACAD_DSTYLE_DIM_LINETYPE
1070
   380
1005
16
1001
ACAD_DSTYLE_DIM_EXT1_LINETYPE
1070
   381
1005
16
1001
ACAD_DSTYLE_DIM_EXT2_LINETYPE
1070
   382
1005
16
0
DIMENSION
5
235
100
AcDbEntity
8
SK2
62
256
6
ByLayer
370
18
48
1
60
0
100
AcDbDimension
2
_U2
10
-36
20
30.85
30
0
11
4
21
30.85
31
0
70
32
71
1
72
1
41
1
210
0
220
0
230
1
3
Standard
100
AcDbAlignedDimension
13
44
23
0
33
0
14
-36
24
0
34
0
50
0
100
AcDbRotatedDimension
1001
ACAD
1000
DSTYLE
1002
{
1070
   371
1070
    13
1070
   372
1070
    13
1070
     3
1000

1070
   170
1070
     0
1070
   144
1040
1.0
1070
   277
1070
     2
1070
   284
1070
     8
1070
   278
1070
    46
1070
   146
1040
1.166667
1070
   345
1005
16
1070
   347
1005
16
1070
   346
1005
16
1070
   344
1005
0
1070
   343
1005
0
1070
   172
1070
     1
1070
    76
1070
     0
1070
    75
1070
     0
1070
   282
1070
     0
1070
   281
1070
     0
1070
    71
1070
     0
1070
    74
1070
     0
1070
   279
1070
     0
1070
   173
1070
     1
1070
   340
1005
1D9
1070
   271
1070
     2
1070
   272
1070
     2
1070
    77
1070
     1
1070
    73
1070
     1
1070
   171
1070
     3
1070
   274
1070
     4
1070
   177
1070
     2
1070
   176
1070
     2
1070
   178
1070
     2
1070
    78
1070
     8
1070
    48
1040
-0.1
1070
    41
1040
3.5
1070
   147
1040
1.5
1070
    42
1040
1.5875
1070
    44
1040
2.0
1070
   140
1040
3.0
1002
}
1001
ACAD_DSTYLE_DIM_LINETYPE
1070
   380
1005
16
1001
ACAD_DSTYLE_DIM_EXT1_LINETYPE
1070
   381
1005
16
1001
ACAD_DSTYLE_DIM_EXT2_LINETYPE
1070
   382
1005
16
0
DIMENSION
5
24D
100
AcDbEntity
8
SK2
62
256
6
ByLayer
370
18
48
1
60
0
100
AcDbDimension
2
_U3
10
0.4
20
-14.939663
30
0
11
-17.8
21
-14.939663
31
0
70
32
71
1
72
1
41
1
210
0
220
0
230
1
3
Standard
100
AcDbAlignedDimension
13
-36
23
0
33
0
14
0.4
24
-3
34
0
50
0
100
AcDbRotatedDimension
1001
ACAD
1000
DSTYLE
1002
{
1070
   371
1070
    13
1070
   372
1070
    13
1070
     3
1000

1070
   170
1070
     0
1070
   144
1040
1.0
1070
   277
1070
     2
1070
   284
1070
     8
1070
   278
1070
    46
1070
   146
1040
1.166667
1070
   345
1005
16
1070
   347
1005
16
1070
   346
1005
16
1070
   344
1005
0
1070
   343
1005
0
1070
   172
1070
     1
1070
    76
1070
     0
1070
    75
1070
     0
1070
   282
1070
     0
1070
   281
1070
     0
1070
    71
1070
     0
1070
    74
1070
     0
1070
   279
1070
     0
1070
   173
1070
     1
1070
   340
1005
1D9
1070
   271
1070
     2
1070
   272
1070
     2
1070
    77
1070
     1
1070
    73
1070
     1
1070
   171
1070
     3
1070
   274
1070
     4
1070
   177
1070
     2
1070
   176
1070
     2
1070
   178
1070
     2
1070
    78
1070
     8
1070
    48
1040
-0.1
1070
    41
1040
3.5
1070
   147
1040
1.5
1070
    42
1040
1.5875
1070
    44
1040
2.0
1070
   140
1040
3.0
1002
}
1001
ACAD_DSTYLE_DIM_LINETYPE
1070
   380
1005
16
1001
ACAD_DSTYLE_DIM_EXT1_LINETYPE
1070
   381
1005
16
1001
ACAD_DSTYLE_DIM_EXT2_LINETYPE
1070
   382
1005
16
0
DIMENSION
5
265
100
AcDbEntity
8
SK2
62
256
6
ByLayer
370
18
48
1
60
0
100
AcDbDimension
2
_U4
10
40.066
20
-11.5
30
0
11
60.071429
21
-11.5
31
0
70
32
71
1
72
1
41
1
210
0
220
0
230
1
3
Standard
100
AcDbAlignedDimension
13
44
23
0
33
0
14
40.066
24
2.047839
34
0
50
0
100
AcDbRotatedDimension
1001
ACAD
1000
DSTYLE
1002
{
1070
   371
1070
    13
1070
   372
1070
    13
1070
     3
1000

1070
   170
1070
     0
1070
   144
1040
1.0
1070
   277
1070
     2
1070
   284
1070
     8
1070
   278
1070
    46
1070
   146
1040
1.166667
1070
   345
1005
16
1070
   347
1005
16
1070
   346
1005
16
1070
   344
1005
0
1070
   343
1005
0
1070
   172
1070
     1
1070
    76
1070
     0
1070
    75
1070
     0
1070
   282
1070
     0
1070
   281
1070
     0
1070
    71
1070
     0
1070
    74
1070
     0
1070
   279
1070
     0
1070
   173
1070
     1
1070
   340
1005
1D9
1070
   271
1070
     2
1070
   272
1070
     2
1070
    77
1070
     1
1070
    73
1070
     1
1070
   171
1070
     3
1070
   274
1070
     4
1070
   177
1070
     2
1070
   176
1070
     2
1070
   178
1070
     2
1070
    78
1070
     8
1070
    48
1040
-0.1
1070
    41
1040
3.5
1070
   147
1040
1.5
1070
    42
1040
1.5875
1070
    44
1040
2.0
1070
   140
1040
3.0
1002
}
1001
ACAD_DSTYLE_DIM_LINETYPE
1070
   380
1005
16
1001
ACAD_DSTYLE_DIM_EXT1_LINETYPE
1070
   381
1005
16
1001
ACAD_DSTYLE_DIM_EXT2_LINETYPE
1070
   382
1005
16
0
ENDSEC
0
SECTION
2
OBJECTS
0
DICTIONARY
5
2ef
330
0
100
AcDbDictionary
280
0
281
1
3
ACAD_GROUP
350
2f0
3
ACAD_MLINESTYLE
350
2f1
0
DICTIONARY
5
2f0
330
0
100
AcDbDictionary
280
0
281
1
0
DICTIONARY
5
2f1
330
0
100
AcDbDictionary
280
0
281
1
3
Standard
350
18
0
MLINESTYLE
5
18
330
2f1
100
AcDbMlineStyle
2
Standard
70
0
3

62
256
51
90
52
90
71
2
49
-0.5
62
256
6
ByLayer
49
0.5
62
256
6
ByLayer
0
RASTERVARIABLES
5
2dd
330

100
AcDbRasterVariables
90
0
70
1
71
1
72
1
0
ENDSEC
0
EOF
