0
SECTION
2
HEADER
9
$ACADVER
1
AC1015
9
$DWGCODEPAGE
3
ANSI_1252
9
$HANDSEED
5
2aa
9
$ANGBASE
50
0
9
$ANGDIR
70
0
9
$ATTMODE
70
1
9
$AUNITS
70
0
9
$AUPREC
70
0
9
$CECOLOR
62
256
9
$CELTSCALE
40
1
9
$CELTYPE
6
ByLayer
9
$CELWEIGHT
370
18
9
$CLAYER
8
0
9
$CMLJUST
70
0
9
$CMLSCALE
40
1
9
$CMLSTYLE
2
Standard
9
$DIMSTYLE
2
Standard
9
$TEXTSIZE
40
0.2
9
$TEXTSTYLE
7
Standard
9
$LUNITS
70
2
9
$LUPREC
70
4
9
$EXTNAMES
290
1
9
$INSUNITS
70
4
9
$LTSCALE
40
1
9
$LWDISPLAY
290
1
9
$PDMODE
70
0
9
$PDSIZE
40
0
9
$PLINEGEN
70
0
0
ENDSEC
0
SECTION
2
CLASSES
0
CLASS
1
RASTERVARIABLES
2
AcDbRasterVariables
3
ISM
90
0
280
0
281
0
0
ENDSEC
0
SECTION
2
TABLES
0
TABLE
2
VPORT
5
2a0
100
AcDbSymbolTable
0
VPORT
5
1
100
AcDbSymbolTableRecord
100
AcDbViewportTableRecord
2
*Active
70
0
10
0
20
0
11
1
21
1
12
-1
22
1
13
0
23
0
14
0.5
24
0.5
15
10
25
10
16
0
26
0
36
1
17
0
27
0
37
0
0
ENDTAB
0
TABLE
2
LTYPE
5
2a1
100
AcDbSymbolTable
0
LTYPE
5
14
100
AcDbSymbolTableRecord
100
AcDbLinetypeTableRecord
70
0
2
ByBlock
3

72
65
73
0
40
0
0
LTYPE
5
15
100
AcDbSymbolTableRecord
100
AcDbLinetypeTableRecord
70
0
2
ByLayer
3

72
65
73
0
40
0
0
LTYPE
5
16
100
AcDbSymbolTableRecord
100
AcDbLinetypeTableRecord
70
0
2
Continuous
3
Solid line
72
65
73
0
40
0
0
LTYPE
5
6E
100
AcDbSymbolTableRecord
100
AcDbLinetypeTableRecord
70
0
2
CENTER
3
____ _ ____ _ ____ _ ____
72
65
73
4
40
47.5
49
22
74
0
49
-8.5
74
0
49
8.5
74
0
49
-8.5
74
0
0
LTYPE
5
6F
100
AcDbSymbolTableRecord
100
AcDbLinetypeTableRecord
70
0
2
DASHED
3
__ __ __ __ __ __ __ __ __
72
65
73
2
40
25.72
49
12.86
74
0
49
-12.86
74
0
0
ENDTAB
0
TABLE
2
LAYER
5
2a2
100
AcDbSymbolTable
0
LAYER
5
10
100
AcDbSymbolTableRecord
100
AcDbLayerTableRecord
2
0
70
0
62
7
6
Continuous
290
1
370
-3
390
0
0
LAYER
5
71
100
AcDbSymbolTableRecord
100
AcDbLayerTableRecord
2
81
70
0
62
-3
6
Continuous
290
1
370
-3
390
0
0
LAYER
5
73
100
AcDbSymbolTableRecord
100
AcDbLayerTableRecord
2
80
70
0
62
-6
6
Continuous
290
1
370
-3
390
0
0
LAYER
5
75
100
AcDbSymbolTableRecord
100
AcDbLayerTableRecord
2
1
70
0
62
4
6
Continuous
290
1
370
-3
390
0
0
LAYER
5
82
100
AcDbSymbolTableRecord
100
AcDbLayerTableRecord
2
4
70
0
62
-2
6
CENTER
290
1
370
-3
390
0
0
LAYER
5
EB
100
AcDbSymbolTableRecord
100
AcDbLayerTableRecord
2
2
70
0
62
7
6
Continuous
290
1
370
-3
390
0
0
LAYER
5
1B4
100
AcDbSymbolTableRecord
100
AcDbLayerTableRecord
2
Defpoints
70
0
62
7
6
Continuous
290
0
370
-3
390
0
0
LAYER
5
28c
100
AcDbSymbolTableRecord
100
AcDbLayerTableRecord
2
SK4
70
0
62
2
6
CENTER
290
1
370
-3
390
0
0
LAYER
5
28d
100
AcDbSymbolTableRecord
100
AcDbLayerTableRecord
2
SK1
70
0
62
4
6
Continuous
290
1
370
-3
390
0
0
LAYER
5
28e
100
AcDbSymbolTableRecord
100
AcDbLayerTableRecord
2
SK2
70
0
62
7
6
Continuous
290
1
370
-3
390
0
0
LAYER
5
28f
100
AcDbSymbolTableRecord
100
AcDbLayerTableRecord
2
SK6
70
0
62
5
6
Continuous
290
1
370
-3
390
0
0
ENDTAB
0
TABLE
2
STYLE
5
2a3
100
AcDbSymbolTable
0
STYLE
5
11
100
AcDbSymbolTableRecord
100
AcDbTextStyleTableRecord
2
Standard
3
txt
70
0
71
0
40
0
41
1
42
0
50
0
0
STYLE
5
186
100
AcDbSymbolTableRecord
100
AcDbTextStyleTableRecord
2
iso_b_vert
3
simplex.shx
70
0
71
0
40
0
41
1
42
0
50
0
0
STYLE
5
187
100
AcDbSymbolTableRecord
100
AcDbTextStyleTableRecord
2
DWGDirectTextStyle
3
simplex
70
0
71
0
40
0
41
1
42
0
50
0
0
ENDTAB
0
TABLE
2
DIMSTYLE
5
2a4
100
AcDbSymbolTable
100
AcDbDimStyleTable
0
DIMSTYLE
105
27
100
AcDbSymbolTableRecord
100
AcDbDimStyleTableRecord
2
Standard
70
0
3
<>
41
0.18
42
0.0625
44
0.18
140
0.18
147
0.09
73
0
74
0
77
1
271
2
275
0
278
52
280
0
340
11
0
ENDTAB
0
TABLE
2
VIEW
5
2a5
100
AcDbSymbolTable
0
ENDTAB
0
TABLE
2
UCS
5
2a6
100
AcDbSymbolTable
0
ENDTAB
0
TABLE
2
APPID
5
2a7
100
AcDbSymbolTable
0
APPID
5
12
100
AcDbSymbolTableRecord
100
AcDbRegAppTableRecord
2
ACAD
70
0
0
APPID
5
1B0
100
AcDbSymbolTableRecord
100
AcDbRegAppTableRecord
2
ACAD_DSTYLE_DIMBREAK
70
0
0
APPID
5
24B
100
AcDbSymbolTableRecord
100
AcDbRegAppTableRecord
2
ACAD_DSTYLE_DIM_LINETYPE
70
0
0
APPID
5
24C
100
AcDbSymbolTableRecord
100
AcDbRegAppTableRecord
2
ACAD_DSTYLE_DIM_EXT1_LINETYPE
70
0
0
APPID
5
24D
100
AcDbSymbolTableRecord
100
AcDbRegAppTableRecord
2
ACAD_DSTYLE_DIM_EXT2_LINETYPE
70
0
0
APPID
5
288
100
AcDbSymbolTableRecord
100
AcDbRegAppTableRecord
2
ACAD_MLEADERVER
70
0
0
ENDTAB
0
TABLE
2
BLOCK_RECORD
5
2a8
100
AcDbSymbolTable
0
BLOCK_RECORD
5
1F
100
AcDbSymbolTableRecord
100
AcDbBlockTableRecord
2
*Model_Space
340
0
70
0
0
BLOCK_RECORD
5
1B
100
AcDbSymbolTableRecord
100
AcDbBlockTableRecord
2
*Paper_Space
340
0
70
0
0
BLOCK_RECORD
5
23
100
AcDbSymbolTableRecord
100
AcDbBlockTableRecord
2
*Paper_Space0
340
0
70
0
0
BLOCK_RECORD
5
1B5
100
AcDbSymbolTableRecord
100
AcDbBlockTableRecord
2
*D1
340
0
70
0
0
BLOCK_RECORD
5
1C2
100
AcDbSymbolTableRecord
100
AcDbBlockTableRecord
2
_U0
340
0
70
0
0
BLOCK_RECORD
5
1CE
100
AcDbSymbolTableRecord
100
AcDbBlockTableRecord
2
*D3
340
0
70
0
0
BLOCK_RECORD
5
1DA
100
AcDbSymbolTableRecord
100
AcDbBlockTableRecord
2
_U1
340
0
70
0
0
BLOCK_RECORD
5
1E6
100
AcDbSymbolTableRecord
100
AcDbBlockTableRecord
2
*D5
340
0
70
0
0
BLOCK_RECORD
5
1F2
100
AcDbSymbolTableRecord
100
AcDbBlockTableRecord
2
_U2
340
0
70
0
0
BLOCK_RECORD
5
1FE
100
AcDbSymbolTableRecord
100
AcDbBlockTableRecord
2
*D7
340
0
70
0
0
BLOCK_RECORD
5
20A
100
AcDbSymbolTableRecord
100
AcDbBlockTableRecord
2
_U3
340
0
70
0
0
BLOCK_RECORD
5
216
100
AcDbSymbolTableRecord
100
AcDbBlockTableRecord
2
*D9
340
0
70
0
0
BLOCK_RECORD
5
224
100
AcDbSymbolTableRecord
100
AcDbBlockTableRecord
2
_U4
340
0
70
0
0
ENDTAB
0
ENDSEC
0
SECTION
2
BLOCKS
0
BLOCK
5
20
100
AcDbEntity
8
0
100
AcDbBlockBegin
2
*Model_Space
70
0
10
0
20
0
30
0
3
*Model_Space
0
ENDBLK
5
21
100
AcDbEntity
8
0
100
AcDbBlockEnd
0
BLOCK
5
1C
100
AcDbEntity
8
0
100
AcDbBlockBegin
2
*Paper_Space
70
0
10
0
20
0
30
0
3
*Paper_Space
0
ENDBLK
5
1D
100
AcDbEntity
8
0
100
AcDbBlockEnd
0
BLOCK
5
24
100
AcDbEntity
8
0
100
AcDbBlockBegin
2
*Paper_Space0
70
0
10
0
20
0
30
0
3
*Paper_Space0
0
ENDBLK
5
25
100
AcDbEntity
8
0
100
AcDbBlockEnd
0
BLOCK
5
1B6
100
AcDbEntity
8
0
100
AcDbBlockBegin
2
*D1
70
1
10
0
20
0
30
0
3
*D1
0
LINE
5
1B8
100
AcDbEntity
8
0
62
256
6
ByLayer
370
-2
48
1
60
0
100
AcDbLine
10
59
20
1.5875
30
0
11
59
21
12.85
31
0
39
0
210
0
220
0
230
1
0
LINE
5
1B9
100
AcDbEntity
8
0
62
256
6
ByLayer
370
-2
48
1
60
0
100
AcDbLine
10
54
20
2.407055
30
0
11
54
21
12.85
31
0
39
0
210
0
220
0
230
1
0
LINE
5
1BA
100
AcDbEntity
8
0
62
256
6
ByLayer
370
-2
48
1
60
0
100
AcDbLine
10
62.5
20
10.85
30
0
11
66
21
10.85
31
0
39
0
210
0
220
0
230
1
0
LINE
5
1BB
100
AcDbEntity
8
0
62
256
6
ByLayer
370
-2
48
1
60
0
100
AcDbLine
10
50.5
20
10.85
30
0
11
47
21
10.85
31
0
39
0
210
0
220
0
230
1
0
SOLID
5
1BC
100
AcDbEntity
8
0
62
256
6
ByLayer
370
-1
48
1
60
0
100
AcDbTrace
10
62.5
20
11.433333
30
0
11
62.5
21
10.266667
31
0
12
59
22
10.85
32
0
13
59
23
10.85
33
0
39
0
210
0
220
0
230
1
0
SOLID
5
1BD
100
AcDbEntity
8
0
62
256
6
ByLayer
370
-1
48
1
60
0
100
AcDbTrace
10
50.5
20
10.266667
30
0
11
50.5
21
11.433333
31
0
12
54
22
10.85
32
0
13
54
23
10.85
33
0
39
0
210
0
220
0
230
1
0
MTEXT
5
1BE
100
AcDbEntity
8
0
62
256
6
ByLayer
370
18
48
1
60
0
100
AcDbMText
10
56.5
20
16.85
30
0
210
0
220
0
230
1
1
\A1;5
40
3
41
0
44
1
50
0
71
5
72
5
7
iso_b_vert
0
POINT
5
1BF
100
AcDbEntity
8
Defpoints
62
0
6
ByLayer
370
-1
48
1
60
0
100
AcDbPoint
10
59
20
0
30
0
39
0
210
0
220
0
230
1
50
360
0
POINT
5
1C0
100
AcDbEntity
8
Defpoints
62
0
6
ByLayer
370
-1
48
1
60
0
100
AcDbPoint
10
54
20
0.819555
30
0
39
0
210
0
220
0
230
1
50
360
0
POINT
5
1C1
100
AcDbEntity
8
Defpoints
62
0
6
ByLayer
370
-1
48
1
60
0
100
AcDbPoint
10
54
20
10.85
30
0
39
0
210
0
220
0
230
1
50
360
0
ENDBLK
5
1B7
100
AcDbEntity
8
0
100
AcDbBlockEnd
0
BLOCK
5
1C9
100
AcDbEntity
8
0
100
AcDbBlockBegin
2
_U0
70
0
10
0
20
0
30
0
3
_U0
0
MTEXT
5
1C3
100
AcDbEntity
8
2
62
256
6
ByLayer
370
18
48
1
60
0
100
AcDbMText
10
55.988086
20
11.735114
30
0
210
0
220
0
230
1
1
\W0.5404;5
40
3
41
0
44
1.084337
50
0
71
7
72
5
7
iso_b_vert
0
LINE
5
1C4
100
AcDbEntity
8
2
62
256
6
ByLayer
370
13
48
1
60
0
100
AcDbLine
10
59
20
1.5875
30
0
11
59
21
12.85
31
0
39
0
210
0
220
0
230
1
0
LINE
5
1C5
100
AcDbEntity
8
2
62
256
6
ByLayer
370
13
48
1
60
0
100
AcDbLine
10
54
20
2.407055
30
0
11
54
21
12.85
31
0
39
0
210
0
220
0
230
1
0
LINE
5
1C6
100
AcDbEntity
8
2
62
256
6
ByLayer
370
13
48
1
60
0
100
AcDbLine
10
66.5
20
10.85
30
0
11
46.5
21
10.85
31
0
39
0
210
0
220
0
230
1
0
SOLID
5
1C7
100
AcDbEntity
8
2
62
256
6
ByLayer
370
18
48
1
60
0
100
AcDbTrace
10
59
20
10.85
30
0
11
62.499998
21
11.310784
31
0
12
62.500002
22
10.389216
32
0
13
62.500002
23
10.389216
33
0
39
0
210
0
220
0
230
1
0
SOLID
5
1C8
100
AcDbEntity
8
2
62
256
6
ByLayer
370
18
48
1
60
0
100
AcDbTrace
10
54
20
10.85
30
0
11
50.500002
21
10.389216
31
0
12
50.499998
22
11.310784
32
0
13
50.499998
23
11.310784
33
0
39
0
210
0
220
0
230
1
0
ENDBLK
5
1CA
100
AcDbEntity
8
0
100
AcDbBlockEnd
0
BLOCK
5
1CF
100
AcDbEntity
8
0
100
AcDbBlockBegin
2
*D3
70
1
10
0
20
0
30
0
3
*D3
0
LINE
5
1D1
100
AcDbEntity
8
0
62
256
6
ByLayer
370
-2
48
1
60
0
100
AcDbLine
10
59
20
1.5875
30
0
11
59
21
22.85
31
0
39
0
210
0
220
0
230
1
0
LINE
5
1D2
100
AcDbEntity
8
0
62
256
6
ByLayer
370
-2
48
1
60
0
100
AcDbLine
10
28.955082
20
4.5875
30
0
11
28.955082
21
22.85
31
0
39
0
210
0
220
0
230
1
0
LINE
5
1D3
100
AcDbEntity
8
0
62
256
6
ByLayer
370
-2
48
1
60
0
100
AcDbLine
10
55.5
20
20.85
30
0
11
32.455082
21
20.85
31
0
39
0
210
0
220
0
230
1
0
SOLID
5
1D4
100
AcDbEntity
8
0
62
256
6
ByLayer
370
-1
48
1
60
0
100
AcDbTrace
10
55.5
20
20.266667
30
0
11
55.5
21
21.433333
31
0
12
59
22
20.85
32
0
13
59
23
20.85
33
0
39
0
210
0
220
0
230
1
0
SOLID
5
1D5
100
AcDbEntity
8
0
62
256
6
ByLayer
370
-1
48
1
60
0
100
AcDbTrace
10
32.455082
20
21.433333
30
0
11
32.455082
21
20.266667
31
0
12
28.955082
22
20.85
32
0
13
28.955082
23
20.85
33
0
39
0
210
0
220
0
230
1
0
MTEXT
5
1D6
100
AcDbEntity
8
0
62
256
6
ByLayer
370
18
48
1
60
0
100
AcDbMText
10
43.977541
20
26.85
30
0
210
0
220
0
230
1
1
\A1;30.04
40
3
41
0
44
1
50
0
71
5
72
5
7
iso_b_vert
0
POINT
5
1D7
100
AcDbEntity
8
Defpoints
62
0
6
ByLayer
370
-1
48
1
60
0
100
AcDbPoint
10
59
20
0
30
0
39
0
210
0
220
0
230
1
50
360
0
POINT
5
1D8
100
AcDbEntity
8
Defpoints
62
0
6
ByLayer
370
-1
48
1
60
0
100
AcDbPoint
10
28.955082
20
3
30
0
39
0
210
0
220
0
230
1
50
360
0
POINT
5
1D9
100
AcDbEntity
8
Defpoints
62
0
6
ByLayer
370
-1
48
1
60
0
100
AcDbPoint
10
28.955082
20
20.85
30
0
39
0
210
0
220
0
230
1
50
360
0
ENDBLK
5
1D0
100
AcDbEntity
8
0
100
AcDbBlockEnd
0
BLOCK
5
1E1
100
AcDbEntity
8
0
100
AcDbBlockBegin
2
_U1
70
0
10
0
20
0
30
0
3
_U1
0
MTEXT
5
1DB
100
AcDbEntity
8
2
62
256
6
ByLayer
370
18
48
1
60
0
100
AcDbMText
10
42.344713
20
21.735114
30
0
210
0
220
0
230
1
1
\W0.6740;30
40
3
41
0
44
1.084337
50
0
71
7
72
5
7
iso_b_vert
0
LINE
5
1DC
100
AcDbEntity
8
2
62
256
6
ByLayer
370
13
48
1
60
0
100
AcDbLine
10
59
20
1.5875
30
0
11
59
21
22.85
31
0
39
0
210
0
220
0
230
1
0
LINE
5
1DD
100
AcDbEntity
8
2
62
256
6
ByLayer
370
13
48
1
60
0
100
AcDbLine
10
28.955082
20
4.5875
30
0
11
28.955082
21
22.85
31
0
39
0
210
0
220
0
230
1
0
LINE
5
1DE
100
AcDbEntity
8
2
62
256
6
ByLayer
370
13
48
1
60
0
100
AcDbLine
10
59
20
20.85
30
0
11
28.955082
21
20.85
31
0
39
0
210
0
220
0
230
1
0
SOLID
5
1DF
100
AcDbEntity
8
2
62
256
6
ByLayer
370
18
48
1
60
0
100
AcDbTrace
10
59
20
20.85
30
0
11
55.500002
21
20.389216
31
0
12
55.499998
22
21.310784
32
0
13
55.499998
23
21.310784
33
0
39
0
210
0
220
0
230
1
0
SOLID
5
1E0
100
AcDbEntity
8
2
62
256
6
ByLayer
370
18
48
1
60
0
100
AcDbTrace
10
28.955082
20
20.85
30
0
11
32.455081
21
21.310784
31
0
12
32.455084
22
20.389216
32
0
13
32.455084
23
20.389216
33
0
39
0
210
0
220
0
230
1
0
ENDBLK
5
1E2
100
AcDbEntity
8
0
100
AcDbBlockEnd
0
BLOCK
5
1E7
100
AcDbEntity
8
0
100
AcDbBlockBegin
2
*D5
70
1
10
0
20
0
30
0
3
*D5
0
LINE
5
1E9
100
AcDbEntity
8
0
62
256
6
ByLayer
370
-2
48
1
60
0
100
AcDbLine
10
59
20
1.5875
30
0
11
59
21
32.85
31
0
39
0
210
0
220
0
230
1
0
LINE
5
1EA
100
AcDbEntity
8
0
62
256
6
ByLayer
370
-2
48
1
60
0
100
AcDbLine
10
-36
20
1.5875
30
0
11
-36
21
32.85
31
0
39
0
210
0
220
0
230
1
0
LINE
5
1EB
100
AcDbEntity
8
0
62
256
6
ByLayer
370
-2
48
1
60
0
100
AcDbLine
10
55.5
20
30.85
30
0
11
-32.5
21
30.85
31
0
39
0
210
0
220
0
230
1
0
SOLID
5
1EC
100
AcDbEntity
8
0
62
256
6
ByLayer
370
-1
48
1
60
0
100
AcDbTrace
10
55.5
20
30.266667
30
0
11
55.5
21
31.433333
31
0
12
59
22
30.85
32
0
13
59
23
30.85
33
0
39
0
210
0
220
0
230
1
0
SOLID
5
1ED
100
AcDbEntity
8
0
62
256
6
ByLayer
370
-1
48
1
60
0
100
AcDbTrace
10
-32.5
20
31.433333
30
0
11
-32.5
21
30.266667
31
0
12
-36
22
30.85
32
0
13
-36
23
30.85
33
0
39
0
210
0
220
0
230
1
0
MTEXT
5
1EE
100
AcDbEntity
8
0
62
256
6
ByLayer
370
18
48
1
60
0
100
AcDbMText
10
11.5
20
36.85
30
0
210
0
220
0
230
1
1
\A1;95
40
3
41
0
44
1
50
0
71
5
72
5
7
iso_b_vert
0
POINT
5
1EF
100
AcDbEntity
8
Defpoints
62
0
6
ByLayer
370
-1
48
1
60
0
100
AcDbPoint
10
59
20
0
30
0
39
0
210
0
220
0
230
1
50
360
0
POINT
5
1F0
100
AcDbEntity
8
Defpoints
62
0
6
ByLayer
370
-1
48
1
60
0
100
AcDbPoint
10
-36
20
0
30
0
39
0
210
0
220
0
230
1
50
360
0
POINT
5
1F1
100
AcDbEntity
8
Defpoints
62
0
6
ByLayer
370
-1
48
1
60
0
100
AcDbPoint
10
-36
20
30.85
30
0
39
0
210
0
220
0
230
1
50
360
0
ENDBLK
5
1E8
100
AcDbEntity
8
0
100
AcDbBlockEnd
0
BLOCK
5
1F9
100
AcDbEntity
8
0
100
AcDbBlockBegin
2
_U2
70
0
10
0
20
0
30
0
3
_U2
0
MTEXT
5
1F3
100
AcDbEntity
8
SK2
62
256
6
ByLayer
370
18
48
1
60
0
100
AcDbMText
10
9.867172
20
31.735114
30
0
210
0
220
0
230
1
1
\W0.6740;95
40
3
41
0
44
1.084337
50
0
71
7
72
5
7
iso_b_vert
0
LINE
5
1F4
100
AcDbEntity
8
SK2
62
256
6
ByLayer
370
13
48
1
60
0
100
AcDbLine
10
59
20
1.5875
30
0
11
59
21
32.85
31
0
39
0
210
0
220
0
230
1
0
LINE
5
1F5
100
AcDbEntity
8
SK2
62
256
6
ByLayer
370
13
48
1
60
0
100
AcDbLine
10
-36
20
1.5875
30
0
11
-36
21
32.85
31
0
39
0
210
0
220
0
230
1
0
LINE
5
1F6
100
AcDbEntity
8
SK2
62
256
6
ByLayer
370
13
48
1
60
0
100
AcDbLine
10
59
20
30.85
30
0
11
-36
21
30.85
31
0
39
0
210
0
220
0
230
1
0
SOLID
5
1F7
100
AcDbEntity
8
SK2
62
256
6
ByLayer
370
18
48
1
60
0
100
AcDbTrace
10
59
20
30.85
30
0
11
55.500002
21
30.389216
31
0
12
55.499998
22
31.310784
32
0
13
55.499998
23
31.310784
33
0
39
0
210
0
220
0
230
1
0
SOLID
5
1F8
100
AcDbEntity
8
SK2
62
256
6
ByLayer
370
18
48
1
60
0
100
AcDbTrace
10
-36
20
30.85
30
0
11
-32.500002
21
31.310784
31
0
12
-32.499998
22
30.389216
32
0
13
-32.499998
23
30.389216
33
0
39
0
210
0
220
0
230
1
0
ENDBLK
5
1FA
100
AcDbEntity
8
0
100
AcDbBlockEnd
0
BLOCK
5
1FF
100
AcDbEntity
8
0
100
AcDbBlockBegin
2
*D7
70
1
10
0
20
0
30
0
3
*D7
0
LINE
5
201
100
AcDbEntity
8
0
62
256
6
ByLayer
370
-2
48
1
60
0
100
AcDbLine
10
-36
20
-1.5875
30
0
11
-36
21
-14.85
31
0
39
0
210
0
220
0
230
1
0
LINE
5
202
100
AcDbEntity
8
0
62
256
6
ByLayer
370
-2
48
1
60
0
100
AcDbLine
10
0.4
20
-4.5875
30
0
11
0.4
21
-14.85
31
0
39
0
210
0
220
0
230
1
0
LINE
5
203
100
AcDbEntity
8
0
62
256
6
ByLayer
370
-2
48
1
60
0
100
AcDbLine
10
-32.5
20
-12.85
30
0
11
-3.1
21
-12.85
31
0
39
0
210
0
220
0
230
1
0
SOLID
5
204
100
AcDbEntity
8
0
62
256
6
ByLayer
370
-1
48
1
60
0
100
AcDbTrace
10
-32.5
20
-12.266667
30
0
11
-32.5
21
-13.433333
31
0
12
-36
22
-12.85
32
0
13
-36
23
-12.85
33
0
39
0
210
0
220
0
230
1
0
SOLID
5
205
100
AcDbEntity
8
0
62
256
6
ByLayer
370
-1
48
1
60
0
100
AcDbTrace
10
-3.1
20
-13.433333
30
0
11
-3.1
21
-12.266667
31
0
12
0.4
22
-12.85
32
0
13
0.4
23
-12.85
33
0
39
0
210
0
220
0
230
1
0
MTEXT
5
206
100
AcDbEntity
8
0
62
256
6
ByLayer
370
18
48
1
60
0
100
AcDbMText
10
-17.8
20
-6.85
30
0
210
0
220
0
230
1
1
\A1;36.4
40
3
41
0
44
1
50
0
71
5
72
5
7
iso_b_vert
0
POINT
5
207
100
AcDbEntity
8
Defpoints
62
0
6
ByLayer
370
-1
48
1
60
0
100
AcDbPoint
10
-36
20
0
30
0
39
0
210
0
220
0
230
1
50
360
0
POINT
5
208
100
AcDbEntity
8
Defpoints
62
0
6
ByLayer
370
-1
48
1
60
0
100
AcDbPoint
10
0.4
20
-3
30
0
39
0
210
0
220
0
230
1
50
360
0
POINT
5
209
100
AcDbEntity
8
Defpoints
62
0
6
ByLayer
370
-1
48
1
60
0
100
AcDbPoint
10
0.4
20
-12.85
30
0
39
0
210
0
220
0
230
1
50
360
0
ENDBLK
5
200
100
AcDbEntity
8
0
100
AcDbBlockEnd
0
BLOCK
5
211
100
AcDbEntity
8
0
100
AcDbBlockBegin
2
_U3
70
0
10
0
20
0
30
0
3
_U3
0
MTEXT
5
20B
100
AcDbEntity
8
SK2
62
256
6
ByLayer
370
18
48
1
60
0
100
AcDbMText
10
-25.364913
20
-11.964886
30
0
210
0
220
0
230
1
1
\W0.7245;(MIN. 36)
40
3
41
0
44
1.084337
50
0
71
7
72
5
7
iso_b_vert
0
LINE
5
20C
100
AcDbEntity
8
SK2
62
256
6
ByLayer
370
13
48
1
60
0
100
AcDbLine
10
-36
20
-1.5875
30
0
11
-36
21
-14.85
31
0
39
0
210
0
220
0
230
1
0
LINE
5
20D
100
AcDbEntity
8
SK2
62
256
6
ByLayer
370
13
48
1
60
0
100
AcDbLine
10
0.4
20
-4.5875
30
0
11
0.4
21
-14.85
31
0
39
0
210
0
220
0
230
1
0
LINE
5
20E
100
AcDbEntity
8
SK2
62
256
6
ByLayer
370
13
48
1
60
0
100
AcDbLine
10
-36
20
-12.85
30
0
11
0.4
21
-12.85
31
0
39
0
210
0
220
0
230
1
0
SOLID
5
20F
100
AcDbEntity
8
SK2
62
256
6
ByLayer
370
18
48
1
60
0
100
AcDbTrace
10
-36
20
-12.85
30
0
11
-32.500002
21
-12.389216
31
0
12
-32.499998
22
-13.310784
32
0
13
-32.499998
23
-13.310784
33
0
39
0
210
0
220
0
230
1
0
SOLID
5
210
100
AcDbEntity
8
SK2
62
256
6
ByLayer
370
18
48
1
60
0
100
AcDbTrace
10
0.4
20
-12.85
30
0
11
-3.099998
21
-13.310784
31
0
12
-3.100002
22
-12.389216
32
0
13
-3.100002
23
-12.389216
33
0
39
0
210
0
220
0
230
1
0
ENDBLK
5
212
100
AcDbEntity
8
0
100
AcDbBlockEnd
0
BLOCK
5
217
100
AcDbEntity
8
0
100
AcDbBlockBegin
2
*D9
70
1
10
0
20
0
30
0
3
*D9
0
LINE
5
219
100
AcDbEntity
8
0
62
256
6
ByLayer
370
-2
48
1
60
0
100
AcDbLine
10
59
20
-1.5875
30
0
11
59
21
-13.5
31
0
39
0
210
0
220
0
230
1
0
LINE
5
21A
100
AcDbEntity
8
0
62
256
6
ByLayer
370
-2
48
1
60
0
100
AcDbLine
10
57.427
20
-0.767945
30
0
11
57.427
21
-13.5
31
0
39
0
210
0
220
0
230
1
0
LINE
5
21B
100
AcDbEntity
8
0
62
256
6
ByLayer
370
-2
48
1
60
0
100
AcDbLine
10
59
20
-11.5
30
0
11
83.714286
21
-11.5
31
0
39
0
210
0
220
0
230
1
0
LINE
5
21C
100
AcDbEntity
8
0
62
256
6
ByLayer
370
-2
48
1
60
0
100
AcDbLine
10
62.5
20
-11.5
30
0
11
66
21
-11.5
31
0
39
0
210
0
220
0
230
1
0
LINE
5
21D
100
AcDbEntity
8
0
62
256
6
ByLayer
370
-2
48
1
60
0
100
AcDbLine
10
53.927
20
-11.5
30
0
11
50.427
21
-11.5
31
0
39
0
210
0
220
0
230
1
0
SOLID
5
21E
100
AcDbEntity
8
0
62
256
6
ByLayer
370
-1
48
1
60
0
100
AcDbTrace
10
62.5
20
-10.916667
30
0
11
62.5
21
-12.083333
31
0
12
59
22
-11.5
32
0
13
59
23
-11.5
33
0
39
0
210
0
220
0
230
1
0
SOLID
5
21F
100
AcDbEntity
8
0
62
256
6
ByLayer
370
-1
48
1
60
0
100
AcDbTrace
10
53.927
20
-12.083333
30
0
11
53.927
21
-10.916667
31
0
12
57.427
22
-11.5
32
0
13
57.427
23
-11.5
33
0
39
0
210
0
220
0
230
1
0
MTEXT
5
220
100
AcDbEntity
8
0
62
256
6
ByLayer
370
18
48
1
60
0
100
AcDbMText
10
74.857143
20
-5.5
30
0
210
0
220
0
230
1
1
\A1;1.57
40
3
41
0
44
1
50
0
71
5
72
5
7
iso_b_vert
0
POINT
5
221
100
AcDbEntity
8
Defpoints
62
0
6
ByLayer
370
-1
48
1
60
0
100
AcDbPoint
10
59
20
0
30
0
39
0
210
0
220
0
230
1
50
360
0
POINT
5
222
100
AcDbEntity
8
Defpoints
62
0
6
ByLayer
370
-1
48
1
60
0
100
AcDbPoint
10
57.427
20
0.819555
30
0
39
0
210
0
220
0
230
1
50
360
0
POINT
5
223
100
AcDbEntity
8
Defpoints
62
0
6
ByLayer
370
-1
48
1
60
0
100
AcDbPoint
10
57.427
20
-11.5
30
0
39
0
210
0
220
0
230
1
50
360
0
ENDBLK
5
218
100
AcDbEntity
8
0
100
AcDbBlockEnd
0
BLOCK
5
22B
100
AcDbEntity
8
0
100
AcDbBlockBegin
2
_U4
70
0
10
0
20
0
30
0
3
_U4
0
MTEXT
5
225
100
AcDbEntity
8
SK2
62
256
6
ByLayer
370
18
48
1
60
0
100
AcDbMText
10
69.159
20
-10.614886
30
0
210
0
220
0
230
1
1
\W0.6563;1.57
40
3
41
0
44
1.084337
50
0
71
7
72
5
7
iso_b_vert
0
LINE
5
226
100
AcDbEntity
8
SK2
62
256
6
ByLayer
370
13
48
1
60
0
100
AcDbLine
10
59
20
-1.5875
30
0
11
59
21
-13.5
31
0
39
0
210
0
220
0
230
1
0
LINE
5
227
100
AcDbEntity
8
SK2
62
256
6
ByLayer
370
13
48
1
60
0
100
AcDbLine
10
57.427
20
-0.767945
30
0
11
57.427
21
-13.5
31
0
39
0
210
0
220
0
230
1
0
LINE
5
228
100
AcDbEntity
8
SK2
62
256
6
ByLayer
370
13
48
1
60
0
100
AcDbLine
10
49.927
20
-11.5
30
0
11
75.291027
21
-11.5
31
0
39
0
210
0
220
0
230
1
0
SOLID
5
229
100
AcDbEntity
8
SK2
62
256
6
ByLayer
370
18
48
1
60
0
100
AcDbTrace
10
59
20
-11.5
30
0
11
62.499998
21
-11.039216
31
0
12
62.500002
22
-11.960784
32
0
13
62.500002
23
-11.960784
33
0
39
0
210
0
220
0
230
1
0
SOLID
5
22A
100
AcDbEntity
8
SK2
62
256
6
ByLayer
370
18
48
1
60
0
100
AcDbTrace
10
57.427
20
-11.5
30
0
11
53.927002
21
-11.960784
31
0
12
53.926998
22
-11.039216
32
0
13
53.926998
23
-11.039216
33
0
39
0
210
0
220
0
230
1
0
ENDBLK
5
22C
100
AcDbEntity
8
0
100
AcDbBlockEnd
0
ENDSEC
0
SECTION
2
ENTITIES
0
ARC
5
FC
100
AcDbEntity
8
81
62
256
6
ByLayer
370
18
48
1
60
0
100
AcDbCircle
39
0
10
57.300069
20
-0.953375
30
0
40
0.194611107694485
210
0
220
0
230
1
100
AcDbArc
50
49.5853
51
67.593872
0
ARC
5
FD
100
AcDbEntity
8
81
62
256
6
ByLayer
370
18
48
1
60
0
100
AcDbCircle
39
0
10
57.300069
20
0.953375
30
0
40
0.194611107694485
210
0
220
0
230
1
100
AcDbArc
50
305.787138
51
310.4147
0
ARC
5
FE
100
AcDbEntity
8
81
62
256
6
ByLayer
370
18
48
1
60
0
100
AcDbCircle
39
0
10
58
20
0
30
0
40
0.9888
210
0
220
0
230
1
100
AcDbArc
50
1.740126
51
125.4147
0
ARC
5
FF
100
AcDbEntity
8
81
62
256
6
ByLayer
370
18
48
1
60
0
100
AcDbCircle
39
0
10
58
20
0
30
0
40
0.9888
210
0
220
0
230
1
100
AcDbArc
50
345.295139
51
358.20894
0
ARC
5
100
100
AcDbEntity
8
81
62
256
6
ByLayer
370
18
48
1
60
0
100
AcDbCircle
39
0
10
58
20
0
30
0
40
0.9888
210
0
220
0
230
1
100
AcDbArc
50
234.5853
51
293.733979
0
ARC
5
101
100
AcDbEntity
8
1
62
256
6
ByLayer
370
18
48
1
60
0
100
AcDbCircle
39
0
10
53.99862
20
1.819
30
0
40
1
210
0
220
0
230
1
100
AcDbArc
50
265.014139
51
270
0
ARC
5
102
100
AcDbEntity
8
1
62
256
6
ByLayer
370
18
48
1
60
0
100
AcDbCircle
39
0
10
53.99862
20
-1.819
30
0
40
1
210
0
220
0
230
1
100
AcDbArc
50
90
51
94.985861
0
ARC
5
103
100
AcDbEntity
8
SK2
62
256
6
ByLayer
370
13
48
1
60
0
100
AcDbCircle
39
0
10
63.413537
20
0
30
0
40
48.4017388690198
210
0
220
0
230
1
100
AcDbArc
50
175.024298
51
188.808109
0
ARC
5
104
100
AcDbEntity
8
SK2
62
256
6
ByLayer
370
13
48
1
60
0
100
AcDbCircle
39
0
10
63.413537
20
0
30
0
40
48.4017388690198
210
0
220
0
230
1
100
AcDbArc
50
160.83747
51
175.024298
0
ELLIPSE
5
105
100
AcDbEntity
8
1
62
256
6
ByLayer
370
18
48
1
60
0
100
AcDbEllipse
10
58.971491
20
0.293542
30
0
11
0.0501422446743387
21
0.128141413549428
31
0
210
0
220
0
230
1
40
0.094106
41
2.2657202833687
42
2.69638352837431
0
ELLIPSE
5
106
100
AcDbEntity
8
1
62
256
6
ByLayer
370
18
48
1
60
0
100
AcDbEllipse
10
57.652233
20
1.917552
30
0
11
-5.98697816898234
21
2.22848155140286
31
0
210
0
220
0
230
1
40
0.196761
41
1.58007881416881
42
1.60207106337335
0
ELLIPSE
5
107
100
AcDbEntity
8
1
62
256
6
ByLayer
370
18
48
1
60
0
100
AcDbEllipse
10
57.630925
20
1.860308
30
0
11
-5.93755167265507
21
2.21008395045845
31
0
210
0
220
0
230
1
40
0.196761
41
1.57864544046778
42
1.6012621333621
0
ELLIPSE
5
108
100
AcDbEntity
8
1
62
256
6
ByLayer
370
18
48
1
60
0
100
AcDbEllipse
10
57.630925
20
-6.790196
30
0
11
-2.28393257537107
21
5.90953830054566
31
0
210
0
220
0
230
1
40
0.930349
41
-0.351083266476631
42
-0.328466573588802
0
ELLIPSE
5
109
100
AcDbEntity
8
1
62
256
6
ByLayer
370
18
48
1
60
0
100
AcDbEllipse
10
57.652233
20
-6.781961
30
0
11
-2.30294492104176
21
5.95873160254403
31
0
210
0
220
0
230
1
40
0.930349
41
-0.351892196503225
42
-0.3298999473246
0
ELLIPSE
5
10A
100
AcDbEntity
8
1
62
256
6
ByLayer
370
18
48
1
60
0
100
AcDbEllipse
10
58.990704
20
0
30
0
11
2.55830399580332
21
-0.482434012671769
31
0
210
0
220
0
230
1
40
0.258699
41
-2.58217601500153
42
-2.28109911635508
0
ELLIPSE
5
10B
100
AcDbEntity
8
1
62
256
6
ByLayer
370
18
48
1
60
0
100
AcDbEllipse
10
59.001349
20
-0.136725
30
0
11
0.06664651880541
21
-0.0830932105186202
31
0
210
0
220
0
230
1
40
0.926464
41
2.47594594104816
42
2.55752268177338
0
ELLIPSE
5
10C
100
AcDbEntity
8
1
62
256
6
ByLayer
370
18
48
1
60
0
100
AcDbEllipse
10
59.001349
20
0.136725
30
0
11
0.0666465164019721
21
0.0830932137815045
31
0
210
0
220
0
230
1
40
0.926464
41
-2.55752271808786
42
-2.47594597814132
0
ELLIPSE
5
10D
100
AcDbEntity
8
1
62
256
6
ByLayer
370
18
48
1
60
0
100
AcDbEllipse
10
58.990704
20
0
30
0
11
2.55841664367211
21
-0.6745042858055
31
0
210
0
220
0
230
1
40
0.181576
41
2.3776792662578
42
2.53847331366767
0
ELLIPSE
5
10E
100
AcDbEntity
8
1
62
256
6
ByLayer
370
18
48
1
60
0
100
AcDbEllipse
10
58.990704
20
0
30
0
11
2.55841664356544
21
0.67450428576474
31
0
210
0
220
0
230
1
40
0.181576
41
-2.67875616489443
42
-2.37767926624116
0
POINT
5
70
100
AcDbEntity
8
81
62
256
6
ByLayer
370
18
48
1
60
0
100
AcDbPoint
10
59
20
0
30
0
39
0
210
0
220
0
230
1
50
360
0
POINT
5
72
100
AcDbEntity
8
80
62
256
6
ByLayer
370
18
48
1
60
0
100
AcDbPoint
10
0
20
0
30
0
39
0
210
0
220
0
230
1
50
360
0
POINT
5
74
100
AcDbEntity
8
1
62
256
6
ByLayer
370
18
48
1
60
1
100
AcDbPoint
10
59
20
0
30
0
39
0
210
0
220
0
230
1
50
360
0
POINT
5
76
100
AcDbEntity
8
1
62
256
6
ByLayer
370
18
48
1
60
1
100
AcDbPoint
10
54
20
0.819555
30
0
39
0
210
0
220
0
230
1
50
360
0
POINT
5
77
100
AcDbEntity
8
1
62
256
6
ByLayer
370
18
48
1
60
1
100
AcDbPoint
10
59
20
0
30
0
39
0
210
0
220
0
230
1
50
360
0
POINT
5
78
100
AcDbEntity
8
1
62
256
6
ByLayer
370
18
48
1
60
1
100
AcDbPoint
10
28.955082
20
3
30
0
39
0
210
0
220
0
230
1
50
360
0
POINT
5
79
100
AcDbEntity
8
1
62
256
6
ByLayer
370
18
48
1
60
1
100
AcDbPoint
10
59
20
0
30
0
39
0
210
0
220
0
230
1
50
360
0
POINT
5
7A
100
AcDbEntity
8
1
62
256
6
ByLayer
370
18
48
1
60
1
100
AcDbPoint
10
-36
20
0
30
0
39
0
210
0
220
0
230
1
50
360
0
POINT
5
7B
100
AcDbEntity
8
1
62
256
6
ByLayer
370
18
48
1
60
1
100
AcDbPoint
10
-36
20
0
30
0
39
0
210
0
220
0
230
1
50
360
0
POINT
5
7C
100
AcDbEntity
8
1
62
256
6
ByLayer
370
18
48
1
60
1
100
AcDbPoint
10
0.4
20
-3
30
0
39
0
210
0
220
0
230
1
50
360
0
POINT
5
7D
100
AcDbEntity
8
1
62
256
6
ByLayer
370
18
48
1
60
1
100
AcDbPoint
10
59
20
0
30
0
39
0
210
0
220
0
230
1
50
360
0
POINT
5
7E
100
AcDbEntity
8
1
62
256
6
ByLayer
370
18
48
1
60
1
100
AcDbPoint
10
57.427
20
0.819555
30
0
39
0
210
0
220
0
230
1
50
360
0
SPLINE
5
10F
100
AcDbEntity
8
1
62
256
6
ByLayer
370
18
48
1
60
0
100
AcDbSpline
70
4
71
3
72
8
73
4
40
0
40
0
40
0
40
0
40
1
40
1
40
1
40
1
41
1
10
58.9301209111292
20
0.215113666956682
30
0
41
1
10
58.9299769332852
20
0.216501690228
30
0
41
1
10
58.9298103222601
20
0.217839450673807
30
0
41
1
10
58.9296203061107
20
0.219125233995271
30
0
0
SPLINE
5
110
100
AcDbEntity
8
1
62
256
6
ByLayer
370
18
48
1
60
0
100
AcDbSpline
70
4
71
3
72
8
73
4
40
0
40
0
40
0
40
0
40
1
40
1
40
1
40
1
41
1
10
58.9296203061107
20
0.219125233995669
30
0
41
1
10
58.9275154787659
20
0.225342716048573
30
0
41
1
10
58.9254051680921
20
0.231558519656943
30
0
41
1
10
58.9232893100479
20
0.237772625218611
30
0
0
SPLINE
5
111
100
AcDbEntity
8
1
62
256
6
ByLayer
370
18
48
1
60
0
100
AcDbSpline
70
4
71
3
72
8
73
4
40
0
40
0
40
0
40
0
40
1
40
1
40
1
40
1
41
1
10
58.9554723074063
20
0.288467009323057
30
0
41
1
10
58.9557590073646
20
0.289189711027149
30
0
41
1
10
58.9560456673623
20
0.289912413881808
30
0
41
1
10
58.9563322874317
20
0.290635117579598
30
0
0
SPLINE
5
112
100
AcDbEntity
8
1
62
256
6
ByLayer
370
18
48
1
60
0
100
AcDbSpline
70
4
71
3
72
8
73
4
40
0
40
0
40
0
40
0
40
1
40
1
40
1
40
1
41
1
10
57.4270000000001
20
-0.792222813939247
30
0
41
1
10
57.3974377807351
20
-0.803238403596595
30
0
41
1
10
57.367912235763
20
-0.814346331075342
30
0
41
1
10
57.33842331173
20
-0.82554646204278
30
0
0
SPLINE
5
113
100
AcDbEntity
8
1
62
256
6
ByLayer
370
18
48
1
60
0
100
AcDbSpline
70
4
71
3
72
12
73
8
40
0
40
0
40
0
40
0
40
0.499999999999881
40
0.499999999999881
40
0.74999999999994
40
0.74999999999994
40
1
40
1
40
1
40
1
41
1
10
57.33842331173
20
-0.825546462042809
30
0
41
1
10
57.3231423860586
20
-0.819271056341393
30
0
41
1
10
57.3064768968126
20
-0.814422840371549
30
0
41
1
10
57.2789250401714
20
-0.809782756832192
30
0
41
1
10
57.2692449862497
20
-0.808679173401856
30
0
41
1
10
57.2490820901537
20
-0.807626497724272
30
0
41
1
10
57.2386876657264
20
-0.807674322865552
30
0
41
1
10
57.2279045455111
20
-0.808435220132111
30
0
0
SPLINE
5
114
100
AcDbEntity
8
1
62
256
6
ByLayer
370
18
48
1
60
0
100
AcDbSpline
70
4
71
3
72
8
73
4
40
0
40
0
40
0
40
0
40
1
40
1
40
1
40
1
41
1
10
58.972512454155
20
0.0567089491536024
30
0
41
1
10
58.9745239518398
20
0.0544759986944428
30
0
41
1
10
58.9773289934345
20
0.0521231979437573
30
0
41
1
10
58.9807268816029
20
0.0499557497126659
30
0
0
SPLINE
5
115
100
AcDbEntity
8
1
62
256
6
ByLayer
370
18
48
1
60
0
100
AcDbSpline
70
4
71
3
72
8
73
4
40
0
40
0
40
0
40
0
40
1
40
1
40
1
40
1
41
1
10
58.9301209111283
20
0.215113666955744
30
0
41
1
10
58.9291861518044
20
0.218087841931265
30
0
41
1
10
58.9282506122265
20
0.221062998489742
30
0
41
1
10
58.9273143371928
20
0.22403903618482
30
0
0
SPLINE
5
116
100
AcDbEntity
8
1
62
256
6
ByLayer
370
18
48
1
60
0
100
AcDbSpline
70
4
71
3
72
10
73
6
40
0
40
0
40
0
40
0
40
0.471916190103451
40
0.471916190103451
40
1
40
1
40
1
40
1
41
1
10
58.9142093680684
20
0.212036299904241
30
0
41
1
10
58.915924531411
20
0.213555681101184
30
0
41
1
10
58.9178132653432
20
0.215241629433763
30
0
41
1
10
58.9221548741598
20
0.21918779661948
30
0
41
1
10
58.9246709211188
20
0.221513219214955
30
0
41
1
10
58.9273143371909
20
0.224039036187349
30
0
0
SPLINE
5
117
100
AcDbEntity
8
1
62
256
6
ByLayer
370
18
48
1
60
0
100
AcDbSpline
70
4
71
3
72
8
73
4
40
0
40
0
40
0
40
0
40
1
40
1
40
1
40
1
41
1
10
58.9273143371926
20
0.224039036185161
30
0
41
1
10
58.9260247994699
20
0.228516145079254
30
0
41
1
10
58.9246735906905
20
0.233119912671754
30
0
41
1
10
58.9232893100479
20
0.237772625218611
30
0
0
SPLINE
5
118
100
AcDbEntity
8
1
62
256
6
ByLayer
370
18
48
1
60
0
100
AcDbSpline
70
4
71
3
72
8
73
4
40
0
40
0
40
0
40
0
40
1
40
1
40
1
40
1
41
1
10
58.9356044581726
20
0.232445076250428
30
0
41
1
10
58.9314806453983
20
0.234178412077995
30
0
41
1
10
58.9273761681128
20
0.235955557965582
30
0
41
1
10
58.9232893100479
20
0.237772625218582
30
0
0
SPLINE
5
119
100
AcDbEntity
8
1
62
256
6
ByLayer
370
18
48
1
60
0
100
AcDbSpline
70
4
71
3
72
12
73
8
40
0
40
0
40
0
40
0
40
0.500000000000105
40
0.500000000000105
40
0.750000000000053
40
0.750000000000053
40
1
40
1
40
1
40
1
41
1
10
58.9554723074063
20
0.288467009323028
30
0
41
1
10
58.9515403950784
20
0.278555603137903
30
0
41
1
10
58.9479107400006
20
0.268880935570053
30
0
41
1
10
58.9428831494144
20
0.254695458868127
30
0
41
1
10
58.9412717059575
20
0.250001371580822
30
0
41
1
10
58.9382816177288
20
0.240989352938925
30
0
41
1
10
58.9368913412928
20
0.236639942366594
30
0
41
1
10
58.9356044581726
20
0.232445076250428
30
0
0
SPLINE
5
11A
100
AcDbEntity
8
1
62
256
6
ByLayer
370
18
48
1
60
0
100
AcDbSpline
70
4
71
3
72
8
73
4
40
0
40
0
40
0
40
0
40
1
40
1
40
1
40
1
41
1
10
58.9960872781189
20
-0.0277059394853154
30
0
41
1
10
58.997801870627
20
-0.0295894648053547
30
0
41
1
10
58.9988439041915
20
-0.0314582519018245
30
0
41
1
10
58.9992180626159
20
-0.0333124182881193
30
0
0
SPLINE
5
11B
100
AcDbEntity
8
1
62
256
6
ByLayer
370
18
48
1
60
0
100
AcDbSpline
70
4
71
3
72
8
73
4
40
0
40
0
40
0
40
0
40
1
40
1
40
1
40
1
41
1
10
58.9672145679652
20
-0.0121036769965315
30
0
41
1
10
58.9694796296355
20
-0.0129212874727216
30
0
41
1
10
58.9716273953754
20
-0.0137384357574888
30
0
41
1
10
58.9736573033951
20
-0.0145551196371798
30
0
0
SPLINE
5
11C
100
AcDbEntity
8
1
62
256
6
ByLayer
370
18
48
1
60
0
100
AcDbSpline
70
4
71
3
72
8
73
4
40
0
40
0
40
0
40
0
40
1
40
1
40
1
40
1
41
1
10
58.9301209110691
20
-0.215113666758896
30
0
41
1
10
58.9299769332237
20
-0.216501690048346
30
0
41
1
10
58.9298103221965
20
-0.217839450511008
30
0
41
1
10
58.9296203060446
20
-0.219125233848047
30
0
0
SPLINE
5
11D
100
AcDbEntity
8
1
62
256
6
ByLayer
370
18
48
1
60
0
100
AcDbSpline
70
4
71
3
72
8
73
4
40
0
40
0
40
0
40
0
40
1
40
1
40
1
40
1
41
1
10
57.4838305035394
20
0.769644969525757
30
0
41
1
10
57.464824903875
20
0.777035783169197
30
0
41
1
10
57.4458809790975
20
0.784560964702109
30
0
41
1
10
57.4270000000001
20
0.79222281528925
30
0
0
SPLINE
5
11E
100
AcDbEntity
8
1
62
256
6
ByLayer
370
18
48
1
60
0
100
AcDbSpline
70
4
71
3
72
8
73
4
40
0
40
0
40
0
40
0
40
1
40
1
40
1
40
1
41
1
10
57.4838305035394
20
0.769644969525757
30
0
41
1
10
57.4991446127771
20
0.774367900498987
30
0
41
1
10
57.5142506718952
20
0.778902723084485
30
0
41
1
10
57.5291502491763
20
0.783250855243892
30
0
0
SPLINE
5
11F
100
AcDbEntity
8
1
62
256
6
ByLayer
370
18
48
1
60
0
100
AcDbSpline
70
4
71
3
72
12
73
8
40
0
40
0
40
0
40
0
40
0.500000000000029
40
0.500000000000029
40
0.750000000000014
40
0.750000000000014
40
1
40
1
40
1
40
1
41
1
10
57.3384233134484
20
0.825546462748434
30
0
41
1
10
57.3252812286643
20
0.808493374545776
30
0
41
1
10
57.3119650674395
20
0.791518442735082
30
0
41
1
10
57.293728516201
20
0.765251022708441
30
0
41
1
10
57.2879488292432
20
0.756355201856877
30
0
41
1
10
57.2775653380379
20
0.73807092420904
30
0
41
1
10
57.2729661459132
20
0.728690492926972
30
0
41
1
10
57.2693472608299
20
0.718915962382852
30
0
0
SPLINE
5
120
100
AcDbEntity
8
1
62
256
6
ByLayer
370
18
48
1
60
0
100
AcDbSpline
70
4
71
3
72
20
73
16
40
0
40
0
40
0
40
0
40
0.249654328509875
40
0.249654328509875
40
0.374476250978228
40
0.374476250978228
40
0.499299098331737
40
0.499299098331737
40
0.624123171579447
40
0.624123171579447
40
0.748948865752127
40
0.748948865752127
40
0.874450147237539
40
0.874450147237539
40
1
40
1
40
1
40
1
41
1
10
57.2693472608301
20
0.71891596238325
30
0
41
1
10
57.2668584141191
20
0.715361917417027
30
0
41
1
10
57.2644116153637
20
0.711787444424232
30
0
41
1
10
57.260828612913
20
0.706384945432461
30
0
41
1
10
57.2596488486566
20
0.704577254466471
30
0
41
1
10
57.257323359346
20
0.700946155112064
30
0
41
1
10
57.2561775948123
20
0.699122690914578
30
0
41
1
10
57.2539257119758
20
0.695457799640423
30
0
41
1
10
57.2528195432917
20
0.693616296283523
30
0
41
1
10
57.2506533162467
20
0.689912865395343
30
0
41
1
10
57.2495931944238
20
0.688050833947301
30
0
41
1
10
57.2475209295418
20
0.684293573141275
30
0
41
1
10
57.2465089959187
20
0.682398075930479
30
0
41
1
10
57.2445475753496
20
0.678580164927268
30
0
41
1
10
57.243598013935
20
0.676657547244673
30
0
41
1
10
57.2426848169924
20
0.674720336980101
30
0
0
SPLINE
5
121
100
AcDbEntity
8
1
62
256
6
ByLayer
370
18
48
1
60
0
100
AcDbSpline
70
4
71
3
72
8
73
4
40
0
40
0
40
0
40
0
40
1
40
1
40
1
40
1
41
1
10
57.242684816992
20
0.674720336980215
30
0
41
1
10
57.2379730494099
20
0.670775410318157
30
0
41
1
10
57.233091753737
20
0.666965734460774
30
0
41
1
10
57.2279045455065
20
0.663400091221661
30
0
0
SPLINE
5
122
100
AcDbEntity
8
1
62
256
6
ByLayer
370
18
48
1
60
0
100
AcDbSpline
70
4
71
3
72
8
73
4
40
0
40
0
40
0
40
0
40
1
40
1
40
1
40
1
41
1
10
58.3739426542376
20
0.649026083249197
30
0
41
1
10
58.2668938372968
20
0.674596126201408
30
0
41
1
10
58.1598450203561
20
0.69644968254309
30
0
41
1
10
58.0527962034153
20
0.714215493489718
30
0
0
SPLINE
5
123
100
AcDbEntity
8
1
62
256
6
ByLayer
370
18
48
1
60
0
100
AcDbSpline
70
4
71
3
72
9
73
5
40
0
40
0
40
0
40
0
40
0.63292138441062
40
1
40
1
40
1
40
1
41
1
10
58.479030075014
20
0.546652752479304
30
1E-16
41
1
10
58.456061716676
20
0.553693066019889
30
0
41
1
10
58.4197722834166
20
0.564591387305086
30
0
41
1
10
58.3834828501572
20
0.575122171695256
30
0
41
1
10
58.3701617752359
20
0.578937280843149
30
0
0
SPLINE
5
124
100
AcDbEntity
8
1
62
256
6
ByLayer
370
18
48
1
60
0
100
AcDbSpline
70
4
71
3
72
10
73
6
40
0
40
0
40
0
40
0
40
0.5
40
0.5
40
1
40
1
40
1
40
1
41
1
10
57.427
20
0.645605349648747
30
0
41
1
10
57.4177370597213
20
0.639665030504631
30
0
41
1
10
57.4085458064744
20
0.633414922567255
30
0
41
1
10
57.3903135774143
20
0.620265296840302
30
0
41
1
10
57.3812540822863
20
0.61334914185278
30
0
41
1
10
57.3723761842977
20
0.606165024343824
30
0
0
SPLINE
5
125
100
AcDbEntity
8
1
62
256
6
ByLayer
370
18
48
1
60
0
100
AcDbSpline
70
4
71
3
72
8
73
4
40
0
40
0
40
0
40
0
40
1
40
1
40
1
40
1
41
1
10
57.2093966517365
20
0.6494659969606
30
0
41
1
10
57.2635627207568
20
0.634605022460562
30
0
41
1
10
57.3178979404335
20
0.620214099810795
30
0
41
1
10
57.3723761842977
20
0.606165024343824
30
0
0
SPLINE
5
126
100
AcDbEntity
8
1
62
256
6
ByLayer
370
18
48
1
60
0
100
AcDbSpline
70
4
71
3
72
23
73
19
40
0
40
0
40
0
40
0
40
0.249999999999947
40
0.249999999999947
40
0.374999999999921
40
0.374999999999921
40
0.437499999999908
40
0.437499999999908
40
0.499999999999895
40
0.624999999999911
40
0.624999999999911
40
0.749999999999926
40
0.749999999999926
40
0.812499999999934
40
0.812499999999934
40
0.874999999999942
40
0.874999999999942
40
1
40
1
40
1
40
1
41
1
10
57.6366595286433
20
-0.695275788048122
30
0
41
1
10
57.6953748557228
20
-0.735426754285271
30
-1E-16
41
1
10
57.7545308631136
20
-0.770693635118192
30
0
41
1
10
57.8450001833487
20
-0.815609567779859
30
0
41
1
10
57.8754476810363
20
-0.829238229089128
30
1E-16
41
1
10
57.9217356917681
20
-0.847430240384085
30
0
41
1
10
57.9371942001686
20
-0.85308867027166
30
0
41
1
10
57.9680099076162
20
-0.863529516425331
30
0
41
1
10
58.0141684436114
20
-0.877920676464612
30
0
41
1
10
58.0602549683465
20
-0.888355076044661
30
0
41
1
10
58.121859666179
20
-0.898635726429063
30
0
41
1
10
58.1527390127631
20
-0.901954021505588
30
0
41
1
10
58.199353463385
20
-0.903940443014449
30
0
41
1
10
58.2149325612113
20
-0.904098673498765
30
0
41
1
10
58.2458934614794
20
-0.903387632618546
30
0
41
1
10
58.261315610525
20
-0.902520410477081
30
0
41
1
10
58.3074452820651
20
-0.89834543749086
30
0
41
1
10
58.3380178111034
20
-0.893479874438611
30
0
41
1
10
58.3685115286879
20
-0.886388961498994
30
0
0
SPLINE
5
127
100
AcDbEntity
8
1
62
256
6
ByLayer
370
18
48
1
60
0
100
AcDbSpline
70
4
71
1
72
4
73
2
40
0
40
0
40
1
40
1
41
1
10
57.4288769396865
20
-0.546746031086485
30
-1E-16
41
1
10
57.4289510525432
20
-0.546473390779425
30
-1E-16
0
SPLINE
5
128
100
AcDbEntity
8
1
62
256
6
ByLayer
370
18
48
1
60
0
100
AcDbSpline
70
4
71
3
72
8
73
4
40
0
40
0
40
0
40
0
40
1
40
1
40
1
40
1
41
1
10
58.8684178034967
20
-0.184040030631451
30
0
41
1
10
58.865626549852
20
-0.174627033446285
30
0
41
1
10
58.8628347410002
20
-0.165213139066594
30
0
41
1
10
58.8600423610236
20
-0.15579832176968
30
0
0
SPLINE
5
129
100
AcDbEntity
8
1
62
256
6
ByLayer
370
18
48
1
60
0
100
AcDbSpline
70
4
71
3
72
12
73
8
40
0
40
0
40
0
40
0
40
0.301503124912792
40
0.301503124912792
40
0.603008891188775
40
0.603008891188775
40
1
40
1
40
1
40
1
41
1
10
58.4770156784992
20
-0.0140491303371562
30
0
41
1
10
58.4777739703975
20
-0.0150591229726444
30
0
41
1
10
58.478528454501
20
-0.0160723416142901
30
0
41
1
10
58.4800288549106
20
-0.0181048828554253
30
0
41
1
10
58.4807748611536
20
-0.0191243269177903
30
0
41
1
10
58.4824921071007
20
-0.0214928775940564
30
1E-16
41
1
10
58.4834600805743
20
-0.0228444406642438
30
1E-16
41
1
10
58.4844186270803
20
-0.0242008938438119
30
-1E-16
0
SPLINE
5
12A
100
AcDbEntity
8
1
62
256
6
ByLayer
370
18
48
1
60
0
100
AcDbSpline
70
4
71
3
72
10
73
6
40
0
40
0
40
0
40
0
40
0.5
40
0.5
40
1
40
1
40
1
40
1
41
1
10
57.427
20
-0.545412410868948
30
-1E-16
41
1
10
57.4179126267965
20
-0.54118776678385
30
0
41
1
10
57.4088693372514
20
-0.537378808010772
30
0
41
1
10
57.3908763855937
20
-0.530643747053006
30
0
41
1
10
57.3819054735978
20
-0.527713114720655
30
0
41
1
10
57.3730766757483
20
-0.525289096600432
30
0
0
SPLINE
5
12B
100
AcDbEntity
8
1
62
256
6
ByLayer
370
18
48
1
60
0
100
AcDbSpline
70
4
71
3
72
8
73
4
40
0
40
0
40
0
40
0
40
1
40
1
40
1
40
1
41
1
10
57.2209634089199
20
-0.531751975611257
30
0
41
1
10
57.2714730921397
20
-0.529308596510305
30
0
41
1
10
57.3221872912525
20
-0.527126780202309
30
0
41
1
10
57.3730766757482
20
-0.525289096600432
30
0
0
SPLINE
5
12C
100
AcDbEntity
8
1
62
256
6
ByLayer
370
18
48
1
60
0
100
AcDbSpline
70
4
71
3
72
8
73
4
40
0
40
0
40
0
40
0
40
1
40
1
40
1
40
1
41
1
10
58.5044173899398
20
0.517124794964928
30
0
41
1
10
58.4977468119921
20
0.519845437321379
30
0
41
1
10
58.4907971032134
20
0.522829438863397
30
0
41
1
10
58.4835441666076
20
0.526099539188067
30
0
0
SPLINE
5
12D
100
AcDbEntity
8
1
62
256
6
ByLayer
370
18
48
1
60
0
100
AcDbSpline
70
4
71
3
72
8
73
4
40
0
40
0
40
0
40
0
40
1
40
1
40
1
40
1
41
1
10
58.48159179303
20
0.626799924374467
30
0
41
1
10
58.479878712547
20
0.625800018901003
30
0
41
1
10
58.4765024088589
20
0.626116261602562
30
0
41
1
10
58.4713790238353
20
0.627939072086207
30
0
0
SPLINE
5
12E
100
AcDbEntity
8
1
62
256
6
ByLayer
370
18
48
1
60
0
100
AcDbSpline
70
4
71
3
72
10
73
6
40
0
40
0
40
0
40
0
40
0.5
40
0.5
40
1
40
1
40
1
40
1
41
1
10
58.4713790240573
20
0.627939072005859
30
0
41
1
10
58.4505443667138
20
0.635353311117825
30
0
41
1
10
58.4313782719645
20
0.641311981240165
30
0
41
1
10
58.3981164460903
20
0.648929952707419
30
0
41
1
10
58.38406785968
20
0.650590521483224
30
0
41
1
10
58.3739426615797
20
0.649026081522067
30
0
0
SPLINE
5
12F
100
AcDbEntity
8
1
62
256
6
ByLayer
370
18
48
1
60
0
100
AcDbSpline
70
4
71
3
72
10
73
6
40
0
40
0
40
0
40
0
40
0.5
40
0.5
40
1
40
1
40
1
40
1
41
1
10
58.3739426546437
20
0.649026084908485
30
0
41
1
10
58.3887657386843
20
0.633465030385651
30
0
41
1
10
58.405246440376
20
0.616934077229246
30
0
41
1
10
58.4405552489224
20
0.582612945249025
30
0
41
1
10
58.4593643946539
20
0.564841314754915
30
0
41
1
10
58.479030075646
20
0.546652751894271
30
1E-16
0
SPLINE
5
130
100
AcDbEntity
8
1
62
256
6
ByLayer
370
18
48
1
60
0
100
AcDbSpline
70
4
71
3
72
18
73
14
40
0
40
0
40
0
40
0
40
0.24999999999987
40
0.24999999999987
40
0.499999999999741
40
0.499999999999741
40
0.624999999999806
40
0.624999999999806
40
0.749999999999871
40
0.749999999999871
40
0.874999999999935
40
0.874999999999935
40
1
40
1
40
1
40
1
41
1
10
58.4790300917542
20
0.5466527435388
30
1E-16
41
1
10
58.4828679906695
20
0.543103157521102
30
-1E-16
41
1
10
58.486567073268
20
0.539624835182877
30
0
41
1
10
58.4935493189221
20
0.532881731266713
30
0
41
1
10
58.4968430133471
20
0.529608355195222
30
0
41
1
10
58.5010829620042
20
0.525130756613663
30
0
41
1
10
58.5023829910539
20
0.52370651705121
30
0
41
1
10
58.5046342239145
20
0.52106832198686
30
0
41
1
10
58.5055886445373
20
0.519848568465818
30
0
41
1
10
58.5068140067455
20
0.517890669467675
30
0
41
1
10
58.507082599635
20
0.517148339173701
30
0
41
1
10
58.5065565950331
20
0.516487394955732
30
0
41
1
10
58.5057397138556
20
0.516585365292542
30
0
41
1
10
58.5044173818049
20
0.517124799264622
30
0
0
SPLINE
5
131
100
AcDbEntity
8
1
62
256
6
ByLayer
370
18
48
1
60
0
100
AcDbSpline
70
4
71
3
72
10
73
6
40
0
40
0
40
0
40
0
40
0.5
40
0.5
40
1
40
1
40
1
40
1
41
1
10
58.4815917930468
20
0.626799924361109
30
0
41
1
10
58.5437508053898
20
0.571615455955197
30
0
41
1
10
58.6084602595537
20
0.515828381707053
30
0
41
1
10
58.7414560834875
20
0.403409097194071
30
0
41
1
10
58.8097586853566
20
0.346773051688729
30
0
41
1
10
58.879341056157
20
0.28983462867825
30
0
0
SPLINE
5
132
100
AcDbEntity
8
1
62
256
6
ByLayer
370
18
48
1
60
0
100
AcDbSpline
70
4
71
3
72
10
73
6
40
0
40
0
40
0
40
0
40
0.5
40
0.5
40
1
40
1
40
1
40
1
41
1
10
58.4920223324444
20
-0.0348712830200384
30
0
41
1
10
58.550890753
20
-0.0702589838834058
30
1E-16
41
1
10
58.6121096511297
20
-0.0992438155467141
30
0
41
1
10
58.7379414713816
20
-0.147967914514226
30
0
41
1
10
58.8025665694968
20
-0.167674013542097
30
0
41
1
10
58.8684178034966
20
-0.184040030631451
30
0
0
SPLINE
5
133
100
AcDbEntity
8
1
62
256
6
ByLayer
370
18
48
1
60
0
100
AcDbSpline
70
4
71
3
72
12
73
8
40
0
40
0
40
0
40
0
40
0.257753439681945
40
0.257753439681945
40
0.524039073491323
40
0.524039073491323
40
1
40
1
40
1
40
1
41
1
10
58.9563322874318
20
-0.290635117580877
30
0
41
1
10
58.9551890494653
20
-0.290057655704459
30
0
41
1
10
58.9540494099758
20
-0.289489615487241
30
0
41
1
10
58.9517399718186
20
-0.288354502948948
30
0
41
1
10
58.9505704206334
20
-0.287788083975812
30
0
41
1
10
58.9473218280924
20
-0.286239042287178
30
0
41
1
10
58.9452517678578
20
-0.285279892588562
30
0
41
1
10
58.943195427479
20
-0.284356455774912
30
0
0
SPLINE
5
134
100
AcDbEntity
8
1
62
256
6
ByLayer
370
18
48
1
60
0
100
AcDbSpline
70
4
71
1
72
4
73
2
40
0
40
0
40
1
40
1
41
1
10
57.4289510525432
20
-0.546473390779425
30
-1E-16
41
1
10
57.452997741289
20
-0.4859949620392
30
0
0
SPLINE
5
135
100
AcDbEntity
8
1
62
256
6
ByLayer
370
18
48
1
60
0
100
AcDbSpline
70
4
71
3
72
8
73
4
40
0
40
0
40
0
40
0
40
1
40
1
40
1
40
1
41
1
10
58.3685115286879
20
-0.886388961499023
30
0
41
1
10
58.3823689541609
20
-0.883166577918473
30
0
41
1
10
58.3960561152569
20
-0.879562938257891
30
0
41
1
10
58.4095659953017
20
-0.875596869408241
30
0
0
SPLINE
5
136
100
AcDbEntity
8
1
62
256
6
ByLayer
370
18
48
1
60
0
100
AcDbSpline
70
4
71
3
72
14
73
10
40
0
40
0
40
0
40
0
40
0.25
40
0.25
40
0.5
40
0.5
40
0.75
40
0.75
40
1
40
1
40
1
40
1
41
1
10
57.4288769396865
20
-0.546746031086485
30
-1E-16
41
1
10
57.4460712244018
20
-0.558668087943857
30
0
41
1
10
57.4631856538598
20
-0.570931229521619
30
0
41
1
10
57.4974791901068
20
-0.595738811416453
30
0
41
1
10
57.5146553556084
20
-0.608287745488042
30
0
41
1
10
57.5492046090648
20
-0.633426426734843
30
0
41
1
10
57.5666174911557
20
-0.646045670732747
30
0
41
1
10
57.6015794840548
20
-0.670972615924597
30
0
41
1
10
57.6190778022084
20
-0.683252985712556
30
0
41
1
10
57.6366595286435
20
-0.695275788048235
30
0
0
SPLINE
5
137
100
AcDbEntity
8
1
62
256
6
ByLayer
370
18
48
1
60
0
100
AcDbSpline
70
4
71
3
72
8
73
4
40
0
40
0
40
0
40
0
40
1
40
1
40
1
40
1
41
1
10
57.4288769396869
20
-0.546746031087167
30
-1E-16
41
1
10
57.428251582795
20
-0.546300505747638
30
-1E-16
41
1
10
57.4276259343583
20
-0.545855962272952
30
-1E-16
41
1
10
57.427
20
-0.54541241086892
30
-1E-16
0
SPLINE
5
138
100
AcDbEntity
8
1
62
256
6
ByLayer
370
18
48
1
60
0
100
AcDbSpline
70
4
71
3
72
18
73
14
40
0
40
0
40
0
40
0
40
0.25
40
0.25
40
0.5
40
0.5
40
0.625
40
0.625
40
0.75
40
0.75
40
0.875
40
0.875
40
1
40
1
40
1
40
1
41
1
10
58.4790300917542
20
-0.568946544996464
30
0
41
1
10
58.4828679907078
20
-0.571925619548495
30
0
41
1
10
58.4865670733419
20
-0.575117671109467
30
0
41
1
10
58.4935493190573
20
-0.582139915111412
30
0
41
1
10
58.4968430135067
20
-0.585971820952437
30
0
41
1
10
58.5010829621782
20
-0.59238589521172
30
0
41
1
10
58.502382991229
20
-0.594640840586379
30
0
41
1
10
58.5046342240764
20
-0.599510744783743
30
0
41
1
10
58.5055886446816
20
-0.602144050528608
30
0
41
1
10
58.5068140068213
20
-0.607725346105042
30
0
41
1
10
58.5070825996561
20
-0.610707208306593
30
0
41
1
10
58.5065565949017
20
-0.616741849617
30
0
41
1
10
58.5057397138689
20
-0.619799933877999
30
0
41
1
10
58.504417381805
20
-0.622611759710509
30
0
0
SPLINE
5
139
100
AcDbEntity
8
1
62
256
6
ByLayer
370
18
48
1
60
0
100
AcDbSpline
70
4
71
3
72
8
73
4
40
0
40
0
40
0
40
0
40
1
40
1
40
1
40
1
41
1
10
58.9672145678984
20
-0.0121036769724014
30
0
41
1
10
58.962828787807
20
-0.0118116641419874
30
0
41
1
10
58.9584821895539
20
-0.0115138179734799
30
0
41
1
10
58.9541596382314
20
-0.0112123917310782
30
0
0
SPLINE
5
13A
100
AcDbEntity
8
1
62
256
6
ByLayer
370
18
48
1
60
0
100
AcDbSpline
70
4
71
3
72
8
73
4
40
0
40
0
40
0
40
0
40
1
40
1
40
1
40
1
41
1
10
58.967214567962
20
-0.0121036770409262
30
0
41
1
10
58.9660626942238
20
-0.0108630552576585
30
0
41
1
10
58.9648673532455
20
-0.0097229483353658
30
0
41
1
10
58.9636284424708
20
-0.0086751910672547
30
0
0
SPLINE
5
13B
100
AcDbEntity
8
1
62
256
6
ByLayer
370
18
48
1
60
0
100
AcDbSpline
70
4
71
3
72
8
73
4
40
0
40
0
40
0
40
0
40
1
40
1
40
1
40
1
41
1
10
58.8571408979781
20
-0.146659695416702
30
0
41
1
10
58.858219492734
20
-0.149867611139825
30
0
41
1
10
58.8591869762374
20
-0.152914297550353
30
0
41
1
10
58.8600423610247
20
-0.155798321773375
30
0
0
SPLINE
5
13C
100
AcDbEntity
8
1
62
256
6
ByLayer
370
18
48
1
60
0
100
AcDbSpline
70
4
71
3
72
30
73
26
40
0
40
0
40
0
40
0
40
0.0624999999999923
40
0.0624999999999923
40
0.124999999999984
40
0.124999999999984
40
0.249999999999987
40
0.249999999999987
40
0.374999999999989
40
0.374999999999989
40
0.43749999999999
40
0.43749999999999
40
0.499999999999991
40
0.499999999999991
40
0.624999999999993
40
0.624999999999993
40
0.749999999999995
40
0.749999999999995
40
0.812499999999997
40
0.812499999999997
40
0.874999999999998
40
0.874999999999998
40
0.937499999999999
40
0.937499999999999
40
1
40
1
40
1
40
1
41
1
10
58.8571408979777
20
-0.146659695416645
30
0
41
1
10
58.8559437624737
20
-0.143099220284285
30
0
41
1
10
58.8549352872802
20
-0.139414762749198
30
0
41
1
10
58.8533290702065
20
-0.131792657336973
30
0
41
1
10
58.852737566078
20
-0.127865433295511
30
0
41
1
10
58.8516567603404
20
-0.116043548014858
30
0
41
1
10
58.8518266075038
20
-0.107992227363297
30
0
41
1
10
58.8541076928468
20
-0.0916238264093749
30
0
41
1
10
58.8561670074893
20
-0.0836588237291949
30
0
41
1
10
58.8606292036257
20
-0.0720474367963675
30
0
41
1
10
58.8623629831606
20
-0.0682091179027111
30
0
41
1
10
58.8662188198621
20
-0.0608436397961896
30
0
41
1
10
58.8683432521109
20
-0.0573007672968799
30
0
41
1
10
58.8753001405741
20
-0.0470843101589651
30
0
41
1
10
58.8807932068638
20
-0.0407546354394128
30
0
41
1
10
58.8929014901039
20
-0.0298036017923948
30
0
41
1
10
58.8995771784289
20
-0.0250871351125852
30
0
41
1
10
58.9104625687348
20
-0.0193619899480098
30
0
41
1
10
58.9141948009778
20
-0.017700985864991
30
0
41
1
10
58.9219033054147
20
-0.014885095874007
30
0
41
1
10
58.9259146053578
20
-0.0137226613281314
30
0
41
1
10
58.9340902580732
20
-0.0119911595720907
30
0
41
1
10
58.9382101636105
20
-0.0114285215649659
30
0
41
1
10
58.9464921585659
20
-0.0109024543732517
30
0
41
1
10
58.9504353657891
20
-0.0109526855148943
30
0
41
1
10
58.9541596382313
20
-0.0112123917310782
30
0
0
SPLINE
5
13D
100
AcDbEntity
8
1
62
256
6
ByLayer
370
18
48
1
60
0
100
AcDbSpline
70
4
71
3
72
12
73
8
40
0
40
0
40
0
40
0
40
0.5
40
0.5
40
0.75
40
0.75
40
1
40
1
40
1
40
1
41
1
10
58.4920223324565
20
-0.0348712830263764
30
0
41
1
10
58.4630400759734
20
-0.0982252172264282
30
0
41
1
10
58.4362252647427
20
-0.162805545306924
30
0
41
1
10
58.4013579569059
20
-0.261847339944296
30
-1E-16
41
1
10
58.3906623325726
20
-0.295165630153463
30
0
41
1
10
58.3716869290291
20
-0.3623335414037
30
0
41
1
10
58.3633923893544
20
-0.396212870394976
30
0
41
1
10
58.3566486006313
20
-0.430476093627874
30
0
0
SPLINE
5
13E
100
AcDbEntity
8
1
62
256
6
ByLayer
370
18
48
1
60
0
100
AcDbSpline
70
4
71
3
72
8
73
4
40
0
40
0
40
0
40
0
40
1
40
1
40
1
40
1
41
1
10
58.4844186270805
20
-0.0242008938438403
30
-1E-16
41
1
10
58.4869411352122
20
-0.0277706719496393
30
0
41
1
10
58.4894757228624
20
-0.0313274394285941
30
0
41
1
10
58.492022332448
20
-0.0348712830157467
30
0
0
SPLINE
5
13F
100
AcDbEntity
8
1
62
256
6
ByLayer
370
18
48
1
60
0
100
AcDbSpline
70
4
71
3
72
12
73
8
40
0
40
0
40
0
40
0
40
0.500000000000049
40
0.500000000000049
40
0.750000000000025
40
0.750000000000025
40
1
40
1
40
1
40
1
41
1
10
58.3566485912478
20
-0.43047609029523
30
0
41
1
10
58.3727075775864
20
-0.458716042686206
30
0
41
1
10
58.3915477675461
20
-0.484130812458716
30
0
41
1
10
58.4225373840931
20
-0.518576309077758
30
0
41
1
10
58.4333426307205
20
-0.52945762933075
30
0
41
1
10
58.4556577867017
20
-0.550035909489537
30
0
41
1
10
58.467180939268
20
-0.559748348130029
30
0
41
1
10
58.4790300756422
20
-0.568946540639018
30
0
0
SPLINE
5
140
100
AcDbEntity
8
1
62
256
6
ByLayer
370
18
48
1
60
0
100
AcDbSpline
70
4
71
3
72
10
73
6
40
0
40
0
40
0
40
0
40
0.365486049357914
40
0.576990699571942
40
1
40
1
40
1
40
1
41
1
10
58.3566485907097
20
-0.430476090184129
30
0
41
1
10
58.2433907271397
20
-0.388687742253978
30
0
41
1
10
58.0645911969032
20
-0.318346463849281
30
0
41
1
10
57.7547083333333
20
-0.188237984468145
30
0
41
1
10
57.5580833333334
20
-0.101507024720178
30
0
41
1
10
57.427
20
-0.0430570842583791
30
0
0
SPLINE
5
141
100
AcDbEntity
8
1
62
256
6
ByLayer
370
18
48
1
60
0
100
AcDbSpline
70
4
71
3
72
8
73
4
40
0
40
0
40
0
40
0
40
1
40
1
40
1
40
1
41
1
10
58.5044173899398
20
-0.622611758575289
30
0
41
1
10
58.4977468119829
20
-0.636799329360656
30
0
41
1
10
58.490797103194
20
-0.650741037298644
30
0
41
1
10
58.4835441665774
20
-0.664415656322774
30
0
0
SPLINE
5
142
100
AcDbEntity
8
1
62
256
6
ByLayer
370
18
48
1
60
0
100
AcDbSpline
70
4
71
3
72
8
73
4
40
0
40
0
40
0
40
0
40
1
40
1
40
1
40
1
41
1
10
57.4838305039086
20
-0.272638942183733
30
0
41
1
10
57.4648249041202
20
-0.271734026782639
30
0
41
1
10
57.4458809792196
20
-0.270735939710477
30
0
41
1
10
57.427
20
-0.269640432165062
30
0
0
SPLINE
5
143
100
AcDbEntity
8
1
62
256
6
ByLayer
370
18
48
1
60
0
100
AcDbSpline
70
4
71
3
72
8
73
4
40
0
40
0
40
0
40
0
40
1
40
1
40
1
40
1
41
1
10
57.4838305039086
20
-0.272638942183761
30
0
41
1
10
57.499145221997
20
-0.289097383110516
30
0
41
1
10
57.5142512630925
20
-0.305778987616151
30
1E-16
41
1
10
57.5291502495376
20
-0.32268202073385
30
0
0
SPLINE
5
144
100
AcDbEntity
8
1
62
256
6
ByLayer
370
18
48
1
60
0
100
AcDbSpline
70
4
71
3
72
10
73
6
40
0
40
0
40
0
40
0
40
0.5
40
0.5
40
1
40
1
40
1
40
1
41
1
10
58.9431954274814
20
-0.284356468965967
30
0
41
1
10
58.9333060871507
20
-0.272650010807638
30
0
41
1
10
58.9235360957825
20
-0.261286029558704
30
0
41
1
10
58.9042631670235
20
-0.2393244456442
30
0
41
1
10
58.8947675370407
20
-0.228746257031531
30
0
41
1
10
58.8853526885168
20
-0.218396599343833
30
0
0
SPLINE
5
145
100
AcDbEntity
8
1
62
256
6
ByLayer
370
18
48
1
60
0
100
AcDbSpline
70
4
71
3
72
26
73
22
40
0
40
0
40
0
40
0
40
0.125
40
0.125
40
0.1875
40
0.1875
40
0.25
40
0.25
40
0.375000000000001
40
0.375000000000001
40
0.437500000000001
40
0.437500000000001
40
0.5
40
0.5
40
0.625
40
0.625
40
0.75
40
0.75
40
0.875
40
0.875
40
1
40
1
40
1
40
1
41
1
10
58.8853526885172
20
-0.218396599342441
30
0
41
1
10
58.8790721704057
20
-0.246058721738592
30
0
41
1
10
58.8711540645234
20
-0.273197135240963
30
0
41
1
10
58.8568413589003
20
-0.313125855243726
30
0
41
1
10
58.8516558280235
20
-0.326302828115473
30
0
41
1
10
58.8404425304022
20
-0.35238742254549
30
0
41
1
10
58.8343902188995
20
-0.365339515684582
30
0
41
1
10
58.8153018205735
20
-0.403187544714655
30
0
41
1
10
58.8012556886498
20
-0.427223841774094
30
0
41
1
10
58.778184561639
20
-0.461465571430352
30
0
41
1
10
58.7701582190532
20
-0.472575268458911
30
0
41
1
10
58.7534077346594
20
-0.494162816084071
30
0
41
1
10
58.7446452561592
20
-0.504682743509306
30
0
41
1
10
58.7175619829326
20
-0.53495185023462
30
0
41
1
10
58.6986107045828
20
-0.553277243982222
30
0
41
1
10
58.6589730250404
20
-0.586336750232334
30
0
41
1
10
58.6383032677145
20
-0.601105311481007
30
0
41
1
10
58.5950751914054
20
-0.626733571797274
30
0
41
1
10
58.5731470756223
20
-0.637218604399976
30
0
41
1
10
58.5287562434502
20
-0.65398032864735
30
0
41
1
10
58.5062901509106
20
-0.660276055163905
30
0
41
1
10
58.4835441665662
20
-0.664415656312855
30
0
0
SPLINE
5
146
100
AcDbEntity
8
1
62
256
6
ByLayer
370
18
48
1
60
0
100
AcDbSpline
70
4
71
3
72
34
73
30
40
0
40
0
40
0
40
0
40
0.0625000000000106
40
0.0625000000000106
40
0.125000000000021
40
0.125000000000021
40
0.250000000000042
40
0.250000000000042
40
0.265625000000041
40
0.265625000000041
40
0.281250000000039
40
0.312500000000036
40
0.37500000000003
40
0.37500000000003
40
0.500000000000051
40
0.500000000000051
40
0.53125000000004
40
0.53125000000004
40
0.56250000000003
40
0.56250000000003
40
0.625000000000008
40
0.625000000000008
40
0.749999999999996
40
0.749999999999996
40
0.81249999999999
40
0.81249999999999
40
0.874999999999984
40
0.874999999999984
40
1
40
1
40
1
40
1
41
1
10
58.4835441665658
20
-0.664415656318283
30
0
41
1
10
58.463286094992
20
-0.673848886316961
30
0
41
1
10
58.442656139357
20
-0.681871545345388
30
0
41
1
10
58.4006226061998
20
-0.695209037058021
30
0
41
1
10
58.3790993677236
20
-0.700532891142615
30
0
41
1
10
58.3147376045918
20
-0.712178569539645
30
0
41
1
10
58.2717578812224
20
-0.714295890195132
30
0
41
1
10
58.222999981031
20
-0.711364260104517
30
0
41
1
10
58.2175820905471
20
-0.710901097398363
30
0
41
1
10
58.2067417185815
20
-0.710122247712121
30
0
41
1
10
58.1905249730507
20
-0.708735506785331
30
0
41
1
10
58.1529670173489
20
-0.70403805916186
30
0
41
1
10
58.1211819684252
20
-0.69768335090788
30
0
41
1
10
58.058005907996
20
-0.682141028257433
30
0
41
1
10
58.0164166677361
20
-0.667967684705843
30
0
41
1
10
57.9646877069558
20
-0.646103923889882
30
0
41
1
10
57.9543590198335
20
-0.641499081390464
30
-1E-16
41
1
10
57.9339125478932
20
-0.631918757563483
30
0
41
1
10
57.9237688618927
20
-0.62693832808344
30
0
41
1
10
57.8935448544737
20
-0.611479217219767
30
0
41
1
10
57.8736692896478
20
-0.600487528678002
30
0
41
1
10
57.8147240849369
20
-0.565651222404966
30
0
41
1
10
57.7763341386544
20
-0.539951176737418
30
0
41
1
10
57.7198625550496
20
-0.497805689155058
30
-1E-16
41
1
10
57.7012485121479
20
-0.483155617030889
30
0
41
1
10
57.6648805040352
20
-0.453183769391075
30
0
41
1
10
57.6470543592577
20
-0.437807876925604
30
0
41
1
10
57.5946623058161
20
-0.390496504544103
30
0
41
1
10
57.5611591544758
20
-0.357403103588524
30
-1E-16
41
1
10
57.5291502495383
20
-0.322682020734675
30
0
0
SPLINE
5
147
100
AcDbEntity
8
1
62
256
6
ByLayer
370
18
48
1
60
0
100
AcDbSpline
70
4
71
1
72
4
73
2
40
0
40
0
40
1
40
1
41
1
10
57.452997741289
20
-0.4859949620392
30
0
41
1
10
57.5291502495397
20
-0.322682020731605
30
0
0
SPLINE
5
148
100
AcDbEntity
8
1
62
256
6
ByLayer
370
18
48
1
60
0
100
AcDbSpline
70
4
71
3
72
30
73
26
40
0
40
0
40
0
40
0
40
0.0474292774783068
40
0.0819049717168482
40
0.102709668743592
40
0.144282464565104
40
0.185715562208176
40
0.227178263325733
40
0.303252564979137
40
0.330964585585939
40
0.3482719278886
40
0.431669653421032
40
0.468874931962956
40
0.471040952816279
40
0.472382219426953
40
0.475078494693816
40
0.477776893091321
40
0.51952014898767
40
0.591603304499581
40
0.670206465405214
40
0.775278390581278
40
0.827937337765427
40
0.906872673043238
40
0.95900857881976
40
1
40
1
40
1
40
1
41
1
10
57.452997741289
20
-0.4859949620392
30
0
41
1
10
57.4789712717855
20
-0.504114102982385
30
0
41
1
10
57.5229857747106
20
-0.53690255325165
30
0
41
1
10
57.5778936217095
20
-0.578679568269791
30
0
41
1
10
57.6295410597398
20
-0.61748924527555
30
0
41
1
10
57.6853911167547
20
-0.65783117383225
30
0
41
1
10
57.7539187704446
20
-0.702858433151306
30
0
41
1
10
57.842807697494
20
-0.754322008591174
30
0
41
1
10
57.9255204991188
20
-0.792692671406712
30
0
41
1
10
57.9950063554342
20
-0.817653415635164
30
0
41
1
10
58.0688694501679
20
-0.840403277089962
30
0
41
1
10
58.1485441687569
20
-0.856009106450131
30
0
41
1
10
58.2190716253116
20
-0.85944377289141
30
0
41
1
10
58.242380020023
20
-0.859438860072515
30
0
41
1
10
58.2459340389844
20
-0.859319049848324
30
0
41
1
10
58.2497966216219
20
-0.859198664156509
30
0
41
1
10
58.276716625004
20
-0.858162364560059
30
0
41
1
10
58.3431688359144
20
-0.852101261040616
30
0
41
1
10
58.4514273437919
20
-0.826548680450713
30
0
41
1
10
58.5891891591786
20
-0.764435581034604
30
0
41
1
10
58.7034391256404
20
-0.677069058070089
30
0
41
1
10
58.8016885368675
20
-0.567832446095849
30
0
41
1
10
58.8662451035573
20
-0.470441882143064
30
0
41
1
10
58.9142208163068
20
-0.369138435087848
30
0
41
1
10
58.9350810832045
20
-0.310721022289925
30
0
41
1
10
58.9431954276502
20
-0.284356455947204
30
0
0
SPLINE
5
149
100
AcDbEntity
8
1
62
256
6
ByLayer
370
18
48
1
60
0
100
AcDbSpline
70
4
71
3
72
8
73
4
40
0
40
0
40
0
40
0
40
1
40
1
40
1
40
1
41
1
10
57.2279045455105
20
0.663400091224418
30
0
41
1
10
57.2214428192415
20
0.658958355022747
30
0
41
1
10
57.2152602280254
20
0.654323491760948
30
0
41
1
10
57.2093966517365
20
0.6494659969606
30
0
0
SPLINE
5
14A
100
AcDbEntity
8
1
62
256
6
ByLayer
370
18
48
1
60
0
100
AcDbSpline
70
4
71
3
72
28
73
24
40
0
40
0
40
0
40
0
40
0.250000000000283
40
0.250000000000283
40
0.375000000000278
40
0.375000000000278
40
0.500000000000273
40
0.500000000000273
40
0.562500000000159
40
0.562500000000159
40
0.593750000000032
40
0.593750000000032
40
0.624999999999905
40
0.624999999999905
40
0.656249999999777
40
0.656249999999777
40
0.68749999999965
40
0.68749999999965
40
0.74999999999972
40
0.74999999999972
40
0.87499999999986
40
0.87499999999986
40
1
40
1
40
1
40
1
41
1
10
56.7561420591895
20
-0.810954596259961
30
0
41
1
10
56.7483281776717
20
-0.810239833260937
30
0
41
1
10
56.7406392128871
20
-0.809451482446406
30
0
41
1
10
56.7295899650227
20
-0.808082332719238
30
0
41
1
10
56.725993869572
20
-0.807595453827304
30
0
41
1
10
56.7191306520447
20
-0.806521732957862
30
0
41
1
10
56.715815761502
20
-0.805935788174764
30
0
41
1
10
56.7116543017421
20
-0.804912998454824
30
0
41
1
10
56.7103762648894
20
-0.80454166041045
30
0
41
1
10
56.709050811235
20
-0.803925438117545
30
0
41
1
10
56.7087073345895
20
-0.803707741989228
30
0
41
1
10
56.7084136204776
20
-0.803254700005738
30
0
41
1
10
56.7084787557829
20
-0.803017601673787
30
0
41
1
10
56.7091874689227
20
-0.802577024563561
30
0
41
1
10
56.7098394020534
20
-0.802371990063847
30
0
41
1
10
56.711500674507
20
-0.8020318296102
30
0
41
1
10
56.7124757912116
20
-0.801896727249954
30
0
41
1
10
56.7155961683823
20
-0.801558341784443
30
0
41
1
10
56.7178601120948
20
-0.801424203429889
30
0
41
1
10
56.7247505631838
20
-0.80113113037487
30
0
41
1
10
56.7294113809842
20
-0.801087075099531
30
0
41
1
10
56.7386799933135
20
-0.801091325086617
30
0
41
1
10
56.7433167710952
20
-0.801149146655263
30
0
41
1
10
56.7479548748303
20
-0.801236404180258
30
0
0
SPLINE
5
14B
100
AcDbEntity
8
1
62
256
6
ByLayer
370
18
48
1
60
0
100
AcDbSpline
70
4
71
3
72
12
73
8
40
0
40
0
40
0
40
0
40
0.499999999999915
40
0.499999999999915
40
0.749999999999958
40
0.749999999999958
40
1
40
1
40
1
40
1
41
1
10
56.7479548748324
20
-0.801236404173039
30
0
41
1
10
56.7888799749636
20
-0.802006335840503
30
0
41
1
10
56.8297940523885
20
-0.802510351559363
30
0
41
1
10
56.891133001852
20
-0.802590525442781
30
0
41
1
10
56.9115738563789
20
-0.802502592160181
30
0
41
1
10
56.9524389113055
20
-0.801966854812378
30
0
41
1
10
56.9728632856118
20
-0.801525258308459
30
0
41
1
10
56.9932737861753
20
-0.800754830200191
30
0
0
SPLINE
5
14C
100
AcDbEntity
8
1
62
256
6
ByLayer
370
18
48
1
60
0
100
AcDbSpline
70
4
71
3
72
16
73
12
40
0
40
0
40
0
40
0
40
0.249999999999942
40
0.249999999999942
40
0.374999999999939
40
0.374999999999939
40
0.499999999999936
40
0.499999999999936
40
0.749999999999968
40
0.749999999999968
40
1
40
1
40
1
40
1
41
1
10
56.9932737861753
20
-0.800754830200447
30
0
41
1
10
56.9659871357127
20
-0.795040070125708
30
0
41
1
10
56.9409432012642
20
-0.787674178411407
30
0
41
1
10
56.9075265794613
20
-0.77310624730481
30
0
41
1
10
56.8970715339888
20
-0.767653067816951
30
0
41
1
10
56.8777554518979
20
-0.755340779668501
30
0
41
1
10
56.8690659810269
20
-0.748590392637198
30
0
41
1
10
56.8459165084779
20
-0.726385604882864
30
0
41
1
10
56.8343612519069
20
-0.70897944426676
30
0
41
1
10
56.8192192850372
20
-0.667875786537763
30
0
41
1
10
56.8159096876537
20
-0.64500120562343
30
0
41
1
10
56.8162387221594
20
-0.619714444993008
30
0
0
SPLINE
5
14D
100
AcDbEntity
8
1
62
256
6
ByLayer
370
18
48
1
60
0
100
AcDbSpline
70
4
71
3
72
12
73
8
40
0
40
0
40
0
40
0
40
0.249999999999999
40
0.249999999999999
40
0.499999999999998
40
0.499999999999998
40
1
40
1
40
1
40
1
41
1
10
56.8162387221594
20
-0.619714444993008
30
0
41
1
10
56.8162720149101
20
-0.617155850678301
30
0
41
1
10
56.8166731824257
20
-0.614622169609788
30
0
41
1
10
56.8182251833205
20
-0.609610872227762
30
0
41
1
10
56.8193888662909
20
-0.607113726613733
30
0
41
1
10
56.8239469973344
20
-0.59985139049769
30
0
41
1
10
56.8283027626121
20
-0.595434622188719
30
0
41
1
10
56.833534986619
20
-0.591421834487505
30
1E-16
0
SPLINE
5
14E
100
AcDbEntity
8
1
62
256
6
ByLayer
370
18
48
1
60
0
100
AcDbSpline
70
4
71
3
72
22
73
18
40
0
40
0
40
0
40
0
40
0.0625
40
0.0625
40
0.125
40
0.125
40
0.1875
40
0.1875
40
0.25
40
0.25
40
0.375
40
0.375
40
0.5
40
0.5
40
0.75
40
0.75
40
1
40
1
40
1
40
1
41
1
10
56.833534986619
20
-0.591421834487534
30
1E-16
41
1
10
56.8392799183715
20
-0.587015832097308
30
0
41
1
10
56.8456344745412
20
-0.583149143206242
30
0
41
1
10
56.8591112542974
20
-0.576113777425348
30
0
41
1
10
56.8662409319041
20
-0.572951310460468
30
0
41
1
10
56.8810602090337
20
-0.567147809115482
30
0
41
1
10
56.8887566091747
20
-0.564510332630533
30
0
41
1
10
56.9043177974173
20
-0.55972201885146
30
0
41
1
10
56.9122203044617
20
-0.557557151679958
30
0
41
1
10
56.9362091068922
20
-0.551601338619719
30
0
41
1
10
56.9526109645817
20
-0.54833754100838
30
0
41
1
10
56.9855695028035
20
-0.542856028135986
30
1E-16
41
1
10
57.0021696864227
20
-0.540632419328773
30
0
41
1
10
57.0522370506589
20
-0.535129347336778
30
0
41
1
10
57.0860094960316
20
-0.533004463203696
30
0
41
1
10
57.1534433234605
20
-0.530888687084314
30
0
41
1
10
57.1871913631946
20
-0.530905544855415
30
0
41
1
10
57.2209634089199
20
-0.531751975611286
30
0
0
SPLINE
5
14F
100
AcDbEntity
8
1
62
256
6
ByLayer
370
18
48
1
60
0
100
AcDbSpline
70
4
71
3
72
8
73
4
40
0
40
0
40
0
40
0
40
1
40
1
40
1
40
1
41
1
10
57.2279045455105
20
-0.525378662239405
30
0
41
1
10
57.225553182877
20
-0.527493081176601
30
0
41
1
10
57.2232388835271
20
-0.52961738801099
30
0
41
1
10
57.2209634089199
20
-0.531751975611286
30
0
0
SPLINE
5
150
100
AcDbEntity
8
1
62
256
6
ByLayer
370
18
48
1
60
0
100
AcDbSpline
70
4
71
3
72
28
73
24
40
0
40
0
40
0
40
0
40
0.249999999999816
40
0.249999999999816
40
0.374999999999724
40
0.374999999999724
40
0.499999999999632
40
0.499999999999632
40
0.562499999999475
40
0.562499999999475
40
0.593749999999396
40
0.593749999999396
40
0.624999999999318
40
0.624999999999318
40
0.656249999999239
40
0.656249999999239
40
0.68749999999916
40
0.68749999999916
40
0.749999999999328
40
0.749999999999328
40
0.874999999999664
40
0.874999999999664
40
1
40
1
40
1
40
1
41
1
10
56.7561420591895
20
0.0576665294482837
30
0
41
1
10
56.7483281776717
20
0.0627657648570903
30
0
41
1
10
56.7406392128871
20
0.0680598054807717
30
0
41
1
10
56.7295899650226
20
0.0766185084300162
30
0
41
1
10
56.725993869572
20
0.0795701924793377
30
0
41
1
10
56.7191306520447
20
0.0858486575245649
30
0
41
1
10
56.7158157615019
20
0.0891737048677044
30
0
41
1
10
56.7116543017421
20
0.0947435447600071
30
0
41
1
10
56.7103762648893
20
0.0967314113273403
30
0
41
1
10
56.7090508112349
20
0.0999562857471119
30
0
41
1
10
56.7087073345893
20
0.101084129698506
30
0
41
1
10
56.7084136204775
20
0.103404155589061
30
0
41
1
10
56.7084787557829
20
0.104604434866133
30
0
41
1
10
56.7091874689226
20
0.106811758937454
30
0
41
1
10
56.7098394020533
20
0.107827134747339
30
0
41
1
10
56.7115006745069
20
0.109500391537097
30
0
41
1
10
56.7124757912115
20
0.110159007347363
30
0
41
1
10
56.7155961683822
20
0.111802855448843
30
0
41
1
10
56.7178601120947
20
0.112445955354815
30
0
41
1
10
56.7247505631837
20
0.113850806123196
30
0
41
1
10
56.7294113809842
20
0.114058054457928
30
0
41
1
10
56.7386799933134
20
0.114037819960316
30
0
41
1
10
56.7433167710951
20
0.11376280410866
30
0
41
1
10
56.7479548748303
20
0.113345615209028
30
0
0
SPLINE
5
151
100
AcDbEntity
8
1
62
256
6
ByLayer
370
18
48
1
60
0
100
AcDbSpline
70
4
71
3
72
14
73
10
40
0
40
0
40
0
40
0
40
0.25
40
0.25
40
0.5
40
0.5
40
0.75
40
0.75
40
1
40
1
40
1
40
1
41
1
10
56.7479548748324
20
0.113345615198256
30
0
41
1
10
56.7718998856931
20
0.111191805518814
30
0
41
1
10
56.7958273653924
20
0.109454421386971
30
0
41
1
10
56.8436325293664
20
0.107166444951957
30
0
41
1
10
56.8675104868343
20
0.106609417507542
30
0
41
1
10
56.9151912241463
20
0.107288766088743
30
0
41
1
10
56.9389947727816
20
0.108507135669924
30
0
41
1
10
56.9864766451057
20
0.113925727648194
30
0
41
1
10
57.0101579003951
20
0.118057736589606
30
-1E-16
41
1
10
57.0337163698739
20
0.125098197424791
30
0
0
SPLINE
5
152
100
AcDbEntity
8
1
62
256
6
ByLayer
370
18
48
1
60
0
100
AcDbSpline
70
4
71
3
72
22
73
18
40
0
40
0
40
0
40
0
40
0.250000000000042
40
0.250000000000042
40
0.312500000000043
40
0.312500000000043
40
0.375000000000044
40
0.500000000000046
40
0.500000000000046
40
0.562500000000036
40
0.562500000000036
40
0.625000000000026
40
0.625000000000026
40
0.750000000000017
40
0.875000000000009
40
0.875000000000009
40
1
40
1
40
1
40
1
41
1
10
57.0337163698739
20
0.125098197424791
30
0
41
1
10
57.001801647375
20
0.158242632255593
30
0
41
1
10
56.9734216745294
20
0.193490851573444
30
0
41
1
10
56.9435621723918
20
0.240699499565722
30
0
41
1
10
56.9378590629012
20
0.250323941456117
30
0
41
1
10
56.9271163475831
20
0.269792264923524
30
0
41
1
10
56.9121068470294
20
0.299115953119951
30
0
41
1
10
56.9003872126377
20
0.328751547965709
30
0
41
1
10
56.8908405189645
20
0.358520194921738
30
0
41
1
10
56.8880205995191
20
0.368465190710538
30
0
41
1
10
56.883105185483
20
0.388386242365641
30
0
41
1
10
56.8810035606965
20
0.398399454976698
30
0
41
1
10
56.8758342777138
20
0.428198630516164
30
0
41
1
10
56.8720006714177
20
0.466903908440685
30
0
41
1
10
56.8735335289223
20
0.503539602081901
30
0
41
1
10
56.8775086572179
20
0.53911379555575
30
0
41
1
10
56.8807050570914
20
0.556212366848456
30
0
41
1
10
56.8849430378936
20
0.572519700594739
30
0
0
SPLINE
5
153
100
AcDbEntity
8
1
62
256
6
ByLayer
370
18
48
1
60
0
100
AcDbSpline
70
4
71
3
72
8
73
4
40
0
40
0
40
0
40
0
40
1
40
1
40
1
40
1
41
1
10
56.8849430378936
20
0.572519700594711
30
0
41
1
10
56.885396910111
20
0.574266156294442
30
0
41
1
10
56.8863044966285
20
0.575878080960166
30
0
41
1
10
56.88760995749
20
0.577373953926923
30
0
0
SPLINE
5
154
100
AcDbEntity
8
1
62
256
6
ByLayer
370
18
48
1
60
0
100
AcDbSpline
70
4
71
3
72
22
73
18
40
0
40
0
40
0
40
0
40
0.0624999999999855
40
0.0624999999999855
40
0.124999999999971
40
0.124999999999971
40
0.187499999999957
40
0.187499999999957
40
0.249999999999942
40
0.249999999999942
40
0.374999999999913
40
0.374999999999913
40
0.499999999999885
40
0.499999999999885
40
0.749999999999942
40
0.749999999999942
40
1
40
1
40
1
40
1
41
1
10
56.88760995749
20
0.577373953926923
30
0
41
1
10
56.8915129421229
20
0.58184622067526
30
0
41
1
10
56.8960536226464
20
0.585832941170281
30
0
41
1
10
56.9060305569832
20
0.593138787411817
30
1E-16
41
1
10
56.9114711029064
20
0.596454459446619
30
0
41
1
10
56.923040974293
20
0.602582961469579
30
0
41
1
10
56.9291299477546
20
0.605369543280148
30
0
41
1
10
56.9415564041554
20
0.61044974434239
30
0
41
1
10
56.9479295094235
20
0.612760320808377
30
0
41
1
10
56.9674185436724
20
0.619170931422644
30
0
41
1
10
56.980922064552
20
0.622763515612235
30
0
41
1
10
57.008487817798
20
0.629030994572219
30
0
41
1
10
57.0224578580442
20
0.63168073608739
30
0
41
1
10
57.0647722665522
20
0.638618878541877
30
-1E-16
41
1
10
57.0935652898854
20
0.641915904144781
30
1E-16
41
1
10
57.151279505592
20
0.646840153451194
30
0
41
1
10
57.1802829988806
20
0.648459371643099
30
0
41
1
10
57.2093966517365
20
0.6494659969606
30
0
0
SPLINE
5
155
100
AcDbEntity
8
1
62
256
6
ByLayer
370
18
48
1
60
0
100
AcDbSpline
70
4
71
3
72
8
73
4
40
0
40
0
40
0
40
0
40
1
40
1
40
1
40
1
41
1
10
57.4270000000001
20
-0.269640432165062
30
0
41
1
10
57.3974377814424
20
-0.269273463590025
30
0
41
1
10
57.3679122371761
20
-0.26905317094068
30
0
41
1
10
57.3384233138474
20
-0.268979340833425
30
0
0
SPLINE
5
156
100
AcDbEntity
8
1
62
256
6
ByLayer
370
18
48
1
60
0
100
AcDbSpline
70
4
71
3
72
12
73
8
40
0
40
0
40
0
40
0
40
0.5
40
0.5
40
0.75
40
0.75
40
1
40
1
40
1
40
1
41
1
10
57.3384233138474
20
-0.268979340833397
30
0
41
1
10
57.325281229085
20
-0.299102138721253
30
0
41
1
10
57.3119650678734
20
-0.329208844510987
30
0
41
1
10
57.2937285166225
20
-0.374560452713837
30
0
41
1
10
57.2879488296551
20
-0.389712284769871
30
0
41
1
10
57.2775653384121
20
-0.420071212169944
30
0
41
1
10
57.2729661462591
20
-0.435264796730934
30
0
41
1
10
57.2693472611348
20
-0.450481825778752
30
-1E-16
0
SPLINE
5
157
100
AcDbEntity
8
1
62
256
6
ByLayer
370
18
48
1
60
0
100
AcDbSpline
70
4
71
3
72
12
73
8
40
0
40
0
40
0
40
0
40
0.500000000000119
40
0.500000000000119
40
0.750000000000059
40
0.750000000000059
40
1
40
1
40
1
40
1
41
1
10
57.3384233138474
20
-0.268979340833425
30
0
41
1
10
57.3231423879552
20
-0.252279068899242
30
0
41
1
10
57.3064768984283
20
-0.23681860804993
30
0
41
1
10
57.2789250412725
20
-0.215914564970433
30
0
41
1
10
57.2692449871663
20
-0.209296623259291
30
0
41
1
10
57.2490820906339
20
-0.197230643677017
30
0
41
1
10
57.2386876659754
20
-0.191824897555733
30
0
41
1
10
57.2279045455111
20
-0.187198146239041
30
0
0
SPLINE
5
158
100
AcDbEntity
8
1
62
256
6
ByLayer
370
18
48
1
60
0
100
AcDbSpline
70
4
71
3
72
8
73
4
40
0
40
0
40
0
40
0
40
1
40
1
40
1
40
1
41
1
10
57.2426848170569
20
-0.511131331205462
30
0
41
1
10
57.2379730494562
20
-0.5159502783535
30
0
41
1
10
57.2330917537623
20
-0.52071416208841
30
0
41
1
10
57.2279045455065
20
-0.525378662243043
30
0
0
SPLINE
5
159
100
AcDbEntity
8
1
62
256
6
ByLayer
370
18
48
1
60
0
100
AcDbSpline
70
4
71
3
72
20
73
16
40
0
40
0
40
0
40
0
40
0.24965432852734
40
0.24965432852734
40
0.374476251004786
40
0.374476251004786
40
0.499299098367353
40
0.499299098367353
40
0.624123171624003
40
0.624123171624003
40
0.748948865805543
40
0.748948865805543
40
0.874450147265234
40
0.874450147265234
40
1
40
1
40
1
40
1
41
1
10
57.269347261135
20
-0.450481825778127
30
-1E-16
41
1
10
57.2668584144111
20
-0.455506278529839
30
0
41
1
10
57.2644116156415
20
-0.460535739687458
30
0
41
1
10
57.2608286131671
20
-0.468088262044205
30
0
41
1
10
57.2596488489023
20
-0.470607207980436
30
0
41
1
10
57.257323359574
20
-0.475648076168596
30
0
41
1
10
57.2561775950311
20
-0.478170077493445
30
0
41
1
10
57.2539257121752
20
-0.48321712037037
30
0
41
1
10
57.2528195434806
20
-0.485742268457983
30
0
41
1
10
57.250653316414
20
-0.490795538278689
30
0
41
1
10
57.2495931945797
20
-0.49332380291662
30
0
41
1
10
57.2475209296739
20
-0.498396691832568
30
-1E-16
41
1
10
57.2465089960383
20
-0.500941524329278
30
0
41
1
10
57.244547575443
20
-0.506034309299736
30
0
41
1
10
57.2435980140145
20
-0.508582520628238
30
0
41
1
10
57.2426848170574
20
-0.511131331205519
30
0
0
SPLINE
5
15A
100
AcDbEntity
8
1
62
256
6
ByLayer
370
18
48
1
60
0
100
AcDbSpline
70
4
71
3
72
8
73
4
40
0
40
0
40
0
40
0
40
1
40
1
40
1
40
1
41
1
10
58.9135713881025
20
0.21604973395236
30
0
41
1
10
58.9025599638933
20
0.2404846833725
30
0
41
1
10
58.8911390449754
20
0.265087836291173
30
0
41
1
10
58.8793410561569
20
0.289834628678307
30
0
0
SPLINE
5
15B
100
AcDbEntity
8
1
62
256
6
ByLayer
370
18
48
1
60
0
100
AcDbSpline
70
4
71
3
72
28
73
24
40
0
40
0
40
0
40
0
40
0.125000000000058
40
0.125000000000058
40
0.187500000000075
40
0.187500000000075
40
0.250000000000093
40
0.250000000000093
40
0.375000000000127
40
0.375000000000127
40
0.437500000000145
40
0.437500000000145
40
0.500000000000162
40
0.500000000000162
40
0.625000000000155
40
0.625000000000155
40
0.68750000000013
40
0.68750000000013
40
0.750000000000104
40
0.750000000000104
40
0.875000000000052
40
0.875000000000052
40
1
40
1
40
1
40
1
41
1
10
58.8793410561569
20
0.289834628678278
30
0
41
1
10
58.8723551102444
20
0.290642177084123
30
0
41
1
10
58.8638912206941
20
0.292693320696685
30
0
41
1
10
58.8488511864422
20
0.29774253068004
30
0
41
1
10
58.8434380017745
20
0.29975820682364
30
0
41
1
10
58.8318629456517
20
0.304435694370909
30
0
41
1
10
58.8257641987304
20
0.307068401190691
30
0
41
1
10
58.8065505386353
20
0.315833073829055
30
0
41
1
10
58.7925103014613
20
0.322839058213901
30
0
41
1
10
58.7695578652915
20
0.335135207074899
30
0
41
1
10
58.7615879186581
20
0.339535363230937
30
0
41
1
10
58.7449863585891
20
0.348960655625206
30
0
41
1
10
58.73634612937
20
0.353992244410705
30
0
41
1
10
58.7099131304904
20
0.369741486268936
30
0
41
1
10
58.6914539359153
20
0.38120124658991
30
0
41
1
10
58.6625455778548
20
0.399789733454355
30
0
41
1
10
58.6527072841045
20
0.406217790430503
30
0
41
1
10
58.6326016795215
20
0.419565988368447
30
0
41
1
10
58.622287369617
20
0.426518435341649
30
0
41
1
10
58.5910377672798
20
0.447896559306088
30
-1E-16
41
1
10
58.5699118415266
20
0.462759526621881
30
0
41
1
10
58.5271297063569
20
0.493591603766163
30
0
41
1
10
58.5054735846414
20
0.509559785582297
30
0
41
1
10
58.4835441666071
20
0.526099539187925
30
0
0
SPLINE
5
15C
100
AcDbEntity
8
1
62
256
6
ByLayer
370
18
48
1
60
0
100
AcDbSpline
70
4
71
3
72
34
73
30
40
0
40
0
40
0
40
0
40
0.062500000000036
40
0.062500000000036
40
0.125000000000072
40
0.125000000000072
40
0.250000000000111
40
0.250000000000111
40
0.265625000000116
40
0.265625000000116
40
0.281250000000121
40
0.31250000000013
40
0.37500000000015
40
0.37500000000015
40
0.500000000000189
40
0.500000000000189
40
0.531250000000191
40
0.531250000000191
40
0.562500000000193
40
0.562500000000193
40
0.625000000000165
40
0.625000000000165
40
0.75000000000011
40
0.75000000000011
40
0.812500000000082
40
0.812500000000082
40
0.875000000000055
40
0.875000000000055
40
1
40
1
40
1
40
1
41
1
10
58.4835441666077
20
0.526099539188039
30
0
41
1
10
58.4632860950239
20
0.534058795800064
30
0
41
1
10
58.4426561393788
20
0.542525041516541
30
0
41
1
10
58.4006226062007
20
0.560270204125459
30
0
41
1
10
58.3790993677133
20
0.569603368985327
30
0
41
1
10
58.3147376045468
20
0.597869584729324
30
0
41
1
10
58.2717578811546
20
0.617183521335022
30
0
41
1
10
58.2229999809375
20
0.638581556624587
30
-1E-16
41
1
10
58.2175820904508
20
0.640939863762668
30
1E-16
41
1
10
58.2067417184795
20
0.645699954955461
30
0
41
1
10
58.1905249729404
20
0.652797363276704
30
0
41
1
10
58.1529670172191
20
0.669043309937194
30
0
41
1
10
58.1211819682793
20
0.682370702657153
30
0
41
1
10
58.0580059078182
20
0.708054653728681
30
0
41
1
10
58.0164166675371
20
0.723866055863255
30
0
41
1
10
57.9646877067319
20
0.741444853581982
30
0
41
1
10
57.9543590196054
20
0.744841309513674
30
0
41
1
10
57.9339125476566
20
0.751320085312841
30
0
41
1
10
57.9237688616519
20
0.754413330380828
30
0
41
1
10
57.8935448542202
20
0.763260023667556
30
0
41
1
10
57.8736692893859
20
0.768583079431011
30
0
41
1
10
57.8147240846503
20
0.782761348941904
30
1E-16
41
1
10
57.776334138352
20
0.789832499108741
30
0
41
1
10
57.7198625547242
20
0.796220672676611
30
0
41
1
10
57.7012485118181
20
0.797630082168155
30
0
41
1
10
57.6648805036971
20
0.798964394377549
30
0
41
1
10
57.6470543589159
20
0.798898697270346
30
0
41
1
10
57.5946623054642
20
0.796358400650917
30
0
41
1
10
57.5611591541174
20
0.791566613338915
30
0
41
1
10
57.5291502491762
20
0.783250855243921
30
0
0
SPLINE
5
15D
100
AcDbEntity
8
1
62
256
6
ByLayer
370
18
48
1
60
0
100
AcDbSpline
70
4
71
1
72
4
73
2
40
0
40
0
40
1
40
1
41
1
10
57.4529977411675
20
0.691847969702309
30
0
41
1
10
57.5291502491763
20
0.783250855243921
30
0
0
SPLINE
5
15E
100
AcDbEntity
8
1
62
256
6
ByLayer
370
18
48
1
60
0
100
AcDbSpline
70
4
71
3
72
8
73
4
40
0
40
0
40
0
40
0
40
1
40
1
40
1
40
1
41
1
10
58.9703827662109
20
0.0642522003507509
30
0
41
1
10
58.971599627505
20
0.0610914995162659
30
0
41
1
10
58.9728170084484
20
0.0579466592058679
30
0
41
1
10
58.9740350640803
20
0.0548243614298372
30
0
0
SPLINE
5
15F
100
AcDbEntity
8
1
62
256
6
ByLayer
370
18
48
1
60
0
100
AcDbSpline
70
4
71
3
72
30
73
26
40
0
40
0
40
0
40
0
40
0.124999999999983
40
0.124999999999983
40
0.187499999999965
40
0.187499999999965
40
0.249999999999946
40
0.249999999999946
40
0.312499999999928
40
0.312499999999928
40
0.37499999999991
40
0.37499999999991
40
0.437499999999891
40
0.437499999999891
40
0.499999999999873
40
0.499999999999873
40
0.562499999999855
40
0.562499999999855
40
0.624999999999836
40
0.624999999999836
40
0.749999999999891
40
0.749999999999891
40
0.874999999999945
40
0.874999999999945
40
1
40
1
40
1
40
1
41
1
10
58.9304711962915
20
0.170891797529123
30
0
41
1
10
58.9306314838241
20
0.167481351847727
30
0
41
1
10
58.9309187282777
20
0.163690543536632
30
0
41
1
10
58.9317027051256
20
0.15718486483243
30
0
41
1
10
58.932021039323
20
0.154902507978477
30
0
41
1
10
58.9328099881773
20
0.150053089924
30
0
41
1
10
58.9332850564309
20
0.147465168652843
30
0
41
1
10
58.934416306577
20
0.142054405023629
30
0
41
1
10
58.9350716970275
20
0.139229266323753
30
0
41
1
10
58.9366167394795
20
0.133275311480418
30
0
41
1
10
58.9375133519952
20
0.130133173985428
30
0
41
1
10
58.9394899018557
20
0.12384168040802
30
0
41
1
10
58.9405984196072
20
0.120603834390181
30
0
41
1
10
58.9429212061868
20
0.114337689427458
30
0
41
1
10
58.9441394881532
20
0.111289890638346
30
0
41
1
10
58.9466388749877
20
0.105419803178052
30
0
41
1
10
58.9478813567413
20
0.10268477420243
30
0
41
1
10
58.9503460405201
20
0.0975166858809473
30
0
41
1
10
58.9515770389809
20
0.0950684868879819
30
0
41
1
10
58.9551369262082
20
0.0882660921423337
30
0
41
1
10
58.9573567237889
20
0.0843869242706887
30
0
41
1
10
58.9615577728541
20
0.0774027142992679
30
0
41
1
10
58.9635107863523
20
0.0743523667084673
30
0
41
1
10
58.9671332425713
20
0.0688901045047601
30
0
41
1
10
58.9688130142659
20
0.0664646494543035
30
0
41
1
10
58.9703827662122
20
0.0642522003480792
30
0
0
SPLINE
5
160
100
AcDbEntity
8
1
62
256
6
ByLayer
370
18
48
1
60
0
100
AcDbSpline
70
4
71
3
72
8
73
4
40
0
40
0
40
0
40
0
40
1
40
1
40
1
40
1
41
1
10
58.9304711962899
20
0.170891797533642
30
0
41
1
10
58.9249638990701
20
0.185688745715169
30
0
41
1
10
58.9194456362775
20
0.200486307162663
30
0
41
1
10
58.9139168053288
20
0.215284237049303
30
0
0
SPLINE
5
161
100
AcDbEntity
8
1
62
256
6
ByLayer
370
18
48
1
60
0
100
AcDbSpline
70
4
71
3
72
8
73
4
40
0
40
0
40
0
40
0
40
1
40
1
40
1
40
1
41
1
10
58.9135711687824
20
0.216050220636333
30
0
41
1
10
58.9136864037777
20
0.215794508015051
30
0
41
1
10
58.9138017507151
20
0.215538880814563
30
0
41
1
10
58.9139168053289
20
0.215284237049332
30
0
0
SPLINE
5
162
100
AcDbEntity
8
1
62
256
6
ByLayer
370
18
48
1
60
0
100
AcDbSpline
70
4
71
3
72
10
73
6
40
0
40
0
40
0
40
0
40
0.668210744139322
40
0.668210744139322
40
1
40
1
40
1
40
1
41
1
10
58.9740350640818
20
0.054824361433873
30
0
41
1
10
58.9751423712056
20
0.0511919800686371
30
0
41
1
10
58.976218862516
20
0.0478527271085625
30
0
41
1
10
58.9777422033055
20
0.0437041748512286
30
0
41
1
10
58.978232101671
20
0.042476871234868
30
0
41
1
10
58.9786793559553
20
0.041510627009643
30
0
0
SPLINE
5
163
100
AcDbEntity
8
1
62
256
6
ByLayer
370
18
48
1
60
0
100
AcDbSpline
70
4
71
3
72
14
73
10
40
0
40
0
40
0
40
0
40
0.0964076606199244
40
0.0964076606199244
40
0.322305745464937
40
0.322305745464937
40
0.548203830309949
40
0.548203830309949
40
1
40
1
40
1
40
1
41
1
10
58.9794214826487
20
0.0400923864288529
30
0
41
1
10
58.979591371225
20
0.0398176729150634
30
0
41
1
10
58.9797509660667
20
0.0396008526908815
30
0
41
1
10
58.9802397479966
20
0.0391002119216353
30
0
41
1
10
58.9805157794207
20
0.0391071380655887
30
0
41
1
10
58.9809091110487
20
0.0398653370614852
30
0
41
1
10
58.9810234975179
20
0.0405965935822508
30
0
41
1
10
58.9811692364969
20
0.0436219821928034
30
0
41
1
10
58.9810085595972
20
0.0465821606863983
30
0
41
1
10
58.980726881615
20
0.0499557496962098
30
0
0
SPLINE
5
164
100
AcDbEntity
8
1
62
256
6
ByLayer
370
18
48
1
60
0
100
AcDbSpline
70
4
71
3
72
31
73
27
40
0
40
0
40
0
40
0
40
0.044455901349569
40
0.0767702890762594
40
0.0962707244151682
40
0.135237291231804
40
0.174072917651583
40
0.212936291682838
40
0.284241439675737
40
0.310216173423848
40
0.326438505761908
40
0.404607966809323
40
0.439480819197534
40
0.441511050617754
40
0.442768232242738
40
0.44529547603937
40
0.447824709865969
40
0.486951050489378
40
0.554515260202245
40
0.628190731389683
40
0.726675620630357
40
0.776033339854306
40
0.850020161164551
40
0.898887628833969
40
0.970532798121862
40
1
40
1
40
1
40
1
41
1
10
57.4529977411675
20
0.691847969702309
30
0
41
1
10
57.4789712716688
20
0.701326301694309
30
0
41
1
10
57.5229857746012
20
0.711797676602657
30
0
41
1
10
57.577893621612
20
0.715832016454755
30
0
41
1
10
57.6295410596548
20
0.714675206332799
30
0
41
1
10
57.6853911166808
20
0.708393320025294
30
0
41
1
10
57.7539187703869
20
0.694164439588008
30
0
41
1
10
57.8428076974563
20
0.668835309667827
30
0
41
1
10
57.9255204991032
20
0.637490847770692
30
-1E-16
41
1
10
57.9950063554293
20
0.605976419901765
30
0
41
1
10
58.0688694501634
20
0.570855615631928
30
0
41
1
10
58.1485441687429
20
0.528881313176782
30
0
41
1
10
58.2190716252916
20
0.489220450083366
30
0
41
1
10
58.2423800200007
20
0.475893978127317
30
0
41
1
10
58.2459340389625
20
0.47408651311639
30
0
41
1
10
58.2497966216003
20
0.472058000831424
30
0
41
1
10
58.2767166249833
20
0.457921160133708
30
0
41
1
10
58.3431688358908
20
0.422214744795923
30
0
41
1
10
58.4514273437622
20
0.361310129518415
30
0
41
1
10
58.5891891591393
20
0.281410106595814
30
0
41
1
10
58.7034391255941
20
0.213955124184707
30
1E-16
41
1
10
58.801688536817
20
0.155254495111109
30
0
41
1
10
58.8662451035086
20
0.116483542594239
30
0
41
1
10
58.9241040180976
20
0.0821341247089151
30
0
41
1
10
58.9566067849526
20
0.0636776828939105
30
0
41
1
10
58.9706562788051
20
0.0564697801197838
30
0
41
1
10
58.9740350640818
20
0.054824361433873
30
0
0
SPLINE
5
165
100
AcDbEntity
8
1
62
256
6
ByLayer
370
18
48
1
60
0
100
AcDbSpline
70
4
71
1
72
4
73
2
40
0
40
0
40
1
40
1
41
1
10
57.4289510525431
20
0.646656886947056
30
0
41
1
10
57.4529977411675
20
0.691847969702309
30
0
0
SPLINE
5
166
100
AcDbEntity
8
1
62
256
6
ByLayer
370
18
48
1
60
0
100
AcDbSpline
70
4
71
3
72
8
73
4
40
0
40
0
40
0
40
0
40
1
40
1
40
1
40
1
41
1
10
58.9636284424342
20
-0.0086751910413057
30
0
41
1
10
58.9616184189822
20
-0.0070700807479227
30
0
41
1
10
58.9595725946328
20
-0.0056772618959826
30
0
41
1
10
58.9574890116733
20
-0.0044849640522102
30
0
0
SPLINE
5
167
100
AcDbEntity
8
1
62
256
6
ByLayer
370
18
48
1
60
0
100
AcDbSpline
70
4
71
3
72
8
73
4
40
0
40
0
40
0
40
0
40
1
40
1
40
1
40
1
41
1
10
58.9636284424678
20
-0.0086751910654357
30
0
41
1
10
58.9672399402548
20
-0.0107926277786419
30
0
41
1
10
58.9705839217613
20
-0.0127532185990731
30
0
41
1
10
58.973657296271
20
-0.0145551513201099
30
0
0
SPLINE
5
168
100
AcDbEntity
8
1
62
256
6
ByLayer
370
18
48
1
60
0
100
AcDbSpline
70
4
71
3
72
16
73
12
40
0
40
0
40
0
40
0
40
0.10972441206746
40
0.21980831074839
40
0.330259305421423
40
0.441073845782898
40
0.552241750242046
40
0.663746230498455
40
0.775563256730014
40
0.887660889260882
40
1
40
1
40
1
40
1
41
1
10
58.9736572595013
20
-0.014555129752722
30
0
41
1
10
58.9747942274055
20
-0.0150397572026577
30
0
41
1
10
58.977071888226
20
-0.016010599872061
30
0
41
1
10
58.9802132747733
20
-0.0174684103653817
30
0
41
1
10
58.9831562656975
20
-0.0189286135061195
30
0
41
1
10
58.9858781325384
20
-0.0203905570811287
30
0
41
1
10
58.9883807688413
20
-0.0218535302377347
30
0
41
1
10
58.9906610797754
20
-0.0233170078660692
30
0
41
1
10
58.9927105272244
20
-0.0247805274098596
30
0
41
1
10
58.9945473559664
20
-0.0262440642300987
30
0
41
1
10
58.9955735952772
20
-0.0272182878497063
30
0
41
1
10
58.9960872670134
20
-0.0277059237577078
30
0
0
SPLINE
5
169
100
AcDbEntity
8
1
62
256
6
ByLayer
370
18
48
1
60
0
100
AcDbSpline
70
4
71
3
72
8
73
4
40
0
40
0
40
0
40
0
40
1
40
1
40
1
40
1
41
1
10
58.9960872739719
20
-0.0277059446241879
30
0
41
1
10
58.9977973634152
20
-0.0287085786804369
30
0
41
1
10
58.9988738641143
20
-0.0293397376052553
30
0
41
1
10
58.9993201261464
20
-0.0296013845147911
30
0
0
SPLINE
5
16A
100
AcDbEntity
8
1
62
256
6
ByLayer
370
18
48
1
60
0
100
AcDbSpline
70
4
71
3
72
8
73
4
40
0
40
0
40
0
40
0
40
1
40
1
40
1
40
1
41
1
10
58.4585642965071
20
0.0105309799913016
30
0
41
1
10
58.4647118942997
20
0.0023392938832103
30
0
41
1
10
58.4708627473952
20
-0.0058537932055458
30
0
41
1
10
58.4770156784992
20
-0.0140491303371562
30
0
0
SPLINE
5
16B
100
AcDbEntity
8
1
62
256
6
ByLayer
370
18
48
1
60
0
100
AcDbSpline
70
4
71
3
72
26
73
22
40
0
40
0
40
0
40
0
40
0.25
40
0.25
40
0.5
40
0.5
40
0.625
40
0.625
40
0.75
40
0.75
40
0.8125
40
0.8125
40
0.874999999999999
40
0.874999999999999
40
0.90625
40
0.90625
40
0.9375
40
0.9375
40
0.96875
40
0.96875
40
1
40
1
40
1
40
1
41
1
10
58.4585642944981
20
0.0105309826684277
30
0
41
1
10
58.4435000534924
20
0.0306041133363522
30
0
41
1
10
58.4321447729833
20
0.0525503711490956
30
0
41
1
10
58.4159397778004
20
0.0993392963941915
30
0
41
1
10
58.411497084421
20
0.122812751442382
30
0
41
1
10
58.4084108353374
20
0.157195776009758
30
0
41
1
10
58.4080121188074
20
0.168216380887316
30
0
41
1
10
58.4082034035093
20
0.189294715877168
30
0
41
1
10
58.4087787418126
20
0.199364657714426
30
0
41
1
10
58.4104936715522
20
0.213661630175835
30
1E-16
41
1
10
58.4112054092613
20
0.218244658297067
30
0
41
1
10
58.4130307377786
20
0.226975954679119
30
0
41
1
10
58.4141389377885
20
0.231132713603273
30
0
41
1
10
58.4163348944008
20
0.236829105790179
30
0
41
1
10
58.4171583118504
20
0.238641354034939
30
0
41
1
10
58.41909946373
20
0.242037348128576
30
0
41
1
10
58.4202243573477
20
0.243631803120053
30
0
41
1
10
58.422923950392
20
0.246392495173012
30
0
41
1
10
58.4245261375423
20
0.247581300876561
30
0
41
1
10
58.4283978091293
20
0.249208043159655
30
0
41
1
10
58.4307161618895
20
0.249641533349745
30
0
41
1
10
58.4333538888246
20
0.249558172742241
30
0
0
SPLINE
5
16C
100
AcDbEntity
8
1
62
256
6
ByLayer
370
18
48
1
60
0
100
AcDbSpline
70
4
71
3
72
8
73
4
40
0
40
0
40
0
40
0
40
1
40
1
40
1
40
1
41
1
10
57.4288769396875
20
0.646359537211168
30
0
41
1
10
57.4282515827954
20
0.64610923746028
30
0
41
1
10
57.4276259343585
20
0.645857842555046
30
0
41
1
10
57.427
20
0.645605349648662
30
0
0
SPLINE
5
16D
100
AcDbEntity
8
1
62
256
6
ByLayer
370
18
48
1
60
0
100
AcDbSpline
70
4
71
3
72
24
73
20
40
0
40
0
40
0
40
0
40
0.249999999999952
40
0.249999999999952
40
0.374999999999929
40
0.374999999999929
40
0.499999999999906
40
0.499999999999906
40
0.624999999999882
40
0.624999999999882
40
0.687499999999871
40
0.687499999999871
40
0.74999999999986
40
0.74999999999986
40
0.812499999999849
40
0.812499999999849
40
0.874999999999838
40
0.874999999999838
40
1
40
1
40
1
40
1
41
1
10
58.4095659953116
20
0.314227376500725
30
0
41
1
10
58.4199555621031
20
0.307266777472194
30
-1E-16
41
1
10
58.4299848564266
20
0.300190090310565
30
0
41
1
10
58.4435002860441
20
0.289472808155011
30
0
41
1
10
58.4477623222419
20
0.285873420464185
30
0
41
1
10
58.4554981637515
20
0.278554350406665
30
0
41
1
10
58.4589446802624
20
0.274860712853752
30
0
41
1
10
58.4640690210342
20
0.267618818290401
30
0
41
1
10
58.4656875027393
20
0.264136511652538
30
0
41
1
10
58.4657429578612
20
0.259476070971573
30
-1E-16
41
1
10
58.4653633815899
20
0.258070576643348
30
0
41
1
10
58.4637866973998
20
0.255558769121961
30
0
41
1
10
58.4625867081645
20
0.254469245417482
30
0
41
1
10
58.4595673928227
20
0.252668397445063
30
0
41
1
10
58.4577175798503
20
0.251936778998839
30
0
41
1
10
58.453633885823
20
0.25080082333568
30
0
41
1
10
58.4513935861137
20
0.250387399086606
30
0
41
1
10
58.4442228155006
20
0.24950052884833
30
0
41
1
10
58.4388666502854
20
0.249383951847563
30
0
41
1
10
58.4333538888026
20
0.249558172742866
30
0
0
SPLINE
5
16E
100
AcDbEntity
8
1
62
256
6
ByLayer
370
18
48
1
60
0
100
AcDbSpline
70
4
71
3
72
8
73
4
40
0
40
0
40
0
40
0
40
1
40
1
40
1
40
1
41
1
10
58.9181350281231
20
0.0179977885483709
30
0
41
1
10
58.9333508309796
20
0.009301436141385
30
0
41
1
10
58.9464571243649
20
0.0018278613576967
30
0
41
1
10
58.9574890116344
20
-0.0044849640299844
30
0
0
SPLINE
5
16F
100
AcDbEntity
8
1
62
256
6
ByLayer
370
18
48
1
60
0
100
AcDbSpline
70
4
71
3
72
8
73
4
40
0
40
0
40
0
40
0
40
1
40
1
40
1
40
1
41
1
10
58.3685115286876
20
0.339085146176956
30
0
41
1
10
58.3823689541626
20
0.330834449148796
30
0
41
1
10
58.3960561152606
20
0.322555605334401
30
0
41
1
10
58.4095659953073
20
0.314227376500128
30
0
0
SPLINE
5
170
100
AcDbEntity
8
1
62
256
6
ByLayer
370
18
48
1
60
0
100
AcDbSpline
70
4
71
3
72
23
73
19
40
0
40
0
40
0
40
0
40
0.124999999999961
40
0.124999999999961
40
0.187499999999964
40
0.187499999999964
40
0.249999999999967
40
0.249999999999967
40
0.374999999999972
40
0.499999999999978
40
0.499999999999978
40
0.562499999999981
40
0.562499999999981
40
0.624999999999984
40
0.624999999999984
40
0.749999999999989
40
0.749999999999989
40
1
40
1
40
1
40
1
41
1
10
58.4095659953055
20
0.314227376498337
30
0
41
1
10
58.4365932709746
20
0.298684879473058
30
0
41
1
10
58.4632302257805
20
0.283294475635557
30
0
41
1
10
58.502604849094
20
0.260450646410305
30
-1E-16
41
1
10
58.5156329524228
20
0.252876681401375
30
0
41
1
10
58.541491544325
20
0.237813163156346
30
0
41
1
10
58.5543538585926
20
0.230304900071928
30
0
41
1
10
58.5921879607772
20
0.20817127963366
30
0
41
1
10
58.6408535791583
20
0.179562097695651
30
0
41
1
10
58.6861883419124
20
0.152825149722588
30
0
41
1
10
58.7189341000317
20
0.133529343786506
30
0
41
1
10
58.7296390311789
20
0.1272238310994
30
0
41
1
10
58.750616973191
20
0.114879399415514
30
0
41
1
10
58.7609203674984
20
0.108823515613466
30
0
41
1
10
58.7909594675297
20
0.0912173098576545
30
0
41
1
10
58.8097361892548
20
0.0802857790817768
30
0
41
1
10
58.8624434633343
20
0.0497651310041931
30
0
41
1
10
58.8928089087462
20
0.0324238637663257
30
0
41
1
10
58.9181350281229
20
0.0179977885483993
30
0
0
SPLINE
5
171
100
AcDbEntity
8
1
62
256
6
ByLayer
370
18
48
1
60
0
100
AcDbSpline
70
4
71
3
72
29
73
25
40
0
40
0
40
0
40
0
40
0.0506198554750087
40
0.0874147372979217
40
0.109618970899967
40
0.153988377901868
40
0.198208689198508
40
0.242460595402462
40
0.323652432176672
40
0.35322864654678
40
0.37170025759259
40
0.460708166568838
40
0.500416252431542
40
0.50272798198718
40
0.504159475899814
40
0.507037130201088
40
0.509917050456403
40
0.554468384418777
40
0.631400589753123
40
0.715291402678851
40
0.827431539499707
40
0.883632865709384
40
0.967878198456782
40
1
40
1
40
1
40
1
41
1
10
57.4289510525431
20
0.646656886947056
30
0
41
1
10
57.4562170485838
20
0.656554681392805
30
0
41
1
10
57.5024457495875
20
0.667190650929939
30
0
41
1
10
57.5604025401798
20
0.670685667055011
30
0
41
1
10
57.614419468629
20
0.668536423514496
30
0
41
1
10
57.6725274624835
20
0.660813468742248
30
0
41
1
10
57.7446055866592
20
0.644666664121644
30
0
41
1
10
57.8374142409418
20
0.6165352836544
30
0
41
1
10
57.9224541647481
20
0.582320954759865
30
0
41
1
10
57.9948231618497
20
0.548436785317733
30
0
41
1
10
58.0710645015826
20
0.510770745202279
30
0
41
1
10
58.1529331606056
20
0.466122487112529
30
0
41
1
10
58.2252945729091
20
0.424208460132121
30
0
41
1
10
58.2492599224772
20
0.41016264930181
30
0
41
1
10
58.2524556311137
20
0.408288136126799
30
0
41
1
10
58.2560728740502
20
0.406167830330503
30
0
41
1
10
58.2810909512118
20
0.391499459820466
30
0
41
1
10
58.3437624414528
20
0.354755009220781
30
-1E-16
41
1
10
58.4497233716894
20
0.292629582400593
30
0
41
1
10
58.5913922957496
20
0.209568513636697
30
0
41
1
10
58.713327895276
20
0.138077113588423
30
0
41
1
10
58.818112995272
20
0.0766411603330539
30
0
41
1
10
58.8775501806387
20
0.0417928539837078
30
0
41
1
10
58.9098333061003
20
0.0228651224767304
30
0
41
1
10
58.918135028123
20
0.0179977885483709
30
0
0
SPLINE
5
172
100
AcDbEntity
8
1
62
256
6
ByLayer
370
18
48
1
60
0
100
AcDbSpline
70
4
71
1
72
4
73
2
40
0
40
0
40
1
40
1
41
1
10
57.428876939687
20
0.646359537210429
30
0
41
1
10
57.4289510525431
20
0.646656886947056
30
0
0
SPLINE
5
173
100
AcDbEntity
8
1
62
256
6
ByLayer
370
18
48
1
60
0
100
AcDbSpline
70
4
71
3
72
14
73
10
40
0
40
0
40
0
40
0
40
0.25
40
0.25
40
0.5
40
0.5
40
0.75
40
0.75
40
1
40
1
40
1
40
1
41
1
10
57.428876939687
20
0.646359537210429
30
0
41
1
10
57.4460712244023
20
0.652613705399119
30
0
41
1
10
57.4631856538603
20
0.657391336734889
30
0
41
1
10
57.497479190107
20
0.664548020354943
30
0
41
1
10
57.5146553556087
20
0.666924709572157
30
0
41
1
10
57.549204609065
20
0.669633567409306
30
0
41
1
10
57.5666174911559
20
0.669959185513818
30
0
41
1
10
57.6015794840548
20
0.668762708108034
30
0
41
1
10
57.6190778022083
20
0.667254063676268
30
0
41
1
10
57.6366595286433
20
0.664941274392731
30
0
0
SPLINE
5
174
100
AcDbEntity
8
1
62
256
6
ByLayer
370
18
48
1
60
0
100
AcDbSpline
70
4
71
3
72
23
73
19
40
0
40
0
40
0
40
0
40
0.24999999999996
40
0.24999999999996
40
0.37499999999996
40
0.37499999999996
40
0.437499999999981
40
0.437499999999981
40
0.500000000000002
40
0.625000000000002
40
0.625000000000002
40
0.750000000000001
40
0.750000000000001
40
0.812500000000001
40
0.812500000000001
40
0.875000000000001
40
0.875000000000001
40
1
40
1
40
1
40
1
41
1
10
57.6366595286432
20
0.664941274392874
30
0
41
1
10
57.6953748557227
20
0.657217531027015
30
0
41
1
10
57.7545308631135
20
0.642494262567396
30
0
41
1
10
57.8450001833485
20
0.612053678819962
30
0
41
1
10
57.8754476810362
20
0.600498309485829
30
0
41
1
10
57.9217356917681
20
0.581197537252365
30
0
41
1
10
57.9371942001685
20
0.574466334926001
30
0
41
1
10
57.9680099076161
20
0.560545941191918
30
0
41
1
10
58.0141684436112
20
0.538946220619863
30
0
41
1
10
58.0602549683464
20
0.515354068102766
30
0
41
1
10
58.1218596661789
20
0.482490671836303
30
0
41
1
10
58.1527390127629
20
0.465350620356929
30
0
41
1
10
58.1993534633849
20
0.438798623918387
30
0
41
1
10
58.2149325612111
20
0.429811768704894
30
0
41
1
10
58.2458934614793
20
0.41179122427377
30
0
41
1
10
58.2613156105248
20
0.402734466206169
30
-1E-16
41
1
10
58.3074452820648
20
0.375493895697787
30
0
41
1
10
58.3380178111032
20
0.357241223236201
30
1E-16
41
1
10
58.3685115286876
20
0.339085146177013
30
0
0
SPLINE
5
175
100
AcDbEntity
8
1
62
256
6
ByLayer
370
18
48
1
60
0
100
AcDbSpline
70
4
71
3
72
8
73
4
40
0
40
0
40
0
40
0
40
1
40
1
40
1
40
1
41
1
10
58.9993201260588
20
-0.0296013831414541
30
0
41
1
10
58.9992863246106
20
-0.0308384020279675
30
0
41
1
10
58.9992523038012
20
-0.0320754128720182
30
0
41
1
10
58.9992180626158
20
-0.0333124182892846
30
0
0
SPLINE
5
176
100
AcDbEntity
8
1
62
256
6
ByLayer
370
18
48
1
60
0
100
AcDbSpline
70
4
71
3
72
8
73
4
40
0
40
0
40
0
40
0
40
1
40
1
40
1
40
1
41
1
10
58.9938273126278
20
-0.0001461128873075
30
0
41
1
10
58.9956728730334
20
-0.0099620592720555
30
0
41
1
10
58.9975038052582
20
-0.0197805035010106
30
0
41
1
10
58.9993201257532
20
-0.0296013818695826
30
0
0
SPLINE
5
177
100
AcDbEntity
8
1
62
256
6
ByLayer
370
18
48
1
60
0
100
AcDbSpline
70
4
71
3
72
29
73
25
40
0
40
0
40
0
40
0
40
0.0506198554704508
40
0.0874147372899475
40
0.109618970889795
40
0.153988377886349
40
0.198208689177083
40
0.242460595374584
40
0.323652432135582
40
0.353228646501321
40
0.371700257550825
40
0.46070816653588
40
0.500416252398909
40
0.502727981954379
40
0.504159475866777
40
0.507037130167533
40
0.509917050422398
40
0.554468384380747
40
0.631400589716066
40
0.715291402650832
40
0.827431539486082
40
0.883632865700822
40
0.967878198451292
40
1
40
1
40
1
40
1
41
1
10
57.4289510525432
20
-0.546473390779425
30
-1E-16
41
1
10
57.4562170485832
20
-0.565403581351831
30
0
41
1
10
57.5024457495868
20
-0.599060771840755
30
0
41
1
10
57.5604025401801
20
-0.641300000154729
30
-1E-16
41
1
10
57.6144194686279
20
-0.679938598062563
30
0
41
1
10
57.6725274624836
20
-0.719660928238596
30
0
41
1
10
57.7446055866582
20
-0.763739876413609
30
0
41
1
10
57.8374142409419
20
-0.813235276735014
30
0
41
1
10
57.9224541647468
20
-0.849090760358422
30
0
41
1
10
57.9948231618562
20
-0.871639841464059
30
0
41
1
10
58.0710645015747
20
-0.891601403909618
30
0
41
1
10
58.1529331605946
20
-0.903876031017006
30
0
41
1
10
58.2252945729
20
-0.904050961446899
30
0
41
1
10
58.2492599224674
20
-0.902912387813785
30
0
41
1
10
58.2524556311045
20
-0.90274467454762
30
0
41
1
10
58.2560728740409
20
-0.902540254031692
30
0
41
1
10
58.281090951204
20
-0.900951922563735
30
0
41
1
10
58.3437624414488
20
-0.893611816519524
30
0
41
1
10
58.4497233716875
20
-0.866029347893488
30
0
41
1
10
58.5913922957451
20
-0.798831266309179
30
0
41
1
10
58.7133278952692
20
-0.701857540910964
30
0
41
1
10
58.8181129952669
20
-0.579427588445981
30
0
41
1
10
58.877550180638
20
-0.484162995206361
30
0
41
1
10
58.9098333061019
20
-0.4152670625528
30
0
41
1
10
58.918135028126
20
-0.395947905459622
30
0
0
SPLINE
5
178
100
AcDbEntity
8
1
62
256
6
ByLayer
370
18
48
1
60
0
100
AcDbSpline
70
4
71
3
72
8
73
4
40
0
40
0
40
0
40
0
40
1
40
1
40
1
40
1
41
1
10
58.999218062617
20
0.0333124182893414
30
0
41
1
10
58.9992523037685
20
0.0320754140824988
30
0
41
1
10
58.9992863248426
20
0.0308384019971015
30
0
41
1
10
58.9993201262871
20
0.0296013833681172
30
0
0
SPLINE
5
179
100
AcDbEntity
8
1
62
256
6
ByLayer
370
18
48
1
60
0
100
AcDbSpline
70
4
71
3
72
8
73
4
40
0
40
0
40
0
40
0
40
1
40
1
40
1
40
1
41
1
10
58.918135028126
20
-0.395947905459622
30
0
41
1
10
58.932822490121
20
-0.361638798794502
30
0
41
1
10
58.9455437710998
20
-0.326528466620204
30
0
41
1
10
58.9563322874274
20
-0.290635117596423
30
0
0
SPLINE
5
17A
100
AcDbEntity
8
1
62
256
6
ByLayer
370
18
48
1
60
0
100
AcDbSpline
70
4
71
3
72
23
73
19
40
0
40
0
40
0
40
0
40
0.124999999999946
40
0.124999999999946
40
0.187499999999942
40
0.187499999999942
40
0.249999999999937
40
0.249999999999937
40
0.374999999999928
40
0.499999999999918
40
0.499999999999918
40
0.562499999999932
40
0.562499999999932
40
0.624999999999946
40
0.624999999999946
40
0.749999999999974
40
0.749999999999974
40
1
40
1
40
1
40
1
41
1
10
58.4095659952998
20
-0.875596869409861
30
0
41
1
10
58.4365932709695
20
-0.867332913583056
30
0
41
1
10
58.4632302257758
20
-0.857416376689002
30
0
41
1
10
58.5026048490899
20
-0.840052582849722
30
0
41
1
10
58.515632952419
20
-0.833849251472174
30
0
41
1
10
58.5414915443217
20
-0.820591575863943
30
0
41
1
10
58.5543538585895
20
-0.813516305599933
30
0
41
1
10
58.592187960775
20
-0.791233774196968
30
0
41
1
10
58.6408535791572
20
-0.758602113828687
30
0
41
1
10
58.6861883419122
20
-0.720376213757845
30
0
41
1
10
58.7189341000318
20
-0.689563074256085
30
0
41
1
10
58.7296390311792
20
-0.678933130227392
30
0
41
1
10
58.7506169731916
20
-0.656931396151464
30
0
41
1
10
58.7609203674991
20
-0.645525904389274
30
0
41
1
10
58.790959467531
20
-0.610435114374297
30
0
41
1
10
58.8097361892565
20
-0.586000231018119
30
0
41
1
10
58.8624434633368
20
-0.509695718795172
30
0
41
1
10
58.8928089087494
20
-0.454871024429821
30
0
41
1
10
58.9181350281261
20
-0.395947905459167
30
0
0
SPLINE
5
17B
100
AcDbEntity
8
1
62
256
6
ByLayer
370
18
48
1
60
0
100
AcDbSpline
70
4
71
3
72
8
73
4
40
0
40
0
40
0
40
0
40
1
40
1
40
1
40
1
41
1
10
57.4270000000001
20
0.79222281528925
30
0
41
1
10
57.3974377813091
20
0.803238404735026
30
0
41
1
10
57.3679122369098
20
0.814346331999019
30
0
41
1
10
57.3384233134484
20
0.825546462748434
30
0
0
SPLINE
5
17C
100
AcDbEntity
8
1
62
256
6
ByLayer
370
18
48
1
60
0
100
AcDbSpline
70
4
71
3
72
12
73
8
40
0
40
0
40
0
40
0
40
0.5
40
0.5
40
0.75
40
0.75
40
1
40
1
40
1
40
1
41
1
10
57.3384233134484
20
0.825546462748463
30
0
41
1
10
57.3231423875977
20
0.819271056818991
30
0
41
1
10
57.3064768981238
20
0.814422840671284
30
0
41
1
10
57.278925041065
20
0.809782756943207
30
0
41
1
10
57.2692449869935
20
0.808679173463105
30
0
41
1
10
57.2490820905434
20
0.807626497722197
30
0
41
1
10
57.2386876659285
20
0.807674322851284
30
0
41
1
10
57.2279045455111
20
0.808435220132111
30
0
0
SPLINE
5
17D
100
AcDbEntity
8
1
62
256
6
ByLayer
370
18
48
1
60
0
100
AcDbSpline
70
4
71
3
72
10
73
6
40
0
40
0
40
0
40
0
40
0.597771448077999
40
0.597771448077999
40
1
40
1
40
1
40
1
41
1
10
58.980726881611
20
0.0499557497107332
30
0
41
1
10
58.983287050643
20
0.0460257957980161
30
0
41
1
10
58.9851507939338
20
0.0429369010074367
30
0
41
1
10
58.9872086527245
20
0.0384823251043258
30
0
41
1
10
58.9877487143684
20
0.0368881507675951
30
0
41
1
10
58.9880121095424
20
0.0354194386472386
30
0
0
SPLINE
5
17E
100
AcDbEntity
8
1
62
256
6
ByLayer
370
18
48
1
60
0
100
AcDbSpline
70
4
71
3
72
17
73
13
40
0
40
0
40
0
40
0
40
0.147322098256721
40
0.317857678605385
40
0.317857678605385
40
0.403125468779717
40
0.403125468779717
40
0.488393258954049
40
0.488393258954049
40
0.658928839302713
40
0.658928839302713
40
1
40
1
40
1
40
1
41
1
10
58.5772159375671
20
0.799941507258865
30
0
41
1
10
58.5987969465514
20
0.78676600448577
30
0
41
1
10
58.6439390869361
20
0.756000438983364
30
0
41
1
10
58.6861883419512
20
0.720376213723625
30
0
41
1
10
58.7189341000643
20
0.689563074224537
30
0
41
1
10
58.7296390312094
20
0.678933130196924
30
0
41
1
10
58.7506169732178
20
0.656931396123127
30
0
41
1
10
58.7609203675234
20
0.645525904361961
30
0
41
1
10
58.7909594675489
20
0.610435114351617
30
0
41
1
10
58.8097361892708
20
0.586000230998735
30
0
41
1
10
58.862443463341
20
0.509695718787071
30
0
41
1
10
58.8928089087485
20
0.454871024430531
30
0
41
1
10
58.9181350281216
20
0.395947905469626
30
0
0
SPLINE
5
17F
100
AcDbEntity
8
1
62
256
6
ByLayer
370
18
48
1
60
0
100
AcDbSpline
70
4
71
3
72
8
73
4
40
0
40
0
40
0
40
0
40
1
40
1
40
1
40
1
41
1
10
58.9181350281214
20
0.395947905470194
30
0
41
1
10
58.9328224901204
20
0.361638798796719
30
0
41
1
10
58.9455437711022
20
0.32652846661361
30
0
41
1
10
58.9563322874319
20
0.290635117580621
30
0
0
SPLINE
5
180
100
AcDbEntity
8
1
62
256
6
ByLayer
370
18
48
1
60
0
100
AcDbSpline
70
4
71
3
72
9
73
5
40
0
40
0
40
0
40
0
40
0.106562650410033
40
1
40
1
40
1
40
1
41
1
10
58.8879899064338
20
0.459610845342922
30
0
41
1
10
58.8891405038215
20
0.457395033869716
30
0
41
1
10
58.8998590382816
20
0.436553306500002
30
0
41
1
10
58.9098333060991
20
0.415267062558485
30
0
41
1
10
58.9181350281211
20
0.39594790547082
30
0
0
SPLINE
5
181
100
AcDbEntity
8
1
62
256
6
ByLayer
370
18
48
1
60
0
100
AcDbSpline
70
4
71
3
72
8
73
4
40
0
40
0
40
0
40
0
40
1
40
1
40
1
40
1
41
1
10
58.9993201260588
20
0.0296013831414541
30
0
41
1
10
58.9975766100574
20
0.0201741601840126
30
0
41
1
10
58.9958196299969
20
0.0107491789599408
30
0
41
1
10
58.994049171796
20
0.0013264980764234
30
0
0
SPLINE
5
182
100
AcDbEntity
8
1
62
256
6
ByLayer
370
18
48
1
60
0
100
AcDbSpline
70
4
71
2
72
6
73
3
40
0
40
0
40
0
40
1
40
1
40
1
41
1
10
58.9853543638597
20
-0.0504620078212099
30
0
41
1
10
58.9868631388493
20
-0.0419089491273326
30
0
41
1
10
58.9883750309919
20
-0.0333556578885634
30
0
0
SPLINE
5
183
100
AcDbEntity
8
1
62
256
6
ByLayer
370
18
48
1
60
0
100
AcDbSpline
70
4
71
2
72
6
73
3
40
0
40
0
40
0
40
1
40
1
40
1
41
1
10
58.9942684287344
20
8.05310149303E-05
30
0
41
1
10
58.9897978776968
20
0.0252722779594023
30
0
41
1
10
58.9853543638873
20
0.0504620078803271
30
0
0
SPLINE
5
184
100
AcDbEntity
8
1
62
256
6
ByLayer
370
18
48
1
60
0
100
AcDbSpline
70
4
71
1
72
4
73
2
40
0
40
0
40
1
40
1
41
1
10
58.4055831905634
20
0.648730957472338
30
0
41
1
10
58.2395543418126
20
0.679146917504625
30
0
0
LINE
5
7F
100
AcDbEntity
8
80
62
256
6
ByLayer
370
18
48
1
60
0
100
AcDbLine
10
0
20
0
30
0
11
-3
21
0
31
0
39
0
210
0
220
0
230
1
0
LINE
5
80
100
AcDbEntity
8
81
62
256
6
ByLayer
370
18
48
1
60
0
100
AcDbLine
10
59
20
0
30
0
11
62
21
0
31
0
39
0
210
0
220
0
230
1
0
LINE
5
81
100
AcDbEntity
8
4
62
256
6
ByLayer
370
18
48
0.05
60
0
100
AcDbLine
10
0
20
0
30
0
11
62
21
0
31
0
39
0
210
0
220
0
230
1
0
LINE
5
83
100
AcDbEntity
8
SK4
62
256
6
ByLayer
370
18
48
0.05
60
0
100
AcDbLine
10
-39
20
0
30
0
11
62
21
0
31
0
39
0
210
0
220
0
230
1
0
LINE
5
85
100
AcDbEntity
8
81
62
256
6
ByLayer
370
13
48
1
60
0
100
AcDbLine
10
-36
20
0
30
0
11
-36
21
-0.9888
31
0
39
0
210
0
220
0
230
1
0
LINE
5
86
100
AcDbEntity
8
81
62
256
6
ByLayer
370
18
48
1
60
0
100
AcDbLine
10
-36.9888
20
0
30
0
11
-37.5618
21
0
31
0
39
0
210
0
220
0
230
1
0
LINE
5
87
100
AcDbEntity
8
81
62
256
6
ByLayer
370
13
48
1
60
0
100
AcDbLine
10
-36
20
-0.9888
30
0
11
-36
21
-0.805851
31
0
39
0
210
0
220
0
230
1
0
LINE
5
88
100
AcDbEntity
8
81
62
256
6
ByLayer
370
18
48
1
60
0
100
AcDbLine
10
58.9888
20
0
30
0
11
58
21
0
31
0
39
0
210
0
220
0
230
1
0
LINE
5
89
100
AcDbEntity
8
81
62
256
6
ByLayer
370
18
48
1
60
0
100
AcDbLine
10
-38.357785
20
0
30
0
11
-37.988731
21
0
31
0
39
0
210
0
220
0
230
1
0
LINE
5
8A
100
AcDbEntity
8
81
62
256
6
ByLayer
370
18
48
1
60
0
100
AcDbLine
10
-36
20
-1.562561
30
0
11
-36
21
-1.5618
31
0
39
0
210
0
220
0
230
1
0
LINE
5
8B
100
AcDbEntity
8
81
62
256
6
ByLayer
370
13
48
1
60
0
100
AcDbLine
10
-36
20
-0.758763
30
0
11
-36
21
-0.805203
31
0
39
0
210
0
220
0
230
1
0
LINE
5
8C
100
AcDbEntity
8
81
62
256
6
ByLayer
370
18
48
1
60
0
100
AcDbLine
10
-37.688731
20
0
30
0
11
-37.562561
21
0
31
0
39
0
210
0
220
0
230
1
0
LINE
5
8D
100
AcDbEntity
8
81
62
256
6
ByLayer
370
18
48
1
60
0
100
AcDbLine
10
-36
20
0
30
0
11
-36.9888
21
0
31
0
39
0
210
0
220
0
230
1
0
LINE
5
8E
100
AcDbEntity
8
81
62
256
6
ByLayer
370
18
48
1
60
0
100
AcDbLine
10
56.631015
20
0
30
0
11
57.000069
21
0
31
0
39
0
210
0
220
0
230
1
0
LINE
5
8F
100
AcDbEntity
8
81
62
256
6
ByLayer
370
18
48
1
60
0
100
AcDbLine
10
-36
20
-1.688731
30
0
11
-36
21
-1.988731
31
0
39
0
210
0
220
0
230
1
0
LINE
5
90
100
AcDbEntity
8
81
62
256
6
ByLayer
370
13
48
1
60
0
100
AcDbLine
10
-36
20
-0.805203
30
0
11
-36
21
-0.805851
31
0
39
0
210
0
220
0
230
1
0
LINE
5
91
100
AcDbEntity
8
81
62
256
6
ByLayer
370
13
48
1
60
0
100
AcDbLine
10
-36
20
-0.819555
30
0
11
-36
21
-0.758763
31
0
39
0
210
0
220
0
230
1
0
LINE
5
92
100
AcDbEntity
8
81
62
256
6
ByLayer
370
18
48
1
60
0
100
AcDbLine
10
-36
20
0
30
0
11
-36
21
-0.9888
31
0
39
0
210
0
220
0
230
1
0
LINE
5
93
100
AcDbEntity
8
81
62
256
6
ByLayer
370
18
48
1
60
0
100
AcDbLine
10
-36.9888
20
0
30
0
11
-37.5618
21
0
31
0
39
0
210
0
220
0
230
1
0
LINE
5
94
100
AcDbEntity
8
81
62
256
6
ByLayer
370
18
48
1
60
0
100
AcDbLine
10
57.300069
20
0
30
0
11
57.426239
21
0
31
0
39
0
210
0
220
0
230
1
0
LINE
5
95
100
AcDbEntity
8
81
62
256
6
ByLayer
370
18
48
1
60
0
100
AcDbLine
10
-37.562561
20
0
30
0
11
-37.5618
21
0
31
0
39
0
210
0
220
0
230
1
0
LINE
5
96
100
AcDbEntity
8
81
62
256
6
ByLayer
370
18
48
1
60
0
100
AcDbLine
10
57.300069
20
0
30
0
11
57.000069
21
0
31
0
39
0
210
0
220
0
230
1
0
LINE
5
97
100
AcDbEntity
8
81
62
256
6
ByLayer
370
18
48
1
60
0
100
AcDbLine
10
-36
20
0
30
0
11
-36
21
0.9888
31
0
39
0
210
0
220
0
230
1
0
LINE
5
98
100
AcDbEntity
8
81
62
256
6
ByLayer
370
18
48
1
60
0
100
AcDbLine
10
-36
20
-0.9888
30
0
11
-36
21
-1.5618
31
0
39
0
210
0
220
0
230
1
0
LINE
5
99
100
AcDbEntity
8
81
62
256
6
ByLayer
370
18
48
1
60
0
100
AcDbLine
10
-38.357785
20
0
30
0
11
-37.988731
21
0
31
0
39
0
210
0
220
0
230
1
0
LINE
5
9A
100
AcDbEntity
8
81
62
256
6
ByLayer
370
18
48
1
60
0
100
AcDbLine
10
58
20
0
30
0
11
57.427
21
0
31
0
39
0
210
0
220
0
230
1
0
LINE
5
9B
100
AcDbEntity
8
81
62
256
6
ByLayer
370
18
48
1
60
0
100
AcDbLine
10
-37.688731
20
0
30
0
11
-37.988731
21
0
31
0
39
0
210
0
220
0
230
1
0
LINE
5
9C
100
AcDbEntity
8
81
62
256
6
ByLayer
370
18
48
1
60
0
100
AcDbLine
10
57.426239
20
0
30
0
11
57.427
21
0
31
0
39
0
210
0
220
0
230
1
0
LINE
5
9D
100
AcDbEntity
8
81
62
256
6
ByLayer
370
18
48
1
60
0
100
AcDbLine
10
-36
20
0.9888
30
0
11
-36
21
0.805851
31
0
39
0
210
0
220
0
230
1
0
LINE
5
9E
100
AcDbEntity
8
81
62
256
6
ByLayer
370
18
48
1
60
0
100
AcDbLine
10
-36
20
-2.357785
30
0
11
-36
21
-1.988731
31
0
39
0
210
0
220
0
230
1
0
LINE
5
9F
100
AcDbEntity
8
81
62
256
6
ByLayer
370
18
48
1
60
0
100
AcDbLine
10
-37.688731
20
0
30
0
11
-37.562561
21
0
31
0
39
0
210
0
220
0
230
1
0
LINE
5
A0
100
AcDbEntity
8
81
62
256
6
ByLayer
370
18
48
1
60
0
100
AcDbLine
10
-36
20
0.805203
30
0
11
-36
21
0.805851
31
0
39
0
210
0
220
0
230
1
0
LINE
5
A1
100
AcDbEntity
8
81
62
256
6
ByLayer
370
18
48
1
60
0
100
AcDbLine
10
-37.688731
20
0
30
0
11
-37.988731
21
0
31
0
39
0
210
0
220
0
230
1
0
LINE
5
A2
100
AcDbEntity
8
81
62
256
6
ByLayer
370
18
48
1
60
0
100
AcDbLine
10
-36
20
0.819555
30
0
11
-36
21
0.758763
31
0
39
0
210
0
220
0
230
1
0
LINE
5
A3
100
AcDbEntity
8
81
62
256
6
ByLayer
370
18
48
1
60
0
100
AcDbLine
10
-36
20
-1.688731
30
0
11
-36
21
-1.562561
31
0
39
0
210
0
220
0
230
1
0
LINE
5
A4
100
AcDbEntity
8
81
62
256
6
ByLayer
370
18
48
1
60
0
100
AcDbLine
10
-36
20
0
30
0
11
-36.9888
21
0
31
0
39
0
210
0
220
0
230
1
0
LINE
5
A5
100
AcDbEntity
8
81
62
256
6
ByLayer
370
18
48
1
60
0
100
AcDbLine
10
-37.562561
20
0
30
0
11
-37.5618
21
0
31
0
39
0
210
0
220
0
230
1
0
LINE
5
A6
100
AcDbEntity
8
81
62
256
6
ByLayer
370
18
48
1
60
0
100
AcDbLine
10
-36
20
0.758763
30
0
11
-36
21
0.805203
31
0
39
0
210
0
220
0
230
1
0
LINE
5
A7
100
AcDbEntity
8
1
62
256
6
ByLayer
370
18
48
1
60
0
100
AcDbLine
10
0
20
-3
30
0
11
0
21
3
31
0
39
0
210
0
220
0
230
1
0
LINE
5
A8
100
AcDbEntity
8
1
62
256
6
ByLayer
370
18
48
1
60
0
100
AcDbLine
10
58.935604
20
0.232445
30
0
11
58.92962
21
0.219125
31
0
39
0
210
0
220
0
230
1
0
LINE
5
A9
100
AcDbEntity
8
1
62
256
6
ByLayer
370
18
48
1
60
0
100
AcDbLine
10
58.988012
20
-0.035419
30
0
11
58.988201
21
-0.033358
31
0
39
0
210
0
220
0
230
1
0
LINE
5
AA
100
AcDbEntity
8
1
62
256
6
ByLayer
370
18
48
1
60
0
100
AcDbLine
10
57.40118
20
0.670443
30
0
11
57.483831
21
0.769645
31
0
39
0
210
0
220
0
230
1
0
LINE
5
AB
100
AcDbEntity
8
1
62
256
6
ByLayer
370
18
48
1
60
0
100
AcDbLine
10
57.452998
20
0.691848
30
0
11
57.40118
21
0.670443
31
0
39
0
210
0
220
0
230
1
0
LINE
5
AC
100
AcDbEntity
8
1
62
256
6
ByLayer
370
18
48
1
60
0
100
AcDbLine
10
57.377133
20
0.625252
30
0
11
57.40118
21
0.670443
31
0
39
0
210
0
220
0
230
1
0
LINE
5
AD
100
AcDbEntity
8
1
62
256
6
ByLayer
370
18
48
1
60
0
100
AcDbLine
10
57.428951
20
0.646657
30
0
11
57.377133
21
0.625252
31
0
39
0
210
0
220
0
230
1
0
LINE
5
AE
100
AcDbEntity
8
1
62
256
6
ByLayer
370
18
48
1
60
0
100
AcDbLine
10
57.372376
20
0.606165
30
0
11
57.377133
21
0.625252
31
0
39
0
210
0
220
0
230
1
0
LINE
5
AF
100
AcDbEntity
8
1
62
256
6
ByLayer
370
18
48
1
60
0
100
AcDbLine
10
56.993274
20
-0.800755
30
0
11
57.427
21
-0.769676
31
0
39
0
210
0
220
0
230
1
0
LINE
5
B0
100
AcDbEntity
8
1
62
256
6
ByLayer
370
18
48
1
60
0
100
AcDbLine
10
57.427
20
-0.769676
30
0
11
57.427
21
-0.57595
31
0
39
0
210
0
220
0
230
1
0
LINE
5
B1
100
AcDbEntity
8
1
62
256
6
ByLayer
370
18
48
1
60
0
100
AcDbLine
10
57.427
20
-0.57595
30
0
11
57.427
21
-0.548897
31
0
39
0
210
0
220
0
230
1
0
LINE
5
B2
100
AcDbEntity
8
1
62
256
6
ByLayer
370
18
48
1
60
0
100
AcDbLine
10
57.427
20
0.340754
30
0
11
57.427
21
0.346748
31
0
39
0
210
0
220
0
230
1
0
LINE
5
B3
100
AcDbEntity
8
1
62
256
6
ByLayer
370
18
48
1
60
0
100
AcDbLine
10
57.373077
20
-0.525289
30
0
11
57.377133
21
-0.510365
31
0
39
0
210
0
220
0
230
1
0
LINE
5
B4
100
AcDbEntity
8
1
62
256
6
ByLayer
370
18
48
1
60
0
100
AcDbLine
10
57.428951
20
-0.546473
30
0
11
57.377133
21
-0.510365
31
0
39
0
210
0
220
0
230
1
0
LINE
5
B5
100
AcDbEntity
8
1
62
256
6
ByLayer
370
18
48
1
60
0
100
AcDbLine
10
58.868418
20
-0.18404
30
0
11
58.885353
21
-0.218397
31
0
39
0
210
0
220
0
230
1
0
LINE
5
B6
100
AcDbEntity
8
1
62
256
6
ByLayer
370
18
48
1
60
0
100
AcDbLine
10
57.377133
20
-0.510365
30
0
11
57.40118
21
-0.449887
31
0
39
0
210
0
220
0
230
1
0
LINE
5
B7
100
AcDbEntity
8
1
62
256
6
ByLayer
370
18
48
1
60
0
100
AcDbLine
10
57.427
20
-0.544726
30
0
11
57.427
21
-0.548897
31
0
39
0
210
0
220
0
230
1
0
LINE
5
B8
100
AcDbEntity
8
1
62
256
6
ByLayer
370
18
48
1
60
0
100
AcDbLine
10
57.452998
20
-0.485995
30
0
11
57.40118
21
-0.449887
31
0
39
0
210
0
220
0
230
1
0
LINE
5
B9
100
AcDbEntity
8
1
62
256
6
ByLayer
370
18
48
1
60
0
100
AcDbLine
10
57.40118
20
-0.449887
30
0
11
57.483831
21
-0.272639
31
0
39
0
210
0
220
0
230
1
0
LINE
5
BA
100
AcDbEntity
8
1
62
256
6
ByLayer
370
18
48
1
60
0
100
AcDbLine
10
57.427
20
-0.043057
30
0
11
57.427
21
0.340754
31
0
39
0
210
0
220
0
230
1
0
LINE
5
BB
100
AcDbEntity
8
1
62
256
6
ByLayer
370
18
48
1
60
0
100
AcDbLine
10
57.427
20
-0.176992
30
0
11
57.427
21
-0.043057
31
0
39
0
210
0
220
0
230
1
0
LINE
5
BC
100
AcDbEntity
8
1
62
256
6
ByLayer
370
18
48
1
60
0
100
AcDbLine
10
57.033716
20
0.125098
30
0
11
57.427
21
-0.043057
31
0
39
0
210
0
220
0
230
1
0
LINE
5
BD
100
AcDbEntity
8
1
62
256
6
ByLayer
370
18
48
1
60
0
100
AcDbLine
10
57.427
20
-0.22917
30
0
11
57.427
21
-0.176992
31
0
39
0
210
0
220
0
230
1
0
LINE
5
BE
100
AcDbEntity
8
1
62
256
6
ByLayer
370
18
48
1
60
0
100
AcDbLine
10
57.427
20
-0.22917
30
0
11
57.427
21
-0.26964
31
0
39
0
210
0
220
0
230
1
0
LINE
5
BF
100
AcDbEntity
8
1
62
256
6
ByLayer
370
18
48
1
60
0
100
AcDbLine
10
57.427
20
0.346748
30
0
11
57.427
21
0.645605
31
0
39
0
210
0
220
0
230
1
0
LINE
5
C0
100
AcDbEntity
8
1
62
256
6
ByLayer
370
18
48
1
60
0
100
AcDbLine
10
58.996473
20
-0.033238
30
0
11
58.999218
21
-0.033312
31
0
39
0
210
0
220
0
230
1
0
LINE
5
C1
100
AcDbEntity
8
1
62
256
6
ByLayer
370
18
48
1
60
0
100
AcDbLine
10
58.996473
20
0.033238
30
0
11
58.999218
21
0.033312
31
0
39
0
210
0
220
0
230
1
0
LINE
5
C2
100
AcDbEntity
8
1
62
256
6
ByLayer
370
18
48
1
60
0
100
AcDbLine
10
58.993827
20
-0.000146
30
0
11
58.99428
21
2E-06
31
0
39
0
210
0
220
0
230
1
0
LINE
5
C3
100
AcDbEntity
8
1
62
256
6
ByLayer
370
18
48
1
60
0
100
AcDbLine
10
28.955082
20
-3
30
0
11
28.955082
21
3
31
0
39
0
210
0
220
0
230
1
0
LINE
5
C4
100
AcDbEntity
8
81
62
256
6
ByLayer
370
18
48
1
60
0
100
AcDbLine
10
56.631015
20
0.819555
30
0
11
56.631015
21
0.818992
31
0
39
0
210
0
220
0
230
1
0
LINE
5
C5
100
AcDbEntity
8
81
62
256
6
ByLayer
370
18
48
1
60
0
100
AcDbLine
10
56.631015
20
-0.818992
30
0
11
56.631015
21
-0.819555
31
0
39
0
210
0
220
0
230
1
0
LINE
5
C6
100
AcDbEntity
8
81
62
256
6
ByLayer
370
18
48
1
60
0
100
AcDbLine
10
57.426239
20
-0.805203
30
0
11
57.427
21
-0.805851
31
0
39
0
210
0
220
0
230
1
0
LINE
5
C7
100
AcDbEntity
8
81
62
256
6
ByLayer
370
18
48
1
60
0
100
AcDbLine
10
57.427
20
0.805851
30
0
11
57.426239
21
0.805203
31
0
39
0
210
0
220
0
230
1
0
LINE
5
C8
100
AcDbEntity
8
SK1
62
256
6
ByLayer
370
18
48
1
60
0
100
AcDbLine
10
-36
20
2.6
30
0
11
-36
21
-2.6
31
0
39
0
210
0
220
0
230
1
0
LINE
5
CA
100
AcDbEntity
8
SK1
62
256
6
ByLayer
370
18
48
1
60
0
100
AcDbLine
10
0
20
-3
30
0
11
0
21
3
31
0
39
0
210
0
220
0
230
1
0
LINE
5
CB
100
AcDbEntity
8
SK1
62
256
6
ByLayer
370
18
48
1
60
0
100
AcDbLine
10
-35.6
20
3
30
0
11
-35.6
21
-3
31
0
39
0
210
0
220
0
230
1
0
LINE
5
CC
100
AcDbEntity
8
1
62
256
6
ByLayer
370
18
48
1
60
0
100
AcDbLine
10
58.994047
20
-0.001327
30
0
11
58.994268
21
-8.1E-05
31
0
39
0
210
0
220
0
230
1
0
LINE
5
CD
100
AcDbEntity
8
1
62
256
6
ByLayer
370
18
48
1
60
0
100
AcDbLine
10
28.955082
20
3
30
0
11
0
21
3
31
0
39
0
210
0
220
0
230
1
0
LINE
5
CE
100
AcDbEntity
8
1
62
256
6
ByLayer
370
18
48
1
60
0
100
AcDbLine
10
0
20
-3
30
0
11
28.955082
21
-3
31
0
39
0
210
0
220
0
230
1
0
LINE
5
CF
100
AcDbEntity
8
1
62
256
6
ByLayer
370
18
48
1
60
0
100
AcDbLine
10
56.953136
20
0.819
30
0
11
53.99862
21
0.819
31
0
39
0
210
0
220
0
230
1
0
LINE
5
D0
100
AcDbEntity
8
1
62
256
6
ByLayer
370
18
48
1
60
0
100
AcDbLine
10
53.99862
20
-0.819
30
0
11
56.953136
21
-0.819
31
0
39
0
210
0
220
0
230
1
0
LINE
5
D1
100
AcDbEntity
8
1
62
256
6
ByLayer
370
18
48
1
60
0
100
AcDbLine
10
53.91171
20
0.822784
30
0
11
28.955082
21
3
31
0
39
0
210
0
220
0
230
1
0
LINE
5
D2
100
AcDbEntity
8
1
62
256
6
ByLayer
370
18
48
1
60
0
100
AcDbLine
10
28.955082
20
-3
30
0
11
53.91171
21
-0.822784
31
0
39
0
210
0
220
0
230
1
0
LINE
5
D3
100
AcDbEntity
8
SK1
62
256
6
ByLayer
370
18
48
1
60
0
100
AcDbLine
10
-36
20
-2.6
30
0
11
-35.6
21
-3
31
0
39
0
210
0
220
0
230
1
0
LINE
5
D4
100
AcDbEntity
8
SK1
62
256
6
ByLayer
370
18
48
1
60
0
100
AcDbLine
10
-35.6
20
3
30
0
11
-36
21
2.6
31
0
39
0
210
0
220
0
230
1
0
LINE
5
D5
100
AcDbEntity
8
SK1
62
256
6
ByLayer
370
18
48
1
60
0
100
AcDbLine
10
0
20
3
30
0
11
-35.6
21
3
31
0
39
0
210
0
220
0
230
1
0
LINE
5
D6
100
AcDbEntity
8
SK1
62
256
6
ByLayer
370
18
48
1
60
0
100
AcDbLine
10
-35.6
20
-3
30
0
11
0
21
-3
31
0
39
0
210
0
220
0
230
1
0
LINE
5
D7
100
AcDbEntity
8
SK2
62
256
6
ByLayer
370
13
48
1
60
0
100
AcDbLine
10
-42.5
20
-10.5
30
0
11
-42.5
21
21.133313
31
0
39
0
210
0
220
0
230
1
0
LINE
5
D9
100
AcDbEntity
8
SK2
62
256
6
ByLayer
370
13
48
1
60
0
100
AcDbLine
10
-37.5875
20
-3
30
0
11
-44.5
21
-3
31
0
39
0
210
0
220
0
230
1
0
LINE
5
DA
100
AcDbEntity
8
SK2
62
256
6
ByLayer
370
13
48
1
60
0
100
AcDbLine
10
-37.5875
20
3
30
0
11
-44.5
21
3
31
0
39
0
210
0
220
0
230
1
0
LINE
5
DB
100
AcDbEntity
8
1
62
256
6
ByLayer
370
18
48
1
60
1
100
AcDbLine
10
-42.5
20
-3
30
0
11
-42.039216
21
-6.499998
31
0
39
0
210
0
220
0
230
1
0
LINE
5
DC
100
AcDbEntity
8
1
62
256
6
ByLayer
370
18
48
1
60
1
100
AcDbLine
10
-42.039216
20
-6.499998
30
0
11
-42.960784
21
-6.500002
31
0
39
0
210
0
220
0
230
1
0
LINE
5
DD
100
AcDbEntity
8
1
62
256
6
ByLayer
370
18
48
1
60
1
100
AcDbLine
10
-42.960784
20
-6.500002
30
0
11
-42.5
21
-3
31
0
39
0
210
0
220
0
230
1
0
LINE
5
DE
100
AcDbEntity
8
1
62
256
6
ByLayer
370
18
48
1
60
1
100
AcDbLine
10
-42.5
20
3
30
0
11
-42.960784
21
6.499998
31
0
39
0
210
0
220
0
230
1
0
LINE
5
DF
100
AcDbEntity
8
1
62
256
6
ByLayer
370
18
48
1
60
1
100
AcDbLine
10
-42.960784
20
6.499998
30
0
11
-42.039216
21
6.500002
31
0
39
0
210
0
220
0
230
1
0
LINE
5
E0
100
AcDbEntity
8
1
62
256
6
ByLayer
370
18
48
1
60
1
100
AcDbLine
10
-42.039216
20
6.500002
30
0
11
-42.5
21
3
31
0
39
0
210
0
220
0
230
1
0
LINE
5
E1
100
AcDbEntity
8
SK2
62
256
6
ByLayer
370
13
48
1
60
0
100
AcDbLine
10
58.5
20
-30.819555
30
0
11
58.5
21
8.319555
31
0
39
0
210
0
220
0
230
1
0
LINE
5
E2
100
AcDbEntity
8
SK2
62
256
6
ByLayer
370
13
48
1
60
0
100
AcDbLine
10
55.5875
20
-0.819555
30
0
11
60.5
21
-0.819555
31
0
39
0
210
0
220
0
230
1
0
LINE
5
E3
100
AcDbEntity
8
SK2
62
256
6
ByLayer
370
13
48
1
60
0
100
AcDbLine
10
55.5875
20
0.819555
30
0
11
60.5
21
0.819555
31
0
39
0
210
0
220
0
230
1
0
LINE
5
E4
100
AcDbEntity
8
1
62
256
6
ByLayer
370
18
48
1
60
1
100
AcDbLine
10
58.5
20
-0.819555
30
0
11
58.960784
21
-4.319554
31
0
39
0
210
0
220
0
230
1
0
LINE
5
E5
100
AcDbEntity
8
1
62
256
6
ByLayer
370
18
48
1
60
1
100
AcDbLine
10
58.960784
20
-4.319554
30
0
11
58.039216
21
-4.319557
31
0
39
0
210
0
220
0
230
1
0
LINE
5
E6
100
AcDbEntity
8
1
62
256
6
ByLayer
370
18
48
1
60
1
100
AcDbLine
10
58.039216
20
-4.319557
30
0
11
58.5
21
-0.819555
31
0
39
0
210
0
220
0
230
1
0
LINE
5
E7
100
AcDbEntity
8
1
62
256
6
ByLayer
370
18
48
1
60
1
100
AcDbLine
10
58.5
20
0.819555
30
0
11
58.039216
21
4.319554
31
0
39
0
210
0
220
0
230
1
0
LINE
5
E8
100
AcDbEntity
8
1
62
256
6
ByLayer
370
18
48
1
60
1
100
AcDbLine
10
58.039216
20
4.319554
30
0
11
58.960784
21
4.319557
31
0
39
0
210
0
220
0
230
1
0
LINE
5
E9
100
AcDbEntity
8
1
62
256
6
ByLayer
370
18
48
1
60
1
100
AcDbLine
10
58.960784
20
4.319557
30
0
11
58.5
21
0.819555
31
0
39
0
210
0
220
0
230
1
0
LINE
5
EA
100
AcDbEntity
8
2
62
256
6
ByLayer
370
13
48
1
60
0
100
AcDbLine
10
74.5
20
-8.5
30
0
11
74.5
21
17.272684
31
0
39
0
210
0
220
0
230
1
0
LINE
5
EC
100
AcDbEntity
8
2
62
256
6
ByLayer
370
13
48
1
60
0
100
AcDbLine
10
59.5875
20
-1
30
0
11
76.5
21
-1
31
0
39
0
210
0
220
0
230
1
0
LINE
5
ED
100
AcDbEntity
8
2
62
256
6
ByLayer
370
13
48
1
60
0
100
AcDbLine
10
59.5875
20
1
30
0
11
76.5
21
1
31
0
39
0
210
0
220
0
230
1
0
LINE
5
EE
100
AcDbEntity
8
1
62
256
6
ByLayer
370
18
48
1
60
1
100
AcDbLine
10
74.5
20
-1
30
0
11
74.960784
21
-4.499998
31
0
39
0
210
0
220
0
230
1
0
LINE
5
EF
100
AcDbEntity
8
1
62
256
6
ByLayer
370
18
48
1
60
1
100
AcDbLine
10
74.960784
20
-4.499998
30
0
11
74.039216
21
-4.500002
31
0
39
0
210
0
220
0
230
1
0
LINE
5
F0
100
AcDbEntity
8
1
62
256
6
ByLayer
370
18
48
1
60
1
100
AcDbLine
10
74.039216
20
-4.500002
30
0
11
74.5
21
-1
31
0
39
0
210
0
220
0
230
1
0
LINE
5
F1
100
AcDbEntity
8
1
62
256
6
ByLayer
370
18
48
1
60
1
100
AcDbLine
10
74.5
20
1
30
0
11
74.039216
21
4.499998
31
0
39
0
210
0
220
0
230
1
0
LINE
5
F2
100
AcDbEntity
8
1
62
256
6
ByLayer
370
18
48
1
60
1
100
AcDbLine
10
74.039216
20
4.499998
30
0
11
74.960784
21
4.500002
31
0
39
0
210
0
220
0
230
1
0
LINE
5
F3
100
AcDbEntity
8
1
62
256
6
ByLayer
370
18
48
1
60
1
100
AcDbLine
10
74.960784
20
4.500002
30
0
11
74.5
21
1
31
0
39
0
210
0
220
0
230
1
0
LINE
5
F4
100
AcDbEntity
8
SK2
62
256
6
ByLayer
370
13
48
1
60
0
100
AcDbLine
10
27.373565
20
3.137689
30
0
11
13.201734
21
4.371508
31
0
39
0
210
0
220
0
230
1
0
LINE
5
F5
100
AcDbEntity
8
SK2
62
256
6
ByLayer
370
13
48
1
60
0
100
AcDbLine
10
-34.4125
20
0
30
0
11
17.011798
21
0
31
0
39
0
210
0
220
0
230
1
0
LINE
5
F6
100
AcDbEntity
8
1
62
256
6
ByLayer
370
18
48
1
60
1
100
AcDbLine
10
15.194197
20
4.198041
30
0
11
15.102467
21
7.727049
31
0
39
0
210
0
220
0
230
1
0
LINE
5
F7
100
AcDbEntity
8
1
62
256
6
ByLayer
370
18
48
1
60
1
100
AcDbLine
10
15.102467
20
7.727049
30
0
11
16.018967
21
7.630546
31
0
39
0
210
0
220
0
230
1
0
LINE
5
F8
100
AcDbEntity
8
1
62
256
6
ByLayer
370
18
48
1
60
1
100
AcDbLine
10
16.018967
20
7.630546
30
0
11
15.194197
21
4.198041
31
0
39
0
210
0
220
0
230
1
0
LINE
5
F9
100
AcDbEntity
8
1
62
256
6
ByLayer
370
18
48
1
60
1
100
AcDbLine
10
15.011798
20
0
30
0
11
15.535748
21
-3.491101
31
0
39
0
210
0
220
0
230
1
0
LINE
5
FA
100
AcDbEntity
8
1
62
256
6
ByLayer
370
18
48
1
60
1
100
AcDbLine
10
15.535748
20
-3.491101
30
0
11
14.614331
21
-3.507756
31
0
39
0
210
0
220
0
230
1
0
LINE
5
FB
100
AcDbEntity
8
1
62
256
6
ByLayer
370
18
48
1
60
1
100
AcDbLine
10
14.614331
20
-3.507756
30
0
11
15.011798
21
0
31
0
39
0
210
0
220
0
230
1
0
LINE
5
189
100
AcDbEntity
8
1
62
256
6
ByLayer
370
18
48
1
60
1
100
AcDbLine
10
-42.5
20
-3
30
0
11
-42.039216
21
-6.499998
31
0
39
0
210
0
220
0
230
1
0
LINE
5
18A
100
AcDbEntity
8
1
62
256
6
ByLayer
370
18
48
1
60
1
100
AcDbLine
10
-42.039216
20
-6.499998
30
0
11
-42.960784
21
-6.500002
31
0
39
0
210
0
220
0
230
1
0
LINE
5
18B
100
AcDbEntity
8
1
62
256
6
ByLayer
370
18
48
1
60
1
100
AcDbLine
10
-42.960784
20
-6.500002
30
0
11
-42.5
21
-3
31
0
39
0
210
0
220
0
230
1
0
LINE
5
18D
100
AcDbEntity
8
1
62
256
6
ByLayer
370
18
48
1
60
1
100
AcDbLine
10
-42.5
20
3
30
0
11
-42.960784
21
6.499998
31
0
39
0
210
0
220
0
230
1
0
LINE
5
18E
100
AcDbEntity
8
1
62
256
6
ByLayer
370
18
48
1
60
1
100
AcDbLine
10
-42.960784
20
6.499998
30
0
11
-42.039216
21
6.500002
31
0
39
0
210
0
220
0
230
1
0
LINE
5
18F
100
AcDbEntity
8
1
62
256
6
ByLayer
370
18
48
1
60
1
100
AcDbLine
10
-42.039216
20
6.500002
30
0
11
-42.5
21
3
31
0
39
0
210
0
220
0
230
1
0
LINE
5
193
100
AcDbEntity
8
1
62
256
6
ByLayer
370
18
48
1
60
1
100
AcDbLine
10
58.5
20
-0.819555
30
0
11
58.960784
21
-4.319554
31
0
39
0
210
0
220
0
230
1
0
LINE
5
194
100
AcDbEntity
8
1
62
256
6
ByLayer
370
18
48
1
60
1
100
AcDbLine
10
58.960784
20
-4.319554
30
0
11
58.039216
21
-4.319557
31
0
39
0
210
0
220
0
230
1
0
LINE
5
195
100
AcDbEntity
8
1
62
256
6
ByLayer
370
18
48
1
60
1
100
AcDbLine
10
58.039216
20
-4.319557
30
0
11
58.5
21
-0.819555
31
0
39
0
210
0
220
0
230
1
0
LINE
5
197
100
AcDbEntity
8
1
62
256
6
ByLayer
370
18
48
1
60
1
100
AcDbLine
10
58.5
20
0.819555
30
0
11
58.039216
21
4.319554
31
0
39
0
210
0
220
0
230
1
0
LINE
5
198
100
AcDbEntity
8
1
62
256
6
ByLayer
370
18
48
1
60
1
100
AcDbLine
10
58.039216
20
4.319554
30
0
11
58.960784
21
4.319557
31
0
39
0
210
0
220
0
230
1
0
LINE
5
199
100
AcDbEntity
8
1
62
256
6
ByLayer
370
18
48
1
60
1
100
AcDbLine
10
58.960784
20
4.319557
30
0
11
58.5
21
0.819555
31
0
39
0
210
0
220
0
230
1
0
LINE
5
19D
100
AcDbEntity
8
1
62
256
6
ByLayer
370
18
48
1
60
1
100
AcDbLine
10
74.5
20
-1
30
0
11
74.960784
21
-4.499998
31
0
39
0
210
0
220
0
230
1
0
LINE
5
19E
100
AcDbEntity
8
1
62
256
6
ByLayer
370
18
48
1
60
1
100
AcDbLine
10
74.960784
20
-4.499998
30
0
11
74.039216
21
-4.500002
31
0
39
0
210
0
220
0
230
1
0
LINE
5
19F
100
AcDbEntity
8
1
62
256
6
ByLayer
370
18
48
1
60
1
100
AcDbLine
10
74.039216
20
-4.500002
30
0
11
74.5
21
-1
31
0
39
0
210
0
220
0
230
1
0
LINE
5
1A1
100
AcDbEntity
8
1
62
256
6
ByLayer
370
18
48
1
60
1
100
AcDbLine
10
74.5
20
1
30
0
11
74.039216
21
4.499998
31
0
39
0
210
0
220
0
230
1
0
LINE
5
1A2
100
AcDbEntity
8
1
62
256
6
ByLayer
370
18
48
1
60
1
100
AcDbLine
10
74.039216
20
4.499998
30
0
11
74.960784
21
4.500002
31
0
39
0
210
0
220
0
230
1
0
LINE
5
1A3
100
AcDbEntity
8
1
62
256
6
ByLayer
370
18
48
1
60
1
100
AcDbLine
10
74.960784
20
4.500002
30
0
11
74.5
21
1
31
0
39
0
210
0
220
0
230
1
0
LINE
5
1A6
100
AcDbEntity
8
1
62
256
6
ByLayer
370
18
48
1
60
1
100
AcDbLine
10
15.194197
20
4.198041
30
0
11
15.102467
21
7.727049
31
0
39
0
210
0
220
0
230
1
0
LINE
5
1A7
100
AcDbEntity
8
1
62
256
6
ByLayer
370
18
48
1
60
1
100
AcDbLine
10
15.102467
20
7.727049
30
0
11
16.018967
21
7.630546
31
0
39
0
210
0
220
0
230
1
0
LINE
5
1A8
100
AcDbEntity
8
1
62
256
6
ByLayer
370
18
48
1
60
1
100
AcDbLine
10
16.018967
20
7.630546
30
0
11
15.194197
21
4.198041
31
0
39
0
210
0
220
0
230
1
0
LINE
5
1AA
100
AcDbEntity
8
1
62
256
6
ByLayer
370
18
48
1
60
1
100
AcDbLine
10
15.011798
20
0
30
0
11
15.535748
21
-3.491101
31
0
39
0
210
0
220
0
230
1
0
LINE
5
1AB
100
AcDbEntity
8
1
62
256
6
ByLayer
370
18
48
1
60
1
100
AcDbLine
10
15.535748
20
-3.491101
30
0
11
14.614331
21
-3.507756
31
0
39
0
210
0
220
0
230
1
0
LINE
5
1AC
100
AcDbEntity
8
1
62
256
6
ByLayer
370
18
48
1
60
1
100
AcDbLine
10
14.614331
20
-3.507756
30
0
11
15.011798
21
0
31
0
39
0
210
0
220
0
230
1
0
MTEXT
5
185
100
AcDbEntity
8
SK2
62
256
6
ByLayer
370
18
48
1
60
0
100
AcDbMText
10
-43.841114
20
7.658437
30
0
210
0
220
0
230
1
1
%%c
40
3
41
0
44
1.084337
50
90
71
7
72
5
7
iso_b_vert
0
MTEXT
5
188
100
AcDbEntity
8
SK2
62
256
6
ByLayer
370
18
48
1
60
0
100
AcDbMText
10
-43.841114
20
13.635
30
0
210
0
220
0
230
1
1
\W0.6903;6 h6
40
3
41
0
44
1.084337
50
90
71
7
72
5
7
iso_b_vert
0
MTEXT
5
191
100
AcDbEntity
8
SK2
62
256
6
ByLayer
370
18
48
1
60
0
100
AcDbMText
10
57.158886
20
-29.161118
30
0
210
0
220
0
230
1
1
%%c
40
3
41
0
44
1.084337
50
90
71
7
72
5
7
iso_b_vert
0
MTEXT
5
192
100
AcDbEntity
8
SK2
62
256
6
ByLayer
370
18
48
1
60
0
100
AcDbMText
10
57.158886
20
-23.184555
30
0
210
0
220
0
230
1
1
\W0.6756;1.64
40
3
41
0
44
1.084337
50
90
71
7
72
5
7
iso_b_vert
0
MTEXT
5
19B
100
AcDbEntity
8
2
62
256
6
ByLayer
370
18
48
1
60
0
100
AcDbMText
10
73.158886
20
7.658437
30
0
210
0
220
0
230
1
1
%%c
40
3
41
0
44
1.084337
50
90
71
7
72
5
7
iso_b_vert
0
MTEXT
5
19C
100
AcDbEntity
8
2
62
256
6
ByLayer
370
18
48
1
60
0
100
AcDbMText
10
73.158886
20
13.635
30
0
210
0
220
0
230
1
1
\W0.5966;(2)
40
3
41
0
44
1.084337
50
90
71
7
72
5
7
iso_b_vert
0
MTEXT
5
1A5
100
AcDbEntity
8
SK2
62
256
6
ByLayer
370
18
48
1
60
0
100
AcDbMText
10
15.505508
20
10.789979
30
0
210
0
220
0
230
1
1
\W0.7635;(5%%d)
40
3
41
0
44
1.084337
50
74.1949933682854
71
7
72
5
7
iso_b_vert
0
MTEXT
5
1AE
100
AcDbEntity
8
SK6
62
256
6
ByLayer
370
18
48
1
60
0
100
AcDbMText
10
-14.280425
20
-42.114886
30
0
210
0
220
0
230
1
1
\W0.7705;2L484-0200-TI0600   T2CH
40
3
41
0
44
1.084337
50
0
71
7
72
5
7
iso_b_vert
0
HATCH
5
18C
100
AcDbEntity
8
SK2
62
256
6
ByLayer
370
13
48
1
60
0
100
AcDbHatch
10
0
20
0
30
0
210
0
220
0
230
1
2
ANSI31
70
0
71
0
91
1
92
5
93
3
72
1
10
-42.5
20
-3
11
-42.0392162584472
21
-6.49999830744682
72
1
10
-42.0392162584472
20
-6.49999830744682
11
-42.9607837415528
21
-6.50000169255318
72
1
10
-42.9607837415528
20
-6.50000169255318
11
-42.5
21
-3
97
0
75
0
76
1
52
0
41
0.0062
77
0
78
1
53
45
43
0
44
0
45
-0.0139193969876572
46
0.0139193969876572
79
0
47
0
98
1
10
0
20
0
0
HATCH
5
190
100
AcDbEntity
8
SK2
62
256
6
ByLayer
370
13
48
1
60
0
100
AcDbHatch
10
0
20
0
30
0
210
0
220
0
230
1
2
ANSI31
70
0
71
0
91
1
92
5
93
3
72
1
10
-42.5
20
3
11
-42.9607837415528
21
6.49999830744682
72
1
10
-42.9607837415528
20
6.49999830744682
11
-42.0392162584472
21
6.50000169255318
72
1
10
-42.0392162584472
20
6.50000169255318
11
-42.5
21
3
97
0
75
0
76
1
52
0
41
0.0062
77
0
78
1
53
45
43
0
44
0
45
-0.0139193969876572
46
0.0139193969876572
79
0
47
0
98
1
10
0
20
0
0
HATCH
5
196
100
AcDbEntity
8
SK2
62
256
6
ByLayer
370
13
48
1
60
0
100
AcDbHatch
10
0
20
0
30
0
210
0
220
0
230
1
2
ANSI31
70
0
71
0
91
1
92
5
93
3
72
1
10
58.5
20
-0.81955536725718
11
58.9607837415528
21
-4.319553674704
72
1
10
58.9607837415528
20
-4.319553674704
11
58.0392162584472
21
-4.31955705981036
72
1
10
58.0392162584472
20
-4.31955705981036
11
58.5
21
-0.81955536725718
97
0
75
0
76
1
52
0
41
0.0062
77
0
78
1
53
45
43
0
44
0
45
-0.0139193969876572
46
0.0139193969876572
79
0
47
0
98
1
10
0
20
0
0
HATCH
5
19A
100
AcDbEntity
8
SK2
62
256
6
ByLayer
370
13
48
1
60
0
100
AcDbHatch
10
0
20
0
30
0
210
0
220
0
230
1
2
ANSI31
70
0
71
0
91
1
92
5
93
3
72
1
10
58.5
20
0.819555367257124
11
58.0392162584472
21
4.31955367470394
72
1
10
58.0392162584472
20
4.31955367470394
11
58.9607837415528
21
4.31955705981031
72
1
10
58.9607837415528
20
4.31955705981031
11
58.5
21
0.819555367257124
97
0
75
0
76
1
52
0
41
0.0062
77
0
78
1
53
45
43
0
44
0
45
-0.0139193969876572
46
0.0139193969876572
79
0
47
0
98
1
10
0
20
0
0
HATCH
5
1A0
100
AcDbEntity
8
2
62
256
6
ByLayer
370
13
48
1
60
0
100
AcDbHatch
10
0
20
0
30
0
210
0
220
0
230
1
2
ANSI31
70
0
71
0
91
1
92
5
93
3
72
1
10
74.5
20
-1
11
74.9607837415528
21
-4.49999830744682
72
1
10
74.9607837415528
20
-4.49999830744682
11
74.0392162584472
21
-4.50000169255318
72
1
10
74.0392162584472
20
-4.50000169255318
11
74.5
21
-1
97
0
75
0
76
1
52
0
41
0.0062
77
0
78
1
53
45
43
0
44
0
45
-0.0139193969876572
46
0.0139193969876572
79
0
47
0
98
1
10
0
20
0
0
HATCH
5
1A4
100
AcDbEntity
8
2
62
256
6
ByLayer
370
13
48
1
60
0
100
AcDbHatch
10
0
20
0
30
0
210
0
220
0
230
1
2
ANSI31
70
0
71
0
91
1
92
5
93
3
72
1
10
74.5
20
1
11
74.0392162584472
21
4.49999830744682
72
1
10
74.0392162584472
20
4.49999830744682
11
74.9607837415528
21
4.50000169255318
72
1
10
74.9607837415528
20
4.50000169255318
11
74.5
21
1
97
0
75
0
76
1
52
0
41
0.0062
77
0
78
1
53
45
43
0
44
0
45
-0.0139193969876572
46
0.0139193969876572
79
0
47
0
98
1
10
0
20
0
0
HATCH
5
1A9
100
AcDbEntity
8
SK2
62
256
6
ByLayer
370
13
48
1
60
0
100
AcDbHatch
10
0
20
0
30
0
210
0
220
0
230
1
2
ANSI31
70
0
71
0
91
1
92
5
93
3
72
1
10
15.1941969672982
20
4.19804141707394
11
15.1024666737451
21
7.72704911922685
72
1
10
15.1024666737451
20
7.72704911922685
11
16.0189674954322
21
7.63054590800706
72
1
10
16.0189674954322
20
7.63054590800706
11
15.1941969672982
21
4.19804141707394
97
0
75
0
76
1
52
0
41
0.0062
77
0
78
1
53
45
43
0
44
0
45
-0.0139193969876572
46
0.0139193969876572
79
0
47
0
98
1
10
0
20
0
0
HATCH
5
1AD
100
AcDbEntity
8
SK2
62
256
6
ByLayer
370
13
48
1
60
0
100
AcDbHatch
10
0
20
0
30
0
210
0
220
0
230
1
2
ANSI31
70
0
71
0
91
1
92
5
93
3
72
1
10
15.0117983447533
20
0
11
15.5357483584551
21
-3.49110099993567
72
1
10
15.5357483584551
20
-3.49110099993567
11
14.6143313896487
21
-3.50775619505612
72
1
10
14.6143313896487
20
-3.50775619505612
11
15.0117983447533
21
0
97
0
75
0
76
1
52
0
41
0.0062
77
0
78
1
53
45
43
0
44
0
45
-0.0139193969876572
46
0.0139193969876572
79
0
47
0
98
1
10
0
20
0
0
DIMENSION
5
1B1
100
AcDbEntity
8
2
62
256
6
ByLayer
370
18
48
1
60
0
100
AcDbDimension
2
_U0
10
54
20
10.85
30
0
11
56.5
21
10.85
31
0
70
32
71
1
72
1
41
1
210
0
220
0
230
1
3
Standard
100
AcDbAlignedDimension
13
59
23
0
33
0
14
54
24
0.819555
34
0
50
0
100
AcDbRotatedDimension
1001
ACAD
1000
DSTYLE
1002
{
1070
   371
1070
    13
1070
   372
1070
    13
1070
     3
1000

1070
   170
1070
     0
1070
   144
1040
1.0
1070
   277
1070
     2
1070
   284
1070
     8
1070
   278
1070
    46
1070
   146
1040
1.166667
1070
   345
1005
16
1070
   347
1005
16
1070
   346
1005
16
1070
   344
1005
0
1070
   343
1005
0
1070
   172
1070
     1
1070
    76
1070
     0
1070
    75
1070
     0
1070
   282
1070
     0
1070
   281
1070
     0
1070
    71
1070
     0
1070
    74
1070
     0
1070
   279
1070
     0
1070
   173
1070
     1
1070
   340
1005
186
1070
   271
1070
     2
1070
   272
1070
     2
1070
    77
1070
     1
1070
    73
1070
     1
1070
   171
1070
     3
1070
   274
1070
     4
1070
   177
1070
     2
1070
   176
1070
     2
1070
   178
1070
     2
1070
    78
1070
     8
1070
    48
1040
-0.1
1070
    41
1040
3.5
1070
   147
1040
1.5
1070
    42
1040
1.5875
1070
    44
1040
2.0
1070
   140
1040
3.0
1002
}
1001
ACAD_DSTYLE_DIM_LINETYPE
1070
   380
1005
16
1001
ACAD_DSTYLE_DIM_EXT1_LINETYPE
1070
   381
1005
16
1001
ACAD_DSTYLE_DIM_EXT2_LINETYPE
1070
   382
1005
16
0
DIMENSION
5
1CB
100
AcDbEntity
8
2
62
256
6
ByLayer
370
18
48
1
60
0
100
AcDbDimension
2
_U1
10
28.955082
20
20.85
30
0
11
43.977541
21
20.85
31
0
70
32
71
1
72
1
41
1
210
0
220
0
230
1
3
Standard
100
AcDbAlignedDimension
13
59
23
0
33
0
14
28.955082
24
3
34
0
50
0
100
AcDbRotatedDimension
1001
ACAD
1000
DSTYLE
1002
{
1070
   371
1070
    13
1070
   372
1070
    13
1070
     3
1000

1070
   170
1070
     0
1070
   144
1040
1.0
1070
   277
1070
     2
1070
   284
1070
     8
1070
   278
1070
    46
1070
   146
1040
1.166667
1070
   345
1005
16
1070
   347
1005
16
1070
   346
1005
16
1070
   344
1005
0
1070
   343
1005
0
1070
   172
1070
     1
1070
    76
1070
     0
1070
    75
1070
     0
1070
   282
1070
     0
1070
   281
1070
     0
1070
    71
1070
     0
1070
    74
1070
     0
1070
   279
1070
     0
1070
   173
1070
     1
1070
   340
1005
186
1070
   271
1070
     2
1070
   272
1070
     2
1070
    77
1070
     1
1070
    73
1070
     1
1070
   171
1070
     3
1070
   274
1070
     4
1070
   177
1070
     2
1070
   176
1070
     2
1070
   178
1070
     2
1070
    78
1070
     8
1070
    48
1040
-0.1
1070
    41
1040
3.5
1070
   147
1040
1.5
1070
    42
1040
1.5875
1070
    44
1040
2.0
1070
   140
1040
3.0
1002
}
1001
ACAD_DSTYLE_DIM_LINETYPE
1070
   380
1005
16
1001
ACAD_DSTYLE_DIM_EXT1_LINETYPE
1070
   381
1005
16
1001
ACAD_DSTYLE_DIM_EXT2_LINETYPE
1070
   382
1005
16
0
DIMENSION
5
1E3
100
AcDbEntity
8
SK2
62
256
6
ByLayer
370
18
48
1
60
0
100
AcDbDimension
2
_U2
10
-36
20
30.85
30
0
11
11.5
21
30.85
31
0
70
32
71
1
72
1
41
1
210
0
220
0
230
1
3
Standard
100
AcDbAlignedDimension
13
59
23
0
33
0
14
-36
24
0
34
0
50
0
100
AcDbRotatedDimension
1001
ACAD
1000
DSTYLE
1002
{
1070
   371
1070
    13
1070
   372
1070
    13
1070
     3
1000

1070
   170
1070
     0
1070
   144
1040
1.0
1070
   277
1070
     2
1070
   284
1070
     8
1070
   278
1070
    46
1070
   146
1040
1.166667
1070
   345
1005
16
1070
   347
1005
16
1070
   346
1005
16
1070
   344
1005
0
1070
   343
1005
0
1070
   172
1070
     1
1070
    76
1070
     0
1070
    75
1070
     0
1070
   282
1070
     0
1070
   281
1070
     0
1070
    71
1070
     0
1070
    74
1070
     0
1070
   279
1070
     0
1070
   173
1070
     1
1070
   340
1005
186
1070
   271
1070
     2
1070
   272
1070
     2
1070
    77
1070
     1
1070
    73
1070
     1
1070
   171
1070
     3
1070
   274
1070
     4
1070
   177
1070
     2
1070
   176
1070
     2
1070
   178
1070
     2
1070
    78
1070
     8
1070
    48
1040
-0.1
1070
    41
1040
3.5
1070
   147
1040
1.5
1070
    42
1040
1.5875
1070
    44
1040
2.0
1070
   140
1040
3.0
1002
}
1001
ACAD_DSTYLE_DIM_LINETYPE
1070
   380
1005
16
1001
ACAD_DSTYLE_DIM_EXT1_LINETYPE
1070
   381
1005
16
1001
ACAD_DSTYLE_DIM_EXT2_LINETYPE
1070
   382
1005
16
0
DIMENSION
5
1FB
100
AcDbEntity
8
SK2
62
256
6
ByLayer
370
18
48
1
60
0
100
AcDbDimension
2
_U3
10
0.4
20
-12.85
30
0
11
-17.8
21
-12.85
31
0
70
32
71
1
72
1
41
1
210
0
220
0
230
1
3
Standard
100
AcDbAlignedDimension
13
-36
23
0
33
0
14
0.4
24
-3
34
0
50
0
100
AcDbRotatedDimension
1001
ACAD
1000
DSTYLE
1002
{
1070
   371
1070
    13
1070
   372
1070
    13
1070
     3
1000

1070
   170
1070
     0
1070
   144
1040
1.0
1070
   277
1070
     2
1070
   284
1070
     8
1070
   278
1070
    46
1070
   146
1040
1.166667
1070
   345
1005
16
1070
   347
1005
16
1070
   346
1005
16
1070
   344
1005
0
1070
   343
1005
0
1070
   172
1070
     1
1070
    76
1070
     0
1070
    75
1070
     0
1070
   282
1070
     0
1070
   281
1070
     0
1070
    71
1070
     0
1070
    74
1070
     0
1070
   279
1070
     0
1070
   173
1070
     1
1070
   340
1005
186
1070
   271
1070
     2
1070
   272
1070
     2
1070
    77
1070
     1
1070
    73
1070
     1
1070
   171
1070
     3
1070
   274
1070
     4
1070
   177
1070
     2
1070
   176
1070
     2
1070
   178
1070
     2
1070
    78
1070
     8
1070
    48
1040
-0.1
1070
    41
1040
3.5
1070
   147
1040
1.5
1070
    42
1040
1.5875
1070
    44
1040
2.0
1070
   140
1040
3.0
1002
}
1001
ACAD_DSTYLE_DIM_LINETYPE
1070
   380
1005
16
1001
ACAD_DSTYLE_DIM_EXT1_LINETYPE
1070
   381
1005
16
1001
ACAD_DSTYLE_DIM_EXT2_LINETYPE
1070
   382
1005
16
0
DIMENSION
5
213
100
AcDbEntity
8
SK2
62
256
6
ByLayer
370
18
48
1
60
0
100
AcDbDimension
2
_U4
10
57.427
20
-11.5
30
0
11
74.857143
21
-11.5
31
0
70
32
71
1
72
1
41
1
210
0
220
0
230
1
3
Standard
100
AcDbAlignedDimension
13
59
23
0
33
0
14
57.427
24
0.819555
34
0
50
0
100
AcDbRotatedDimension
1001
ACAD
1000
DSTYLE
1002
{
1070
   371
1070
    13
1070
   372
1070
    13
1070
     3
1000

1070
   170
1070
     0
1070
   144
1040
1.0
1070
   277
1070
     2
1070
   284
1070
     8
1070
   278
1070
    46
1070
   146
1040
1.166667
1070
   345
1005
16
1070
   347
1005
16
1070
   346
1005
16
1070
   344
1005
0
1070
   343
1005
0
1070
   172
1070
     1
1070
    76
1070
     0
1070
    75
1070
     0
1070
   282
1070
     0
1070
   281
1070
     0
1070
    71
1070
     0
1070
    74
1070
     0
1070
   279
1070
     0
1070
   173
1070
     1
1070
   340
1005
186
1070
   271
1070
     2
1070
   272
1070
     2
1070
    77
1070
     1
1070
    73
1070
     1
1070
   171
1070
     3
1070
   274
1070
     4
1070
   177
1070
     2
1070
   176
1070
     2
1070
   178
1070
     2
1070
    78
1070
     8
1070
    48
1040
-0.1
1070
    41
1040
3.5
1070
   147
1040
1.5
1070
    42
1040
1.5875
1070
    44
1040
2.0
1070
   140
1040
3.0
1002
}
1001
ACAD_DSTYLE_DIM_LINETYPE
1070
   380
1005
16
1001
ACAD_DSTYLE_DIM_EXT1_LINETYPE
1070
   381
1005
16
1001
ACAD_DSTYLE_DIM_EXT2_LINETYPE
1070
   382
1005
16
0
ENDSEC
0
SECTION
2
OBJECTS
0
DICTIONARY
5
29d
330
0
100
AcDbDictionary
280
0
281
1
3
ACAD_GROUP
350
29e
3
ACAD_MLINESTYLE
350
29f
0
DICTIONARY
5
29e
330
0
100
AcDbDictionary
280
0
281
1
0
DICTIONARY
5
29f
330
0
100
AcDbDictionary
280
0
281
1
3
Standard
350
18
0
MLINESTYLE
5
18
330
29f
100
AcDbMlineStyle
2
Standard
70
0
3

62
256
51
90
52
90
71
2
49
-0.5
62
256
6
ByLayer
49
0.5
62
256
6
ByLayer
0
RASTERVARIABLES
5
28b
330

100
AcDbRasterVariables
90
0
70
1
71
1
72
1
0
ENDSEC
0
EOF
