0
SECTION
2
HEADER
9
$ACADVER
1
AC1015
9
$DWGCODEPAGE
3
ANSI_1252
9
$HANDSEED
5
2f8
9
$ANGBASE
50
0
9
$ANGDIR
70
0
9
$ATTMODE
70
1
9
$AUNITS
70
0
9
$AUPREC
70
0
9
$CECOLOR
62
256
9
$CELTSCALE
40
1
9
$CELTYPE
6
ByLayer
9
$CELWEIGHT
370
18
9
$CLAYER
8
0
9
$CMLJUST
70
0
9
$CMLSCALE
40
1
9
$CMLSTYLE
2
Standard
9
$DIMSTYLE
2
Standard
9
$TEXTSIZE
40
0.2
9
$TEXTSTYLE
7
Standard
9
$LUNITS
70
2
9
$LUPREC
70
4
9
$EXTNAMES
290
1
9
$INSUNITS
70
4
9
$LTSCALE
40
1
9
$LWDISPLAY
290
1
9
$PDMODE
70
0
9
$PDSIZE
40
0
9
$PLINEGEN
70
0
0
ENDSEC
0
SECTION
2
CLASSES
0
CLASS
1
RASTERVARIABLES
2
AcDbRasterVariables
3
ISM
90
0
280
0
281
0
0
ENDSEC
0
SECTION
2
TABLES
0
TABLE
2
VPORT
5
2ee
100
AcDbSymbolTable
0
VPORT
5
1
100
AcDbSymbolTableRecord
100
AcDbViewportTableRecord
2
*Active
70
0
10
0
20
0
11
1
21
1
12
-1
22
1
13
0
23
0
14
0.5
24
0.5
15
10
25
10
16
0
26
0
36
1
17
0
27
0
37
0
0
ENDTAB
0
TABLE
2
LTYPE
5
2ef
100
AcDbSymbolTable
0
LTYPE
5
14
100
AcDbSymbolTableRecord
100
AcDbLinetypeTableRecord
70
0
2
ByBlock
3

72
65
73
0
40
0
0
LTYPE
5
15
100
AcDbSymbolTableRecord
100
AcDbLinetypeTableRecord
70
0
2
ByLayer
3

72
65
73
0
40
0
0
LTYPE
5
16
100
AcDbSymbolTableRecord
100
AcDbLinetypeTableRecord
70
0
2
Continuous
3
Solid line
72
65
73
0
40
0
0
LTYPE
5
6E
100
AcDbSymbolTableRecord
100
AcDbLinetypeTableRecord
70
0
2
CENTER
3
____ _ ____ _ ____ _ ____
72
65
73
4
40
47.5
49
22
74
0
49
-8.5
74
0
49
8.5
74
0
49
-8.5
74
0
0
LTYPE
5
6F
100
AcDbSymbolTableRecord
100
AcDbLinetypeTableRecord
70
0
2
DASHED
3
__ __ __ __ __ __ __ __ __
72
65
73
2
40
25.72
49
12.86
74
0
49
-12.86
74
0
0
ENDTAB
0
TABLE
2
LAYER
5
2f0
100
AcDbSymbolTable
0
LAYER
5
10
100
AcDbSymbolTableRecord
100
AcDbLayerTableRecord
2
0
70
0
62
7
6
Continuous
290
1
370
-3
390
0
0
LAYER
5
71
100
AcDbSymbolTableRecord
100
AcDbLayerTableRecord
2
81
70
0
62
-3
6
Continuous
290
1
370
-3
390
0
0
LAYER
5
73
100
AcDbSymbolTableRecord
100
AcDbLayerTableRecord
2
80
70
0
62
-6
6
Continuous
290
1
370
-3
390
0
0
LAYER
5
75
100
AcDbSymbolTableRecord
100
AcDbLayerTableRecord
2
1
70
0
62
4
6
Continuous
290
1
370
-3
390
0
0
LAYER
5
84
100
AcDbSymbolTableRecord
100
AcDbLayerTableRecord
2
4
70
0
62
-2
6
CENTER
290
1
370
-3
390
0
0
LAYER
5
101
100
AcDbSymbolTableRecord
100
AcDbLayerTableRecord
2
2
70
0
62
7
6
Continuous
290
1
370
-3
390
0
0
LAYER
5
203
100
AcDbSymbolTableRecord
100
AcDbLayerTableRecord
2
Defpoints
70
0
62
7
6
Continuous
290
0
370
-3
390
0
0
LAYER
5
2da
100
AcDbSymbolTableRecord
100
AcDbLayerTableRecord
2
SK4
70
0
62
2
6
CENTER
290
1
370
-3
390
0
0
LAYER
5
2db
100
AcDbSymbolTableRecord
100
AcDbLayerTableRecord
2
SK1
70
0
62
4
6
Continuous
290
1
370
-3
390
0
0
LAYER
5
2dc
100
AcDbSymbolTableRecord
100
AcDbLayerTableRecord
2
SK2
70
0
62
7
6
Continuous
290
1
370
-3
390
0
0
LAYER
5
2dd
100
AcDbSymbolTableRecord
100
AcDbLayerTableRecord
2
SK6
70
0
62
5
6
Continuous
290
1
370
-3
390
0
0
ENDTAB
0
TABLE
2
STYLE
5
2f1
100
AcDbSymbolTable
0
STYLE
5
11
100
AcDbSymbolTableRecord
100
AcDbTextStyleTableRecord
2
Standard
3
txt
70
0
71
0
40
0
41
1
42
0
50
0
0
STYLE
5
1D5
100
AcDbSymbolTableRecord
100
AcDbTextStyleTableRecord
2
iso_b_vert
3
simplex.shx
70
0
71
0
40
0
41
1
42
0
50
0
0
STYLE
5
1D6
100
AcDbSymbolTableRecord
100
AcDbTextStyleTableRecord
2
DWGDirectTextStyle
3
simplex
70
0
71
0
40
0
41
1
42
0
50
0
0
ENDTAB
0
TABLE
2
DIMSTYLE
5
2f2
100
AcDbSymbolTable
100
AcDbDimStyleTable
0
DIMSTYLE
105
27
100
AcDbSymbolTableRecord
100
AcDbDimStyleTableRecord
2
Standard
70
0
3
<>
41
0.18
42
0.0625
44
0.18
140
0.18
147
0.09
73
0
74
0
77
1
271
2
275
0
278
52
280
0
340
11
0
ENDTAB
0
TABLE
2
VIEW
5
2f3
100
AcDbSymbolTable
0
ENDTAB
0
TABLE
2
UCS
5
2f4
100
AcDbSymbolTable
0
ENDTAB
0
TABLE
2
APPID
5
2f5
100
AcDbSymbolTable
0
APPID
5
12
100
AcDbSymbolTableRecord
100
AcDbRegAppTableRecord
2
ACAD
70
0
0
APPID
5
1FF
100
AcDbSymbolTableRecord
100
AcDbRegAppTableRecord
2
ACAD_DSTYLE_DIMBREAK
70
0
0
APPID
5
299
100
AcDbSymbolTableRecord
100
AcDbRegAppTableRecord
2
ACAD_DSTYLE_DIM_LINETYPE
70
0
0
APPID
5
29A
100
AcDbSymbolTableRecord
100
AcDbRegAppTableRecord
2
ACAD_DSTYLE_DIM_EXT1_LINETYPE
70
0
0
APPID
5
29B
100
AcDbSymbolTableRecord
100
AcDbRegAppTableRecord
2
ACAD_DSTYLE_DIM_EXT2_LINETYPE
70
0
0
APPID
5
2D6
100
AcDbSymbolTableRecord
100
AcDbRegAppTableRecord
2
ACAD_MLEADERVER
70
0
0
ENDTAB
0
TABLE
2
BLOCK_RECORD
5
2f6
100
AcDbSymbolTable
0
BLOCK_RECORD
5
1F
100
AcDbSymbolTableRecord
100
AcDbBlockTableRecord
2
*Model_Space
340
0
70
0
0
BLOCK_RECORD
5
1B
100
AcDbSymbolTableRecord
100
AcDbBlockTableRecord
2
*Paper_Space
340
0
70
0
0
BLOCK_RECORD
5
23
100
AcDbSymbolTableRecord
100
AcDbBlockTableRecord
2
*Paper_Space0
340
0
70
0
0
BLOCK_RECORD
5
204
100
AcDbSymbolTableRecord
100
AcDbBlockTableRecord
2
*D1
340
0
70
0
0
BLOCK_RECORD
5
210
100
AcDbSymbolTableRecord
100
AcDbBlockTableRecord
2
_U0
340
0
70
0
0
BLOCK_RECORD
5
21C
100
AcDbSymbolTableRecord
100
AcDbBlockTableRecord
2
*D3
340
0
70
0
0
BLOCK_RECORD
5
228
100
AcDbSymbolTableRecord
100
AcDbBlockTableRecord
2
_U1
340
0
70
0
0
BLOCK_RECORD
5
234
100
AcDbSymbolTableRecord
100
AcDbBlockTableRecord
2
*D5
340
0
70
0
0
BLOCK_RECORD
5
240
100
AcDbSymbolTableRecord
100
AcDbBlockTableRecord
2
_U2
340
0
70
0
0
BLOCK_RECORD
5
24C
100
AcDbSymbolTableRecord
100
AcDbBlockTableRecord
2
*D7
340
0
70
0
0
BLOCK_RECORD
5
258
100
AcDbSymbolTableRecord
100
AcDbBlockTableRecord
2
_U3
340
0
70
0
0
BLOCK_RECORD
5
264
100
AcDbSymbolTableRecord
100
AcDbBlockTableRecord
2
*D9
340
0
70
0
0
BLOCK_RECORD
5
272
100
AcDbSymbolTableRecord
100
AcDbBlockTableRecord
2
_U4
340
0
70
0
0
ENDTAB
0
ENDSEC
0
SECTION
2
BLOCKS
0
BLOCK
5
20
100
AcDbEntity
8
0
100
AcDbBlockBegin
2
*Model_Space
70
0
10
0
20
0
30
0
3
*Model_Space
0
ENDBLK
5
21
100
AcDbEntity
8
0
100
AcDbBlockEnd
0
BLOCK
5
1C
100
AcDbEntity
8
0
100
AcDbBlockBegin
2
*Paper_Space
70
0
10
0
20
0
30
0
3
*Paper_Space
0
ENDBLK
5
1D
100
AcDbEntity
8
0
100
AcDbBlockEnd
0
BLOCK
5
24
100
AcDbEntity
8
0
100
AcDbBlockBegin
2
*Paper_Space0
70
0
10
0
20
0
30
0
3
*Paper_Space0
0
ENDBLK
5
25
100
AcDbEntity
8
0
100
AcDbBlockEnd
0
BLOCK
5
205
100
AcDbEntity
8
0
100
AcDbBlockBegin
2
*D1
70
1
10
0
20
0
30
0
3
*D1
0
LINE
5
207
100
AcDbEntity
8
0
62
256
6
ByLayer
370
-2
48
1
60
0
100
AcDbLine
10
60
20
1.5875
30
0
11
60
21
15.047123
31
0
39
0
210
0
220
0
230
1
0
LINE
5
208
100
AcDbEntity
8
0
62
256
6
ByLayer
370
-2
48
1
60
0
100
AcDbLine
10
25
20
5.683178
30
0
11
25
21
15.047123
31
0
39
0
210
0
220
0
230
1
0
LINE
5
209
100
AcDbEntity
8
0
62
256
6
ByLayer
370
-2
48
1
60
0
100
AcDbLine
10
56.5
20
13.047123
30
0
11
28.5
21
13.047123
31
0
39
0
210
0
220
0
230
1
0
SOLID
5
20A
100
AcDbEntity
8
0
62
256
6
ByLayer
370
-1
48
1
60
0
100
AcDbTrace
10
56.5
20
12.46379
30
0
11
56.5
21
13.630456
31
0
12
60
22
13.047123
32
0
13
60
23
13.047123
33
0
39
0
210
0
220
0
230
1
0
SOLID
5
20B
100
AcDbEntity
8
0
62
256
6
ByLayer
370
-1
48
1
60
0
100
AcDbTrace
10
28.5
20
13.630456
30
0
11
28.5
21
12.46379
31
0
12
25
22
13.047123
32
0
13
25
23
13.047123
33
0
39
0
210
0
220
0
230
1
0
MTEXT
5
20C
100
AcDbEntity
8
0
62
256
6
ByLayer
370
18
48
1
60
0
100
AcDbMText
10
42.5
20
19.047123
30
0
210
0
220
0
230
1
1
\A1;35
40
3
41
0
44
1
50
0
71
5
72
5
7
iso_b_vert
0
POINT
5
20D
100
AcDbEntity
8
Defpoints
62
0
6
ByLayer
370
-1
48
1
60
0
100
AcDbPoint
10
60
20
0
30
0
39
0
210
0
220
0
230
1
50
360
0
POINT
5
20E
100
AcDbEntity
8
Defpoints
62
0
6
ByLayer
370
-1
48
1
60
0
100
AcDbPoint
10
25
20
4.095678
30
0
39
0
210
0
220
0
230
1
50
360
0
POINT
5
20F
100
AcDbEntity
8
Defpoints
62
0
6
ByLayer
370
-1
48
1
60
0
100
AcDbPoint
10
25
20
13.047123
30
0
39
0
210
0
220
0
230
1
50
360
0
ENDBLK
5
206
100
AcDbEntity
8
0
100
AcDbBlockEnd
0
BLOCK
5
217
100
AcDbEntity
8
0
100
AcDbBlockBegin
2
_U0
70
0
10
0
20
0
30
0
3
_U0
0
MTEXT
5
211
100
AcDbEntity
8
2
62
256
6
ByLayer
370
18
48
1
60
0
100
AcDbMText
10
40.867172
20
13.932237
30
0
210
0
220
0
230
1
1
\W0.6740;35
40
3
41
0
44
1.084337
50
0
71
7
72
5
7
iso_b_vert
0
LINE
5
212
100
AcDbEntity
8
2
62
256
6
ByLayer
370
13
48
1
60
0
100
AcDbLine
10
60
20
1.5875
30
0
11
60
21
15.047123
31
0
39
0
210
0
220
0
230
1
0
LINE
5
213
100
AcDbEntity
8
2
62
256
6
ByLayer
370
13
48
1
60
0
100
AcDbLine
10
25
20
5.683178
30
0
11
25
21
15.047123
31
0
39
0
210
0
220
0
230
1
0
LINE
5
214
100
AcDbEntity
8
2
62
256
6
ByLayer
370
13
48
1
60
0
100
AcDbLine
10
60
20
13.047123
30
0
11
25
21
13.047123
31
0
39
0
210
0
220
0
230
1
0
SOLID
5
215
100
AcDbEntity
8
2
62
256
6
ByLayer
370
18
48
1
60
0
100
AcDbTrace
10
60
20
13.047123
30
0
11
56.500002
21
12.586339
31
0
12
56.499998
22
13.507907
32
0
13
56.499998
23
13.507907
33
0
39
0
210
0
220
0
230
1
0
SOLID
5
216
100
AcDbEntity
8
2
62
256
6
ByLayer
370
18
48
1
60
0
100
AcDbTrace
10
25
20
13.047123
30
0
11
28.499998
21
13.507907
31
0
12
28.500002
22
12.586339
32
0
13
28.500002
23
12.586339
33
0
39
0
210
0
220
0
230
1
0
ENDBLK
5
218
100
AcDbEntity
8
0
100
AcDbBlockEnd
0
BLOCK
5
21D
100
AcDbEntity
8
0
100
AcDbBlockBegin
2
*D3
70
1
10
0
20
0
30
0
3
*D3
0
LINE
5
21F
100
AcDbEntity
8
0
62
256
6
ByLayer
370
-2
48
1
60
0
100
AcDbLine
10
60
20
1.5875
30
0
11
60
21
25.047123
31
0
39
0
210
0
220
0
230
1
0
LINE
5
220
100
AcDbEntity
8
0
62
256
6
ByLayer
370
-2
48
1
60
0
100
AcDbLine
10
-0.018657
20
6.5875
30
0
11
-0.018657
21
25.047123
31
0
39
0
210
0
220
0
230
1
0
LINE
5
221
100
AcDbEntity
8
0
62
256
6
ByLayer
370
-2
48
1
60
0
100
AcDbLine
10
56.5
20
23.047123
30
0
11
3.481343
21
23.047123
31
0
39
0
210
0
220
0
230
1
0
SOLID
5
222
100
AcDbEntity
8
0
62
256
6
ByLayer
370
-1
48
1
60
0
100
AcDbTrace
10
56.5
20
22.46379
30
0
11
56.5
21
23.630456
31
0
12
60
22
23.047123
32
0
13
60
23
23.047123
33
0
39
0
210
0
220
0
230
1
0
SOLID
5
223
100
AcDbEntity
8
0
62
256
6
ByLayer
370
-1
48
1
60
0
100
AcDbTrace
10
3.481343
20
23.630456
30
0
11
3.481343
21
22.46379
31
0
12
-0.018657
22
23.047123
32
0
13
-0.018657
23
23.047123
33
0
39
0
210
0
220
0
230
1
0
MTEXT
5
224
100
AcDbEntity
8
0
62
256
6
ByLayer
370
18
48
1
60
0
100
AcDbMText
10
29.990672
20
29.047123
30
0
210
0
220
0
230
1
1
\A1;60.02
40
3
41
0
44
1
50
0
71
5
72
5
7
iso_b_vert
0
POINT
5
225
100
AcDbEntity
8
Defpoints
62
0
6
ByLayer
370
-1
48
1
60
0
100
AcDbPoint
10
60
20
0
30
0
39
0
210
0
220
0
230
1
50
360
0
POINT
5
226
100
AcDbEntity
8
Defpoints
62
0
6
ByLayer
370
-1
48
1
60
0
100
AcDbPoint
10
-0.018657
20
5
30
0
39
0
210
0
220
0
230
1
50
360
0
POINT
5
227
100
AcDbEntity
8
Defpoints
62
0
6
ByLayer
370
-1
48
1
60
0
100
AcDbPoint
10
-0.018657
20
23.047123
30
0
39
0
210
0
220
0
230
1
50
360
0
ENDBLK
5
21E
100
AcDbEntity
8
0
100
AcDbBlockEnd
0
BLOCK
5
22F
100
AcDbEntity
8
0
100
AcDbBlockBegin
2
_U1
70
0
10
0
20
0
30
0
3
_U1
0
MTEXT
5
229
100
AcDbEntity
8
2
62
256
6
ByLayer
370
18
48
1
60
0
100
AcDbMText
10
28.357843
20
23.932237
30
0
210
0
220
0
230
1
1
\W0.6740;60
40
3
41
0
44
1.084337
50
0
71
7
72
5
7
iso_b_vert
0
LINE
5
22A
100
AcDbEntity
8
2
62
256
6
ByLayer
370
13
48
1
60
0
100
AcDbLine
10
60
20
1.5875
30
0
11
60
21
25.047123
31
0
39
0
210
0
220
0
230
1
0
LINE
5
22B
100
AcDbEntity
8
2
62
256
6
ByLayer
370
13
48
1
60
0
100
AcDbLine
10
-0.018657
20
6.5875
30
0
11
-0.018657
21
25.047123
31
0
39
0
210
0
220
0
230
1
0
LINE
5
22C
100
AcDbEntity
8
2
62
256
6
ByLayer
370
13
48
1
60
0
100
AcDbLine
10
60
20
23.047123
30
0
11
-0.018657
21
23.047123
31
0
39
0
210
0
220
0
230
1
0
SOLID
5
22D
100
AcDbEntity
8
2
62
256
6
ByLayer
370
18
48
1
60
0
100
AcDbTrace
10
60
20
23.047123
30
0
11
56.500002
21
22.586339
31
0
12
56.499998
22
23.507907
32
0
13
56.499998
23
23.507907
33
0
39
0
210
0
220
0
230
1
0
SOLID
5
22E
100
AcDbEntity
8
2
62
256
6
ByLayer
370
18
48
1
60
0
100
AcDbTrace
10
-0.018657
20
23.047123
30
0
11
3.481341
21
23.507907
31
0
12
3.481345
22
22.586339
32
0
13
3.481345
23
22.586339
33
0
39
0
210
0
220
0
230
1
0
ENDBLK
5
230
100
AcDbEntity
8
0
100
AcDbBlockEnd
0
BLOCK
5
235
100
AcDbEntity
8
0
100
AcDbBlockBegin
2
*D5
70
1
10
0
20
0
30
0
3
*D5
0
LINE
5
237
100
AcDbEntity
8
0
62
256
6
ByLayer
370
-2
48
1
60
0
100
AcDbLine
10
60
20
1.5875
30
0
11
60
21
35.047123
31
0
39
0
210
0
220
0
230
1
0
LINE
5
238
100
AcDbEntity
8
0
62
256
6
ByLayer
370
-2
48
1
60
0
100
AcDbLine
10
-40
20
1.5875
30
0
11
-40
21
35.047123
31
0
39
0
210
0
220
0
230
1
0
LINE
5
239
100
AcDbEntity
8
0
62
256
6
ByLayer
370
-2
48
1
60
0
100
AcDbLine
10
56.5
20
33.047123
30
0
11
-36.5
21
33.047123
31
0
39
0
210
0
220
0
230
1
0
SOLID
5
23A
100
AcDbEntity
8
0
62
256
6
ByLayer
370
-1
48
1
60
0
100
AcDbTrace
10
56.5
20
32.46379
30
0
11
56.5
21
33.630456
31
0
12
60
22
33.047123
32
0
13
60
23
33.047123
33
0
39
0
210
0
220
0
230
1
0
SOLID
5
23B
100
AcDbEntity
8
0
62
256
6
ByLayer
370
-1
48
1
60
0
100
AcDbTrace
10
-36.5
20
33.630456
30
0
11
-36.5
21
32.46379
31
0
12
-40
22
33.047123
32
0
13
-40
23
33.047123
33
0
39
0
210
0
220
0
230
1
0
MTEXT
5
23C
100
AcDbEntity
8
0
62
256
6
ByLayer
370
18
48
1
60
0
100
AcDbMText
10
10
20
39.047123
30
0
210
0
220
0
230
1
1
\A1;100
40
3
41
0
44
1
50
0
71
5
72
5
7
iso_b_vert
0
POINT
5
23D
100
AcDbEntity
8
Defpoints
62
0
6
ByLayer
370
-1
48
1
60
0
100
AcDbPoint
10
60
20
0
30
0
39
0
210
0
220
0
230
1
50
360
0
POINT
5
23E
100
AcDbEntity
8
Defpoints
62
0
6
ByLayer
370
-1
48
1
60
0
100
AcDbPoint
10
-40
20
0
30
0
39
0
210
0
220
0
230
1
50
360
0
POINT
5
23F
100
AcDbEntity
8
Defpoints
62
0
6
ByLayer
370
-1
48
1
60
0
100
AcDbPoint
10
-40
20
33.047123
30
0
39
0
210
0
220
0
230
1
50
360
0
ENDBLK
5
236
100
AcDbEntity
8
0
100
AcDbBlockEnd
0
BLOCK
5
247
100
AcDbEntity
8
0
100
AcDbBlockBegin
2
_U2
70
0
10
0
20
0
30
0
3
_U2
0
MTEXT
5
241
100
AcDbEntity
8
SK2
62
256
6
ByLayer
370
18
48
1
60
0
100
AcDbMText
10
7.621201
20
33.932237
30
0
210
0
220
0
230
1
1
\W0.6217;100
40
3
41
0
44
1.084337
50
0
71
7
72
5
7
iso_b_vert
0
LINE
5
242
100
AcDbEntity
8
SK2
62
256
6
ByLayer
370
13
48
1
60
0
100
AcDbLine
10
60
20
1.5875
30
0
11
60
21
35.047123
31
0
39
0
210
0
220
0
230
1
0
LINE
5
243
100
AcDbEntity
8
SK2
62
256
6
ByLayer
370
13
48
1
60
0
100
AcDbLine
10
-40
20
1.5875
30
0
11
-40
21
35.047123
31
0
39
0
210
0
220
0
230
1
0
LINE
5
244
100
AcDbEntity
8
SK2
62
256
6
ByLayer
370
13
48
1
60
0
100
AcDbLine
10
60
20
33.047123
30
0
11
-40
21
33.047123
31
0
39
0
210
0
220
0
230
1
0
SOLID
5
245
100
AcDbEntity
8
SK2
62
256
6
ByLayer
370
18
48
1
60
0
100
AcDbTrace
10
60
20
33.047123
30
0
11
56.500002
21
32.586339
31
0
12
56.499998
22
33.507907
32
0
13
56.499998
23
33.507907
33
0
39
0
210
0
220
0
230
1
0
SOLID
5
246
100
AcDbEntity
8
SK2
62
256
6
ByLayer
370
18
48
1
60
0
100
AcDbTrace
10
-40
20
33.047123
30
0
11
-36.500002
21
33.507907
31
0
12
-36.499998
22
32.586339
32
0
13
-36.499998
23
32.586339
33
0
39
0
210
0
220
0
230
1
0
ENDBLK
5
248
100
AcDbEntity
8
0
100
AcDbBlockEnd
0
BLOCK
5
24D
100
AcDbEntity
8
0
100
AcDbBlockBegin
2
*D7
70
1
10
0
20
0
30
0
3
*D7
0
LINE
5
24F
100
AcDbEntity
8
0
62
256
6
ByLayer
370
-2
48
1
60
0
100
AcDbLine
10
-40
20
-1.5875
30
0
11
-40
21
-21.492526
31
0
39
0
210
0
220
0
230
1
0
LINE
5
250
100
AcDbEntity
8
0
62
256
6
ByLayer
370
-2
48
1
60
0
100
AcDbLine
10
0.6
20
-6.5875
30
0
11
0.6
21
-21.492526
31
0
39
0
210
0
220
0
230
1
0
LINE
5
251
100
AcDbEntity
8
0
62
256
6
ByLayer
370
-2
48
1
60
0
100
AcDbLine
10
-36.5
20
-19.492526
30
0
11
-2.9
21
-19.492526
31
0
39
0
210
0
220
0
230
1
0
SOLID
5
252
100
AcDbEntity
8
0
62
256
6
ByLayer
370
-1
48
1
60
0
100
AcDbTrace
10
-36.5
20
-18.909193
30
0
11
-36.5
21
-20.07586
31
0
12
-40
22
-19.492526
32
0
13
-40
23
-19.492526
33
0
39
0
210
0
220
0
230
1
0
SOLID
5
253
100
AcDbEntity
8
0
62
256
6
ByLayer
370
-1
48
1
60
0
100
AcDbTrace
10
-2.9
20
-20.07586
30
0
11
-2.9
21
-18.909193
31
0
12
0.6
22
-19.492526
32
0
13
0.6
23
-19.492526
33
0
39
0
210
0
220
0
230
1
0
MTEXT
5
254
100
AcDbEntity
8
0
62
256
6
ByLayer
370
18
48
1
60
0
100
AcDbMText
10
-19.7
20
-13.492526
30
0
210
0
220
0
230
1
1
\A1;40.6
40
3
41
0
44
1
50
0
71
5
72
5
7
iso_b_vert
0
POINT
5
255
100
AcDbEntity
8
Defpoints
62
0
6
ByLayer
370
-1
48
1
60
0
100
AcDbPoint
10
-40
20
0
30
0
39
0
210
0
220
0
230
1
50
360
0
POINT
5
256
100
AcDbEntity
8
Defpoints
62
0
6
ByLayer
370
-1
48
1
60
0
100
AcDbPoint
10
0.6
20
-5
30
0
39
0
210
0
220
0
230
1
50
360
0
POINT
5
257
100
AcDbEntity
8
Defpoints
62
0
6
ByLayer
370
-1
48
1
60
0
100
AcDbPoint
10
0.6
20
-19.492526
30
0
39
0
210
0
220
0
230
1
50
360
0
ENDBLK
5
24E
100
AcDbEntity
8
0
100
AcDbBlockEnd
0
BLOCK
5
25F
100
AcDbEntity
8
0
100
AcDbBlockBegin
2
_U3
70
0
10
0
20
0
30
0
3
_U3
0
MTEXT
5
259
100
AcDbEntity
8
SK2
62
256
6
ByLayer
370
18
48
1
60
0
100
AcDbMText
10
-27.422856
20
-18.607412
30
0
210
0
220
0
230
1
1
\W0.7399;(MIN. 40)
40
3
41
0
44
1.084337
50
0
71
7
72
5
7
iso_b_vert
0
LINE
5
25A
100
AcDbEntity
8
SK2
62
256
6
ByLayer
370
13
48
1
60
0
100
AcDbLine
10
-40
20
-1.5875
30
0
11
-40
21
-21.492526
31
0
39
0
210
0
220
0
230
1
0
LINE
5
25B
100
AcDbEntity
8
SK2
62
256
6
ByLayer
370
13
48
1
60
0
100
AcDbLine
10
0.6
20
-6.5875
30
0
11
0.6
21
-21.492526
31
0
39
0
210
0
220
0
230
1
0
LINE
5
25C
100
AcDbEntity
8
SK2
62
256
6
ByLayer
370
13
48
1
60
0
100
AcDbLine
10
-40
20
-19.492526
30
0
11
0.6
21
-19.492526
31
0
39
0
210
0
220
0
230
1
0
SOLID
5
25D
100
AcDbEntity
8
SK2
62
256
6
ByLayer
370
18
48
1
60
0
100
AcDbTrace
10
-40
20
-19.492526
30
0
11
-36.500002
21
-19.031743
31
0
12
-36.499998
22
-19.95331
32
0
13
-36.499998
23
-19.95331
33
0
39
0
210
0
220
0
230
1
0
SOLID
5
25E
100
AcDbEntity
8
SK2
62
256
6
ByLayer
370
18
48
1
60
0
100
AcDbTrace
10
0.6
20
-19.492526
30
0
11
-2.899998
21
-19.95331
31
0
12
-2.900002
22
-19.031743
32
0
13
-2.900002
23
-19.031743
33
0
39
0
210
0
220
0
230
1
0
ENDBLK
5
260
100
AcDbEntity
8
0
100
AcDbBlockEnd
0
BLOCK
5
265
100
AcDbEntity
8
0
100
AcDbBlockBegin
2
*D9
70
1
10
0
20
0
30
0
3
*D9
0
LINE
5
267
100
AcDbEntity
8
0
62
256
6
ByLayer
370
-2
48
1
60
0
100
AcDbLine
10
60
20
-1.5875
30
0
11
60
21
-13.5
31
0
39
0
210
0
220
0
230
1
0
LINE
5
268
100
AcDbEntity
8
0
62
256
6
ByLayer
370
-2
48
1
60
0
100
AcDbLine
10
52.132
20
2.508178
30
0
11
52.132
21
-13.5
31
0
39
0
210
0
220
0
230
1
0
LINE
5
269
100
AcDbEntity
8
0
62
256
6
ByLayer
370
-2
48
1
60
0
100
AcDbLine
10
60
20
-11.5
30
0
11
85.142857
21
-11.5
31
0
39
0
210
0
220
0
230
1
0
LINE
5
26A
100
AcDbEntity
8
0
62
256
6
ByLayer
370
-2
48
1
60
0
100
AcDbLine
10
63.5
20
-11.5
30
0
11
67
21
-11.5
31
0
39
0
210
0
220
0
230
1
0
LINE
5
26B
100
AcDbEntity
8
0
62
256
6
ByLayer
370
-2
48
1
60
0
100
AcDbLine
10
48.632
20
-11.5
30
0
11
45.132
21
-11.5
31
0
39
0
210
0
220
0
230
1
0
SOLID
5
26C
100
AcDbEntity
8
0
62
256
6
ByLayer
370
-1
48
1
60
0
100
AcDbTrace
10
63.5
20
-10.916667
30
0
11
63.5
21
-12.083333
31
0
12
60
22
-11.5
32
0
13
60
23
-11.5
33
0
39
0
210
0
220
0
230
1
0
SOLID
5
26D
100
AcDbEntity
8
0
62
256
6
ByLayer
370
-1
48
1
60
0
100
AcDbTrace
10
48.632
20
-12.083333
30
0
11
48.632
21
-10.916667
31
0
12
52.132
22
-11.5
32
0
13
52.132
23
-11.5
33
0
39
0
210
0
220
0
230
1
0
MTEXT
5
26E
100
AcDbEntity
8
0
62
256
6
ByLayer
370
18
48
1
60
0
100
AcDbMText
10
76.071429
20
-5.5
30
0
210
0
220
0
230
1
1
\A1;7.87
40
3
41
0
44
1
50
0
71
5
72
5
7
iso_b_vert
0
POINT
5
26F
100
AcDbEntity
8
Defpoints
62
0
6
ByLayer
370
-1
48
1
60
0
100
AcDbPoint
10
60
20
0
30
0
39
0
210
0
220
0
230
1
50
360
0
POINT
5
270
100
AcDbEntity
8
Defpoints
62
0
6
ByLayer
370
-1
48
1
60
0
100
AcDbPoint
10
52.132
20
4.095678
30
0
39
0
210
0
220
0
230
1
50
360
0
POINT
5
271
100
AcDbEntity
8
Defpoints
62
0
6
ByLayer
370
-1
48
1
60
0
100
AcDbPoint
10
52.132
20
-11.5
30
0
39
0
210
0
220
0
230
1
50
360
0
ENDBLK
5
266
100
AcDbEntity
8
0
100
AcDbBlockEnd
0
BLOCK
5
279
100
AcDbEntity
8
0
100
AcDbBlockBegin
2
_U4
70
0
10
0
20
0
30
0
3
_U4
0
MTEXT
5
273
100
AcDbEntity
8
SK2
62
256
6
ByLayer
370
18
48
1
60
0
100
AcDbMText
10
70.159
20
-10.614886
30
0
210
0
220
0
230
1
1
\W0.7346;7.87
40
3
41
0
44
1.084337
50
0
71
7
72
5
7
iso_b_vert
0
LINE
5
274
100
AcDbEntity
8
SK2
62
256
6
ByLayer
370
13
48
1
60
0
100
AcDbLine
10
60
20
-1.5875
30
0
11
60
21
-13.5
31
0
39
0
210
0
220
0
230
1
0
LINE
5
275
100
AcDbEntity
8
SK2
62
256
6
ByLayer
370
13
48
1
60
0
100
AcDbLine
10
52.132
20
2.508178
30
0
11
52.132
21
-13.5
31
0
39
0
210
0
220
0
230
1
0
LINE
5
276
100
AcDbEntity
8
SK2
62
256
6
ByLayer
370
13
48
1
60
0
100
AcDbLine
10
52.132
20
-11.5
30
0
11
77.040913
21
-11.5
31
0
39
0
210
0
220
0
230
1
0
SOLID
5
277
100
AcDbEntity
8
SK2
62
256
6
ByLayer
370
18
48
1
60
0
100
AcDbTrace
10
60
20
-11.5
30
0
11
56.500002
21
-11.960784
31
0
12
56.499998
22
-11.039216
32
0
13
56.499998
23
-11.039216
33
0
39
0
210
0
220
0
230
1
0
SOLID
5
278
100
AcDbEntity
8
SK2
62
256
6
ByLayer
370
18
48
1
60
0
100
AcDbTrace
10
52.132
20
-11.5
30
0
11
55.631998
21
-11.039216
31
0
12
55.632002
22
-11.960784
32
0
13
55.632002
23
-11.960784
33
0
39
0
210
0
220
0
230
1
0
ENDBLK
5
27A
100
AcDbEntity
8
0
100
AcDbBlockEnd
0
ENDSEC
0
SECTION
2
ENTITIES
0
ARC
5
112
100
AcDbEntity
8
1
62
256
6
ByLayer
370
18
48
1
60
0
100
AcDbCircle
39
0
10
24.999417
20
5.096
30
0
40
1
210
0
220
0
230
1
100
AcDbArc
50
267.929087
51
270
0
ARC
5
113
100
AcDbEntity
8
1
62
256
6
ByLayer
370
18
48
1
60
0
100
AcDbCircle
39
0
10
24.999417
20
-5.096
30
0
40
1
210
0
220
0
230
1
100
AcDbArc
50
90
51
92.070913
0
ARC
5
114
100
AcDbEntity
8
81
62
256
6
ByLayer
370
18
48
1
60
0
100
AcDbCircle
39
0
10
51.919192
20
-4.327411
30
0
40
0.32900569508079
210
0
220
0
230
1
100
AcDbArc
50
49.871876
51
90
0
ARC
5
115
100
AcDbEntity
8
81
62
256
6
ByLayer
370
18
48
1
60
0
100
AcDbCircle
39
0
10
51.919192
20
4.327411
30
0
40
0.32900569508079
210
0
220
0
230
1
100
AcDbArc
50
270
51
310.128124
0
ARC
5
116
100
AcDbEntity
8
81
62
256
6
ByLayer
370
18
48
1
60
0
100
AcDbCircle
39
0
10
51.619192
20
-12.434833
30
0
40
8.43642787140328
210
0
220
0
230
1
100
AcDbArc
50
90
51
98.709048
0
ARC
5
117
100
AcDbEntity
8
81
62
256
6
ByLayer
370
18
48
1
60
0
100
AcDbCircle
39
0
10
51.619192
20
12.434833
30
0
40
8.43642787140328
210
0
220
0
230
1
100
AcDbArc
50
261.290952
51
270
0
ARC
5
118
100
AcDbEntity
8
81
62
256
6
ByLayer
370
18
48
1
60
0
100
AcDbCircle
39
0
10
55
20
0
30
0
40
4.9843
210
0
220
0
230
1
100
AcDbArc
50
80.019437
51
125.128124
0
ARC
5
119
100
AcDbEntity
8
81
62
256
6
ByLayer
370
18
48
1
60
0
100
AcDbCircle
39
0
10
55
20
0
30
0
40
4.9843
210
0
220
0
230
1
100
AcDbArc
50
16.810189
51
76.378993
0
ARC
5
11A
100
AcDbEntity
8
81
62
256
6
ByLayer
370
18
48
1
60
0
100
AcDbCircle
39
0
10
55
20
0
30
0
40
4.9843
210
0
220
0
230
1
100
AcDbArc
50
5E-06
51
15.234351
0
ARC
5
11B
100
AcDbEntity
8
81
62
256
6
ByLayer
370
18
48
1
60
0
100
AcDbCircle
39
0
10
55
20
0
30
0
40
4.9843
210
0
220
0
230
1
100
AcDbArc
50
275.499415
51
359.049808
0
ARC
5
11C
100
AcDbEntity
8
81
62
256
6
ByLayer
370
18
48
1
60
0
100
AcDbCircle
39
0
10
55
20
0
30
0
40
4.9843
210
0
220
0
230
1
100
AcDbArc
50
234.871876
51
263.346348
0
ARC
5
11D
100
AcDbEntity
8
SK2
62
256
6
ByLayer
370
13
48
1
60
0
100
AcDbCircle
39
0
10
138.309556
20
0
30
0
40
151.160762775952
210
0
220
0
230
1
100
AcDbArc
50
177.929893
51
182.840461
0
ARC
5
11E
100
AcDbEntity
8
SK2
62
256
6
ByLayer
370
13
48
1
60
0
100
AcDbCircle
39
0
10
138.309556
20
0
30
0
40
151.160762775952
210
0
220
0
230
1
100
AcDbArc
50
172.966485
51
177.929893
0
ELLIPSE
5
11F
100
AcDbEntity
8
1
62
256
6
ByLayer
370
18
48
1
60
0
100
AcDbEllipse
10
59.660121
20
0.918314
30
0
11
0.160445133570454
21
0.252026775063601
31
0
210
0
220
0
230
1
40
0.079532
41
1.28206015212461
42
2.03845383493718
0
ELLIPSE
5
120
100
AcDbEntity
8
1
62
256
6
ByLayer
370
18
48
1
60
0
100
AcDbEllipse
10
59.654702
20
-1.114427
30
0
11
0.149746769072248
21
-0.252698623014542
31
0
210
0
220
0
230
1
40
0.118759
41
2.22239351441119
42
-1.92276345907541
0
ELLIPSE
5
121
100
AcDbEntity
8
1
62
256
6
ByLayer
370
18
48
1
60
0
100
AcDbEllipse
10
59.660121
20
-0.891594
30
0
11
0.15981103938637
21
-0.251549692486186
31
0
210
0
220
0
230
1
40
0.097768
41
2.89150552121688
42
-1.30418521296772
0
ELLIPSE
5
122
100
AcDbEntity
8
1
62
256
6
ByLayer
370
18
48
1
60
0
100
AcDbEllipse
10
50.322017
20
-15.074733
30
0
11
7.75538589436694
21
9.16639883239181
31
0
210
0
220
0
230
1
40
0.894028
41
0.619491554028361
42
0.712726404131163
0
ELLIPSE
5
123
100
AcDbEntity
8
1
62
256
6
ByLayer
370
18
48
1
60
0
100
AcDbEllipse
10
50.430184
20
6.464507
30
0
11
-11.4955032886694
21
4.27852393485514
31
0
210
0
220
0
230
1
40
0.196411
41
1.7068846255979
42
1.78096240716557
0
ELLIPSE
5
124
100
AcDbEntity
8
1
62
256
6
ByLayer
370
18
48
1
60
0
100
AcDbEllipse
10
50.322017
20
6.173887
30
0
11
-11.2528943835898
21
4.18822706127543
31
0
210
0
220
0
230
1
40
0.196411
41
1.68888512297267
42
1.7821199730755
0
ELLIPSE
5
125
100
AcDbEntity
8
1
62
256
6
ByLayer
370
18
48
1
60
0
100
AcDbEllipse
10
50.430184
20
-15.166249
30
0
11
7.92258960357869
21
9.36402354195054
31
0
210
0
220
0
230
1
40
0.894028
41
0.620649119938279
42
0.694726901506065
0
ELLIPSE
5
126
100
AcDbEntity
8
1
62
256
6
ByLayer
370
18
48
1
60
0
100
AcDbEllipse
10
59.920745
20
0
30
0
11
12.7608588374711
21
-0.234730606006404
31
0
210
0
220
0
230
1
40
0.320454
41
-2.62451863203128
42
-2.25173998548467
0
ELLIPSE
5
127
100
AcDbEntity
8
1
62
256
6
ByLayer
370
18
48
1
60
0
100
AcDbEllipse
10
59.920745
20
0
30
0
11
12.7523445530781
21
-3.77227688294621
31
0
210
0
220
0
230
1
40
0.125152
41
-2.59340890791976
42
-2.22063026137102
0
ELLIPSE
5
128
100
AcDbEntity
8
1
62
256
6
ByLayer
370
18
48
1
60
0
100
AcDbEllipse
10
50.322017
20
-8.467281
30
0
11
-10.6382435392341
21
5.56746372462097
31
0
210
0
220
0
230
1
40
0.675221
41
-1.36947093157868
42
-1.27623608147576
0
ELLIPSE
5
129
100
AcDbEntity
8
1
62
256
6
ByLayer
370
18
48
1
60
0
100
AcDbEllipse
10
50.430184
20
-8.260597
30
0
11
-10.8676007631661
21
5.68749651194267
31
0
210
0
220
0
230
1
40
0.675221
41
-1.36831336566871
42
-1.29423558410114
0
ELLIPSE
5
12A
100
AcDbEntity
8
1
62
256
6
ByLayer
370
18
48
1
60
0
100
AcDbEllipse
10
59.920745
20
0
30
0
11
12.7481619305388
21
-3.53396956990533
31
0
210
0
220
0
230
1
40
0.16244
41
2.30263486264192
42
2.61154600425375
0
ELLIPSE
5
12B
100
AcDbEntity
8
1
62
256
6
ByLayer
370
18
48
1
60
0
100
AcDbEllipse
10
59.920745
20
0
30
0
11
12.7472367919696
21
3.46301495682849
31
0
210
0
220
0
230
1
40
0.171598
41
-2.42279126683199
42
-2.37399807043473
0
ELLIPSE
5
12C
100
AcDbEntity
8
1
62
256
6
ByLayer
370
18
48
1
60
0
100
AcDbEllipse
10
59.920745
20
0
30
0
11
12.7472367919696
21
3.46301495682849
31
0
210
0
220
0
230
1
40
0.171598
41
-2.67699723382076
42
-2.46641223907372
0
POINT
5
70
100
AcDbEntity
8
81
62
256
6
ByLayer
370
18
48
1
60
0
100
AcDbPoint
10
60
20
0
30
0
39
0
210
0
220
0
230
1
50
360
0
POINT
5
72
100
AcDbEntity
8
80
62
256
6
ByLayer
370
18
48
1
60
0
100
AcDbPoint
10
0
20
0
30
0
39
0
210
0
220
0
230
1
50
360
0
POINT
5
74
100
AcDbEntity
8
1
62
256
6
ByLayer
370
18
48
1
60
1
100
AcDbPoint
10
60
20
0
30
0
39
0
210
0
220
0
230
1
50
360
0
POINT
5
76
100
AcDbEntity
8
1
62
256
6
ByLayer
370
18
48
1
60
1
100
AcDbPoint
10
25
20
4.095678
30
0
39
0
210
0
220
0
230
1
50
360
0
POINT
5
77
100
AcDbEntity
8
1
62
256
6
ByLayer
370
18
48
1
60
1
100
AcDbPoint
10
60
20
0
30
0
39
0
210
0
220
0
230
1
50
360
0
POINT
5
78
100
AcDbEntity
8
1
62
256
6
ByLayer
370
18
48
1
60
1
100
AcDbPoint
10
-0.018657
20
5
30
0
39
0
210
0
220
0
230
1
50
360
0
POINT
5
79
100
AcDbEntity
8
1
62
256
6
ByLayer
370
18
48
1
60
1
100
AcDbPoint
10
60
20
0
30
0
39
0
210
0
220
0
230
1
50
360
0
POINT
5
7A
100
AcDbEntity
8
1
62
256
6
ByLayer
370
18
48
1
60
1
100
AcDbPoint
10
-40
20
0
30
0
39
0
210
0
220
0
230
1
50
360
0
POINT
5
7B
100
AcDbEntity
8
1
62
256
6
ByLayer
370
18
48
1
60
1
100
AcDbPoint
10
-40
20
0
30
0
39
0
210
0
220
0
230
1
50
360
0
POINT
5
7C
100
AcDbEntity
8
1
62
256
6
ByLayer
370
18
48
1
60
1
100
AcDbPoint
10
0.6
20
-5
30
0
39
0
210
0
220
0
230
1
50
360
0
POINT
5
7D
100
AcDbEntity
8
1
62
256
6
ByLayer
370
18
48
1
60
1
100
AcDbPoint
10
60
20
0
30
0
39
0
210
0
220
0
230
1
50
360
0
POINT
5
7E
100
AcDbEntity
8
1
62
256
6
ByLayer
370
18
48
1
60
1
100
AcDbPoint
10
52.132
20
4.095678
30
0
39
0
210
0
220
0
230
1
50
360
0
SPLINE
5
12D
100
AcDbEntity
8
1
62
256
6
ByLayer
370
18
48
1
60
0
100
AcDbSpline
70
4
71
1
72
4
73
2
40
0
40
0
40
1
40
1
41
1
10
59.9880144258831
20
5.57581423948E-05
30
0
41
1
10
59.9754677608998
20
0.0646312890902436
30
0
0
SPLINE
5
12E
100
AcDbEntity
8
1
62
256
6
ByLayer
370
18
48
1
60
0
100
AcDbSpline
70
4
71
1
72
4
73
2
40
0
40
0
40
1
40
1
41
1
10
59.9979979142178
20
0.0506381398046756
30
0
41
1
10
59.9994969838208
20
0.0583389755664427
30
0
0
SPLINE
5
12F
100
AcDbEntity
8
1
62
256
6
ByLayer
370
18
48
1
60
0
100
AcDbSpline
70
4
71
2
72
6
73
3
40
0
40
0
40
0
40
1
40
1
40
1
41
1
10
56.9657559509047
20
2.78072870996866
30
0
41
1
10
56.5570151384236
20
2.86684786695636
30
0
41
1
10
56.0173617323244
20
3.00653452441418
30
0
0
SPLINE
5
130
100
AcDbEntity
8
1
62
256
6
ByLayer
370
18
48
1
60
0
100
AcDbSpline
70
4
71
3
72
8
73
4
40
0
40
0
40
0
40
0
40
1
40
1
40
1
40
1
41
1
10
59.6248281791342
20
-0.728350288375708
30
0
41
1
10
59.6093291259691
20
-0.753923563590973
30
0
41
1
10
59.5936038094137
20
-0.779626163818762
30
0
41
1
10
59.5776612712402
20
-0.805445032121469
30
0
0
SPLINE
5
131
100
AcDbEntity
8
1
62
256
6
ByLayer
370
18
48
1
60
0
100
AcDbSpline
70
4
71
3
72
8
73
4
40
0
40
0
40
0
40
0
40
1
40
1
40
1
40
1
41
1
10
59.9783613242355
20
-0.0569374276279291
30
0
41
1
10
59.9814478523039
20
-0.0575429802941869
30
0
41
1
10
59.9845121848287
20
-0.0581486699907146
30
0
41
1
10
59.987554504073
20
-0.0587544955922112
30
0
0
SPLINE
5
132
100
AcDbEntity
8
1
62
256
6
ByLayer
370
18
48
1
60
0
100
AcDbSpline
70
4
71
3
72
8
73
4
40
0
40
0
40
0
40
0
40
1
40
1
40
1
40
1
41
1
10
56.1023413018401
20
4.87300526454578
30
0
41
1
10
56.0913543914396
20
4.87567750128463
30
0
41
1
10
56.0802422835706
20
4.87839978163916
30
0
41
1
10
56.0690072019378
20
4.8811722333862
30
0
0
SPLINE
5
133
100
AcDbEntity
8
1
62
256
6
ByLayer
370
18
48
1
60
0
100
AcDbSpline
70
4
71
3
72
12
73
8
40
0
40
0
40
0
40
0
40
0.250000000000003
40
0.250000000000003
40
0.500000000000006
40
0.500000000000006
40
1
40
1
40
1
40
1
41
1
10
56.1183870115625
20
4.85031886493329
30
0
41
1
10
56.1120504023023
20
4.85229370843433
30
0
41
1
10
56.1058803009315
20
4.85469077225923
30
0
41
1
10
56.0937386876271
20
4.85998203882232
30
0
41
1
10
56.087769703495
20
4.86288276280976
30
0
41
1
10
56.0700741898538
20
4.87210701812327
30
0
41
1
10
56.0585552225462
20
4.87894260411775
30
0
41
1
10
56.047202056501
20
4.88617354094714
30
0
0
SPLINE
5
134
100
AcDbEntity
8
1
62
256
6
ByLayer
370
18
48
1
60
0
100
AcDbSpline
70
4
71
3
72
8
73
4
40
0
40
0
40
0
40
0
40
1
40
1
40
1
40
1
41
1
10
59.74456534894
20
1.43024101806498
30
0
41
1
10
59.7706311726153
20
1.35285242946605
30
0
41
1
10
59.7947506590259
20
1.27501579233808
30
0
41
1
10
59.8169170303888
20
1.19672954642959
30
0
0
SPLINE
5
135
100
AcDbEntity
8
1
62
256
6
ByLayer
370
18
48
1
60
0
100
AcDbSpline
70
4
71
3
72
8
73
4
40
0
40
0
40
0
40
0
40
1
40
1
40
1
40
1
41
1
10
59.4948054820746
20
1.33693394596961
30
0
41
1
10
59.5780381000085
20
1.3680820627697
30
0
41
1
10
59.6612932653821
20
1.39918026630764
30
0
41
1
10
59.7445653489397
20
1.43024101806535
30
0
0
SPLINE
5
136
100
AcDbEntity
8
1
62
256
6
ByLayer
370
18
48
1
60
0
100
AcDbSpline
70
4
71
3
72
8
73
4
40
0
40
0
40
0
40
0
40
1
40
1
40
1
40
1
41
1
10
59.6536492374561
20
1.67341216264487
30
0
41
1
10
59.6862165746166
20
1.59259938563508
30
0
41
1
10
59.7165131072939
20
1.51154444101087
30
0
41
1
10
59.7445653489399
20
1.430241018065
30
0
0
SPLINE
5
137
100
AcDbEntity
8
1
62
256
6
ByLayer
370
18
48
1
60
0
100
AcDbSpline
70
4
71
3
72
9
73
5
40
0
40
0
40
0
40
0
40
0.460712770780456
40
1
40
1
40
1
40
1
41
1
10
59.2789750349578
20
2.42563069040801
30
0
41
1
10
59.3460566491984
20
2.31351774444502
30
0
41
1
10
59.4824866512057
20
2.06607029945326
30
0
41
1
10
59.5978367386395
20
1.81187618624148
30
0
41
1
10
59.6536492374561
20
1.67341216264492
30
0
0
SPLINE
5
138
100
AcDbEntity
8
1
62
256
6
ByLayer
370
18
48
1
60
0
100
AcDbSpline
70
4
71
3
72
36
73
32
40
0
40
0
40
0
40
0
40
0.0624999999999988
40
0.0624999999999988
40
0.0937500000000024
40
0.0937500000000024
40
0.125000000000006
40
0.125000000000006
40
0.187500000000005
40
0.187500000000005
40
0.250000000000004
40
0.250000000000004
40
0.37500000000001
40
0.37500000000001
40
0.437500000000017
40
0.437500000000017
40
0.468750000000025
40
0.468750000000025
40
0.500000000000032
40
0.500000000000032
40
0.625000000000039
40
0.625000000000039
40
0.750000000000045
40
0.750000000000045
40
0.781250000000042
40
0.781250000000042
40
0.812500000000039
40
0.812500000000039
40
0.875000000000026
40
0.875000000000026
40
1
40
1
40
1
40
1
41
1
10
56.102341301848
20
4.87300526454391
30
0
41
1
10
56.1795541212819
20
4.8542255598515
30
0
41
1
10
56.2567585552107
20
4.83310344560925
30
0
41
1
10
56.3727140080781
20
4.79775200774267
30
0
41
1
10
56.411392733495
20
4.78535574185918
30
0
41
1
10
56.488799853346
20
4.75933467277241
30
0
41
1
10
56.5273975073653
20
4.7457534261969
30
0
41
1
10
56.6427382285692
20
4.70337538616363
30
0
41
1
10
56.7190880337072
20
4.67292621824021
30
0
41
1
10
56.8706694098194
20
4.60777493472855
30
0
41
1
10
56.9459005946133
20
4.57307191681224
30
0
41
1
10
57.1699201973542
20
4.46259675627206
30
0
41
1
10
57.3170551741222
20
4.38051660973389
30
0
41
1
10
57.5344421723302
20
4.24454242552787
30
0
41
1
10
57.6063489751989
20
4.19706520748852
30
0
41
1
10
57.7133595819344
20
4.12252949274514
30
0
41
1
10
57.7488253833724
20
4.09717239293434
30
0
41
1
10
57.8190071618061
20
4.04569365054209
30
0
41
1
10
57.8537747323399
20
4.01953631243762
30
0
41
1
10
58.026016127413
20
3.88668684903632
30
0
41
1
10
58.1587093058699
20
3.77382145393642
30
0
41
1
10
58.4140969961215
20
3.5351709313891
30
0
41
1
10
58.536788629161
20
3.40937310629957
30
0
41
1
10
58.683730526119
20
3.24382903868189
30
0
41
1
10
58.712797818317
20
3.21030554384015
30
0
41
1
10
58.7702826611861
20
3.14242000283838
30
0
41
1
10
58.798703947263
20
3.10804976784985
30
0
41
1
10
58.8824114303317
20
3.00438376882011
30
0
41
1
10
58.9363425849085
20
2.93430258865266
30
0
41
1
10
59.0926102242695
20
2.72119062049012
30
0
41
1
10
59.1894235401155
20
2.57528534939857
30
0
41
1
10
59.2789750349579
20
2.42563069040779
30
0
0
SPLINE
5
139
100
AcDbEntity
8
1
62
256
6
ByLayer
370
18
48
1
60
0
100
AcDbSpline
70
4
71
3
72
10
73
6
40
0
40
0
40
0
40
0
40
0.5
40
0.5
40
1
40
1
40
1
40
1
41
1
10
56.1183870116193
20
4.85031886491578
30
0
41
1
10
56.2071961363822
20
4.82264095143182
30
0
41
1
10
56.2951560948531
20
4.79064443270858
30
0
41
1
10
56.4695290050896
20
4.71751699774654
30
0
41
1
10
56.5560214129769
20
4.67668183597476
30
0
41
1
10
56.6422940287034
20
4.6330740029419
30
0
0
SPLINE
5
13A
100
AcDbEntity
8
1
62
256
6
ByLayer
370
18
48
1
60
0
100
AcDbSpline
70
4
71
3
72
8
73
4
40
0
40
0
40
0
40
0
40
1
40
1
40
1
40
1
41
1
10
57.4704490693792
20
2.85788542311067
30
0
41
1
10
57.5576236287613
20
2.72591227991043
30
0
41
1
10
57.647647905536
20
2.59565359019206
30
0
41
1
10
57.740735282997
20
2.46723773009973
30
0
0
SPLINE
5
13B
100
AcDbEntity
8
1
62
256
6
ByLayer
370
18
48
1
60
0
100
AcDbSpline
70
4
71
3
72
8
73
4
40
0
40
0
40
0
40
0
40
1
40
1
40
1
40
1
41
1
10
59.9783613242356
20
-0.0569374276278154
30
0
41
1
10
59.9816374086144
20
-0.0585893575277794
30
0
41
1
10
59.9848940937802
20
-0.0602410857325708
30
0
41
1
10
59.9881315070406
20
-0.0618926135657034
30
0
0
SPLINE
5
13C
100
AcDbEntity
8
1
62
256
6
ByLayer
370
18
48
1
60
0
100
AcDbSpline
70
4
71
1
72
4
73
2
40
0
40
0
40
1
40
1
41
1
10
52.1350827818902
20
-3.79277638924535
30
0
41
1
10
52.1352043049459
20
-3.79263074925009
30
0
0
SPLINE
5
13D
100
AcDbEntity
8
1
62
256
6
ByLayer
370
18
48
1
60
0
100
AcDbSpline
70
4
71
3
72
10
73
6
40
0
40
0
40
0
40
0
40
0.5
40
0.5
40
1
40
1
40
1
40
1
41
1
10
57.0715800935858
20
3.09054148801766
30
0
41
1
10
57.1360859104687
20
3.04899540207995
30
0
41
1
10
57.2014805214685
20
3.00896671320749
30
0
41
1
10
57.3343759568741
20
2.93157511117261
30
0
41
1
10
57.4018660516188
20
2.89420056629248
30
0
41
1
10
57.4704490693794
20
2.85788542311081
30
0
0
SPLINE
5
13E
100
AcDbEntity
8
1
62
256
6
ByLayer
370
18
48
1
60
0
100
AcDbSpline
70
4
71
3
72
8
73
4
40
0
40
0
40
0
40
0
40
1
40
1
40
1
40
1
41
1
10
57.4704490693802
20
2.85788542311099
30
0
41
1
10
57.389202570093
20
2.85154282352082
30
0
41
1
10
57.3078464613868
20
2.84657774193801
30
0
41
1
10
57.2263890982427
20
2.84288517701231
30
0
0
SPLINE
5
13F
100
AcDbEntity
8
1
62
256
6
ByLayer
370
18
48
1
60
0
100
AcDbSpline
70
4
71
3
72
52
73
48
40
0
40
0
40
0
40
0
40
0.124999999999969
40
0.124999999999969
40
0.187499999999954
40
0.187499999999954
40
0.249999999999939
40
0.249999999999939
40
0.374999999999909
40
0.374999999999909
40
0.406249999999903
40
0.406249999999903
40
0.437499999999895
40
0.437499999999895
40
0.499999999999884
40
0.499999999999884
40
0.531249999999879
40
0.531249999999879
40
0.562499999999874
40
0.562499999999874
40
0.593749999999869
40
0.593749999999869
40
0.624999999999864
40
0.624999999999864
40
0.640624999999862
40
0.640624999999862
40
0.65624999999986
40
0.65624999999986
40
0.68749999999985
40
0.68749999999985
40
0.703124999999844
40
0.703124999999844
40
0.718749999999839
40
0.718749999999839
40
0.749999999999844
40
0.749999999999844
40
0.78124999999985
40
0.78124999999985
40
0.812499999999856
40
0.812499999999856
40
0.874999999999894
40
0.874999999999894
40
0.906249999999929
40
0.906249999999929
40
0.937499999999964
40
0.937499999999964
40
1
40
1
40
1
40
1
41
1
10
56.6422940287027
20
4.63307400294192
30
0
41
1
10
56.6800270952958
20
4.6140010731516
30
0
41
1
10
56.7171539766758
20
4.59349773089781
30
0
41
1
10
56.7716866048326
20
4.560140534151
30
0
41
1
10
56.7896702022086
20
4.54858600147062
30
0
41
1
10
56.8251728261023
20
4.52445827254345
30
0
41
1
10
56.8426661016189
20
4.51190054873916
30
0
41
1
10
56.8938976866998
20
4.47269853737632
30
0
41
1
10
56.9265587738594
20
4.44453056022246
30
0
41
1
10
56.9642797017262
20
4.40522978201508
30
0
41
1
10
56.9716635949336
20
4.39715877474728
30
0
41
1
10
56.98605124991
20
4.38052040687001
30
0
41
1
10
56.9930747373328
20
4.37192726741267
30
0
41
1
10
57.0132895331261
20
4.34546514024049
30
0
41
1
10
57.0256285797479
20
4.32696932832903
30
0
41
1
10
57.0416563039244
20
4.29738060396485
30
0
41
1
10
57.0465746549003
20
4.28720001572566
30
0
41
1
10
57.0551958265153
20
4.26650314286346
30
0
41
1
10
57.0589256428303
20
4.25594249687305
30
0
41
1
10
57.0649970172067
20
4.23431554471986
30
0
41
1
10
57.0673416111377
20
4.22324074520117
30
0
41
1
10
57.0703094500533
20
4.20050459810446
30
0
41
1
10
57.070888200201
20
4.18915885124417
30
0
41
1
10
57.0703050906984
20
4.17217596829508
30
0
41
1
10
57.0698685632401
20
4.16652097066182
30
0
41
1
10
57.0684917287914
20
4.15522337366946
30
0
41
1
10
57.0675443334687
20
4.14955100590205
30
0
41
1
10
57.0639707011851
20
4.13280410344132
30
0
41
1
10
57.0606340386701
20
4.12202371255694
30
0
41
1
10
57.0543240832987
20
4.10637819151268
30
0
41
1
10
57.052002879496
20
4.10125069118379
30
0
41
1
10
57.0469416807451
20
4.09116419192435
30
0
41
1
10
57.0441937070009
20
4.08619545183271
30
0
41
1
10
57.035502562074
20
4.07177573938299
30
0
41
1
10
57.0290761779052
20
4.0627216718662
30
0
41
1
10
57.0151905942626
20
4.0455275631374
30
0
41
1
10
57.0077302276293
20
4.03738856208838
30
0
41
1
10
56.9919364726712
20
4.02188449861708
30
0
41
1
10
56.9836429559632
20
4.01456498707108
30
0
41
1
10
56.9581426546843
20
3.99395475953699
30
0
41
1
10
56.9401807123889
20
3.98184867565845
30
0
41
1
10
56.9122471000657
20
3.96539097535694
30
0
41
1
10
56.9027675144256
20
3.96019414046145
30
0
41
1
10
56.8835188193882
20
3.95030087234332
30
0
41
1
10
56.8737392227825
20
3.94560138719433
30
0
41
1
10
56.8443080360062
20
3.93228672770226
30
0
41
1
10
56.8244688879447
20
3.92439492355956
30
0
41
1
10
56.8044721844257
20
3.91724526976694
30
0
0
SPLINE
5
140
100
AcDbEntity
8
1
62
256
6
ByLayer
370
18
48
1
60
0
100
AcDbSpline
70
4
71
3
72
10
73
6
40
0
40
0
40
0
40
0
40
0.5
40
0.5
40
1
40
1
40
1
40
1
41
1
10
59.5945589508028
20
-0.627588345986595
30
0
41
1
10
59.5920341104691
20
-0.619527225525331
30
0
41
1
10
59.5898441455928
20
-0.610714326349722
30
0
41
1
10
59.5863687726588
20
-0.591234579571335
30
0
41
1
10
59.5850782654243
20
-0.580576482576163
30
0
41
1
10
59.5844421860137
20
-0.568671600502171
30
0
0
SPLINE
5
141
100
AcDbEntity
8
1
62
256
6
ByLayer
370
18
48
1
60
0
100
AcDbSpline
70
4
71
3
72
16
73
12
40
0
40
0
40
0
40
0
40
0.250000000000006
40
0.250000000000006
40
0.500000000000013
40
0.500000000000013
40
0.625000000000003
40
0.625000000000003
40
0.749999999999993
40
0.749999999999993
40
1
40
1
40
1
40
1
41
1
10
52.1350827818901
20
-3.79277638924535
30
0
41
1
10
52.2209073901375
20
-3.8582753542579
30
0
41
1
10
52.3063400115271
20
-3.92199737206513
30
0
41
1
10
52.4774972925717
20
-4.04546206521394
30
0
41
1
10
52.5632068125438
20
-4.10521781677733
30
0
41
1
10
52.6925264744607
20
-4.19159303733633
30
0
41
1
10
52.7357576117366
20
-4.21984110335291
30
0
41
1
10
52.8225481141345
20
-4.27519957173561
30
0
41
1
10
52.866166185649
20
-4.30234484185675
30
0
41
1
10
52.9970353809128
20
-4.38164591848522
30
0
41
1
10
53.0843759036245
20
-4.43171440381363
30
0
41
1
10
53.172135320774
20
-4.47891358358089
30
0
0
SPLINE
5
142
100
AcDbEntity
8
1
62
256
6
ByLayer
370
18
48
1
60
0
100
AcDbSpline
70
4
71
3
72
8
73
4
40
0
40
0
40
0
40
0
40
1
40
1
40
1
40
1
41
1
10
52.1350827818902
20
-3.79277638924535
30
0
41
1
10
52.1340553455576
20
-3.7919563006738
30
0
41
1
10
52.133027751256
20
-3.7911364158237
30
0
41
1
10
52.132
20
-3.79031673607437
30
0
0
SPLINE
5
143
100
AcDbEntity
8
1
62
256
6
ByLayer
370
18
48
1
60
0
100
AcDbSpline
70
4
71
1
72
4
73
2
40
0
40
0
40
1
40
1
41
1
10
52.1352043049459
20
-3.79263074925009
30
0
41
1
10
52.2637024349109
20
-3.6360779425317
30
0
0
SPLINE
5
144
100
AcDbEntity
8
1
62
256
6
ByLayer
370
18
48
1
60
0
100
AcDbSpline
70
4
71
3
72
12
73
8
40
0
40
0
40
0
40
0
40
0.250000000000162
40
0.250000000000162
40
0.500000000000324
40
0.500000000000324
40
1
40
1
40
1
40
1
41
1
10
59.4948054820607
20
1.33693394597938
30
0
41
1
10
59.489767583585
20
1.33504861479503
30
0
41
1
10
59.4844981794157
20
1.33436612090475
30
0
41
1
10
59.4737884413871
20
1.33388923502915
30
0
41
1
10
59.4683999287002
20
1.33415678359012
30
0
41
1
10
59.4525105015962
20
1.33569560213809
30
0
41
1
10
59.4420845480782
20
1.33769591966288
30
0
41
1
10
59.4317254434772
20
1.34008630295474
30
0
0
SPLINE
5
145
100
AcDbEntity
8
1
62
256
6
ByLayer
370
18
48
1
60
0
100
AcDbSpline
70
4
71
3
72
38
73
34
40
0
40
0
40
0
40
0
40
0.125000000000005
40
0.125000000000005
40
0.250000000000011
40
0.250000000000011
40
0.375000000000016
40
0.375000000000016
40
0.500000000000022
40
0.500000000000022
40
0.562500000000025
40
0.562500000000025
40
0.625000000000027
40
0.625000000000027
40
0.750000000000025
40
0.750000000000025
40
0.812500000000024
40
0.812500000000024
40
0.875000000000022
40
0.875000000000022
40
0.906250000000023
40
0.906250000000023
40
0.937500000000024
40
0.937500000000024
40
0.953125000000019
40
0.953125000000019
40
0.968750000000013
40
0.968750000000013
40
0.97656250000001
40
0.97656250000001
40
0.984375000000007
40
0.984375000000007
40
1
40
1
40
1
40
1
41
1
10
57.0715790499481
20
3.09054216019072
30
0
41
1
10
57.0396796527112
20
3.11108752930517
30
0
41
1
10
57.0105800031921
20
3.13355423128706
30
0
41
1
10
56.9572461631918
20
3.18253389844568
30
0
41
1
10
56.9330197575516
20
3.20905125784077
30
0
41
1
10
56.8889690583365
20
3.26658929564124
30
0
41
1
10
56.869532772114
20
3.29710865209751
30
0
41
1
10
56.8350961867568
20
3.36165769747962
30
0
41
1
10
56.8200747232946
20
3.39571095985391
30
0
41
1
10
56.8004068955409
20
3.44966619657799
30
0
41
1
10
56.794321958059
20
3.46816075835852
30
0
41
1
10
56.7831156509817
20
3.50603898400814
30
0
41
1
10
56.7780227361762
20
3.52531670518681
30
0
41
1
10
56.764223041628
20
3.58420442900959
30
0
41
1
10
56.7569136156676
20
3.62483778603905
30
0
41
1
10
56.7495112694447
20
3.68834085447031
30
0
41
1
10
56.7476446661435
20
3.71000475891165
30
0
41
1
10
56.7457353122278
20
3.75394259723598
30
0
41
1
10
56.7456430734453
20
3.77632643996171
30
0
41
1
10
56.7480635284203
20
3.8101160588912
30
0
41
1
10
56.7493011418512
20
3.8214236037511
30
0
41
1
10
56.7532328452305
20
3.84414474990461
30
0
41
1
10
56.7559051695901
20
3.85552893325536
30
0
41
1
10
56.7618789774253
20
3.87211136714782
30
0
41
1
10
56.7642147125067
20
3.87756028740171
30
0
41
1
10
56.7696943498572
20
3.88787982444444
30
0
41
1
10
56.7728477737485
20
3.8927912402113
30
0
41
1
10
56.7784673587763
20
3.89962466575287
30
0
41
1
10
56.7804922034991
20
3.90180744818858
30
0
41
1
10
56.7847308818814
20
3.90581169198106
30
0
41
1
10
56.7869605457524
20
3.90765380324746
30
0
41
1
10
56.7939940921999
20
3.91268268585441
30
0
41
1
10
56.7991451100796
20
3.91534061896533
30
0
41
1
10
56.8044721850292
20
3.91724526998283
30
0
0
SPLINE
5
146
100
AcDbEntity
8
1
62
256
6
ByLayer
370
18
48
1
60
0
100
AcDbSpline
70
4
71
3
72
24
73
20
40
0
40
0
40
0
40
0
40
0.140965492939764
40
0.140965492939764
40
0.226868943645695
40
0.226868943645695
40
0.312772394351626
40
0.312772394351626
40
0.484579295763638
40
0.484579295763638
40
0.570482746469726
40
0.570482746469726
40
0.656386197175815
40
0.656386197175815
40
0.828193098587817
40
0.828193098587817
40
0.914096549293909
40
0.914096549293909
40
1
40
1
40
1
40
1
41
1
10
59.2275309574934
20
1.27167139300943
30
0
41
1
10
59.2349325181195
20
1.2774584871658
30
0
41
1
10
59.242664770227
20
1.28322079631224
30
0
41
1
10
59.2556947030182
20
1.29234763204948
30
0
41
1
10
59.2607643075056
20
1.29576892027859
30
0
41
1
10
59.2712010740021
20
1.30249946868071
30
0
41
1
10
59.2765905099369
20
1.30582149295805
30
0
41
1
10
59.2930582600484
20
1.31541968079219
30
0
41
1
10
59.3044270520441
20
1.32134054240683
30
0
41
1
10
59.3222075491229
20
1.32908226515463
30
0
41
1
10
59.3282564700924
20
1.33147079225481
30
0
41
1
10
59.3406347729082
20
1.33576011641179
30
0
41
1
10
59.3469994106851
20
1.3376677463574
30
0
41
1
10
59.3662046962594
20
1.34237863766026
30
0
41
1
10
59.3792059920051
20
1.34419301050897
30
0
41
1
10
59.3990211126848
20
1.34446359058742
30
0
41
1
10
59.4057132772695
20
1.34413819142881
30
0
41
1
10
59.4188485221431
20
1.34268503065206
30
0
41
1
10
59.4253275897166
20
1.34156262000383
30
0
41
1
10
59.4317254434772
20
1.340086302955
30
0
0
SPLINE
5
147
100
AcDbEntity
8
1
62
256
6
ByLayer
370
18
48
1
60
0
100
AcDbSpline
70
4
71
3
72
8
73
4
40
0
40
0
40
0
40
0
40
1
40
1
40
1
40
1
41
1
10
59.6985211029346
20
-1.27499629626419
30
0
41
1
10
59.7080290322428
20
-1.29320240866804
30
0
41
1
10
59.7175112109884
20
-1.31137761003873
30
0
41
1
10
59.7269682360077
20
-1.32952261681962
30
0
0
SPLINE
5
148
100
AcDbEntity
8
1
62
256
6
ByLayer
370
18
48
1
60
0
100
AcDbSpline
70
4
71
3
72
8
73
4
40
0
40
0
40
0
40
0
40
1
40
1
40
1
40
1
41
1
10
59.6785011690212
20
-0.972941046798013
30
0
41
1
10
59.6789164847215
20
-0.977127507718393
30
0
41
1
10
59.6792726118277
20
-0.981223649080817
30
0
41
1
10
59.6795674730811
20
-0.985226301066746
30
0
0
SPLINE
5
149
100
AcDbEntity
8
1
62
256
6
ByLayer
370
18
48
1
60
0
100
AcDbSpline
70
4
71
3
72
8
73
4
40
0
40
0
40
0
40
0
40
1
40
1
40
1
40
1
41
1
10
59.5945589508028
20
-0.627588345986624
30
0
41
1
10
59.6054499413192
20
-0.662360281987276
30
0
41
1
10
59.6155848967088
20
-0.696014441665881
30
0
41
1
10
59.624828179136
20
-0.728350288360389
30
0
0
SPLINE
5
14A
100
AcDbEntity
8
1
62
256
6
ByLayer
370
18
48
1
60
0
100
AcDbSpline
70
4
71
3
72
8
73
4
40
0
40
0
40
0
40
0
40
1
40
1
40
1
40
1
41
1
10
52.1320000000001
20
3.8129962699044
30
0
41
1
10
52.0309155288223
20
3.84216988436523
30
0
41
1
10
51.9299161876226
20
3.87187510776678
30
0
41
1
10
51.8290019033609
20
3.9021114839978
30
0
0
SPLINE
5
14B
100
AcDbEntity
8
1
62
256
6
ByLayer
370
18
48
1
60
0
100
AcDbSpline
70
4
71
3
72
8
73
4
40
0
40
0
40
0
40
0
40
1
40
1
40
1
40
1
41
1
10
52.132
20
-3.79031673607392
30
0
41
1
10
52.042645454695
20
-3.72481275980363
30
0
41
1
10
51.9531710474054
20
-3.66226741569759
30
0
41
1
10
51.8635513630846
20
-3.60330804008493
30
0
0
SPLINE
5
14C
100
AcDbEntity
8
1
62
256
6
ByLayer
370
18
48
1
60
0
100
AcDbSpline
70
4
71
3
72
10
73
6
40
0
40
0
40
0
40
0
40
0.5
40
0.5
40
1
40
1
40
1
40
1
41
1
10
50.7072235212309
20
-3.63442345991604
30
0
41
1
10
50.8967492813426
20
-3.62174766502361
30
0
41
1
10
51.0879992355552
20
-3.61271644969653
30
0
41
1
10
51.4736008568991
20
-3.60222331534118
30
0
41
1
10
51.6679488874576
20
-3.60076328160386
30
0
41
1
10
51.8635513630846
20
-3.60330804008493
30
0
0
SPLINE
5
14D
100
AcDbEntity
8
1
62
256
6
ByLayer
370
18
48
1
60
0
100
AcDbSpline
70
4
71
3
72
12
73
8
40
0
40
0
40
0
40
0
40
0.500000000000052
40
0.500000000000052
40
0.750000000000026
40
0.750000000000026
40
1
40
1
40
1
40
1
41
1
10
52.132
20
3.23435456151026
30
0
41
1
10
52.0873671164336
20
3.21159521363316
30
0
41
1
10
52.0426754868549
20
3.18756146794777
30
0
41
1
10
51.9755421342228
20
3.14943027784517
30
0
41
1
10
51.9531483330771
20
3.13637242016327
30
0
41
1
10
51.9083269339165
20
3.10952353748499
30
0
41
1
10
51.8859018016467
20
3.09573303485817
30
0
41
1
10
51.8635513630846
20
3.08161327535663
30
0
0
SPLINE
5
14E
100
AcDbEntity
8
1
62
256
6
ByLayer
370
18
48
1
60
0
100
AcDbSpline
70
4
71
3
72
10
73
6
40
0
40
0
40
0
40
0
40
0.5
40
0.5
40
1
40
1
40
1
40
1
41
1
10
50.7072235212297
20
3.45310188077406
30
0
41
1
10
50.8967492813416
20
3.38146142170143
30
0
41
1
10
51.0879992355543
20
3.31492434372618
30
0
41
1
10
51.4736008568987
20
3.19139913030688
30
0
41
1
10
51.6679488874574
20
3.13440371145944
30
0
41
1
10
51.8635513630846
20
3.08161327535663
30
0
0
SPLINE
5
14F
100
AcDbEntity
8
1
62
256
6
ByLayer
370
18
48
1
60
0
100
AcDbSpline
70
4
71
3
72
8
73
4
40
0
40
0
40
0
40
0
40
1
40
1
40
1
40
1
41
1
10
57.421967186509
20
-3.86967506255883
30
0
41
1
10
57.3852228085107
20
-3.9722359631414
30
0
41
1
10
57.3454577957668
20
-4.07487016480292
30
0
41
1
10
57.3018993061848
20
-4.17759642433825
30
0
0
SPLINE
5
150
100
AcDbEntity
8
1
62
256
6
ByLayer
370
18
48
1
60
0
100
AcDbSpline
70
4
71
3
72
8
73
4
40
0
40
0
40
0
40
0
40
1
40
1
40
1
40
1
41
1
10
52.3388578260303
20
-3.02229131883777
30
0
41
1
10
52.4134381011757
20
-3.10568454156146
30
0
41
1
10
52.4868860966183
20
-3.18961204605881
30
0
41
1
10
52.5592148374572
20
-3.27406768625747
30
0
0
SPLINE
5
151
100
AcDbEntity
8
1
62
256
6
ByLayer
370
18
48
1
60
0
100
AcDbSpline
70
4
71
3
72
24
73
20
40
0
40
0
40
0
40
0
40
0.250000000000001
40
0.250000000000001
40
0.500000000000002
40
0.500000000000002
40
0.625000000000001
40
0.625000000000001
40
0.687500000000001
40
0.687500000000001
40
0.750000000000001
40
0.750000000000001
40
0.812500000000001
40
0.812500000000001
40
0.875000000000001
40
0.875000000000001
40
0.9375
40
0.9375
40
1
40
1
40
1
40
1
41
1
10
57.3039336901993
20
-3.72646542883214
30
0
41
1
10
57.3204667930474
20
-3.73118480611208
30
0
41
1
10
57.3364121150548
20
-3.73680088767713
30
0
41
1
10
57.3665575853237
20
-3.75069544585051
30
0
41
1
10
57.3808465011089
20
-3.75900315010273
30
0
41
1
10
57.3993940277767
20
-3.77449232547002
30
0
41
1
10
57.4051093615499
20
-3.78017273626398
30
0
41
1
10
57.4126678610839
20
-3.78981681667463
30
0
41
1
10
57.4150165421778
20
-3.79322067578357
30
0
41
1
10
57.4192812143329
20
-3.80050755736693
30
0
41
1
10
57.4212088285579
20
-3.80441951162476
30
0
41
1
10
57.4244314728208
20
-3.8127204868448
30
0
41
1
10
57.4257248019074
20
-3.81709148413631
30
0
41
1
10
57.4275312830945
20
-3.82637448608216
30
0
41
1
10
57.4280434559547
20
-3.83133975444122
30
0
41
1
10
57.4280796568085
20
-3.84166056232604
30
0
41
1
10
57.4276131998208
20
-3.84699639979667
30
0
41
1
10
57.4256147009716
20
-3.85805386867773
30
0
41
1
10
57.4240631935294
20
-3.86382465233447
30
0
41
1
10
57.421967176706
20
-3.86967506283773
30
0
0
SPLINE
5
152
100
AcDbEntity
8
1
62
256
6
ByLayer
370
18
48
1
60
0
100
AcDbSpline
70
4
71
3
72
8
73
4
40
0
40
0
40
0
40
0
40
1
40
1
40
1
40
1
41
1
10
52.3388578260303
20
-3.02229131883777
30
0
41
1
10
52.2698277935421
20
-3.02139928899968
30
0
41
1
10
52.2008709631066
20
-3.0208862388358
30
0
41
1
10
52.132
20
-3.02073269185948
30
0
0
SPLINE
5
153
100
AcDbEntity
8
1
62
256
6
ByLayer
370
18
48
1
60
0
100
AcDbSpline
70
4
71
3
72
8
73
4
40
0
40
0
40
0
40
0
40
1
40
1
40
1
40
1
41
1
10
59.7534495639715
20
-1.17656300372116
30
0
41
1
10
59.7409207151036
20
-1.20596469969226
30
0
41
1
10
59.7282274781926
20
-1.2352352102904
30
0
41
1
10
59.7153716980213
20
-1.2643760076939
30
0
0
SPLINE
5
154
100
AcDbEntity
8
1
62
256
6
ByLayer
370
18
48
1
60
0
100
AcDbSpline
70
4
71
3
72
8
73
4
40
0
40
0
40
0
40
0
40
1
40
1
40
1
40
1
41
1
10
59.4749195686908
20
-1.759621786617
30
0
41
1
10
59.4495253844042
20
-1.80735093427037
30
0
41
1
10
59.4236870736191
20
-1.85463760002367
30
0
41
1
10
59.3974049970155
20
-1.90148214322153
30
0
0
SPLINE
5
155
100
AcDbEntity
8
1
62
256
6
ByLayer
370
18
48
1
60
0
100
AcDbSpline
70
4
71
3
72
35
73
31
40
0
40
0
40
0
40
0
40
0.0625000000000067
40
0.0625000000000067
40
0.125000000000013
40
0.125000000000013
40
0.156250000000014
40
0.156250000000014
40
0.187500000000014
40
0.187500000000014
40
0.250000000000021
40
0.250000000000021
40
0.375000000000035
40
0.375000000000035
40
0.437500000000038
40
0.437500000000038
40
0.468750000000036
40
0.468750000000036
40
0.500000000000033
40
0.500000000000033
40
0.625000000000015
40
0.625000000000015
40
0.749999999999997
40
0.749999999999997
40
0.781249999999995
40
0.781249999999995
40
0.812499999999993
40
0.874999999999999
40
0.874999999999999
40
1
40
1
40
1
40
1
41
1
10
59.3974049970155
20
-1.90148214322156
30
0
41
1
10
59.3740931160302
20
-1.96002732490569
30
0
41
1
10
59.3490992469214
20
-2.01862253740825
30
0
41
1
10
59.2958015826256
20
-2.13591141632546
30
0
41
1
10
59.267514522419
20
-2.19460458495732
30
0
41
1
10
59.2225051511503
20
-2.28272104386997
30
0
41
1
10
59.2070624033379
20
-2.31212281240008
30
0
41
1
10
59.1753304625738
20
-2.37088267247972
30
0
41
1
10
59.1591204605022
20
-2.40009501800904
30
0
41
1
10
59.1094688877916
20
-2.48723442973724
30
0
41
1
10
59.0750115998396
20
-2.54466672032709
30
0
41
1
10
58.9675574786529
20
-2.7149750453506
30
0
41
1
10
58.890470966681
20
-2.82585891792738
30
0
41
1
10
58.7665259901753
20
-2.98813422738499
30
0
41
1
10
58.7238329736497
20
-3.04155473480481
30
0
41
1
10
58.6576499617971
20
-3.12064136179959
30
0
41
1
10
58.6351926737403
20
-3.14687066980358
30
0
41
1
10
58.5897097184281
20
-3.19877458139106
30
0
41
1
10
58.5667532667564
20
-3.22437230966429
30
0
41
1
10
58.4509084861035
20
-3.35061015972508
30
0
41
1
10
58.3548387950442
20
-3.4460081316785
30
0
41
1
10
58.1561746082974
20
-3.62605270473921
30
0
41
1
10
58.0535563007699
20
-3.71066006943445
30
0
41
1
10
57.9210826893753
20
-3.80949744756831
30
0
41
1
10
57.8944312824115
20
-3.82887538920229
30
0
41
1
10
57.8411335028283
20
-3.86662942611807
30
0
41
1
10
57.7610554103445
20
-3.92186202898355
30
0
41
1
10
57.6805891150914
20
-3.97296382760513
30
0
41
1
10
57.5191539093321
20
-4.06981917546423
30
0
41
1
10
57.4108635788711
20
-4.1272934561128
30
0
41
1
10
57.3018993062007
20
-4.17759642433816
30
0
0
SPLINE
5
156
100
AcDbEntity
8
1
62
256
6
ByLayer
370
18
48
1
60
0
100
AcDbSpline
70
4
71
3
72
56
73
52
40
0
40
0
40
0
40
0
40
0.0312500000000119
40
0.0468750000000212
40
0.0468750000000212
40
0.0625000000000305
40
0.0625000000000305
40
0.125000000000055
40
0.125000000000055
40
0.187500000000079
40
0.187500000000079
40
0.203125000000085
40
0.203125000000085
40
0.218750000000091
40
0.218750000000091
40
0.250000000000103
40
0.250000000000103
40
0.281250000000116
40
0.281250000000116
40
0.296875000000122
40
0.300781250000122
40
0.300781250000122
40
0.302734375000125
40
0.302734375000125
40
0.304687500000128
40
0.304687500000128
40
0.312500000000128
40
0.312500000000128
40
0.375000000000118
40
0.375000000000118
40
0.437500000000107
40
0.437500000000107
40
0.453125000000105
40
0.453125000000105
40
0.468750000000102
40
0.468750000000102
40
0.500000000000097
40
0.500000000000097
40
0.625000000000077
40
0.625000000000077
40
0.687500000000065
40
0.687500000000065
40
0.718750000000058
40
0.718750000000058
40
0.750000000000052
40
0.750000000000052
40
0.875000000000026
40
0.875000000000026
40
0.937500000000013
40
0.937500000000013
40
1
40
1
40
1
40
1
41
1
10
57.3018993062011
20
-4.17759642433595
30
0
41
1
10
57.2506581764615
20
-4.20647619202038
30
0
41
1
10
57.1729352288261
20
-4.24807032718775
30
0
41
1
10
57.093888517581
20
-4.28704006507434
30
0
41
1
10
57.0408921787006
20
-4.31243117710238
30
0
41
1
10
57.0142036995216
20
-4.32485055661411
30
0
41
1
10
56.8807982154441
20
-4.38510553994021
30
0
41
1
10
56.7738154761417
20
-4.42760505666701
30
0
41
1
10
56.5589464969153
20
-4.5015937977191
30
0
41
1
10
56.4510644376359
20
-4.53310285396884
30
0
41
1
10
56.3154037961985
20
-4.56564333785201
30
0
41
1
10
56.2882311149304
20
-4.5718077810188
30
0
41
1
10
56.2337984123111
20
-4.58344807290041
30
0
41
1
10
56.2065598765357
20
-4.58891820735374
30
0
41
1
10
56.1251629765373
20
-4.60421338959546
30
0
41
1
10
56.0711745608558
20
-4.61295501568517
30
0
41
1
10
55.9636662299746
20
-4.62762516324699
30
0
41
1
10
55.9101461521104
20
-4.63355503100593
30
0
41
1
10
55.8301588011141
20
-4.64041871657548
30
0
41
1
10
55.7968918448334
20
-4.64285517535441
30
0
41
1
10
55.7636960581716
20
-4.64475608171398
30
0
41
1
10
55.7537414985784
20
-4.64529425645205
30
0
41
1
10
55.7504269401006
20
-4.64544411509797
30
0
41
1
10
55.7437639172124
20
-4.64602306787654
30
0
41
1
10
55.7404342612255
20
-4.64629812004725
30
0
41
1
10
55.7237902473908
20
-4.64764182090593
30
0
41
1
10
55.710485577306
20
-4.64864160061916
30
0
41
1
10
55.5908364967734
20
-4.65694745230181
30
0
41
1
10
55.4851524522509
20
-4.65930951272583
30
0
41
1
10
55.2746712425838
20
-4.65428854318256
30
0
41
1
10
55.1698724484247
20
-4.64693804096211
30
0
41
1
10
55.0391951310673
20
-4.63154442993201
30
0
41
1
10
55.0130744747223
20
-4.62816865976478
30
0
41
1
10
54.9608449229507
20
-4.62097310090843
30
0
41
1
10
54.9347844024873
20
-4.61711702415479
30
0
41
1
10
54.8569450556246
20
-4.60462837231086
30
0
41
1
10
54.8054346841675
20
-4.59512328342078
30
0
41
1
10
54.5496160509143
20
-4.54187446721838
30
0
41
1
10
54.3504484271946
20
-4.48107414677514
30
0
41
1
10
54.0574762000733
20
-4.36398808996276
30
0
41
1
10
53.9607920047282
20
-4.32062845788241
30
0
41
1
10
53.8170319045834
20
-4.24899193168693
30
0
41
1
10
53.7692249973727
20
-4.22395433281625
30
0
41
1
10
53.6746935327922
20
-4.17206133652377
30
0
41
1
10
53.6279283403294
20
-4.14519138818701
30
0
41
1
10
53.3964469762975
20
-4.0063755123594
30
0
41
1
10
53.2186871300897
20
-3.88114364134276
30
0
41
1
10
52.9630955030994
20
-3.67074915760025
30
0
41
1
10
52.8797318407753
20
-3.59687162192685
30
0
41
1
10
52.7166430705035
20
-3.44143756950598
30
0
41
1
10
52.6369634441749
20
-3.35981326879866
30
0
41
1
10
52.5592148374572
20
-3.27406768625747
30
0
0
SPLINE
5
157
100
AcDbEntity
8
1
62
256
6
ByLayer
370
18
48
1
60
0
100
AcDbSpline
70
4
71
1
72
4
73
2
40
0
40
0
40
1
40
1
41
1
10
52.2637024349109
20
-3.6360779425317
30
0
41
1
10
52.5592148374572
20
-3.27406768625747
30
0
0
SPLINE
5
158
100
AcDbEntity
8
1
62
256
6
ByLayer
370
18
48
1
60
0
100
AcDbSpline
70
4
71
3
72
27
73
23
40
0
40
0
40
0
40
0
40
0.0847251842233499
40
0.192490375991703
40
0.257499156904728
40
0.300726071629072
40
0.387094524594704
40
0.480860935133646
40
0.560321681872201
40
0.661560981746141
40
0.676030735833333
40
0.690502756776334
40
0.708480748058869
40
0.753431066239332
40
0.85750006548328
40
0.881998217314542
40
0.883687913409972
40
0.884669291517287
40
0.8854811415231
40
0.90668041220267
40
0.95794114336239
40
1
40
1
40
1
40
1
41
1
10
52.2637024349109
20
-3.6360779425317
30
0
41
1
10
52.3745758803142
20
-3.7206506965442
30
0
41
1
10
52.6228920185054
20
-3.9073261560678
30
0
41
1
10
52.9524161230781
20
-4.13459706112181
30
0
41
1
10
53.2293895108913
20
-4.30388154409417
30
0
41
1
10
53.4818213862153
20
-4.44366314631756
30
0
41
1
10
53.7762903564614
20
-4.58440822603507
30
0
41
1
10
54.1237795763472
20
-4.71429094631486
30
0
41
1
10
54.4955842351552
20
-4.81621923846748
30
0
41
1
10
54.7625214365386
20
-4.86173937557894
30
0
41
1
10
54.9413221911866
20
-4.88032951943143
30
0
41
1
10
55.005781869697
20
-4.88598439169354
30
0
41
1
10
55.1125795727014
20
-4.89328678638384
30
0
41
1
10
55.3432040713712
20
-4.90083717526664
30
0
41
1
10
55.5834105068949
20
-4.8882831387709
30
0
41
1
10
55.763304924986
20
-4.86574044570318
30
0
41
1
10
55.8008494124032
20
-4.86048024893768
30
0
41
1
10
55.8056432703183
20
-4.8598010746235
30
0
41
1
10
55.8383952236516
20
-4.85513621381719
30
0
41
1
10
55.9424372549001
20
-4.83904738686169
30
0
41
1
10
56.10460686723
20
-4.80734825803734
30
0
41
1
10
56.2361687655652
20
-4.77466798784874
30
0
41
1
10
56.2953030701317
20
-4.75856295592646
30
0
0
SPLINE
5
159
100
AcDbEntity
8
1
62
256
6
ByLayer
370
18
48
1
60
0
100
AcDbSpline
70
4
71
3
72
8
73
4
40
0
40
0
40
0
40
0
40
1
40
1
40
1
40
1
41
1
10
59.7812310705051
20
-1.19267353464664
30
0
41
1
10
59.7719731869343
20
-1.18730775021788
30
0
41
1
10
59.7627140225762
20
-1.1819398094928
30
0
41
1
10
59.7534495639715
20
-1.17656300372113
30
0
0
SPLINE
5
15A
100
AcDbEntity
8
1
62
256
6
ByLayer
370
18
48
1
60
0
100
AcDbSpline
70
4
71
3
72
14
73
10
40
0
40
0
40
0
40
0
40
0.25
40
0.25
40
0.5
40
0.5
40
0.75
40
0.75
40
1
40
1
40
1
40
1
41
1
10
57.139325343179
20
-3.64359046674377
30
0
41
1
10
57.1506888773054
20
-3.65363871437492
30
0
41
1
10
57.1628538355145
20
-3.66268203522284
30
0
41
1
10
57.1884514481229
20
-3.67917907960819
30
0
41
1
10
57.2018704989108
20
-3.68661772847889
30
0
41
1
10
57.2296365048623
20
-3.70012397243673
30
0
41
1
10
57.2440025943378
20
-3.70619898976077
30
0
41
1
10
57.2734428350312
20
-3.71716842113952
30
0
41
1
10
57.2885302140115
20
-3.72206851651288
30
0
41
1
10
57.3039336909382
20
-3.72646542905099
30
0
0
SPLINE
5
15B
100
AcDbEntity
8
1
62
256
6
ByLayer
370
18
48
1
60
0
100
AcDbSpline
70
4
71
3
72
12
73
8
40
0
40
0
40
0
40
0
40
0.500000000000001
40
0.500000000000001
40
0.75
40
0.75
40
1
40
1
40
1
40
1
41
1
10
57.3225806048942
20
-2.81850259077314
30
0
41
1
10
57.2787260972847
20
-2.95911378321227
30
0
41
1
10
57.2402553907563
20
-3.09889545293916
30
0
41
1
10
57.1933573579214
20
-3.3059839835403
30
0
41
1
10
57.1795558076334
20
-3.37448558019659
30
0
41
1
10
57.1561523582733
20
-3.51009063756663
30
0
41
1
10
57.1465428864335
20
-3.5772234006113
30
0
41
1
10
57.1393253428348
20
-3.64359046680974
30
0
0
SPLINE
5
15C
100
AcDbEntity
8
1
62
256
6
ByLayer
370
18
48
1
60
0
100
AcDbSpline
70
4
71
3
72
12
73
8
40
0
40
0
40
0
40
0
40
0.0179387870855622
40
0.21435102966845
40
0.410763272251337
40
0.607175514834225
40
1
40
1
40
1
40
1
41
1
10
57.1393253431998
20
-3.64359046678092
30
0
41
1
10
57.1093835621332
20
-3.64013524566065
30
0
41
1
10
56.7516084477332
20
-3.59807072350699
30
0
41
1
10
56.066
20
-3.49969606938672
30
0
41
1
10
55.0824999999999
20
-3.31376717191722
30
0
41
1
10
53.7711666666666
20
-3.00923924304183
30
0
41
1
10
52.7876666666667
20
-2.72111471909847
30
0
41
1
10
52.132
20
-2.50593360085364
30
0
0
SPLINE
5
15D
100
AcDbEntity
8
1
62
256
6
ByLayer
370
18
48
1
60
0
100
AcDbSpline
70
4
71
3
72
10
73
6
40
0
40
0
40
0
40
0
40
0.0713493713682617
40
0.852555479143585
40
1
40
1
40
1
40
1
41
1
10
57.1393253431998
20
2.68596114774073
30
0
41
1
10
57.1093835621332
20
2.69513822722888
30
0
41
1
10
56.7516084477332
20
2.80422380010938
30
0
41
1
10
56.3319582042566
20
2.92408126738218
30
0
41
1
10
55.9422497418466
20
3.02633950056344
30
0
41
1
10
55.8803746127699
20
3.0423436254251
30
0
0
SPLINE
5
15E
100
AcDbEntity
8
1
62
256
6
ByLayer
370
18
48
1
60
0
100
AcDbSpline
70
4
71
3
72
10
73
6
40
0
40
0
40
0
40
0
40
0.296183575809598
40
0.296183575809598
40
1
40
1
40
1
40
1
41
1
10
57.3293474776838
20
-2.76545932850192
30
0
41
1
10
57.3296806710234
20
-2.77027648348954
30
0
41
1
10
57.3297463943864
20
-2.77526138176251
30
0
41
1
10
57.3289521649983
20
-2.79252746830602
30
0
41
1
10
57.3267264850059
20
-2.80520968408493
30
0
41
1
10
57.3225806054029
20
-2.81850258510104
30
0
0
SPLINE
5
15F
100
AcDbEntity
8
1
62
256
6
ByLayer
370
18
48
1
60
0
100
AcDbSpline
70
4
71
3
72
8
73
4
40
0
40
0
40
0
40
0
40
1
40
1
40
1
40
1
41
1
10
57.238254625205
20
0.350996981192623
30
0
41
1
10
57.2663692808504
20
0.34170915565673
30
0
41
1
10
57.2947913682264
20
0.332462000612367
30
0
41
1
10
57.3235272128799
20
0.323256352873273
30
0
0
SPLINE
5
160
100
AcDbEntity
8
1
62
256
6
ByLayer
370
18
48
1
60
0
100
AcDbSpline
70
4
71
3
72
8
73
4
40
0
40
0
40
0
40
0
40
1
40
1
40
1
40
1
41
1
10
59.1173866179855
20
-0.541563770628358
30
0
41
1
10
59.1185020259856
20
-0.542345468569408
30
0
41
1
10
59.1196175823084
20
-0.543126946707304
30
0
41
1
10
59.1207332867452
20
-0.54390820535113
30
0
0
SPLINE
5
161
100
AcDbEntity
8
1
62
256
6
ByLayer
370
18
48
1
60
0
100
AcDbSpline
70
4
71
3
72
8
73
4
40
0
40
0
40
0
40
0
40
1
40
1
40
1
40
1
41
1
10
59.1173866179855
20
-0.541563770628358
30
0
41
1
10
59.0896351289085
20
-0.47852251474751
30
0
41
1
10
59.0617438419106
20
-0.415288581004347
30
0
41
1
10
59.0337002849317
20
-0.351844779659586
30
0
0
SPLINE
5
162
100
AcDbEntity
8
1
62
256
6
ByLayer
370
18
48
1
60
0
100
AcDbSpline
70
4
71
3
72
8
73
4
40
0
40
0
40
0
40
0
40
1
40
1
40
1
40
1
41
1
10
57.2263890982385
20
2.84288517700998
30
0
41
1
10
57.2523161030592
20
2.814842653565
30
0
41
1
10
57.2770293123406
20
2.78750880867676
30
0
41
1
10
57.3001550356449
20
2.76110183845503
30
0
0
SPLINE
5
163
100
AcDbEntity
8
1
62
256
6
ByLayer
370
18
48
1
60
0
100
AcDbSpline
70
4
71
3
72
18
73
14
40
0
40
0
40
0
40
0
40
0.249999999999998
40
0.249999999999998
40
0.374999999999998
40
0.374999999999998
40
0.499999999999998
40
0.499999999999998
40
0.624999999999998
40
0.624999999999998
40
0.749999999999999
40
0.749999999999999
40
1
40
1
40
1
40
1
41
1
10
57.3001550135542
20
2.76110185267459
30
0
41
1
10
57.3061677703253
20
2.75423596632172
30
0
41
1
10
57.3115135219166
20
2.74781535183547
30
0
41
1
10
57.3182401068469
20
2.73904693767747
30
0
41
1
10
57.3202655318614
20
2.73626883996295
30
0
41
1
10
57.3238074317577
20
2.73105239940978
30
0
41
1
10
57.3253287417643
20
2.72860536767146
30
0
41
1
10
57.3277358247685
20
2.72416157863626
30
0
41
1
10
57.3286171813592
20
2.72217532417665
30
0
41
1
10
57.3296452870763
20
2.71874009350813
30
0
41
1
10
57.3297906525302
20
2.7172855284289
30
0
41
1
10
57.3289521649984
20
2.71390060142258
30
0
41
1
10
57.3267264850059
20
2.71296545413401
30
0
41
1
10
57.3225806054029
20
2.71355277961157
30
0
0
SPLINE
5
164
100
AcDbEntity
8
1
62
256
6
ByLayer
370
18
48
1
60
0
100
AcDbSpline
70
4
71
3
72
12
73
8
40
0
40
0
40
0
40
0
40
0.499999999999997
40
0.499999999999997
40
0.749999999999998
40
0.749999999999998
40
1
40
1
40
1
40
1
41
1
10
57.3225806048942
20
2.7135527792901
30
0
41
1
10
57.2787260972847
20
2.71976523482383
30
0
41
1
10
57.2402553907563
20
2.72151000444916
30
0
41
1
10
57.1933573579214
20
2.71536537935603
30
0
41
1
10
57.1795558076334
20
2.71185304587092
30
0
41
1
10
57.1561523582733
20
2.70151268681457
30
0
41
1
10
57.1465428864335
20
2.6946846017826
30
0
41
1
10
57.1393253428347
20
2.68596114784108
30
0
0
SPLINE
5
165
100
AcDbEntity
8
1
62
256
6
ByLayer
370
18
48
1
60
0
100
AcDbSpline
70
4
71
3
72
14
73
10
40
0
40
0
40
0
40
0
40
0.25
40
0.25
40
0.5
40
0.5
40
0.75
40
0.75
40
1
40
1
40
1
40
1
41
1
10
57.139325343179
20
2.68596114767061
30
0
41
1
10
57.1506888773054
20
2.67387093917932
30
0
41
1
10
57.1628538355144
20
2.66131441484893
30
0
41
1
10
57.1884514481229
20
2.63546374603405
30
0
41
1
10
57.2018704989108
20
2.6221847616587
30
0
41
1
10
57.2296365048622
20
2.59513367466866
30
0
41
1
10
57.2440025943378
20
2.58134335548141
30
0
41
1
10
57.2734428350313
20
2.55341672964363
30
0
41
1
10
57.2885302140115
20
2.53926770561216
30
0
41
1
10
57.3039336909382
20
2.52495884140393
30
0
0
SPLINE
5
166
100
AcDbEntity
8
1
62
256
6
ByLayer
370
18
48
1
60
0
100
AcDbSpline
70
4
71
3
72
24
73
20
40
0
40
0
40
0
40
0
40
0.249999999999968
40
0.249999999999968
40
0.499999999999936
40
0.499999999999936
40
0.624999999999952
40
0.624999999999952
40
0.68749999999996
40
0.68749999999996
40
0.749999999999968
40
0.749999999999968
40
0.812499999999976
40
0.812499999999976
40
0.874999999999984
40
0.874999999999984
40
0.937499999999992
40
0.937499999999992
40
1
40
1
40
1
40
1
41
1
10
57.3039336901994
20
2.52495884210063
30
0
41
1
10
57.3204667930474
20
2.50960062314263
30
0
41
1
10
57.3364121150548
20
2.49454840928186
30
0
41
1
10
57.3665575853238
20
2.46535253801613
30
0
41
1
10
57.3808465011089
20
2.45112554429579
30
0
41
1
10
57.3993940277767
20
2.43159746509994
30
0
41
1
10
57.4051093615498
20
2.42537536877211
30
0
41
1
10
57.4126678610839
20
2.41666603542598
30
0
41
1
10
57.4150165421779
20
2.413867959817
30
0
41
1
10
57.4192812143329
20
2.40853786731705
30
0
41
1
10
57.4212088285579
20
2.40598927813173
30
0
41
1
10
57.4244314728208
20
2.40133145526968
30
0
41
1
10
57.4257248019072
20
2.3992277559407
30
0
41
1
10
57.4275312830943
20
2.39557290175398
30
0
41
1
10
57.4280434559547
20
2.39401058431872
30
0
41
1
10
57.4280796568084
20
2.39165228438748
30
0
41
1
10
57.4276131998208
20
2.3908525175795
30
0
41
1
10
57.4256147009717
20
2.39008728128763
30
0
41
1
10
57.4240631935293
20
2.39012755910554
30
0
41
1
10
57.421967176706
20
2.39062065446984
30
0
0
SPLINE
5
167
100
AcDbEntity
8
1
62
256
6
ByLayer
370
18
48
1
60
0
100
AcDbSpline
70
4
71
3
72
14
73
10
40
0
40
0
40
0
40
0
40
0.50000000000001
40
0.50000000000001
40
0.625000000000007
40
0.625000000000007
40
0.750000000000005
40
0.750000000000005
40
1
40
1
40
1
40
1
41
1
10
57.7407352829918
20
2.46723773009555
30
0
41
1
10
57.9556137980613
20
2.2904213562966
30
0
41
1
10
58.1754424623402
20
2.11412282023477
30
0
41
1
10
58.4557293917127
20
1.89432512304705
30
0
41
1
10
58.5120631685675
20
1.85039449701671
30
0
41
1
10
58.6252714468654
20
1.76258981044231
30
0
41
1
10
58.6821866835102
20
1.71868537070534
30
0
41
1
10
58.8534363998948
20
1.58724857519869
30
0
41
1
10
58.9675853971156
20
1.50051881897707
30
0
41
1
10
59.0817202256048
20
1.41451432287204
30
0
0
SPLINE
5
168
100
AcDbEntity
8
1
62
256
6
ByLayer
370
18
48
1
60
0
100
AcDbSpline
70
4
71
3
72
8
73
4
40
0
40
0
40
0
40
0
40
1
40
1
40
1
40
1
41
1
10
52.1320000000001
20
-3.02073269185945
30
0
41
1
10
52.0309169607481
20
-3.02263795539932
30
0
41
1
10
51.9299176167679
20
-3.02556288846873
30
0
41
1
10
51.8290019033575
20
-3.02950670279276
30
0
0
SPLINE
5
169
100
AcDbEntity
8
1
62
256
6
ByLayer
370
18
48
1
60
0
100
AcDbSpline
70
4
71
3
72
22
73
18
40
0
40
0
40
0
40
0
40
0.0312500000000763
40
0.0312500000000763
40
0.0625000000001526
40
0.0625000000001526
40
0.125000000000161
40
0.125000000000161
40
0.250000000000177
40
0.250000000000177
40
0.375000000000194
40
0.375000000000194
40
0.50000000000021
40
0.50000000000021
40
0.750000000000105
40
0.750000000000105
40
1
40
1
40
1
40
1
41
1
10
59.5531869901203
20
0.0714399109758688
30
0
41
1
10
59.5503926743853
20
0.0714093790810182
30
0
41
1
10
59.5475145074582
20
0.0714213280541856
30
0
41
1
10
59.541670035422
20
0.0714898787561538
30
0
41
1
10
59.5387015441741
20
0.0715474258819881
30
0
41
1
10
59.5297102400898
20
0.0717645258940536
30
0
41
1
10
59.5238134084367
20
0.0719613543875823
30
0
41
1
10
59.5062535659992
20
0.0726217411544496
30
0
41
1
10
59.4947060922784
20
0.0731575139247411
30
0
41
1
10
59.471823763447
20
0.0742980826271378
30
0
41
1
10
59.4605679451986
20
0.0749032486661179
30
0
41
1
10
59.4382553749625
20
0.0761510445192357
30
0
41
1
10
59.4272024212162
20
0.0767943891529796
30
0
41
1
10
59.3942433952187
20
0.078762031549644
30
0
41
1
10
59.3725330200009
20
0.0801231590075702
30
0
41
1
10
59.3293928006384
20
0.0828982091737487
30
0
41
1
10
59.3079685512166
20
0.0843131847948939
30
0
41
1
10
59.2866398208865
20
0.0857461368715633
30
0
0
SPLINE
5
16A
100
AcDbEntity
8
1
62
256
6
ByLayer
370
18
48
1
60
0
100
AcDbSpline
70
4
71
3
72
8
73
4
40
0
40
0
40
0
40
0
40
1
40
1
40
1
40
1
41
1
10
59.0233512257337
20
-0.330251595366377
30
0
41
1
10
59.0274376967613
20
-0.338276360125519
30
0
41
1
10
59.0308801420443
20
-0.345464683680717
30
0
41
1
10
59.033700284933
20
-0.351844779662713
30
0
0
SPLINE
5
16B
100
AcDbEntity
8
1
62
256
6
ByLayer
370
18
48
1
60
0
100
AcDbSpline
70
4
71
3
72
43
73
39
40
0
40
0
40
0
40
0
40
0.0625000000000175
40
0.0625000000000175
40
0.125000000000035
40
0.125000000000035
40
0.250000000000057
40
0.250000000000057
40
0.281250000000062
40
0.281250000000062
40
0.312500000000067
40
0.375000000000076
40
0.375000000000076
40
0.406250000000073
40
0.406250000000073
40
0.437500000000069
40
0.437500000000069
40
0.500000000000061
40
0.500000000000061
40
0.562500000000053
40
0.562500000000053
40
0.625000000000046
40
0.625000000000046
40
0.687500000000038
40
0.687500000000038
40
0.75000000000003
40
0.75000000000003
40
0.812500000000023
40
0.812500000000023
40
0.843750000000019
40
0.843750000000019
40
0.875000000000015
40
0.875000000000015
40
0.937500000000007
40
0.937500000000007
40
0.968750000000004
40
0.968750000000004
40
1
40
1
40
1
40
1
41
1
10
59.0233512257334
20
-0.330251595366349
30
0
41
1
10
59.0188944515047
20
-0.321499651567393
30
0
41
1
10
59.0147625384431
20
-0.312138421477698
30
0
41
1
10
59.0074283473085
20
-0.292272943187356
30
0
41
1
10
59.0042121032648
20
-0.281720461139059
30
0
41
1
10
58.9963925349937
20
-0.248643646544622
30
0
41
1
10
58.9937225379179
20
-0.225360073043674
30
0
41
1
10
58.9941454456589
20
-0.194885547340817
30
0
41
1
10
58.9944226830782
20
-0.18869450793116
30
0
41
1
10
58.9953665268312
20
-0.176340384261863
30
0
41
1
10
58.9973620245611
20
-0.157835341497957
30
0
41
1
10
59.0010878389524
20
-0.139424262368948
30
0
41
1
10
59.006008820183
20
-0.1210978467563
30
0
41
1
10
59.0078489362179
20
-0.115003175808823
30
0
41
1
10
59.0119438384138
20
-0.10284642452848
30
0
41
1
10
59.0142046322572
20
-0.0967743014030304
30
0
41
1
10
59.0215086668764
20
-0.0789106513073818
30
0
41
1
10
59.0271004681981
20
-0.0673721868695338
30
0
41
1
10
59.0397259636232
20
-0.0450410571445445
30
0
41
1
10
59.0467592973662
20
-0.0342481376492572
30
0
41
1
10
59.0623498520946
20
-0.0134578767631695
30
0
41
1
10
59.0707447227496
20
-0.0036800587345454
30
0
41
1
10
59.0886665298871
20
0.0146034699052677
30
0
41
1
10
59.0982022259784
20
0.0231215174850377
30
0
41
1
10
59.1184946753235
20
0.0388666891397804
30
0
41
1
10
59.1292837867808
20
0.0460937407819131
30
0
41
1
10
59.1514878555859
20
0.0587583365283422
30
0
41
1
10
59.1629787883429
20
0.064262673503265
30
0
41
1
10
59.1808518510953
20
0.0712419615617534
30
0
41
1
10
59.1869162021433
20
0.0733546820228526
30
0
41
1
10
59.1992749269156
20
0.077136022253228
30
0
41
1
10
59.2056096456772
20
0.0788124832529604
30
0
41
1
10
59.2246171539377
20
0.0830617239011531
30
0
41
1
10
59.2372996374957
20
0.0848705327053949
30
0
41
1
10
59.2562303018195
20
0.0861824854517863
30
0
41
1
10
59.2625576354709
20
0.0863841147842663
30
0
41
1
10
59.2748265692202
20
0.0863593208424334
30
0
41
1
10
59.2808052350451
20
0.0861381284138076
30
0
41
1
10
59.2866398208863
20
0.0857461368715917
30
0
0
SPLINE
5
16C
100
AcDbEntity
8
1
62
256
6
ByLayer
370
18
48
1
60
0
100
AcDbSpline
70
4
71
3
72
12
73
8
40
0
40
0
40
0
40
0
40
0.027922507120918
40
0.222338005696734
40
0.416753504272551
40
0.611169002848367
40
1
40
1
40
1
40
1
41
1
10
57.1907530685804
20
-0.919026573540918
30
0
41
1
10
57.1436687123869
20
-0.899027376743703
30
0
41
1
10
56.7687510228601
20
-0.739452796091086
30
0
41
1
10
56.066
20
-0.435770488154674
30
0
41
1
10
55.0824999999999
20
-0.0051831669625813
30
0
41
1
10
53.7711666666666
20
0.568853296089031
30
0
41
1
10
52.7876666666667
20
0.991159149947095
30
0
41
1
10
52.132
20
1.26269345562085
30
0
0
SPLINE
5
16D
100
AcDbEntity
8
1
62
256
6
ByLayer
370
18
48
1
60
0
100
AcDbSpline
70
4
71
3
72
8
73
4
40
0
40
0
40
0
40
0
40
1
40
1
40
1
40
1
41
1
10
57.4219671865089
20
2.39062064894875
30
0
41
1
10
57.3852228085107
20
2.39926492834539
30
0
41
1
10
57.3454577957667
20
2.41050425189187
30
0
41
1
10
57.3018993061845
20
2.4250025785185
30
0
0
SPLINE
5
16E
100
AcDbEntity
8
1
62
256
6
ByLayer
370
18
48
1
60
0
100
AcDbSpline
70
4
71
3
72
8
73
4
40
0
40
0
40
0
40
0
40
1
40
1
40
1
40
1
41
1
10
52.3388578260296
20
3.74930728612108
30
0
41
1
10
52.2698277935417
20
3.770157628606
30
0
41
1
10
52.2008709631064
20
3.79138049397781
30
0
41
1
10
52.132
20
3.8129962699044
30
0
0
SPLINE
5
16F
100
AcDbEntity
8
1
62
256
6
ByLayer
370
18
48
1
60
0
100
AcDbSpline
70
4
71
3
72
8
73
4
40
0
40
0
40
0
40
0
40
1
40
1
40
1
40
1
41
1
10
52.3388578260297
20
3.74930728612108
30
0
41
1
10
52.4134454294831
20
3.76995842797683
30
0
41
1
10
52.4868931749432
20
3.78961513847506
30
0
41
1
10
52.5592148374565
20
3.80828943519879
30
0
0
SPLINE
5
170
100
AcDbEntity
8
1
62
256
6
ByLayer
370
18
48
1
60
0
100
AcDbSpline
70
4
71
3
72
22
73
18
40
0
40
0
40
0
40
0
40
0.249999999999959
40
0.249999999999959
40
0.37499999999997
40
0.37499999999997
40
0.49999999999998
40
0.49999999999998
40
0.624999999999991
40
0.624999999999991
40
0.68749999999999
40
0.68749999999999
40
0.749999999999988
40
0.749999999999988
40
0.874999999999994
40
0.874999999999994
40
1
40
1
40
1
40
1
41
1
10
57.4258161651466
20
-0.0881246762213834
30
0
41
1
10
57.4353502478277
20
-0.10630602151781
30
0
41
1
10
57.4439942500499
20
-0.124770461063917
30
0
41
1
10
57.4551077861443
20
-0.153056308046615
30
0
41
1
10
57.4585006315471
20
-0.162584050913068
30
0
41
1
10
57.4645117863165
20
-0.181885881886245
30
0
41
1
10
57.4671452256839
20
-0.191728530208024
30
0
41
1
10
57.4713288257703
20
-0.211373102999914
30
0
41
1
10
57.4728772306735
20
-0.221134033663162
30
0
41
1
10
57.4742151135562
20
-0.235664242628474
30
0
41
1
10
57.4744962869724
20
-0.24048903915579
30
0
41
1
10
57.4746898784789
20
-0.250096995376481
30
0
41
1
10
57.4745995132656
20
-0.254892611245765
30
0
41
1
10
57.4737315146583
20
-0.268915599530146
30
0
41
1
10
57.4723650184575
20
-0.277871074775476
30
0
41
1
10
57.4679141817772
20
-0.294924698406391
30
0
41
1
10
57.4648074079993
20
-0.303016605204931
30
0
41
1
10
57.4609174160959
20
-0.310383566610142
30
0
0
SPLINE
5
171
100
AcDbEntity
8
1
62
256
6
ByLayer
370
18
48
1
60
0
100
AcDbSpline
70
4
71
3
72
10
73
6
40
0
40
0
40
0
40
0
40
0.5
40
0.5
40
1
40
1
40
1
40
1
41
1
10
57.4609174172912
20
-0.310383567224875
30
0
41
1
10
57.4099873724957
20
-0.406837939094316
30
0
41
1
10
57.3614646254934
20
-0.505475258158469
30
0
41
1
10
57.2707674520177
20
-0.708079163489373
30
0
41
1
10
57.2286379605319
20
-0.811916613124367
30
0
41
1
10
57.1907530681017
20
-0.919026573268553
30
0
0
SPLINE
5
172
100
AcDbEntity
8
1
62
256
6
ByLayer
370
18
48
1
60
0
100
AcDbSpline
70
4
71
3
72
10
73
6
40
0
40
0
40
0
40
0
40
0.5
40
0.5
40
1
40
1
40
1
40
1
41
1
10
57.1907530685513
20
-0.919026573588724
30
0
41
1
10
57.2080775382023
20
-0.946373064982879
30
0
41
1
10
57.2263343717082
20
-0.972973876651707
30
0
41
1
10
57.2642055220378
20
-1.02486074705686
30
0
41
1
10
57.283809075269
20
-1.05012814698665
30
0
41
1
10
57.3039336906782
20
-1.07481325267128
30
0
0
SPLINE
5
173
100
AcDbEntity
8
1
62
256
6
ByLayer
370
18
48
1
60
0
100
AcDbSpline
70
4
71
3
72
24
73
20
40
0
40
0
40
0
40
0
40
0.250000000000001
40
0.250000000000001
40
0.500000000000002
40
0.500000000000002
40
0.625000000000001
40
0.625000000000001
40
0.687500000000001
40
0.687500000000001
40
0.750000000000001
40
0.750000000000001
40
0.812500000000001
40
0.812500000000001
40
0.875
40
0.875
40
0.9375
40
0.9375
40
1
40
1
40
1
40
1
41
1
10
57.3039336901994
20
-1.07481325206592
30
0
41
1
10
57.3204667930474
20
-1.0950929820832
30
0
41
1
10
57.3364121150548
20
-1.11593881777782
30
0
41
1
10
57.3665575853238
20
-1.15931130742675
30
0
41
1
10
57.3808465011089
20
-1.18195154701769
30
0
41
1
10
57.3993940277767
20
-1.21702885083312
30
0
41
1
10
57.4051093615498
20
-1.22893502181765
30
0
41
1
10
57.4126678610839
20
-1.24725842073349
30
0
41
1
10
57.4150165421779
20
-1.25344437132696
30
0
41
1
10
57.419281214333
20
-1.26601423168978
30
0
41
1
10
57.4212088285579
20
-1.27244336878283
30
0
41
1
10
57.4244314728208
20
-1.28532086598653
30
0
41
1
10
57.4257248019074
20
-1.29174593408004
30
0
41
1
10
57.4275312830945
20
-1.30456250595509
30
0
41
1
10
57.4280434559547
20
-1.31101754846665
30
0
41
1
10
57.4280796568085
20
-1.32352849407835
30
0
41
1
10
57.4276131998209
20
-1.32956896236416
30
0
41
1
10
57.4256147009717
20
-1.34117708486366
30
0
41
1
10
57.4240631935294
20
-1.34678701139674
30
0
41
1
10
57.421967176706
20
-1.35201324622116
30
0
0
SPLINE
5
174
100
AcDbEntity
8
1
62
256
6
ByLayer
370
18
48
1
60
0
100
AcDbSpline
70
4
71
3
72
18
73
14
40
0
40
0
40
0
40
0
40
0.250000000000028
40
0.250000000000028
40
0.500000000000056
40
0.500000000000056
40
0.562500000000056
40
0.562500000000056
40
0.625000000000056
40
0.625000000000056
40
0.750000000000042
40
0.750000000000042
40
1
40
1
40
1
40
1
41
1
10
57.32352721288
20
0.323256352873301
30
0
41
1
10
57.46348782246
20
0.209766350665745
30
0
41
1
10
57.6065742507
20
0.107490327336166
30
0
41
1
10
57.8985259437545
20
-0.076329950037973
30
0
41
1
10
58.0473918529136
20
-0.15787189247456
30
0
41
1
10
58.2368756174975
20
-0.247596762819427
30
0
41
1
10
58.274942745406
20
-0.264930510913189
30
0
41
1
10
58.3514136764708
20
-0.29839017340089
30
0
41
1
10
58.3898727838956
20
-0.314537753944506
30
0
41
1
10
58.5052611056024
20
-0.360995022909691
30
0
41
1
10
58.5821894246819
20
-0.389315424353669
30
0
41
1
10
58.8129820296491
20
-0.466960508591171
30
0
41
1
10
58.9668538497258
20
-0.509077688170635
30
0
41
1
10
59.1207332867385
20
-0.543908205343712
30
0
0
SPLINE
5
175
100
AcDbEntity
8
1
62
256
6
ByLayer
370
18
48
1
60
0
100
AcDbSpline
70
4
71
3
72
8
73
4
40
0
40
0
40
0
40
0
40
1
40
1
40
1
40
1
41
1
10
52.1320000000001
20
0.929475355161941
30
0
41
1
10
52.0309155288237
20
0.957353284090118
30
0
41
1
10
51.9299161876254
20
0.984774704982158
30
0
41
1
10
51.829001903365
20
1.011740009514
30
0
0
SPLINE
5
176
100
AcDbEntity
8
1
62
256
6
ByLayer
370
18
48
1
60
0
100
AcDbSpline
70
4
71
3
72
10
73
6
40
0
40
0
40
0
40
0
40
0.5
40
0.5
40
1
40
1
40
1
40
1
41
1
10
52.132
20
-0.414081752974596
30
0
41
1
10
52.0869922830176
20
-0.406248613490192
30
0
41
1
10
52.0419839819194
20
-0.400574045394563
30
0
41
1
10
51.9519661148732
20
-0.393899107814661
30
0
41
1
10
51.9069122442355
20
-0.392897991242961
30
0
41
1
10
51.861949686634
20
-0.394503213709697
30
0
0
SPLINE
5
177
100
AcDbEntity
8
1
62
256
6
ByLayer
370
18
48
1
60
0
100
AcDbSpline
70
4
71
3
72
10
73
6
40
0
40
0
40
0
40
0
40
0.5
40
0.5
40
1
40
1
40
1
40
1
41
1
10
50.6465773327713
20
-0.0705725300237248
30
0
41
1
10
50.8456115217851
20
-0.127221823106822
30
0
41
1
10
51.0466174515161
20
-0.181954181752161
30
0
41
1
10
51.4519793945761
20
-0.289261330666875
30
0
41
1
10
51.656329863711
20
-0.341850810255607
30
0
41
1
10
51.8619496866339
20
-0.394503213709697
30
0
0
SPLINE
5
178
100
AcDbEntity
8
1
62
256
6
ByLayer
370
18
48
1
60
0
100
AcDbSpline
70
4
71
3
72
18
73
14
40
0
40
0
40
0
40
0
40
0.250000000000016
40
0.250000000000016
40
0.375000000000024
40
0.375000000000024
40
0.500000000000032
40
0.500000000000032
40
0.750000000000016
40
0.750000000000016
40
0.875000000000008
40
0.875000000000008
40
1
40
1
40
1
40
1
41
1
10
51.8290019033609
20
3.90211148399783
30
0
41
1
10
51.7627734142494
20
3.88861930607374
30
0
41
1
10
51.6981189264181
20
3.87374986597777
30
0
41
1
10
51.6041229055442
20
3.84877702716918
30
0
41
1
10
51.5733467798682
20
3.84002050142186
30
0
41
1
10
51.5130349390952
20
3.82151678910623
30
0
41
1
10
51.4834922888104
20
3.811766389117
30
0
41
1
10
51.3972077350432
20
3.78088402752516
30
0
41
1
10
51.3426478081436
20
3.75808307377281
30
0
41
1
10
51.2673980644379
20
3.71976645609644
30
0
41
1
10
51.2433792172757
20
3.70628193913333
30
0
41
1
10
51.1981375339248
20
3.67786009406163
30
0
41
1
10
51.1768754130688
20
3.66290646013707
30
0
41
1
10
51.157185283168
20
3.64708249888747
30
0
0
SPLINE
5
179
100
AcDbEntity
8
1
62
256
6
ByLayer
370
18
48
1
60
0
100
AcDbSpline
70
4
71
3
72
36
73
32
40
0
40
0
40
0
40
0
40
0.250000000000111
40
0.250000000000111
40
0.375000000000131
40
0.375000000000131
40
0.500000000000151
40
0.500000000000151
40
0.562500000000161
40
0.562500000000161
40
0.62500000000017
40
0.62500000000017
40
0.68750000000018
40
0.68750000000018
40
0.718750000000185
40
0.718750000000185
40
0.75000000000019
40
0.75000000000019
40
0.765625000000178
40
0.765625000000178
40
0.781250000000166
40
0.781250000000166
40
0.812500000000142
40
0.812500000000142
40
0.843750000000119
40
0.843750000000119
40
0.875000000000095
40
0.875000000000095
40
0.937500000000048
40
0.937500000000048
40
1
40
1
40
1
40
1
41
1
10
48.7909379700909
20
-4.07603693463497
30
0
41
1
10
48.7586962660262
20
-4.07395092032223
30
0
41
1
10
48.7269977135184
20
-4.07163927214631
30
0
41
1
10
48.6809587937908
20
-4.06767304121863
30
0
41
1
10
48.6658675521209
20
-4.06626702327679
30
0
41
1
10
48.6364793595797
20
-4.06322438356966
30
0
41
1
10
48.6221648274102
20
-4.06159137008416
30
0
41
1
10
48.6017902243783
20
-4.0588616670322
30
0
41
1
10
48.5951840909965
20
-4.05790452973326
30
0
41
1
10
48.5825701149695
20
-4.05584840589
30
0
41
1
10
48.5765792117556
20
-4.05475388897779
30
0
41
1
10
48.5660308049362
20
-4.05239115751624
30
0
41
1
10
48.5613724266407
20
-4.05111218923267
30
0
41
1
10
48.5570211608853
20
-4.04901046347229
30
0
41
1
10
48.5560252797869
20
-4.04827201064643
30
0
41
1
10
48.555584895379
20
-4.0467735757685
30
0
41
1
10
48.556172048478
20
-4.04600068574641
30
0
41
1
10
48.5585445674257
20
-4.04490901234516
30
0
41
1
10
48.5595932514649
20
-4.04455112742451
30
0
41
1
10
48.5620840759091
20
-4.04388305259016
30
0
41
1
10
48.5635317072621
20
-4.04356869231748
30
0
41
1
10
48.5684134017268
20
-4.04267910437906
30
0
41
1
10
48.5722361715236
20
-4.04218205387514
30
0
41
1
10
48.5804844893058
20
-4.04132634950633
30
0
41
1
10
48.5849129680017
20
-4.04096865571478
30
0
41
1
10
48.5939112679734
20
-4.04036201900138
30
0
41
1
10
48.5985265563019
20
-4.04010943150413
30
0
41
1
10
48.6126097277416
20
-4.03945675145332
30
0
41
1
10
48.6222666982942
20
-4.03916232537662
30
0
41
1
10
48.641581078485
20
-4.0387366072018
30
0
41
1
10
48.6513008120621
20
-4.03860562033131
30
0
41
1
10
48.6610607409864
20
-4.03852776661068
30
0
0
SPLINE
5
17A
100
AcDbEntity
8
1
62
256
6
ByLayer
370
18
48
1
60
0
100
AcDbSpline
70
4
71
3
72
12
73
8
40
0
40
0
40
0
40
0
40
0.5
40
0.5
40
0.75
40
0.75
40
1
40
1
40
1
40
1
41
1
10
48.6610607409864
20
-4.03852776661068
30
0
41
1
10
48.6908268193612
20
-4.03829032636216
30
0
41
1
10
48.7203316439768
20
-4.03783563513392
30
0
41
1
10
48.7638744131545
20
-4.03653782439747
30
0
41
1
10
48.7782677518033
20
-4.03600088689583
30
0
41
1
10
48.8066893902533
20
-4.03460254602771
30
0
41
1
10
48.8207231592726
20
-4.03374665908186
30
0
41
1
10
48.8344435325092
20
-4.03260191284394
30
0
0
SPLINE
5
17B
100
AcDbEntity
8
1
62
256
6
ByLayer
370
18
48
1
60
0
100
AcDbSpline
70
4
71
3
72
16
73
12
40
0
40
0
40
0
40
0
40
0.25
40
0.25
40
0.5
40
0.5
40
0.75
40
0.75
40
0.875
40
0.875
40
1
40
1
40
1
40
1
41
1
10
48.8344435325092
20
-4.03260191284394
30
0
41
1
10
48.7230157724919
20
-4.01713649749794
30
0
41
1
10
48.6148638979597
20
-3.99836590034587
30
0
41
1
10
48.4059724310997
20
-3.95280115313943
30
0
41
1
10
48.3052304963564
20
-3.92601308648571
30
0
41
1
10
48.1122038884355
20
-3.86253924288712
30
0
41
1
10
48.0199146918175
20
-3.82586440137555
30
0
41
1
10
47.8888209505077
20
-3.76148941263068
30
0
41
1
10
47.8462635913738
20
-3.73840598010869
30
0
41
1
10
47.7644706774879
20
-3.6891022677969
30
0
41
1
10
47.7251818212359
20
-3.66286593669028
30
0
41
1
10
47.6875789949578
20
-3.63488889389419
30
0
0
SPLINE
5
17C
100
AcDbEntity
8
1
62
256
6
ByLayer
370
18
48
1
60
0
100
AcDbSpline
70
4
71
3
72
28
73
24
40
0
40
0
40
0
40
0
40
0.125000000000007
40
0.125000000000007
40
0.187500000000009
40
0.187500000000009
40
0.250000000000011
40
0.250000000000011
40
0.312500000000014
40
0.312500000000014
40
0.375000000000014
40
0.375000000000014
40
0.437500000000014
40
0.437500000000014
40
0.500000000000014
40
0.500000000000014
40
0.62500000000001
40
0.62500000000001
40
0.750000000000007
40
0.750000000000007
40
0.875000000000003
40
0.875000000000003
40
1
40
1
40
1
40
1
41
1
10
47.6875789949578
20
-3.63488889389416
30
0
41
1
10
47.6819014531233
20
-3.63066472122946
30
0
41
1
10
47.6768101499038
20
-3.62628989824009
30
0
41
1
10
47.6704709455111
20
-3.6194036138636
30
0
41
1
10
47.6685764739629
20
-3.61705364294843
30
0
41
1
10
47.6653459807153
20
-3.6122163647234
30
0
41
1
10
47.6640173692726
20
-3.60973176564735
30
0
41
1
10
47.6621305785815
20
-3.60472564527143
30
0
41
1
10
47.6615613900959
20
-3.60219035630197
30
0
41
1
10
47.6613450736894
20
-3.5970433648564
30
0
41
1
10
47.661712979631
20
-3.59443838315536
30
0
41
1
10
47.6634676451099
20
-3.58937723990414
30
0
41
1
10
47.664850642662
20
-3.5868938645429
30
0
41
1
10
47.6686820960384
20
-3.5820299070156
30
0
41
1
10
47.6711442014187
20
-3.57965437543084
30
0
41
1
10
47.6797086068093
20
-3.5730066895776
30
0
41
1
10
47.6871790429834
20
-3.56905533905618
30
0
41
1
10
47.7036229564946
20
-3.56230747642073
30
0
41
1
10
47.712729484023
20
-3.55942250279804
30
0
41
1
10
47.7317417362902
20
-3.55441802530731
30
0
41
1
10
47.7415661974694
20
-3.55231437594
30
0
41
1
10
47.761636731568
20
-3.54864024928375
30
0
41
1
10
47.7718857946657
20
-3.54707340664325
30
0
41
1
10
47.7822917396005
20
-3.54570649454649
30
0
0
SPLINE
5
17D
100
AcDbEntity
8
1
62
256
6
ByLayer
370
18
48
1
60
0
100
AcDbSpline
70
4
71
3
72
26
73
22
40
0
40
0
40
0
40
0
40
0.0625
40
0.0625
40
0.125
40
0.125
40
0.1875
40
0.1875
40
0.25
40
0.25
40
0.375
40
0.375
40
0.5
40
0.5
40
0.625
40
0.625
40
0.75
40
0.75
40
0.875
40
0.875
40
1
40
1
40
1
40
1
41
1
10
47.7822917396005
20
-3.54570649454647
30
0
41
1
10
47.8420833180905
20
-3.53785234651534
30
0
41
1
10
47.9023732075583
20
-3.53156718618422
30
0
41
1
10
48.0236181089469
20
-3.52116649231462
30
0
41
1
10
48.0845779252811
20
-3.51706433041275
30
0
41
1
10
48.2069996422649
20
-3.51053574132763
30
0
41
1
10
48.2685412272199
20
-3.50811250716419
30
0
41
1
10
48.3915231010227
20
-3.50463992686815
30
0
41
1
10
48.4529866782524
20
-3.50358895177899
30
0
41
1
10
48.6373103454577
20
-3.50212820678263
30
0
41
1
10
48.7601041284759
20
-3.50339374279522
30
0
41
1
10
49.0055610340591
20
-3.50919908455205
30
0
41
1
10
49.1282493248447
20
-3.51375268322477
30
0
41
1
10
49.3734135425677
20
-3.52540631069354
30
0
41
1
10
49.4956395426222
20
-3.53249783985052
30
0
41
1
10
49.739498588911
20
-3.54865395841395
30
0
41
1
10
49.8611308923259
20
-3.5577210231591
30
0
41
1
10
50.1038835860666
20
-3.57740253507529
30
0
41
1
10
50.2250405212113
20
-3.58802186043366
30
0
41
1
10
50.4666268085209
20
-3.61042523393334
30
0
41
1
10
50.5870772242698
20
-3.62221116697938
30
0
41
1
10
50.7072235212307
20
-3.63442345991302
30
0
0
SPLINE
5
17E
100
AcDbEntity
8
1
62
256
6
ByLayer
370
18
48
1
60
0
100
AcDbSpline
70
4
71
3
72
8
73
4
40
0
40
0
40
0
40
0
40
1
40
1
40
1
40
1
41
1
10
50.8308887312056
20
-3.60577169694321
30
0
41
1
10
50.7892546320903
20
-3.61511811406876
30
0
41
1
10
50.7480229249681
20
-3.62467026650486
30
0
41
1
10
50.7072235212379
20
-3.63442345991757
30
0
0
SPLINE
5
17F
100
AcDbEntity
8
1
62
256
6
ByLayer
370
18
48
1
60
0
100
AcDbSpline
70
4
71
3
72
10
73
6
40
0
40
0
40
0
40
0
40
0.5
40
0.5
40
1
40
1
40
1
40
1
41
1
10
51.1571852831668
20
-3.43816316640488
30
0
41
1
10
51.0967915353904
20
-3.46451645473431
30
0
41
1
10
51.0386991837581
20
-3.49171187063513
30
0
41
1
10
50.9290592375222
20
-3.54767806757815
30
0
41
1
10
50.8775308197132
20
-3.57643766416388
30
0
41
1
10
50.8308887312056
20
-3.60577169694321
30
0
0
SPLINE
5
180
100
AcDbEntity
8
1
62
256
6
ByLayer
370
18
48
1
60
0
100
AcDbSpline
70
4
71
3
72
18
73
14
40
0
40
0
40
0
40
0
40
0.249999999999974
40
0.249999999999974
40
0.374999999999978
40
0.374999999999978
40
0.499999999999983
40
0.499999999999983
40
0.749999999999992
40
0.749999999999992
40
0.874999999999996
40
0.874999999999996
40
1
40
1
40
1
40
1
41
1
10
51.8290019033574
20
-3.02950670279276
30
0
41
1
10
51.7627734142461
20
-3.05937422747829
30
0
41
1
10
51.6981189264148
20
-3.09025869730644
30
0
41
1
10
51.6041229055412
20
-3.13829026118538
30
0
41
1
10
51.5733467798653
20
-3.15455721370063
30
0
41
1
10
51.5130349390925
20
-3.18764185253462
30
0
41
1
10
51.4834922888077
20
-3.20446434250519
30
0
41
1
10
51.3972077350408
20
-3.255686308614
30
0
41
1
10
51.3426478081413
20
-3.29092194759929
30
0
41
1
10
51.267398064436
20
-3.3451901090063
30
0
41
1
10
51.2433792172739
20
-3.36354668209538
30
0
41
1
10
51.1981375339232
20
-3.40057297103129
30
0
41
1
10
51.1768754130675
20
-3.4192679616151
30
0
41
1
10
51.1571852831668
20
-3.43816316640488
30
0
0
SPLINE
5
181
100
AcDbEntity
8
1
62
256
6
ByLayer
370
18
48
1
60
0
100
AcDbSpline
70
4
71
3
72
36
73
32
40
0
40
0
40
0
40
0
40
0.250000000000019
40
0.250000000000019
40
0.375000000000028
40
0.375000000000028
40
0.500000000000037
40
0.500000000000037
40
0.562500000000042
40
0.562500000000042
40
0.625000000000047
40
0.625000000000047
40
0.687500000000051
40
0.687500000000051
40
0.718750000000039
40
0.718750000000039
40
0.750000000000028
40
0.750000000000028
40
0.765625000000036
40
0.765625000000036
40
0.781250000000045
40
0.781250000000045
40
0.812500000000063
40
0.812500000000063
40
0.843750000000081
40
0.843750000000081
40
0.875000000000099
40
0.875000000000099
40
0.93750000000005
40
0.93750000000005
40
1
40
1
40
1
40
1
41
1
10
48.7909379700912
20
-1.81743998565685
30
0
41
1
10
48.7586962660265
20
-1.79848214617021
30
0
41
1
10
48.7269977135186
20
-1.7788542836521
30
0
41
1
10
48.6809587937911
20
-1.74760599254384
30
0
41
1
10
48.6658675521211
20
-1.73688468451493
30
0
41
1
10
48.63647935958
20
-1.71450481263017
30
0
41
1
10
48.6221648274105
20
-1.70286635358241
30
0
41
1
10
48.6017902243786
20
-1.68413042063017
30
0
41
1
10
48.5951840909968
20
-1.67766916187384
30
0
41
1
10
48.5825701149698
20
-1.66405431280762
30
0
41
1
10
48.5765792117559
20
-1.65693059833032
30
0
41
1
10
48.5660308049365
20
-1.64186573965836
30
0
41
1
10
48.561372426641
20
-1.63385564977318
30
0
41
1
10
48.5570211608857
20
-1.62098704783452
30
0
41
1
10
48.5560252797872
20
-1.61651203226356
30
0
41
1
10
48.5555848953793
20
-1.60753196452336
30
0
41
1
10
48.5561720484784
20
-1.60295119201834
30
0
41
1
10
48.558544567426
20
-1.59654502422686
30
0
41
1
10
48.5595932514653
20
-1.59445583725059
30
0
41
1
10
48.5620840759095
20
-1.59057267193677
30
0
41
1
10
48.5635317072624
20
-1.5887540920005
30
0
41
1
10
48.568413401727
20
-1.58362650413716
30
0
41
1
10
48.5722361715239
20
-1.58078680943265
30
0
41
1
10
48.5804844893061
20
-1.57591888291549
30
0
41
1
10
48.5849129680019
20
-1.5738967247658
30
0
41
1
10
48.5939112679737
20
-1.57047726497268
30
0
41
1
10
48.5985265563023
20
-1.56905963926189
30
0
41
1
10
48.6126097277418
20
-1.56540417472991
30
0
41
1
10
48.6222666982945
20
-1.56376635898653
30
0
41
1
10
48.6415810784853
20
-1.56140031902618
30
0
41
1
10
48.6513008120624
20
-1.56067484284856
30
0
41
1
10
48.6610607409867
20
-1.56024361978672
30
0
0
SPLINE
5
182
100
AcDbEntity
8
1
62
256
6
ByLayer
370
18
48
1
60
0
100
AcDbSpline
70
4
71
3
72
20
73
16
40
0
40
0
40
0
40
0
40
0.250000000000032
40
0.250000000000032
40
0.500000000000064
40
0.500000000000064
40
0.62500000000008
40
0.62500000000008
40
0.750000000000096
40
0.750000000000096
40
0.875000000000111
40
0.875000000000111
40
0.937500000000056
40
0.937500000000056
40
1
40
1
40
1
40
1
41
1
10
48.6610607409867
20
-1.56024361978672
30
0
41
1
10
48.6819034177476
20
-1.55932272753847
30
0
41
1
10
48.7026711768127
20
-1.55778779510769
30
0
41
1
10
48.7439804743498
20
-1.55286114786844
30
0
41
1
10
48.7646373790985
20
-1.54946017863327
30
0
41
1
10
48.7947247092754
20
-1.54213959122757
30
0
41
1
10
48.8046106331119
20
-1.53932583698324
30
0
41
1
10
48.8239942500938
20
-1.53268357445168
30
0
41
1
10
48.8334939479035
20
-1.52886036412841
30
0
41
1
10
48.851930378954
20
-1.51973924263783
30
0
41
1
10
48.8608836897235
20
-1.51440350753234
30
0
41
1
10
48.8730160838762
20
-1.50519056557792
30
0
41
1
10
48.8768675826418
20
-1.50190619314529
30
0
41
1
10
48.8841165351429
20
-1.49483352884053
30
0
41
1
10
48.8875236779731
20
-1.49102786044901
30
0
41
1
10
48.8906004610893
20
-1.48700545220524
30
0
0
SPLINE
5
183
100
AcDbEntity
8
1
62
256
6
ByLayer
370
18
48
1
60
0
100
AcDbSpline
70
4
71
3
72
22
73
18
40
0
40
0
40
0
40
0
40
0.124999999999972
40
0.124999999999972
40
0.249999999999943
40
0.249999999999943
40
0.312499999999929
40
0.312499999999929
40
0.374999999999915
40
0.374999999999915
40
0.49999999999997
40
0.49999999999997
40
0.625000000000024
40
0.625000000000024
40
0.750000000000079
40
0.750000000000079
40
1
40
1
40
1
40
1
41
1
10
48.0083701442889
20
-0.181850131715151
30
0
41
1
10
48.0059090118146
20
-0.17438510401621
30
0
41
1
10
48.0040577283445
20
-0.166802563301815
30
0
41
1
10
48.0019771148205
20
-0.151325295442575
30
0
41
1
10
48.0017782281306
20
-0.14337675522188
30
0
41
1
10
48.0030444270963
20
-0.131816553059451
30
0
41
1
10
48.003721738744
20
-0.128000176484534
30
0
41
1
10
48.0056213745465
20
-0.120446524261126
30
0
41
1
10
48.0068585653579
20
-0.116677086499692
30
0
41
1
10
48.0113210890582
20
-0.105783116863762
30
0
41
1
10
48.0152667800878
20
-0.0990678246076868
30
0
41
1
10
48.0248257331058
20
-0.0865778033538902
30
0
41
1
10
48.0303134717654
20
-0.0809713941444556
30
0
41
1
10
48.0421442145529
20
-0.0708764959125006
30
0
41
1
10
48.0485583851807
20
-0.0663300023081774
30
0
41
1
10
48.0685935651944
20
-0.0540540354772361
30
0
41
1
10
48.0828334322154
20
-0.0476954528222677
30
0
41
1
10
48.0975755539603
20
-0.0423751909383725
30
0
0
SPLINE
5
184
100
AcDbEntity
8
1
62
256
6
ByLayer
370
18
48
1
60
0
100
AcDbSpline
70
4
71
3
72
26
73
22
40
0
40
0
40
0
40
0
40
0.0624999999999949
40
0.0624999999999949
40
0.12499999999999
40
0.12499999999999
40
0.187499999999985
40
0.187499999999985
40
0.24999999999998
40
0.24999999999998
40
0.312499999999975
40
0.312499999999975
40
0.37499999999997
40
0.37499999999997
40
0.499999999999976
40
0.499999999999976
40
0.624999999999982
40
0.624999999999982
40
0.749999999999988
40
0.749999999999988
40
1
40
1
40
1
40
1
41
1
10
48.0975755539603
20
-0.0423751909383725
30
0
41
1
10
48.1484713685095
20
-0.0240074778724306
30
0
41
1
10
48.1999724647673
20
-0.0089839927733806
30
0
41
1
10
48.3037567987361
20
0.0167419576719112
30
0
41
1
10
48.3560467428553
20
0.0274073610253254
30
0
41
1
10
48.4612058232277
20
0.0455385677689435
30
0
41
1
10
48.514077180586
20
0.0529920967572082
30
0
41
1
10
48.6202767270012
20
0.0653756333553588
30
0
41
1
10
48.6736058366382
20
0.070300553688412
30
0
41
1
10
48.7806410220791
20
0.078068124765565
30
0
41
1
10
48.8342518526592
20
0.0809003919339659
30
0
41
1
10
48.9413719868423
20
0.0847909579797772
30
0
41
1
10
48.9949256141724
20
0.0858509725736383
30
0
41
1
10
49.1555698875306
20
0.086747937624466
30
0
41
1
10
49.2626440588856
20
0.084320250120669
30
0
41
1
10
49.4767577663903
20
0.074703412721334
30
0
41
1
10
49.5838530286138
20
0.0674961370536096
30
0
41
1
10
49.7974925842274
20
0.0491450874349368
30
0
41
1
10
49.9040933676522
20
0.0379959218728345
30
0
41
1
10
50.2233329549651
20
-0.0005242931991347
30
0
41
1
10
50.4354989410815
20
-0.0329513231178282
30
0
41
1
10
50.6465773327714
20
-0.0705725300236111
30
0
0
SPLINE
5
185
100
AcDbEntity
8
1
62
256
6
ByLayer
370
18
48
1
60
0
100
AcDbSpline
70
4
71
3
72
8
73
4
40
0
40
0
40
0
40
0
40
1
40
1
40
1
40
1
41
1
10
50.8308887312044
20
0.0228456629449454
30
0
41
1
10
50.7685145953324
20
-0.0066704532405311
30
0
41
1
10
50.7070419433444
20
-0.0377490241109513
30
0
41
1
10
50.6465773327713
20
-0.0705725300237248
30
0
0
SPLINE
5
186
100
AcDbEntity
8
1
62
256
6
ByLayer
370
18
48
1
60
0
100
AcDbSpline
70
4
71
3
72
18
73
14
40
0
40
0
40
0
40
0
40
0.250000000000022
40
0.250000000000022
40
0.375000000000034
40
0.375000000000034
40
0.500000000000045
40
0.500000000000045
40
0.750000000000036
40
0.750000000000036
40
0.875000000000018
40
0.875000000000018
40
1
40
1
40
1
40
1
41
1
10
51.829001903365
20
1.01174000951406
30
0
41
1
10
51.7627734142534
20
0.968736671154602
30
0
41
1
10
51.6981189264219
20
0.92333332385499
30
0
41
1
10
51.6041229055475
20
0.850838009120253
30
0
41
1
10
51.5733467798715
20
0.825981103829633
30
0
41
1
10
51.5130349390983
20
0.77471797340749
30
0
41
1
10
51.4834922888133
20
0.748303768129006
30
0
41
1
10
51.3972077350458
20
0.666659283613797
30
0
41
1
10
51.3426478081458
20
0.608908594580697
30
0
41
1
10
51.2673980644397
20
0.5167016270278
30
0
41
1
10
51.2433792172774
20
0.484978101905455
30
0
41
1
10
51.1981375339261
20
0.419743210084164
30
0
41
1
10
51.17687541307
20
0.386190468878851
30
0
41
1
10
51.157185283169
20
0.35155433602165
30
0
0
SPLINE
5
187
100
AcDbEntity
8
1
62
256
6
ByLayer
370
18
48
1
60
0
100
AcDbSpline
70
4
71
3
72
36
73
32
40
0
40
0
40
0
40
0
40
0.249999999999991
40
0.249999999999991
40
0.375000000000021
40
0.375000000000021
40
0.500000000000052
40
0.500000000000052
40
0.562500000000068
40
0.562500000000068
40
0.625000000000084
40
0.625000000000084
40
0.6875000000001
40
0.6875000000001
40
0.718750000000107
40
0.718750000000107
40
0.750000000000114
40
0.750000000000114
40
0.765625000000132
40
0.765625000000132
40
0.78125000000015
40
0.78125000000015
40
0.812500000000128
40
0.812500000000128
40
0.843750000000107
40
0.843750000000107
40
0.875000000000086
40
0.875000000000086
40
0.937500000000043
40
0.937500000000043
40
1
40
1
40
1
40
1
41
1
10
48.7909379700929
20
2.38781009188554
30
0
41
1
10
48.7586962660282
20
2.40499794873736
30
0
41
1
10
48.7269977135203
20
2.42263511275908
30
0
41
1
10
48.6809587937927
20
2.45041636712551
30
0
41
1
10
48.6658675521227
20
2.45990107087522
30
0
41
1
10
48.6364793595816
20
2.47958750877422
30
0
41
1
10
48.622164827412
20
2.48977246869484
30
0
41
1
10
48.6017902243801
20
2.50606353664713
30
0
41
1
10
48.5951840909982
20
2.51166523797846
30
0
41
1
10
48.5825701149713
20
2.52342796182307
30
0
41
1
10
48.5765792117574
20
2.52956312875199
30
0
41
1
10
48.5660308049379
20
2.54248737480296
30
0
41
1
10
48.5613724266424
20
2.54933566487773
30
0
41
1
10
48.557021160887
20
2.56028884374953
30
0
41
1
10
48.5560252797885
20
2.56408988054966
30
0
41
1
10
48.5555848953806
20
2.57170021226486
30
0
41
1
10
48.5561720484796
20
2.57557339350146
30
0
41
1
10
48.5585445674272
20
2.58097876339414
30
0
41
1
10
48.5595932514665
20
2.58273962503898
30
0
41
1
10
48.5620840759106
20
2.58600953951034
30
0
41
1
10
48.5635317072635
20
2.58753937347078
30
0
41
1
10
48.5684134017282
20
2.59184946135085
30
0
41
1
10
48.572236171525
20
2.59423184769929
30
0
41
1
10
48.5804844893072
20
2.59831204778544
30
0
41
1
10
48.5849129680031
20
2.60000465869089
30
0
41
1
10
48.5939112679748
20
2.60286500426943
30
0
41
1
10
48.5985265563034
20
2.60404969928908
30
0
41
1
10
48.612609727743
20
2.60710311439522
30
0
41
1
10
48.6222666982958
20
2.60846910678416
30
0
41
1
10
48.6415810784865
20
2.6104420654901
30
0
41
1
10
48.6513008120635
20
2.61104654330211
30
0
41
1
10
48.6610607409878
20
2.61140585001175
30
0
0
SPLINE
5
188
100
AcDbEntity
8
1
62
256
6
ByLayer
370
18
48
1
60
0
100
AcDbSpline
70
4
71
3
72
12
73
8
40
0
40
0
40
0
40
0
40
0.500000000000115
40
0.500000000000115
40
0.750000000000058
40
0.750000000000058
40
1
40
1
40
1
40
1
41
1
10
48.6610607409879
20
2.61140585001172
30
0
41
1
10
48.6908268193627
20
2.61250167271317
30
0
41
1
10
48.7203316439783
20
2.61460578780884
30
0
41
1
10
48.763874413156
20
2.62050532690262
30
0
41
1
10
48.7782677518048
20
2.6229360543775
30
0
41
1
10
48.8066893902547
20
2.62919275385727
30
0
41
1
10
48.820723159274
20
2.63299824758607
30
0
41
1
10
48.8344435325107
20
2.63799489993008
30
0
0
SPLINE
5
189
100
AcDbEntity
8
1
62
256
6
ByLayer
370
18
48
1
60
0
100
AcDbSpline
70
4
71
3
72
16
73
12
40
0
40
0
40
0
40
0
40
0.25
40
0.25
40
0.5
40
0.5
40
0.75
40
0.75
40
0.875
40
0.875
40
1
40
1
40
1
40
1
41
1
10
48.8344435325107
20
2.63799489993005
30
0
41
1
10
48.7230157724933
20
2.70549920898972
30
0
41
1
10
48.614863897961
20
2.77341421820336
30
0
41
1
10
48.4059724311008
20
2.90975674866428
30
0
41
1
10
48.3052304963574
20
2.97818682111094
30
0
41
1
10
48.1122038884363
20
3.11506352702119
30
0
41
1
10
48.0199146918183
20
3.18351446596424
30
0
41
1
10
47.8888209505083
20
3.28561447804842
30
0
41
1
10
47.8462635913744
20
3.31962157811469
30
0
41
1
10
47.7644706774884
20
3.38674660723416
30
0
41
1
10
47.7251818212364
20
3.41990224704062
30
0
41
1
10
47.6875789949582
20
3.45255883034122
30
0
0
SPLINE
5
18A
100
AcDbEntity
8
1
62
256
6
ByLayer
370
18
48
1
60
0
100
AcDbSpline
70
4
71
3
72
28
73
24
40
0
40
0
40
0
40
0
40
0.124999999999958
40
0.124999999999958
40
0.187499999999937
40
0.187499999999937
40
0.249999999999916
40
0.249999999999916
40
0.312499999999895
40
0.312499999999895
40
0.374999999999875
40
0.374999999999875
40
0.437499999999854
40
0.437499999999854
40
0.499999999999833
40
0.499999999999833
40
0.624999999999875
40
0.624999999999875
40
0.749999999999916
40
0.749999999999916
40
0.874999999999958
40
0.874999999999958
40
1
40
1
40
1
40
1
41
1
10
47.6875789949582
20
3.45255883034119
30
0
41
1
10
47.6819014531237
20
3.4574895532738
30
0
41
1
10
47.6768101499043
20
3.46253896769215
30
0
41
1
10
47.6704709455115
20
3.47038486579194
30
0
41
1
10
47.6685764739634
20
3.47304598317368
30
0
41
1
10
47.6653459807157
20
3.47848718619363
30
0
41
1
10
47.6640173692731
20
3.48126391835805
30
0
41
1
10
47.6621305785819
20
3.48682051139733
30
0
41
1
10
47.6615613900964
20
3.48961591931601
30
0
41
1
10
47.6613450736898
20
3.49525179919033
30
0
41
1
10
47.6617129796314
20
3.49808436097425
30
0
41
1
10
47.6634676451102
20
3.50355112595878
30
0
41
1
10
47.6648506426624
20
3.50621523119381
30
0
41
1
10
47.6686820960387
20
3.51140073912376
30
0
41
1
10
47.6711442014191
20
3.51391635055072
30
0
41
1
10
47.6797086068096
20
3.520917224296
30
0
41
1
10
47.6871790429838
20
3.52502479471667
30
0
41
1
10
47.703622956495
20
3.53198820648583
30
0
41
1
10
47.7127294840232
20
3.5349362175032
30
0
41
1
10
47.7317417362905
20
3.54002365768363
30
0
41
1
10
47.7415661974697
20
3.54214674379568
30
0
41
1
10
47.7616367315683
20
3.54584107181987
30
0
41
1
10
47.771885794666
20
3.54740825356387
30
0
41
1
10
47.7822917396007
20
3.54877162684392
30
0
0
SPLINE
5
18B
100
AcDbEntity
8
1
62
256
6
ByLayer
370
18
48
1
60
0
100
AcDbSpline
70
4
71
3
72
26
73
22
40
0
40
0
40
0
40
0
40
0.0625000000000053
40
0.0625000000000053
40
0.125000000000011
40
0.125000000000011
40
0.187500000000016
40
0.187500000000016
40
0.250000000000021
40
0.250000000000021
40
0.375000000000018
40
0.375000000000018
40
0.500000000000014
40
0.500000000000014
40
0.625000000000011
40
0.625000000000011
40
0.750000000000007
40
0.750000000000007
40
0.875000000000004
40
0.875000000000004
40
1
40
1
40
1
40
1
41
1
10
47.7822917396007
20
3.54877162684392
30
0
41
1
10
47.8420833180907
20
3.55660544116796
30
0
41
1
10
47.9023732075583
20
3.56272969107471
30
0
41
1
10
48.0236181089469
20
3.57277260491793
30
0
41
1
10
48.0845779252811
20
3.57667301095523
30
0
41
1
10
48.2069996422648
20
3.58284724508852
30
0
41
1
10
48.2685412272198
20
3.58511617623913
30
0
41
1
10
48.3915231010226
20
3.58836045857663
30
0
41
1
10
48.4529866782522
20
3.58933658557325
30
0
41
1
10
48.6373103454575
20
3.59069400257596
30
0
41
1
10
48.7601041284756
20
3.58952435525231
30
0
41
1
10
49.0055610340587
20
3.58410138347176
30
0
41
1
10
49.1282493248442
20
3.57983160179097
30
0
41
1
10
49.3734135425671
20
3.56870483811355
30
0
41
1
10
49.4956395426215
20
3.56185462376124
30
0
41
1
10
49.7394985889102
20
3.5458790946229
30
0
41
1
10
49.8611308923251
20
3.53675093330682
30
0
41
1
10
50.1038835860657
20
3.51637491157445
30
0
41
1
10
50.2250405212104
20
3.5051214940699
30
0
41
1
10
50.4666268085197
20
3.48060726825784
30
0
41
1
10
50.5870772242685
20
3.46734458409341
30
0
41
1
10
50.7072235212294
20
3.45310188076954
30
0
0
SPLINE
5
18C
100
AcDbEntity
8
1
62
256
6
ByLayer
370
18
48
1
60
0
100
AcDbSpline
70
4
71
3
72
8
73
4
40
0
40
0
40
0
40
0
40
1
40
1
40
1
40
1
41
1
10
50.8308887312052
20
3.48565732794918
30
0
41
1
10
50.7892546320897
20
3.47531020543156
30
0
41
1
10
50.7480229249671
20
3.46447663577453
30
0
41
1
10
50.7072235212366
20
3.4531018807638
30
0
0
SPLINE
5
18D
100
AcDbEntity
8
1
62
256
6
ByLayer
370
18
48
1
60
0
100
AcDbSpline
70
4
71
3
72
10
73
6
40
0
40
0
40
0
40
0
40
0.5
40
0.5
40
1
40
1
40
1
40
1
41
1
10
51.157185283168
20
3.6470824988875
30
0
41
1
10
51.0967915353914
20
3.6250126976885
30
0
41
1
10
51.038699183759
20
3.60088103777059
30
0
41
1
10
50.9290592375224
20
3.54743487783037
30
0
41
1
10
50.8775308197131
20
3.51813210700357
30
0
41
1
10
50.8308887312053
20
3.48565732794918
30
0
0
SPLINE
5
18E
100
AcDbEntity
8
1
62
256
6
ByLayer
370
18
48
1
60
0
100
AcDbSpline
70
4
71
3
72
10
73
6
40
0
40
0
40
0
40
0
40
0.5
40
0.5
40
1
40
1
40
1
40
1
41
1
10
51.1571852831689
20
0.351554336021678
30
0
41
1
10
51.096791535392
20
0.303247053514923
30
0
41
1
10
51.0386991837593
20
0.252012977099724
30
0
41
1
10
50.9290592375223
20
0.142718048083168
30
0
41
1
10
50.8775308197126
20
0.0846801061514384
30
0
41
1
10
50.8308887312045
20
0.0228456629449454
30
0
0
SPLINE
5
18F
100
AcDbEntity
8
1
62
256
6
ByLayer
370
18
48
1
60
0
100
AcDbSpline
70
4
71
3
72
18
73
14
40
0
40
0
40
0
40
0
40
0.249999999999972
40
0.249999999999972
40
0.499999999999943
40
0.499999999999943
40
0.562499999999947
40
0.562499999999947
40
0.62499999999995
40
0.62499999999995
40
0.749999999999971
40
0.749999999999971
40
1
40
1
40
1
40
1
41
1
10
48.8906004610893
20
-1.48700545220524
30
0
41
1
10
48.7927414707329
20
-1.39946034576144
30
0
41
1
10
48.6997437606592
20
-1.30733543073231
30
0
41
1
10
48.5248559971709
20
-1.11238442738463
30
0
41
1
10
48.4429610045616
20
-1.00956479174016
30
0
41
1
10
48.3485957625286
20
-0.873124978814701
30
0
41
1
10
48.3301239129063
20
-0.845439886856042
30
0
41
1
10
48.2940139253336
20
-0.789238431412315
30
0
41
1
10
48.2763452002546
20
-0.760669521882392
30
0
41
1
10
48.2248975540149
20
-0.674095430214578
30
0
41
1
10
48.1927002570808
20
-0.615282546261511
30
0
41
1
10
48.1025312105213
20
-0.435457617197557
30
0
41
1
10
48.0509712891896
20
-0.311066551395044
30
0
41
1
10
48.0083701442889
20
-0.181850131715123
30
0
0
SPLINE
5
190
100
AcDbEntity
8
1
62
256
6
ByLayer
370
18
48
1
60
0
100
AcDbSpline
70
4
71
3
72
8
73
4
40
0
40
0
40
0
40
0
40
1
40
1
40
1
40
1
41
1
10
59.6154152034155
20
0.766089247391221
30
0
41
1
10
59.5465399732589
20
0.884441234060404
30
0
41
1
10
59.4738373709169
20
1.00461136621027
30
0
41
1
10
59.3974049970165
20
1.12646332259052
30
0
0
SPLINE
5
191
100
AcDbEntity
8
1
62
256
6
ByLayer
370
18
48
1
60
0
100
AcDbSpline
70
4
71
3
72
35
73
31
40
0
40
0
40
0
40
0
40
0.0625000000000109
40
0.0625000000000109
40
0.125000000000022
40
0.125000000000022
40
0.187500000000033
40
0.187500000000033
40
0.218750000000041
40
0.218750000000041
40
0.25000000000005
40
0.37500000000007
40
0.37500000000007
40
0.500000000000091
40
0.500000000000091
40
0.531250000000092
40
0.531250000000092
40
0.562500000000092
40
0.562500000000092
40
0.625000000000085
40
0.625000000000085
40
0.750000000000069
40
0.750000000000069
40
0.781250000000066
40
0.781250000000066
40
0.812500000000062
40
0.812500000000062
40
0.875000000000045
40
0.875000000000045
40
1
40
1
40
1
40
1
41
1
10
59.3974049970165
20
1.12646332259058
30
0
41
1
10
59.3740435150588
20
1.13343305174473
30
0
41
1
10
59.3490432826327
20
1.14183674492332
30
0
41
1
10
59.2958588488088
20
1.1614302155858
30
0
41
1
10
59.2676903580007
20
1.17260624575371
30
0
41
1
10
59.2080876732952
20
1.19781591060911
30
0
41
1
10
59.176651015036
20
1.21185170169937
30
0
41
1
10
59.1269436897654
20
1.23513877332613
30
0
41
1
10
59.1099153199142
20
1.2432898110587
30
0
41
1
10
59.0751661465657
20
1.26026652709544
30
0
41
1
10
58.9866669942923
20
1.30434186868808
30
0
41
1
10
58.8900608082881
20
1.35656079851546
30
0
41
1
10
58.7252258521676
20
1.45042242976118
30
0
41
1
10
58.6377400785105
20
1.50244439385608
30
0
41
1
10
58.5215657932234
20
1.5743196552578
30
0
41
1
10
58.4979394855037
20
1.5890698296501
30
0
41
1
10
58.4503686296542
20
1.61903140553733
30
0
41
1
10
58.4263976660212
20
1.63425858004098
30
0
41
1
10
58.3539382004653
20
1.68066594037688
30
0
41
1
10
58.3049047603417
20
1.71256978986378
30
0
41
1
10
58.1556824984487
20
1.81109922107592
30
0
41
1
10
58.0533585879585
20
1.88056014468813
30
0
41
1
10
57.9219189100572
20
1.97208040743897
30
0
41
1
10
57.8954536926735
20
1.99061988557983
30
0
41
1
10
57.8421635260594
20
2.02817655632975
30
0
41
1
10
57.8152917173574
20
2.04722722158272
30
0
41
1
10
57.7344692844513
20
2.10486338737738
30
0
41
1
10
57.6805295472254
20
2.14377579979012
30
0
41
1
10
57.5185432169925
20
2.26191721668354
30
0
41
1
10
57.4103305661729
20
2.34254148813889
30
0
41
1
10
57.3018993062014
20
2.42500257850406
30
0
0
SPLINE
5
192
100
AcDbEntity
8
1
62
256
6
ByLayer
370
18
48
1
60
0
100
AcDbSpline
70
4
71
3
72
56
73
52
40
0
40
0
40
0
40
0
40
0.031250000000007
40
0.0468750000000137
40
0.0468750000000137
40
0.0625000000000204
40
0.0625000000000204
40
0.125000000000047
40
0.125000000000047
40
0.187500000000074
40
0.187500000000074
40
0.203125000000079
40
0.203125000000079
40
0.218750000000084
40
0.218750000000084
40
0.250000000000101
40
0.250000000000101
40
0.281250000000118
40
0.281250000000118
40
0.296875000000127
40
0.300781250000129
40
0.300781250000129
40
0.302734375000133
40
0.302734375000133
40
0.304687500000137
40
0.304687500000137
40
0.312500000000141
40
0.312500000000141
40
0.375000000000129
40
0.375000000000129
40
0.437500000000116
40
0.437500000000116
40
0.453125000000113
40
0.453125000000113
40
0.46875000000011
40
0.46875000000011
40
0.500000000000103
40
0.500000000000103
40
0.625000000000083
40
0.625000000000083
40
0.687500000000071
40
0.687500000000071
40
0.718750000000064
40
0.718750000000064
40
0.750000000000058
40
0.750000000000058
40
0.875000000000032
40
0.875000000000032
40
0.937500000000016
40
0.937500000000016
40
1
40
1
40
1
40
1
41
1
10
57.301899306201
20
2.42500257851211
30
0
41
1
10
57.2506581764615
20
2.44442264715337
30
0
41
1
10
57.172935228826
20
2.47472373914707
30
0
41
1
10
57.0938885175808
20
2.50664136157837
30
0
41
1
10
57.0408921787004
20
2.52826363955543
30
0
41
1
10
57.0142036995214
20
2.53926398823299
30
0
41
1
10
56.8807982154441
20
2.59475432988916
30
0
41
1
10
56.7738154761418
20
2.64085026447239
30
0
41
1
10
56.5589464969156
20
2.73520954317891
30
0
41
1
10
56.4510644376362
20
2.78347605214316
30
0
41
1
10
56.3154037961987
20
2.84447491382232
30
0
41
1
10
56.2882311149305
20
2.85670813566983
30
0
41
1
10
56.2337984123111
20
2.88122476467157
30
0
41
1
10
56.2065598765358
20
2.89349848027493
30
0
41
1
10
56.1251629765374
20
2.93016299546108
30
0
41
1
10
56.071174560856
20
2.95446359675941
30
0
41
1
10
55.9636662299747
20
3.00267131134703
30
0
41
1
10
55.9101461521104
20
3.02657872414832
30
0
41
1
10
55.8301588011141
20
3.06207353336188
30
0
41
1
10
55.7968918448334
20
3.07678681309338
30
0
41
1
10
55.7636960581716
20
3.09139262113354
30
0
41
1
10
55.7537414985785
20
3.09576776168723
30
0
41
1
10
55.7504269401007
20
3.09721967954536
30
0
41
1
10
55.7437639172126
20
3.10018533506704
30
0
41
1
10
55.7404342612257
20
3.10166515736543
30
0
41
1
10
55.7237902473908
20
3.10905806581124
30
0
41
1
10
55.7104855773061
20
3.11495829964466
30
0
41
1
10
55.5908364967735
20
3.16792325345852
30
0
41
1
10
55.485152452251
20
3.2140018991941
30
0
41
1
10
55.2746712425837
20
3.30346621890763
30
0
41
1
10
55.1698724484245
20
3.346863286786
30
0
41
1
10
55.039195131067
20
3.39895473859934
30
0
41
1
10
55.013074474722
20
3.4092688531228
30
0
41
1
10
54.9608449229503
20
3.42972262394866
30
0
41
1
10
54.934784402487
20
3.43983280950792
30
0
41
1
10
54.8569450556249
20
3.46968214125707
30
0
41
1
10
54.8054346841679
20
3.48898320563438
30
0
41
1
10
54.5496160509146
20
3.58238732648462
30
0
41
1
10
54.3504484271946
20
3.64720893936681
30
0
41
1
10
54.0574762000739
20
3.72712773527624
30
0
41
1
10
53.9607920047289
20
3.75088060623503
30
0
41
1
10
53.8170319045842
20
3.78176758481791
30
0
41
1
10
53.7692249973735
20
3.79128796093863
30
0
41
1
10
53.6746935327932
20
3.80856179714502
30
0
41
1
10
53.6279283403303
20
3.81632756195916
30
0
41
1
10
53.3964469762982
20
3.85080279094743
30
0
41
1
10
53.2186871300898
20
3.86452713324371
30
0
41
1
10
52.9630955030985
20
3.86168270043109
30
0
41
1
10
52.8797318407739
20
3.85683780449864
30
0
41
1
10
52.7166430705024
20
3.83893894657172
30
0
41
1
10
52.6369634441744
20
3.82583714447657
30
0
41
1
10
52.5592148374565
20
3.80828943519879
30
0
0
SPLINE
5
193
100
AcDbEntity
8
1
62
256
6
ByLayer
370
18
48
1
60
0
100
AcDbSpline
70
4
71
1
72
4
73
2
40
0
40
0
40
1
40
1
41
1
10
52.2637024349107
20
3.46543131804344
30
0
41
1
10
52.5592148374566
20
3.80828943519879
30
0
0
SPLINE
5
194
100
AcDbEntity
8
1
62
256
6
ByLayer
370
18
48
1
60
0
100
AcDbSpline
70
4
71
3
72
18
73
14
40
0
40
0
40
0
40
0
40
0.25
40
0.25
40
0.5
40
0.5
40
0.625
40
0.625
40
0.75
40
0.75
40
0.875
40
0.875
40
1
40
1
40
1
40
1
41
1
10
59.5834406168379
20
0.675371095261937
30
0
41
1
10
59.5803865780254
20
0.666994633088677
30
0
41
1
10
59.5777524340557
20
0.657675993687207
30
0
41
1
10
59.5736455975528
20
0.636690666715083
30
0
41
1
10
59.5721641116019
20
0.625038882558783
30
0
41
1
10
59.5712515577394
20
0.605120728036894
30
0
41
1
10
59.5711681319314
20
0.598070432325414
30
0
41
1
10
59.5715826404671
20
0.582921801224586
30
0
41
1
10
59.5720875479817
20
0.574789585671141
30
0
41
1
10
59.5738315904987
20
0.557693166415135
30
0
41
1
10
59.5750680896736
20
0.548683230378174
30
0
41
1
10
59.5784987247095
20
0.529472459143449
30
0
41
1
10
59.5807101682368
20
0.519218641101389
30
0
41
1
10
59.5834932888995
20
0.508504544915837
30
0
0
SPLINE
5
195
100
AcDbEntity
8
1
62
256
6
ByLayer
370
18
48
1
60
0
100
AcDbSpline
70
4
71
3
72
8
73
4
40
0
40
0
40
0
40
0
40
1
40
1
40
1
40
1
41
1
10
59.5834406168379
20
0.675371095261994
30
0
41
1
10
59.5949004945465
20
0.706802664416557
30
0
41
1
10
59.6056099460469
20
0.737131577877534
30
0
41
1
10
59.6154152034169
20
0.766089247385054
30
0
0
SPLINE
5
196
100
AcDbEntity
8
1
62
256
6
ByLayer
370
18
48
1
60
0
100
AcDbSpline
70
4
71
3
72
25
73
21
40
0
40
0
40
0
40
0
40
0.250000000000021
40
0.250000000000021
40
0.375000000000018
40
0.375000000000018
40
0.500000000000015
40
0.500000000000015
40
0.625000000000011
40
0.625000000000011
40
0.687500000000009
40
0.687500000000009
40
0.750000000000008
40
0.812500000000006
40
0.812500000000006
40
0.875000000000004
40
0.875000000000004
40
0.937500000000002
40
0.937500000000002
40
1
40
1
40
1
40
1
41
1
10
59.935314912263
20
0.110630488940075
30
0
41
1
10
59.9395094137224
20
0.0986909331445815
30
0
41
1
10
59.9434519969986
20
0.0879573835402709
30
0
41
1
10
59.9487791065758
20
0.0748843797133532
30
0
41
1
10
59.95045572271
20
0.0710458167804688
30
0
41
1
10
59.9534619452563
20
0.0649669913237574
30
0
41
1
10
59.9548030772205
20
0.062693553830627
30
0
41
1
10
59.9570498184277
20
0.0602829042443034
30
0
41
1
10
59.9579263449798
20
0.060194348656438
30
0
41
1
10
59.9587651111596
20
0.0621521315189852
30
0
41
1
10
59.9589674155086
20
0.0631664972904389
30
0
41
1
10
59.9591946375908
20
0.065909040521575
30
0
41
1
10
59.9592475638695
20
0.0693446805600217
30
0
41
1
10
59.9589644109854
20
0.0741379276983025
30
0
41
1
10
59.9585176553252
20
0.0796023988866068
30
0
41
1
10
59.9582128582396
20
0.0826567103734135
30
0
41
1
10
59.9574724730594
20
0.0892100559656228
30
0
41
1
10
59.9570354416137
20
0.0927276138221771
30
0
41
1
10
59.9560444292835
20
0.100191006935461
30
0
41
1
10
59.9554875958413
20
0.104154975711026
30
0
41
1
10
59.9548909816147
20
0.108230901711721
30
0
0
SPLINE
5
197
100
AcDbEntity
8
1
62
256
6
ByLayer
370
18
48
1
60
0
100
AcDbSpline
70
4
71
3
72
8
73
4
40
0
40
0
40
0
40
0
40
1
40
1
40
1
40
1
41
1
10
59.935314912263
20
0.110630488940075
30
0
41
1
10
59.9319648715305
20
0.120166305920975
30
0
41
1
10
59.9285548781565
20
0.129746232005061
30
0
41
1
10
59.9250854520249
20
0.139369884696862
30
0
0
SPLINE
5
198
100
AcDbEntity
8
1
62
256
6
ByLayer
370
18
48
1
60
0
100
AcDbSpline
70
4
71
3
72
12
73
8
40
0
40
0
40
0
40
0
40
0.25
40
0.25
40
0.5
40
0.5
40
1
40
1
40
1
40
1
41
1
10
59.925085452025
20
0.139369884696833
30
0
41
1
10
59.9170554953841
20
0.146254818931823
30
0
41
1
10
59.9080909571411
20
0.153107190220027
30
0
41
1
10
59.8883859702407
20
0.166688002407142
30
0
41
1
10
59.8776374527166
20
0.173423973823844
30
0
41
1
10
59.8427452789353
20
0.193471102248367
30
0
41
1
10
59.8159632368347
20
0.206621973740283
30
0
41
1
10
59.7856985370118
20
0.219561269055532
30
0
0
SPLINE
5
199
100
AcDbEntity
8
1
62
256
6
ByLayer
370
18
48
1
60
0
100
AcDbSpline
70
4
71
3
72
30
73
26
40
0
40
0
40
0
40
0
40
0.0624999999999825
40
0.0624999999999825
40
0.0937499999999829
40
0.0937499999999829
40
0.124999999999983
40
0.124999999999983
40
0.187499999999985
40
0.187499999999985
40
0.249999999999986
40
0.249999999999986
40
0.312499999999987
40
0.312499999999987
40
0.374999999999988
40
0.374999999999988
40
0.499999999999991
40
0.499999999999991
40
0.624999999999993
40
0.624999999999993
40
0.749999999999995
40
0.749999999999995
40
0.874999999999998
40
0.874999999999998
40
1
40
1
40
1
40
1
41
1
10
59.5834932889
20
0.508504544915553
30
0
41
1
10
59.5859710504256
20
0.495716798543384
30
0
41
1
10
59.5890306624451
20
0.483080496456381
30
0
41
1
10
59.5944315342117
20
0.464337377923641
30
0
41
1
10
59.5963792625084
20
0.458094626144231
30
0
41
1
10
59.6004304102476
20
0.445992808353111
30
0
41
1
10
59.6025426425625
20
0.440098076143442
30
0
41
1
10
59.6091070026285
20
0.422833912035628
30
0
41
1
10
59.6138212321309
20
0.411820844910039
30
0
41
1
10
59.6233571774893
20
0.391477500740109
30
0
41
1
10
59.6282184989999
20
0.382032637695687
30
0
41
1
10
59.638057035823
20
0.364268518368448
30
0
41
1
10
59.6430527041965
20
0.355929808795537
30
0
41
1
10
59.6528821314589
20
0.340527435554748
30
0
41
1
10
59.6577463159825
20
0.33340694927216
30
0
41
1
10
59.6721861338332
20
0.313420085177341
30
0
41
1
10
59.6816312065353
20
0.30188583157252
30
0
41
1
10
59.7000069987079
20
0.281489544519275
30
0
41
1
10
59.7088188052332
20
0.272762005350757
30
0
41
1
10
59.7258014382639
20
0.257421733446307
30
0
41
1
10
59.733970875788
20
0.25081918672592
30
0
41
1
10
59.7497257124066
20
0.239294141042336
30
0
41
1
10
59.7573105951452
20
0.234375427405951
30
0
41
1
10
59.7719301195982
20
0.225946798403584
30
0
41
1
10
59.7789643216343
20
0.222440398932776
30
0
41
1
10
59.7856985370118
20
0.219561269055532
30
0
0
SPLINE
5
19A
100
AcDbEntity
8
1
62
256
6
ByLayer
370
18
48
1
60
0
100
AcDbSpline
70
4
71
3
72
37
73
33
40
0
40
0
40
0
40
0
40
0.0422577086950992
40
0.0960068993636014
40
0.128430813830515
40
0.149990759518103
40
0.193068068340602
40
0.239835197834663
40
0.279467204766172
40
0.329961528051298
40
0.337178492625821
40
0.344396587822077
40
0.353363328060066
40
0.37578284203132
40
0.427688512046386
40
0.439907261089277
40
0.440750017420091
40
0.441239491601336
40
0.441644411594888
40
0.452217803829217
40
0.477784712473257
40
0.5042305673217
40
0.557824392170033
40
0.58485841376949
40
0.643846870855778
40
0.666677963212293
40
0.721801358445636
40
0.777295658555798
40
0.860895882032317
40
0.944046351262483
40
0.998487638351
40
1
40
1
40
1
40
1
41
1
10
52.2637024349107
20
3.46543131804344
30
0
41
1
10
52.3745758803135
20
3.50584406600757
30
0
41
1
10
52.6228920185028
20
3.56929271167095
30
0
41
1
10
52.9524161230767
20
3.59030821074751
30
0
41
1
10
53.2293895108907
20
3.57034214152324
30
0
41
1
10
53.4818213862144
20
3.53477651475669
30
0
41
1
10
53.776290356454
20
3.47408649633417
30
0
41
1
10
54.1237795763491
20
3.37333218463758
30
0
41
1
10
54.4955842351477
20
3.23974321749211
30
0
41
1
10
54.7625214365255
20
3.12675434847455
30
0
41
1
10
54.9413221911874
20
3.04506522485826
30
0
41
1
10
55.0057818696964
20
3.01501964829137
30
0
41
1
10
55.1125795727016
20
2.96502395781258
30
0
41
1
10
55.3432040713686
20
2.85301125269317
30
0
41
1
10
55.5834105068927
20
2.72822906963697
30
0
41
1
10
55.7633049249827
20
2.63068961917756
30
0
41
1
10
55.8008494123988
20
2.61019014835802
30
0
41
1
10
55.8056432703137
20
2.60753213344958
30
0
41
1
10
55.8383952236466
20
2.59141021963285
30
0
41
1
10
55.9424372548957
20
2.53972508626592
30
0
41
1
10
56.1201331197356
20
2.44941570649465
30
0
41
1
10
56.4184837648911
20
2.29397480115298
30
0
41
1
10
56.7176506534359
20
2.13297976758224
30
0
41
1
10
57.0999108840436
20
1.92313165445498
30
0
41
1
10
57.3899389574457
20
1.76142715468353
30
0
41
1
10
57.7410566383848
20
1.56409453847337
30
0
41
1
10
58.0689533301791
20
1.37850370121333
30
0
41
1
10
58.511597663661
20
1.12579071036475
30
0
41
1
10
58.9611236489385
20
0.866134724977343
30
0
41
1
10
59.3299912565506
20
0.65220119737242
30
0
41
1
10
59.5154265050445
20
0.546567471872038
30
0
41
1
10
59.5817078722438
20
0.50950239322114
30
0
41
1
10
59.5834932889
20
0.508504544915553
30
0
0
SPLINE
5
19B
100
AcDbEntity
8
1
62
256
6
ByLayer
370
18
48
1
60
0
100
AcDbSpline
70
4
71
1
72
4
73
2
40
0
40
0
40
1
40
1
41
1
10
52.1352043049458
20
3.23604520823707
30
0
41
1
10
52.2637024349107
20
3.46543131804344
30
0
0
SPLINE
5
19C
100
AcDbEntity
8
1
62
256
6
ByLayer
370
18
48
1
60
0
100
AcDbSpline
70
4
71
3
72
13
73
9
40
0
40
0
40
0
40
0
40
0.500000000000002
40
0.500000000000002
40
0.625000000000002
40
0.625000000000002
40
0.750000000000002
40
1
40
1
40
1
40
1
41
1
10
59.763429611422
20
0.0737148569382384
30
0
41
1
10
59.832722378397
20
0.0517322315059801
30
0
41
1
10
59.8871565739979
20
0.0298418160644474
30
0
41
1
10
59.9363322004575
20
0.0025958831725461
30
0
41
1
10
59.945221110371
20
-0.0028485428290992
30
0
41
1
10
59.9610451436363
20
-0.0136938006092748
30
0
41
1
10
59.9818722510971
20
-0.0299080263520182
30
0
41
1
10
59.993974039712
20
-0.0459612971386889
30
0
41
1
10
59.9981555469417
20
-0.0565917865763481
30
0
0
SPLINE
5
19D
100
AcDbEntity
8
1
62
256
6
ByLayer
370
18
48
1
60
0
100
AcDbSpline
70
4
71
3
72
8
73
4
40
0
40
0
40
0
40
0
40
1
40
1
40
1
40
1
41
1
10
59.9993209450074
20
-0.0587544955922112
30
0
41
1
10
59.999045950973
20
-0.0580333369446464
30
0
41
1
10
59.998657404294
20
-0.0573124341214566
30
0
41
1
10
59.9981555469419
20
-0.0565917865775987
30
0
0
SPLINE
5
19E
100
AcDbEntity
8
1
62
256
6
ByLayer
370
18
48
1
60
0
100
AcDbSpline
70
4
71
3
72
8
73
4
40
0
40
0
40
0
40
0
40
1
40
1
40
1
40
1
41
1
10
59.9754884645616
20
0.0644656547779334
30
0
41
1
10
59.9726027331655
20
0.0791931273752482
30
0
41
1
10
59.9657413688252
20
0.0937816989595319
30
0
41
1
10
59.9548909816146
20
0.108230901711977
30
0
0
SPLINE
5
19F
100
AcDbEntity
8
1
62
256
6
ByLayer
370
18
48
1
60
0
100
AcDbSpline
70
4
71
3
72
8
73
4
40
0
40
0
40
0
40
0
40
1
40
1
40
1
40
1
41
1
10
56.102341301826
20
2.13825712769179
30
0
41
1
10
56.0913490431187
20
2.14447518547053
30
0
41
1
10
56.0802368485989
20
2.15046061206451
30
0
41
1
10
56.0690072019405
20
2.15621821695535
30
0
0
SPLINE
5
1A0
100
AcDbEntity
8
1
62
256
6
ByLayer
370
18
48
1
60
0
100
AcDbSpline
70
4
71
3
72
8
73
4
40
0
40
0
40
0
40
0
40
1
40
1
40
1
40
1
41
1
10
59.5531869901259
20
0.0714399109734529
30
0
41
1
10
59.6232371345289
20
0.0722053089617702
30
0
41
1
10
59.6933205914497
20
0.0729630289039847
30
0
41
1
10
59.7634296114216
20
0.0737148569383521
30
0
0
SPLINE
5
1A1
100
AcDbEntity
8
1
62
256
6
ByLayer
370
18
48
1
60
0
100
AcDbSpline
70
4
71
3
72
8
73
4
40
0
40
0
40
0
40
0
40
1
40
1
40
1
40
1
41
1
10
59.6536492374478
20
0.135265914815903
30
0
41
1
10
59.6934525126534
20
0.112929212833023
30
0
41
1
10
59.7300647649455
20
0.0924209416715769
30
0
41
1
10
59.7634296114222
20
0.0737148569381532
30
0
0
SPLINE
5
1A2
100
AcDbEntity
8
1
62
256
6
ByLayer
370
18
48
1
60
0
100
AcDbSpline
70
4
71
3
72
9
73
5
40
0
40
0
40
0
40
0
40
0.460712770792878
40
1
40
1
40
1
40
1
41
1
10
59.2789750349634
20
0.346500031045622
30
0
41
1
10
59.346056649203
20
0.308680707123102
30
0
41
1
10
59.4824866512046
20
0.231764095659884
30
0
41
1
10
59.5978367386343
20
0.166731930665378
30
0
41
1
10
59.653649237448
20
0.135265914815761
30
0
0
SPLINE
5
1A3
100
AcDbEntity
8
1
62
256
6
ByLayer
370
18
48
1
60
0
100
AcDbSpline
70
4
71
3
72
37
73
33
40
0
40
0
40
0
40
0
40
0.0625000000000054
40
0.0625000000000054
40
0.125000000000011
40
0.125000000000011
40
0.187500000000016
40
0.187500000000016
40
0.250000000000021
40
0.250000000000021
40
0.281250000000024
40
0.281250000000024
40
0.312500000000027
40
0.375000000000024
40
0.375000000000024
40
0.500000000000018
40
0.500000000000018
40
0.562500000000011
40
0.562500000000011
40
0.593750000000007
40
0.593750000000007
40
0.625000000000004
40
0.625000000000004
40
0.750000000000004
40
0.750000000000004
40
0.875000000000005
40
0.875000000000005
40
0.937500000000002
40
0.937500000000002
40
0.968750000000001
40
0.968750000000001
40
1
40
1
40
1
40
1
41
1
10
56.1023413018399
20
2.13825712768187
30
0
41
1
10
56.1790613072481
20
2.09485845602313
30
0
41
1
10
56.2555853111732
20
2.0514367740677
30
0
41
1
10
56.4084246090975
20
1.96491515536968
30
0
41
1
10
56.4847494030351
20
1.92183380730808
30
0
41
1
10
56.6371684667214
20
1.83594631852947
30
0
41
1
10
56.7132622884341
20
1.79313931064951
30
0
41
1
10
56.8651403782268
20
1.70764898298631
30
0
41
1
10
56.9409232224098
20
1.66496279047607
30
0
41
1
10
57.0543562026893
20
1.60102475075337
30
0
41
1
10
57.0921760446704
20
1.57970011266369
30
0
41
1
10
57.1672402121842
20
1.53736618427331
30
0
41
1
10
57.2791255301958
20
1.47425230842941
30
0
41
1
10
57.3889153504923
20
1.4122977745613
30
0
41
1
10
57.6057458277025
20
1.28994312102171
30
0
41
1
10
57.7466416765144
20
1.21046861896474
30
0
41
1
10
57.9525280925076
20
1.09438780067504
30
0
41
1
10
58.0202451949129
20
1.05621229536518
30
0
41
1
10
58.1204249683135
20
0.999731671243211
30
0
41
1
10
58.1535853331528
20
0.98103542329909
30
0
41
1
10
58.2194365321297
20
0.94390915574877
30
0
41
1
10
58.2521696022076
20
0.925455326046233
30
0
41
1
10
58.4141531749409
20
0.834145382433832
30
0
41
1
10
58.5372383435839
20
0.764826953198678
30
0
41
1
10
58.7708677910573
20
0.633275733321653
30
0
41
1
10
58.8814468385112
20
0.571020094655864
30
0
41
1
10
59.037873504033
20
0.482795186114487
30
0
41
1
10
59.0884312226206
20
0.454245830107766
30
0
41
1
10
59.1618489752661
20
0.412743604367193
30
0
41
1
10
59.1859194176197
20
0.399131141308573
30
0
41
1
10
59.2332401860235
20
0.372367333003297
30
0
41
1
10
59.2563694601458
20
0.359284475602379
30
0
41
1
10
59.2789750349634
20
0.346500031045594
30
0
0
SPLINE
5
1A4
100
AcDbEntity
8
1
62
256
6
ByLayer
370
18
48
1
60
0
100
AcDbSpline
70
4
71
3
72
10
73
6
40
0
40
0
40
0
40
0
40
0.5
40
0.5
40
1
40
1
40
1
40
1
41
1
10
57.1648484263351
20
0.348897466502564
30
0
41
1
10
57.2113113566226
20
0.278730752656372
30
0
41
1
10
57.2565426498768
20
0.207456049410609
30
0
41
1
10
57.3438414585923
20
0.0620604860078515
30
0
41
1
10
57.3859226052602
20
-0.0120481414733433
30
0
41
1
10
57.4258161844891
20
-0.0881246900638644
30
0
0
SPLINE
5
1A5
100
AcDbEntity
8
1
62
256
6
ByLayer
370
18
48
1
60
0
100
AcDbSpline
70
4
71
3
72
8
73
4
40
0
40
0
40
0
40
0
40
1
40
1
40
1
40
1
41
1
10
57.2382546252055
20
0.350996981192651
30
0
41
1
10
57.2138065985047
20
0.350264283007647
30
0
41
1
10
57.1893375832085
20
0.349564892838259
30
0
41
1
10
57.164848426335
20
0.348897466502564
30
0
0
SPLINE
5
1A6
100
AcDbEntity
8
1
62
256
6
ByLayer
370
18
48
1
60
0
100
AcDbSpline
70
4
71
3
72
8
73
4
40
0
40
0
40
0
40
0
40
1
40
1
40
1
40
1
41
1
10
57.0715800935855
20
0.525920451295121
30
0
41
1
10
57.1264612847869
20
0.467007744947551
30
0
41
1
10
57.1819850478317
20
0.408657146254626
30
0
41
1
10
57.2382546252052
20
0.35099698119231
30
0
0
SPLINE
5
1A7
100
AcDbEntity
8
1
62
256
6
ByLayer
370
18
48
1
60
0
100
AcDbSpline
70
4
71
3
72
38
73
34
40
0
40
0
40
0
40
0
40
0.125000000000004
40
0.125000000000004
40
0.250000000000008
40
0.250000000000008
40
0.375000000000012
40
0.375000000000012
40
0.500000000000017
40
0.500000000000017
40
0.562500000000018
40
0.562500000000018
40
0.62500000000002
40
0.62500000000002
40
0.750000000000023
40
0.750000000000023
40
0.812500000000025
40
0.812500000000025
40
0.875000000000027
40
0.875000000000027
40
0.906250000000028
40
0.906250000000028
40
0.937500000000029
40
0.937500000000029
40
0.95312500000003
40
0.95312500000003
40
0.96875000000003
40
0.96875000000003
40
0.97656250000003
40
0.97656250000003
40
0.98437500000003
40
0.98437500000003
40
1
40
1
40
1
40
1
41
1
10
57.0715790499479
20
0.525921571597451
30
0
41
1
10
57.039679652711
20
0.560164274571832
30
0
41
1
10
57.0105800031855
20
0.596141123169531
30
0
41
1
10
56.9572461631851
20
0.670914332140796
30
0
41
1
10
56.9330197575514
20
0.709715774606281
30
0
41
1
10
56.8889690583363
20
0.789638476086026
30
0
41
1
10
56.8695327721137
20
0.830052145763091
30
0
41
1
10
56.8350961867565
20
0.911025096518699
30
0
41
1
10
56.8200747232944
20
0.951621332519551
30
0
41
1
10
56.8004068955406
20
1.01234049090286
30
0
41
1
10
56.7943219580588
20
1.03258264922937
30
0
41
1
10
56.7831156509814
20
1.07282480101821
30
0
41
1
10
56.7780227361759
20
1.092714268126
30
0
41
1
10
56.7642230416277
20
1.15162769804164
30
0
41
1
10
56.7569136156673
20
1.18990743097567
30
0
41
1
10
56.7495112694445
20
1.24549350405167
30
0
41
1
10
56.7476446661434
20
1.26376809424377
30
0
41
1
10
56.7457353122275
20
1.29917081879671
30
0
41
1
10
56.7456430734451
20
1.31640423417193
30
0
41
1
10
56.74806352842
20
1.34069504890166
30
0
41
1
10
56.749301141851
20
1.34853782676802
30
0
41
1
10
56.7532328452302
20
1.36348709267423
30
0
41
1
10
56.7559051695899
20
1.37057823779423
30
0
41
1
10
56.7618789774251
20
1.37991757117854
30
0
41
1
10
56.7642147125065
20
1.3828103360452
30
0
41
1
10
56.7696943498571
20
1.38782454341805
30
0
41
1
10
56.7728477737482
20
1.38997095378502
30
0
41
1
10
56.7784673587762
20
1.39244568619009
30
0
41
1
10
56.7804922034987
20
1.39314091873391
30
0
41
1
10
56.7847308818811
20
1.39420360073629
30
0
41
1
10
56.7869605457522
20
1.39457900825121
30
0
41
1
10
56.7939940921995
20
1.39522607435674
30
0
41
1
10
56.7991451100794
20
1.39499663861116
30
0
41
1
10
56.804472185029
20
1.39419223193903
30
0
0
SPLINE
5
1A8
100
AcDbEntity
8
1
62
256
6
ByLayer
370
18
48
1
60
0
100
AcDbSpline
70
4
71
3
72
52
73
48
40
0
40
0
40
0
40
0
40
0.124999999999976
40
0.124999999999976
40
0.187499999999964
40
0.187499999999964
40
0.249999999999953
40
0.249999999999953
40
0.374999999999929
40
0.374999999999929
40
0.406249999999936
40
0.406249999999936
40
0.437499999999943
40
0.437499999999943
40
0.499999999999958
40
0.499999999999958
40
0.531249999999964
40
0.531249999999964
40
0.562499999999971
40
0.562499999999971
40
0.593749999999977
40
0.593749999999977
40
0.624999999999984
40
0.624999999999984
40
0.640624999999988
40
0.640624999999988
40
0.656249999999992
40
0.656249999999992
40
0.687500000000009
40
0.687500000000009
40
0.703125000000018
40
0.703125000000018
40
0.718750000000028
40
0.718750000000028
40
0.750000000000026
40
0.750000000000026
40
0.781250000000025
40
0.781250000000025
40
0.812500000000023
40
0.812500000000023
40
0.875000000000048
40
0.875000000000048
40
0.906250000000044
40
0.906250000000044
40
0.937500000000041
40
0.937500000000041
40
1
40
1
40
1
40
1
41
1
10
56.6422940287027
20
1.79855296491752
30
0
41
1
10
56.6800270952958
20
1.7752267151053
30
0
41
1
10
56.7171539766758
20
1.75173430739562
30
0
41
1
10
56.7716866048325
20
1.71607756173097
30
0
41
1
10
56.7896702022085
20
1.70412156570433
30
0
41
1
10
56.8251728261021
20
1.68002189802834
30
0
41
1
10
56.8426661016187
20
1.66789505362041
30
0
41
1
10
56.8938976866997
20
1.63141602579483
30
0
41
1
10
56.9265587738593
20
1.60690973217382
30
0
41
1
10
56.9642797017261
20
1.57567316688221
30
0
41
1
10
56.9716635949335
20
1.56939422005931
30
0
41
1
10
56.9860512499098
20
1.5567555605617
30
0
41
1
10
56.9930747373325
20
1.55037722251186
30
0
41
1
10
57.0132895331259
20
1.53124039549715
30
0
41
1
10
57.0256285797478
20
1.51850565608493
30
0
41
1
10
57.0416563039242
20
1.49939541271598
30
0
41
1
10
57.0465746549001
20
1.49302262952403
30
0
41
1
10
57.055195826515
20
1.48052323045286
30
0
41
1
10
57.0589256428301
20
1.47436699505559
30
0
41
1
10
57.0649970172064
20
1.46226663133223
30
0
41
1
10
57.0673416111374
20
1.45631757011083
30
0
41
1
10
57.0703094500528
20
1.44468899256162
30
0
41
1
10
57.0708882002007
20
1.43917178509361
30
0
41
1
10
57.070305090698
20
1.43136450565851
30
0
41
1
10
57.06986856324
20
1.42884027367106
30
0
41
1
10
57.0684917287911
20
1.42395345358847
30
0
41
1
10
57.0675443334682
20
1.42157905525144
30
0
41
1
10
57.0639707011847
20
1.41480791514317
30
0
41
1
10
57.0606340386699
20
1.41076786148366
30
0
41
1
10
57.0543240832986
20
1.40535334187308
30
0
41
1
10
57.0520028794957
20
1.40365632595837
30
0
41
1
10
57.0469416807448
20
1.4004694409077
30
0
41
1
10
57.0441937070006
20
1.39897744052138
30
0
41
1
10
57.0355025620738
20
1.39486671494075
30
0
41
1
10
57.0290761779048
20
1.39258216402396
30
0
41
1
10
57.0151905942623
20
1.38876077280872
30
0
41
1
10
57.0077302276288
20
1.38722480424386
30
0
41
1
10
56.9919364726709
20
1.38478979847511
30
0
41
1
10
56.9836429559629
20
1.38389998562656
30
0
41
1
10
56.958142654684
20
1.38206826477358
30
0
41
1
10
56.9401807123885
20
1.38192884139016
30
0
41
1
10
56.9122471000654
20
1.38287292814701
30
0
41
1
10
56.9027675144253
20
1.38338338554098
30
0
41
1
10
56.8835188193878
20
1.38474812461749
30
0
41
1
10
56.8737392227822
20
1.38560432085794
30
0
41
1
10
56.8443080360059
20
1.38860158991983
30
0
41
1
10
56.8244688879444
20
1.39117266089025
30
0
41
1
10
56.8044721844254
20
1.39419223203015
30
0
0
SPLINE
5
1A9
100
AcDbEntity
8
1
62
256
6
ByLayer
370
18
48
1
60
0
100
AcDbSpline
70
4
71
3
72
8
73
4
40
0
40
0
40
0
40
0
40
1
40
1
40
1
40
1
41
1
10
52.1350827818901
20
3.23560297002874
30
0
41
1
10
52.1340553455576
20
3.23518743222928
30
0
41
1
10
52.133027751256
20
3.23477129622813
30
0
41
1
10
52.132
20
3.2343545615106
30
0
0
SPLINE
5
1AA
100
AcDbEntity
8
1
62
256
6
ByLayer
370
18
48
1
60
0
100
AcDbSpline
70
4
71
3
72
8
73
4
40
0
40
0
40
0
40
0
40
1
40
1
40
1
40
1
41
1
10
52.1350827818902
20
-0.415217545168048
30
0
41
1
10
52.1340553455578
20
-0.414838137762103
30
0
41
1
10
52.1330277512558
20
-0.414459539738573
30
0
41
1
10
52.132
20
-0.414081752974255
30
0
0
SPLINE
5
1AB
100
AcDbEntity
8
1
62
256
6
ByLayer
370
18
48
1
60
0
100
AcDbSpline
70
4
71
3
72
10
73
6
40
0
40
0
40
0
40
0
40
0.5
40
0.5
40
1
40
1
40
1
40
1
41
1
10
56.1183870116189
20
2.11952149660831
30
0
41
1
10
56.2071961363819
20
2.0663711302158
30
0
41
1
10
56.295156094853
20
2.01287199358151
30
0
41
1
10
56.4695290050896
20
1.90559762289792
30
0
41
1
10
56.5560214129769
20
1.85188574966651
30
0
41
1
10
56.6422940287035
20
1.79855296491721
30
0
0
SPLINE
5
1AC
100
AcDbEntity
8
1
62
256
6
ByLayer
370
18
48
1
60
0
100
AcDbSpline
70
4
71
3
72
12
73
8
40
0
40
0
40
0
40
0
40
0.250000000000001
40
0.250000000000001
40
0.500000000000003
40
0.500000000000003
40
1
40
1
40
1
40
1
41
1
10
56.1183870115723
20
2.11952149663159
30
0
41
1
10
56.1120504023097
20
2.12331382208114
30
0
41
1
10
56.1058803009542
20
2.12716372422338
30
0
41
1
10
56.0937386876448
20
2.1349360248372
30
0
41
1
10
56.0877697035102
20
2.13885923126651
30
0
41
1
10
56.070074189862
20
2.15071033468797
30
0
41
1
10
56.058555222551
20
2.15871849360326
30
0
41
1
10
56.0472020565014
20
2.16679890493864
30
0
0
SPLINE
5
1AD
100
AcDbEntity
8
1
62
256
6
ByLayer
370
18
48
1
60
0
100
AcDbSpline
70
4
71
3
72
8
73
4
40
0
40
0
40
0
40
0
40
1
40
1
40
1
40
1
41
1
10
56.0690072019407
20
2.15621821695524
30
0
41
1
10
56.0617814122122
20
2.15986567832891
30
0
41
1
10
56.0545132280177
20
2.16339316777027
30
0
41
1
10
56.0472020565006
20
2.16679890493802
30
0
0
SPLINE
5
1AE
100
AcDbEntity
8
1
62
256
6
ByLayer
370
18
48
1
60
0
100
AcDbSpline
70
4
71
3
72
26
73
22
40
0
40
0
40
0
40
0
40
0.0896079500880141
40
0.203583717904618
40
0.272338995910171
40
0.318057105025201
40
0.409403026469827
40
0.508573254455935
40
0.592613374203799
40
0.699687158854749
40
0.714990814006687
40
0.730296866654819
40
0.749310940926932
40
0.796851774326795
40
0.906918335709815
40
0.932828331499537
40
0.934615405847861
40
0.935653341395168
40
0.936511978829433
40
0.958932976863919
40
1
40
1
40
1
40
1
41
1
10
52.1352043049458
20
3.23604520823707
30
0
41
1
10
52.2508838316682
20
3.27824421629614
30
0
41
1
10
52.5113349697305
20
3.34342321259203
30
0
41
1
10
52.8574243327067
20
3.36114058582208
30
0
41
1
10
53.147810883908
20
3.33563467131978
30
0
41
1
10
53.4128244705409
20
3.29402904118319
30
0
41
1
10
53.7221752634035
20
3.2253859639122
30
0
41
1
10
54.0858956565809
20
3.11401527852394
30
0
41
1
10
54.4744718397331
20
2.96827490996924
30
0
41
1
10
54.7526964589018
20
2.84618215152736
30
0
41
1
10
54.9388758431676
20
2.75836228906391
30
0
41
1
10
55.0060992925235
20
2.72609176990656
30
0
41
1
10
55.1159220414013
20
2.6724375013651
30
0
41
1
10
55.3534993755355
20
2.55254157892401
30
0
41
1
10
55.6001365367503
20
2.41972028448197
30
0
41
1
10
55.7850353583618
20
2.31629444346419
30
0
41
1
10
55.8236047871653
20
2.29457074657978
30
0
41
1
10
55.8286037916098
20
2.29175309855952
30
0
41
1
10
55.8586403149334
20
2.27481900022113
30
0
41
1
10
55.9382677449501
20
2.22992662780138
30
0
41
1
10
56.0175272690516
20
2.18524162005923
30
0
41
1
10
56.06900720194
20
2.1562182169545
30
0
0
SPLINE
5
1AF
100
AcDbEntity
8
1
62
256
6
ByLayer
370
18
48
1
60
0
100
AcDbSpline
70
4
71
1
72
4
73
2
40
0
40
0
40
1
40
1
41
1
10
52.1350827818901
20
3.23560297002874
30
0
41
1
10
52.1352043049458
20
3.23604520823707
30
0
0
SPLINE
5
1B0
100
AcDbEntity
8
1
62
256
6
ByLayer
370
18
48
1
60
0
100
AcDbSpline
70
4
71
3
72
16
73
12
40
0
40
0
40
0
40
0
40
0.249999999999994
40
0.249999999999994
40
0.499999999999987
40
0.499999999999987
40
0.624999999999984
40
0.624999999999984
40
0.749999999999981
40
0.749999999999981
40
1
40
1
40
1
40
1
41
1
10
52.1350827818901
20
3.23560297002871
30
0
41
1
10
52.2209073901373
20
3.26694588824805
30
0
41
1
10
52.306340011527
20
3.29087504559976
30
0
41
1
10
52.4774972925717
20
3.32681082762187
30
0
41
1
10
52.5632068125436
20
3.33879990282242
30
0
41
1
10
52.6925264744605
20
3.34908624868194
30
0
41
1
10
52.7357576117364
20
3.35122490261807
30
0
41
1
10
52.8225481141344
20
3.35307271668987
30
0
41
1
10
52.8661661856489
20
3.35277837055384
30
0
41
1
10
52.9970353809127
20
3.34846428698219
30
0
41
1
10
53.0843759036252
20
3.34103459985715
30
0
41
1
10
53.1721353207747
20
3.32960295474135
30
0
0
SPLINE
5
1B1
100
AcDbEntity
8
1
62
256
6
ByLayer
370
18
48
1
60
0
100
AcDbSpline
70
4
71
3
72
28
73
24
40
0
40
0
40
0
40
0
40
0.124999999999971
40
0.124999999999971
40
0.249999999999941
40
0.249999999999941
40
0.374999999999912
40
0.374999999999912
40
0.437499999999903
40
0.437499999999903
40
0.468749999999903
40
0.468749999999903
40
0.499999999999904
40
0.499999999999904
40
0.624999999999928
40
0.624999999999928
40
0.749999999999952
40
0.749999999999952
40
0.874999999999976
40
0.874999999999976
40
0.937499999999988
40
0.937499999999988
40
1
40
1
40
1
40
1
41
1
10
53.1721353207739
20
3.32960295474175
30
0
41
1
10
53.2876157100509
20
3.31456032544915
30
0
41
1
10
53.4034503457853
20
3.29405849366665
30
0
41
1
10
53.6362570615333
20
3.24314544507368
30
0
41
1
10
53.7532253431582
20
3.21274122060194
30
0
41
1
10
53.9887523671451
20
3.14281109522406
30
0
41
1
10
54.1073090309491
20
3.10328752734407
30
0
41
1
10
54.2867099942585
20
3.03764212304853
30
0
41
1
10
54.3467718349044
20
3.01469897759512
30
0
41
1
10
54.4373108174509
20
2.9787389813329
30
0
41
1
10
54.4675649468383
20
2.96649458698852
30
0
41
1
10
54.5282315576549
20
2.94149788289425
30
0
41
1
10
54.5586650034302
20
2.92873623891177
30
0
41
1
10
54.7105681674158
20
2.86397325366107
30
0
41
1
10
54.8317371230111
20
2.80892085717409
30
0
41
1
10
55.073907214466
20
2.69326896573258
30
0
41
1
10
55.1949072778464
20
2.63267412763554
30
0
41
1
10
55.4372671320708
20
2.50676311089217
30
0
41
1
10
55.5586258763359
20
2.44144479820307
30
0
41
1
10
55.741347186649
20
2.34048463581959
30
0
41
1
10
55.8023685526345
20
2.30633262956647
30
0
41
1
10
55.924713791363
20
2.23712406851479
30
0
41
1
10
55.9861096820559
20
2.20202298674823
30
0
41
1
10
56.0472020565002
20
2.16679890493717
30
0
0
SPLINE
5
1B2
100
AcDbEntity
8
1
62
256
6
ByLayer
370
18
48
1
60
0
100
AcDbSpline
70
4
71
3
72
8
73
4
40
0
40
0
40
0
40
0
40
1
40
1
40
1
40
1
41
1
10
56.0690072019421
20
-2.57334533320662
30
0
41
1
10
56.0617814122134
20
-2.57138322780267
30
0
41
1
10
56.0545132280191
20
-2.56952438677891
30
0
41
1
10
56.0472020565018
20
-2.56777105533465
30
0
0
SPLINE
5
1B3
100
AcDbEntity
8
1
62
256
6
ByLayer
370
18
48
1
60
0
100
AcDbSpline
70
4
71
1
72
4
73
2
40
0
40
0
40
1
40
1
41
1
10
52.1350827818901
20
-0.415217545168019
30
0
41
1
10
52.1352043049458
20
-0.414624048857291
30
0
0
SPLINE
5
1B4
100
AcDbEntity
8
1
62
256
6
ByLayer
370
18
48
1
60
0
100
AcDbSpline
70
4
71
3
72
16
73
12
40
0
40
0
40
0
40
0
40
0.250000000000013
40
0.250000000000013
40
0.500000000000027
40
0.500000000000027
40
0.62500000000002
40
0.62500000000002
40
0.750000000000014
40
0.750000000000014
40
1
40
1
40
1
40
1
41
1
10
52.1350827818901
20
-0.415217545168019
30
0
41
1
10
52.2209073901374
20
-0.447401495272032
30
0
41
1
10
52.306340011527
20
-0.485404010969489
30
0
41
1
10
52.4774972925716
20
-0.569667804403935
30
0
41
1
10
52.5632068125437
20
-0.615959779308668
30
0
41
1
10
52.6925264744606
20
-0.69005464621884
30
0
41
1
10
52.7357576117365
20
-0.715535884025655
30
0
41
1
10
52.8225481141344
20
-0.767861278330855
30
0
41
1
10
52.866166185649
20
-0.794743153569669
30
0
41
1
10
52.9970353809128
20
-0.876796447217004
30
0
41
1
10
53.0843759036244
20
-0.933400454222408
30
0
41
1
10
53.1721353207739
20
-0.991274874372465
30
0
0
SPLINE
5
1B5
100
AcDbEntity
8
1
62
256
6
ByLayer
370
18
48
1
60
0
100
AcDbSpline
70
4
71
3
72
28
73
24
40
0
40
0
40
0
40
0
40
0.124999999999986
40
0.124999999999986
40
0.249999999999972
40
0.249999999999972
40
0.374999999999957
40
0.374999999999957
40
0.43749999999995
40
0.43749999999995
40
0.468749999999947
40
0.468749999999947
40
0.499999999999943
40
0.499999999999943
40
0.62499999999996
40
0.62499999999996
40
0.749999999999977
40
0.749999999999977
40
0.874999999999994
40
0.874999999999994
40
0.937499999999997
40
0.937499999999997
40
1
40
1
40
1
40
1
41
1
10
53.1721353207739
20
-0.99127487437238
30
0
41
1
10
53.2876157100509
20
-1.0674303793391
30
0
41
1
10
53.4034503457854
20
-1.14358186914581
30
0
41
1
10
53.6362570615334
20
-1.29513260852622
30
0
41
1
10
53.7532253431584
20
-1.37053690263591
30
0
41
1
10
53.9887523671453
20
-1.51983425655302
30
0
41
1
10
54.1073090309494
20
-1.59373022173992
30
0
41
1
10
54.2867099942589
20
-1.70283186783684
30
0
41
1
10
54.3467718349048
20
-1.73890803822545
30
0
41
1
10
54.4373108174514
20
-1.79249991640091
30
0
41
1
10
54.4675649468388
20
-1.81027668253586
30
0
41
1
10
54.5282315576554
20
-1.8456409108976
30
0
41
1
10
54.5586650034308
20
-1.8632401312251
30
0
41
1
10
54.7105681674163
20
-1.95033569465335
30
0
41
1
10
54.8317371230117
20
-2.01742741551249
30
0
41
1
10
55.0739072144667
20
-2.14572701796342
30
0
41
1
10
55.1949072778471
20
-2.20694389526614
30
0
41
1
10
55.4372671320716
20
-2.32268967422817
30
0
41
1
10
55.5586258763368
20
-2.37721959507462
30
0
41
1
10
55.74134718665
20
-2.45326521664495
30
0
41
1
10
55.8023685526355
20
-2.47765247392164
30
0
41
1
10
55.9247137913642
20
-2.52436479886816
30
0
41
1
10
55.986109682057
20
-2.54670732575582
30
0
41
1
10
56.0472020565014
20
-2.56777105533575
30
0
0
SPLINE
5
1B6
100
AcDbEntity
8
1
62
256
6
ByLayer
370
18
48
1
60
0
100
AcDbSpline
70
4
71
3
72
8
73
4
40
0
40
0
40
0
40
0
40
1
40
1
40
1
40
1
41
1
10
59.6536492374657
20
-1.47459519753781
30
0
41
1
10
59.6795171632276
20
-1.42718179434758
30
0
41
1
10
59.7039520782366
20
-1.37881810723602
30
0
41
1
10
59.7269682359934
20
-1.32952261682343
30
0
0
SPLINE
5
1B7
100
AcDbEntity
8
1
62
256
6
ByLayer
370
18
48
1
60
0
100
AcDbSpline
70
4
71
3
72
14
73
10
40
0
40
0
40
0
40
0
40
0.244390215588301
40
0.244390215588301
40
0.496246517145683
40
0.496246517145683
40
0.748121154191909
40
0.748121154191909
40
1
40
1
40
1
40
1
41
1
10
59.7269682359978
20
-1.3295226168035
30
0
41
1
10
59.7163534848622
20
-1.31870665907172
30
0
41
1
10
59.7057079761462
20
-1.30783591485891
30
0
41
1
10
59.6840289978045
20
-1.28565038274669
30
0
41
1
10
59.6729935681655
20
-1.27433213093894
30
0
41
1
10
59.6508557960895
20
-1.25157671400638
30
0
41
1
10
59.6397534036138
20
-1.24013949388251
30
0
41
1
10
59.6174817549283
20
-1.21714561712818
30
0
41
1
10
59.6063124510841
20
-1.20558891057655
30
0
41
1
10
59.5951094832523
20
-1.19397192852625
30
0
0
SPLINE
5
1B8
100
AcDbEntity
8
1
62
256
6
ByLayer
370
18
48
1
60
0
100
AcDbSpline
70
4
71
1
72
4
73
2
40
0
40
0
40
1
40
1
41
1
10
52.1352043049458
20
-0.414624048857291
30
0
41
1
10
52.2637024349104
20
-0.0274527006395431
30
0
0
SPLINE
5
1B9
100
AcDbEntity
8
1
62
256
6
ByLayer
370
18
48
1
60
0
100
AcDbSpline
70
4
71
3
72
26
73
22
40
0
40
0
40
0
40
0
40
0.089607950088373
40
0.203583717904533
40
0.272338995909869
40
0.318057105025397
40
0.409403026468014
40
0.508573254455726
40
0.592613374205214
40
0.699687158855066
40
0.714990814007026
40
0.730296866655299
40
0.749310940927608
40
0.796851774327129
40
0.906918335709306
40
0.932828331499308
40
0.934615405847644
40
0.935653341394965
40
0.936511978829225
40
0.958932976863849
40
1
40
1
40
1
40
1
41
1
10
52.1352043049458
20
-0.414624048857291
30
0
41
1
10
52.2508838316698
20
-0.458078797340477
30
0
41
1
10
52.5113349697276
20
-0.580216205876667
30
0
41
1
10
52.8574243327078
20
-0.785571795822534
30
0
41
1
10
53.1478108839092
20
-0.97430489410911
30
0
41
1
10
53.412824470535
20
-1.14939861313601
30
0
41
1
10
53.7221752634133
20
-1.35069224556719
30
0
41
1
10
54.0858956565827
20
-1.58102484955594
30
0
41
1
10
54.4744718397239
20
-1.81602951378591
30
0
41
1
10
54.7526964589054
20
-1.9739306225658
30
0
41
1
10
54.9388758431674
20
-2.07367559574837
30
0
41
1
10
55.0060992925238
20
-2.10916203280229
30
0
41
1
10
55.1159220413998
20
-2.16609502660776
30
0
41
1
10
55.3534993755369
20
-2.28482472633044
30
0
41
1
10
55.6001365367544
20
-2.39610007677354
30
0
41
1
10
55.7850353583634
20
-2.47025495059421
30
0
41
1
10
55.8236047871668
20
-2.48531226622555
30
0
41
1
10
55.8286037916112
20
-2.48725913531214
30
0
41
1
10
55.8586403149357
20
-2.49892651377061
30
0
41
1
10
55.9382677449504
20
-2.52898736294185
30
0
41
1
10
56.0175272690531
20
-2.55649546666831
30
0
41
1
10
56.0690072019422
20
-2.57334533320662
30
0
0
SPLINE
5
1BA
100
AcDbEntity
8
1
62
256
6
ByLayer
370
18
48
1
60
0
100
AcDbSpline
70
4
71
3
72
8
73
4
40
0
40
0
40
0
40
0
40
1
40
1
40
1
40
1
41
1
10
56.1023413018398
20
-2.58311802785246
30
0
41
1
10
56.0913543914407
20
-2.57958872366336
30
0
41
1
10
56.0802422835733
20
-2.57633245606013
30
0
41
1
10
56.069007201942
20
-2.57334533320656
30
0
0
SPLINE
5
1BB
100
AcDbEntity
8
1
62
256
6
ByLayer
370
18
48
1
60
0
100
AcDbSpline
70
4
71
3
72
35
73
31
40
0
40
0
40
0
40
0
40
0.0624999999999932
40
0.0624999999999932
40
0.0937499999999941
40
0.0937499999999941
40
0.124999999999995
40
0.124999999999995
40
0.187499999999988
40
0.249999999999981
40
0.249999999999981
40
0.374999999999968
40
0.374999999999968
40
0.437499999999961
40
0.437499999999961
40
0.468749999999961
40
0.468749999999961
40
0.499999999999962
40
0.499999999999962
40
0.624999999999963
40
0.624999999999963
40
0.749999999999965
40
0.749999999999965
40
0.781249999999968
40
0.781249999999968
40
0.812499999999972
40
0.812499999999972
40
0.874999999999979
40
0.874999999999979
40
1
40
1
40
1
40
1
41
1
10
56.102341301848
20
-2.58311802785499
30
0
41
1
10
56.1795541212814
20
-2.60792095398958
30
0
41
1
10
56.2567585552094
20
-2.63060311987004
30
0
41
1
10
56.3727140080755
20
-2.66102985762589
30
0
41
1
10
56.4113927334918
20
-2.67056812121103
30
0
41
1
10
56.4887998533418
20
-2.68844042520902
30
0
41
1
10
56.5273975073618
20
-2.69674417885298
30
0
41
1
10
56.642738228566
20
-2.719785254215
30
0
41
1
10
56.7954382250223
20
-2.74554699020544
30
0
41
1
10
56.9459005946094
20
-2.76201413239423
30
0
41
1
10
57.169920197349
20
-2.77976011086298
30
0
41
1
10
57.3170551741156
20
-2.782368866235
30
0
41
1
10
57.5344421723206
20
-2.77208687873082
30
0
41
1
10
57.6063489751881
20
-2.76628325662671
30
0
41
1
10
57.7133595819218
20
-2.75389564806002
30
0
41
1
10
57.7488253833603
20
-2.74915858537454
30
0
41
1
10
57.8190071617944
20
-2.73853134597175
30
0
41
1
10
57.8537747323283
20
-2.73263543027264
30
0
41
1
10
58.026016127402
20
-2.70028678604515
30
0
41
1
10
58.1587093058585
20
-2.66526504302476
30
0
41
1
10
58.4140969961089
20
-2.57724941664228
30
0
41
1
10
58.5367886291472
20
-2.5241968226712
30
0
41
1
10
58.6837305261034
20
-2.44634982229184
30
0
41
1
10
58.712797818301
20
-2.43020453547359
30
0
41
1
10
58.7702826611693
20
-2.3967521000271
30
0
41
1
10
58.7987039472465
20
-2.37943916326088
30
0
41
1
10
58.882411430316
20
-2.32611610303996
30
0
41
1
10
58.9363425848932
20
-2.28861175027038
30
0
41
1
10
59.0926102242551
20
-2.17037228750215
30
0
41
1
10
59.1894235401013
20
-2.08396048274281
30
0
41
1
10
59.2789750349436
20
-1.98989574681642
30
0
0
SPLINE
5
1BC
100
AcDbEntity
8
1
62
256
6
ByLayer
370
18
48
1
60
0
100
AcDbSpline
70
4
71
3
72
9
73
5
40
0
40
0
40
0
40
0
40
0.46071277079296
40
1
40
1
40
1
40
1
41
1
10
59.2789750349435
20
-1.98989574681659
30
0
41
1
10
59.3460566491906
20
-1.91930868636581
30
0
41
1
10
59.4824866512068
20
-1.7570843411294
30
0
41
1
10
59.5978367386475
20
-1.57672332297574
30
0
41
1
10
59.6536492374657
20
-1.47459519753787
30
0
0
SPLINE
5
1BD
100
AcDbEntity
8
1
62
256
6
ByLayer
370
18
48
1
60
0
100
AcDbSpline
70
4
71
3
72
8
73
4
40
0
40
0
40
0
40
0
40
1
40
1
40
1
40
1
41
1
10
59.5951094827356
20
-1.19397191880486
30
0
41
1
10
59.5039452537477
20
-1.08346790732216
30
0
41
1
10
59.4127003328862
20
-0.972809275036383
30
0
41
1
10
59.3213545053076
20
-0.861957077156518
30
0
0
SPLINE
5
1BE
100
AcDbEntity
8
1
62
256
6
ByLayer
370
18
48
1
60
0
100
AcDbSpline
70
4
71
3
72
32
73
28
40
0
40
0
40
0
40
0
40
0.12499999999998
40
0.12499999999998
40
0.249999999999959
40
0.249999999999959
40
0.281249999999956
40
0.281249999999956
40
0.312499999999953
40
0.374999999999955
40
0.374999999999955
40
0.499999999999967
40
0.499999999999967
40
0.562499999999973
40
0.562499999999973
40
0.593749999999971
40
0.593749999999971
40
0.624999999999969
40
0.624999999999969
40
0.749999999999983
40
0.749999999999983
40
0.874999999999996
40
0.874999999999996
40
0.906249999999997
40
0.906249999999997
40
0.937499999999998
40
1
40
1
40
1
40
1
41
1
10
59.3213545053076
20
-0.86195707715649
30
0
41
1
10
59.2712155779908
20
-0.950948627951448
30
0
41
1
10
59.2158456135205
20
-1.03408849894041
30
0
41
1
10
59.0943284160672
20
-1.18831229050801
30
0
41
1
10
59.0282221313563
20
-1.25944201771534
30
0
41
1
10
58.9383529323601
20
-1.34025926904386
30
0
41
1
10
58.9199928486005
20
-1.35603361416935
30
0
41
1
10
58.8828309210297
20
-1.38651726589262
30
0
41
1
10
58.826330883867
20
-1.43073401164017
30
0
41
1
10
58.7675955774343
20
-1.47049663259128
30
0
41
1
10
58.6472127126051
20
-1.54421875544
30
0
41
1
10
58.5630529845621
20
-1.58558653860456
30
0
41
1
10
58.4307668081077
20
-1.63558944507477
30
0
41
1
10
58.3856637590203
20
-1.65024916599018
30
0
41
1
10
58.316472255861
20
-1.66917617409081
30
0
41
1
10
58.2931105689502
20
-1.67498470071359
30
0
41
1
10
58.246075376421
20
-1.68552158992387
30
0
41
1
10
58.2224440106234
20
-1.69024172612376
30
0
41
1
10
58.1037257386098
20
-1.71113655151117
30
0
41
1
10
58.0069580796546
20
-1.71921090989244
30
0
41
1
10
57.8099957698629
20
-1.71884335554492
30
0
41
1
10
57.7097886664635
20
-1.71034142811232
30
0
41
1
10
57.5823466345644
20
-1.6891923886896
30
0
41
1
10
57.5567099325308
20
-1.68442725570682
30
0
41
1
10
57.5055687230883
20
-1.67390357734473
30
0
41
1
10
57.4289579110316
20
-1.65661558845136
30
0
41
1
10
57.3526451136742
20
-1.63489443906028
30
0
41
1
10
57.3018993061994
20
-1.61848890191942
30
0
0
SPLINE
5
1BF
100
AcDbEntity
8
1
62
256
6
ByLayer
370
18
48
1
60
0
100
AcDbSpline
70
4
71
1
72
4
73
2
40
0
40
0
40
1
40
1
41
1
10
52.2637024349104
20
-0.0274527006395431
30
0
41
1
10
52.5592148374556
20
0.676600385091547
30
0
0
SPLINE
5
1C0
100
AcDbEntity
8
1
62
256
6
ByLayer
370
18
48
1
60
0
100
AcDbSpline
70
4
71
3
72
37
73
33
40
0
40
0
40
0
40
0
40
0.0421185245491845
40
0.095690681595995
40
0.128007801468705
40
0.149496735198643
40
0.192432160358513
40
0.239045253035328
40
0.278546724091125
40
0.328874734305635
40
0.336067928375742
40
0.343262249343709
40
0.35219945584412
40
0.374545126698677
40
0.426279835092828
40
0.438458339262092
40
0.439298319807762
40
0.439786181808703
40
0.440189768117931
40
0.450728334787598
40
0.476211033746368
40
0.502569783926006
40
0.55598708688061
40
0.582932066567446
40
0.641726233468944
40
0.66448212709362
40
0.719423962490363
40
0.774735481114883
40
0.858060350671959
40
0.940936947337692
40
0.995198921247695
40
1
40
1
40
1
40
1
41
1
10
52.2637024349104
20
-0.0274527006395431
30
0
41
1
10
52.3745758803146
20
-0.0690674435021208
30
0
41
1
10
52.6228920185
20
-0.187179381838064
30
0
41
1
10
52.9524161230781
20
-0.388306361784316
30
0
41
1
10
53.2293895108861
20
-0.574432976028106
30
0
41
1
10
53.4818213862133
20
-0.747573516161111
30
0
41
1
10
53.7762903564394
20
-0.947272857343137
30
0
41
1
10
54.1237795763523
20
-1.1771824763519
30
0
41
1
10
54.495584235139
20
-1.41319420323776
30
0
41
1
10
54.7625214365067
20
-1.57296609322475
30
0
41
1
10
54.9413221911887
20
-1.67445566936701
30
0
41
1
10
55.0057818696956
20
-1.71062582445143
30
0
41
1
10
55.1125795727022
20
-1.7687492423735
30
0
41
1
10
55.3432040713667
20
-1.89034433740665
30
0
41
1
10
55.5834105068882
20
-2.0052713372128
30
0
41
1
10
55.7633049249783
20
-2.08264197179241
30
0
41
1
10
55.8008494123951
20
-2.09839100005794
30
0
41
1
10
55.8056432703099
20
-2.1004358770019
30
0
41
1
10
55.8383952236439
20
-2.11230478826775
30
0
41
1
10
55.9424372548922
20
-2.14924500374329
30
0
41
1
10
56.1201331197318
20
-2.20730602782859
30
0
41
1
10
56.4184837648901
20
-2.29138567670879
30
0
41
1
10
56.7176506534336
20
-2.35392519870331
30
0
41
1
10
57.0999108840366
20
-2.40289988141677
30
0
41
1
10
57.3899389574458
20
-2.41311548119705
30
0
41
1
10
57.7410566383818
20
-2.39174624683562
30
0
41
1
10
58.0689533301752
20
-2.33949878205812
30
0
41
1
10
58.5115976636598
20
-2.20033833303924
30
0
41
1
10
58.9611236489373
20
-1.95346195565355
30
0
41
1
10
59.3299912565503
20
-1.60654796733098
30
0
41
1
10
59.5198317384525
20
-1.32940205623706
30
0
41
1
10
59.5895079524029
20
-1.2042135657951
30
0
41
1
10
59.5951094854585
20
-1.19397191822404
30
0
0
SPLINE
5
1C1
100
AcDbEntity
8
1
62
256
6
ByLayer
370
18
48
1
60
0
100
AcDbSpline
70
4
71
3
72
8
73
4
40
0
40
0
40
0
40
0
40
1
40
1
40
1
40
1
41
1
10
57.4219671865089
20
-1.35201325157701
30
0
41
1
10
57.3852228085104
20
-1.44363196212288
30
0
41
1
10
57.3454577957661
20
-1.53267670066367
30
0
41
1
10
57.3018993061835
20
-1.61848890190476
30
0
0
SPLINE
5
1C2
100
AcDbEntity
8
1
62
256
6
ByLayer
370
18
48
1
60
0
100
AcDbSpline
70
4
71
3
72
8
73
4
40
0
40
0
40
0
40
0
40
1
40
1
40
1
40
1
41
1
10
52.3388578260288
20
0.86301561239577
30
0
41
1
10
52.2698277935411
20
0.885146884561038
30
0
41
1
10
52.2008709631061
20
0.907286846073077
30
0
41
1
10
52.1320000000001
20
0.929475355161941
30
0
0
SPLINE
5
1C3
100
AcDbEntity
8
1
62
256
6
ByLayer
370
18
48
1
60
0
100
AcDbSpline
70
4
71
3
72
8
73
4
40
0
40
0
40
0
40
0
40
1
40
1
40
1
40
1
41
1
10
52.3388578260288
20
0.86301561239577
30
0
41
1
10
52.4134321350105
20
0.802410946446173
30
0
41
1
10
52.4868803319193
20
0.740266877617415
30
0
41
1
10
52.5592148374556
20
0.676600385091518
30
0
0
SPLINE
5
1C4
100
AcDbEntity
8
1
62
256
6
ByLayer
370
18
48
1
60
0
100
AcDbSpline
70
4
71
3
72
56
73
52
40
0
40
0
40
0
40
0
40
0.0312500000000809
40
0.0468750000001214
40
0.0468750000001214
40
0.0625000000001619
40
0.0625000000001619
40
0.125000000000337
40
0.125000000000337
40
0.187500000000511
40
0.187500000000511
40
0.203125000000552
40
0.203125000000552
40
0.218750000000592
40
0.218750000000592
40
0.250000000000672
40
0.250000000000672
40
0.281250000000753
40
0.281250000000753
40
0.296875000000796
40
0.300781250000804
40
0.300781250000804
40
0.302734375000804
40
0.302734375000804
40
0.304687500000805
40
0.304687500000805
40
0.3125000000008
40
0.3125000000008
40
0.375000000000732
40
0.375000000000732
40
0.437500000000664
40
0.437500000000664
40
0.45312500000065
40
0.45312500000065
40
0.468750000000637
40
0.468750000000637
40
0.500000000000603
40
0.500000000000603
40
0.625000000000455
40
0.625000000000455
40
0.687500000000381
40
0.687500000000381
40
0.718750000000344
40
0.718750000000344
40
0.750000000000307
40
0.750000000000307
40
0.875000000000154
40
0.875000000000154
40
0.937500000000077
40
0.937500000000077
40
1
40
1
40
1
40
1
41
1
10
57.3018993061998
20
-1.61848890190902
30
0
41
1
10
57.2506581764598
20
-1.62696963366298
30
0
41
1
10
57.1729352288234
20
-1.63680716367651
30
0
41
1
10
57.0938885175776
20
-1.64242665717543
30
0
41
1
10
57.0408921786968
20
-1.64524591156663
30
0
41
1
10
57.0142036995176
20
-1.64619218838632
30
0
41
1
10
56.8807982154403
20
-1.64862174794922
30
0
41
1
10
56.7738154761381
20
-1.64324239047062
30
0
41
1
10
56.5589464969113
20
-1.61949217838412
30
0
41
1
10
56.4510644376314
20
-1.60113751733994
30
0
41
1
10
56.3154037961933
20
-1.57081172947329
30
0
41
1
10
56.2882311149249
20
-1.56437594887438
30
0
41
1
10
56.2337984123053
20
-1.55077892141776
30
0
41
1
10
56.2065598765301
20
-1.54362195984189
30
0
41
1
10
56.1251629765319
20
-1.52121869642497
30
0
41
1
10
56.0711745608504
20
-1.50500342375813
30
0
41
1
10
55.9636662299692
20
-1.47021934616583
30
0
41
1
10
55.9101461521049
20
-1.451651554216
30
0
41
1
10
55.8301588011086
20
-1.42218438066345
30
0
41
1
10
55.7968918448279
20
-1.40956948432733
30
0
41
1
10
55.7636960581661
20
-1.39653972448139
30
0
41
1
10
55.7537414985729
20
-1.39260609650299
30
0
41
1
10
55.7504269400951
20
-1.39127255590012
30
0
41
1
10
55.7437639172071
20
-1.38881588592977
30
0
41
1
10
55.7404342612201
20
-1.38757649033991
30
0
41
1
10
55.7237902473854
20
-1.38135493178294
30
0
41
1
10
55.7104855773007
20
-1.37631843290072
30
0
41
1
10
55.590836496768
20
-1.33045197610164
30
0
41
1
10
55.4851524522453
20
-1.28578597863796
30
0
41
1
10
55.2746712425776
20
-1.18965677846006
30
0
41
1
10
55.169872448418
20
-1.13821381173045
30
0
41
1
10
55.0391951310601
20
-1.07003042558816
30
0
41
1
10
55.0130744747151
20
-1.05620907808248
30
0
41
1
10
54.9608449229431
20
-1.02830944881256
30
0
41
1
10
54.9347844024803
20
-1.0142256788684
30
0
41
1
10
54.8569450556197
20
-0.971563682029
30
0
41
1
10
54.8054346841632
20
-0.942577695290879
30
0
41
1
10
54.5496160509106
20
-0.795204996624733
30
0
41
1
10
54.3504484271899
20
-0.669578562828889
30
0
41
1
10
54.0574762000695
20
-0.473442611970597
30
0
41
1
10
53.9607920047243
20
-0.406766053270076
30
0
41
1
10
53.8170319045795
20
-0.305126075204129
30
0
41
1
10
53.7692249973687
20
-0.270901812146633
30
0
41
1
10
53.6746935327892
20
-0.202474663764207
30
0
41
1
10
53.627928340327
20
-0.168244984414287
30
0
41
1
10
53.3964469762967
20
0.0028381720532025
30
0
41
1
10
53.2186871300881
20
0.139462945725853
30
0
41
1
10
52.9630955030976
20
0.342589961982895
30
0
41
1
10
52.879731840773
20
0.409994352223151
30
0
41
1
10
52.7166430705017
20
0.543953238654268
30
0
41
1
10
52.636963444174
20
0.610525336819023
30
0
41
1
10
52.5592148374556
20
0.676600385091518
30
0
0
SPLINE
5
1C5
100
AcDbEntity
8
1
62
256
6
ByLayer
370
18
48
1
60
0
100
AcDbSpline
70
4
71
3
72
8
73
4
40
0
40
0
40
0
40
0
40
1
40
1
40
1
40
1
41
1
10
59.9881315070382
20
-0.0618926135766458
30
0
41
1
10
59.987939242452
20
-0.0608465641570604
30
0
41
1
10
59.9877469082461
20
-0.0598005248121751
30
0
41
1
10
59.987554504073
20
-0.0587544955922112
30
0
0
SPLINE
5
1C6
100
AcDbEntity
8
1
62
256
6
ByLayer
370
18
48
1
60
0
100
AcDbSpline
70
4
71
3
72
8
73
4
40
0
40
0
40
0
40
0
40
1
40
1
40
1
40
1
41
1
10
59.9877429662508
20
0.0610050835317679
30
0
41
1
10
59.9876801529794
20
0.0606700546406387
30
0
41
1
10
59.9876173322575
20
0.0603350267961673
30
0
41
1
10
59.9875545040731
20
0.0600000000000307
30
0
0
SPLINE
5
1C7
100
AcDbEntity
8
1
62
256
6
ByLayer
370
18
48
1
60
0
100
AcDbSpline
70
4
71
3
72
8
73
4
40
0
40
0
40
0
40
0
40
1
40
1
40
1
40
1
41
1
10
59.9995128943352
20
0.0600000000000307
30
0
41
1
10
59.9995195394143
20
0.0595112446327732
30
0
41
1
10
59.9995261575709
20
0.0590224888503315
30
0
41
1
10
59.9995327488035
20
0.0585337326526201
30
0
0
SPLINE
5
1C8
100
AcDbEntity
8
1
62
256
6
ByLayer
370
18
48
1
60
0
100
AcDbSpline
70
4
71
3
72
8
73
4
40
0
40
0
40
0
40
0
40
1
40
1
40
1
40
1
41
1
10
59.9873599801353
20
0.0010483664487992
30
0
41
1
10
59.9913797668134
20
-0.0188807558409394
30
0
41
1
10
59.9953666393236
20
-0.0388150614209337
30
0
41
1
10
59.9993209450074
20
-0.0587544955922112
30
0
0
SPLINE
5
1C9
100
AcDbEntity
8
1
62
256
6
ByLayer
370
18
48
1
60
0
100
AcDbSpline
70
4
71
3
72
8
73
4
40
0
40
0
40
0
40
0
40
1
40
1
40
1
40
1
41
1
10
56.0690072019408
20
-4.87284876215631
30
0
41
1
10
56.0617814122123
20
-4.87464262753036
30
0
41
1
10
56.0545132280177
20
-4.87641703722571
30
0
41
1
10
56.0472020565007
20
-4.87817243042687
30
0
0
SPLINE
5
1CA
100
AcDbEntity
8
1
62
256
6
ByLayer
370
18
48
1
60
0
100
AcDbSpline
70
4
71
3
72
16
73
12
40
0
40
0
40
0
40
0
40
0.281670404282436
40
0.281670404282436
40
0.563340808564872
40
0.563340808564872
40
0.845011212847309
40
0.845011212847309
40
0.985846414988527
40
0.985846414988527
40
1
40
1
40
1
40
1
41
1
10
53.172135320774
20
-4.47891358358086
30
0
41
1
10
53.287615710051
20
-4.54102179283649
30
0
41
1
10
53.4034503457855
20
-4.59744203822603
30
0
41
1
10
53.6362570615335
20
-4.69919715914034
30
0
41
1
10
53.7532253431585
20
-4.74454446622988
30
0
41
1
10
53.9887523671454
20
-4.82419875193065
30
0
41
1
10
54.1073090309494
20
-4.85851112654737
30
0
41
1
10
54.2867099942589
20
-4.9015786666728
30
0
41
1
10
54.3467718349048
20
-4.91453227747255
30
0
41
1
10
54.4131971172281
20
-4.92721594741292
30
0
41
1
10
54.419266086307
20
-4.92835978322583
30
0
41
1
10
54.4253381020642
20
-4.92948915141278
30
0
0
SPLINE
5
1CB
100
AcDbEntity
8
1
62
256
6
ByLayer
370
18
48
1
60
0
100
AcDbSpline
70
4
71
3
72
8
73
4
40
0
40
0
40
0
40
0
40
1
40
1
40
1
40
1
41
1
10
55.0240573845754
20
-4.99245592604632
30
0
41
1
10
55.1138095851492
20
-4.99467903359326
30
0
41
1
10
55.2035436259145
20
-4.99367197990549
30
0
41
1
10
55.2933674279857
20
-4.98943690173422
30
0
0
SPLINE
5
1CC
100
AcDbEntity
8
1
62
256
6
ByLayer
370
18
48
1
60
0
100
AcDbSpline
70
4
71
3
72
12
73
8
40
0
40
0
40
0
40
0
40
0.0798249542327688
40
0.0798249542327688
40
0.539912477116384
40
0.539912477116384
40
1
40
1
40
1
40
1
41
1
10
55.6487481297811
20
-4.95585383372861
30
0
41
1
10
55.6593088070684
20
-4.9543558914508
30
0
41
1
10
55.6698727313439
20
-4.95281298572959
30
0
41
1
10
55.7413471866496
20
-4.94207261846381
30
0
41
1
10
55.802368552635
20
-4.9314193932243
30
0
41
1
10
55.9247137913635
20
-4.90706526471922
30
0
41
1
10
55.9861096820564
20
-4.89333583140535
30
0
41
1
10
56.0472020565008
20
-4.87817243042687
30
0
0
SPLINE
5
1CD
100
AcDbEntity
8
1
62
256
6
ByLayer
370
18
48
1
60
0
100
AcDbSpline
70
4
71
3
72
26
73
22
40
0
40
0
40
0
40
0
40
0.0896079500881942
40
0.20358371790437
40
0.27233899590993
40
0.318057105024624
40
0.409403026470327
40
0.508573254455586
40
0.59261337420261
40
0.699687158853852
40
0.714990814005731
40
0.73029686665375
40
0.749310940925747
40
0.796851774325946
40
0.906918335708647
40
0.93282833149882
40
0.934615405847156
40
0.935653341394467
40
0.936511978828741
40
0.958932976863438
40
1
40
1
40
1
40
1
41
1
10
52.1352043049459
20
-3.79263074925009
30
0
41
1
10
52.2508838316696
20
-3.88094228373501
30
0
41
1
10
52.511334969728
20
-4.07353010648771
30
0
41
1
10
52.8574243327088
20
-4.30168540879427
30
0
41
1
10
53.1478108839062
20
-4.46786380418681
30
0
41
1
10
53.412824470545
20
-4.60335142366208
30
0
41
1
10
53.7221752633971
20
-4.73744424217685
30
0
41
1
10
54.0858956565811
20
-4.85670564758667
30
0
41
1
10
54.4744718397364
20
-4.94495406413046
30
0
41
1
10
54.7526964589002
20
-4.97908522301356
30
0
41
1
10
54.9388758431677
20
-4.98951074551721
30
0
41
1
10
55.0060992925234
20
-4.99215090092594
30
0
41
1
10
55.115922041402
20
-4.99442849780169
30
0
41
1
10
55.3534993755297
20
-4.99084511617056
30
0
41
1
10
55.60013653675
20
-4.96619207820552
30
0
41
1
10
55.7850353583579
20
-4.93423682361095
30
0
41
1
10
55.823604787161
20
-4.92699564466096
30
0
41
1
10
55.8286037916053
20
-4.92605018242386
30
0
41
1
10
55.8586403149293
20
-4.92033390849232
30
0
41
1
10
55.9382677449448
20
-4.90429218493344
30
0
41
1
10
56.0175272690502
20
-4.88585949997403
30
0
41
1
10
56.0690072019407
20
-4.87284876215634
30
0
0
SPLINE
5
1CE
100
AcDbEntity
8
1
62
256
6
ByLayer
370
18
48
1
60
0
100
AcDbSpline
70
4
71
3
72
8
73
4
40
0
40
0
40
0
40
0
40
1
40
1
40
1
40
1
41
1
10
56.1023413018399
20
-4.86412838562981
30
0
41
1
10
56.0913543914421
20
-4.86699506358704
30
0
41
1
10
56.0802422835706
20
-4.8699017600606
30
0
41
1
10
56.0690072019406
20
-4.87284876215634
30
0
0
SPLINE
5
1CF
100
AcDbEntity
8
1
62
256
6
ByLayer
370
18
48
1
60
0
100
AcDbSpline
70
4
71
3
72
16
73
12
40
0
40
0
40
0
40
0
40
0.0487512539622223
40
0.0487512539622223
40
0.365834169308148
40
0.365834169308148
40
0.682917084654074
40
0.682917084654074
40
0.841458542327037
40
0.841458542327037
40
1
40
1
40
1
40
1
41
1
10
54.8969650405598
20
4.97266608900065
30
0
41
1
10
54.9155867202081
20
4.97413490114039
30
0
41
1
10
54.9342054362388
20
4.97546396748737
30
0
41
1
10
55.0739072144662
20
4.9843916496593
30
0
41
1
10
55.1949072778467
20
4.9862484138377
30
0
41
1
10
55.4372671320711
20
4.97817731241193
30
0
41
1
10
55.5586258763361
20
4.96824832865602
30
0
41
1
10
55.7413471866492
20
4.94432307374032
30
0
41
1
10
55.8023685526346
20
4.93483795735008
30
0
41
1
10
55.9247137913632
20
4.91279694664976
30
0
41
1
10
55.9861096820561
20
4.90021375918116
30
0
41
1
10
56.0472020565004
20
4.8861735409458
30
0
0
SPLINE
5
1D0
100
AcDbEntity
8
1
62
256
6
ByLayer
370
18
48
1
60
0
100
AcDbSpline
70
4
71
3
72
8
73
4
40
0
40
0
40
0
40
0
40
1
40
1
40
1
40
1
41
1
10
56.0690072019385
20
4.881172233386
30
0
41
1
10
56.0617814122109
20
4.88285416389428
30
0
41
1
10
56.0545132280165
20
4.88452109324393
30
0
41
1
10
56.0472020565002
20
4.88617354094583
30
0
0
SPLINE
5
1D1
100
AcDbEntity
8
1
62
256
6
ByLayer
370
18
48
1
60
0
100
AcDbSpline
70
4
71
3
72
13
73
9
40
0
40
0
40
0
40
0
40
0.115435974337253
40
0.138969432935243
40
0.152637702110929
40
0.163944846958518
40
0.459200402201491
40
1
40
1
40
1
40
1
41
1
10
55.7821167237604
20
4.93759672208307
30
0
41
1
10
55.7938825802235
20
4.93573509656167
30
0
41
1
10
55.8080469005307
20
4.93342660283164
30
0
41
1
10
55.8236047871468
20
4.93080175433371
30
0
41
1
10
55.8286037915912
20
4.92995136460459
30
0
41
1
10
55.8586403149156
20
4.92480581254645
30
0
41
1
10
55.9382677449349
20
4.9102597265497
30
0
41
1
10
56.0175272690433
20
4.89326760314265
30
0
41
1
10
56.0690072019375
20
4.88117223338625
30
0
0
SPLINE
5
1D2
100
AcDbEntity
8
1
62
256
6
ByLayer
370
18
48
1
60
0
100
AcDbSpline
70
4
71
3
72
41
73
37
40
0
40
0
40
0
40
0
40
0.062499999999977
40
0.062499999999977
40
0.0937499999999662
40
0.0937499999999662
40
0.124999999999955
40
0.156249999999945
40
0.156249999999945
40
0.187499999999934
40
0.187499999999934
40
0.218749999999923
40
0.218749999999923
40
0.249999999999913
40
0.249999999999913
40
0.281249999999902
40
0.281249999999902
40
0.312499999999891
40
0.312499999999891
40
0.374999999999871
40
0.374999999999871
40
0.406249999999871
40
0.406249999999871
40
0.437499999999871
40
0.437499999999871
40
0.499999999999891
40
0.499999999999891
40
0.562499999999912
40
0.562499999999912
40
0.624999999999933
40
0.624999999999933
40
0.749999999999955
40
0.749999999999955
40
0.874999999999978
40
0.874999999999978
40
1
40
1
40
1
40
1
41
1
10
59.5844421860137
20
-0.568671600502171
30
0
41
1
10
59.5831263603626
20
-0.558081033266035
30
0
41
1
10
59.5822740758841
20
-0.546727962801327
30
0
41
1
10
59.5819509097185
20
-0.528185597203333
30
0
41
1
10
59.5820055896215
20
-0.521710921843436
30
0
41
1
10
59.582499591046
20
-0.508345826386204
30
0
41
1
10
59.5833720731863
20
-0.494632993690203
30
0
41
1
10
59.5850936370945
20
-0.480146152326455
30
0
41
1
10
59.5873055573297
20
-0.465213146260226
30
0
41
1
10
59.5886757342971
20
-0.457441747152217
30
0
41
1
10
59.5918703232612
20
-0.441954651199893
30
0
41
1
10
59.5936943583778
20
-0.434209436084217
30
0
41
1
10
59.5978008562947
20
-0.418714416073101
30
0
41
1
10
59.6001063428398
20
-0.410902022451211
30
0
41
1
10
59.6050092931189
20
-0.395794520842401
30
0
41
1
10
59.6076157114001
20
-0.388450980006979
30
0
41
1
10
59.6131020047186
20
-0.374143534823872
30
0
41
1
10
59.6159996544573
20
-0.367144945556191
30
0
41
1
10
59.624803760018
20
-0.347230407103524
30
0
41
1
10
59.6308835158924
20
-0.335187927382037
30
0
41
1
10
59.6401905579554
20
-0.318470927292452
30
0
41
1
10
59.6433145889199
20
-0.31314779402544
30
0
41
1
10
59.6494988501603
20
-0.303076451087492
30
0
41
1
10
59.6525739533132
20
-0.298301618335188
30
0
41
1
10
59.6617468106202
20
-0.284637373297158
30
0
41
1
10
59.6677920997397
20
-0.276402097748644
30
0
41
1
10
59.6797356084333
20
-0.261265483102505
30
0
41
1
10
59.6856325593461
20
-0.25437495700325
30
0
41
1
10
59.6970687604416
20
-0.241886218093043
30
0
41
1
10
59.7026398503718
20
-0.236248634095062
30
0
41
1
10
59.71896070888
20
-0.220786500006568
30
0
41
1
10
59.7293206204126
20
-0.212393913521339
30
0
41
1
10
59.7491394318877
20
-0.198347409593055
30
0
41
1
10
59.7585956237674
20
-0.192714690057727
30
0
41
1
10
59.7764922359261
20
-0.18370917770838
30
0
41
1
10
59.7849632453815
20
-0.180318621445963
30
0
41
1
10
59.7930011000583
20
-0.177835412851465
30
0
0
SPLINE
5
1D3
100
AcDbEntity
8
1
62
256
6
ByLayer
370
18
48
1
60
0
100
AcDbSpline
70
4
71
3
72
8
73
4
40
0
40
0
40
0
40
0
40
1
40
1
40
1
40
1
41
1
10
59.9995327488026
20
0.0585337327066497
30
0
41
1
10
59.9956686923045
20
0.038657502251823
30
0
41
1
10
59.991762157991
20
0.0187876744948881
30
0
41
1
10
59.9878125897651
20
-0.0010756666348755
30
0
0
LINE
5
7F
100
AcDbEntity
8
80
62
256
6
ByLayer
370
18
48
1
60
0
100
AcDbLine
10
0
20
0
30
0
11
-3
21
0
31
0
39
0
210
0
220
0
230
1
0
LINE
5
80
100
AcDbEntity
8
81
62
256
6
ByLayer
370
18
48
1
60
0
100
AcDbLine
10
60
20
0
30
0
11
63
21
0
31
0
39
0
210
0
220
0
230
1
0
LINE
5
81
100
AcDbEntity
8
SK4
62
256
6
ByLayer
370
18
48
0.05
60
0
100
AcDbLine
10
-43
20
0
30
0
11
63
21
0
31
0
39
0
210
0
220
0
230
1
0
LINE
5
83
100
AcDbEntity
8
4
62
256
6
ByLayer
370
18
48
0.05
60
0
100
AcDbLine
10
0
20
0
30
0
11
63
21
0
31
0
39
0
210
0
220
0
230
1
0
LINE
5
85
100
AcDbEntity
8
81
62
256
6
ByLayer
370
13
48
1
60
0
100
AcDbLine
10
-40
20
-4.9843
30
0
11
-40
21
-4.076496
31
0
39
0
210
0
220
0
230
1
0
LINE
5
86
100
AcDbEntity
8
81
62
256
6
ByLayer
370
18
48
1
60
0
100
AcDbLine
10
-40
20
4.075852
30
0
11
-40
21
4.076496
31
0
39
0
210
0
220
0
230
1
0
LINE
5
87
100
AcDbEntity
8
81
62
256
6
ByLayer
370
13
48
1
60
0
100
AcDbLine
10
-40
20
-4.095678
30
0
11
-40
21
-3.998406
31
0
39
0
210
0
220
0
230
1
0
LINE
5
88
100
AcDbEntity
8
81
62
256
6
ByLayer
370
18
48
1
60
0
100
AcDbLine
10
-40
20
0
30
0
11
-40
21
-4.9843
31
0
39
0
210
0
220
0
230
1
0
LINE
5
89
100
AcDbEntity
8
81
62
256
6
ByLayer
370
18
48
1
60
0
100
AcDbLine
10
-44.9843
20
0
30
0
11
-47.8523
21
0
31
0
39
0
210
0
220
0
230
1
0
LINE
5
8A
100
AcDbEntity
8
81
62
256
6
ByLayer
370
18
48
1
60
0
100
AcDbLine
10
51.919192
20
0
30
0
11
52.131235
21
0
31
0
39
0
210
0
220
0
230
1
0
LINE
5
8B
100
AcDbEntity
8
81
62
256
6
ByLayer
370
13
48
1
60
0
100
AcDbLine
10
-40
20
-3.998406
30
0
11
-40
21
-4.075852
31
0
39
0
210
0
220
0
230
1
0
LINE
5
8C
100
AcDbEntity
8
81
62
256
6
ByLayer
370
18
48
1
60
0
100
AcDbLine
10
-40
20
4.095678
30
0
11
-40
21
3.998406
31
0
39
0
210
0
220
0
230
1
0
LINE
5
8D
100
AcDbEntity
8
81
62
256
6
ByLayer
370
18
48
1
60
0
100
AcDbLine
10
-40
20
0
30
0
11
-40
21
4.9843
31
0
39
0
210
0
220
0
230
1
0
LINE
5
8E
100
AcDbEntity
8
81
62
256
6
ByLayer
370
18
48
1
60
0
100
AcDbLine
10
-47.853065
20
0
30
0
11
-47.8523
21
0
31
0
39
0
210
0
220
0
230
1
0
LINE
5
8F
100
AcDbEntity
8
81
62
256
6
ByLayer
370
18
48
1
60
0
100
AcDbLine
10
-49.642526
20
0
30
0
11
-48.365108
21
0
31
0
39
0
210
0
220
0
230
1
0
LINE
5
90
100
AcDbEntity
8
81
62
256
6
ByLayer
370
18
48
1
60
0
100
AcDbLine
10
55
20
0
30
0
11
52.132
21
0
31
0
39
0
210
0
220
0
230
1
0
LINE
5
91
100
AcDbEntity
8
81
62
256
6
ByLayer
370
18
48
1
60
0
100
AcDbLine
10
-48.065108
20
0
30
0
11
-47.853065
21
0
31
0
39
0
210
0
220
0
230
1
0
LINE
5
92
100
AcDbEntity
8
81
62
256
6
ByLayer
370
18
48
1
60
0
100
AcDbLine
10
-48.065108
20
0
30
0
11
-48.365108
21
0
31
0
39
0
210
0
220
0
230
1
0
LINE
5
93
100
AcDbEntity
8
81
62
256
6
ByLayer
370
18
48
1
60
0
100
AcDbLine
10
-40
20
4.9843
30
0
11
-40
21
4.076496
31
0
39
0
210
0
220
0
230
1
0
LINE
5
94
100
AcDbEntity
8
81
62
256
6
ByLayer
370
18
48
1
60
0
100
AcDbLine
10
-40
20
-8.065108
30
0
11
-40
21
-8.365108
31
0
39
0
210
0
220
0
230
1
0
LINE
5
95
100
AcDbEntity
8
81
62
256
6
ByLayer
370
18
48
1
60
0
100
AcDbLine
10
-48.065108
20
0
30
0
11
-47.853065
21
0
31
0
39
0
210
0
220
0
230
1
0
LINE
5
96
100
AcDbEntity
8
81
62
256
6
ByLayer
370
13
48
1
60
0
100
AcDbLine
10
-40
20
-4.075852
30
0
11
-40
21
-4.076496
31
0
39
0
210
0
220
0
230
1
0
LINE
5
97
100
AcDbEntity
8
81
62
256
6
ByLayer
370
18
48
1
60
0
100
AcDbLine
10
-40
20
-8.065108
30
0
11
-40
21
-7.853065
31
0
39
0
210
0
220
0
230
1
0
LINE
5
98
100
AcDbEntity
8
81
62
256
6
ByLayer
370
18
48
1
60
0
100
AcDbLine
10
-40
20
0
30
0
11
-44.9843
21
0
31
0
39
0
210
0
220
0
230
1
0
LINE
5
99
100
AcDbEntity
8
81
62
256
6
ByLayer
370
18
48
1
60
0
100
AcDbLine
10
-40
20
0
30
0
11
-44.9843
21
0
31
0
39
0
210
0
220
0
230
1
0
LINE
5
9A
100
AcDbEntity
8
81
62
256
6
ByLayer
370
18
48
1
60
0
100
AcDbLine
10
-40
20
3.998406
30
0
11
-40
21
4.075852
31
0
39
0
210
0
220
0
230
1
0
LINE
5
9B
100
AcDbEntity
8
81
62
256
6
ByLayer
370
13
48
1
60
0
100
AcDbLine
10
-40
20
0
30
0
11
-40
21
-4.9843
31
0
39
0
210
0
220
0
230
1
0
LINE
5
9C
100
AcDbEntity
8
81
62
256
6
ByLayer
370
18
48
1
60
0
100
AcDbLine
10
-44.9843
20
0
30
0
11
-47.8523
21
0
31
0
39
0
210
0
220
0
230
1
0
LINE
5
9D
100
AcDbEntity
8
81
62
256
6
ByLayer
370
18
48
1
60
0
100
AcDbLine
10
-40
20
-4.9843
30
0
11
-40
21
-7.8523
31
0
39
0
210
0
220
0
230
1
0
LINE
5
9E
100
AcDbEntity
8
81
62
256
6
ByLayer
370
18
48
1
60
0
100
AcDbLine
10
-49.642526
20
0
30
0
11
-48.365108
21
0
31
0
39
0
210
0
220
0
230
1
0
LINE
5
9F
100
AcDbEntity
8
81
62
256
6
ByLayer
370
18
48
1
60
0
100
AcDbLine
10
-47.853065
20
0
30
0
11
-47.8523
21
0
31
0
39
0
210
0
220
0
230
1
0
LINE
5
A0
100
AcDbEntity
8
81
62
256
6
ByLayer
370
18
48
1
60
0
100
AcDbLine
10
51.919192
20
0
30
0
11
51.619192
21
0
31
0
39
0
210
0
220
0
230
1
0
LINE
5
A1
100
AcDbEntity
8
81
62
256
6
ByLayer
370
18
48
1
60
0
100
AcDbLine
10
59.9843
20
0
30
0
11
55
21
0
31
0
39
0
210
0
220
0
230
1
0
LINE
5
A2
100
AcDbEntity
8
81
62
256
6
ByLayer
370
18
48
1
60
0
100
AcDbLine
10
-40
20
-7.853065
30
0
11
-40
21
-7.8523
31
0
39
0
210
0
220
0
230
1
0
LINE
5
A3
100
AcDbEntity
8
81
62
256
6
ByLayer
370
18
48
1
60
0
100
AcDbLine
10
-40
20
-9.642526
30
0
11
-40
21
-8.365108
31
0
39
0
210
0
220
0
230
1
0
LINE
5
A4
100
AcDbEntity
8
81
62
256
6
ByLayer
370
18
48
1
60
0
100
AcDbLine
10
-48.065108
20
0
30
0
11
-48.365108
21
0
31
0
39
0
210
0
220
0
230
1
0
LINE
5
A5
100
AcDbEntity
8
81
62
256
6
ByLayer
370
18
48
1
60
0
100
AcDbLine
10
52.131235
20
0
30
0
11
52.132
21
0
31
0
39
0
210
0
220
0
230
1
0
LINE
5
A6
100
AcDbEntity
8
81
62
256
6
ByLayer
370
18
48
1
60
0
100
AcDbLine
10
50.341774
20
0
30
0
11
51.619192
21
0
31
0
39
0
210
0
220
0
230
1
0
LINE
5
A7
100
AcDbEntity
8
1
62
256
6
ByLayer
370
18
48
1
60
0
100
AcDbLine
10
59.974933
20
-0.067846
30
0
11
59.976157
21
-0.061562
31
0
39
0
210
0
220
0
230
1
0
LINE
5
A8
100
AcDbEntity
8
1
62
256
6
ByLayer
370
18
48
1
60
0
100
AcDbLine
10
24.963281
20
4.096653
30
0
11
0
21
4.999325
31
0
39
0
210
0
220
0
230
1
0
LINE
5
A9
100
AcDbEntity
8
1
62
256
6
ByLayer
370
18
48
1
60
0
100
AcDbLine
10
0
20
-4.999325
30
0
11
24.963281
21
-4.096653
31
0
39
0
210
0
220
0
230
1
0
LINE
5
AA
100
AcDbEntity
8
1
62
256
6
ByLayer
370
18
48
1
60
0
100
AcDbLine
10
49.212043
20
4.096
30
0
11
24.999417
21
4.096
31
0
39
0
210
0
220
0
230
1
0
LINE
5
AB
100
AcDbEntity
8
1
62
256
6
ByLayer
370
18
48
1
60
0
100
AcDbLine
10
24.999417
20
-4.096
30
0
11
49.460782
21
-4.096
31
0
39
0
210
0
220
0
230
1
0
LINE
5
AC
100
AcDbEntity
8
SK1
62
256
6
ByLayer
370
18
48
1
60
0
100
AcDbLine
10
0
20
4.999325
30
0
11
-0.018657
21
5
31
0
39
0
210
0
220
0
230
1
0
LINE
5
AE
100
AcDbEntity
8
SK1
62
256
6
ByLayer
370
18
48
1
60
0
100
AcDbLine
10
-0.018657
20
-5
30
0
11
0
21
-4.999325
31
0
39
0
210
0
220
0
230
1
0
LINE
5
AF
100
AcDbEntity
8
SK1
62
256
6
ByLayer
370
18
48
1
60
0
100
AcDbLine
10
-40
20
-4.4
30
0
11
-39.4
21
-5
31
0
39
0
210
0
220
0
230
1
0
LINE
5
B0
100
AcDbEntity
8
SK1
62
256
6
ByLayer
370
18
48
1
60
0
100
AcDbLine
10
-39.4
20
5
30
0
11
-40
21
4.4
31
0
39
0
210
0
220
0
230
1
0
LINE
5
B1
100
AcDbEntity
8
SK1
62
256
6
ByLayer
370
18
48
1
60
0
100
AcDbLine
10
-0.018657
20
5
30
0
11
-39.4
21
5
31
0
39
0
210
0
220
0
230
1
0
LINE
5
B2
100
AcDbEntity
8
SK1
62
256
6
ByLayer
370
18
48
1
60
0
100
AcDbLine
10
-39.4
20
-5
30
0
11
-0.018657
21
-5
31
0
39
0
210
0
220
0
230
1
0
LINE
5
B3
100
AcDbEntity
8
1
62
256
6
ByLayer
370
18
48
1
60
0
100
AcDbLine
10
0
20
-4.999325
30
0
11
0
21
4.999325
31
0
39
0
210
0
220
0
230
1
0
LINE
5
B4
100
AcDbEntity
8
1
62
256
6
ByLayer
370
18
48
1
60
0
100
AcDbLine
10
59.983928
20
0.060897
30
0
11
59.987743
21
0.061005
31
0
39
0
210
0
220
0
230
1
0
LINE
5
B5
100
AcDbEntity
8
1
62
256
6
ByLayer
370
18
48
1
60
0
100
AcDbLine
10
59.999513
20
0.06
30
0
11
59.987555
21
0.06
31
0
39
0
210
0
220
0
230
1
0
LINE
5
B6
100
AcDbEntity
8
1
62
256
6
ByLayer
370
18
48
1
60
0
100
AcDbLine
10
59.816917
20
1.19673
30
0
11
59.686592
21
1.002309
31
0
39
0
210
0
220
0
230
1
0
LINE
5
B7
100
AcDbEntity
8
1
62
256
6
ByLayer
370
18
48
1
60
0
100
AcDbLine
10
59.975748
20
-0.061551
30
0
11
59.974983
21
-0.067519
31
0
39
0
210
0
220
0
230
1
0
LINE
5
B8
100
AcDbEntity
8
1
62
256
6
ByLayer
370
18
48
1
60
0
100
AcDbLine
10
59.978361
20
-0.056937
30
0
11
59.998156
21
-0.056592
31
0
39
0
210
0
220
0
230
1
0
LINE
5
B9
100
AcDbEntity
8
1
62
256
6
ByLayer
370
18
48
1
60
0
100
AcDbLine
10
59.35257
20
-1.901462
30
0
11
59.397405
21
-1.901482
31
0
39
0
210
0
220
0
230
1
0
LINE
5
BA
100
AcDbEntity
8
1
62
256
6
ByLayer
370
18
48
1
60
0
100
AcDbLine
10
48.834444
20
-4.032602
30
0
11
52.053477
21
-3.73562
31
0
39
0
210
0
220
0
230
1
0
LINE
5
BB
100
AcDbEntity
8
1
62
256
6
ByLayer
370
18
48
1
60
0
100
AcDbLine
10
52.135204
20
-3.792631
30
0
11
51.878048
21
-3.585935
31
0
39
0
210
0
220
0
230
1
0
LINE
5
BC
100
AcDbEntity
8
1
62
256
6
ByLayer
370
18
48
1
60
0
100
AcDbLine
10
59.698521
20
-1.274996
30
0
11
59.574907
21
-1.044005
31
0
39
0
210
0
220
0
230
1
0
LINE
5
BD
100
AcDbEntity
8
1
62
256
6
ByLayer
370
18
48
1
60
0
100
AcDbLine
10
59.587749
20
-0.947036
30
0
11
59.75345
21
-1.176563
31
0
39
0
210
0
220
0
230
1
0
LINE
5
BE
100
AcDbEntity
8
1
62
256
6
ByLayer
370
18
48
1
60
0
100
AcDbLine
10
59.511369
20
-0.644003
30
0
11
59.624828
21
-0.72835
31
0
39
0
210
0
220
0
230
1
0
LINE
5
BF
100
AcDbEntity
8
1
62
256
6
ByLayer
370
18
48
1
60
0
100
AcDbLine
10
51.863551
20
-3.603308
30
0
11
51.878048
21
-3.585935
31
0
39
0
210
0
220
0
230
1
0
LINE
5
C0
100
AcDbEntity
8
1
62
256
6
ByLayer
370
18
48
1
60
0
100
AcDbLine
10
52.006546
20
3.363754
30
0
11
52.338858
21
3.749307
31
0
39
0
210
0
220
0
230
1
0
LINE
5
C1
100
AcDbEntity
8
1
62
256
6
ByLayer
370
18
48
1
60
0
100
AcDbLine
10
51.878048
20
-3.585935
30
0
11
52.006546
21
-3.429382
31
0
39
0
210
0
220
0
230
1
0
LINE
5
C2
100
AcDbEntity
8
1
62
256
6
ByLayer
370
18
48
1
60
0
100
AcDbLine
10
52.263702
20
3.465431
30
0
11
52.006546
21
3.363754
31
0
39
0
210
0
220
0
230
1
0
LINE
5
C3
100
AcDbEntity
8
1
62
256
6
ByLayer
370
18
48
1
60
0
100
AcDbLine
10
51.878048
20
3.134368
30
0
11
52.006546
21
3.363754
31
0
39
0
210
0
220
0
230
1
0
LINE
5
C4
100
AcDbEntity
8
1
62
256
6
ByLayer
370
18
48
1
60
0
100
AcDbLine
10
52.135204
20
3.236045
30
0
11
51.878048
21
3.134368
31
0
39
0
210
0
220
0
230
1
0
LINE
5
C5
100
AcDbEntity
8
1
62
256
6
ByLayer
370
18
48
1
60
0
100
AcDbLine
10
51.863551
20
3.081613
30
0
11
51.878048
21
3.134368
31
0
39
0
210
0
220
0
230
1
0
LINE
5
C6
100
AcDbEntity
8
1
62
256
6
ByLayer
370
18
48
1
60
0
100
AcDbLine
10
52.263702
20
-3.636078
30
0
11
52.006546
21
-3.429382
31
0
39
0
210
0
220
0
230
1
0
LINE
5
C7
100
AcDbEntity
8
1
62
256
6
ByLayer
370
18
48
1
60
0
100
AcDbLine
10
52.006546
20
-3.429382
30
0
11
52.338858
21
-3.022291
31
0
39
0
210
0
220
0
230
1
0
LINE
5
C8
100
AcDbEntity
8
1
62
256
6
ByLayer
370
18
48
1
60
0
100
AcDbLine
10
52.132
20
1.598938
30
0
11
52.132
21
1.734653
31
0
39
0
210
0
220
0
230
1
0
LINE
5
C9
100
AcDbEntity
8
1
62
256
6
ByLayer
370
18
48
1
60
0
100
AcDbLine
10
59.095515
20
1.387501
30
0
11
59.397405
21
1.126463
31
0
39
0
210
0
220
0
230
1
0
LINE
5
CA
100
AcDbEntity
8
1
62
256
6
ByLayer
370
18
48
1
60
0
100
AcDbLine
10
59.095515
20
1.387501
30
0
11
59.08172
21
1.414514
31
0
39
0
210
0
220
0
230
1
0
LINE
5
CB
100
AcDbEntity
8
1
62
256
6
ByLayer
370
18
48
1
60
0
100
AcDbLine
10
57.740735
20
2.467238
30
0
11
57.226389
21
2.842885
31
0
39
0
210
0
220
0
230
1
0
LINE
5
CC
100
AcDbEntity
8
1
62
256
6
ByLayer
370
18
48
1
60
0
100
AcDbLine
10
48.834444
20
2.637995
30
0
11
52.132
21
1.262693
31
0
39
0
210
0
220
0
230
1
0
LINE
5
CD
100
AcDbEntity
8
1
62
256
6
ByLayer
370
18
48
1
60
0
100
AcDbLine
10
52.132
20
-2.867697
30
0
11
52.132
21
-3.020733
31
0
39
0
210
0
220
0
230
1
0
LINE
5
CE
100
AcDbEntity
8
1
62
256
6
ByLayer
370
18
48
1
60
0
100
AcDbLine
10
52.132
20
1.262693
30
0
11
52.132
21
1.598938
31
0
39
0
210
0
220
0
230
1
0
LINE
5
CF
100
AcDbEntity
8
1
62
256
6
ByLayer
370
18
48
1
60
0
100
AcDbLine
10
52.132
20
1.163792
30
0
11
52.132
21
1.262693
31
0
39
0
210
0
220
0
230
1
0
LINE
5
D0
100
AcDbEntity
8
1
62
256
6
ByLayer
370
18
48
1
60
0
100
AcDbLine
10
52.132
20
-2.651327
30
0
11
52.132
21
-2.505934
31
0
39
0
210
0
220
0
230
1
0
LINE
5
D1
100
AcDbEntity
8
1
62
256
6
ByLayer
370
18
48
1
60
0
100
AcDbLine
10
52.132
20
-2.867697
30
0
11
52.132
21
-2.651327
31
0
39
0
210
0
220
0
230
1
0
LINE
5
D2
100
AcDbEntity
8
1
62
256
6
ByLayer
370
18
48
1
60
0
100
AcDbLine
10
52.132
20
0.994364
30
0
11
52.132
21
1.163792
31
0
39
0
210
0
220
0
230
1
0
LINE
5
D3
100
AcDbEntity
8
1
62
256
6
ByLayer
370
18
48
1
60
0
100
AcDbLine
10
59.12284
20
-0.550662
30
0
11
59.321355
21
-0.861957
31
0
39
0
210
0
220
0
230
1
0
LINE
5
D4
100
AcDbEntity
8
1
62
256
6
ByLayer
370
18
48
1
60
0
100
AcDbLine
10
59.12284
20
-0.550662
30
0
11
59.120733
21
-0.543908
31
0
39
0
210
0
220
0
230
1
0
LINE
5
D5
100
AcDbEntity
8
1
62
256
6
ByLayer
370
18
48
1
60
0
100
AcDbLine
10
57.323527
20
0.323256
30
0
11
57.164848
21
0.348897
31
0
39
0
210
0
220
0
230
1
0
LINE
5
D6
100
AcDbEntity
8
1
62
256
6
ByLayer
370
18
48
1
60
0
100
AcDbLine
10
51.86195
20
-0.394503
30
0
11
51.878048
21
-0.315883
31
0
39
0
210
0
220
0
230
1
0
LINE
5
D7
100
AcDbEntity
8
1
62
256
6
ByLayer
370
18
48
1
60
0
100
AcDbLine
10
52.132
20
-1.478106
30
0
11
52.132
21
-1.310589
31
0
39
0
210
0
220
0
230
1
0
LINE
5
D8
100
AcDbEntity
8
1
62
256
6
ByLayer
370
18
48
1
60
0
100
AcDbLine
10
48.8906
20
-1.487005
30
0
11
52.132
21
-2.505934
31
0
39
0
210
0
220
0
230
1
0
LINE
5
D9
100
AcDbEntity
8
1
62
256
6
ByLayer
370
18
48
1
60
0
100
AcDbLine
10
52.132
20
-2.505934
30
0
11
52.132
21
-1.478106
31
0
39
0
210
0
220
0
230
1
0
LINE
5
DA
100
AcDbEntity
8
1
62
256
6
ByLayer
370
18
48
1
60
0
100
AcDbLine
10
52.006546
20
0.071288
30
0
11
52.338858
21
0.863016
31
0
39
0
210
0
220
0
230
1
0
LINE
5
DB
100
AcDbEntity
8
1
62
256
6
ByLayer
370
18
48
1
60
0
100
AcDbLine
10
52.263702
20
-0.027453
30
0
11
52.006546
21
0.071288
31
0
39
0
210
0
220
0
230
1
0
LINE
5
DC
100
AcDbEntity
8
1
62
256
6
ByLayer
370
18
48
1
60
0
100
AcDbLine
10
51.878048
20
-0.315883
30
0
11
52.006546
21
0.071288
31
0
39
0
210
0
220
0
230
1
0
LINE
5
DD
100
AcDbEntity
8
1
62
256
6
ByLayer
370
18
48
1
60
0
100
AcDbLine
10
52.135204
20
-0.414624
30
0
11
51.878048
21
-0.315883
31
0
39
0
210
0
220
0
230
1
0
LINE
5
DE
100
AcDbEntity
8
1
62
256
6
ByLayer
370
18
48
1
60
0
100
AcDbLine
10
52.132
20
1.734653
30
0
11
52.132
21
3.234355
31
0
39
0
210
0
220
0
230
1
0
LINE
5
DF
100
AcDbEntity
8
1
62
256
6
ByLayer
370
18
48
1
60
0
100
AcDbLine
10
52.132
20
-1.310589
30
0
11
52.132
21
-0.414082
31
0
39
0
210
0
220
0
230
1
0
LINE
5
E0
100
AcDbEntity
8
1
62
256
6
ByLayer
370
18
48
1
60
0
100
AcDbLine
10
52.132
20
0.994364
30
0
11
52.132
21
0.929475
31
0
39
0
210
0
220
0
230
1
0
LINE
5
E1
100
AcDbEntity
8
1
62
256
6
ByLayer
370
18
48
1
60
0
100
AcDbLine
10
59.975748
20
-0.061551
30
0
11
59.988132
21
-0.061893
31
0
39
0
210
0
220
0
230
1
0
LINE
5
E2
100
AcDbEntity
8
1
62
256
6
ByLayer
370
18
48
1
60
0
100
AcDbLine
10
59.999321
20
-0.058754
30
0
11
59.987555
21
-0.058754
31
0
39
0
210
0
220
0
230
1
0
LINE
5
E3
100
AcDbEntity
8
SK1
62
256
6
ByLayer
370
18
48
1
60
0
100
AcDbLine
10
0
20
-4.999325
30
0
11
0
21
4.999325
31
0
39
0
210
0
220
0
230
1
0
LINE
5
E4
100
AcDbEntity
8
SK1
62
256
6
ByLayer
370
18
48
1
60
0
100
AcDbLine
10
-40
20
4.4
30
0
11
-40
21
-4.4
31
0
39
0
210
0
220
0
230
1
0
LINE
5
E5
100
AcDbEntity
8
SK1
62
256
6
ByLayer
370
18
48
1
60
0
100
AcDbLine
10
-39.4
20
5
30
0
11
-39.4
21
-5
31
0
39
0
210
0
220
0
230
1
0
LINE
5
E6
100
AcDbEntity
8
SK1
62
256
6
ByLayer
370
18
48
1
60
0
100
AcDbLine
10
-0.018657
20
-5
30
0
11
-0.018657
21
5
31
0
39
0
210
0
220
0
230
1
0
LINE
5
E7
100
AcDbEntity
8
81
62
256
6
ByLayer
370
18
48
1
60
0
100
AcDbLine
10
50.341774
20
4.095678
30
0
11
50.341774
21
4.051905
31
0
39
0
210
0
220
0
230
1
0
LINE
5
E8
100
AcDbEntity
8
81
62
256
6
ByLayer
370
18
48
1
60
0
100
AcDbLine
10
50.341774
20
-3.893454
30
0
11
50.341774
21
-4.095678
31
0
39
0
210
0
220
0
230
1
0
LINE
5
E9
100
AcDbEntity
8
81
62
256
6
ByLayer
370
18
48
1
60
0
100
AcDbLine
10
51.919192
20
-3.998406
30
0
11
51.619192
21
-3.998406
31
0
39
0
210
0
220
0
230
1
0
LINE
5
EA
100
AcDbEntity
8
81
62
256
6
ByLayer
370
18
48
1
60
0
100
AcDbLine
10
51.619192
20
3.998406
30
0
11
51.919192
21
3.998406
31
0
39
0
210
0
220
0
230
1
0
LINE
5
EB
100
AcDbEntity
8
81
62
256
6
ByLayer
370
18
48
1
60
0
100
AcDbLine
10
52.131235
20
-4.075852
30
0
11
52.132
21
-4.076496
31
0
39
0
210
0
220
0
230
1
0
LINE
5
EC
100
AcDbEntity
8
81
62
256
6
ByLayer
370
18
48
1
60
0
100
AcDbLine
10
52.132
20
4.076496
30
0
11
52.131235
21
4.075852
31
0
39
0
210
0
220
0
230
1
0
LINE
5
ED
100
AcDbEntity
8
SK2
62
256
6
ByLayer
370
13
48
1
60
0
100
AcDbLine
10
-46.5
20
-5
30
0
11
-46.5
21
24.625256
31
0
39
0
210
0
220
0
230
1
0
LINE
5
EF
100
AcDbEntity
8
SK2
62
256
6
ByLayer
370
13
48
1
60
0
100
AcDbLine
10
-41.5875
20
-5
30
0
11
-48.5
21
-5
31
0
39
0
210
0
220
0
230
1
0
LINE
5
F0
100
AcDbEntity
8
SK2
62
256
6
ByLayer
370
13
48
1
60
0
100
AcDbLine
10
-41.5875
20
5
30
0
11
-48.5
21
5
31
0
39
0
210
0
220
0
230
1
0
LINE
5
F1
100
AcDbEntity
8
1
62
256
6
ByLayer
370
18
48
1
60
1
100
AcDbLine
10
-46.5
20
-5
30
0
11
-46.960784
21
-1.500002
31
0
39
0
210
0
220
0
230
1
0
LINE
5
F2
100
AcDbEntity
8
1
62
256
6
ByLayer
370
18
48
1
60
1
100
AcDbLine
10
-46.960784
20
-1.500002
30
0
11
-46.039216
21
-1.499998
31
0
39
0
210
0
220
0
230
1
0
LINE
5
F3
100
AcDbEntity
8
1
62
256
6
ByLayer
370
18
48
1
60
1
100
AcDbLine
10
-46.039216
20
-1.499998
30
0
11
-46.5
21
-5
31
0
39
0
210
0
220
0
230
1
0
LINE
5
F4
100
AcDbEntity
8
1
62
256
6
ByLayer
370
18
48
1
60
1
100
AcDbLine
10
-46.5
20
5
30
0
11
-46.039216
21
1.500002
31
0
39
0
210
0
220
0
230
1
0
LINE
5
F5
100
AcDbEntity
8
1
62
256
6
ByLayer
370
18
48
1
60
1
100
AcDbLine
10
-46.039216
20
1.500002
30
0
11
-46.960784
21
1.499998
31
0
39
0
210
0
220
0
230
1
0
LINE
5
F6
100
AcDbEntity
8
1
62
256
6
ByLayer
370
18
48
1
60
1
100
AcDbLine
10
-46.960784
20
1.499998
30
0
11
-46.5
21
5
31
0
39
0
210
0
220
0
230
1
0
LINE
5
F7
100
AcDbEntity
8
SK2
62
256
6
ByLayer
370
13
48
1
60
0
100
AcDbLine
10
29.5
20
4.095678
30
0
11
29.5
21
-34.095678
31
0
39
0
210
0
220
0
230
1
0
LINE
5
F8
100
AcDbEntity
8
SK2
62
256
6
ByLayer
370
13
48
1
60
0
100
AcDbLine
10
26.5875
20
-4.095678
30
0
11
31.5
21
-4.095678
31
0
39
0
210
0
220
0
230
1
0
LINE
5
F9
100
AcDbEntity
8
SK2
62
256
6
ByLayer
370
13
48
1
60
0
100
AcDbLine
10
26.5875
20
4.095678
30
0
11
31.5
21
4.095678
31
0
39
0
210
0
220
0
230
1
0
LINE
5
FA
100
AcDbEntity
8
1
62
256
6
ByLayer
370
18
48
1
60
1
100
AcDbLine
10
29.5
20
-4.095678
30
0
11
29.039216
21
-0.595679
31
0
39
0
210
0
220
0
230
1
0
LINE
5
FB
100
AcDbEntity
8
1
62
256
6
ByLayer
370
18
48
1
60
1
100
AcDbLine
10
29.039216
20
-0.595679
30
0
11
29.960784
21
-0.595676
31
0
39
0
210
0
220
0
230
1
0
LINE
5
FC
100
AcDbEntity
8
1
62
256
6
ByLayer
370
18
48
1
60
1
100
AcDbLine
10
29.960784
20
-0.595676
30
0
11
29.5
21
-4.095678
31
0
39
0
210
0
220
0
230
1
0
LINE
5
FD
100
AcDbEntity
8
1
62
256
6
ByLayer
370
18
48
1
60
1
100
AcDbLine
10
29.5
20
4.095678
30
0
11
29.960784
21
0.595679
31
0
39
0
210
0
220
0
230
1
0
LINE
5
FE
100
AcDbEntity
8
1
62
256
6
ByLayer
370
18
48
1
60
1
100
AcDbLine
10
29.960784
20
0.595679
30
0
11
29.039216
21
0.595676
31
0
39
0
210
0
220
0
230
1
0
LINE
5
FF
100
AcDbEntity
8
1
62
256
6
ByLayer
370
18
48
1
60
1
100
AcDbLine
10
29.039216
20
0.595676
30
0
11
29.5
21
4.095678
31
0
39
0
210
0
220
0
230
1
0
LINE
5
100
100
AcDbEntity
8
2
62
256
6
ByLayer
370
13
48
1
60
0
100
AcDbLine
10
71.5
20
-5
30
0
11
71.5
21
22.764627
31
0
39
0
210
0
220
0
230
1
0
LINE
5
102
100
AcDbEntity
8
2
62
256
6
ByLayer
370
13
48
1
60
0
100
AcDbLine
10
56.5875
20
-5
30
0
11
73.5
21
-5
31
0
39
0
210
0
220
0
230
1
0
LINE
5
103
100
AcDbEntity
8
2
62
256
6
ByLayer
370
13
48
1
60
0
100
AcDbLine
10
56.5875
20
5
30
0
11
73.5
21
5
31
0
39
0
210
0
220
0
230
1
0
LINE
5
104
100
AcDbEntity
8
1
62
256
6
ByLayer
370
18
48
1
60
1
100
AcDbLine
10
71.5
20
-5
30
0
11
71.039216
21
-1.500002
31
0
39
0
210
0
220
0
230
1
0
LINE
5
105
100
AcDbEntity
8
1
62
256
6
ByLayer
370
18
48
1
60
1
100
AcDbLine
10
71.039216
20
-1.500002
30
0
11
71.960784
21
-1.499998
31
0
39
0
210
0
220
0
230
1
0
LINE
5
106
100
AcDbEntity
8
1
62
256
6
ByLayer
370
18
48
1
60
1
100
AcDbLine
10
71.960784
20
-1.499998
30
0
11
71.5
21
-5
31
0
39
0
210
0
220
0
230
1
0
LINE
5
107
100
AcDbEntity
8
1
62
256
6
ByLayer
370
18
48
1
60
1
100
AcDbLine
10
71.5
20
5
30
0
11
71.960784
21
1.500002
31
0
39
0
210
0
220
0
230
1
0
LINE
5
108
100
AcDbEntity
8
1
62
256
6
ByLayer
370
18
48
1
60
1
100
AcDbLine
10
71.960784
20
1.500002
30
0
11
71.039216
21
1.499998
31
0
39
0
210
0
220
0
230
1
0
LINE
5
109
100
AcDbEntity
8
1
62
256
6
ByLayer
370
18
48
1
60
1
100
AcDbLine
10
71.039216
20
1.499998
30
0
11
71.5
21
5
31
0
39
0
210
0
220
0
230
1
0
LINE
5
10A
100
AcDbEntity
8
SK2
62
256
6
ByLayer
370
13
48
1
60
0
100
AcDbLine
10
-1.605121
20
5.057344
30
0
11
-14.751251
21
5.532523
31
0
39
0
210
0
220
0
230
1
0
LINE
5
10B
100
AcDbEntity
8
SK2
62
256
6
ByLayer
370
13
48
1
60
0
100
AcDbLine
10
-38.4125
20
0
30
0
11
-10.851207
21
0
31
0
39
0
210
0
220
0
230
1
0
LINE
5
10C
100
AcDbEntity
8
1
62
256
6
ByLayer
370
18
48
1
60
1
100
AcDbLine
10
-12.752556
20
5.460278
30
0
11
-13.066263
21
8.976512
31
0
39
0
210
0
220
0
230
1
0
LINE
5
10D
100
AcDbEntity
8
1
62
256
6
ByLayer
370
18
48
1
60
1
100
AcDbLine
10
-13.066263
20
8.976512
30
0
11
-12.145505
21
8.937896
31
0
39
0
210
0
220
0
230
1
0
LINE
5
10E
100
AcDbEntity
8
1
62
256
6
ByLayer
370
18
48
1
60
1
100
AcDbLine
10
-12.145505
20
8.937896
30
0
11
-12.752556
21
5.460278
31
0
39
0
210
0
220
0
230
1
0
LINE
5
10F
100
AcDbEntity
8
1
62
256
6
ByLayer
370
18
48
1
60
1
100
AcDbLine
10
-12.851207
20
0
30
0
11
-12.370172
21
-3.497273
31
0
39
0
210
0
220
0
230
1
0
LINE
5
110
100
AcDbEntity
8
1
62
256
6
ByLayer
370
18
48
1
60
1
100
AcDbLine
10
-12.370172
20
-3.497273
30
0
11
-13.291724
21
-3.50261
31
0
39
0
210
0
220
0
230
1
0
LINE
5
111
100
AcDbEntity
8
1
62
256
6
ByLayer
370
18
48
1
60
1
100
AcDbLine
10
-13.291724
20
-3.50261
30
0
11
-12.851207
21
0
31
0
39
0
210
0
220
0
230
1
0
LINE
5
1D8
100
AcDbEntity
8
1
62
256
6
ByLayer
370
18
48
1
60
1
100
AcDbLine
10
-46.5
20
-5
30
0
11
-46.960784
21
-1.500002
31
0
39
0
210
0
220
0
230
1
0
LINE
5
1D9
100
AcDbEntity
8
1
62
256
6
ByLayer
370
18
48
1
60
1
100
AcDbLine
10
-46.960784
20
-1.500002
30
0
11
-46.039216
21
-1.499998
31
0
39
0
210
0
220
0
230
1
0
LINE
5
1DA
100
AcDbEntity
8
1
62
256
6
ByLayer
370
18
48
1
60
1
100
AcDbLine
10
-46.039216
20
-1.499998
30
0
11
-46.5
21
-5
31
0
39
0
210
0
220
0
230
1
0
LINE
5
1DC
100
AcDbEntity
8
1
62
256
6
ByLayer
370
18
48
1
60
1
100
AcDbLine
10
-46.5
20
5
30
0
11
-46.039216
21
1.500002
31
0
39
0
210
0
220
0
230
1
0
LINE
5
1DD
100
AcDbEntity
8
1
62
256
6
ByLayer
370
18
48
1
60
1
100
AcDbLine
10
-46.039216
20
1.500002
30
0
11
-46.960784
21
1.499998
31
0
39
0
210
0
220
0
230
1
0
LINE
5
1DE
100
AcDbEntity
8
1
62
256
6
ByLayer
370
18
48
1
60
1
100
AcDbLine
10
-46.960784
20
1.499998
30
0
11
-46.5
21
5
31
0
39
0
210
0
220
0
230
1
0
LINE
5
1E2
100
AcDbEntity
8
1
62
256
6
ByLayer
370
18
48
1
60
1
100
AcDbLine
10
29.5
20
-4.095678
30
0
11
29.039216
21
-0.595679
31
0
39
0
210
0
220
0
230
1
0
LINE
5
1E3
100
AcDbEntity
8
1
62
256
6
ByLayer
370
18
48
1
60
1
100
AcDbLine
10
29.039216
20
-0.595679
30
0
11
29.960784
21
-0.595676
31
0
39
0
210
0
220
0
230
1
0
LINE
5
1E4
100
AcDbEntity
8
1
62
256
6
ByLayer
370
18
48
1
60
1
100
AcDbLine
10
29.960784
20
-0.595676
30
0
11
29.5
21
-4.095678
31
0
39
0
210
0
220
0
230
1
0
LINE
5
1E6
100
AcDbEntity
8
1
62
256
6
ByLayer
370
18
48
1
60
1
100
AcDbLine
10
29.5
20
4.095678
30
0
11
29.960784
21
0.595679
31
0
39
0
210
0
220
0
230
1
0
LINE
5
1E7
100
AcDbEntity
8
1
62
256
6
ByLayer
370
18
48
1
60
1
100
AcDbLine
10
29.960784
20
0.595679
30
0
11
29.039216
21
0.595676
31
0
39
0
210
0
220
0
230
1
0
LINE
5
1E8
100
AcDbEntity
8
1
62
256
6
ByLayer
370
18
48
1
60
1
100
AcDbLine
10
29.039216
20
0.595676
30
0
11
29.5
21
4.095678
31
0
39
0
210
0
220
0
230
1
0
LINE
5
1EC
100
AcDbEntity
8
1
62
256
6
ByLayer
370
18
48
1
60
1
100
AcDbLine
10
71.5
20
-5
30
0
11
71.039216
21
-1.500002
31
0
39
0
210
0
220
0
230
1
0
LINE
5
1ED
100
AcDbEntity
8
1
62
256
6
ByLayer
370
18
48
1
60
1
100
AcDbLine
10
71.039216
20
-1.500002
30
0
11
71.960784
21
-1.499998
31
0
39
0
210
0
220
0
230
1
0
LINE
5
1EE
100
AcDbEntity
8
1
62
256
6
ByLayer
370
18
48
1
60
1
100
AcDbLine
10
71.960784
20
-1.499998
30
0
11
71.5
21
-5
31
0
39
0
210
0
220
0
230
1
0
LINE
5
1F0
100
AcDbEntity
8
1
62
256
6
ByLayer
370
18
48
1
60
1
100
AcDbLine
10
71.5
20
5
30
0
11
71.960784
21
1.500002
31
0
39
0
210
0
220
0
230
1
0
LINE
5
1F1
100
AcDbEntity
8
1
62
256
6
ByLayer
370
18
48
1
60
1
100
AcDbLine
10
71.960784
20
1.500002
30
0
11
71.039216
21
1.499998
31
0
39
0
210
0
220
0
230
1
0
LINE
5
1F2
100
AcDbEntity
8
1
62
256
6
ByLayer
370
18
48
1
60
1
100
AcDbLine
10
71.039216
20
1.499998
30
0
11
71.5
21
5
31
0
39
0
210
0
220
0
230
1
0
LINE
5
1F5
100
AcDbEntity
8
1
62
256
6
ByLayer
370
18
48
1
60
1
100
AcDbLine
10
-12.752556
20
5.460278
30
0
11
-13.066263
21
8.976512
31
0
39
0
210
0
220
0
230
1
0
LINE
5
1F6
100
AcDbEntity
8
1
62
256
6
ByLayer
370
18
48
1
60
1
100
AcDbLine
10
-13.066263
20
8.976512
30
0
11
-12.145505
21
8.937896
31
0
39
0
210
0
220
0
230
1
0
LINE
5
1F7
100
AcDbEntity
8
1
62
256
6
ByLayer
370
18
48
1
60
1
100
AcDbLine
10
-12.145505
20
8.937896
30
0
11
-12.752556
21
5.460278
31
0
39
0
210
0
220
0
230
1
0
LINE
5
1F9
100
AcDbEntity
8
1
62
256
6
ByLayer
370
18
48
1
60
1
100
AcDbLine
10
-12.851207
20
0
30
0
11
-12.370172
21
-3.497273
31
0
39
0
210
0
220
0
230
1
0
LINE
5
1FA
100
AcDbEntity
8
1
62
256
6
ByLayer
370
18
48
1
60
1
100
AcDbLine
10
-12.370172
20
-3.497273
30
0
11
-13.291724
21
-3.50261
31
0
39
0
210
0
220
0
230
1
0
LINE
5
1FB
100
AcDbEntity
8
1
62
256
6
ByLayer
370
18
48
1
60
1
100
AcDbLine
10
-13.291724
20
-3.50261
30
0
11
-12.851207
21
0
31
0
39
0
210
0
220
0
230
1
0
MTEXT
5
1D4
100
AcDbEntity
8
SK2
62
256
6
ByLayer
370
18
48
1
60
0
100
AcDbMText
10
-47.841114
20
9.658437
30
0
210
0
220
0
230
1
1
%%c
40
3
41
0
44
1.084337
50
90
71
7
72
5
7
iso_b_vert
0
MTEXT
5
1D7
100
AcDbEntity
8
SK2
62
256
6
ByLayer
370
18
48
1
60
0
100
AcDbMText
10
-47.841114
20
15.635
30
0
210
0
220
0
230
1
1
\W0.6563;10 h6
40
3
41
0
44
1.084337
50
90
71
7
72
5
7
iso_b_vert
0
MTEXT
5
1E0
100
AcDbEntity
8
SK2
62
256
6
ByLayer
370
18
48
1
60
0
100
AcDbMText
10
28.158886
20
-32.43724
30
0
210
0
220
0
230
1
1
%%c
40
3
41
0
44
1.084337
50
90
71
7
72
5
7
iso_b_vert
0
MTEXT
5
1E1
100
AcDbEntity
8
SK2
62
256
6
ByLayer
370
18
48
1
60
0
100
AcDbMText
10
28.158886
20
-26.460678
30
0
210
0
220
0
230
1
1
\W0.6662;8.19
40
3
41
0
44
1.084337
50
90
71
7
72
5
7
iso_b_vert
0
MTEXT
5
1EA
100
AcDbEntity
8
2
62
256
6
ByLayer
370
18
48
1
60
0
100
AcDbMText
10
70.158886
20
11.658437
30
0
210
0
220
0
230
1
1
%%c
40
3
41
0
44
1.084337
50
90
71
7
72
5
7
iso_b_vert
0
MTEXT
5
1EB
100
AcDbEntity
8
2
62
256
6
ByLayer
370
18
48
1
60
0
100
AcDbMText
10
70.158886
20
17.635
30
0
210
0
220
0
230
1
1
\W0.5742;(10)
40
3
41
0
44
1.084337
50
90
71
7
72
5
7
iso_b_vert
0
MTEXT
5
1F4
100
AcDbEntity
8
SK2
62
256
6
ByLayer
370
18
48
1
60
0
100
AcDbMText
10
-12.916636
20
13.07724
30
0
210
0
220
0
230
1
1
\W0.7635;(2%%d)
40
3
41
0
44
1.084337
50
84.042671364611
71
7
72
5
7
iso_b_vert
0
MTEXT
5
1FD
100
AcDbEntity
8
SK6
62
256
6
ByLayer
370
18
48
1
60
0
100
AcDbMText
10
-19.338602
20
-44.337587
30
0
210
0
220
0
230
1
1
\W0.7613;2L446-1000-TA1000   T2CH
40
3
41
0
44
1.084337
50
0
71
7
72
5
7
iso_b_vert
0
HATCH
5
1DB
100
AcDbEntity
8
SK2
62
256
6
ByLayer
370
13
48
1
60
0
100
AcDbHatch
10
0
20
0
30
0
210
0
220
0
230
1
2
ANSI31
70
0
71
0
91
1
92
5
93
3
72
1
10
-46.5
20
-5
11
-46.9607837415528
21
-1.50000169255318
72
1
10
-46.9607837415528
20
-1.50000169255318
11
-46.0392162584472
21
-1.49999830744682
72
1
10
-46.0392162584472
20
-1.49999830744682
11
-46.5
21
-5
97
0
75
0
76
1
52
0
41
0.0062
77
0
78
1
53
45
43
0
44
0
45
-0.0139193969876572
46
0.0139193969876572
79
0
47
0
98
1
10
0
20
0
0
HATCH
5
1DF
100
AcDbEntity
8
SK2
62
256
6
ByLayer
370
13
48
1
60
0
100
AcDbHatch
10
0
20
0
30
0
210
0
220
0
230
1
2
ANSI31
70
0
71
0
91
1
92
5
93
3
72
1
10
-46.5
20
5
11
-46.0392162584472
21
1.50000169255318
72
1
10
-46.0392162584472
20
1.50000169255318
11
-46.9607837415528
21
1.49999830744682
72
1
10
-46.9607837415528
20
1.49999830744682
11
-46.5
21
5
97
0
75
0
76
1
52
0
41
0.0062
77
0
78
1
53
45
43
0
44
0
45
-0.0139193969876572
46
0.0139193969876572
79
0
47
0
98
1
10
0
20
0
0
HATCH
5
1E5
100
AcDbEntity
8
SK2
62
256
6
ByLayer
370
13
48
1
60
0
100
AcDbHatch
10
0
20
0
30
0
210
0
220
0
230
1
2
ANSI31
70
0
71
0
91
1
92
5
93
3
72
1
10
29.5
20
-4.0956777216964
11
29.0392162584472
21
-0.595679414249588
72
1
10
29.0392162584472
20
-0.595679414249588
11
29.9607837415528
21
-0.59567602914322
72
1
10
29.9607837415528
20
-0.59567602914322
11
29.5
21
-4.0956777216964
97
0
75
0
76
1
52
0
41
0.0062
77
0
78
1
53
45
43
0
44
0
45
-0.0139193969876572
46
0.0139193969876572
79
0
47
0
98
1
10
0
20
0
0
HATCH
5
1E9
100
AcDbEntity
8
SK2
62
256
6
ByLayer
370
13
48
1
60
0
100
AcDbHatch
10
0
20
0
30
0
210
0
220
0
230
1
2
ANSI31
70
0
71
0
91
1
92
5
93
3
72
1
10
29.5
20
4.09567772169601
11
29.9607837415528
21
0.59567941424919
72
1
10
29.9607837415528
20
0.59567941424919
11
29.0392162584472
21
0.595676029142822
72
1
10
29.0392162584472
20
0.595676029142822
11
29.5
21
4.09567772169601
97
0
75
0
76
1
52
0
41
0.0062
77
0
78
1
53
45
43
0
44
0
45
-0.0139193969876572
46
0.0139193969876572
79
0
47
0
98
1
10
0
20
0
0
HATCH
5
1EF
100
AcDbEntity
8
2
62
256
6
ByLayer
370
13
48
1
60
0
100
AcDbHatch
10
0
20
0
30
0
210
0
220
0
230
1
2
ANSI31
70
0
71
0
91
1
92
5
93
3
72
1
10
71.5
20
-5
11
71.0392162584472
21
-1.50000169255318
72
1
10
71.0392162584472
20
-1.50000169255318
11
71.9607837415528
21
-1.49999830744682
72
1
10
71.9607837415528
20
-1.49999830744682
11
71.5
21
-5
97
0
75
0
76
1
52
0
41
0.0062
77
0
78
1
53
45
43
0
44
0
45
-0.0139193969876572
46
0.0139193969876572
79
0
47
0
98
1
10
0
20
0
0
HATCH
5
1F3
100
AcDbEntity
8
2
62
256
6
ByLayer
370
13
48
1
60
0
100
AcDbHatch
10
0
20
0
30
0
210
0
220
0
230
1
2
ANSI31
70
0
71
0
91
1
92
5
93
3
72
1
10
71.5
20
5
11
71.9607837415528
21
1.50000169255318
72
1
10
71.9607837415528
20
1.50000169255318
11
71.0392162584472
21
1.49999830744682
72
1
10
71.0392162584472
20
1.49999830744682
11
71.5
21
5
97
0
75
0
76
1
52
0
41
0.0062
77
0
78
1
53
45
43
0
44
0
45
-0.0139193969876572
46
0.0139193969876572
79
0
47
0
98
1
10
0
20
0
0
HATCH
5
1F8
100
AcDbEntity
8
SK2
62
256
6
ByLayer
370
13
48
1
60
0
100
AcDbHatch
10
0
20
0
30
0
210
0
220
0
230
1
2
ANSI31
70
0
71
0
91
1
92
5
93
3
72
1
10
-12.7525558770128
20
5.46027844800125
11
-13.0662632410034
21
8.97651187290182
72
1
10
-13.0662632410034
20
8.97651187290182
11
-12.1455051672839
21
8.93789587091771
72
1
10
-12.1455051672839
20
8.93789587091771
11
-12.7525558770128
21
5.46027844800125
97
0
75
0
76
1
52
0
41
0.0062
77
0
78
1
53
45
43
0
44
0
45
-0.0139193969876572
46
0.0139193969876572
79
0
47
0
98
1
10
0
20
0
0
HATCH
5
1FC
100
AcDbEntity
8
SK2
62
256
6
ByLayer
370
13
48
1
60
0
100
AcDbHatch
10
0
20
0
30
0
210
0
220
0
230
1
2
ANSI31
70
0
71
0
91
1
92
5
93
3
72
1
10
-12.8512070489033
20
2.84E-14
11
-12.3701721672283
21
-3.49727254460123
72
1
10
-12.3701721672283
20
-3.49727254460123
11
-13.291724192596
21
-3.50261019105284
72
1
10
-13.291724192596
20
-3.50261019105284
11
-12.8512070489033
21
2.84E-14
97
0
75
0
76
1
52
0
41
0.0062
77
0
78
1
53
45
43
0
44
0
45
-0.0139193969876572
46
0.0139193969876572
79
0
47
0
98
1
10
0
20
0
0
DIMENSION
5
200
100
AcDbEntity
8
2
62
256
6
ByLayer
370
18
48
1
60
0
100
AcDbDimension
2
_U0
10
25
20
13.047123
30
0
11
42.5
21
13.047123
31
0
70
32
71
1
72
1
41
1
210
0
220
0
230
1
3
Standard
100
AcDbAlignedDimension
13
60
23
0
33
0
14
25
24
4.095678
34
0
50
0
100
AcDbRotatedDimension
1001
ACAD
1000
DSTYLE
1002
{
1070
   371
1070
    13
1070
   372
1070
    13
1070
     3
1000

1070
   170
1070
     0
1070
   144
1040
1.0
1070
   277
1070
     2
1070
   284
1070
     8
1070
   278
1070
    46
1070
   146
1040
1.166667
1070
   345
1005
16
1070
   347
1005
16
1070
   346
1005
16
1070
   344
1005
0
1070
   343
1005
0
1070
   172
1070
     1
1070
    76
1070
     0
1070
    75
1070
     0
1070
   282
1070
     0
1070
   281
1070
     0
1070
    71
1070
     0
1070
    74
1070
     0
1070
   279
1070
     0
1070
   173
1070
     1
1070
   340
1005
1D5
1070
   271
1070
     2
1070
   272
1070
     2
1070
    77
1070
     1
1070
    73
1070
     1
1070
   171
1070
     3
1070
   274
1070
     4
1070
   177
1070
     2
1070
   176
1070
     2
1070
   178
1070
     2
1070
    78
1070
     8
1070
    48
1040
-0.1
1070
    41
1040
3.5
1070
   147
1040
1.5
1070
    42
1040
1.5875
1070
    44
1040
2.0
1070
   140
1040
3.0
1002
}
1001
ACAD_DSTYLE_DIM_LINETYPE
1070
   380
1005
16
1001
ACAD_DSTYLE_DIM_EXT1_LINETYPE
1070
   381
1005
16
1001
ACAD_DSTYLE_DIM_EXT2_LINETYPE
1070
   382
1005
16
0
DIMENSION
5
219
100
AcDbEntity
8
2
62
256
6
ByLayer
370
18
48
1
60
0
100
AcDbDimension
2
_U1
10
-0.018657
20
23.047123
30
0
11
29.990672
21
23.047123
31
0
70
32
71
1
72
1
41
1
210
0
220
0
230
1
3
Standard
100
AcDbAlignedDimension
13
60
23
0
33
0
14
-0.018657
24
5
34
0
50
0
100
AcDbRotatedDimension
1001
ACAD
1000
DSTYLE
1002
{
1070
   371
1070
    13
1070
   372
1070
    13
1070
     3
1000

1070
   170
1070
     0
1070
   144
1040
1.0
1070
   277
1070
     2
1070
   284
1070
     8
1070
   278
1070
    46
1070
   146
1040
1.166667
1070
   345
1005
16
1070
   347
1005
16
1070
   346
1005
16
1070
   344
1005
0
1070
   343
1005
0
1070
   172
1070
     1
1070
    76
1070
     0
1070
    75
1070
     0
1070
   282
1070
     0
1070
   281
1070
     0
1070
    71
1070
     0
1070
    74
1070
     0
1070
   279
1070
     0
1070
   173
1070
     1
1070
   340
1005
1D5
1070
   271
1070
     2
1070
   272
1070
     2
1070
    77
1070
     1
1070
    73
1070
     1
1070
   171
1070
     3
1070
   274
1070
     4
1070
   177
1070
     2
1070
   176
1070
     2
1070
   178
1070
     2
1070
    78
1070
     8
1070
    48
1040
-0.1
1070
    41
1040
3.5
1070
   147
1040
1.5
1070
    42
1040
1.5875
1070
    44
1040
2.0
1070
   140
1040
3.0
1002
}
1001
ACAD_DSTYLE_DIM_LINETYPE
1070
   380
1005
16
1001
ACAD_DSTYLE_DIM_EXT1_LINETYPE
1070
   381
1005
16
1001
ACAD_DSTYLE_DIM_EXT2_LINETYPE
1070
   382
1005
16
0
DIMENSION
5
231
100
AcDbEntity
8
SK2
62
256
6
ByLayer
370
18
48
1
60
0
100
AcDbDimension
2
_U2
10
-40
20
33.047123
30
0
11
10
21
33.047123
31
0
70
32
71
1
72
1
41
1
210
0
220
0
230
1
3
Standard
100
AcDbAlignedDimension
13
60
23
0
33
0
14
-40
24
0
34
0
50
0
100
AcDbRotatedDimension
1001
ACAD
1000
DSTYLE
1002
{
1070
   371
1070
    13
1070
   372
1070
    13
1070
     3
1000

1070
   170
1070
     0
1070
   144
1040
1.0
1070
   277
1070
     2
1070
   284
1070
     8
1070
   278
1070
    46
1070
   146
1040
1.166667
1070
   345
1005
16
1070
   347
1005
16
1070
   346
1005
16
1070
   344
1005
0
1070
   343
1005
0
1070
   172
1070
     1
1070
    76
1070
     0
1070
    75
1070
     0
1070
   282
1070
     0
1070
   281
1070
     0
1070
    71
1070
     0
1070
    74
1070
     0
1070
   279
1070
     0
1070
   173
1070
     1
1070
   340
1005
1D5
1070
   271
1070
     2
1070
   272
1070
     2
1070
    77
1070
     1
1070
    73
1070
     1
1070
   171
1070
     3
1070
   274
1070
     4
1070
   177
1070
     2
1070
   176
1070
     2
1070
   178
1070
     2
1070
    78
1070
     8
1070
    48
1040
-0.1
1070
    41
1040
3.5
1070
   147
1040
1.5
1070
    42
1040
1.5875
1070
    44
1040
2.0
1070
   140
1040
3.0
1002
}
1001
ACAD_DSTYLE_DIM_LINETYPE
1070
   380
1005
16
1001
ACAD_DSTYLE_DIM_EXT1_LINETYPE
1070
   381
1005
16
1001
ACAD_DSTYLE_DIM_EXT2_LINETYPE
1070
   382
1005
16
0
DIMENSION
5
249
100
AcDbEntity
8
SK2
62
256
6
ByLayer
370
18
48
1
60
0
100
AcDbDimension
2
_U3
10
0.6
20
-19.492526
30
0
11
-19.7
21
-19.492526
31
0
70
32
71
1
72
1
41
1
210
0
220
0
230
1
3
Standard
100
AcDbAlignedDimension
13
-40
23
0
33
0
14
0.6
24
-5
34
0
50
0
100
AcDbRotatedDimension
1001
ACAD
1000
DSTYLE
1002
{
1070
   371
1070
    13
1070
   372
1070
    13
1070
     3
1000

1070
   170
1070
     0
1070
   144
1040
1.0
1070
   277
1070
     2
1070
   284
1070
     8
1070
   278
1070
    46
1070
   146
1040
1.166667
1070
   345
1005
16
1070
   347
1005
16
1070
   346
1005
16
1070
   344
1005
0
1070
   343
1005
0
1070
   172
1070
     1
1070
    76
1070
     0
1070
    75
1070
     0
1070
   282
1070
     0
1070
   281
1070
     0
1070
    71
1070
     0
1070
    74
1070
     0
1070
   279
1070
     0
1070
   173
1070
     1
1070
   340
1005
1D5
1070
   271
1070
     2
1070
   272
1070
     2
1070
    77
1070
     1
1070
    73
1070
     1
1070
   171
1070
     3
1070
   274
1070
     4
1070
   177
1070
     2
1070
   176
1070
     2
1070
   178
1070
     2
1070
    78
1070
     8
1070
    48
1040
-0.1
1070
    41
1040
3.5
1070
   147
1040
1.5
1070
    42
1040
1.5875
1070
    44
1040
2.0
1070
   140
1040
3.0
1002
}
1001
ACAD_DSTYLE_DIM_LINETYPE
1070
   380
1005
16
1001
ACAD_DSTYLE_DIM_EXT1_LINETYPE
1070
   381
1005
16
1001
ACAD_DSTYLE_DIM_EXT2_LINETYPE
1070
   382
1005
16
0
DIMENSION
5
261
100
AcDbEntity
8
SK2
62
256
6
ByLayer
370
18
48
1
60
0
100
AcDbDimension
2
_U4
10
52.132
20
-11.5
30
0
11
76.071429
21
-11.5
31
0
70
32
71
1
72
1
41
1
210
0
220
0
230
1
3
Standard
100
AcDbAlignedDimension
13
60
23
0
33
0
14
52.132
24
4.095678
34
0
50
0
100
AcDbRotatedDimension
1001
ACAD
1000
DSTYLE
1002
{
1070
   371
1070
    13
1070
   372
1070
    13
1070
     3
1000

1070
   170
1070
     0
1070
   144
1040
1.0
1070
   277
1070
     2
1070
   284
1070
     8
1070
   278
1070
    46
1070
   146
1040
1.166667
1070
   345
1005
16
1070
   347
1005
16
1070
   346
1005
16
1070
   344
1005
0
1070
   343
1005
0
1070
   172
1070
     1
1070
    76
1070
     0
1070
    75
1070
     0
1070
   282
1070
     0
1070
   281
1070
     0
1070
    71
1070
     0
1070
    74
1070
     0
1070
   279
1070
     0
1070
   173
1070
     1
1070
   340
1005
1D5
1070
   271
1070
     2
1070
   272
1070
     2
1070
    77
1070
     1
1070
    73
1070
     1
1070
   171
1070
     3
1070
   274
1070
     4
1070
   177
1070
     2
1070
   176
1070
     2
1070
   178
1070
     2
1070
    78
1070
     8
1070
    48
1040
-0.1
1070
    41
1040
3.5
1070
   147
1040
1.5
1070
    42
1040
1.5875
1070
    44
1040
2.0
1070
   140
1040
3.0
1002
}
1001
ACAD_DSTYLE_DIM_LINETYPE
1070
   380
1005
16
1001
ACAD_DSTYLE_DIM_EXT1_LINETYPE
1070
   381
1005
16
1001
ACAD_DSTYLE_DIM_EXT2_LINETYPE
1070
   382
1005
16
0
ENDSEC
0
SECTION
2
OBJECTS
0
DICTIONARY
5
2eb
330
0
100
AcDbDictionary
280
0
281
1
3
ACAD_GROUP
350
2ec
3
ACAD_MLINESTYLE
350
2ed
0
DICTIONARY
5
2ec
330
0
100
AcDbDictionary
280
0
281
1
0
DICTIONARY
5
2ed
330
0
100
AcDbDictionary
280
0
281
1
3
Standard
350
18
0
MLINESTYLE
5
18
330
2ed
100
AcDbMlineStyle
2
Standard
70
0
3

62
256
51
90
52
90
71
2
49
-0.5
62
256
6
ByLayer
49
0.5
62
256
6
ByLayer
0
RASTERVARIABLES
5
2d9
330

100
AcDbRasterVariables
90
0
70
1
71
1
72
1
0
ENDSEC
0
EOF
