0
SECTION
2
HEADER
9
$ACADVER
1
AC1015
9
$DWGCODEPAGE
3
ANSI_1252
9
$HANDSEED
5
300
9
$ANGBASE
50
0
9
$ANGDIR
70
0
9
$ATTMODE
70
1
9
$AUNITS
70
0
9
$AUPREC
70
0
9
$CECOLOR
62
256
9
$CELTSCALE
40
1
9
$CELTYPE
6
ByLayer
9
$CELWEIGHT
370
18
9
$CLAYER
8
0
9
$CMLJUST
70
0
9
$CMLSCALE
40
1
9
$CMLSTYLE
2
Standard
9
$DIMSTYLE
2
Standard
9
$TEXTSIZE
40
0.2
9
$TEXTSTYLE
7
Standard
9
$LUNITS
70
2
9
$LUPREC
70
4
9
$EXTNAMES
290
1
9
$INSUNITS
70
4
9
$LTSCALE
40
1
9
$LWDISPLAY
290
1
9
$PDMODE
70
0
9
$PDSIZE
40
0
9
$PLINEGEN
70
0
0
ENDSEC
0
SECTION
2
CLASSES
0
CLASS
1
RASTERVARIABLES
2
AcDbRasterVariables
3
ISM
90
0
280
0
281
0
0
ENDSEC
0
SECTION
2
TABLES
0
TABLE
2
VPORT
5
2f6
100
AcDbSymbolTable
0
VPORT
5
1
100
AcDbSymbolTableRecord
100
AcDbViewportTableRecord
2
*Active
70
0
10
0
20
0
11
1
21
1
12
-1
22
1
13
0
23
0
14
0.5
24
0.5
15
10
25
10
16
0
26
0
36
1
17
0
27
0
37
0
0
ENDTAB
0
TABLE
2
LTYPE
5
2f7
100
AcDbSymbolTable
0
LTYPE
5
14
100
AcDbSymbolTableRecord
100
AcDbLinetypeTableRecord
70
0
2
ByBlock
3

72
65
73
0
40
0
0
LTYPE
5
15
100
AcDbSymbolTableRecord
100
AcDbLinetypeTableRecord
70
0
2
ByLayer
3

72
65
73
0
40
0
0
LTYPE
5
16
100
AcDbSymbolTableRecord
100
AcDbLinetypeTableRecord
70
0
2
Continuous
3
Solid line
72
65
73
0
40
0
0
LTYPE
5
6E
100
AcDbSymbolTableRecord
100
AcDbLinetypeTableRecord
70
0
2
CENTER
3
____ _ ____ _ ____ _ ____
72
65
73
4
40
47.5
49
22
74
0
49
-8.5
74
0
49
8.5
74
0
49
-8.5
74
0
0
LTYPE
5
6F
100
AcDbSymbolTableRecord
100
AcDbLinetypeTableRecord
70
0
2
DASHED
3
__ __ __ __ __ __ __ __ __
72
65
73
2
40
25.72
49
12.86
74
0
49
-12.86
74
0
0
ENDTAB
0
TABLE
2
LAYER
5
2f8
100
AcDbSymbolTable
0
LAYER
5
10
100
AcDbSymbolTableRecord
100
AcDbLayerTableRecord
2
0
70
0
62
7
6
Continuous
290
1
370
-3
390
0
0
LAYER
5
71
100
AcDbSymbolTableRecord
100
AcDbLayerTableRecord
2
81
70
0
62
-3
6
Continuous
290
1
370
-3
390
0
0
LAYER
5
73
100
AcDbSymbolTableRecord
100
AcDbLayerTableRecord
2
80
70
0
62
-6
6
Continuous
290
1
370
-3
390
0
0
LAYER
5
75
100
AcDbSymbolTableRecord
100
AcDbLayerTableRecord
2
1
70
0
62
4
6
Continuous
290
1
370
-3
390
0
0
LAYER
5
84
100
AcDbSymbolTableRecord
100
AcDbLayerTableRecord
2
4
70
0
62
-2
6
CENTER
290
1
370
-3
390
0
0
LAYER
5
104
100
AcDbSymbolTableRecord
100
AcDbLayerTableRecord
2
2
70
0
62
7
6
Continuous
290
1
370
-3
390
0
0
LAYER
5
20B
100
AcDbSymbolTableRecord
100
AcDbLayerTableRecord
2
Defpoints
70
0
62
7
6
Continuous
290
0
370
-3
390
0
0
LAYER
5
2e2
100
AcDbSymbolTableRecord
100
AcDbLayerTableRecord
2
SK4
70
0
62
2
6
CENTER
290
1
370
-3
390
0
0
LAYER
5
2e3
100
AcDbSymbolTableRecord
100
AcDbLayerTableRecord
2
SK1
70
0
62
4
6
Continuous
290
1
370
-3
390
0
0
LAYER
5
2e4
100
AcDbSymbolTableRecord
100
AcDbLayerTableRecord
2
SK2
70
0
62
7
6
Continuous
290
1
370
-3
390
0
0
LAYER
5
2e5
100
AcDbSymbolTableRecord
100
AcDbLayerTableRecord
2
SK6
70
0
62
5
6
Continuous
290
1
370
-3
390
0
0
ENDTAB
0
TABLE
2
STYLE
5
2f9
100
AcDbSymbolTable
0
STYLE
5
11
100
AcDbSymbolTableRecord
100
AcDbTextStyleTableRecord
2
Standard
3
txt
70
0
71
0
40
0
41
1
42
0
50
0
0
STYLE
5
1DD
100
AcDbSymbolTableRecord
100
AcDbTextStyleTableRecord
2
iso_b_vert
3
simplex.shx
70
0
71
0
40
0
41
1
42
0
50
0
0
STYLE
5
1DE
100
AcDbSymbolTableRecord
100
AcDbTextStyleTableRecord
2
DWGDirectTextStyle
3
simplex
70
0
71
0
40
0
41
1
42
0
50
0
0
ENDTAB
0
TABLE
2
DIMSTYLE
5
2fa
100
AcDbSymbolTable
100
AcDbDimStyleTable
0
DIMSTYLE
105
27
100
AcDbSymbolTableRecord
100
AcDbDimStyleTableRecord
2
Standard
70
0
3
<>
41
0.18
42
0.0625
44
0.18
140
0.18
147
0.09
73
0
74
0
77
1
271
2
275
0
278
52
280
0
340
11
0
ENDTAB
0
TABLE
2
VIEW
5
2fb
100
AcDbSymbolTable
0
ENDTAB
0
TABLE
2
UCS
5
2fc
100
AcDbSymbolTable
0
ENDTAB
0
TABLE
2
APPID
5
2fd
100
AcDbSymbolTable
0
APPID
5
12
100
AcDbSymbolTableRecord
100
AcDbRegAppTableRecord
2
ACAD
70
0
0
APPID
5
207
100
AcDbSymbolTableRecord
100
AcDbRegAppTableRecord
2
ACAD_DSTYLE_DIMBREAK
70
0
0
APPID
5
2A1
100
AcDbSymbolTableRecord
100
AcDbRegAppTableRecord
2
ACAD_DSTYLE_DIM_LINETYPE
70
0
0
APPID
5
2A2
100
AcDbSymbolTableRecord
100
AcDbRegAppTableRecord
2
ACAD_DSTYLE_DIM_EXT1_LINETYPE
70
0
0
APPID
5
2A3
100
AcDbSymbolTableRecord
100
AcDbRegAppTableRecord
2
ACAD_DSTYLE_DIM_EXT2_LINETYPE
70
0
0
APPID
5
2DE
100
AcDbSymbolTableRecord
100
AcDbRegAppTableRecord
2
ACAD_MLEADERVER
70
0
0
ENDTAB
0
TABLE
2
BLOCK_RECORD
5
2fe
100
AcDbSymbolTable
0
BLOCK_RECORD
5
1F
100
AcDbSymbolTableRecord
100
AcDbBlockTableRecord
2
*Model_Space
340
0
70
0
0
BLOCK_RECORD
5
1B
100
AcDbSymbolTableRecord
100
AcDbBlockTableRecord
2
*Paper_Space
340
0
70
0
0
BLOCK_RECORD
5
23
100
AcDbSymbolTableRecord
100
AcDbBlockTableRecord
2
*Paper_Space0
340
0
70
0
0
BLOCK_RECORD
5
20C
100
AcDbSymbolTableRecord
100
AcDbBlockTableRecord
2
*D1
340
0
70
0
0
BLOCK_RECORD
5
218
100
AcDbSymbolTableRecord
100
AcDbBlockTableRecord
2
_U0
340
0
70
0
0
BLOCK_RECORD
5
224
100
AcDbSymbolTableRecord
100
AcDbBlockTableRecord
2
*D3
340
0
70
0
0
BLOCK_RECORD
5
230
100
AcDbSymbolTableRecord
100
AcDbBlockTableRecord
2
_U1
340
0
70
0
0
BLOCK_RECORD
5
23C
100
AcDbSymbolTableRecord
100
AcDbBlockTableRecord
2
*D5
340
0
70
0
0
BLOCK_RECORD
5
248
100
AcDbSymbolTableRecord
100
AcDbBlockTableRecord
2
_U2
340
0
70
0
0
BLOCK_RECORD
5
254
100
AcDbSymbolTableRecord
100
AcDbBlockTableRecord
2
*D7
340
0
70
0
0
BLOCK_RECORD
5
260
100
AcDbSymbolTableRecord
100
AcDbBlockTableRecord
2
_U3
340
0
70
0
0
BLOCK_RECORD
5
26C
100
AcDbSymbolTableRecord
100
AcDbBlockTableRecord
2
*D9
340
0
70
0
0
BLOCK_RECORD
5
27A
100
AcDbSymbolTableRecord
100
AcDbBlockTableRecord
2
_U4
340
0
70
0
0
ENDTAB
0
ENDSEC
0
SECTION
2
BLOCKS
0
BLOCK
5
20
100
AcDbEntity
8
0
100
AcDbBlockBegin
2
*Model_Space
70
0
10
0
20
0
30
0
3
*Model_Space
0
ENDBLK
5
21
100
AcDbEntity
8
0
100
AcDbBlockEnd
0
BLOCK
5
1C
100
AcDbEntity
8
0
100
AcDbBlockBegin
2
*Paper_Space
70
0
10
0
20
0
30
0
3
*Paper_Space
0
ENDBLK
5
1D
100
AcDbEntity
8
0
100
AcDbBlockEnd
0
BLOCK
5
24
100
AcDbEntity
8
0
100
AcDbBlockBegin
2
*Paper_Space0
70
0
10
0
20
0
30
0
3
*Paper_Space0
0
ENDBLK
5
25
100
AcDbEntity
8
0
100
AcDbBlockEnd
0
BLOCK
5
20D
100
AcDbEntity
8
0
100
AcDbBlockBegin
2
*D1
70
1
10
0
20
0
30
0
3
*D1
0
LINE
5
20F
100
AcDbEntity
8
0
62
256
6
ByLayer
370
-2
48
1
60
0
100
AcDbLine
10
64
20
1.5875
30
0
11
64
21
14.00759
31
0
39
0
210
0
220
0
230
1
0
LINE
5
210
100
AcDbEntity
8
0
62
256
6
ByLayer
370
-2
48
1
60
0
100
AcDbLine
10
36
20
4.864322
30
0
11
36
21
14.00759
31
0
39
0
210
0
220
0
230
1
0
LINE
5
211
100
AcDbEntity
8
0
62
256
6
ByLayer
370
-2
48
1
60
0
100
AcDbLine
10
60.5
20
12.00759
30
0
11
39.5
21
12.00759
31
0
39
0
210
0
220
0
230
1
0
SOLID
5
212
100
AcDbEntity
8
0
62
256
6
ByLayer
370
-1
48
1
60
0
100
AcDbTrace
10
60.5
20
11.424257
30
0
11
60.5
21
12.590924
31
0
12
64
22
12.00759
32
0
13
64
23
12.00759
33
0
39
0
210
0
220
0
230
1
0
SOLID
5
213
100
AcDbEntity
8
0
62
256
6
ByLayer
370
-1
48
1
60
0
100
AcDbTrace
10
39.5
20
12.590924
30
0
11
39.5
21
11.424257
31
0
12
36
22
12.00759
32
0
13
36
23
12.00759
33
0
39
0
210
0
220
0
230
1
0
MTEXT
5
214
100
AcDbEntity
8
0
62
256
6
ByLayer
370
18
48
1
60
0
100
AcDbMText
10
50
20
18.00759
30
0
210
0
220
0
230
1
1
\A1;28
40
3
41
0
44
1
50
0
71
5
72
5
7
iso_b_vert
0
POINT
5
215
100
AcDbEntity
8
Defpoints
62
0
6
ByLayer
370
-1
48
1
60
0
100
AcDbPoint
10
64
20
0
30
0
39
0
210
0
220
0
230
1
50
360
0
POINT
5
216
100
AcDbEntity
8
Defpoints
62
0
6
ByLayer
370
-1
48
1
60
0
100
AcDbPoint
10
36
20
3.276822
30
0
39
0
210
0
220
0
230
1
50
360
0
POINT
5
217
100
AcDbEntity
8
Defpoints
62
0
6
ByLayer
370
-1
48
1
60
0
100
AcDbPoint
10
36
20
12.00759
30
0
39
0
210
0
220
0
230
1
50
360
0
ENDBLK
5
20E
100
AcDbEntity
8
0
100
AcDbBlockEnd
0
BLOCK
5
21F
100
AcDbEntity
8
0
100
AcDbBlockBegin
2
_U0
70
0
10
0
20
0
30
0
3
_U0
0
MTEXT
5
219
100
AcDbEntity
8
2
62
256
6
ByLayer
370
18
48
1
60
0
100
AcDbMText
10
48.367172
20
12.892705
30
0
210
0
220
0
230
1
1
\W0.6740;28
40
3
41
0
44
1.084337
50
0
71
7
72
5
7
iso_b_vert
0
LINE
5
21A
100
AcDbEntity
8
2
62
256
6
ByLayer
370
13
48
1
60
0
100
AcDbLine
10
64
20
1.5875
30
0
11
64
21
14.00759
31
0
39
0
210
0
220
0
230
1
0
LINE
5
21B
100
AcDbEntity
8
2
62
256
6
ByLayer
370
13
48
1
60
0
100
AcDbLine
10
36
20
4.864322
30
0
11
36
21
14.00759
31
0
39
0
210
0
220
0
230
1
0
LINE
5
21C
100
AcDbEntity
8
2
62
256
6
ByLayer
370
13
48
1
60
0
100
AcDbLine
10
64
20
12.00759
30
0
11
36
21
12.00759
31
0
39
0
210
0
220
0
230
1
0
SOLID
5
21D
100
AcDbEntity
8
2
62
256
6
ByLayer
370
18
48
1
60
0
100
AcDbTrace
10
64
20
12.00759
30
0
11
60.500002
21
11.546807
31
0
12
60.499998
22
12.468374
32
0
13
60.499998
23
12.468374
33
0
39
0
210
0
220
0
230
1
0
SOLID
5
21E
100
AcDbEntity
8
2
62
256
6
ByLayer
370
18
48
1
60
0
100
AcDbTrace
10
36
20
12.00759
30
0
11
39.499998
21
12.468374
31
0
12
39.500002
22
11.546807
32
0
13
39.500002
23
11.546807
33
0
39
0
210
0
220
0
230
1
0
ENDBLK
5
220
100
AcDbEntity
8
0
100
AcDbBlockEnd
0
BLOCK
5
225
100
AcDbEntity
8
0
100
AcDbBlockBegin
2
*D3
70
1
10
0
20
0
30
0
3
*D3
0
LINE
5
227
100
AcDbEntity
8
0
62
256
6
ByLayer
370
-2
48
1
60
0
100
AcDbLine
10
64
20
1.5875
30
0
11
64
21
24.00759
31
0
39
0
210
0
220
0
230
1
0
LINE
5
228
100
AcDbEntity
8
0
62
256
6
ByLayer
370
-2
48
1
60
0
100
AcDbLine
10
15.981335
20
5.5875
30
0
11
15.981335
21
24.00759
31
0
39
0
210
0
220
0
230
1
0
LINE
5
229
100
AcDbEntity
8
0
62
256
6
ByLayer
370
-2
48
1
60
0
100
AcDbLine
10
60.5
20
22.00759
30
0
11
19.481335
21
22.00759
31
0
39
0
210
0
220
0
230
1
0
SOLID
5
22A
100
AcDbEntity
8
0
62
256
6
ByLayer
370
-1
48
1
60
0
100
AcDbTrace
10
60.5
20
21.424257
30
0
11
60.5
21
22.590924
31
0
12
64
22
22.00759
32
0
13
64
23
22.00759
33
0
39
0
210
0
220
0
230
1
0
SOLID
5
22B
100
AcDbEntity
8
0
62
256
6
ByLayer
370
-1
48
1
60
0
100
AcDbTrace
10
19.481335
20
22.590924
30
0
11
19.481335
21
21.424257
31
0
12
15.981335
22
22.00759
32
0
13
15.981335
23
22.00759
33
0
39
0
210
0
220
0
230
1
0
MTEXT
5
22C
100
AcDbEntity
8
0
62
256
6
ByLayer
370
18
48
1
60
0
100
AcDbMText
10
39.990668
20
28.00759
30
0
210
0
220
0
230
1
1
\A1;48.02
40
3
41
0
44
1
50
0
71
5
72
5
7
iso_b_vert
0
POINT
5
22D
100
AcDbEntity
8
Defpoints
62
0
6
ByLayer
370
-1
48
1
60
0
100
AcDbPoint
10
64
20
0
30
0
39
0
210
0
220
0
230
1
50
360
0
POINT
5
22E
100
AcDbEntity
8
Defpoints
62
0
6
ByLayer
370
-1
48
1
60
0
100
AcDbPoint
10
15.981335
20
4
30
0
39
0
210
0
220
0
230
1
50
360
0
POINT
5
22F
100
AcDbEntity
8
Defpoints
62
0
6
ByLayer
370
-1
48
1
60
0
100
AcDbPoint
10
15.981335
20
22.00759
30
0
39
0
210
0
220
0
230
1
50
360
0
ENDBLK
5
226
100
AcDbEntity
8
0
100
AcDbBlockEnd
0
BLOCK
5
237
100
AcDbEntity
8
0
100
AcDbBlockBegin
2
_U1
70
0
10
0
20
0
30
0
3
_U1
0
MTEXT
5
231
100
AcDbEntity
8
2
62
256
6
ByLayer
370
18
48
1
60
0
100
AcDbMText
10
38.199897
20
22.892705
30
0
210
0
220
0
230
1
1
\W0.7361;48
40
3
41
0
44
1.084337
50
0
71
7
72
5
7
iso_b_vert
0
LINE
5
232
100
AcDbEntity
8
2
62
256
6
ByLayer
370
13
48
1
60
0
100
AcDbLine
10
64
20
1.5875
30
0
11
64
21
24.00759
31
0
39
0
210
0
220
0
230
1
0
LINE
5
233
100
AcDbEntity
8
2
62
256
6
ByLayer
370
13
48
1
60
0
100
AcDbLine
10
15.981335
20
5.5875
30
0
11
15.981335
21
24.00759
31
0
39
0
210
0
220
0
230
1
0
LINE
5
234
100
AcDbEntity
8
2
62
256
6
ByLayer
370
13
48
1
60
0
100
AcDbLine
10
64
20
22.00759
30
0
11
15.981335
21
22.00759
31
0
39
0
210
0
220
0
230
1
0
SOLID
5
235
100
AcDbEntity
8
2
62
256
6
ByLayer
370
18
48
1
60
0
100
AcDbTrace
10
64
20
22.00759
30
0
11
60.500002
21
21.546807
31
0
12
60.499998
22
22.468374
32
0
13
60.499998
23
22.468374
33
0
39
0
210
0
220
0
230
1
0
SOLID
5
236
100
AcDbEntity
8
2
62
256
6
ByLayer
370
18
48
1
60
0
100
AcDbTrace
10
15.981335
20
22.00759
30
0
11
19.481334
21
22.468374
31
0
12
19.481337
22
21.546807
32
0
13
19.481337
23
21.546807
33
0
39
0
210
0
220
0
230
1
0
ENDBLK
5
238
100
AcDbEntity
8
0
100
AcDbBlockEnd
0
BLOCK
5
23D
100
AcDbEntity
8
0
100
AcDbBlockBegin
2
*D5
70
1
10
0
20
0
30
0
3
*D5
0
LINE
5
23F
100
AcDbEntity
8
0
62
256
6
ByLayer
370
-2
48
1
60
0
100
AcDbLine
10
64
20
1.5875
30
0
11
64
21
34.00759
31
0
39
0
210
0
220
0
230
1
0
LINE
5
240
100
AcDbEntity
8
0
62
256
6
ByLayer
370
-2
48
1
60
0
100
AcDbLine
10
-36
20
1.5875
30
0
11
-36
21
34.00759
31
0
39
0
210
0
220
0
230
1
0
LINE
5
241
100
AcDbEntity
8
0
62
256
6
ByLayer
370
-2
48
1
60
0
100
AcDbLine
10
60.5
20
32.00759
30
0
11
-32.5
21
32.00759
31
0
39
0
210
0
220
0
230
1
0
SOLID
5
242
100
AcDbEntity
8
0
62
256
6
ByLayer
370
-1
48
1
60
0
100
AcDbTrace
10
60.5
20
31.424257
30
0
11
60.5
21
32.590924
31
0
12
64
22
32.00759
32
0
13
64
23
32.00759
33
0
39
0
210
0
220
0
230
1
0
SOLID
5
243
100
AcDbEntity
8
0
62
256
6
ByLayer
370
-1
48
1
60
0
100
AcDbTrace
10
-32.5
20
32.590924
30
0
11
-32.5
21
31.424257
31
0
12
-36
22
32.00759
32
0
13
-36
23
32.00759
33
0
39
0
210
0
220
0
230
1
0
MTEXT
5
244
100
AcDbEntity
8
0
62
256
6
ByLayer
370
18
48
1
60
0
100
AcDbMText
10
14
20
38.00759
30
0
210
0
220
0
230
1
1
\A1;100
40
3
41
0
44
1
50
0
71
5
72
5
7
iso_b_vert
0
POINT
5
245
100
AcDbEntity
8
Defpoints
62
0
6
ByLayer
370
-1
48
1
60
0
100
AcDbPoint
10
64
20
0
30
0
39
0
210
0
220
0
230
1
50
360
0
POINT
5
246
100
AcDbEntity
8
Defpoints
62
0
6
ByLayer
370
-1
48
1
60
0
100
AcDbPoint
10
-36
20
0
30
0
39
0
210
0
220
0
230
1
50
360
0
POINT
5
247
100
AcDbEntity
8
Defpoints
62
0
6
ByLayer
370
-1
48
1
60
0
100
AcDbPoint
10
-36
20
32.00759
30
0
39
0
210
0
220
0
230
1
50
360
0
ENDBLK
5
23E
100
AcDbEntity
8
0
100
AcDbBlockEnd
0
BLOCK
5
24F
100
AcDbEntity
8
0
100
AcDbBlockBegin
2
_U2
70
0
10
0
20
0
30
0
3
_U2
0
MTEXT
5
249
100
AcDbEntity
8
SK2
62
256
6
ByLayer
370
18
48
1
60
0
100
AcDbMText
10
11.621201
20
32.892705
30
0
210
0
220
0
230
1
1
\W0.6217;100
40
3
41
0
44
1.084337
50
0
71
7
72
5
7
iso_b_vert
0
LINE
5
24A
100
AcDbEntity
8
SK2
62
256
6
ByLayer
370
13
48
1
60
0
100
AcDbLine
10
64
20
1.5875
30
0
11
64
21
34.00759
31
0
39
0
210
0
220
0
230
1
0
LINE
5
24B
100
AcDbEntity
8
SK2
62
256
6
ByLayer
370
13
48
1
60
0
100
AcDbLine
10
-36
20
1.5875
30
0
11
-36
21
34.00759
31
0
39
0
210
0
220
0
230
1
0
LINE
5
24C
100
AcDbEntity
8
SK2
62
256
6
ByLayer
370
13
48
1
60
0
100
AcDbLine
10
64
20
32.00759
30
0
11
-36
21
32.00759
31
0
39
0
210
0
220
0
230
1
0
SOLID
5
24D
100
AcDbEntity
8
SK2
62
256
6
ByLayer
370
18
48
1
60
0
100
AcDbTrace
10
64
20
32.00759
30
0
11
60.500002
21
31.546807
31
0
12
60.499998
22
32.468374
32
0
13
60.499998
23
32.468374
33
0
39
0
210
0
220
0
230
1
0
SOLID
5
24E
100
AcDbEntity
8
SK2
62
256
6
ByLayer
370
18
48
1
60
0
100
AcDbTrace
10
-36
20
32.00759
30
0
11
-32.500002
21
32.468374
31
0
12
-32.499998
22
31.546807
32
0
13
-32.499998
23
31.546807
33
0
39
0
210
0
220
0
230
1
0
ENDBLK
5
250
100
AcDbEntity
8
0
100
AcDbBlockEnd
0
BLOCK
5
255
100
AcDbEntity
8
0
100
AcDbBlockBegin
2
*D7
70
1
10
0
20
0
30
0
3
*D7
0
LINE
5
257
100
AcDbEntity
8
0
62
256
6
ByLayer
370
-2
48
1
60
0
100
AcDbLine
10
-36
20
-1.5875
30
0
11
-36
21
-19.66989
31
0
39
0
210
0
220
0
230
1
0
LINE
5
258
100
AcDbEntity
8
0
62
256
6
ByLayer
370
-2
48
1
60
0
100
AcDbLine
10
0.6
20
-5.5875
30
0
11
0.6
21
-19.66989
31
0
39
0
210
0
220
0
230
1
0
LINE
5
259
100
AcDbEntity
8
0
62
256
6
ByLayer
370
-2
48
1
60
0
100
AcDbLine
10
-32.5
20
-17.66989
30
0
11
-2.9
21
-17.66989
31
0
39
0
210
0
220
0
230
1
0
SOLID
5
25A
100
AcDbEntity
8
0
62
256
6
ByLayer
370
-1
48
1
60
0
100
AcDbTrace
10
-32.5
20
-17.086557
30
0
11
-32.5
21
-18.253223
31
0
12
-36
22
-17.66989
32
0
13
-36
23
-17.66989
33
0
39
0
210
0
220
0
230
1
0
SOLID
5
25B
100
AcDbEntity
8
0
62
256
6
ByLayer
370
-1
48
1
60
0
100
AcDbTrace
10
-2.9
20
-18.253223
30
0
11
-2.9
21
-17.086557
31
0
12
0.6
22
-17.66989
32
0
13
0.6
23
-17.66989
33
0
39
0
210
0
220
0
230
1
0
MTEXT
5
25C
100
AcDbEntity
8
0
62
256
6
ByLayer
370
18
48
1
60
0
100
AcDbMText
10
-17.7
20
-11.66989
30
0
210
0
220
0
230
1
1
\A1;36.6
40
3
41
0
44
1
50
0
71
5
72
5
7
iso_b_vert
0
POINT
5
25D
100
AcDbEntity
8
Defpoints
62
0
6
ByLayer
370
-1
48
1
60
0
100
AcDbPoint
10
-36
20
0
30
0
39
0
210
0
220
0
230
1
50
360
0
POINT
5
25E
100
AcDbEntity
8
Defpoints
62
0
6
ByLayer
370
-1
48
1
60
0
100
AcDbPoint
10
0.6
20
-4
30
0
39
0
210
0
220
0
230
1
50
360
0
POINT
5
25F
100
AcDbEntity
8
Defpoints
62
0
6
ByLayer
370
-1
48
1
60
0
100
AcDbPoint
10
0.6
20
-17.66989
30
0
39
0
210
0
220
0
230
1
50
360
0
ENDBLK
5
256
100
AcDbEntity
8
0
100
AcDbBlockEnd
0
BLOCK
5
267
100
AcDbEntity
8
0
100
AcDbBlockBegin
2
_U3
70
0
10
0
20
0
30
0
3
_U3
0
MTEXT
5
261
100
AcDbEntity
8
SK2
62
256
6
ByLayer
370
18
48
1
60
0
100
AcDbMText
10
-25.264913
20
-16.784776
30
0
210
0
220
0
230
1
1
\W0.7245;(MIN. 36)
40
3
41
0
44
1.084337
50
0
71
7
72
5
7
iso_b_vert
0
LINE
5
262
100
AcDbEntity
8
SK2
62
256
6
ByLayer
370
13
48
1
60
0
100
AcDbLine
10
-36
20
-1.5875
30
0
11
-36
21
-19.66989
31
0
39
0
210
0
220
0
230
1
0
LINE
5
263
100
AcDbEntity
8
SK2
62
256
6
ByLayer
370
13
48
1
60
0
100
AcDbLine
10
0.6
20
-5.5875
30
0
11
0.6
21
-19.66989
31
0
39
0
210
0
220
0
230
1
0
LINE
5
264
100
AcDbEntity
8
SK2
62
256
6
ByLayer
370
13
48
1
60
0
100
AcDbLine
10
-36
20
-17.66989
30
0
11
0.6
21
-17.66989
31
0
39
0
210
0
220
0
230
1
0
SOLID
5
265
100
AcDbEntity
8
SK2
62
256
6
ByLayer
370
18
48
1
60
0
100
AcDbTrace
10
-36
20
-17.66989
30
0
11
-32.500002
21
-17.209106
31
0
12
-32.499998
22
-18.130674
32
0
13
-32.499998
23
-18.130674
33
0
39
0
210
0
220
0
230
1
0
SOLID
5
266
100
AcDbEntity
8
SK2
62
256
6
ByLayer
370
18
48
1
60
0
100
AcDbTrace
10
0.6
20
-17.66989
30
0
11
-2.899998
21
-18.130674
31
0
12
-2.900002
22
-17.209106
32
0
13
-2.900002
23
-17.209106
33
0
39
0
210
0
220
0
230
1
0
ENDBLK
5
268
100
AcDbEntity
8
0
100
AcDbBlockEnd
0
BLOCK
5
26D
100
AcDbEntity
8
0
100
AcDbBlockBegin
2
*D9
70
1
10
0
20
0
30
0
3
*D9
0
LINE
5
26F
100
AcDbEntity
8
0
62
256
6
ByLayer
370
-2
48
1
60
0
100
AcDbLine
10
64
20
-1.5875
30
0
11
64
21
-13.5
31
0
39
0
210
0
220
0
230
1
0
LINE
5
270
100
AcDbEntity
8
0
62
256
6
ByLayer
370
-2
48
1
60
0
100
AcDbLine
10
57.706
20
1.689322
30
0
11
57.706
21
-13.5
31
0
39
0
210
0
220
0
230
1
0
LINE
5
271
100
AcDbEntity
8
0
62
256
6
ByLayer
370
-2
48
1
60
0
100
AcDbLine
10
64
20
-11.5
30
0
11
88.857143
21
-11.5
31
0
39
0
210
0
220
0
230
1
0
LINE
5
272
100
AcDbEntity
8
0
62
256
6
ByLayer
370
-2
48
1
60
0
100
AcDbLine
10
67.5
20
-11.5
30
0
11
71
21
-11.5
31
0
39
0
210
0
220
0
230
1
0
LINE
5
273
100
AcDbEntity
8
0
62
256
6
ByLayer
370
-2
48
1
60
0
100
AcDbLine
10
54.206
20
-11.5
30
0
11
50.706
21
-11.5
31
0
39
0
210
0
220
0
230
1
0
SOLID
5
274
100
AcDbEntity
8
0
62
256
6
ByLayer
370
-1
48
1
60
0
100
AcDbTrace
10
67.5
20
-10.916667
30
0
11
67.5
21
-12.083333
31
0
12
64
22
-11.5
32
0
13
64
23
-11.5
33
0
39
0
210
0
220
0
230
1
0
SOLID
5
275
100
AcDbEntity
8
0
62
256
6
ByLayer
370
-1
48
1
60
0
100
AcDbTrace
10
54.206
20
-12.083333
30
0
11
54.206
21
-10.916667
31
0
12
57.706
22
-11.5
32
0
13
57.706
23
-11.5
33
0
39
0
210
0
220
0
230
1
0
MTEXT
5
276
100
AcDbEntity
8
0
62
256
6
ByLayer
370
18
48
1
60
0
100
AcDbMText
10
79.928571
20
-5.5
30
0
210
0
220
0
230
1
1
\A1;6.29
40
3
41
0
44
1
50
0
71
5
72
5
7
iso_b_vert
0
POINT
5
277
100
AcDbEntity
8
Defpoints
62
0
6
ByLayer
370
-1
48
1
60
0
100
AcDbPoint
10
64
20
0
30
0
39
0
210
0
220
0
230
1
50
360
0
POINT
5
278
100
AcDbEntity
8
Defpoints
62
0
6
ByLayer
370
-1
48
1
60
0
100
AcDbPoint
10
57.706
20
3.276822
30
0
39
0
210
0
220
0
230
1
50
360
0
POINT
5
279
100
AcDbEntity
8
Defpoints
62
0
6
ByLayer
370
-1
48
1
60
0
100
AcDbPoint
10
57.706
20
-11.5
30
0
39
0
210
0
220
0
230
1
50
360
0
ENDBLK
5
26E
100
AcDbEntity
8
0
100
AcDbBlockEnd
0
BLOCK
5
281
100
AcDbEntity
8
0
100
AcDbBlockBegin
2
_U4
70
0
10
0
20
0
30
0
3
_U4
0
MTEXT
5
27B
100
AcDbEntity
8
SK2
62
256
6
ByLayer
370
18
48
1
60
0
100
AcDbMText
10
74.159
20
-10.614886
30
0
210
0
220
0
230
1
1
\W0.7457;6.29
40
3
41
0
44
1.084337
50
0
71
7
72
5
7
iso_b_vert
0
LINE
5
27C
100
AcDbEntity
8
SK2
62
256
6
ByLayer
370
13
48
1
60
0
100
AcDbLine
10
64
20
-1.5875
30
0
11
64
21
-13.5
31
0
39
0
210
0
220
0
230
1
0
LINE
5
27D
100
AcDbEntity
8
SK2
62
256
6
ByLayer
370
13
48
1
60
0
100
AcDbLine
10
57.706
20
1.689322
30
0
11
57.706
21
-13.5
31
0
39
0
210
0
220
0
230
1
0
LINE
5
27E
100
AcDbEntity
8
SK2
62
256
6
ByLayer
370
13
48
1
60
0
100
AcDbLine
10
50.206
20
-11.5
30
0
11
81.040913
21
-11.5
31
0
39
0
210
0
220
0
230
1
0
SOLID
5
27F
100
AcDbEntity
8
SK2
62
256
6
ByLayer
370
18
48
1
60
0
100
AcDbTrace
10
64
20
-11.5
30
0
11
67.499998
21
-11.039216
31
0
12
67.500002
22
-11.960784
32
0
13
67.500002
23
-11.960784
33
0
39
0
210
0
220
0
230
1
0
SOLID
5
280
100
AcDbEntity
8
SK2
62
256
6
ByLayer
370
18
48
1
60
0
100
AcDbTrace
10
57.706
20
-11.5
30
0
11
54.206002
21
-11.960784
31
0
12
54.205998
22
-11.039216
32
0
13
54.205998
23
-11.039216
33
0
39
0
210
0
220
0
230
1
0
ENDBLK
5
282
100
AcDbEntity
8
0
100
AcDbBlockEnd
0
ENDSEC
0
SECTION
2
ENTITIES
0
ARC
5
115
100
AcDbEntity
8
1
62
256
6
ByLayer
370
18
48
1
60
0
100
AcDbCircle
39
0
10
35.999417
20
4.2765
30
0
40
1
210
0
220
0
230
1
100
AcDbArc
50
267.928229
51
270
0
ARC
5
116
100
AcDbEntity
8
1
62
256
6
ByLayer
370
18
48
1
60
0
100
AcDbCircle
39
0
10
35.999417
20
-4.2765
30
0
40
1
210
0
220
0
230
1
100
AcDbArc
50
90
51
92.071771
0
ARC
5
117
100
AcDbEntity
8
81
62
256
6
ByLayer
370
18
48
1
60
0
100
AcDbCircle
39
0
10
57.517139
20
-3.479949
30
0
40
0.291700786183139
210
0
220
0
230
1
100
AcDbArc
50
49.847137
51
90
0
ARC
5
118
100
AcDbEntity
8
81
62
256
6
ByLayer
370
18
48
1
60
0
100
AcDbCircle
39
0
10
57.517139
20
3.479949
30
0
40
0.291700786183139
210
0
220
0
230
1
100
AcDbArc
50
270
51
310.152863
0
ARC
5
119
100
AcDbEntity
8
81
62
256
6
ByLayer
370
18
48
1
60
0
100
AcDbCircle
39
0
10
57.217139
20
-9.488509
30
0
40
6.30026114211196
210
0
220
0
230
1
100
AcDbArc
50
90
51
99.618834
0
ARC
5
11A
100
AcDbEntity
8
81
62
256
6
ByLayer
370
18
48
1
60
0
100
AcDbCircle
39
0
10
57.217139
20
9.488509
30
0
40
6.30026114211196
210
0
220
0
230
1
100
AcDbArc
50
260.381166
51
270
0
ARC
5
11B
100
AcDbEntity
8
81
62
256
6
ByLayer
370
18
48
1
60
0
100
AcDbCircle
39
0
10
60
20
0
30
0
40
3.9843
210
0
220
0
230
1
100
AcDbArc
50
80.019613
51
125.152863
0
ARC
5
11C
100
AcDbEntity
8
81
62
256
6
ByLayer
370
18
48
1
60
0
100
AcDbCircle
39
0
10
60
20
0
30
0
40
3.9843
210
0
220
0
230
1
100
AcDbArc
50
359.999998
51
78.16579
0
ARC
5
11D
100
AcDbEntity
8
81
62
256
6
ByLayer
370
18
48
1
60
0
100
AcDbCircle
39
0
10
60
20
0
30
0
40
3.9843
210
0
220
0
230
1
100
AcDbArc
50
275.424048
51
359.03007
0
ARC
5
11E
100
AcDbEntity
8
81
62
256
6
ByLayer
370
18
48
1
60
0
100
AcDbCircle
39
0
10
60
20
0
30
0
40
3.9843
210
0
220
0
230
1
100
AcDbArc
50
234.847137
51
262.810981
0
ARC
5
11F
100
AcDbEntity
8
SK2
62
256
6
ByLayer
370
13
48
1
60
0
100
AcDbCircle
39
0
10
126.707443
20
0
30
0
40
123.617748213282
210
0
220
0
230
1
100
AcDbArc
50
177.93108
51
183.471931
0
ARC
5
120
100
AcDbEntity
8
SK2
62
256
6
ByLayer
370
13
48
1
60
0
100
AcDbCircle
39
0
10
126.707443
20
0
30
0
40
123.617748213282
210
0
220
0
230
1
100
AcDbArc
50
171.880482
51
177.93108
0
ELLIPSE
5
121
100
AcDbEntity
8
1
62
256
6
ByLayer
370
18
48
1
60
0
100
AcDbEllipse
10
63.722894
20
0.736857
30
0
11
0.128356106856791
21
0.20162142005145
31
0
210
0
220
0
230
1
40
0.079532
41
1.3444796972243
42
2.04039109321875
0
ELLIPSE
5
122
100
AcDbEntity
8
1
62
256
6
ByLayer
370
18
48
1
60
0
100
AcDbEllipse
10
62.609249
20
2.212789
30
0
11
1.12951210130625
21
-1.37839871568675
31
0
210
0
220
0
230
1
40
0.119228
41
-0.0794452409491
42
-0.0654330694352961
0
ELLIPSE
5
123
100
AcDbEntity
8
1
62
256
6
ByLayer
370
18
48
1
60
0
100
AcDbEllipse
10
63.722328
20
-0.90038
30
0
11
0.11979741525774
21
-0.202158898411517
31
0
210
0
220
0
230
1
40
0.118759
41
2.22239351441089
42
-1.92276345907496
0
ELLIPSE
5
124
100
AcDbEntity
8
1
62
256
6
ByLayer
370
18
48
1
60
0
100
AcDbEllipse
10
63.722894
20
-0.714997
30
0
11
0.127848831509232
21
-0.20123975398911
31
0
210
0
220
0
230
1
40
0.097768
41
2.89150552121721
42
-1.29616217138903
0
ELLIPSE
5
125
100
AcDbEntity
8
1
62
256
6
ByLayer
370
18
48
1
60
0
100
AcDbEllipse
10
56.399593
20
-12.984033
30
0
11
6.82592665095876
21
8.0675273564082
31
0
210
0
220
0
230
1
40
0.894024
41
0.646563539332359
42
0.725191509187775
0
ELLIPSE
5
126
100
AcDbEntity
8
1
62
256
6
ByLayer
370
18
48
1
60
0
100
AcDbEllipse
10
56.486122
20
5.327458
30
0
11
-10.0983670880685
21
3.75851240194042
31
0
210
0
220
0
230
1
40
0.196399
41
1.69141502110571
42
1.75453010054038
0
ELLIPSE
5
127
100
AcDbEntity
8
1
62
256
6
ByLayer
370
18
48
1
60
0
100
AcDbEllipse
10
56.399593
20
5.094973
30
0
11
-9.90405322979165
21
3.68619070479542
31
0
210
0
220
0
230
1
40
0.196399
41
1.67643660554811
42
1.75506457540352
0
ELLIPSE
5
128
100
AcDbEntity
8
1
62
256
6
ByLayer
370
18
48
1
60
0
100
AcDbEllipse
10
56.486122
20
-13.057245
30
0
11
6.95984880516051
21
8.22580925685902
31
0
210
0
220
0
230
1
40
0.894024
41
0.647098014195504
42
0.710213093630191
0
ELLIPSE
5
129
100
AcDbEntity
8
1
62
256
6
ByLayer
370
18
48
1
60
0
100
AcDbEllipse
10
63.936994
20
0
30
0
11
10.2077488251527
21
-0.187557056182279
31
0
210
0
220
0
230
1
40
0.320455
41
-2.6242400466249
42
-2.24883876304393
0
ELLIPSE
5
12A
100
AcDbEntity
8
1
62
256
6
ByLayer
370
18
48
1
60
0
100
AcDbEllipse
10
63.936994
20
0
30
0
11
10.2009361553346
21
-3.01747653070489
31
0
210
0
220
0
230
1
40
0.125168
41
-2.59311984955121
42
-2.2177185659521
0
ELLIPSE
5
12B
100
AcDbEntity
8
1
62
256
6
ByLayer
370
18
48
1
60
0
100
AcDbEllipse
10
56.486122
20
-7.35464
30
0
11
-9.54674919976924
21
4.99629993471457
31
0
210
0
220
0
230
1
40
0.675229
41
-1.34187770167253
42
-1.27876262223789
0
ELLIPSE
5
12C
100
AcDbEntity
8
1
62
256
6
ByLayer
370
18
48
1
60
0
100
AcDbEllipse
10
56.399593
20
-7.519977
30
0
11
-9.3630496318263
21
4.90016059763609
31
0
210
0
220
0
230
1
40
0.675229
41
-1.34241217653567
42
-1.26378420668023
0
ELLIPSE
5
12D
100
AcDbEntity
8
1
62
256
6
ByLayer
370
18
48
1
60
0
100
AcDbEllipse
10
63.936994
20
0
30
0
11
10.1975930977159
21
-2.82700784577118
31
0
210
0
220
0
230
1
40
0.162425
41
2.29972432284182
42
2.6116006588007
0
ELLIPSE
5
12E
100
AcDbEntity
8
1
62
256
6
ByLayer
370
18
48
1
60
0
100
AcDbEllipse
10
63.936994
20
0
30
0
11
10.1968529458942
21
2.77025504188338
31
0
210
0
220
0
230
1
40
0.171583
41
-2.46142289442661
42
-2.34632725938423
0
ELLIPSE
5
12F
100
AcDbEntity
8
1
62
256
6
ByLayer
370
18
48
1
60
0
100
AcDbEllipse
10
63.936994
20
0
30
0
11
10.1968529458942
21
2.77025504188338
31
0
210
0
220
0
230
1
40
0.171583
41
-2.67670965368404
42
-2.48289114877165
0
POINT
5
70
100
AcDbEntity
8
81
62
256
6
ByLayer
370
18
48
1
60
0
100
AcDbPoint
10
64
20
0
30
0
39
0
210
0
220
0
230
1
50
360
0
POINT
5
72
100
AcDbEntity
8
80
62
256
6
ByLayer
370
18
48
1
60
0
100
AcDbPoint
10
0
20
0
30
0
39
0
210
0
220
0
230
1
50
360
0
POINT
5
74
100
AcDbEntity
8
1
62
256
6
ByLayer
370
18
48
1
60
1
100
AcDbPoint
10
64
20
0
30
0
39
0
210
0
220
0
230
1
50
360
0
POINT
5
76
100
AcDbEntity
8
1
62
256
6
ByLayer
370
18
48
1
60
1
100
AcDbPoint
10
36
20
3.276822
30
0
39
0
210
0
220
0
230
1
50
360
0
POINT
5
77
100
AcDbEntity
8
1
62
256
6
ByLayer
370
18
48
1
60
1
100
AcDbPoint
10
64
20
0
30
0
39
0
210
0
220
0
230
1
50
360
0
POINT
5
78
100
AcDbEntity
8
1
62
256
6
ByLayer
370
18
48
1
60
1
100
AcDbPoint
10
15.981335
20
4
30
0
39
0
210
0
220
0
230
1
50
360
0
POINT
5
79
100
AcDbEntity
8
1
62
256
6
ByLayer
370
18
48
1
60
1
100
AcDbPoint
10
64
20
0
30
0
39
0
210
0
220
0
230
1
50
360
0
POINT
5
7A
100
AcDbEntity
8
1
62
256
6
ByLayer
370
18
48
1
60
1
100
AcDbPoint
10
-36
20
0
30
0
39
0
210
0
220
0
230
1
50
360
0
POINT
5
7B
100
AcDbEntity
8
1
62
256
6
ByLayer
370
18
48
1
60
1
100
AcDbPoint
10
-36
20
0
30
0
39
0
210
0
220
0
230
1
50
360
0
POINT
5
7C
100
AcDbEntity
8
1
62
256
6
ByLayer
370
18
48
1
60
1
100
AcDbPoint
10
0.6
20
-4
30
0
39
0
210
0
220
0
230
1
50
360
0
POINT
5
7D
100
AcDbEntity
8
1
62
256
6
ByLayer
370
18
48
1
60
1
100
AcDbPoint
10
64
20
0
30
0
39
0
210
0
220
0
230
1
50
360
0
POINT
5
7E
100
AcDbEntity
8
1
62
256
6
ByLayer
370
18
48
1
60
1
100
AcDbPoint
10
57.706
20
3.276822
30
0
39
0
210
0
220
0
230
1
50
360
0
SPLINE
5
130
100
AcDbEntity
8
1
62
256
6
ByLayer
370
18
48
1
60
0
100
AcDbSpline
70
4
71
1
72
4
73
2
40
0
40
0
40
1
40
1
41
1
10
63.9881169399096
20
7.57609330151E-05
30
0
41
1
10
63.9757684362032
20
0.0646649954251473
30
0
0
SPLINE
5
131
100
AcDbEntity
8
1
62
256
6
ByLayer
370
18
48
1
60
0
100
AcDbSpline
70
4
71
2
72
6
73
3
40
0
40
0
40
0
40
1
40
1
40
1
41
1
10
61.5726286750811
20
2.22457857350318
30
0
41
1
10
61.245612566991
20
2.293477639207
30
0
41
1
10
60.8138905655702
20
2.40522743574067
30
0
0
SPLINE
5
132
100
AcDbEntity
8
1
62
256
6
ByLayer
370
18
48
1
60
0
100
AcDbSpline
70
4
71
3
72
8
73
4
40
0
40
0
40
0
40
0
40
1
40
1
40
1
40
1
41
1
10
63.6941188502154
20
-0.583999511163711
30
0
41
1
10
63.6818216849729
20
-0.604288511985715
30
0
41
1
10
63.6693467444257
20
-0.624678149124833
30
0
41
1
10
63.6567007063947
20
-0.645158782215731
30
0
0
SPLINE
5
133
100
AcDbEntity
8
1
62
256
6
ByLayer
370
18
48
1
60
0
100
AcDbSpline
70
4
71
3
72
8
73
4
40
0
40
0
40
0
40
0
40
1
40
1
40
1
40
1
41
1
10
63.9783865675411
20
-0.0569369868365186
30
0
41
1
10
63.9814680626855
20
-0.0575426528627077
30
0
41
1
10
63.9845215974661
20
-0.0581484896952418
30
0
41
1
10
63.9875474570339
20
-0.0587544955922397
30
0
0
SPLINE
5
134
100
AcDbEntity
8
1
62
256
6
ByLayer
370
18
48
1
60
0
100
AcDbSpline
70
4
71
3
72
12
73
8
40
0
40
0
40
0
40
0
40
0.25
40
0.25
40
0.5
40
0.5
40
1
40
1
40
1
40
1
41
1
10
60.9009879875006
20
3.86848926304088
30
0
41
1
10
60.8934011100956
20
3.87060973108004
30
0
41
1
10
60.8861089609688
20
3.87350959696997
30
0
41
1
10
60.8718069671579
20
3.88004045326068
30
0
41
1
10
60.8648063247868
20
3.88369619909233
30
0
41
1
10
60.8440897383438
20
3.8953870162745
30
0
41
1
10
60.8306545877727
20
3.90413336036642
30
0
41
1
10
60.8174291241822
20
3.91338228804588
30
0
0
SPLINE
5
135
100
AcDbEntity
8
1
62
256
6
ByLayer
370
18
48
1
60
0
100
AcDbSpline
70
4
71
3
72
8
73
4
40
0
40
0
40
0
40
0
40
1
40
1
40
1
40
1
41
1
10
63.7360695211243
20
0.792046715301268
30
0
41
1
10
63.7361327910875
20
0.792442198995246
30
0
41
1
10
63.7361952243858
20
0.792836405108147
30
0
41
1
10
63.7362568179401
20
0.793229328937969
30
0
0
SPLINE
5
136
100
AcDbEntity
8
1
62
256
6
ByLayer
370
18
48
1
60
0
100
AcDbSpline
70
4
71
3
72
8
73
4
40
0
40
0
40
0
40
0
40
1
40
1
40
1
40
1
41
1
10
63.7362568179374
20
0.793229328945273
30
0
41
1
10
63.731575158763
20
0.804841739080729
30
0
41
1
10
63.7268750695801
20
0.816448603263723
30
0
41
1
10
63.7221563696964
20
0.828049867120484
30
0
0
SPLINE
5
137
100
AcDbEntity
8
1
62
256
6
ByLayer
370
18
48
1
60
0
100
AcDbSpline
70
4
71
3
72
8
73
4
40
0
40
0
40
0
40
0
40
1
40
1
40
1
40
1
41
1
10
63.7981102111764
20
1.13222692680191
30
0
41
1
10
63.816884099777
20
1.07609660667239
30
0
41
1
10
63.8343788134452
20
1.01967459191602
30
0
41
1
10
63.850590442908
20
0.962959991087899
30
0
0
SPLINE
5
138
100
AcDbEntity
8
1
62
256
6
ByLayer
370
18
48
1
60
0
100
AcDbSpline
70
4
71
3
72
8
73
4
40
0
40
0
40
0
40
0
40
1
40
1
40
1
40
1
41
1
10
63.7360695211243
20
0.792046715301268
30
0
41
1
10
63.7314391912907
20
0.804082748997217
30
0
41
1
10
63.7268018347174
20
0.816083774275967
30
0
41
1
10
63.7221563696964
20
0.828049867120455
30
0
0
SPLINE
5
139
100
AcDbEntity
8
1
62
256
6
ByLayer
370
18
48
1
60
0
100
AcDbSpline
70
4
71
3
72
22
73
18
40
0
40
0
40
0
40
0
40
0.250000000000005
40
0.250000000000005
40
0.312500000000012
40
0.312500000000012
40
0.37500000000002
40
0.37500000000002
40
0.500000000000022
40
0.500000000000022
40
0.750000000000015
40
0.750000000000015
40
0.875000000000008
40
0.875000000000008
40
0.937500000000004
40
0.937500000000004
40
1
40
1
40
1
40
1
41
1
10
62.8092899229129
20
2.74332148049635
30
0
41
1
10
62.9207795592593
20
2.62652938606763
30
0
41
1
10
63.0256143853743
20
2.50427231682249
30
0
41
1
10
63.1484842313023
20
2.34473845101226
30
0
41
1
10
63.1726465936776
20
2.31249365168318
30
0
41
1
10
63.2201399323786
20
2.24732129649075
30
0
41
1
10
63.2434924081255
20
2.21435885557955
30
0
41
1
10
63.3118990864593
20
2.11501634459512
30
0
41
1
10
63.3554289530574
20
2.04802311232623
30
0
41
1
10
63.4799608544424
20
1.84482044137493
30
0
41
1
10
63.5549360471121
20
1.70640042984164
30
0
41
1
10
63.6553410170333
20
1.49436258709997
30
0
41
1
10
63.6867944768044
20
1.42294678562311
30
0
41
1
10
63.7308980129286
20
1.31469965702522
30
0
41
1
10
63.7450859143922
20
1.27842984178091
30
0
41
1
10
63.7724200936241
20
1.20550983676568
30
0
41
1
10
63.7855657346483
20
1.16885504139358
30
0
41
1
10
63.7981102111764
20
1.13222692680191
30
0
0
SPLINE
5
13A
100
AcDbEntity
8
1
62
256
6
ByLayer
370
18
48
1
60
0
100
AcDbSpline
70
4
71
3
72
13
73
9
40
0
40
0
40
0
40
0
40
0.143069294542509
40
0.262396736448751
40
0.502422316564767
40
0.623128300250532
40
0.988000013695541
40
1
40
1
40
1
40
1
41
1
10
61.3808643578083
20
3.73503036039895
30
0
41
1
10
61.4516854037179
20
3.70588474895135
30
0
41
1
10
61.5819672115716
20
3.64753975816842
30
0
41
1
10
61.8316527238399
20
3.51834026183431
30
0
41
1
10
62.0683699576502
20
3.37207688980652
30
0
41
1
10
62.4168911446234
20
3.11841012337339
30
0
41
1
10
62.6439881003326
20
2.91565074053634
30
0
41
1
10
62.8042006604038
20
2.74865235620533
30
0
41
1
10
62.809289923869
20
2.7433214794948
30
0
0
SPLINE
5
13B
100
AcDbEntity
8
1
62
256
6
ByLayer
370
18
48
1
60
0
100
AcDbSpline
70
4
71
3
72
8
73
4
40
0
40
0
40
0
40
0
40
1
40
1
40
1
40
1
41
1
10
63.6114321230438
20
1.05336438367255
30
0
41
1
10
63.6735653941409
20
1.07983193691999
30
0
41
1
10
63.7358005309758
20
1.10610177420747
30
0
41
1
10
63.7981102111755
20
1.13222692680327
30
0
0
SPLINE
5
13C
100
AcDbEntity
8
1
62
256
6
ByLayer
370
18
48
1
60
0
100
AcDbSpline
70
4
71
3
72
12
73
8
40
0
40
0
40
0
40
0
40
0.249999999999983
40
0.249999999999983
40
0.499999999999966
40
0.499999999999966
40
1
40
1
40
1
40
1
41
1
10
60.9009879875021
20
3.86848926305879
30
0
41
1
10
60.9374599949449
20
3.85829564558225
30
0
41
1
10
60.9740099833024
20
3.84730642777228
30
0
41
1
10
61.0469013576169
20
3.82358631453568
30
0
41
1
10
61.0831953292474
20
3.8108712159044
30
0
41
1
10
61.1916036820399
20
3.76990567094177
30
0
41
1
10
61.2632825757132
20
3.7389768228428
30
0
41
1
10
61.3346982079777
20
3.70540662060554
30
0
0
SPLINE
5
13D
100
AcDbEntity
8
1
62
256
6
ByLayer
370
18
48
1
60
0
100
AcDbSpline
70
4
71
3
72
8
73
4
40
0
40
0
40
0
40
0
40
1
40
1
40
1
40
1
41
1
10
61.9621145244282
20
2.28521408972833
30
0
41
1
10
62.0257451142842
20
2.18836033376817
30
0
41
1
10
62.0913586698451
20
2.09269045067813
30
0
41
1
10
62.1590676586861
20
1.99827158600235
30
0
0
SPLINE
5
13E
100
AcDbEntity
8
1
62
256
6
ByLayer
370
18
48
1
60
0
100
AcDbSpline
70
4
71
3
72
12
73
8
40
0
40
0
40
0
40
0
40
0.249999999999825
40
0.249999999999825
40
0.499999999999649
40
0.499999999999649
40
1
40
1
40
1
40
1
41
1
10
63.6114321230333
20
1.05336438368008
30
0
41
1
10
63.6068809670087
20
1.05142568059412
30
0
41
1
10
63.6019726334134
20
1.05080591619463
30
0
41
1
10
63.5920541375384
20
1.0504432941319
30
0
41
1
10
63.5871561907254
20
1.05076391651303
30
0
41
1
10
63.5725456512574
20
1.05240785174496
30
0
41
1
10
63.5628792654246
20
1.05443586740114
30
0
41
1
10
63.5533677660684
20
1.05679306803009
30
0
0
SPLINE
5
13F
100
AcDbEntity
8
1
62
256
6
ByLayer
370
18
48
1
60
0
100
AcDbSpline
70
4
71
3
72
19
73
15
40
0
40
0
40
0
40
0
40
0.297936549783772
40
0.297936549783772
40
0.473452412337718
40
0.473452412337718
40
0.648968274891664
40
0.648968274891664
40
0.736726206168748
40
0.736726206168748
40
0.824484137445832
40
0.912242068722916
40
0.912242068722916
40
1
40
1
40
1
40
1
41
1
10
63.3901340040424
20
1.00831106970665
30
0
41
1
10
63.4029147698319
20
1.0177315984516
30
0
41
1
10
63.4167485361053
20
1.02692295404344
30
0
41
1
10
63.4408473577337
20
1.04014119191854
30
0
41
1
10
63.4502934703532
20
1.04472976557426
30
0
41
1
10
63.4696854488833
20
1.05246862961772
30
0
41
1
10
63.4797001807236
20
1.05566285009993
30
0
41
1
10
63.4953188045286
20
1.05894574937878
30
0
41
1
10
63.5006263004983
20
1.05978164145392
30
0
41
1
10
63.511189133337
20
1.06083803953655
30
0
41
1
10
63.5217622590238
20
1.06129392334284
30
0
41
1
10
63.5323459345719
20
1.06050399470814
30
0
41
1
10
63.5429305219823
20
1.05909119603322
30
0
41
1
10
63.5482144111909
20
1.05807020540891
30
0
41
1
10
63.5533677660681
20
1.05679306802963
30
0
0
SPLINE
5
140
100
AcDbEntity
8
1
62
256
6
ByLayer
370
18
48
1
60
0
100
AcDbSpline
70
4
71
3
72
8
73
4
40
0
40
0
40
0
40
0
40
1
40
1
40
1
40
1
41
1
10
63.9783865675411
20
-0.0569369868364333
30
0
41
1
10
63.9816518293322
20
-0.0585889081577307
30
0
41
1
10
63.9848926784749
20
-0.0602405838714617
30
0
41
1
10
63.9881092850099
20
-0.0618920009395367
30
0
0
SPLINE
5
141
100
AcDbEntity
8
1
62
256
6
ByLayer
370
18
48
1
60
0
100
AcDbSpline
70
4
71
1
72
4
73
2
40
0
40
0
40
1
40
1
41
1
10
57.7081295480881
20
-3.03394670236202
30
0
41
1
10
57.708283544473
20
-3.03376206607592
30
0
0
SPLINE
5
142
100
AcDbEntity
8
1
62
256
6
ByLayer
370
18
48
1
60
0
100
AcDbSpline
70
4
71
3
72
8
73
4
40
0
40
0
40
0
40
0
40
1
40
1
40
1
40
1
41
1
10
61.9621145244169
20
2.28521408972139
30
0
41
1
10
61.901850426344
20
2.28065961614834
30
0
41
1
10
61.8415143225812
20
2.27704630253723
30
0
41
1
10
61.7811112622608
20
2.27430815353227
30
0
0
SPLINE
5
143
100
AcDbEntity
8
1
62
256
6
ByLayer
370
18
48
1
60
0
100
AcDbSpline
70
4
71
3
72
10
73
6
40
0
40
0
40
0
40
0
40
0.5
40
0.5
40
1
40
1
40
1
40
1
41
1
10
61.6528222599563
20
2.46613941073744
30
0
41
1
10
61.7028025179568
20
2.43381318827829
30
0
41
1
10
61.7534878910377
20
2.40267343208293
30
0
41
1
10
61.8565381886446
20
2.34249000329666
30
0
41
1
10
61.9088954528707
20
2.31343748453998
30
0
41
1
10
61.9621145244243
20
2.28521408972671
30
0
0
SPLINE
5
144
100
AcDbEntity
8
1
62
256
6
ByLayer
370
18
48
1
60
0
100
AcDbSpline
70
4
71
3
72
34
73
30
40
0
40
0
40
0
40
0
40
0.125000000000021
40
0.125000000000021
40
0.250000000000042
40
0.250000000000042
40
0.312500000000041
40
0.312500000000041
40
0.375000000000041
40
0.375000000000041
40
0.50000000000004
40
0.50000000000004
40
0.625000000000039
40
0.625000000000039
40
0.750000000000038
40
0.750000000000038
40
0.812500000000039
40
0.812500000000039
40
0.875000000000041
40
0.875000000000041
40
0.906250000000039
40
0.906250000000039
40
0.937500000000036
40
0.937500000000036
40
0.968750000000034
40
0.968750000000034
40
0.984375000000017
40
0.984375000000017
40
1
40
1
40
1
40
1
41
1
10
61.6528193353036
20
2.46614130234568
30
0
41
1
10
61.6278713863001
20
2.48227716438825
30
0
41
1
10
61.6051524012697
20
2.49990839376261
30
0
41
1
10
61.5636013135605
20
2.53833282137407
30
0
41
1
10
61.5447751120776
20
2.55912920089119
30
0
41
1
10
61.5191839762661
20
2.59297225745925
30
0
41
1
10
61.5111443586239
20
2.60463607807651
30
0
41
1
10
61.4960672113002
20
2.6285960219347
30
0
41
1
10
61.4890121231277
20
2.6409151058792
30
0
41
1
10
61.4691797771179
20
2.67891878172324
30
0
41
1
10
61.457726974452
20
2.70564569763278
30
0
41
1
10
61.4379139080923
20
2.76210848046679
30
0
41
1
10
61.4295298531877
20
2.79197561573494
30
0
41
1
10
61.4160533236659
20
2.8536534685764
30
0
41
1
10
61.410850915645
20
2.88557525724312
30
0
41
1
10
61.4060205282192
20
2.9354947585671
30
0
41
1
10
61.4049148860171
20
2.95251759269618
30
0
41
1
10
61.4042413141519
20
2.98701630302187
30
0
41
1
10
61.4046328524621
20
3.0045847739122
30
0
41
1
10
61.4074000121132
20
3.03104501665754
30
0
41
1
10
61.4086895597509
20
3.03989487784767
30
0
41
1
10
61.4125302113018
20
3.05765992382345
30
0
41
1
10
61.4150453736895
20
3.06648685253057
30
0
41
1
10
61.4223206266433
20
3.08354972089612
30
0
41
1
10
61.4269810109802
20
3.09154771788746
30
0
41
1
10
61.4366238932775
20
3.10162506789459
30
0
41
1
10
61.4401499208531
20
3.1045054832228
30
0
41
1
10
61.4478637871355
20
3.10925929096996
30
0
41
1
10
61.451990397414
20
3.1110821922864
30
0
41
1
10
61.4562286707117
20
3.11237667308609
30
0
0
SPLINE
5
145
100
AcDbEntity
8
1
62
256
6
ByLayer
370
18
48
1
60
0
100
AcDbSpline
70
4
71
3
72
44
73
40
40
0
40
0
40
0
40
0
40
0.125000000000076
40
0.125000000000076
40
0.187500000000096
40
0.187500000000096
40
0.250000000000116
40
0.250000000000116
40
0.375000000000155
40
0.375000000000155
40
0.437500000000175
40
0.437500000000175
40
0.500000000000195
40
0.500000000000195
40
0.531250000000204
40
0.531250000000204
40
0.546875000000201
40
0.546875000000201
40
0.562500000000198
40
0.562500000000198
40
0.593750000000193
40
0.593750000000193
40
0.625000000000187
40
0.625000000000187
40
0.656250000000181
40
0.656250000000181
40
0.687500000000176
40
0.687500000000176
40
0.71875000000017
40
0.71875000000017
40
0.750000000000164
40
0.750000000000164
40
0.812500000000123
40
0.812500000000123
40
0.875000000000082
40
0.875000000000082
40
0.937500000000041
40
0.937500000000041
40
1
40
1
40
1
40
1
41
1
10
61.3346982079772
20
3.70540662060557
30
0
41
1
10
61.3673885661279
20
3.690039807262
30
0
41
1
10
61.3995809762244
20
3.67341049794456
30
0
41
1
10
61.4468925191062
20
3.64611349342854
30
0
41
1
10
61.4624988171987
20
3.63661950236869
30
0
41
1
10
61.4933175485425
20
3.61670964571343
30
0
41
1
10
61.5085557957859
20
3.6062739725173
30
0
41
1
10
61.5531475656437
20
3.57358500554693
30
0
41
1
10
61.581537023475
20
3.54996696228673
30
0
41
1
10
61.6207525435241
20
3.51011288686635
30
0
41
1
10
61.6332552159824
20
3.49608070734288
30
0
41
1
10
61.6565818710445
20
3.46584829289105
30
0
41
1
10
61.667135621678
20
3.44999319434626
30
0
41
1
10
61.6805135384294
20
3.42478554570476
30
0
41
1
10
61.6845643098805
20
3.4161376934245
30
0
41
1
10
61.6898727747505
20
3.40270698520587
30
0
41
1
10
61.6915136997833
20
3.39815323163896
30
0
41
1
10
61.6945023886195
20
3.38887082930177
30
0
41
1
10
61.6958548710408
20
3.38411930433733
30
0
41
1
10
61.6993481630304
20
3.36981211406516
30
0
41
1
10
61.7009453875969
20
3.3601690520623
30
0
41
1
10
61.702458373711
20
3.34064241559105
30
0
41
1
10
61.7023527983175
20
3.33064819620526
30
0
41
1
10
61.7002789688242
20
3.31115766869704
30
0
41
1
10
61.6983353742521
20
3.30161958453891
30
0
41
1
10
61.6926704330206
20
3.28294913893834
30
0
41
1
10
61.6889139418993
20
3.27378793860529
30
0
41
1
10
61.6800573514002
20
3.25654146830035
30
0
41
1
10
61.674936000799
20
3.24835677905858
30
0
41
1
10
61.6635089152975
20
3.23273718287689
30
0
41
1
10
61.6572783358563
20
3.22541019355032
30
0
41
1
10
61.6375744762778
20
3.20482112155517
30
0
41
1
10
61.6230024944268
20
3.19279539129525
30
0
41
1
10
61.5919536471507
20
3.17109774739524
30
0
41
1
10
61.5758306699544
20
3.16167778112543
30
0
41
1
10
61.5427922555521
20
3.14476508568683
30
0
41
1
10
61.5258712248569
20
3.13728547265873
30
0
41
1
10
61.4914409020236
20
3.12379162167164
30
0
41
1
10
61.4738741718245
20
3.11776607598341
30
0
41
1
10
61.4562286707135
20
3.11237667308649
30
0
0
SPLINE
5
146
100
AcDbEntity
8
1
62
256
6
ByLayer
370
18
48
1
60
0
100
AcDbSpline
70
4
71
3
72
10
73
6
40
0
40
0
40
0
40
0
40
0.5
40
0.5
40
1
40
1
40
1
40
1
41
1
10
63.6728248373539
20
-0.513556513654294
30
0
41
1
10
63.6701605637724
20
-0.505057582864339
30
0
41
1
10
63.6679575662359
20
-0.495534198465179
30
0
41
1
10
63.6649297536334
20
-0.473771961886286
30
0
41
1
10
63.6640820712791
20
-0.461571770590496
30
0
41
1
10
63.6644139517836
20
-0.447239115310396
30
0
0
SPLINE
5
147
100
AcDbEntity
8
1
62
256
6
ByLayer
370
18
48
1
60
0
100
AcDbSpline
70
4
71
3
72
41
73
37
40
0
40
0
40
0
40
0
40
0.0625000000000335
40
0.0625000000000335
40
0.0937500000000503
40
0.0937500000000503
40
0.125000000000067
40
0.125000000000067
40
0.156250000000084
40
0.156250000000084
40
0.187500000000101
40
0.218750000000117
40
0.218750000000117
40
0.250000000000134
40
0.250000000000134
40
0.281250000000151
40
0.281250000000151
40
0.312500000000168
40
0.312500000000168
40
0.375000000000175
40
0.375000000000175
40
0.406250000000179
40
0.406250000000179
40
0.437500000000182
40
0.437500000000182
40
0.500000000000162
40
0.500000000000162
40
0.562500000000141
40
0.562500000000141
40
0.62500000000012
40
0.62500000000012
40
0.75000000000008
40
0.75000000000008
40
0.87500000000004
40
0.87500000000004
40
1
40
1
40
1
40
1
41
1
10
63.6644139517837
20
-0.447239115310254
30
0
41
1
10
63.6639853638245
20
-0.438039969936085
30
0
41
1
10
63.6639968773595
20
-0.428252843414384
30
0
41
1
10
63.6649095660142
20
-0.412404056105657
30
0
41
1
10
63.6653692691065
20
-0.406898930572197
30
0
41
1
10
63.6666109571403
20
-0.395744600630337
30
0
41
1
10
63.6673934823706
20
-0.390064449062578
30
0
41
1
10
63.6693134438304
20
-0.378477938716855
30
0
41
1
10
63.6704573779413
20
-0.372541953768803
30
0
41
1
10
63.6731158350215
20
-0.360541896028991
30
0
41
1
10
63.6760846725488
20
-0.34867183976337
30
0
41
1
10
63.6796432541365
20
-0.337049894865771
30
0
41
1
10
63.6834869542326
20
-0.325548688949624
30
0
41
1
10
63.6855335789161
20
-0.31991787485029
30
0
41
1
10
63.6897549043607
20
-0.309109819274312
30
0
41
1
10
63.6919430765573
20
-0.30389207415061
30
0
41
1
10
63.696451355879
20
-0.29378649958889
30
0
41
1
10
63.6987601442096
20
-0.288927193668229
30
0
41
1
10
63.7056948132953
20
-0.27508981802012
30
0
41
1
10
63.7103793927037
20
-0.266727272510167
30
0
41
1
10
63.7174459822961
20
-0.255132443062081
30
0
41
1
10
63.7198161180478
20
-0.251417189482794
30
0
41
1
10
63.7245032011552
20
-0.244360968428879
30
0
41
1
10
63.7268255571869
20
-0.241010124903625
30
0
41
1
10
63.7337324340202
20
-0.231410596907267
30
0
41
1
10
63.7382569524959
20
-0.22561103702148
30
0
41
1
10
63.7471566839326
20
-0.214936637731256
30
0
41
1
10
63.7515317818041
20
-0.21006413201718
30
0
41
1
10
63.7601381774656
20
-0.20107742774178
30
0
41
1
10
63.7643531342901
20
-0.196982471834616
30
0
41
1
10
63.7766412028312
20
-0.185778391416307
30
0
41
1
10
63.7844130753796
20
-0.179680214776511
30
0
41
1
10
63.7992508433796
20
-0.16944396219202
30
0
41
1
10
63.8063150128198
20
-0.16531602060158
30
0
41
1
10
63.8198052039374
20
-0.158620062329447
30
0
41
1
10
63.8262389180468
20
-0.156053800174845
30
0
41
1
10
63.8323454752932
20
-0.154153379298521
30
0
0
SPLINE
5
148
100
AcDbEntity
8
1
62
256
6
ByLayer
370
18
48
1
60
0
100
AcDbSpline
70
4
71
3
72
16
73
12
40
0
40
0
40
0
40
0
40
0.25
40
0.25
40
0.5
40
0.5
40
0.625
40
0.625
40
0.75
40
0.75
40
1
40
1
40
1
40
1
41
1
10
57.7081295480881
20
-3.03394670236202
30
0
41
1
10
57.7768369408643
20
-3.0863971132768
30
0
41
1
10
57.845244043893
20
-3.13739892739227
30
0
41
1
10
57.9822825909925
20
-3.2362411594282
30
0
41
1
10
58.0509017975879
20
-3.28409089851053
30
0
41
1
10
58.1544431491572
20
-3.35324503050671
30
0
41
1
10
58.1890575850904
20
-3.37585995754236
30
0
41
1
10
58.2585512412479
20
-3.42017643772621
30
0
41
1
10
58.2934770481405
20
-3.44190559357008
30
0
41
1
10
58.3982586623455
20
-3.50537695702411
30
0
41
1
10
58.4681851493751
20
-3.54545962942723
30
0
41
1
10
58.5384498088693
20
-3.5832385448459
30
0
0
SPLINE
5
149
100
AcDbEntity
8
1
62
256
6
ByLayer
370
18
48
1
60
0
100
AcDbSpline
70
4
71
3
72
8
73
4
40
0
40
0
40
0
40
0
40
1
40
1
40
1
40
1
41
1
10
57.7081295480881
20
-3.03394670236204
30
0
41
1
10
57.7074197927228
20
-3.03338019104544
30
0
41
1
10
57.7067099431858
20
-3.03281380140504
30
0
41
1
10
57.706
20
-3.03224753415191
30
0
0
SPLINE
5
14A
100
AcDbEntity
8
1
62
256
6
ByLayer
370
18
48
1
60
0
100
AcDbSpline
70
4
71
1
72
4
73
2
40
0
40
0
40
1
40
1
41
1
10
57.708283544473
20
-3.03376206607592
30
0
41
1
10
57.8110740849254
20
-2.90850484476283
30
0
0
SPLINE
5
14B
100
AcDbEntity
8
1
62
256
6
ByLayer
370
18
48
1
60
0
100
AcDbSpline
70
4
71
3
72
8
73
4
40
0
40
0
40
0
40
0
40
1
40
1
40
1
40
1
41
1
10
63.7500293193418
20
-1.0150947862461
30
0
41
1
10
63.7601322335058
20
-1.03442205586515
30
0
41
1
10
63.7701963197948
20
-1.05370275824862
30
0
41
1
10
63.7802228881482
20
-1.07293846443937
30
0
0
SPLINE
5
14C
100
AcDbEntity
8
1
62
256
6
ByLayer
370
18
48
1
60
0
100
AcDbSpline
70
4
71
3
72
8
73
4
40
0
40
0
40
0
40
0
40
1
40
1
40
1
40
1
41
1
10
63.7386286313391
20
-0.781603124852978
30
0
41
1
10
63.739202931395
20
-0.786842285047953
30
0
41
1
10
63.7396661463037
20
-0.791911981500164
30
0
41
1
10
63.7400122298387
20
-0.796802990508041
30
0
0
SPLINE
5
14D
100
AcDbEntity
8
1
62
256
6
ByLayer
370
18
48
1
60
0
100
AcDbSpline
70
4
71
3
72
8
73
4
40
0
40
0
40
0
40
0
40
1
40
1
40
1
40
1
41
1
10
63.6728248373535
20
-0.513556513654635
30
0
41
1
10
63.6804122168451
20
-0.537759963940061
30
0
41
1
10
63.6875347359693
20
-0.561277153681317
30
0
41
1
10
63.694118850217
20
-0.583999511148988
30
0
0
SPLINE
5
14E
100
AcDbEntity
8
1
62
256
6
ByLayer
370
18
48
1
60
0
100
AcDbSpline
70
4
71
3
72
8
73
4
40
0
40
0
40
0
40
0
40
1
40
1
40
1
40
1
41
1
10
57.7060000000001
20
3.05193630042476
30
0
41
1
10
57.6329988107839
20
3.07378773586953
30
0
41
1
10
57.5600567573408
20
3.09595425693178
30
0
41
1
10
57.4871737946718
20
3.11843562385104
30
0
0
SPLINE
5
14F
100
AcDbEntity
8
1
62
256
6
ByLayer
370
18
48
1
60
0
100
AcDbSpline
70
4
71
3
72
8
73
4
40
0
40
0
40
0
40
0
40
1
40
1
40
1
40
1
41
1
10
57.7060000000001
20
-3.03224753415165
30
0
41
1
10
57.6344020961269
20
-2.97975569704556
30
0
41
1
10
57.5627086562997
20
-2.92963958674309
30
0
41
1
10
57.4908993815127
20
-2.8824039859
30
0
0
SPLINE
5
150
100
AcDbEntity
8
1
62
256
6
ByLayer
370
18
48
1
60
0
100
AcDbSpline
70
4
71
3
72
10
73
6
40
0
40
0
40
0
40
0
40
0.5
40
0.5
40
1
40
1
40
1
40
1
41
1
10
56.6541977576613
20
-2.91645887382936
30
0
41
1
10
56.7917072817747
20
-2.90630374309473
30
0
41
1
10
56.9302379864698
20
-2.89834428238956
30
0
41
1
10
57.209204790638
20
-2.88693863736344
30
0
41
1
10
57.3496397545284
20
-2.88349309850108
30
0
41
1
10
57.4908993815127
20
-2.8824039859
30
0
0
SPLINE
5
151
100
AcDbEntity
8
1
62
256
6
ByLayer
370
18
48
1
60
0
100
AcDbSpline
70
4
71
3
72
10
73
6
40
0
40
0
40
0
40
0
40
0.5
40
0.5
40
1
40
1
40
1
40
1
41
1
10
57.7060000000001
20
2.58728095529844
30
0
41
1
10
57.6702363957722
20
2.56904008329798
30
0
41
1
10
57.6344260709761
20
2.54977645804752
30
0
41
1
10
57.5627037118158
20
2.50902269796472
30
0
41
1
10
57.5267168516571
20
2.4874847077312
30
0
41
1
10
57.4908993815126
20
2.46484456022506
30
0
0
SPLINE
5
152
100
AcDbEntity
8
1
62
256
6
ByLayer
370
18
48
1
60
0
100
AcDbSpline
70
4
71
3
72
10
73
6
40
0
40
0
40
0
40
0
40
0.5
40
0.5
40
1
40
1
40
1
40
1
41
1
10
56.6541977576613
20
2.75139992662082
30
0
41
1
10
56.7917072817747
20
2.69784050358868
30
0
41
1
10
56.9302379864698
20
2.64727550052675
30
0
41
1
10
57.2092047906379
20
2.55188125643832
30
0
41
1
10
57.3496397545281
20
2.50704978676737
30
0
41
1
10
57.4908993815125
20
2.46484456022506
30
0
0
SPLINE
5
153
100
AcDbEntity
8
1
62
256
6
ByLayer
370
18
48
1
60
0
100
AcDbSpline
70
4
71
3
72
8
73
4
40
0
40
0
40
0
40
0
40
1
40
1
40
1
40
1
41
1
10
61.9375737198329
20
-3.09574004475388
30
0
41
1
10
61.9083046442267
20
-3.17743583343423
30
0
41
1
10
61.8766396674973
20
-3.2591897604411
30
0
41
1
10
61.841968848873
20
-3.34101663191962
30
0
0
SPLINE
5
154
100
AcDbEntity
8
1
62
256
6
ByLayer
370
18
48
1
60
0
100
AcDbSpline
70
4
71
3
72
8
73
4
40
0
40
0
40
0
40
0
40
1
40
1
40
1
40
1
41
1
10
57.871178692519
20
-2.41748077441397
30
0
41
1
10
57.9308362257033
20
-2.48419829492644
30
0
41
1
10
57.9895878729701
20
-2.55134317341373
30
0
41
1
10
58.0474440712371
20
-2.61891048618753
30
0
0
SPLINE
5
155
100
AcDbEntity
8
1
62
256
6
ByLayer
370
18
48
1
60
0
100
AcDbSpline
70
4
71
3
72
24
73
20
40
0
40
0
40
0
40
0
40
0.250000000000047
40
0.250000000000047
40
0.500000000000094
40
0.500000000000094
40
0.625000000000117
40
0.625000000000117
40
0.687500000000097
40
0.687500000000097
40
0.750000000000078
40
0.750000000000078
40
0.812500000000059
40
0.812500000000059
40
0.875000000000039
40
0.875000000000039
40
0.93750000000002
40
0.93750000000002
40
1
40
1
40
1
40
1
41
1
10
61.8431468851374
20
-2.98117232628414
30
0
41
1
10
61.8563733695548
20
-2.98494782909552
30
0
41
1
10
61.8691296281173
20
-2.98944069594174
30
0
41
1
10
61.8932460091455
20
-3.00055634329249
30
0
41
1
10
61.9046771447807
20
-3.00720250694369
30
0
41
1
10
61.9195151705285
20
-3.01959384683917
30
0
41
1
10
61.9240874389779
20
-3.0241381751822
30
0
41
1
10
61.9301342407102
20
-3.03185343867449
30
0
41
1
10
61.9320131862805
20
-3.03457652561554
30
0
41
1
10
61.9354249253955
20
-3.0404060300003
30
0
41
1
10
61.9369670174448
20
-3.04353559260269
30
0
41
1
10
61.9395451351784
20
-3.05017637416489
30
0
41
1
10
61.9405797993542
20
-3.05367317259299
30
0
41
1
10
61.9420249856557
20
-3.06109957498433
30
0
41
1
10
61.942434724486
20
-3.06507178971998
30
0
41
1
10
61.9424636855429
20
-3.07332843940739
30
0
41
1
10
61.9420905196513
20
-3.07759711079274
30
0
41
1
10
61.9404917193421
20
-3.08644308793566
30
0
41
1
10
61.9392505124199
20
-3.09105971581076
30
0
41
1
10
61.9375736974686
20
-3.09574004547869
30
0
0
SPLINE
5
156
100
AcDbEntity
8
1
62
256
6
ByLayer
370
18
48
1
60
0
100
AcDbSpline
70
4
71
3
72
8
73
4
40
0
40
0
40
0
40
0
40
1
40
1
40
1
40
1
41
1
10
57.871178692519
20
-2.41748077441397
30
0
41
1
10
57.8160440768746
20
-2.4179515385911
30
0
41
1
10
57.7609816047458
20
-2.4186774539312
30
0
41
1
10
57.7060000000001
20
-2.41964469626467
30
0
0
SPLINE
5
157
100
AcDbEntity
8
1
62
256
6
ByLayer
370
18
48
1
60
0
100
AcDbSpline
70
4
71
3
72
8
73
4
40
0
40
0
40
0
40
0
40
1
40
1
40
1
40
1
41
1
10
63.5961957358245
20
-1.37707361070153
30
0
41
1
10
63.56868022559
20
-1.42979444093993
30
0
41
1
10
63.5404889498175
20
-1.48184694349322
30
0
41
1
10
63.5116214808319
20
-1.53323069539363
30
0
0
SPLINE
5
158
100
AcDbEntity
8
1
62
256
6
ByLayer
370
18
48
1
60
0
100
AcDbSpline
70
4
71
3
72
33
73
29
40
0
40
0
40
0
40
0
40
0.0625000000000029
40
0.0625000000000029
40
0.125000000000006
40
0.125000000000006
40
0.156250000000007
40
0.156250000000007
40
0.187500000000009
40
0.187500000000009
40
0.250000000000004
40
0.375000000000002
40
0.375000000000002
40
0.437500000000001
40
0.437500000000001
40
0.468750000000001
40
0.468750000000001
40
0.500000000000001
40
0.500000000000001
40
0.624999999999998
40
0.624999999999998
40
0.749999999999995
40
0.749999999999995
40
0.781250000000001
40
0.781250000000001
40
0.812500000000006
40
0.875000000000004
40
1
40
1
40
1
40
1
41
1
10
63.5116214808324
20
-1.53323069539246
30
0
41
1
10
63.4928560089901
20
-1.5797750078321
30
0
41
1
10
63.4727651074751
20
-1.62635369921603
30
0
41
1
10
63.4299799452943
20
-1.71957860780984
30
0
41
1
10
63.4072942730709
20
-1.76622460225414
30
0
41
1
10
63.3712242674049
20
-1.83624654619879
30
0
41
1
10
63.3588469875531
20
-1.8596207936279
30
0
41
1
10
63.3334526537797
20
-1.90627933265657
30
0
41
1
10
63.3204846212316
20
-1.92947494270305
30
0
41
1
10
63.2807765827715
20
-1.99866506585119
30
0
41
1
10
63.1981581740859
20
-2.13546511199453
30
0
41
1
10
63.1058818675891
20
-2.26749943968105
30
0
41
1
10
63.0070615546769
20
-2.39630460789991
30
0
41
1
10
62.9730370125554
20
-2.43870454490005
30
0
41
1
10
62.9203078790621
20
-2.50146936989953
30
0
41
1
10
62.9024199033615
20
-2.52228316782924
30
0
41
1
10
62.8661906959688
20
-2.5634767157251
30
0
41
1
10
62.8479072716567
20
-2.58379232636179
30
0
41
1
10
62.7556565838331
20
-2.68398211159374
30
0
41
1
10
62.679194881208
20
-2.75970190754671
30
0
41
1
10
62.5211730033635
20
-2.90265021756872
30
0
41
1
10
62.4395887687555
20
-2.96983866178479
30
0
41
1
10
62.334283448957
20
-3.04828653158404
30
0
41
1
10
62.3130774362442
20
-3.06368129774106
30
0
41
1
10
62.2706827376315
20
-3.09367349999909
30
0
41
1
10
62.2069909404421
20
-3.13756156987878
30
0
41
1
10
62.057696950872
20
-3.23246892141827
30
0
41
1
10
61.9285677958169
20
-3.30099154348014
30
0
41
1
10
61.8419688488878
20
-3.34101663191962
30
0
0
SPLINE
5
159
100
AcDbEntity
8
1
62
256
6
ByLayer
370
18
48
1
60
0
100
AcDbSpline
70
4
71
3
72
58
73
54
40
0
40
0
40
0
40
0
40
0.0312500000000462
40
0.0312500000000462
40
0.0468750000000734
40
0.0468750000000734
40
0.0625000000001005
40
0.0625000000001005
40
0.125000000000185
40
0.125000000000185
40
0.187500000000269
40
0.187500000000269
40
0.203125000000286
40
0.203125000000286
40
0.218750000000303
40
0.218750000000303
40
0.250000000000337
40
0.250000000000337
40
0.281250000000371
40
0.281250000000371
40
0.289062500000377
40
0.291015625000374
40
0.291015625000374
40
0.292968750000372
40
0.292968750000372
40
0.294921875000369
40
0.294921875000369
40
0.296875000000367
40
0.296875000000367
40
0.312500000000354
40
0.312500000000354
40
0.375000000000305
40
0.375000000000305
40
0.437500000000257
40
0.437500000000257
40
0.453125000000246
40
0.453125000000246
40
0.468750000000236
40
0.468750000000236
40
0.500000000000215
40
0.500000000000215
40
0.625000000000142
40
0.625000000000142
40
0.687500000000105
40
0.687500000000105
40
0.71875000000009
40
0.71875000000009
40
0.750000000000075
40
0.750000000000075
40
0.875000000000038
40
0.875000000000038
40
0.937500000000019
40
1
40
1
40
1
40
1
41
1
10
61.8419688488883
20
-3.34101663191748
30
0
41
1
10
61.8009809656261
20
-3.36410826004567
30
0
41
1
10
61.7595404283524
20
-3.38628977404824
30
0
41
1
10
61.6966809665444
20
-3.41817257696019
30
0
41
1
10
61.6756106943205
20
-3.42856734109583
30
0
41
1
10
61.6332297192471
20
-3.44888175685082
30
0
41
1
10
61.6118840333503
20
-3.45881662199935
30
0
41
1
10
61.5051622516248
20
-3.50700362982675
30
0
41
1
10
61.4195782147183
20
-3.54094613698067
30
0
41
1
10
61.2477047311451
20
-3.60006864040537
30
0
41
1
10
61.161416019874
20
-3.625245530841
30
0
41
1
10
61.0529175275665
20
-3.65125284312785
30
0
41
1
10
61.0311858012971
20
-3.65617981888633
30
0
41
1
10
60.9876524830522
20
-3.6654788625838
30
0
41
1
10
60.9658604146682
20
-3.66984741220892
30
0
41
1
10
60.9007440065501
20
-3.68205423244956
30
0
41
1
10
60.8575547550406
20
-3.68902213817734
30
0
41
1
10
60.7715498613912
20
-3.70071441078127
30
0
41
1
10
60.7287331872707
20
-3.70544739402266
30
0
41
1
10
60.675411164607
20
-3.70998000237182
30
0
41
1
10
60.6620930570193
20
-3.71102692719211
30
0
41
1
10
60.6487887523874
20
-3.71197484137966
30
0
41
1
10
60.6434681031174
20
-3.71234625844568
30
0
41
1
10
60.6408114282695
20
-3.71250303418142
30
0
41
1
10
60.6354761085972
20
-3.7129939921804
30
0
41
1
10
60.6328007544651
20
-3.71330207831727
30
0
41
1
10
60.6274638699294
20
-3.71380853348947
30
0
41
1
10
60.6247974064919
20
-3.71404648758056
30
0
41
1
10
60.6007971634306
20
-3.71621056424286
30
0
41
1
10
60.5794868837406
20
-3.71798967096493
30
0
41
1
10
60.4731324745796
20
-3.72539858390644
30
0
41
1
10
60.3885912589256
20
-3.72726108750226
30
0
41
1
10
60.2202104223739
20
-3.72326424331845
30
0
41
1
10
60.136373898912
20
-3.71739274701224
30
0
41
1
10
60.0318357943007
20
-3.70508655387349
30
0
41
1
10
60.010940032543
20
-3.70238773011414
30
0
41
1
10
59.9691578377126
20
-3.69663624388303
30
0
41
1
10
59.9482971067656
20
-3.69355058725614
30
0
41
1
10
59.8860094012552
20
-3.68354746829709
30
0
41
1
10
59.8447932824107
20
-3.67593137863088
30
0
41
1
10
59.6400888314978
20
-3.6333207483294
30
0
41
1
10
59.4807148001902
20
-3.58474098467332
30
0
41
1
10
59.2463272709367
20
-3.49113071441019
30
0
41
1
10
59.1689913373905
20
-3.4564379431024
30
0
41
1
10
59.0540112030856
20
-3.39911588912562
30
0
41
1
10
59.0157721042179
20
-3.37908499305442
30
0
41
1
10
58.940106459088
20
-3.33754931974286
30
0
41
1
10
58.9026715385718
20
-3.31604789177305
30
0
41
1
10
58.7173816739496
20
-3.20496250302159
30
0
41
1
10
58.5751362054293
20
-3.10470772900428
30
0
41
1
10
58.370587605666
20
-2.93635671118415
30
0
41
1
10
58.2371802851988
20
-2.81810587488417
30
0
41
1
10
58.1096366585518
20
-2.68753591577166
30
0
41
1
10
58.0474440712371
20
-2.61891048618756
30
0
0
SPLINE
5
15A
100
AcDbEntity
8
1
62
256
6
ByLayer
370
18
48
1
60
0
100
AcDbSpline
70
4
71
1
72
4
73
2
40
0
40
0
40
1
40
1
41
1
10
57.8110740849254
20
-2.90850484476283
30
0
41
1
10
58.0474440712371
20
-2.61891048618753
30
0
0
SPLINE
5
15B
100
AcDbEntity
8
1
62
256
6
ByLayer
370
18
48
1
60
0
100
AcDbSpline
70
4
71
3
72
32
73
28
40
0
40
0
40
0
40
0
40
0.0490312262483046
40
0.143916160773411
40
0.189034140750348
40
0.224017960976754
40
0.288973906309055
40
0.389131507799924
40
0.439275274823901
40
0.469379557344393
40
0.479416784425452
40
0.491895419769801
40
0.541812038504632
40
0.612502094532188
40
0.619638383315277
40
0.621694400720603
40
0.622865643490265
40
0.623617095247534
40
0.63261976546988
40
0.639579344110781
40
0.689736842712466
40
0.714348697702789
40
0.814022144186193
40
0.851737957566795
40
0.927602820180391
40
0.965754349132173
40
1
40
1
40
1
40
1
41
1
10
57.8110740849254
20
-2.90850484476283
30
0
41
1
10
57.8848254651638
20
-2.96476067888059
30
0
41
1
10
58.0988718901854
20
-3.12615115094579
30
0
41
1
10
58.3765395332148
20
-3.31838923938986
30
0
41
1
10
58.6356340572656
20
-3.47305855363112
30
0
41
1
10
58.8535426461365
20
-3.58919288978154
30
0
41
1
10
59.1591152264531
20
-3.726372105504
30
0
41
1
10
59.4943271060219
20
-3.83089263893888
30
0
41
1
10
59.7785031472512
20
-3.88403163544251
30
0
41
1
10
59.9214372874105
20
-3.90127763703563
30
0
41
1
10
60.0048415030799
20
-3.90858615662967
30
0
41
1
10
60.1201506541049
20
-3.91647180973058
30
0
41
1
10
60.3323422999312
20
-3.92015431666994
30
0
41
1
10
60.5363917564788
20
-3.90343987676482
30
0
41
1
10
60.663580203764
20
-3.88492673763739
30
0
41
1
10
60.6801370590331
20
-3.88238925163117
30
0
41
1
10
60.6864096388278
20
-3.88141217135296
30
0
41
1
10
60.7043291371505
20
-3.8786074017373
30
0
41
1
10
60.7316640413535
20
-3.87410715844749
30
0
41
1
10
60.8397869008638
20
-3.8549337920397
30
0
41
1
10
60.9730322974996
20
-3.82508368184358
30
0
41
1
10
61.2555569385237
20
-3.74444793665833
30
0
41
1
10
61.5143945260889
20
-3.64371349859394
30
0
41
1
10
61.8449697557441
20
-3.47637493664672
30
0
41
1
10
62.0729843701064
20
-3.33781371021749
30
0
41
1
10
62.2863822354618
20
-3.18523453437049
30
0
41
1
10
62.3873058354131
20
-3.10576178190678
30
0
41
1
10
62.4342605417164
20
-3.06711535360256
30
0
0
SPLINE
5
15C
100
AcDbEntity
8
1
62
256
6
ByLayer
370
18
48
1
60
0
100
AcDbSpline
70
4
71
3
72
10
73
6
40
0
40
0
40
0
40
0
40
0.5
40
0.5
40
1
40
1
40
1
40
1
41
1
10
61.7114601790666
20
-2.91487234845707
30
0
41
1
10
61.7296418382307
20
-2.93094954583066
30
0
41
1
10
61.7503899103442
20
-2.94389166257537
30
0
41
1
10
61.7948155287218
20
-2.96550165572091
30
0
41
1
10
61.8185013152898
20
-2.97413726459931
30
0
41
1
10
61.8431468822914
20
-2.98117232653337
30
0
0
SPLINE
5
15D
100
AcDbEntity
8
1
62
256
6
ByLayer
370
18
48
1
60
0
100
AcDbSpline
70
4
71
3
72
12
73
8
40
0
40
0
40
0
40
0
40
0.5
40
0.5
40
0.75
40
0.75
40
1
40
1
40
1
40
1
41
1
10
61.8580645362871
20
-2.25480216117578
30
0
41
1
10
61.8229809207396
20
-2.36729108986134
30
0
41
1
10
61.7922043386148
20
-2.47911640236308
30
0
41
1
10
61.754685875272
20
-2.64478719784566
30
0
41
1
10
61.743644620871
20
-2.69958846583421
30
0
41
1
10
61.7249218290398
20
-2.80807249644459
30
0
41
1
10
61.7172342334783
20
-2.86177870054081
30
0
41
1
10
61.711460178744
20
-2.91487234851598
30
0
0
SPLINE
5
15E
100
AcDbEntity
8
1
62
256
6
ByLayer
370
18
48
1
60
0
100
AcDbSpline
70
4
71
3
72
12
73
8
40
0
40
0
40
0
40
0
40
0.0179031062299624
40
0.21432248498397
40
0.410741863737977
40
0.607161242491985
40
1
40
1
40
1
40
1
41
1
10
61.711460179086
20
-2.91487234849188
30
0
41
1
10
61.6875567860574
20
-2.91211394597275
30
0
41
1
10
61.4014033930286
20
-2.87847147911589
30
0
41
1
10
60.853
20
-2.79978944465623
30
0
41
1
10
60.06625
20
-2.65106582066534
30
0
41
1
10
59.01725
20
-2.40747428559479
30
0
41
1
10
58.2305
20
-2.17700237911109
30
0
41
1
10
57.7060000000001
20
-2.00487737409137
30
0
0
SPLINE
5
15F
100
AcDbEntity
8
1
62
256
6
ByLayer
370
18
48
1
60
0
100
AcDbSpline
70
4
71
3
72
10
73
6
40
0
40
0
40
0
40
0
40
0.0711410817329685
40
0.851647374796375
40
1
40
1
40
1
40
1
41
1
10
61.7114601790861
20
2.14876900638737
30
0
41
1
10
61.6875567860574
20
2.1560953376225
30
0
41
1
10
61.4014033930286
20
2.24334444108061
30
0
41
1
10
61.065403539689
20
2.33931308077479
30
0
41
1
10
60.7533070793781
20
2.4212012640231
30
0
41
1
10
60.7034606190671
20
2.43409204231171
30
0
0
SPLINE
5
160
100
AcDbEntity
8
1
62
256
6
ByLayer
370
18
48
1
60
0
100
AcDbSpline
70
4
71
3
72
8
73
4
40
0
40
0
40
0
40
0
40
1
40
1
40
1
40
1
41
1
10
61.7781147133346
20
0.280426981143137
30
0
41
1
10
61.7954352592315
20
0.274655958650243
30
0
41
1
10
61.8129099248993
20
0.268905131890165
30
0
41
1
10
61.8305417116057
20
0.26317489414663
30
0
0
SPLINE
5
161
100
AcDbEntity
8
1
62
256
6
ByLayer
370
18
48
1
60
0
100
AcDbSpline
70
4
71
3
72
8
73
4
40
0
40
0
40
0
40
0
40
1
40
1
40
1
40
1
41
1
10
63.2924018101981
20
-0.443703016949996
30
0
41
1
10
63.2953261959659
20
-0.445751930071481
30
0
41
1
10
63.2982518154948
20
-0.447799023362734
30
0
41
1
10
63.3011786622437
20
-0.449844306472215
30
0
0
SPLINE
5
162
100
AcDbEntity
8
1
62
256
6
ByLayer
370
18
48
1
60
0
100
AcDbSpline
70
4
71
3
72
8
73
4
40
0
40
0
40
0
40
0
40
1
40
1
40
1
40
1
41
1
10
63.2924018101981
20
-0.443703016949996
30
0
41
1
10
63.2700999139007
20
-0.393040309533689
30
0
41
1
10
63.2476892262198
20
-0.342227667508411
30
0
41
1
10
63.2251595987383
20
-0.291251104481972
30
0
0
SPLINE
5
163
100
AcDbEntity
8
1
62
256
6
ByLayer
370
18
48
1
60
0
100
AcDbSpline
70
4
71
3
72
8
73
4
40
0
40
0
40
0
40
0
40
1
40
1
40
1
40
1
41
1
10
61.7811112622631
20
2.27430815353361
30
0
41
1
10
61.8018528895253
20
2.25187411111685
30
0
41
1
10
61.8216234815974
20
2.23000700939991
30
0
41
1
10
61.8401240803022
20
2.20888141148464
30
0
0
SPLINE
5
164
100
AcDbEntity
8
1
62
256
6
ByLayer
370
18
48
1
60
0
100
AcDbSpline
70
4
71
3
72
16
73
12
40
0
40
0
40
0
40
0
40
0.249999999999995
40
0.249999999999995
40
0.499999999999991
40
0.499999999999991
40
0.624999999999991
40
0.624999999999991
40
0.74999999999999
40
0.74999999999999
40
1
40
1
40
1
40
1
41
1
10
61.8401240581148
20
2.20888142580023
30
0
41
1
10
61.8449342653857
20
2.20338871489759
30
0
41
1
10
61.84921087075
20
2.19825222112067
30
0
41
1
10
61.8563858976476
20
2.18889924274333
30
0
41
1
10
61.8593002177135
20
2.18466174442915
30
0
41
1
10
61.8621887180234
20
2.17932919630971
30
0
41
1
10
61.8628938034145
20
2.17774019238786
30
0
41
1
10
61.8637162878916
20
2.17499200735742
30
0
41
1
10
61.8638325800222
20
2.1738283551251
30
0
41
1
10
61.863161788705
20
2.17112041375069
30
0
41
1
10
61.8613812431366
20
2.17037229663836
30
0
41
1
10
61.8580645369787
20
2.17084215845259
30
0
0
SPLINE
5
165
100
AcDbEntity
8
1
62
256
6
ByLayer
370
18
48
1
60
0
100
AcDbSpline
70
4
71
3
72
12
73
8
40
0
40
0
40
0
40
0
40
0.5
40
0.5
40
0.75
40
0.75
40
1
40
1
40
1
40
1
41
1
10
61.858064536287
20
2.17084215821421
30
0
41
1
10
61.8229809207396
20
2.17581213651658
30
0
41
1
10
61.7922043386149
20
2.17720797205053
30
0
41
1
10
61.754685875272
20
2.17229231056837
30
0
41
1
10
61.743644620871
20
2.16948245813688
30
0
41
1
10
61.7249218290399
20
2.16121020230128
30
0
41
1
10
61.7172342334783
20
2.15574775134505
30
0
41
1
10
61.711460178744
20
2.14876900648187
30
0
0
SPLINE
5
166
100
AcDbEntity
8
1
62
256
6
ByLayer
370
18
48
1
60
0
100
AcDbSpline
70
4
71
3
72
10
73
6
40
0
40
0
40
0
40
0
40
0.5
40
0.5
40
1
40
1
40
1
40
1
41
1
10
61.7114601790666
20
2.1487690063216
30
0
41
1
10
61.7296418382307
20
2.12942466852906
30
0
41
1
10
61.7503899103443
20
2.10856832392696
30
0
41
1
10
61.7948155287218
20
2.06528657645254
30
0
41
1
10
61.8185013152898
20
2.04286132435109
30
0
41
1
10
61.8431468822914
20
2.01996713780753
30
0
0
SPLINE
5
167
100
AcDbEntity
8
1
62
256
6
ByLayer
370
18
48
1
60
0
100
AcDbSpline
70
4
71
3
72
24
73
20
40
0
40
0
40
0
40
0
40
0.249999999999955
40
0.249999999999955
40
0.499999999999909
40
0.499999999999909
40
0.624999999999886
40
0.624999999999886
40
0.687499999999905
40
0.687499999999905
40
0.749999999999924
40
0.749999999999924
40
0.812499999999943
40
0.812499999999943
40
0.874999999999962
40
0.874999999999962
40
0.937499999999981
40
0.937499999999981
40
1
40
1
40
1
40
1
41
1
10
61.8431468851374
20
2.01996713652579
30
0
41
1
10
61.8563733695548
20
2.00768055928745
30
0
41
1
10
61.8691296281173
20
1.99563878589649
30
0
41
1
10
61.8932460091455
20
1.97228208453961
30
0
41
1
10
61.9046771447807
20
1.96090048690721
30
0
41
1
10
61.9195151705285
20
1.94527801982443
30
0
41
1
10
61.9240874389779
20
1.94030034159107
30
0
41
1
10
61.9301342407102
20
1.93333287328267
30
0
41
1
10
61.9320131862805
20
1.9310944122725
30
0
41
1
10
61.9354249253954
20
1.92683033726891
30
0
41
1
10
61.9369670174448
20
1.92479146552327
30
0
41
1
10
61.9395451351784
20
1.92106520491237
30
0
41
1
10
61.9405797993541
20
1.91938224453122
30
0
41
1
10
61.9420249856556
20
1.9164583598249
30
0
41
1
10
61.9424347244859
20
1.91520850539715
30
0
41
1
10
61.9424636855428
20
1.91332186436691
30
0
41
1
10
61.9420905196513
20
1.91268205086354
30
0
41
1
10
61.9404917193421
20
1.91206986243387
30
0
41
1
10
61.9392505124198
20
1.91210208531123
30
0
41
1
10
61.9375736974686
20
1.91249656260786
30
0
0
SPLINE
5
168
100
AcDbEntity
8
1
62
256
6
ByLayer
370
18
48
1
60
0
100
AcDbSpline
70
4
71
3
72
16
73
12
40
0
40
0
40
0
40
0
40
0.249999999999983
40
0.249999999999983
40
0.499999999999966
40
0.499999999999966
40
0.624999999999968
40
0.624999999999968
40
0.749999999999971
40
0.749999999999971
40
1
40
1
40
1
40
1
41
1
10
62.1590676586858
20
1.99827158600212
30
0
41
1
10
62.2476098395705
20
1.92522382892796
30
0
41
1
10
62.3372901534129
20
1.85225303390192
30
0
41
1
10
62.5187484877764
20
1.70645329353559
30
0
41
1
10
62.6105267628724
20
1.63362436541001
30
0
41
1
10
62.7496653337212
20
1.52448045487517
30
0
41
1
10
62.7962903528529
20
1.48811575209328
30
0
41
1
10
62.8900177276017
20
1.41541862465081
30
0
41
1
10
62.9371958005522
20
1.37902942417645
30
0
41
1
10
63.0786880408581
20
1.27045270100857
30
0
41
1
10
63.1730179312711
20
1.19880661546387
30
0
41
1
10
63.2673491978171
20
1.12774781854236
30
0
0
SPLINE
5
169
100
AcDbEntity
8
1
62
256
6
ByLayer
370
18
48
1
60
0
100
AcDbSpline
70
4
71
3
72
8
73
4
40
0
40
0
40
0
40
0
40
1
40
1
40
1
40
1
41
1
10
57.7060000000001
20
-2.41964469626467
30
0
41
1
10
57.6329995988937
20
-2.42245845231662
30
0
41
1
10
57.5600575439914
20
-2.42588107859285
30
0
41
1
10
57.4871737946714
20
-2.42991215118727
30
0
0
SPLINE
5
16A
100
AcDbEntity
8
1
62
256
6
ByLayer
370
18
48
1
60
0
100
AcDbSpline
70
4
71
3
72
22
73
18
40
0
40
0
40
0
40
0
40
0.0312500000000096
40
0.0312500000000096
40
0.0625000000000192
40
0.0625000000000192
40
0.125000000000038
40
0.125000000000038
40
0.250000000000076
40
0.250000000000076
40
0.375000000000115
40
0.375000000000115
40
0.500000000000153
40
0.500000000000153
40
0.750000000000076
40
0.750000000000076
40
1
40
1
40
1
40
1
41
1
10
63.6693460331823
20
0.041730404501152
30
0
41
1
10
63.6669032192491
20
0.0416890458777459
30
0
41
1
10
63.6643384090195
20
0.0416941457801556
30
0
41
1
10
63.659088000753
20
0.0417503438977178
30
0
41
1
10
63.6563833188853
20
0.0418032106231294
30
0
41
1
10
63.6483798429732
20
0.0420002832242687
30
0
41
1
10
63.6431045021924
20
0.0421820539707767
30
0
41
1
10
63.6273567534675
20
0.0427927640141945
30
0
41
1
10
63.6169662057654
20
0.0432893271469084
30
0
41
1
10
63.5966105160632
20
0.0443298214813126
30
0
41
1
10
63.5865801656046
20
0.0448811079925235
30
0
41
1
10
63.5666771552266
20
0.0460168660790998
30
0
41
1
10
63.5568075661398
20
0.0466019838935097
30
0
41
1
10
63.5273570094037
20
0.0483906318288234
30
0
41
1
10
63.5079297624227
20
0.049626852895301
30
0
41
1
10
63.4693034932989
20
0.0521459391228802
30
0
41
1
10
63.4501402300967
20
0.0534276780389291
30
0
41
1
10
63.431075323077
20
0.0547239834096445
30
0
0
SPLINE
5
16B
100
AcDbEntity
8
1
62
256
6
ByLayer
370
18
48
1
60
0
100
AcDbSpline
70
4
71
3
72
8
73
4
40
0
40
0
40
0
40
0
40
1
40
1
40
1
40
1
41
1
10
63.2184165678917
20
-0.277018609198535
30
0
41
1
10
63.2210131318396
20
-0.282210125602603
30
0
41
1
10
63.223260273291
20
-0.28695360407022
30
0
41
1
10
63.2251595987395
20
-0.291251104484701
30
0
0
SPLINE
5
16C
100
AcDbEntity
8
1
62
256
6
ByLayer
370
18
48
1
60
0
100
AcDbSpline
70
4
71
3
72
42
73
38
40
0
40
0
40
0
40
0
40
0.0624999999999702
40
0.0624999999999702
40
0.12499999999994
40
0.12499999999994
40
0.187499999999911
40
0.187499999999911
40
0.249999999999881
40
0.249999999999881
40
0.312499999999851
40
0.312499999999851
40
0.374999999999821
40
0.374999999999821
40
0.437499999999791
40
0.437499999999791
40
0.499999999999761
40
0.499999999999761
40
0.562499999999732
40
0.562499999999732
40
0.624999999999702
40
0.624999999999702
40
0.687499999999672
40
0.687499999999672
40
0.749999999999642
40
0.749999999999642
40
0.812499999999612
40
0.812499999999612
40
0.843749999999637
40
0.843749999999637
40
0.874999999999661
40
0.874999999999661
40
0.93749999999979
40
0.93749999999979
40
0.968749999999895
40
0.968749999999895
40
1
40
1
40
1
40
1
41
1
10
63.2184165678916
20
-0.277018609198365
30
0
41
1
10
63.214982977095
20
-0.270153558576425
30
0
41
1
10
63.2117586478763
20
-0.262739000494662
30
0
41
1
10
63.2060548107186
20
-0.247063092061069
30
0
41
1
10
63.2035600101157
20
-0.238776411312557
30
0
41
1
10
63.199483652182
20
-0.221327842984152
30
0
41
1
10
63.1979292307882
20
-0.2122576260237
30
0
41
1
10
63.1959332103509
20
-0.193761598502107
30
0
41
1
10
63.1954801447122
20
-0.184292919002132
30
0
41
1
10
63.1957694688629
20
-0.164938428373091
30
0
41
1
10
63.1965277771114
20
-0.15497426974818
30
0
41
1
10
63.1992949130394
20
-0.135228747406302
30
0
41
1
10
63.2012942500969
20
-0.125405254713712
30
0
41
1
10
63.2065562921079
20
-0.105883324878135
30
0
41
1
10
63.2098282344991
20
-0.0961609273884108
30
0
41
1
10
63.2176931045307
20
-0.0769735559011053
30
0
41
1
10
63.2222045218589
20
-0.0676989864674056
30
0
41
1
10
63.232369766632
20
-0.0497854324743798
30
0
41
1
10
63.2380234429971
20
-0.0411463011474211
30
0
41
1
10
63.2505242669708
20
-0.0245390364661944
30
0
41
1
10
63.2573580796611
20
-0.0166087718340862
30
0
41
1
10
63.2718385976034
20
-0.0019182137170617
30
0
41
1
10
63.279530503843
20
0.0049060050174887
30
0
41
1
10
63.2958609515616
20
0.0174868643229047
30
0
41
1
10
63.3045696378964
20
0.0232784793336123
30
0
41
1
10
63.3225871189341
20
0.033452352230654
30
0
41
1
10
63.331905657838
20
0.03785768558987
30
0
41
1
10
63.346378917023
20
0.0434183359523672
30
0
41
1
10
63.3512862854273
20
0.0450966757148308
30
0
41
1
10
63.3612769595603
20
0.0480907638936685
30
0
41
1
10
63.3663603523976
20
0.0494034122592097
30
0
41
1
10
63.3815451719082
20
0.0527134529941122
30
0
41
1
10
63.3916848742523
20
0.0541156870980615
30
0
41
1
10
63.40683545692
20
0.0551157877771686
30
0
41
1
10
63.4118709688981
20
0.0552622733375472
30
0
41
1
10
63.4216410453337
20
0.0552233333648644
30
0
41
1
10
63.4264114611767
20
0.055041099539892
30
0
41
1
10
63.4310753230957
20
0.0547239834247648
30
0
0
SPLINE
5
16D
100
AcDbEntity
8
1
62
256
6
ByLayer
370
18
48
1
60
0
100
AcDbSpline
70
4
71
3
72
12
73
8
40
0
40
0
40
0
40
0
40
0.0278881774059315
40
0.222310541924745
40
0.416732906443559
40
0.611155270962373
40
1
40
1
40
1
40
1
41
1
10
61.7526023646362
20
-0.73522114925197
30
0
41
1
10
61.7149849097574
20
-0.719243039603327
30
0
41
1
10
61.4151174548787
20
-0.591612090250891
30
0
41
1
10
60.853
20
-0.348703367486934
30
0
41
1
10
60.06625
20
-0.0042561021388963
30
0
41
1
10
59.01725
20
0.454944861745417
30
0
41
1
10
58.2305
20
0.792771758265957
30
0
41
1
10
57.7060000000001
20
1.00998969804707
30
0
0
SPLINE
5
16E
100
AcDbEntity
8
1
62
256
6
ByLayer
370
18
48
1
60
0
100
AcDbSpline
70
4
71
3
72
18
73
14
40
0
40
0
40
0
40
0
40
0.250000000000023
40
0.250000000000023
40
0.500000000000046
40
0.500000000000046
40
0.562500000000043
40
0.562500000000043
40
0.625000000000039
40
0.625000000000039
40
0.750000000000032
40
0.750000000000032
40
1
40
1
40
1
40
1
41
1
10
61.38086435781
20
-2.18862670568711
30
0
41
1
10
61.5100793595935
20
-2.21012228632307
30
0
41
1
10
61.6372274106092
20
-2.22287205408759
30
0
41
1
10
61.8874518611603
20
-2.23114569680018
30
0
41
1
10
62.0105442684831
20
-2.22662776652328
30
0
41
1
10
62.161818621265
20
-2.20993896072724
30
0
41
1
10
62.191942194133
20
-2.20604710868173
30
0
41
1
10
62.251919380175
20
-2.19713911298882
30
0
41
1
10
62.2817672266038
20
-2.19212075051587
30
0
41
1
10
62.3702054336929
20
-2.17549452570526
30
0
41
1
10
62.4279297259227
20
-2.16228824550342
30
0
41
1
10
62.5975129563471
20
-2.11651648410856
30
0
41
1
10
62.7058090956159
20
-2.07783429398893
30
0
41
1
10
62.8092899228988
20
-2.03107512115099
30
0
0
SPLINE
5
16F
100
AcDbEntity
8
1
62
256
6
ByLayer
370
18
48
1
60
0
100
AcDbSpline
70
4
71
3
72
8
73
4
40
0
40
0
40
0
40
0
40
1
40
1
40
1
40
1
41
1
10
61.9375737198329
20
1.91249655002255
30
0
41
1
10
61.9083046442268
20
1.91938224219749
30
0
41
1
10
61.8766396674975
20
1.92832626264948
30
0
41
1
10
61.8419688488734
20
1.93985262756112
30
0
0
SPLINE
5
170
100
AcDbEntity
8
1
62
256
6
ByLayer
370
18
48
1
60
0
100
AcDbSpline
70
4
71
3
72
8
73
4
40
0
40
0
40
0
40
0
40
1
40
1
40
1
40
1
41
1
10
57.871178692519
20
2.99923263084318
30
0
41
1
10
57.8160440768746
20
3.01650301422464
30
0
41
1
10
57.7609816047458
20
3.03406608460136
30
0
41
1
10
57.7060000000001
20
3.05193630042479
30
0
0
SPLINE
5
171
100
AcDbEntity
8
1
62
256
6
ByLayer
370
18
48
1
60
0
100
AcDbSpline
70
4
71
3
72
8
73
4
40
0
40
0
40
0
40
0
40
1
40
1
40
1
40
1
41
1
10
57.8711786925189
20
2.99923263084318
30
0
41
1
10
57.9308420891371
20
3.01575925518478
30
0
41
1
10
57.9895935363267
20
3.03149031232357
30
0
41
1
10
58.0474440712371
20
3.04643543085731
30
0
0
SPLINE
5
172
100
AcDbEntity
8
1
62
256
6
ByLayer
370
18
48
1
60
0
100
AcDbSpline
70
4
71
3
72
20
73
16
40
0
40
0
40
0
40
0
40
0.25
40
0.25
40
0.375
40
0.375
40
0.5
40
0.5
40
0.625
40
0.625
40
0.75
40
0.75
40
0.875
40
0.875
40
1
40
1
40
1
40
1
41
1
10
61.940652993711
20
-0.070499862939954
30
0
41
1
10
61.9482802625444
20
-0.0850449425989268
30
0
41
1
10
61.9551954690562
20
-0.0998164971146878
30
0
41
1
10
61.9640863012147
20
-0.122445180821387
30
0
41
1
10
61.9668005785289
20
-0.130067377260588
30
0
41
1
10
61.9716095040057
20
-0.145508846615854
30
0
41
1
10
61.9737162561927
20
-0.153382967926689
30
0
41
1
10
61.9770631367186
20
-0.169098629560295
30
0
41
1
10
61.9783018606905
20
-0.176907375924913
30
0
41
1
10
61.9797289352383
20
-0.192406269457848
30
0
41
1
10
61.9799111518924
20
-0.200174780735011
30
0
41
1
10
61.9789852847046
20
-0.215132637528853
30
0
41
1
10
61.9778920864001
20
-0.222297019058743
30
0
41
1
10
61.9743314133687
20
-0.235939920549754
30
0
41
1
10
61.9718459922223
20
-0.242413446470607
30
0
41
1
10
61.9687339963911
20
-0.248307015775907
30
0
0
SPLINE
5
173
100
AcDbEntity
8
1
62
256
6
ByLayer
370
18
48
1
60
0
100
AcDbSpline
70
4
71
3
72
10
73
6
40
0
40
0
40
0
40
0
40
0.5
40
0.5
40
1
40
1
40
1
40
1
41
1
10
61.9687339974352
20
-0.248307016333513
30
0
41
1
10
61.9279899505629
20
-0.325470478263327
30
0
41
1
10
61.8891717351962
20
-0.404380292650103
30
0
41
1
10
61.8166139458575
20
-0.566463325743172
30
0
41
1
10
61.7829103198142
20
-0.649533235123187
30
0
41
1
10
61.7526023641838
20
-0.735221148998733
30
0
0
SPLINE
5
174
100
AcDbEntity
8
1
62
256
6
ByLayer
370
18
48
1
60
0
100
AcDbSpline
70
4
71
3
72
10
73
6
40
0
40
0
40
0
40
0
40
0.5
40
0.5
40
1
40
1
40
1
40
1
41
1
10
61.7526023646088
20
-0.735221149297018
30
0
41
1
10
61.7664619437093
20
-0.757098347049123
30
0
41
1
10
61.781067413881
20
-0.778379001004566
30
0
41
1
10
61.8113643410161
20
-0.819888506711465
30
0
41
1
10
61.8270471864131
20
-0.840102430579492
30
0
41
1
10
61.8431468820672
20
-0.859850519808248
30
0
0
SPLINE
5
175
100
AcDbEntity
8
1
62
256
6
ByLayer
370
18
48
1
60
0
100
AcDbSpline
70
4
71
3
72
24
73
20
40
0
40
0
40
0
40
0
40
0.250000000000008
40
0.250000000000008
40
0.500000000000016
40
0.500000000000016
40
0.625000000000058
40
0.625000000000058
40
0.687500000000049
40
0.687500000000049
40
0.750000000000039
40
0.750000000000039
40
0.812500000000029
40
0.812500000000029
40
0.87500000000002
40
0.87500000000002
40
0.93750000000001
40
0.93750000000001
40
1
40
1
40
1
40
1
41
1
10
61.8431468851373
20
-0.8598505211462
30
0
41
1
10
61.8563733695548
20
-0.876074308239396
30
0
41
1
10
61.8691296281174
20
-0.892750980703511
30
0
41
1
10
61.8932460091455
20
-0.927448977647032
30
0
41
1
10
61.9046771447809
20
-0.945561172272079
30
0
41
1
10
61.9195151705286
20
-0.973623018733207
30
0
41
1
10
61.9240874389778
20
-0.983147956428752
30
0
41
1
10
61.9301342407102
20
-0.997806676405958
30
0
41
1
10
61.9320131862806
20
-1.00275543707499
30
0
41
1
10
61.9354249253955
20
-1.01281132552486
30
0
41
1
10
61.9369670174447
20
-1.01795463481727
30
0
41
1
10
61.9395451351783
20
-1.02825663630429
30
0
41
1
10
61.9405797993541
20
-1.03339669229749
30
0
41
1
10
61.9420249856557
20
-1.0436499519983
30
0
41
1
10
61.9424347244859
20
-1.04881398654391
30
0
41
1
10
61.9424636855428
20
-1.05882274744906
30
0
41
1
10
61.9420905196513
20
-1.06365512351547
30
0
41
1
10
61.940491719342
20
-1.07294162289517
30
0
41
1
10
61.9392505124199
20
-1.07742956441643
30
0
41
1
10
61.9375736974686
20
-1.08161055249019
30
0
0
SPLINE
5
176
100
AcDbEntity
8
1
62
256
6
ByLayer
370
18
48
1
60
0
100
AcDbSpline
70
4
71
3
72
18
73
14
40
0
40
0
40
0
40
0
40
0.250000000000017
40
0.250000000000017
40
0.500000000000034
40
0.500000000000034
40
0.56250000000003
40
0.56250000000003
40
0.625000000000025
40
0.625000000000025
40
0.750000000000017
40
0.750000000000017
40
1
40
1
40
1
40
1
41
1
10
61.8305417116026
20
0.263174894154304
30
0
41
1
10
61.9444505001841
20
0.168645075010403
30
0
41
1
10
62.061228093949
20
0.0839052566558394
30
0
41
1
10
62.2999661204743
20
-0.0678875750539305
30
0
41
1
10
62.4219277197684
20
-0.134936607530875
30
0
41
1
10
62.5773742344244
20
-0.208528901851054
30
0
41
1
10
62.6086136132762
20
-0.222735216011216
30
0
41
1
10
62.6713877295994
20
-0.250139912131687
30
0
41
1
10
62.7029046283626
20
-0.263328519536344
30
0
41
1
10
62.7973238067846
20
-0.301192238570508
30
0
41
1
10
62.8602816893216
20
-0.324242178919547
30
0
41
1
10
63.0491875844609
20
-0.387381592416347
30
0
41
1
10
63.175167405123
20
-0.421542567700953
30
0
41
1
10
63.3011786622383
20
-0.449844306466133
30
0
0
SPLINE
5
177
100
AcDbEntity
8
1
62
256
6
ByLayer
370
18
48
1
60
0
100
AcDbSpline
70
4
71
3
72
8
73
4
40
0
40
0
40
0
40
0
40
1
40
1
40
1
40
1
41
1
10
57.7060000000001
20
0.742154594042717
30
0
41
1
10
57.6329988107843
20
0.761677631159472
30
0
41
1
10
57.5600567573414
20
0.7809256965256
30
0
41
1
10
57.4871737946729
20
0.799898999377461
30
0
0
SPLINE
5
178
100
AcDbEntity
8
1
62
256
6
ByLayer
370
18
48
1
60
0
100
AcDbSpline
70
4
71
3
72
18
73
14
40
0
40
0
40
0
40
0
40
0.249999999999981
40
0.249999999999981
40
0.499999999999961
40
0.499999999999961
40
0.624999999999971
40
0.624999999999971
40
0.749999999999981
40
0.749999999999981
40
0.87499999999999
40
0.87499999999999
40
1
40
1
40
1
40
1
41
1
10
57.4871737946718
20
3.11843562385104
30
0
41
1
10
57.4353948958822
20
3.10709737992286
30
0
41
1
10
57.3850038703534
20
3.09463139535373
30
0
41
1
10
57.2876129885232
20
3.06679402364347
30
0
41
1
10
57.2406234150993
20
3.05142340876523
30
0
41
1
10
57.1738604971794
20
3.02565939125506
30
0
41
1
10
57.1522596613101
20
3.01663093620465
30
0
41
1
10
57.1105346558871
20
2.99755951850545
30
0
41
1
10
57.0904063932505
20
2.98751246232507
30
0
41
1
10
57.0520094406746
20
2.96633196877704
30
0
41
1
10
57.0336936483353
20
2.95517186285889
30
0
41
1
10
56.9992982200276
20
2.93166743940256
30
0
41
1
10
56.9832173526619
20
2.91932768889208
30
0
41
1
10
56.9684162247791
20
2.90630743532247
30
0
0
SPLINE
5
179
100
AcDbEntity
8
1
62
256
6
ByLayer
370
18
48
1
60
0
100
AcDbSpline
70
4
71
3
72
36
73
32
40
0
40
0
40
0
40
0
40
0.250000000000203
40
0.250000000000203
40
0.375000000000304
40
0.375000000000304
40
0.500000000000405
40
0.500000000000405
40
0.562500000000416
40
0.562500000000416
40
0.625000000000427
40
0.625000000000427
40
0.687500000000438
40
0.687500000000438
40
0.718750000000444
40
0.718750000000444
40
0.750000000000449
40
0.750000000000449
40
0.765625000000435
40
0.765625000000435
40
0.78125000000042
40
0.78125000000042
40
0.812500000000391
40
0.812500000000391
40
0.843750000000361
40
0.843750000000361
40
0.875000000000332
40
0.875000000000332
40
0.937500000000166
40
0.937500000000166
40
1
40
1
40
1
40
1
41
1
10
55.0353909816187
20
-3.26064159290127
30
0
41
1
10
55.0095732958999
20
-3.25897783248234
30
0
41
1
10
54.9841897031067
20
-3.25713364221616
30
0
41
1
10
54.9473197004194
20
-3.25396882274285
30
0
41
1
10
54.9352334586329
20
-3.2528468102137
30
0
41
1
10
54.9116952019719
20
-3.25041864415081
30
0
41
1
10
54.9002292037226
20
-3.24911535722904
30
0
41
1
10
54.8839055527781
20
-3.24693694197421
30
0
41
1
10
54.8786122535877
20
-3.24617312557663
30
0
41
1
10
54.8685024831575
20
-3.2445324824188
30
0
41
1
10
54.8636974731868
20
-3.24365883324046
30
0
41
1
10
54.855230708155
20
-3.2417733225422
30
0
41
1
10
54.8514872949294
20
-3.24075265382805
30
0
41
1
10
54.8479695659332
20
-3.23907558235837
30
0
41
1
10
54.8471574777351
20
-3.23848587446148
30
0
41
1
10
54.8467702777685
20
-3.23728904106301
30
0
41
1
10
54.8472199468351
20
-3.2366709461005
30
0
41
1
10
54.8490899478214
20
-3.23579745846212
30
0
41
1
10
54.8499203739621
20
-3.23551075813103
30
0
41
1
10
54.8518991969952
20
-3.23497530834177
30
0
41
1
10
54.8530512620143
20
-3.23472336036801
30
0
41
1
10
54.8569407283206
20
-3.23401040057723
30
0
41
1
10
54.8599973150061
20
-3.23361133419914
30
0
41
1
10
54.8665912723325
20
-3.23292526664215
30
0
41
1
10
54.8701353940068
20
-3.23263842435333
30
0
41
1
10
54.8773368786238
20
-3.23215218967332
30
0
41
1
10
54.8810311331337
20
-3.23194981114634
30
0
41
1
10
54.8923047237275
20
-3.23142695695012
30
0
41
1
10
54.9000366614456
20
-3.23119121721427
30
0
41
1
10
54.9155005480275
20
-3.23085043155507
30
0
41
1
10
54.9232827269539
20
-3.23074562946329
30
0
41
1
10
54.931097164266
20
-3.23068336025546
30
0
0
SPLINE
5
17A
100
AcDbEntity
8
1
62
256
6
ByLayer
370
18
48
1
60
0
100
AcDbSpline
70
4
71
3
72
12
73
8
40
0
40
0
40
0
40
0
40
0.500000000000145
40
0.500000000000145
40
0.750000000000072
40
0.750000000000072
40
1
40
1
40
1
40
1
41
1
10
54.931097164266
20
-3.23068336025543
30
0
41
1
10
54.9549046406025
20
-3.23049365079427
30
0
41
1
10
54.9785028876935
20
-3.23013039551208
30
0
41
1
10
55.0133278687384
20
-3.22909340795755
30
0
41
1
10
55.0248393234602
20
-3.22866436535995
30
0
41
1
10
55.0475696956889
20
-3.22754688279207
30
0
41
1
10
55.0587930077078
20
-3.22686286517967
30
0
41
1
10
55.0697650416674
20
-3.22594778269158
30
0
0
SPLINE
5
17B
100
AcDbEntity
8
1
62
256
6
ByLayer
370
18
48
1
60
0
100
AcDbSpline
70
4
71
3
72
16
73
12
40
0
40
0
40
0
40
0
40
0.25
40
0.25
40
0.5
40
0.5
40
0.75
40
0.75
40
0.875
40
0.875
40
1
40
1
40
1
40
1
41
1
10
55.0697650416674
20
-3.22594778269158
30
0
41
1
10
54.9805586747395
20
-3.21359257635177
30
0
41
1
10
54.8939731298579
20
-3.19859244339926
30
0
41
1
10
54.7267327463745
20
-3.16217072035005
30
0
41
1
10
54.6460760298978
20
-3.14075400809537
30
0
41
1
10
54.4915302219817
20
-3.0899981141757
30
0
41
1
10
54.4176375037904
20
-3.06066770293904
30
0
41
1
10
54.3126728730028
20
-3.00917657851448
30
0
41
1
10
54.2785975160514
20
-2.99071191093054
30
0
41
1
10
54.2131063459869
20
-2.95127117999439
30
0
41
1
10
54.1816476370606
20
-2.93028216106725
30
0
41
1
10
54.1515386894154
20
-2.9078992644387
30
0
0
SPLINE
5
17C
100
AcDbEntity
8
1
62
256
6
ByLayer
370
18
48
1
60
0
100
AcDbSpline
70
4
71
3
72
28
73
24
40
0
40
0
40
0
40
0
40
0.125000000000069
40
0.125000000000069
40
0.187500000000063
40
0.187500000000063
40
0.250000000000058
40
0.250000000000058
40
0.312500000000052
40
0.312500000000052
40
0.375000000000047
40
0.375000000000047
40
0.437500000000041
40
0.437500000000041
40
0.500000000000035
40
0.500000000000035
40
0.625000000000027
40
0.625000000000027
40
0.750000000000018
40
0.750000000000018
40
0.875000000000009
40
0.875000000000009
40
1
40
1
40
1
40
1
41
1
10
54.1515386894155
20
-2.90789926443867
30
0
41
1
10
54.1469949176833
20
-2.90452143887717
30
0
41
1
10
54.1429198082662
20
-2.90102314201704
30
0
41
1
10
54.1378445526732
20
-2.89551657895919
30
0
41
1
10
54.1363275443023
20
-2.89363744436935
30
0
41
1
10
54.1337399231863
20
-2.88976936379456
30
0
41
1
10
54.1326751305902
20
-2.88778240211306
30
0
41
1
10
54.1311616343846
20
-2.8837789377836
30
0
41
1
10
54.1307040926118
20
-2.88175140984697
30
0
41
1
10
54.1305262803609
20
-2.87763519007169
30
0
41
1
10
54.130818059758
20
-2.87555157546214
30
0
41
1
10
54.1322168416708
20
-2.87150331135683
30
0
41
1
10
54.1333207823683
20
-2.86951687149835
30
0
41
1
10
54.1363811854597
20
-2.86562610194514
30
0
41
1
10
54.1383488088625
20
-2.86372557478384
30
0
41
1
10
54.1451950074484
20
-2.85840716073577
30
0
41
1
10
54.1511689767057
20
-2.85524573471719
30
0
41
1
10
54.1643212011653
20
-2.8498468845288
30
0
41
1
10
54.1716055955498
20
-2.8475387430212
30
0
41
1
10
54.1868144813537
20
-2.84353495031326
30
0
41
1
10
54.1946738110736
20
-2.84185202163974
30
0
41
1
10
54.2107299956065
20
-2.83891276518204
30
0
41
1
10
54.2189292466541
20
-2.83765934845007
30
0
41
1
10
54.2272540808493
20
-2.83656588783302
30
0
0
SPLINE
5
17D
100
AcDbEntity
8
1
62
256
6
ByLayer
370
18
48
1
60
0
100
AcDbSpline
70
4
71
3
72
26
73
22
40
0
40
0
40
0
40
0
40
0.0625
40
0.0625
40
0.125
40
0.125
40
0.1875
40
0.1875
40
0.25
40
0.25
40
0.375
40
0.375
40
0.5
40
0.5
40
0.625
40
0.625
40
0.75
40
0.75
40
0.875
40
0.875
40
1
40
1
40
1
40
1
41
1
10
54.2272540808493
20
-2.83656588783302
30
0
41
1
10
54.2768979801888
20
-2.83004519954892
30
0
41
1
10
54.3269709394614
20
-2.82487491751999
30
0
41
1
10
54.4276819733182
20
-2.81637933217081
30
0
41
1
10
54.478324504949
20
-2.81306643020113
30
0
41
1
10
54.5800338685756
20
-2.80785828936715
30
0
41
1
10
54.6311583320455
20
-2.80596682518754
30
0
41
1
10
54.7332587928628
20
-2.80334119205031
30
0
41
1
10
54.7842860649506
20
-2.80260481936256
30
0
41
1
10
54.9373117169744
20
-2.80181510193648
30
0
41
1
10
55.0392545725891
20
-2.80316686813242
30
0
41
1
10
55.2430310217978
20
-2.80860413091486
30
0
41
1
10
55.3449346167696
20
-2.81270418146329
30
0
41
1
10
55.5483146497716
20
-2.82300601744566
30
0
41
1
10
55.6497070943671
20
-2.82920525062559
30
0
41
1
10
55.8519964116666
20
-2.84322688272346
30
0
41
1
10
55.9528926601242
20
-2.85105136115431
30
0
41
1
10
56.1542574443057
20
-2.86795878064868
30
0
41
1
10
56.2547242961068
20
-2.87704322132021
30
0
41
1
10
56.4549214758158
20
-2.89612664842022
30
0
41
1
10
56.5547009428622
20
-2.9061301745929
30
0
41
1
10
56.6541977576613
20
-2.91645887382936
30
0
0
SPLINE
5
17E
100
AcDbEntity
8
1
62
256
6
ByLayer
370
18
48
1
60
0
100
AcDbSpline
70
4
71
3
72
8
73
4
40
0
40
0
40
0
40
0
40
1
40
1
40
1
40
1
41
1
10
56.7239855452511
20
-2.89882914618471
30
0
41
1
10
56.7005381770247
20
-2.90462978342646
30
0
41
1
10
56.6772717752619
20
-2.91050667311023
30
0
41
1
10
56.6541977576613
20
-2.91645887382936
30
0
0
SPLINE
5
17F
100
AcDbEntity
8
1
62
256
6
ByLayer
370
18
48
1
60
0
100
AcDbSpline
70
4
71
3
72
10
73
6
40
0
40
0
40
0
40
0
40
0.5
40
0.5
40
1
40
1
40
1
40
1
41
1
10
56.968416224779
20
-2.76335294145974
30
0
41
1
10
56.9226207481707
20
-2.78488564362195
30
0
41
1
10
56.8787699421208
20
-2.80699755321814
30
0
41
1
10
56.7965754408688
20
-2.85225259336662
30
0
41
1
10
56.7582493723525
20
-2.87538608630558
30
0
41
1
10
56.7239855452512
20
-2.89882914618471
30
0
0
SPLINE
5
180
100
AcDbEntity
8
1
62
256
6
ByLayer
370
18
48
1
60
0
100
AcDbSpline
70
4
71
3
72
18
73
14
40
0
40
0
40
0
40
0
40
0.25
40
0.25
40
0.499999999999999
40
0.499999999999999
40
0.624999999999999
40
0.624999999999999
40
0.749999999999999
40
0.749999999999999
40
0.875
40
0.875
40
1
40
1
40
1
40
1
41
1
10
57.4871737946714
20
-2.42991215118727
30
0
41
1
10
57.4353948958818
20
-2.45469939793648
30
0
41
1
10
57.385003870353
20
-2.48020626000226
30
0
41
1
10
57.2876129885228
20
-2.53285847606941
30
0
41
1
10
57.2406234150989
20
-2.56000098115976
30
0
41
1
10
57.1738604971791
20
-2.60187356865984
30
0
41
1
10
57.1522596613098
20
-2.61600451362653
30
0
41
1
10
57.1105346558869
20
-2.64464160750825
30
0
41
1
10
57.0904063932502
20
-2.65915237608118
30
0
41
1
10
57.0520094406743
20
-2.68845731732858
30
0
41
1
10
57.033693648335
20
-2.70328793507645
30
0
41
1
10
56.9992982200274
20
-2.73316180452352
30
0
41
1
10
56.9832173526617
20
-2.74820174811563
30
0
41
1
10
56.9684162247789
20
-2.76335294145974
30
0
0
SPLINE
5
181
100
AcDbEntity
8
1
62
256
6
ByLayer
370
18
48
1
60
0
100
AcDbSpline
70
4
71
3
72
36
73
32
40
0
40
0
40
0
40
0
40
0.250000000000054
40
0.250000000000054
40
0.375000000000081
40
0.375000000000081
40
0.500000000000108
40
0.500000000000108
40
0.562500000000162
40
0.562500000000162
40
0.625000000000215
40
0.625000000000215
40
0.687500000000269
40
0.687500000000269
40
0.718750000000294
40
0.718750000000294
40
0.75000000000032
40
0.75000000000032
40
0.765625000000314
40
0.765625000000314
40
0.781250000000308
40
0.781250000000308
40
0.812500000000295
40
0.812500000000295
40
0.843750000000281
40
0.843750000000281
40
0.875000000000268
40
0.875000000000268
40
0.937500000000134
40
0.937500000000134
40
1
40
1
40
1
40
1
41
1
10
55.0353909816186
20
-1.45482551771335
30
0
41
1
10
55.0095732958999
20
-1.43965522841484
30
0
41
1
10
54.9841897031067
20
-1.42394915537537
30
0
41
1
10
54.9473197004193
20
-1.39894621964189
30
0
41
1
10
54.9352334586329
20
-1.39036796942727
30
0
41
1
10
54.9116952019719
20
-1.37246273876809
30
0
41
1
10
54.9002292037226
20
-1.36315175467769
30
0
41
1
10
54.883905552778
20
-1.34816504230196
30
0
41
1
10
54.8786122535877
20
-1.34299710722104
30
0
41
1
10
54.8685024831574
20
-1.33210922523108
30
0
41
1
10
54.8636974731867
20
-1.32641062480764
30
0
41
1
10
54.8552307081549
20
-1.31436289612933
30
0
41
1
10
54.8514872949294
20
-1.30795716173626
30
0
41
1
10
54.8479695659331
20
-1.29766767505558
30
0
41
1
10
54.847157477735
20
-1.29408680932093
30
0
41
1
10
54.8467702777685
20
-1.28689996486645
30
0
41
1
10
54.8472199468351
20
-1.28322944125651
30
0
41
1
10
54.8490899478213
20
-1.27809385154009
30
0
41
1
10
54.8499203739621
20
-1.27641705182017
30
0
41
1
10
54.8518991969951
20
-1.2732989867261
30
0
41
1
10
54.8530512620143
20
-1.27183879886209
30
0
41
1
10
54.8569407283205
20
-1.2677218724381
30
0
41
1
10
54.8599973150061
20
-1.26543797105157
30
0
41
1
10
54.8665912723325
20
-1.2615283578981
30
0
41
1
10
54.8701353940068
20
-1.25990401915331
30
0
41
1
10
54.8773368786237
20
-1.25715867218048
30
0
41
1
10
54.8810311331336
20
-1.25602097778778
30
0
41
1
10
54.8923047237274
20
-1.25308785459313
30
0
41
1
10
54.9000366614456
20
-1.25177440489
30
0
41
1
10
54.9155005480275
20
-1.24987738055262
30
0
41
1
10
54.9232827269538
20
-1.24929601358067
30
0
41
1
10
54.9310971642659
20
-1.2489505662511
30
0
0
SPLINE
5
182
100
AcDbEntity
8
1
62
256
6
ByLayer
370
18
48
1
60
0
100
AcDbSpline
70
4
71
3
72
16
73
12
40
0
40
0
40
0
40
0
40
0.249999999999954
40
0.249999999999954
40
0.499999999999909
40
0.499999999999909
40
0.749999999999863
40
0.749999999999863
40
0.874999999999931
40
0.874999999999931
40
1
40
1
40
1
40
1
41
1
10
54.931097164266
20
-1.24895056625113
30
0
41
1
10
54.9477663609455
20
-1.24821368280718
30
0
41
1
10
54.9643756200556
20
-1.24698555124738
30
0
41
1
10
54.997413109343
20
-1.2430434655013
30
0
41
1
10
55.0139333717446
20
-1.24032215136927
30
0
41
1
10
55.0460150839531
20
-1.23251129169401
30
0
41
1
10
55.0616270386744
20
-1.22748695565667
30
0
41
1
10
55.0837415796463
20
-1.21653461957484
30
0
41
1
10
55.0908980415343
20
-1.21226444219559
30
0
41
1
10
55.1038268603798
20
-1.202432616463
30
0
41
1
10
55.1097304244602
20
-1.19677267973816
30
0
41
1
10
55.1146440614905
20
-1.19033472001195
30
0
0
SPLINE
5
183
100
AcDbEntity
8
1
62
256
6
ByLayer
370
18
48
1
60
0
100
AcDbSpline
70
4
71
3
72
20
73
16
40
0
40
0
40
0
40
0
40
0.125000000000042
40
0.125000000000042
40
0.250000000000085
40
0.250000000000085
40
0.312500000000106
40
0.312500000000106
40
0.375000000000127
40
0.375000000000127
40
0.500000000000169
40
0.500000000000169
40
0.750000000000084
40
0.750000000000084
40
1
40
1
40
1
40
1
41
1
10
54.4081284676869
20
-0.145993355141911
30
0
41
1
10
54.4061579022974
20
-0.140022077488482
30
0
41
1
10
54.4046749200444
20
-0.13395668141024
30
0
41
1
10
54.4030058628015
20
-0.121575828407458
30
0
41
1
10
54.402844093801
20
-0.115217237826215
30
0
41
1
10
54.4038529346732
20
-0.105968871740998
30
0
41
1
10
54.4043933851458
20
-0.102915625085444
30
0
41
1
10
54.4059103002253
20
-0.0968722563446534
30
0
41
1
10
54.4068986431543
20
-0.0938563909541017
30
0
41
1
10
54.4104648279802
20
-0.0851397335796946
30
0
41
1
10
54.4136191306915
20
-0.0797664107494995
30
0
41
1
10
54.4250842296455
20
-0.0647750379193042
30
0
41
1
10
54.434902534784
20
-0.0568438948642722
30
0
41
1
10
54.4562708992249
20
-0.0437464943271948
30
0
41
1
10
54.467662042159
20
-0.0386586864345304
30
0
41
1
10
54.47945521587
20
-0.034401749688044
30
0
0
SPLINE
5
184
100
AcDbEntity
8
1
62
256
6
ByLayer
370
18
48
1
60
0
100
AcDbSpline
70
4
71
3
72
18
73
14
40
0
40
0
40
0
40
0
40
0.250000000000019
40
0.250000000000019
40
0.500000000000038
40
0.500000000000038
40
0.625000000000029
40
0.625000000000029
40
0.750000000000019
40
0.750000000000019
40
0.87500000000001
40
0.87500000000001
40
1
40
1
40
1
40
1
41
1
10
57.4871737946728
20
0.799898999377461
30
0
41
1
10
57.4353948958832
20
0.764066502475401
30
0
41
1
10
57.3850038703544
20
0.726379551562559
30
0
41
1
10
57.2876129885241
20
0.646438995968396
30
0
41
1
10
57.2406234151001
20
0.604188968412217
30
0
41
1
10
57.1738604971802
20
0.536918141137448
30
0
41
1
10
57.1522596613108
20
0.513875660463469
30
0
41
1
10
57.1105346558878
20
0.466388952664858
30
0
41
1
10
57.0904063932511
20
0.441936028259562
30
0
41
1
10
57.0520094406751
20
0.391645049223314
30
0
41
1
10
57.0336936483358
20
0.365744116405011
30
0
41
1
10
56.999298220028
20
0.31252667957196
30
0
41
1
10
56.9832173526623
20
0.285218071261056
30
0
41
1
10
56.9684162247795
20
0.257106722435424
30
0
0
SPLINE
5
185
100
AcDbEntity
8
1
62
256
6
ByLayer
370
18
48
1
60
0
100
AcDbSpline
70
4
71
3
72
36
73
32
40
0
40
0
40
0
40
0
40
0.24999999999992
40
0.24999999999992
40
0.374999999999881
40
0.374999999999881
40
0.499999999999843
40
0.499999999999843
40
0.562499999999823
40
0.562499999999823
40
0.624999999999803
40
0.624999999999803
40
0.687499999999784
40
0.687499999999784
40
0.718749999999776
40
0.718749999999776
40
0.749999999999767
40
0.749999999999767
40
0.765624999999762
40
0.765624999999762
40
0.781249999999757
40
0.781249999999757
40
0.812499999999822
40
0.812499999999822
40
0.843749999999887
40
0.843749999999887
40
0.874999999999953
40
0.874999999999953
40
0.937499999999976
40
0.937499999999976
40
1
40
1
40
1
40
1
41
1
10
55.0353909816175
20
1.90916033719449
30
0
41
1
10
55.0095732958987
20
1.92291998444938
30
0
41
1
10
54.9841897031056
20
1.93703891820303
30
0
41
1
10
54.9473197004183
20
1.9592768170487
30
0
41
1
10
54.9352334586319
20
1.96686872648556
30
0
41
1
10
54.9116952019709
20
1.98262542860155
30
0
41
1
10
54.9002292037217
20
1.99077687040946
30
0
41
1
10
54.8839055527771
20
2.00381321490596
30
0
41
1
10
54.8786122535868
20
2.00829545268559
30
0
41
1
10
54.8685024831566
20
2.01770598082186
30
0
41
1
10
54.8636974731859
20
2.02261578052847
30
0
41
1
10
54.8552307081541
20
2.03295579779956
30
0
41
1
10
54.8514872949286
20
2.0384346518305
30
0
41
1
10
54.8479695659324
20
2.04719617216622
30
0
41
1
10
54.8471574777343
20
2.0502389707261
30
0
41
1
10
54.8467702777678
20
2.05633207880075
30
0
41
1
10
54.8472199468344
20
2.05943688057323
30
0
41
1
10
54.8490899478206
20
2.0637719028046
30
0
41
1
10
54.8499203739614
20
2.06518574925119
30
0
41
1
10
54.8518991969945
20
2.06781242748997
30
0
41
1
10
54.8530512620137
20
2.06904125275622
30
0
41
1
10
54.8569407283199
20
2.07250315161656
30
0
41
1
10
54.8599973150054
20
2.07441997912898
30
0
41
1
10
54.8665912723319
20
2.0776981689209
30
0
41
1
10
54.8701353940061
20
2.07905829450115
30
0
41
1
10
54.877336878623
20
2.0813555940166
30
0
41
1
10
54.881031133133
20
2.08230669881388
30
0
41
1
10
54.8923047237268
20
2.08475762860718
30
0
41
1
10
54.900036661445
20
2.08585348034177
30
0
41
1
10
54.9155005480268
20
2.08743590873985
30
0
41
1
10
54.9232827269532
20
2.08792048480788
30
0
41
1
10
54.9310971642653
20
2.08820842333051
30
0
0
SPLINE
5
186
100
AcDbEntity
8
1
62
256
6
ByLayer
370
18
48
1
60
0
100
AcDbSpline
70
4
71
3
72
12
73
8
40
0
40
0
40
0
40
0
40
0.499999999999855
40
0.499999999999855
40
0.749999999999928
40
0.749999999999928
40
1
40
1
40
1
40
1
41
1
10
54.9310971642653
20
2.08820842333051
30
0
41
1
10
54.9549046406018
20
2.08908565726173
30
0
41
1
10
54.9785028876928
20
2.09076991369625
30
0
41
1
10
55.0133278687378
20
2.09549280447584
30
0
41
1
10
55.0248393234596
20
2.09743878023929
30
0
41
1
10
55.0475696956883
20
2.10244819237931
30
0
41
1
10
55.0587930077072
20
2.10549518395555
30
0
41
1
10
55.0697650416668
20
2.10949666525568
30
0
0
SPLINE
5
187
100
AcDbEntity
8
1
62
256
6
ByLayer
370
18
48
1
60
0
100
AcDbSpline
70
4
71
3
72
16
73
12
40
0
40
0
40
0
40
0
40
0.250000000000005
40
0.250000000000005
40
0.50000000000001
40
0.50000000000001
40
0.750000000000014
40
0.750000000000014
40
0.875000000000007
40
0.875000000000007
40
1
40
1
40
1
40
1
41
1
10
55.0697650416668
20
2.1094966652557
30
0
41
1
10
54.9805586747391
20
2.16352362760267
30
0
41
1
10
54.8939731298575
20
2.21788040898466
30
0
41
1
10
54.7267327463743
20
2.32700684565984
30
0
41
1
10
54.6460760298976
20
2.38177854491181
30
0
41
1
10
54.4915302219817
20
2.49133832280336
30
0
41
1
10
54.4176375037906
20
2.5461298518895
30
0
41
1
10
54.3126728730031
20
2.62785841769841
30
0
41
1
10
54.2785975160518
20
2.65508066890808
30
0
41
1
10
54.2131063459873
20
2.70881381239951
30
0
41
1
10
54.181647637061
20
2.73535506653889
30
0
41
1
10
54.151538689416
20
2.76149717950352
30
0
0
SPLINE
5
188
100
AcDbEntity
8
1
62
256
6
ByLayer
370
18
48
1
60
0
100
AcDbSpline
70
4
71
3
72
28
73
24
40
0
40
0
40
0
40
0
40
0.125000000000053
40
0.125000000000053
40
0.18750000000008
40
0.18750000000008
40
0.250000000000107
40
0.250000000000107
40
0.312500000000134
40
0.312500000000134
40
0.37500000000016
40
0.37500000000016
40
0.437500000000187
40
0.437500000000187
40
0.500000000000214
40
0.500000000000214
40
0.625000000000161
40
0.625000000000161
40
0.750000000000107
40
0.750000000000107
40
0.875000000000054
40
0.875000000000054
40
1
40
1
40
1
40
1
41
1
10
54.151538689416
20
2.76149717950352
30
0
41
1
10
54.1469949176838
20
2.76544231220325
30
0
41
1
10
54.1429198082668
20
2.76948241583321
30
0
41
1
10
54.1378445526736
20
2.77576001461281
30
0
41
1
10
54.1363275443029
20
2.77788920558237
30
0
41
1
10
54.1337399231869
20
2.78224276574042
30
0
41
1
10
54.1326751305908
20
2.7844646550281
30
0
41
1
10
54.1311616343852
20
2.78891094810265
30
0
41
1
10
54.1307040926123
20
2.79114780999603
30
0
41
1
10
54.1305262803615
20
2.79565764953716
30
0
41
1
10
54.1308180597586
20
2.79792462187544
30
0
41
1
10
54.1322168416714
20
2.80229987950057
30
0
41
1
10
54.133320782369
20
2.80443212266701
30
0
41
1
10
54.1363811854603
20
2.80858250781603
30
0
41
1
10
54.1383488088631
20
2.81059626633612
30
0
41
1
10
54.145195007449
20
2.81620045922057
30
0
41
1
10
54.1511689767062
20
2.8194887418986
30
0
41
1
10
54.1643212011659
20
2.82506319171108
30
0
41
1
10
54.1716055955504
20
2.82742308514844
30
0
41
1
10
54.1868144813544
20
2.83149551890287
30
0
41
1
10
54.1946738110743
20
2.83319493765799
30
0
41
1
10
54.2107299956072
20
2.83615198862316
30
0
41
1
10
54.2189292466547
20
2.83740636717172
30
0
41
1
10
54.22725408085
20
2.83849759687837
30
0
0
SPLINE
5
189
100
AcDbEntity
8
1
62
256
6
ByLayer
370
18
48
1
60
0
100
AcDbSpline
70
4
71
3
72
26
73
22
40
0
40
0
40
0
40
0
40
0.0625000000000064
40
0.0625000000000064
40
0.125000000000013
40
0.125000000000013
40
0.187500000000019
40
0.187500000000019
40
0.250000000000025
40
0.250000000000025
40
0.375000000000021
40
0.375000000000021
40
0.500000000000017
40
0.500000000000017
40
0.625000000000013
40
0.625000000000013
40
0.750000000000008
40
0.750000000000008
40
0.875000000000004
40
0.875000000000004
40
1
40
1
40
1
40
1
41
1
10
54.22725408085
20
2.83849759687834
30
0
41
1
10
54.2768979801895
20
2.84500498146304
30
0
41
1
10
54.326970939462
20
2.85004057894949
30
0
41
1
10
54.4276819733187
20
2.85824037171417
30
0
41
1
10
54.4783245049496
20
2.86138763361319
30
0
41
1
10
54.5800338685762
20
2.86630984229049
30
0
41
1
10
54.631158332046
20
2.86807953764907
30
0
41
1
10
54.7332587928634
20
2.87053159843728
30
0
41
1
10
54.784286064951
20
2.87121534959823
30
0
41
1
10
54.9373117169748
20
2.87194937997978
30
0
41
1
10
55.0392545725895
20
2.8706993617605
30
0
41
1
10
55.2430310217982
20
2.86560870809183
30
0
41
1
10
55.34493461677
20
2.86175135043305
30
0
41
1
10
55.548314649772
20
2.85186524911737
30
0
41
1
10
55.6497070943674
20
2.8458379205592
30
0
41
1
10
55.8519964116668
20
2.83185523020631
30
0
41
1
10
55.9528926601245
20
2.8238974745517
30
0
41
1
10
56.1542574443058
20
2.80617594931783
30
0
41
1
10
56.2547242961069
20
2.79641003063142
30
0
41
1
10
56.4549214758158
20
2.77517750970182
30
0
41
1
10
56.5547009428622
20
2.76370614262976
30
0
41
1
10
56.6541977576613
20
2.75139992662085
30
0
0
SPLINE
5
18A
100
AcDbEntity
8
1
62
256
6
ByLayer
370
18
48
1
60
0
100
AcDbSpline
70
4
71
3
72
8
73
4
40
0
40
0
40
0
40
0
40
1
40
1
40
1
40
1
41
1
10
56.7239855452511
20
2.77198078066868
30
0
41
1
10
56.7005381770246
20
2.76534562790457
30
0
41
1
10
56.6772717752618
20
2.75849172647878
30
0
41
1
10
56.6541977576613
20
2.75139992662085
30
0
0
SPLINE
5
18B
100
AcDbEntity
8
1
62
256
6
ByLayer
370
18
48
1
60
0
100
AcDbSpline
70
4
71
3
72
10
73
6
40
0
40
0
40
0
40
0
40
0.5
40
0.5
40
1
40
1
40
1
40
1
41
1
10
56.9684162247791
20
2.90630743532247
30
0
41
1
10
56.9226207481709
20
2.88780320032112
30
0
41
1
10
56.8787699421209
20
2.86762770835236
30
0
41
1
10
56.7965754408688
20
2.8231199739497
30
0
41
1
10
56.7582493723524
20
2.79879650402353
30
0
41
1
10
56.7239855452511
20
2.77198078066868
30
0
0
SPLINE
5
18C
100
AcDbEntity
8
1
62
256
6
ByLayer
370
18
48
1
60
0
100
AcDbSpline
70
4
71
3
72
10
73
6
40
0
40
0
40
0
40
0
40
0.5
40
0.5
40
1
40
1
40
1
40
1
41
1
10
56.9684162247795
20
0.257106722435395
30
0
41
1
10
56.9226207481711
20
0.217155195985129
30
0
41
1
10
56.8787699421211
20
0.174932572094235
30
0
41
1
10
56.7965754408688
20
0.0852395362383334
30
0
41
1
10
56.7582493723524
20
0.0377875057481845
30
0
41
1
10
56.723985545251
20
-0.012508617777911
30
0
0
SPLINE
5
18D
100
AcDbEntity
8
1
62
256
6
ByLayer
370
18
48
1
60
0
100
AcDbSpline
70
4
71
3
72
26
73
22
40
0
40
0
40
0
40
0
40
0.0625
40
0.0625
40
0.125
40
0.125
40
0.1875
40
0.1875
40
0.25
40
0.25
40
0.375
40
0.375
40
0.5
40
0.5
40
0.625
40
0.625
40
0.75
40
0.75
40
0.875
40
0.875
40
1
40
1
40
1
40
1
41
1
10
54.47945521587
20
-0.034401749688044
30
0
41
1
10
54.5220800538786
20
-0.0190156251656504
30
0
41
1
10
54.5652348189781
20
-0.0065570353621922
30
0
41
1
10
54.6522170492127
20
0.0146441955941157
30
0
41
1
10
54.6960509386802
20
0.0233513381998591
30
0
41
1
10
54.7842134305406
20
0.0380330367218278
30
0
41
1
10
54.8285440861401
20
0.0439962475530251
30
0
41
1
10
54.9175939987112
20
0.0537763052231526
30
0
41
1
10
54.9623268803267
20
0.0575893765561659
30
0
41
1
10
55.0969262004732
20
0.0663728751806332
30
0
41
1
10
55.1866333909842
20
0.0686930506463455
30
0
41
1
10
55.3660110518852
20
0.0682804862609316
30
0
41
1
10
55.4556813259423
20
0.0655206861563613
30
0
41
1
10
55.6349926624384
20
0.0559807857937074
30
0
41
1
10
55.7246226692632
20
0.0491885899604938
30
0
41
1
10
55.9033779712341
20
0.032291130143534
30
0
41
1
10
55.9925710221526
20
0.0221783570502225
30
0
41
1
10
56.170640586297
20
-0.0009011493687012
30
0
41
1
10
56.2595580911206
20
-0.0138773059183279
30
0
41
1
10
56.4368570961456
20
-0.0423022836965572
30
0
41
1
10
56.5252450817991
20
-0.0577515596842488
30
0
41
1
10
56.6134003383635
20
-0.0742988708288408
30
0
0
SPLINE
5
18E
100
AcDbEntity
8
1
62
256
6
ByLayer
370
18
48
1
60
0
100
AcDbSpline
70
4
71
3
72
10
73
6
40
0
40
0
40
0
40
0
40
0.5
40
0.5
40
1
40
1
40
1
40
1
41
1
10
57.7060000000001
20
-0.331466323767728
30
0
41
1
10
57.6699363082624
20
-0.325191737866618
30
0
41
1
10
57.6338721999651
20
-0.320649936576132
30
0
41
1
10
57.5617430812183
20
-0.315319069443518
30
0
41
1
10
57.5256403166042
20
-0.314529503098186
30
0
41
1
10
57.4896156726244
20
-0.315832766864702
30
0
0
SPLINE
5
18F
100
AcDbEntity
8
1
62
256
6
ByLayer
370
18
48
1
60
0
100
AcDbSpline
70
4
71
3
72
8
73
4
40
0
40
0
40
0
40
0
40
1
40
1
40
1
40
1
41
1
10
56.723985545251
20
-0.012508617777911
30
0
41
1
10
56.6866494525119
20
-0.0323252881972849
30
0
41
1
10
56.6497715642531
20
-0.0528957188918184
30
0
41
1
10
56.6134003383626
20
-0.0742988708293808
30
0
0
SPLINE
5
190
100
AcDbEntity
8
1
62
256
6
ByLayer
370
18
48
1
60
0
100
AcDbSpline
70
4
71
3
72
10
73
6
40
0
40
0
40
0
40
0
40
0.5
40
0.5
40
1
40
1
40
1
40
1
41
1
10
56.6134003383626
20
-0.0742988708293808
30
0
41
1
10
56.7573133637507
20
-0.116141422850575
30
0
41
1
10
56.9023787890738
20
-0.156933049626645
30
0
41
1
10
57.1945564082749
20
-0.237145930996036
30
0
41
1
10
57.341666707735
20
-0.276572226935798
30
0
41
1
10
57.4896156726244
20
-0.315832766864702
30
0
0
SPLINE
5
191
100
AcDbEntity
8
1
62
256
6
ByLayer
370
18
48
1
60
0
100
AcDbSpline
70
4
71
3
72
18
73
14
40
0
40
0
40
0
40
0
40
0.249999999999985
40
0.249999999999985
40
0.49999999999997
40
0.49999999999997
40
0.56249999999998
40
0.56249999999998
40
0.624999999999989
40
0.624999999999989
40
0.749999999999993
40
0.749999999999993
40
1
40
1
40
1
40
1
41
1
10
55.1146440614905
20
-1.19033472001195
30
0
41
1
10
55.0362915748218
20
-1.12029742530288
30
0
41
1
10
54.9618276260709
20
-1.04659371627076
30
0
41
1
10
54.8217863296256
20
-0.890617765718133
30
0
41
1
10
54.7562050198856
20
-0.808350704885356
30
0
41
1
10
54.6806328370466
20
-0.699177674969206
30
0
41
1
10
54.6658394446027
20
-0.67702501230039
30
0
41
1
10
54.6369198440127
20
-0.632053889821094
30
0
41
1
10
54.6227691117289
20
-0.609193329694875
30
0
41
1
10
54.581565070772
20
-0.539917782139838
30
0
41
1
10
54.5557775381606
20
-0.492855240874292
30
0
41
1
10
54.4835565634687
20
-0.348954011451809
30
0
41
1
10
54.4422559087109
20
-0.249407546341672
30
0
41
1
10
54.4081284676868
20
-0.145993355141883
30
0
0
SPLINE
5
192
100
AcDbEntity
8
1
62
256
6
ByLayer
370
18
48
1
60
0
100
AcDbSpline
70
4
71
3
72
8
73
4
40
0
40
0
40
0
40
0
40
1
40
1
40
1
40
1
41
1
10
63.6866482007562
20
0.614643911794531
30
0
41
1
10
63.6313714675431
20
0.709647914985624
30
0
41
1
10
63.5730259230055
20
0.806070186347171
30
0
41
1
10
63.5116214808318
20
0.903903929180473
30
0
0
SPLINE
5
193
100
AcDbEntity
8
1
62
256
6
ByLayer
370
18
48
1
60
0
100
AcDbSpline
70
4
71
3
72
32
73
28
40
0
40
0
40
0
40
0
40
0.0625000000000042
40
0.0625000000000042
40
0.125000000000008
40
0.187500000000013
40
0.187500000000013
40
0.218750000000019
40
0.218750000000019
40
0.250000000000025
40
0.375000000000031
40
0.375000000000031
40
0.500000000000038
40
0.500000000000038
40
0.531250000000037
40
0.531250000000037
40
0.562500000000036
40
0.562500000000036
40
0.625000000000034
40
0.625000000000034
40
0.750000000000018
40
0.750000000000018
40
0.812500000000017
40
0.812500000000017
40
0.875000000000016
40
0.875000000000016
40
1
40
1
40
1
40
1
41
1
10
63.5116214808318
20
0.903903929180501
30
0
41
1
10
63.4928170293372
20
0.909645837641449
30
0
41
1
10
63.4727231122217
20
0.91651793566075
30
0
41
1
10
63.4300353247189
20
0.932453288282233
30
0
41
1
10
63.384863835097
20
0.950565553692542
30
0
41
1
10
63.3345311187576
20
0.973201526016169
30
0
41
1
10
63.2947707933816
20
0.991940918852407
30
0
41
1
10
63.281156152038
20
0.998493751740853
30
0
41
1
10
63.2533751921994
20
1.01213508192364
30
0
41
1
10
63.1826432589252
20
1.04752711623297
30
0
41
1
10
63.1055401317066
20
1.08933603051779
30
0
41
1
10
62.9741196025705
20
1.16434358285758
30
0
41
1
10
62.9044253474859
20
1.20585991761402
30
0
41
1
10
62.8119560146682
20
1.26314522421575
30
0
41
1
10
62.7931514008768
20
1.27489948145231
30
0
41
1
10
62.7552656967603
20
1.29878785400456
30
0
41
1
10
62.736178235979
20
1.31092534866625
30
0
41
1
10
62.6784905118129
20
1.34790641620103
30
0
41
1
10
62.6394667888149
20
1.37331605654555
30
0
41
1
10
62.5207452417458
20
1.4517511510019
30
0
41
1
10
62.4393845310008
20
1.50699949963717
30
0
41
1
10
62.3140078088281
20
1.59433102252899
30
0
41
1
10
62.2716218780393
20
1.62421175610308
30
0
41
1
10
62.1858904748129
20
1.68535236378122
30
0
41
1
10
62.1429873085194
20
1.71629647572473
30
0
41
1
10
62.0141670543789
20
1.81023388474452
30
0
41
1
10
61.9281393136337
20
1.87433123368572
30
0
41
1
10
61.8419688488889
20
1.93985262754777
30
0
0
SPLINE
5
194
100
AcDbEntity
8
1
62
256
6
ByLayer
370
18
48
1
60
0
100
AcDbSpline
70
4
71
3
72
58
73
54
40
0
40
0
40
0
40
0
40
0.0312499999999903
40
0.0312499999999903
40
0.0468749999999814
40
0.0468749999999814
40
0.0624999999999725
40
0.0624999999999725
40
0.124999999999953
40
0.124999999999953
40
0.187499999999934
40
0.187499999999934
40
0.203124999999927
40
0.203124999999927
40
0.21874999999992
40
0.21874999999992
40
0.249999999999906
40
0.249999999999906
40
0.281249999999892
40
0.281249999999892
40
0.289062499999887
40
0.291015624999887
40
0.291015624999887
40
0.292968749999888
40
0.292968749999888
40
0.294921874999889
40
0.294921874999889
40
0.296874999999889
40
0.296874999999889
40
0.312499999999895
40
0.312499999999895
40
0.374999999999904
40
0.374999999999904
40
0.437499999999912
40
0.437499999999912
40
0.453124999999916
40
0.453124999999916
40
0.46874999999992
40
0.46874999999992
40
0.499999999999921
40
0.499999999999921
40
0.624999999999922
40
0.624999999999922
40
0.687499999999923
40
0.687499999999923
40
0.718749999999927
40
0.718749999999927
40
0.749999999999932
40
0.749999999999932
40
0.874999999999962
40
0.874999999999962
40
0.937499999999981
40
1
40
1
40
1
40
1
41
1
10
61.8419688488885
20
1.93985262755521
30
0
41
1
10
61.8009809656265
20
1.95537830334624
30
0
41
1
10
61.759540428353
20
1.97152541629634
30
0
41
1
10
61.6966809665451
20
1.99660534913869
30
0
41
1
10
61.6756106943213
20
2.00510881270529
30
0
41
1
10
61.6332297192481
20
2.02239147909023
30
0
41
1
10
61.6118840333513
20
2.03118536438279
30
0
41
1
10
61.5051622516257
20
2.07555484811127
30
0
41
1
10
61.4195782147193
20
2.1124117929389
30
0
41
1
10
61.2477047311461
20
2.18785134258289
30
0
41
1
10
61.1614160198752
20
2.22643728274505
30
0
41
1
10
61.0529175275679
20
2.27519915425432
30
0
41
1
10
61.0311858012985
20
2.28497813665743
30
0
41
1
10
60.9876524830538
20
2.30457574787525
30
0
41
1
10
60.9658604146696
20
2.31439001431374
30
0
41
1
10
60.9007440065515
20
2.3437045579754
30
0
41
1
10
60.857554755042
20
2.36313240881839
30
0
41
1
10
60.7715498613924
20
2.4016741855647
30
0
41
1
10
60.7287331872718
20
2.42079004513056
30
0
41
1
10
60.6754111646081
20
2.4444341823986
30
0
41
1
10
60.6620930570204
20
2.45032960764303
30
0
41
1
10
60.6487887523885
20
2.45620632698075
30
0
41
1
10
60.6434681031185
20
2.45855553697564
30
0
41
1
10
60.6408114282706
20
2.45972398237481
30
0
41
1
10
60.6354761085983
20
2.46209938152873
30
0
41
1
10
60.6328007544661
20
2.46330077733364
30
0
41
1
10
60.6274638699305
20
2.4656801805985
30
0
41
1
10
60.6247974064931
20
2.4668667247864
30
0
41
1
10
60.6007971634317
20
2.47755179275981
30
0
41
1
10
60.5794868837417
20
2.48702797067378
30
0
41
1
10
60.4731324745807
20
2.53410945725369
30
0
41
1
10
60.3885912589267
20
2.57096275180305
30
0
41
1
10
60.2202104223753
20
2.64253299328459
30
0
41
1
10
60.1363738989135
20
2.67725018183296
30
0
41
1
10
60.0318357943025
20
2.7189224528004
30
0
41
1
10
60.0109400325447
20
2.7271735978656
30
0
41
1
10
59.9691578377144
20
2.74353675564507
30
0
41
1
10
59.9482971067674
20
2.75162973068222
30
0
41
1
10
59.8860094012568
20
2.77551219957164
30
0
41
1
10
59.8447932824122
20
2.79095257832287
30
0
41
1
10
59.640088831499
20
2.86569092274849
30
0
41
1
10
59.4807148001913
20
2.91758116290336
30
0
41
1
10
59.2463272709381
20
2.98154071522262
30
0
41
1
10
59.1689913373921
20
3.0005372824746
30
0
41
1
10
59.0540112030876
20
3.02523180236403
30
0
41
1
10
59.01577210422
20
3.0328456402797
30
0
41
1
10
58.9401064590897
20
3.04667297501695
30
0
41
1
10
58.9026715385734
20
3.05289248799679
30
0
41
1
10
58.7173816739503
20
3.08050067782114
30
0
41
1
10
58.5751362054296
20
3.09146317188677
30
0
41
1
10
58.370587605666
20
3.0891948856621
30
0
41
1
10
58.2371802851986
20
3.08142659668451
30
0
41
1
10
58.1096366585517
20
3.06049243306282
30
0
41
1
10
58.0474440712371
20
3.04643543085734
30
0
0
SPLINE
5
195
100
AcDbEntity
8
1
62
256
6
ByLayer
370
18
48
1
60
0
100
AcDbSpline
70
4
71
1
72
4
73
2
40
0
40
0
40
1
40
1
41
1
10
57.8110740849253
20
2.77220241812984
30
0
41
1
10
58.0474440712371
20
3.04643543085734
30
0
0
SPLINE
5
196
100
AcDbEntity
8
1
62
256
6
ByLayer
370
18
48
1
60
0
100
AcDbSpline
70
4
71
3
72
18
73
14
40
0
40
0
40
0
40
0
40
0.25
40
0.25
40
0.500000000000001
40
0.500000000000001
40
0.625
40
0.625
40
0.75
40
0.75
40
0.875
40
0.875
40
1
40
1
40
1
40
1
41
1
10
63.6642686790463
20
0.551422552899055
30
0
41
1
10
63.6615586821488
20
0.543989472981707
30
0
41
1
10
63.6592560614579
20
0.535626379816392
30
0
41
1
10
63.6558313929781
20
0.516504239134065
30
0
41
1
10
63.6546951124873
20
0.505769612619019
30
0
41
1
10
63.6544238373879
20
0.487003995651918
30
0
41
1
10
63.6545789773675
20
0.480253020497543
30
0
41
1
10
63.6555583594205
20
0.465737417679662
30
0
41
1
10
63.656373795188
20
0.458049488592877
30
0
41
1
10
63.6588716405336
20
0.4415566199267
30
0
41
1
10
63.6605791156109
20
0.432668317746391
30
0
41
1
10
63.6649931593051
20
0.41425432422119
30
0
41
1
10
63.6677018570421
20
0.404661540392937
30
0
41
1
10
63.671063279963
20
0.394566329502339
30
0
0
SPLINE
5
197
100
AcDbEntity
8
1
62
256
6
ByLayer
370
18
48
1
60
0
100
AcDbSpline
70
4
71
3
72
8
73
4
40
0
40
0
40
0
40
0
40
1
40
1
40
1
40
1
41
1
10
63.6642686790463
20
0.551422552899055
30
0
41
1
10
63.6722167606287
20
0.57322284560243
30
0
41
1
10
63.679706151036
20
0.594350934279049
30
0
41
1
10
63.6866482007585
20
0.614643911784498
30
0
0
SPLINE
5
198
100
AcDbEntity
8
1
62
256
6
ByLayer
370
18
48
1
60
0
100
AcDbSpline
70
4
71
3
72
26
73
22
40
0
40
0
40
0
40
0
40
0.249999999999994
40
0.249999999999994
40
0.374999999999975
40
0.374999999999975
40
0.437499999999979
40
0.437499999999979
40
0.499999999999984
40
0.499999999999984
40
0.624999999999991
40
0.624999999999991
40
0.749999999999999
40
0.749999999999999
40
0.812499999999999
40
0.812499999999999
40
0.875
40
0.875
40
0.9375
40
0.9375
40
1
40
1
40
1
40
1
41
1
10
63.9447822686643
20
0.0884125756024616
30
0
41
1
10
63.9484565728657
20
0.0779891829884605
30
0
41
1
10
63.9519001223603
20
0.0686908413846083
30
0
41
1
10
63.9565031381799
20
0.0577294357849496
30
0
41
1
10
63.9579311024996
20
0.054615463394839
30
0
41
1
10
63.9598197076571
20
0.0511460107859421
30
0
41
1
10
63.9604087311267
20
0.0501864380044026
30
0
41
1
10
63.9614917946229
20
0.0487382969817531
30
0
41
1
10
63.9619883588152
20
0.0482498080833977
30
0
41
1
10
63.9632782003362
20
0.0476578060089139
30
0
41
1
10
63.963883137833
20
0.0484088932583973
30
0
41
1
10
63.9644565147327
20
0.0527487588314841
30
0
41
1
10
63.9644138661167
20
0.0562334436208971
30
0
41
1
10
63.9638893391721
20
0.0633636840449583
30
0
41
1
10
63.9636376701164
20
0.0660456723539937
30
0
41
1
10
63.9630114790668
20
0.0718271847288463
30
0
41
1
10
63.9626357380988
20
0.0749441871415684
30
0
41
1
10
63.9617756211998
20
0.0815774365811421
30
0
41
1
10
63.9612907281056
20
0.0850947754143192
30
0
41
1
10
63.9602507055583
20
0.0923178632205008
30
0
41
1
10
63.9596930117574
20
0.0960437637286589
30
0
41
1
10
63.9591042928645
20
0.099865609756904
30
0
0
SPLINE
5
199
100
AcDbEntity
8
1
62
256
6
ByLayer
370
18
48
1
60
0
100
AcDbSpline
70
4
71
3
72
8
73
4
40
0
40
0
40
0
40
0
40
1
40
1
40
1
40
1
41
1
10
63.9447822686643
20
0.0884125756024901
30
0
41
1
10
63.940073780168
20
0.101769777817111
30
0
41
1
10
63.9352189746898
20
0.115235036165387
30
0
41
1
10
63.9302198934648
20
0.128806843180911
30
0
0
SPLINE
5
19A
100
AcDbEntity
8
1
62
256
6
ByLayer
370
18
48
1
60
0
100
AcDbSpline
70
4
71
3
72
8
73
4
40
0
40
0
40
0
40
0
40
1
40
1
40
1
40
1
41
1
10
63.9302198934656
20
0.128806843174147
30
0
41
1
10
63.905267618356
20
0.14887296725226
30
0
41
1
10
63.8706546041337
20
0.168352616719858
30
0
41
1
10
63.8267641423207
20
0.187269060060203
30
0
0
SPLINE
5
19B
100
AcDbEntity
8
1
62
256
6
ByLayer
370
18
48
1
60
0
100
AcDbSpline
70
4
71
3
72
28
73
24
40
0
40
0
40
0
40
0
40
0.062499999999988
40
0.062499999999988
40
0.124999999999976
40
0.124999999999976
40
0.187499999999964
40
0.187499999999964
40
0.249999999999952
40
0.249999999999952
40
0.374999999999961
40
0.374999999999961
40
0.437499999999965
40
0.437499999999965
40
0.499999999999969
40
0.499999999999969
40
0.624999999999977
40
0.624999999999977
40
0.749999999999984
40
0.749999999999984
40
0.874999999999992
40
0.874999999999992
40
1
40
1
40
1
40
1
41
1
10
63.671063279963
20
0.394566329502368
30
0
41
1
10
63.6736612029074
20
0.384848702266282
30
0
41
1
10
63.676585804379
20
0.375537433743773
30
0
41
1
10
63.6829610805007
20
0.357589494311099
30
0
41
1
10
63.6864414138728
20
0.348903722878305
30
0
41
1
10
63.6935298622224
20
0.332795876828698
30
0
41
1
10
63.6971705681352
20
0.325271790865173
30
0
41
1
10
63.7045830292921
20
0.311056285758354
30
0
41
1
10
63.7083633787257
20
0.304359194648129
30
0
41
1
10
63.7195532525102
20
0.285756566529784
30
0
41
1
10
63.7269175028404
20
0.275098633364905
30
0
41
1
10
63.7377857503784
20
0.260826274853713
30
0
41
1
10
63.7413901906934
20
0.256350380798239
30
0
41
1
10
63.7484592498326
20
0.247991845763238
30
0
41
1
10
63.7519287847591
20
0.244101329022328
30
0
41
1
10
63.7621578279283
20
0.23315518749601
30
0
41
1
10
63.7687385935591
20
0.226817845835967
30
0
41
1
10
63.781472786242
20
0.215595942653039
30
0
41
1
10
63.7876256873456
20
0.210716045691811
30
0
41
1
10
63.7995307248206
20
0.202143611139775
30
0
41
1
10
63.8052886414696
20
0.198450693592889
30
0
41
1
10
63.8163477945828
20
0.192117146991535
30
0
41
1
10
63.8216587740906
20
0.18946943355516
30
0
41
1
10
63.8267641423207
20
0.187269060060203
30
0
0
SPLINE
5
19C
100
AcDbEntity
8
1
62
256
6
ByLayer
370
18
48
1
60
0
100
AcDbSpline
70
4
71
3
72
36
73
32
40
0
40
0
40
0
40
0
40
0.0352077017508659
40
0.103341434700749
40
0.135739163743605
40
0.160859887879816
40
0.207502603659053
40
0.279422464351676
40
0.315429044833798
40
0.337045934345017
40
0.344253335108112
40
0.353213830389996
40
0.389057303199115
40
0.439817494199941
40
0.444941827126232
40
0.446418185217584
40
0.447259215908992
40
0.447798808559926
40
0.454263328263029
40
0.459260771481384
40
0.495277212155342
40
0.512950171131373
40
0.584522376127845
40
0.611604854181144
40
0.666080902623066
40
0.693476253615662
40
0.776287298701227
40
0.859676884076816
40
0.942707592046044
40
0.997158585451793
40
1
40
1
40
1
40
1
41
1
10
57.8110740849253
20
2.77220241812984
30
0
41
1
10
57.8848254651637
20
2.79913291916711
30
0
41
1
10
58.0988718901851
20
2.85760323414408
30
0
41
1
10
58.3765395332147
20
2.87416244617853
30
0
41
1
10
58.6356340572648
20
2.8502804215139
30
0
41
1
10
58.8535426461362
20
2.81541948225717
30
0
41
1
10
59.1591152264537
20
2.74498119979563
30
0
41
1
10
59.494327106021
20
2.63224064184988
30
0
41
1
10
59.7785031472501
20
2.51487310717363
30
0
41
1
10
59.9214372874101
20
2.45075531752323
30
0
41
1
10
60.0048415030799
20
2.41191362739158
30
0
41
1
10
60.1201506541055
20
2.35792527069401
30
0
41
1
10
60.3323422999303
20
2.25333098902266
30
0
41
1
10
60.5363917564798
20
2.14538049244715
30
0
41
1
10
60.6635802037631
20
2.07563608323031
30
0
41
1
10
60.6801370590326
20
2.06662184461783
30
0
41
1
10
60.686409638827
20
2.0630561479538
30
0
41
1
10
60.7043291371495
20
2.05412873414198
30
0
41
1
10
60.731664041353
20
2.04049413258517
30
0
41
1
10
60.8397869008638
20
1.98603957585183
30
0
41
1
10
60.9730322974991
20
1.91730743073507
30
0
41
1
10
61.2555569385241
20
1.7680779671374
30
0
41
1
10
61.5143945260888
20
1.62662871047448
30
0
41
1
10
61.844969755744
20
1.44250606117242
30
0
41
1
10
62.0729843701063
20
1.31401051248713
30
0
41
1
10
62.4030820527259
20
1.1266374593057
30
0
41
1
10
62.7652430465101
20
0.919132713513392
30
0
41
1
10
63.1694956322436
20
0.684425194265629
30
0
41
1
10
63.4646407349634
20
0.512325430875677
30
0
41
1
10
63.6142957071895
20
0.42651935109231
30
0
41
1
10
63.6683974331627
20
0.396065359156751
30
0
41
1
10
63.6710632799678
20
0.394566329499639
30
0
0
SPLINE
5
19D
100
AcDbEntity
8
1
62
256
6
ByLayer
370
18
48
1
60
0
100
AcDbSpline
70
4
71
1
72
4
73
2
40
0
40
0
40
1
40
1
41
1
10
57.7082835444729
20
2.58870423951828
30
0
41
1
10
57.8110740849253
20
2.77220241812984
30
0
0
SPLINE
5
19E
100
AcDbEntity
8
1
62
256
6
ByLayer
370
18
48
1
60
0
100
AcDbSpline
70
4
71
3
72
13
73
9
40
0
40
0
40
0
40
0
40
0.500000000000005
40
0.500000000000005
40
0.625000000000005
40
0.625000000000005
40
0.750000000000004
40
1
40
1
40
1
40
1
41
1
10
63.8167414201048
20
0.0441594489705324
30
0
41
1
10
63.8694873292873
20
0.0271615557385019
30
0
41
1
10
63.911091404537
20
0.010242819072829
30
0
41
1
10
63.9490054189612
20
-0.0108054924336329
30
0
41
1
10
63.9558854082403
20
-0.0150128847469091
30
0
41
1
10
63.968196477234
20
-0.0234021368010815
30
0
41
1
10
63.9844897540293
20
-0.0359457547812383
30
0
41
1
10
63.9942619132096
20
-0.048368571385879
30
0
41
1
10
63.9978746938345
20
-0.0565966907535937
30
0
0
SPLINE
5
19F
100
AcDbEntity
8
1
62
256
6
ByLayer
370
18
48
1
60
0
100
AcDbSpline
70
4
71
3
72
8
73
4
40
0
40
0
40
0
40
0
40
1
40
1
40
1
40
1
41
1
10
63.9992146251101
20
-0.0587544955922112
30
0
41
1
10
63.9989090381365
20
-0.0580349245232981
30
0
41
1
10
63.9984622952004
20
-0.0573156564568933
30
0
41
1
10
63.9978746938347
20
-0.056596690754418
30
0
0
SPLINE
5
1A0
100
AcDbEntity
8
1
62
256
6
ByLayer
370
18
48
1
60
0
100
AcDbSpline
70
4
71
3
72
8
73
4
40
0
40
0
40
0
40
0
40
1
40
1
40
1
40
1
41
1
10
63.9757936892554
20
0.0644999850136969
30
0
41
1
10
63.9734958749187
20
0.076401356832406
30
0
41
1
10
63.9679375301383
20
0.0881900638372031
30
0
41
1
10
63.959104292864
20
0.099865609759604
30
0
0
SPLINE
5
1A1
100
AcDbEntity
8
1
62
256
6
ByLayer
370
18
48
1
60
0
100
AcDbSpline
70
4
71
3
72
8
73
4
40
0
40
0
40
0
40
0
40
1
40
1
40
1
40
1
41
1
10
60.8798846110026
20
1.7134079057283
30
0
41
1
10
60.861278294391
20
1.72401899797848
30
0
41
1
10
60.8422453499186
20
1.7337938895495
30
0
41
1
10
60.8227968648525
20
1.74275340948679
30
0
0
SPLINE
5
1A2
100
AcDbEntity
8
1
62
256
6
ByLayer
370
18
48
1
60
0
100
AcDbSpline
70
4
71
3
72
10
73
6
40
0
40
0
40
0
40
0
40
0.5
40
0.5
40
1
40
1
40
1
40
1
41
1
10
61.7318787043083
20
0.279117979142086
30
0
41
1
10
61.7690490660049
20
0.222984587826289
30
0
41
1
10
61.8052341178142
20
0.165964804693402
30
0
41
1
10
61.8750731983185
20
0.049648311944793
30
0
41
1
10
61.9087381370126
20
-0.0096386210631181
30
0
41
1
10
61.9406530159451
20
-0.0704998822355947
30
0
0
SPLINE
5
1A3
100
AcDbEntity
8
1
62
256
6
ByLayer
370
18
48
1
60
0
100
AcDbSpline
70
4
71
3
72
8
73
4
40
0
40
0
40
0
40
0
40
1
40
1
40
1
40
1
41
1
10
61.7781147133244
20
0.280426981141801
30
0
41
1
10
61.7627126126729
20
0.279974444985584
30
0
41
1
10
61.7473005037653
20
0.279538284262259
30
0
41
1
10
61.7318787043083
20
0.279117979142114
30
0
0
SPLINE
5
1A4
100
AcDbEntity
8
1
62
256
6
ByLayer
370
18
48
1
60
0
100
AcDbSpline
70
4
71
3
72
8
73
4
40
0
40
0
40
0
40
0
40
1
40
1
40
1
40
1
41
1
10
61.6528222599591
20
0.413170708755246
30
0
41
1
10
61.694080720654
20
0.368472574224086
30
0
41
1
10
61.7358194154747
20
0.324193676534719
30
0
41
1
10
61.7781147133313
20
0.280426981148537
30
0
0
SPLINE
5
1A5
100
AcDbEntity
8
1
62
256
6
ByLayer
370
18
48
1
60
0
100
AcDbSpline
70
4
71
3
72
34
73
30
40
0
40
0
40
0
40
0
40
0.124999999999995
40
0.124999999999995
40
0.24999999999999
40
0.24999999999999
40
0.312499999999988
40
0.312499999999988
40
0.374999999999985
40
0.374999999999985
40
0.49999999999998
40
0.49999999999998
40
0.624999999999975
40
0.624999999999975
40
0.749999999999969
40
0.749999999999969
40
0.812499999999966
40
0.812499999999966
40
0.874999999999963
40
0.874999999999963
40
0.906249999999965
40
0.906249999999965
40
0.937499999999966
40
0.937499999999966
40
0.968749999999967
40
0.968749999999967
40
0.984374999999984
40
0.984374999999984
40
1
40
1
40
1
40
1
41
1
10
61.6528193353063
20
0.413173877234726
30
0
41
1
10
61.6278713863028
20
0.440201737006674
30
0
41
1
10
61.605152401268
20
0.468590934676712
30
0
41
1
10
61.5636013135587
20
0.527593408091803
30
0
41
1
10
61.5447751120806
20
0.558210498196274
30
0
41
1
10
61.519183976269
20
0.605517836423189
30
0
41
1
10
61.5111443586268
20
0.621431977668607
30
0
41
1
10
61.4960672113031
20
0.653287367203887
30
0
41
1
10
61.4890121231305
20
0.669260882329326
30
0
41
1
10
61.4691797771207
20
0.717244554609778
30
0
41
1
10
61.4577269744549
20
0.749315996202824
30
0
41
1
10
61.4379139080951
20
0.813276064819121
30
0
41
1
10
61.4295298531906
20
0.8452863594419
30
0
41
1
10
61.4160533236688
20
0.907391746438293
30
0
41
1
10
61.4108509156478
20
0.93765780499163
30
0
41
1
10
61.4060205282219
20
0.981600585929556
30
0
41
1
10
61.4049148860197
20
0.996035028108849
30
0
41
1
10
61.4042413141544
20
1.0239509603179
30
0
41
1
10
61.4046328524645
20
1.0375214152721
30
0
41
1
10
61.4074000121155
20
1.056550731172
30
0
41
1
10
61.4086895597532
20
1.0626811010427
30
0
41
1
10
61.4125302113039
20
1.0743108344933
30
0
41
1
10
61.4150453736913
20
1.07975728394419
30
0
41
1
10
61.4223206266448
20
1.08917316969647
30
0
41
1
10
61.4269810109816
20
1.09300775939366
30
0
41
1
10
61.4366238932786
20
1.09630011119086
30
0
41
1
10
61.440149920854
20
1.09692857648758
30
0
41
1
10
61.4478637871362
20
1.09722124750141
30
0
41
1
10
61.4519903974165
20
1.09687455549636
30
0
41
1
10
61.4562286707141
20
1.09612275678245
30
0
0
SPLINE
5
1A6
100
AcDbEntity
8
1
62
256
6
ByLayer
370
18
48
1
60
0
100
AcDbSpline
70
4
71
3
72
8
73
4
40
0
40
0
40
0
40
0
40
1
40
1
40
1
40
1
41
1
10
57.708129548088
20
2.58814375259792
30
0
41
1
10
57.7074197927227
20
2.5878565105358
30
0
41
1
10
57.7067099431857
20
2.5875689115245
30
0
41
1
10
57.706
20
2.5872809552987
30
0
0
SPLINE
5
1A7
100
AcDbEntity
8
1
62
256
6
ByLayer
370
18
48
1
60
0
100
AcDbSpline
70
4
71
3
72
8
73
4
40
0
40
0
40
0
40
0
40
1
40
1
40
1
40
1
41
1
10
63.6693460331877
20
0.0417304044991624
30
0
41
1
10
63.7183744757312
20
0.0425604918272313
30
0
41
1
10
63.7675156150341
20
0.043368328522547
30
0
41
1
10
63.8167414201047
20
0.0441594489705324
30
0
0
SPLINE
5
1A8
100
AcDbEntity
8
1
62
256
6
ByLayer
370
18
48
1
60
0
100
AcDbSpline
70
4
71
3
72
22
73
18
40
0
40
0
40
0
40
0
40
0.249999999999993
40
0.249999999999993
40
0.312499999999995
40
0.312499999999995
40
0.374999999999996
40
0.374999999999996
40
0.499999999999998
40
0.499999999999998
40
0.750000000000003
40
0.750000000000003
40
0.875000000000005
40
0.875000000000005
40
0.937500000000003
40
0.937500000000003
40
1
40
1
40
1
40
1
41
1
10
62.8092899229328
20
0.615612044646753
30
0
41
1
10
62.9243120097813
20
0.550680229257608
30
0
41
1
10
63.0322543255383
20
0.489668073725227
30
0
41
1
10
63.1584785015725
20
0.418149928087871
30
0
41
1
10
63.1832848377485
20
0.404085825772682
30
0
41
1
10
63.232010785574
20
0.376443934341921
30
0
41
1
10
63.2559215363807
20
0.362870693985968
30
0
41
1
10
63.325885347768
20
0.323136110017174
30
0
41
1
10
63.3703273977275
20
0.297871850965123
30
0
41
1
10
63.4972200019774
20
0.225717279623637
30
0
41
1
10
63.5732682065726
20
0.182451498477832
30
0
41
1
10
63.674477793916
20
0.12491327765693
30
0
41
1
10
63.7060652068211
20
0.106964157146848
30
0
41
1
10
63.7501521635951
20
0.0819312075623202
30
0
41
1
10
63.7643108539478
20
0.0738950484877705
30
0
41
1
10
63.7914540525072
20
0.0584959432892163
30
0
41
1
10
63.8044054572848
20
0.0511521414503875
30
0
41
1
10
63.8167414201048
20
0.0441594489705324
30
0
0
SPLINE
5
1A9
100
AcDbEntity
8
1
62
256
6
ByLayer
370
18
48
1
60
0
100
AcDbSpline
70
4
71
3
72
8
73
4
40
0
40
0
40
0
40
0
40
1
40
1
40
1
40
1
41
1
10
61.3808230696391
20
1.42612790312981
30
0
41
1
10
61.3808368323419
20
1.42612009413776
30
0
41
1
10
61.3808505950528
20
1.42611228514116
30
0
41
1
10
61.3808643577718
20
1.42610447613996
30
0
0
SPLINE
5
1AA
100
AcDbEntity
8
1
62
256
6
ByLayer
370
18
48
1
60
0
100
AcDbSpline
70
4
71
3
72
10
73
6
40
0
40
0
40
0
40
0
40
0.5
40
0.5
40
1
40
1
40
1
40
1
41
1
10
60.8798844741367
20
1.71340801121042
30
0
41
1
10
60.963785635811
20
1.66555960177792
30
0
41
1
10
61.0473488120862
20
1.61744266072157
30
0
41
1
10
61.2142659353534
20
1.52156255311778
30
0
41
1
10
61.2976066728203
20
1.47377412855101
30
0
41
1
10
61.3808231410818
20
1.42612807498006
30
0
0
SPLINE
5
1AB
100
AcDbEntity
8
1
62
256
6
ByLayer
370
18
48
1
60
0
100
AcDbSpline
70
4
71
3
72
44
73
40
40
0
40
0
40
0
40
0
40
0.124999999999927
40
0.124999999999927
40
0.187499999999908
40
0.187499999999908
40
0.24999999999989
40
0.24999999999989
40
0.374999999999888
40
0.374999999999888
40
0.437499999999871
40
0.437499999999871
40
0.499999999999855
40
0.499999999999855
40
0.531249999999846
40
0.531249999999846
40
0.546874999999843
40
0.546874999999843
40
0.562499999999839
40
0.562499999999839
40
0.593749999999842
40
0.593749999999842
40
0.624999999999845
40
0.624999999999845
40
0.656249999999848
40
0.656249999999848
40
0.687499999999851
40
0.687499999999851
40
0.718749999999854
40
0.718749999999854
40
0.749999999999857
40
0.749999999999857
40
0.812499999999893
40
0.812499999999893
40
0.874999999999929
40
0.874999999999929
40
0.937499999999964
40
0.937499999999964
40
1
40
1
40
1
40
1
41
1
10
61.3346982079784
20
1.42849782523189
30
0
41
1
10
61.3673885661291
20
1.40863235741551
30
0
41
1
10
61.3995809762257
20
1.38862563845171
30
0
41
1
10
61.4468925191075
20
1.35824997902378
30
0
41
1
10
61.4624988172001
20
1.34806297082398
30
0
41
1
10
61.493317548544
20
1.32752261564789
30
0
41
1
10
61.5085557957874
20
1.31715104003186
30
0
41
1
10
61.5531475656452
20
1.28596704918547
30
0
41
1
10
61.5815370234765
20
1.26503859486073
30
0
41
1
10
61.6207525435257
20
1.23303157533152
30
0
41
1
10
61.6332552159839
20
1.22225798680526
30
0
41
1
10
61.6565818710459
20
1.20034466640874
30
0
41
1
10
61.6671356216793
20
1.18945691047827
30
0
41
1
10
61.6805135384305
20
1.17330191331058
30
0
41
1
10
61.6845643098818
20
1.16794245855033
30
0
41
1
10
61.6898727747517
20
1.15994294417544
30
0
41
1
10
61.6915136997843
20
1.157283062517
30
0
41
1
10
61.6945023886204
20
1.15197697680622
30
0
41
1
10
61.6958548710417
20
1.14931855178031
30
0
41
1
10
61.6993481630312
20
1.14149972667232
30
0
41
1
10
61.7009453875978
20
1.13647288103195
30
0
41
1
10
61.7024583737119
20
1.12683355492001
30
0
41
1
10
61.702352798318
20
1.12217570607143
30
0
41
1
10
61.7002789688245
20
1.11366724856774
30
0
41
1
10
61.6983353742526
20
1.10978931610785
30
0
41
1
10
61.6926704330209
20
1.10276481550642
30
0
41
1
10
61.6889139418994
20
1.09961541566909
30
0
41
1
10
61.6800573514001
20
1.09422791619241
30
0
41
1
10
61.6749360007991
20
1.09194976165145
30
0
41
1
10
61.6635089152975
20
1.08810535526141
30
0
41
1
10
61.6572783358561
20
1.08656689277171
30
0
41
1
10
61.6375744762776
20
1.08291764171253
30
0
41
1
10
61.6230024944264
20
1.08172642408292
30
0
41
1
10
61.5919536471503
20
1.0810761563765
30
0
41
1
10
61.5758306699539
20
1.08162693427656
30
0
41
1
10
61.5427922555515
20
1.08394700461798
30
0
41
1
10
61.5258712248564
20
1.08572409030492
30
0
41
1
10
61.4914409020231
20
1.0902403947066
30
0
41
1
10
61.4738741718239
20
1.09299274035632
30
0
41
1
10
61.4562286707128
20
1.09612275678268
30
0
0
SPLINE
5
1AC
100
AcDbEntity
8
1
62
256
6
ByLayer
370
18
48
1
60
0
100
AcDbSpline
70
4
71
3
72
13
73
9
40
0
40
0
40
0
40
0
40
0.143069294666484
40
0.262396736657602
40
0.502422316944817
40
0.623128300716386
40
0.988000014420883
40
1
40
1
40
1
40
1
41
1
10
61.3808643577718
20
1.42610447613996
30
0
41
1
10
61.4516854036921
20
1.38592043740448
30
0
41
1
10
61.5819672115563
20
1.31199822048376
30
0
41
1
10
61.8316527238371
20
1.17032596286791
30
0
41
1
10
62.068369957646
20
1.03601198181204
30
0
41
1
10
62.4168911446208
20
0.838260155824401
30
0
41
1
10
62.6439880999946
20
0.70940473984578
30
0
41
1
10
62.8042006597771
20
0.618499706135765
30
0
41
1
10
62.8092899229325
20
0.615612044646923
30
0
0
SPLINE
5
1AD
100
AcDbEntity
8
1
62
256
6
ByLayer
370
18
48
1
60
0
100
AcDbSpline
70
4
71
3
72
18
73
14
40
0
40
0
40
0
40
0
40
0.250000000000014
40
0.250000000000014
40
0.500000000000028
40
0.500000000000028
40
0.562500000000023
40
0.562500000000023
40
0.625000000000017
40
0.625000000000017
40
0.750000000000005
40
0.750000000000005
40
1
40
1
40
1
40
1
41
1
10
61.3808643577717
20
1.42610447614004
30
0
41
1
10
61.5100793595623
20
1.35203342629165
30
0
41
1
10
61.6372274105849
20
1.27934112211281
30
0
41
1
10
61.8874518611493
20
1.13667138565867
30
0
41
1
10
62.0105442684786
20
1.0667346541502
30
0
41
1
10
62.1618186212683
20
0.981078517624553
30
0
41
1
10
62.1919421941379
20
0.964034184784367
30
0
41
1
10
62.2519193801829
20
0.93011716094378
30
0
41
1
10
62.2817672266132
20
0.913247677122001
30
0
41
1
10
62.3702054337066
20
0.86328037694588
30
0
41
1
10
62.4279297259393
20
0.830691024879144
30
0
41
1
10
62.5975129563717
20
0.735007201664246
30
0
41
1
10
62.7058090956454
20
0.673990070196993
30
0
41
1
10
62.8092899229325
20
0.615612044646952
30
0
0
SPLINE
5
1AE
100
AcDbEntity
8
1
62
256
6
ByLayer
370
18
48
1
60
0
100
AcDbSpline
70
4
71
3
72
18
73
14
40
0
40
0
40
0
40
0
40
0.221723425718167
40
0.221723425718167
40
0.443446851436335
40
0.443446851436335
40
0.554308564295419
40
0.554308564295419
40
0.665170277154503
40
0.665170277154503
40
0.886893702872671
40
0.886893702872671
40
1
40
1
40
1
40
1
41
1
10
61.6528193353036
20
-1.96340912695365
30
0
41
1
10
61.6278713863001
20
-1.95239734531896
30
0
41
1
10
61.6051524012652
20
-1.94148657784837
30
0
41
1
10
61.5636013135559
20
-1.9205205790374
30
0
41
1
10
61.5447751120777
20
-1.91046466197861
30
0
41
1
10
61.5191839762662
20
-1.89656936728773
30
0
41
1
10
61.5111443586241
20
-1.8921630245319
30
0
41
1
10
61.4960672113003
20
-1.88393106164884
30
0
41
1
10
61.4890121231276
20
-1.88009584625408
30
0
41
1
10
61.4691797771178
20
-1.8695333459531
30
0
41
1
10
61.457726974452
20
-1.86374707614078
30
0
41
1
10
61.4427668873605
20
-1.85732662817927
30
0
41
1
10
61.4381095216326
20
-1.85555889960992
30
0
41
1
10
61.4338647133985
20
-1.8542362539103
30
0
0
SPLINE
5
1AF
100
AcDbEntity
8
1
62
256
6
ByLayer
370
18
48
1
60
0
100
AcDbSpline
70
4
71
3
72
8
73
4
40
0
40
0
40
0
40
0
40
1
40
1
40
1
40
1
41
1
10
57.708129548088
20
-0.332250563541919
30
0
41
1
10
57.7074197927229
20
-0.331988666887241
30
0
41
1
10
57.7067099431856
20
-0.331727253306582
30
0
41
1
10
57.706
20
-0.331466323767501
30
0
0
SPLINE
5
1B0
100
AcDbEntity
8
1
62
256
6
ByLayer
370
18
48
1
60
0
100
AcDbSpline
70
4
71
3
72
8
73
4
40
0
40
0
40
0
40
0
40
1
40
1
40
1
40
1
41
1
10
60.8227968648525
20
1.74275340948677
30
0
41
1
10
60.8210108937174
20
1.74354311107192
30
0
41
1
10
60.819221654794
20
1.7443236950368
30
0
41
1
10
60.8174291241864
20
1.74509509191375
30
0
0
SPLINE
5
1B1
100
AcDbEntity
8
1
62
256
6
ByLayer
370
18
48
1
60
0
100
AcDbSpline
70
4
71
3
72
26
73
22
40
0
40
0
40
0
40
0
40
0.0756099004313564
40
0.221929725588094
40
0.291505101012086
40
0.345452827113117
40
0.445619862180363
40
0.600070543013926
40
0.677396066400577
40
0.723819172206928
40
0.739297343941131
40
0.758540353918693
40
0.835515597272793
40
0.944525069535626
40
0.955529772571217
40
0.958700308639663
40
0.96050645455873
40
0.961665250634069
40
0.975548056576553
40
0.986280259059549
40
1
40
1
40
1
40
1
41
1
10
57.7082835444729
20
2.58870423951828
30
0
41
1
10
57.7852151051293
20
2.61682323797999
30
0
41
1
10
58.0095835917664
20
2.67711485642289
30
0
41
1
10
58.3012945711903
20
2.69075308086988
30
0
41
1
10
58.5729030112827
20
2.66134589166427
30
0
41
1
10
58.801831944202
20
2.62107971224469
30
0
41
1
10
59.1225235022663
20
2.54200274959632
30
0
41
1
10
59.4728594832116
20
2.41850174602777
30
0
41
1
10
59.7693773771913
20
2.29150889887185
30
0
41
1
10
59.9181446169522
20
2.22248607781816
30
0
41
1
10
60.0050830789645
20
2.18077576874714
30
0
41
1
10
60.1236956510603
20
2.12282081979566
30
0
41
1
10
60.3422530884931
20
2.01101394831954
30
0
41
1
10
60.5515538271913
20
1.89627303040982
30
0
41
1
10
60.6823625379084
20
1.82241970097962
30
0
41
1
10
60.6992598377236
20
1.81284684306246
30
0
41
1
10
60.7059112391708
20
1.80907485803465
30
0
41
1
10
60.7223996985219
20
1.79971887266359
30
0
41
1
10
60.7475624756145
20
1.78544163017762
30
0
41
1
10
60.7851932413695
20
1.76408980725816
30
0
41
1
10
60.8092677512283
20
1.75042986325303
30
0
41
1
10
60.8227968648525
20
1.74275340948677
30
0
0
SPLINE
5
1B2
100
AcDbEntity
8
1
62
256
6
ByLayer
370
18
48
1
60
0
100
AcDbSpline
70
4
71
1
72
4
73
2
40
0
40
0
40
1
40
1
41
1
10
57.7081295480879
20
2.58814375259789
30
0
41
1
10
57.7082835444729
20
2.58870423951828
30
0
0
SPLINE
5
1B3
100
AcDbEntity
8
1
62
256
6
ByLayer
370
18
48
1
60
0
100
AcDbSpline
70
4
71
3
72
16
73
12
40
0
40
0
40
0
40
0
40
0.249999999999976
40
0.249999999999976
40
0.499999999999951
40
0.499999999999951
40
0.624999999999955
40
0.624999999999955
40
0.74999999999996
40
0.74999999999996
40
1
40
1
40
1
40
1
41
1
10
57.7081295480879
20
2.58814375259789
30
0
41
1
10
57.7768369408641
20
2.61327027660462
30
0
41
1
10
57.8452440438929
20
2.6324194041398
30
0
41
1
10
57.9822825909924
20
2.66119857924389
30
0
41
1
10
58.0509017975878
20
2.67081029505596
30
0
41
1
10
58.1544431491571
20
2.67904732554675
30
0
41
1
10
58.1890575850903
20
2.68075812217103
30
0
41
1
10
58.2585512412477
20
2.68223101293802
30
0
41
1
10
58.2934770481404
20
2.68199024262327
30
0
41
1
10
58.3982586623453
20
2.67851923186564
30
0
41
1
10
58.4681851493748
20
2.67256681588782
30
0
41
1
10
58.5384498088691
20
2.66340402430586
30
0
0
SPLINE
5
1B4
100
AcDbEntity
8
1
62
256
6
ByLayer
370
18
48
1
60
0
100
AcDbSpline
70
4
71
3
72
12
73
8
40
0
40
0
40
0
40
0
40
0.25
40
0.25
40
0.5
40
0.5
40
1
40
1
40
1
40
1
41
1
10
60.9009879875072
20
1.68868523946304
30
0
41
1
10
60.9374599949495
20
1.66729944859142
30
0
41
1
10
60.9740099833064
20
1.64573376262535
30
0
41
1
10
61.0469013576204
20
1.60243980067534
30
0
41
1
10
61.0831953292507
20
1.58073962481882
30
0
41
1
10
61.1916036820424
20
1.51551385012857
30
0
41
1
10
61.263282575715
20
1.47189596038706
30
0
41
1
10
61.334698207979
20
1.42849782523166
30
0
0
SPLINE
5
1B5
100
AcDbEntity
8
1
62
256
6
ByLayer
370
18
48
1
60
0
100
AcDbSpline
70
4
71
3
72
12
73
8
40
0
40
0
40
0
40
0
40
0.25
40
0.25
40
0.5
40
0.5
40
1
40
1
40
1
40
1
41
1
10
60.9009879875054
20
1.68868523945551
30
0
41
1
10
60.8934011101002
20
1.69313389432625
30
0
41
1
10
60.886108960974
20
1.69769420400402
30
0
41
1
10
60.8718069671627
20
1.70693035577457
30
0
41
1
10
60.8648063247916
20
1.71160945009814
30
0
41
1
10
60.8440897383483
20
1.72577208629792
30
0
41
1
10
60.830654587777
20
1.73537941582472
30
0
41
1
10
60.8174291241864
20
1.74509509191373
30
0
0
SPLINE
5
1B6
100
AcDbEntity
8
1
62
256
6
ByLayer
370
18
48
1
60
0
100
AcDbSpline
70
4
71
3
72
25
73
21
40
0
40
0
40
0
40
0
40
0.125000000000002
40
0.125000000000002
40
0.250000000000003
40
0.250000000000003
40
0.375000000000005
40
0.375000000000005
40
0.437500000000006
40
0.468749999999999
40
0.468749999999999
40
0.499999999999993
40
0.499999999999993
40
0.749999999999997
40
0.749999999999997
40
0.874999999999998
40
0.874999999999998
40
0.937499999999999
40
0.937499999999999
40
1
40
1
40
1
40
1
41
1
10
58.5384498088691
20
2.66340402430589
30
0
41
1
10
58.6300058251184
20
2.65146474084258
30
0
41
1
10
58.7218413710538
20
2.63523194109203
30
0
41
1
10
58.9064009374313
20
2.59498144624757
30
0
41
1
10
58.9991238357257
20
2.57096351202011
30
0
41
1
10
59.1858099194741
20
2.51575897586974
30
0
41
1
10
59.2797725531254
20
2.48457099101887
30
0
41
1
10
59.4219390570493
20
2.43278188443901
30
0
41
1
10
59.4933285787361
20
2.40563396065991
30
0
41
1
10
59.5652396851877
20
2.37666234231949
30
0
41
1
10
59.6133037724605
20
2.3569483117152
30
0
41
1
10
59.6374238171246
20
2.34688021769097
30
0
41
1
10
59.8542449636074
20
2.2548595520224
30
0
41
1
10
60.0458369574768
20
2.16285964085665
30
0
41
1
10
60.3340098041522
20
2.01371839903058
30
0
41
1
10
60.4301964180892
20
1.96213426322831
30
0
41
1
10
60.5749920825751
20
1.88238568122915
30
0
41
1
10
60.6233434121098
20
1.85540780927482
30
0
41
1
10
60.7202756866135
20
1.80073177094997
30
0
41
1
10
60.7689511098051
20
1.77297744626179
30
0
41
1
10
60.8174291241864
20
1.74509509191373
30
0
0
SPLINE
5
1B7
100
AcDbEntity
8
1
62
256
6
ByLayer
370
18
48
1
60
0
100
AcDbSpline
70
4
71
3
72
8
73
4
40
0
40
0
40
0
40
0
40
1
40
1
40
1
40
1
41
1
10
60.8227968648477
20
-2.04821803679408
30
0
41
1
10
60.8210108937129
20
-2.04782140363807
30
0
41
1
10
60.8192216547899
20
-2.04743272813505
30
0
41
1
10
60.8174291241828
20
-2.04705209222928
30
0
0
SPLINE
5
1B8
100
AcDbEntity
8
1
62
256
6
ByLayer
370
18
48
1
60
0
100
AcDbSpline
70
4
71
1
72
4
73
2
40
0
40
0
40
1
40
1
41
1
10
57.708129548088
20
-0.332250563541919
30
0
41
1
10
57.708283544473
20
-0.331498321142021
30
0
0
SPLINE
5
1B9
100
AcDbEntity
8
1
62
256
6
ByLayer
370
18
48
1
60
0
100
AcDbSpline
70
4
71
3
72
16
73
12
40
0
40
0
40
0
40
0
40
0.249999999999975
40
0.249999999999975
40
0.499999999999951
40
0.499999999999951
40
0.624999999999955
40
0.624999999999955
40
0.749999999999959
40
0.749999999999959
40
1
40
1
40
1
40
1
41
1
10
57.708129548088
20
-0.332250563541919
30
0
41
1
10
57.7768369408642
20
-0.357994689675905
30
0
41
1
10
57.845244043893
20
-0.388414484734454
30
0
41
1
10
57.9822825909925
20
-0.455863387572606
30
0
41
1
10
58.0509017975879
20
-0.492920312982164
30
0
41
1
10
58.1544431491572
20
-0.552240932807052
30
0
41
1
10
58.1890575850903
20
-0.572642184293244
30
0
41
1
10
58.2585512412479
20
-0.614537053811461
30
0
41
1
10
58.2934770481405
20
-0.636060621980363
30
0
41
1
10
58.3982586623454
20
-0.701753255570907
30
0
41
1
10
58.4681851493749
20
-0.74707260210289
30
0
41
1
10
58.5384498088692
20
-0.793409120513871
30
0
0
SPLINE
5
1BA
100
AcDbEntity
8
1
62
256
6
ByLayer
370
18
48
1
60
0
100
AcDbSpline
70
4
71
3
72
25
73
21
40
0
40
0
40
0
40
0
40
0.125000000000049
40
0.125000000000049
40
0.250000000000097
40
0.250000000000097
40
0.375000000000146
40
0.375000000000146
40
0.437500000000163
40
0.468750000000165
40
0.468750000000165
40
0.500000000000168
40
0.500000000000168
40
0.750000000000091
40
0.750000000000091
40
0.875000000000052
40
0.875000000000052
40
0.937500000000026
40
0.937500000000026
40
1
40
1
40
1
40
1
41
1
10
58.5384498088692
20
-0.793409120513815
30
0
41
1
10
58.6300058251184
20
-0.853786391890509
30
0
41
1
10
58.7218413710536
20
-0.914157751314065
30
0
41
1
10
58.9064009374309
20
-1.03431458897595
30
0
41
1
10
58.9991238357251
20
-1.09410178152169
30
0
41
1
10
59.1858099194732
20
-1.2125004584276
30
0
41
1
10
59.2797725531243
20
-1.27111290818928
30
0
41
1
10
59.4219390570479
20
-1.35767348934812
30
0
41
1
10
59.4933285787346
20
-1.4006134586802
30
0
41
1
10
59.565239685186
20
-1.4429437827767
30
0
41
1
10
59.6133037724587
20
-1.47101676020967
30
0
41
1
10
59.6374238171228
20
-1.48499474498189
30
0
41
1
10
59.8542449636054
20
-1.60959664366501
30
0
41
1
10
60.0458369574745
20
-1.71229293932373
30
0
41
1
10
60.3340098041494
20
-1.85075434104613
30
0
41
1
10
60.4301964180862
20
-1.89430133318385
30
0
41
1
10
60.5749920825718
20
-1.95513753051333
30
0
41
1
10
60.6233434121064
20
-1.97466882467631
30
0
41
1
10
60.72027568661
20
-2.01212563243178
30
0
41
1
10
60.7689511098015
20
-2.03008019462808
30
0
41
1
10
60.8174291241828
20
-2.04705209222928
30
0
0
SPLINE
5
1BB
100
AcDbEntity
8
1
62
256
6
ByLayer
370
18
48
1
60
0
100
AcDbSpline
70
4
71
3
72
22
73
18
40
0
40
0
40
0
40
0
40
0.250000000000008
40
0.250000000000008
40
0.312500000000013
40
0.312500000000013
40
0.375000000000018
40
0.375000000000018
40
0.500000000000017
40
0.500000000000017
40
0.750000000000013
40
0.750000000000013
40
0.875000000000007
40
0.875000000000007
40
0.937500000000003
40
0.937500000000003
40
1
40
1
40
1
40
1
41
1
10
62.8092899229002
20
-2.03107512115031
30
0
41
1
10
62.9175374636948
20
-1.98209772944622
30
0
41
1
10
63.0195089111174
20
-1.92476194985613
30
0
41
1
10
63.139270622137
20
-1.84289249753036
30
0
41
1
10
63.1628352396472
20
-1.82600535140347
30
0
41
1
10
63.2091821174185
20
-1.79119347258347
30
0
41
1
10
63.2319961949487
20
-1.77324101209462
30
0
41
1
10
63.298942492323
20
-1.71806596700517
30
0
41
1
10
63.3416111514893
20
-1.67951934756997
30
0
41
1
10
63.4638936560669
20
-1.5586961729837
30
0
41
1
10
63.5378139153059
20
-1.47125840263681
30
0
41
1
10
63.6373480577869
20
-1.32975791262919
30
0
41
1
10
63.668629526816
20
-1.28086237533492
30
0
41
1
10
63.7126652251866
20
-1.20488247510559
30
0
41
1
10
63.7268622817795
20
-1.17911607703184
30
0
41
1
10
63.7542811090633
20
-1.12669234768404
30
0
41
1
10
63.7675179028288
20
-1.10000246077473
30
0
41
1
10
63.7802228881484
20
-1.07293846443932
30
0
0
SPLINE
5
1BC
100
AcDbEntity
8
1
62
256
6
ByLayer
370
18
48
1
60
0
100
AcDbSpline
70
4
71
3
72
8
73
4
40
0
40
0
40
0
40
0
40
1
40
1
40
1
40
1
41
1
10
63.7802228881484
20
-1.07293846443966
30
0
41
1
10
63.7455452917134
20
-1.0377660003785
30
0
41
1
10
63.7104322016838
20
-1.00181823889139
30
0
41
1
10
63.6748689231138
20
-0.965065745003159
30
0
0
SPLINE
5
1BD
100
AcDbEntity
8
1
62
256
6
ByLayer
370
18
48
1
60
0
100
AcDbSpline
70
4
71
1
72
4
73
2
40
0
40
0
40
1
40
1
41
1
10
57.708283544473
20
-0.331498321142021
30
0
41
1
10
57.8110740849255
20
-0.0217574959984859
30
0
0
SPLINE
5
1BE
100
AcDbEntity
8
1
62
256
6
ByLayer
370
18
48
1
60
0
100
AcDbSpline
70
4
71
3
72
26
73
22
40
0
40
0
40
0
40
0
40
0.0756099004315504
40
0.221929725588507
40
0.291505101012458
40
0.345452827113296
40
0.445619862180807
40
0.600070543014466
40
0.677396066401259
40
0.723819172207681
40
0.739297343941837
40
0.758540353919305
40
0.835515597272835
40
0.944525069536332
40
0.955529772572188
40
0.958700308640706
40
0.960506454559815
40
0.961665250635171
40
0.975548056577812
40
0.986280259060733
40
1
40
1
40
1
40
1
41
1
10
57.708283544473
20
-0.331498321142021
30
0
41
1
10
57.7852151051294
20
-0.360348316155125
30
0
41
1
10
58.0095835917665
20
-0.462271761855192
30
0
41
1
10
58.3012945711898
20
-0.637219313062218
30
0
41
1
10
58.5729030112827
20
-0.815323487521198
30
0
41
1
10
58.8018319442026
20
-0.966159580765577
30
0
41
1
10
59.1225235022661
20
-1.17360894973692
30
0
41
1
10
59.4728594832114
20
-1.39048362551534
30
0
41
1
10
59.7693773771918
20
-1.56040648117889
30
0
41
1
10
59.9181446169522
20
-1.64136174907691
30
0
41
1
10
60.0050830789643
20
-1.6872329029826
30
0
41
1
10
60.1236956510595
20
-1.74873131059272
30
0
41
1
10
60.3422530884941
20
-1.85618833587611
30
0
41
1
10
60.5515538271932
20
-1.94662674944607
30
0
41
1
10
60.6823625379061
20
-1.99719362892031
30
0
41
1
10
60.6992598377217
20
-2.00363202962509
30
0
41
1
10
60.7059112391687
20
-2.0061540189277
30
0
41
1
10
60.7223996985202
20
-2.01238625586416
30
0
41
1
10
60.7475624756119
20
-2.02171442611194
30
0
41
1
10
60.7851932413665
20
-2.03523402983254
30
0
41
1
10
60.8092677512245
20
-2.04360321713065
30
0
41
1
10
60.8227968648477
20
-2.04821803679408
30
0
0
SPLINE
5
1BF
100
AcDbEntity
8
1
62
256
6
ByLayer
370
18
48
1
60
0
100
AcDbSpline
70
4
71
3
72
8
73
4
40
0
40
0
40
0
40
0
40
1
40
1
40
1
40
1
41
1
10
60.8798844741338
20
-2.06351225164153
30
0
41
1
10
60.861278156013
20
-2.05742974084615
30
0
41
1
10
60.8422453498752
20
-2.05233548505234
30
0
41
1
10
60.8227968648477
20
-2.04821803679408
30
0
0
SPLINE
5
1C0
100
AcDbEntity
8
1
62
256
6
ByLayer
370
18
48
1
60
0
100
AcDbSpline
70
4
71
3
72
10
73
6
40
0
40
0
40
0
40
0
40
0.5
40
0.5
40
1
40
1
40
1
40
1
41
1
10
60.8798844741335
20
-2.06351225164153
30
0
41
1
10
60.9637856382022
20
-2.09094001746195
30
0
41
1
10
61.0473488168533
20
-2.11542287221263
30
0
41
1
10
61.2142659448703
20
-2.15729608259727
30
0
41
1
10
61.2976066847051
20
-2.17472094101689
30
0
41
1
10
61.3808231553271
20
-2.1886198243017
30
0
0
SPLINE
5
1C1
100
AcDbEntity
8
1
62
256
6
ByLayer
370
18
48
1
60
0
100
AcDbSpline
70
4
71
3
72
8
73
4
40
0
40
0
40
0
40
0
40
1
40
1
40
1
40
1
41
1
10
61.3808230696779
20
-2.18862004746379
30
0
41
1
10
61.3808368323805
20
-2.18862226696376
30
0
41
1
10
61.3808505950913
20
-2.18862448637154
30
0
41
1
10
61.3808643578101
20
-2.18862670568709
30
0
0
SPLINE
5
1C2
100
AcDbEntity
8
1
62
256
6
ByLayer
370
18
48
1
60
0
100
AcDbSpline
70
4
71
3
72
13
73
9
40
0
40
0
40
0
40
0
40
0.143069294646732
40
0.262396736643782
40
0.502422316943987
40
0.623128300722532
40
0.988000014446108
40
1
40
1
40
1
40
1
41
1
10
61.3808643578101
20
-2.18862670568709
30
0
41
1
10
61.451685403717
20
-2.20004699625468
30
0
41
1
10
61.5819672115679
20
-2.21651361275127
30
0
41
1
10
61.8316527238362
20
-2.23137790063973
30
0
41
1
10
62.0683699576454
20
-2.22263553068552
30
0
41
1
10
62.416891144618
20
-2.17295702911136
30
0
41
1
10
62.6439880999817
20
-2.10459776841339
30
0
41
1
10
62.8042006597543
20
-2.03336297081768
30
0
41
1
10
62.8092899228988
20
-2.03107512115096
30
0
0
SPLINE
5
1C3
100
AcDbEntity
8
1
62
256
6
ByLayer
370
18
48
1
60
0
100
AcDbSpline
70
4
71
3
72
8
73
4
40
0
40
0
40
0
40
0
40
1
40
1
40
1
40
1
41
1
10
63.6748689226706
20
-0.965065736747334
30
0
41
1
10
63.60062214665
20
-0.875289266198848
30
0
41
1
10
63.526260083215
20
-0.785292268069895
30
0
41
1
10
63.4517531760309
20
-0.695017712180316
30
0
0
SPLINE
5
1C4
100
AcDbEntity
8
1
62
256
6
ByLayer
370
18
48
1
60
0
100
AcDbSpline
70
4
71
3
72
31
73
27
40
0
40
0
40
0
40
0
40
0.125000000000015
40
0.125000000000015
40
0.250000000000031
40
0.250000000000031
40
0.281250000000039
40
0.281250000000039
40
0.312500000000048
40
0.375000000000055
40
0.375000000000055
40
0.500000000000068
40
0.500000000000068
40
0.562500000000081
40
0.562500000000081
40
0.593750000000081
40
0.593750000000081
40
0.625000000000082
40
0.750000000000059
40
0.750000000000059
40
0.875000000000036
40
0.875000000000036
40
0.906250000000027
40
0.906250000000027
40
0.937500000000018
40
1
40
1
40
1
40
1
41
1
10
63.4517531760312
20
-0.695017712179975
30
0
41
1
10
63.4115436274623
20
-0.765583665130293
30
0
41
1
10
63.3671998721624
20
-0.831485750098494
30
0
41
1
10
63.2700025101204
20
-0.953689813831716
30
0
41
1
10
63.2171815941462
20
-1.01002867160108
30
0
41
1
10
63.1454507943967
20
-1.07401672703281
30
0
41
1
10
63.1307932882398
20
-1.08651107886053
30
0
41
1
10
63.1011189858219
20
-1.11066405693137
30
0
41
1
10
63.0560117930101
20
-1.14569450529899
30
0
41
1
10
63.0091476625936
20
-1.17718884061219
30
0
41
1
10
62.9131262278249
20
-1.23556213829013
30
0
41
1
10
62.8460350287241
20
-1.26828490662314
30
0
41
1
10
62.7406562732536
20
-1.30782512576317
30
0
41
1
10
62.7047399128045
20
-1.31941498102503
30
0
41
1
10
62.6496645839164
20
-1.33438298891639
30
0
41
1
10
62.6310880349095
20
-1.33897461225763
30
0
41
1
10
62.5936087558117
20
-1.34732286990015
30
0
41
1
10
62.4994691319087
20
-1.36602174242177
30
0
41
1
10
62.4031479840904
20
-1.37398774023967
30
0
41
1
10
62.2463538488885
20
-1.37354654111664
30
0
41
1
10
62.1666366206094
20
-1.36683088594398
30
0
41
1
10
62.0652949076069
20
-1.35009621617439
30
0
41
1
10
62.0449026344702
20
-1.34631964366042
30
0
41
1
10
62.0041626463415
20
-1.33795906414215
30
0
41
1
10
61.9431394039431
20
-1.32421679042443
30
0
41
1
10
61.8823713391217
20
-1.30694013579711
30
0
41
1
10
61.8419688488877
20
-1.29390498365865
30
0
0
SPLINE
5
1C5
100
AcDbEntity
8
1
62
256
6
ByLayer
370
18
48
1
60
0
100
AcDbSpline
70
4
71
1
72
4
73
2
40
0
40
0
40
1
40
1
41
1
10
57.8110740849255
20
-0.0217574959984859
30
0
41
1
10
58.0474440712372
20
0.541416887554306
30
0
0
SPLINE
5
1C6
100
AcDbEntity
8
1
62
256
6
ByLayer
370
18
48
1
60
0
100
AcDbSpline
70
4
71
3
72
36
73
32
40
0
40
0
40
0
40
0
40
0.0351600140696403
40
0.103201462105183
40
0.135555309482898
40
0.160642008419207
40
0.207221548164484
40
0.279043995756426
40
0.315001806502166
40
0.336589416643088
40
0.343787055217389
40
0.35273541380123
40
0.388530337797648
40
0.439221775779086
40
0.444339167964031
40
0.445813526376635
40
0.446653417919478
40
0.44719227970981
40
0.453648043432331
40
0.458638717777145
40
0.494606375359077
40
0.512255396889876
40
0.583730659673961
40
0.610776455395816
40
0.665178717810688
40
0.69253696269589
40
0.775235842927438
40
0.858512479835226
40
0.941430725424212
40
0.995807966739276
40
1
40
1
40
1
40
1
41
1
10
57.8110740849255
20
-0.0217574959984859
30
0
41
1
10
57.884825465164
20
-0.0493888239610669
30
0
41
1
10
58.0988718901855
20
-0.147816258465497
30
0
41
1
10
58.3765395332149
20
-0.31918101042271
30
0
41
1
10
58.635634057264
20
-0.494988316999297
30
0
41
1
10
58.8535426461371
20
-0.644254013487625
30
0
41
1
10
59.1591152264511
20
-0.850400258032209
30
0
41
1
10
59.4943271060218
20
-1.06769462702178
30
0
41
1
10
59.7785031472507
20
-1.23939144606325
30
0
41
1
10
59.9214372874101
20
-1.32165010330016
30
0
41
1
10
60.0048415030798
20
-1.36840756879124
30
0
41
1
10
60.1201506541047
20
-1.43117282076878
30
0
41
1
10
60.3323422999297
20
-1.54141694503022
30
0
41
1
10
60.5363917564783
20
-1.63510932611408
30
0
41
1
10
60.6635802037642
20
-1.68808770947353
30
0
41
1
10
60.6801370590341
20
-1.69479327501759
30
0
41
1
10
60.6864096388285
20
-1.6974718479629
30
0
41
1
10
60.7043291371518
20
-1.70382715691679
30
0
41
1
10
60.7316640413547
20
-1.71332135400826
30
0
41
1
10
60.8397869008654
20
-1.75006459822515
30
0
41
1
10
60.9730322975
20
-1.79090930417357
30
0
41
1
10
61.2555569385232
20
-1.86409284498345
30
0
41
1
10
61.5143945260886
20
-1.90966267710658
30
0
41
1
10
61.8449697557442
20
-1.93351821417161
30
0
41
1
10
62.0729843701063
20
-1.92883965757028
30
0
41
1
10
62.403082052725
20
-1.88875399566973
30
0
41
1
10
62.7652430465111
20
-1.7902130417398
30
0
41
1
10
63.1694956322431
20
-1.56875142281274
30
0
41
1
10
63.4646407349637
20
-1.29147706683844
30
0
41
1
10
63.6157422093841
20
-1.07106365264477
30
0
41
1
10
63.670955050107
20
-0.972182320322389
30
0
41
1
10
63.6748689249872
20
-0.965065736241542
30
0
0
SPLINE
5
1C7
100
AcDbEntity
8
1
62
256
6
ByLayer
370
18
48
1
60
0
100
AcDbSpline
70
4
71
3
72
8
73
4
40
0
40
0
40
0
40
0
40
1
40
1
40
1
40
1
41
1
10
61.9375737198329
20
-1.08161056461165
30
0
41
1
10
61.9083046442266
20
-1.15459023985818
30
0
41
1
10
61.8766396674972
20
-1.22552829843536
30
0
41
1
10
61.8419688488729
20
-1.29390498364563
30
0
0
SPLINE
5
1C8
100
AcDbEntity
8
1
62
256
6
ByLayer
370
18
48
1
60
0
100
AcDbSpline
70
4
71
3
72
8
73
4
40
0
40
0
40
0
40
0
40
1
40
1
40
1
40
1
41
1
10
57.8711786925191
20
0.690540093831885
30
0
41
1
10
57.8160440768747
20
0.707686949692459
30
0
41
1
10
57.7609816047458
20
0.724882357038638
30
0
41
1
10
57.7060000000001
20
0.742154594042745
30
0
0
SPLINE
5
1C9
100
AcDbEntity
8
1
62
256
6
ByLayer
370
18
48
1
60
0
100
AcDbSpline
70
4
71
3
72
8
73
4
40
0
40
0
40
0
40
0
40
1
40
1
40
1
40
1
41
1
10
57.8711786925191
20
0.690540093831885
30
0
41
1
10
57.9308314499423
20
0.642059303783952
30
0
41
1
10
57.9895832585297
20
0.592347033558127
30
0
41
1
10
58.0474440712372
20
0.541416887554277
30
0
0
SPLINE
5
1CA
100
AcDbEntity
8
1
62
256
6
ByLayer
370
18
48
1
60
0
100
AcDbSpline
70
4
71
3
72
58
73
54
40
0
40
0
40
0
40
0
40
0.0312500000000629
40
0.0312500000000629
40
0.0468750000000942
40
0.0468750000000942
40
0.0625000000001256
40
0.0625000000001256
40
0.125000000000259
40
0.125000000000259
40
0.187500000000393
40
0.187500000000393
40
0.203125000000428
40
0.203125000000428
40
0.218750000000464
40
0.218750000000464
40
0.250000000000527
40
0.250000000000527
40
0.281250000000589
40
0.281250000000589
40
0.289062500000605
40
0.291015625000605
40
0.291015625000605
40
0.292968750000605
40
0.292968750000605
40
0.294921875000605
40
0.294921875000605
40
0.296875000000604
40
0.296875000000604
40
0.312500000000594
40
0.312500000000594
40
0.375000000000551
40
0.375000000000551
40
0.437500000000509
40
0.437500000000509
40
0.453125000000498
40
0.453125000000498
40
0.468750000000487
40
0.468750000000487
40
0.500000000000458
40
0.500000000000458
40
0.625000000000342
40
0.625000000000342
40
0.687500000000287
40
0.687500000000287
40
0.71875000000026
40
0.71875000000026
40
0.750000000000233
40
0.750000000000233
40
0.875000000000116
40
0.875000000000116
40
0.937500000000058
40
1
40
1
40
1
40
1
41
1
10
61.8419688488876
20
-1.29390498364947
30
0
41
1
10
61.8009809656255
20
-1.30068821792679
30
0
41
1
10
61.7595404283518
20
-1.30594665051873
30
0
41
1
10
61.6966809665438
20
-1.31159762098204
30
0
41
1
10
61.6756106943199
20
-1.31310698461314
30
0
41
1
10
61.6332297192465
20
-1.31537933472444
30
0
41
1
10
61.6118840333498
20
-1.31614224955447
30
0
41
1
10
61.5051622516243
20
-1.31809250573121
30
0
41
1
10
61.4195782147179
20
-1.31375328874222
30
0
41
1
10
61.2477047311449
20
-1.29473486015669
30
0
41
1
10
61.1614160198738
20
-1.28004920667857
30
0
41
1
10
61.0529175275663
20
-1.25580196715225
30
0
41
1
10
61.0311858012969
20
-1.25065660242947
30
0
41
1
10
60.9876524830519
20
-1.23978206306177
30
0
41
1
10
60.965860414668
20
-1.23405389075489
30
0
41
1
10
60.90074400655
20
-1.21611996522711
30
0
41
1
10
60.8575547550407
20
-1.20313575610282
30
0
41
1
10
60.7715498613912
20
-1.17529043034713
30
0
41
1
10
60.7287331872707
20
-1.16043577977268
30
0
41
1
10
60.675411164607
20
-1.14076815324523
30
0
41
1
10
60.6620930570194
20
-1.13578272336187
30
0
41
1
10
60.6487887523874
20
-1.13071940957002
30
0
41
1
10
60.6434681031174
20
-1.1286880029084
30
0
41
1
10
60.6408114282695
20
-1.12765024733631
30
0
41
1
10
60.6354761085972
20
-1.12570919923172
30
0
41
1
10
60.6328007544651
20
-1.12478601883922
30
0
41
1
10
60.6274638699294
20
-1.12285606385944
30
0
41
1
10
60.624797406492
20
-1.12187934906919
30
0
41
1
10
60.6007971634307
20
-1.11310464809597
30
0
41
1
10
60.5794868837406
20
-1.10518548039016
30
0
41
1
10
60.4731324745797
20
-1.064439134411
30
0
41
1
10
60.3885912589258
20
-1.02868956523267
30
0
41
1
10
60.2202104223741
20
-0.951806960812291
30
0
41
1
10
60.1363738989123
20
-0.91066178289023
30
0
41
1
10
60.0318357943011
20
-0.856124497037371
30
0
41
1
10
60.0109400325433
20
-0.845069323617707
30
0
41
1
10
59.969157837713
20
-0.822754334199431
30
0
41
1
10
59.948297106766
20
-0.811481618626345
30
0
41
1
10
59.8860094012556
20
-0.777337014695547
30
0
41
1
10
59.8447932824111
20
-0.754136938225571
30
0
41
1
10
59.6400888314981
20
-0.636212100499705
30
0
41
1
10
59.4807148001905
20
-0.535736596735291
30
0
41
1
10
59.2463272709369
20
-0.378860200679952
30
0
41
1
10
59.1689913373907
20
-0.325519834700117
30
0
41
1
10
59.0540112030857
20
-0.244210642927868
30
0
41
1
10
59.0157721042179
20
-0.216832943574048
30
0
41
1
10
58.940106459088
20
-0.162061962966675
30
0
41
1
10
58.9026715385718
20
-0.134665827743618
30
0
41
1
10
58.7173816739496
20
0.0022612608515544
30
0
41
1
10
58.5751362054297
20
0.111611607353126
30
0
41
1
10
58.3705876056663
20
0.274155317585155
30
0
41
1
10
58.2371802988606
20
0.382031795335678
30
0
41
1
10
58.1096366585521
20
0.488547689437865
30
0
41
1
10
58.0474440712372
20
0.541416887554306
30
0
0
SPLINE
5
1CB
100
AcDbEntity
8
1
62
256
6
ByLayer
370
18
48
1
60
0
100
AcDbSpline
70
4
71
3
72
8
73
4
40
0
40
0
40
0
40
0
40
1
40
1
40
1
40
1
41
1
10
63.9346715298647
20
-0.111680325301734
30
0
41
1
10
63.9105552685268
20
-0.126328760150699
30
0
41
1
10
63.8762862669765
20
-0.140478571306289
30
0
41
1
10
63.8323454752932
20
-0.154153379298521
30
0
0
SPLINE
5
1CC
100
AcDbEntity
8
1
62
256
6
ByLayer
370
18
48
1
60
0
100
AcDbSpline
70
4
71
3
72
8
73
4
40
0
40
0
40
0
40
0
40
1
40
1
40
1
40
1
41
1
10
63.988109285008
20
-0.0618920009478359
30
0
41
1
10
63.9879220956565
20
-0.0608461537115375
30
0
41
1
10
63.9877348198422
20
-0.0598003185682217
30
0
41
1
10
63.9875474570339
20
-0.0587544955922112
30
0
0
SPLINE
5
1CD
100
AcDbEntity
8
1
62
256
6
ByLayer
370
18
48
1
60
0
100
AcDbSpline
70
4
71
3
72
8
73
4
40
0
40
0
40
0
40
0
40
1
40
1
40
1
40
1
41
1
10
63.9877309488678
20
0.0610047422928233
30
0
41
1
10
63.9876697941855
20
0.0606698269304502
30
0
41
1
10
63.9876086302471
20
0.0603349128319906
30
0
41
1
10
63.9875474570341
20
0.0600000000000307
30
0
0
SPLINE
5
1CE
100
AcDbEntity
8
1
62
256
6
ByLayer
370
18
48
1
60
0
100
AcDbSpline
70
4
71
3
72
8
73
4
40
0
40
0
40
0
40
0
40
1
40
1
40
1
40
1
41
1
10
63.9993913712453
20
0.0600000000002012
30
0
41
1
10
63.9993993115046
20
0.0594879422125985
30
0
41
1
10
63.9994072147766
20
0.0589758837616046
30
0
41
1
10
63.9994150810575
20
0.0584638246419331
30
0
0
SPLINE
5
1CF
100
AcDbEntity
8
1
62
256
6
ByLayer
370
18
48
1
60
0
100
AcDbSpline
70
4
71
3
72
8
73
4
40
0
40
0
40
0
40
0
40
1
40
1
40
1
40
1
41
1
10
63.9873650365504
20
0.0010160869460378
30
0
41
1
10
63.9913560189378
20
-0.0189010072557494
30
0
41
1
10
63.995305699534
20
-0.0388245632833275
30
0
41
1
10
63.9992146251101
20
-0.0587544955922397
30
0
0
SPLINE
5
1D0
100
AcDbEntity
8
1
62
256
6
ByLayer
370
18
48
1
60
0
100
AcDbSpline
70
4
71
3
72
8
73
4
40
0
40
0
40
0
40
0
40
1
40
1
40
1
40
1
41
1
10
60.8227968648462
20
-3.90610956527377
30
0
41
1
10
60.8210108937113
20
-3.9065267240718
30
0
41
1
10
60.8192216547882
20
-3.90694251637743
30
0
41
1
10
60.817429124181
20
-3.9073569535457
30
0
0
SPLINE
5
1D1
100
AcDbEntity
8
1
62
256
6
ByLayer
370
18
48
1
60
0
100
AcDbSpline
70
4
71
3
72
14
73
10
40
0
40
0
40
0
40
0
40
0.289813102013463
40
0.289813102013463
40
0.579626204026926
40
0.579626204026926
40
0.869439306040389
40
0.869439306040389
40
1
40
1
40
1
40
1
41
1
10
58.5384498088693
20
-3.5832385448459
30
0
41
1
10
58.6300058251185
20
-3.63246510336089
30
0
41
1
10
58.7218413710535
20
-3.67721541838279
30
0
41
1
10
58.9064009374306
20
-3.75801248240532
30
0
41
1
10
58.9991238357249
20
-3.79406073307948
30
0
41
1
10
59.1858099194729
20
-3.85749292508609
30
0
41
1
10
59.2797725531238
20
-3.88487641244578
30
0
41
1
10
59.4172475269359
20
-3.91821388522209
30
0
41
1
10
59.4601105845694
20
-3.9276735920092
30
0
41
1
10
59.5031596088631
20
-3.93622513044068
30
0
0
SPLINE
5
1D2
100
AcDbEntity
8
1
62
256
6
ByLayer
370
18
48
1
60
0
100
AcDbSpline
70
4
71
3
72
10
73
6
40
0
40
0
40
0
40
0
40
0.492321138687395
40
0.492321138687395
40
1
40
1
40
1
40
1
41
1
10
60.5311072917738
20
-3.96276701744154
30
0
41
1
10
60.5779175263226
20
-3.95594067326096
30
0
41
1
10
60.6248095544821
20
-3.94800918831015
30
0
41
1
10
60.7202756866083
20
-3.92961638725734
30
0
41
1
10
60.7689511097998
20
-3.91905506739877
30
0
41
1
10
60.817429124181
20
-3.9073569535457
30
0
0
SPLINE
5
1D3
100
AcDbEntity
8
1
62
256
6
ByLayer
370
18
48
1
60
0
100
AcDbSpline
70
4
71
3
72
13
73
9
40
0
40
0
40
0
40
0
40
0.129095951973467
40
0.3789216628057
40
0.49771429806931
40
0.589824365904962
40
0.760849042231505
40
1
40
1
40
1
40
1
41
1
10
57.708283544473
20
-3.03376206607592
30
0
41
1
10
57.7852151051296
20
-3.09249980844172
30
0
41
1
10
58.0095835917666
20
-3.25935665681226
30
0
41
1
10
58.3012945711903
20
-3.45221230009784
30
0
41
1
10
58.5729030112826
20
-3.60347463210593
30
0
41
1
10
58.8018319442027
20
-3.71558497442709
30
0
41
1
10
59.1075753504811
20
-3.83906373277958
30
0
41
1
10
59.3609027481123
20
-3.90818789418859
30
0
41
1
10
59.5095209226618
20
-3.93740313213402
30
0
0
SPLINE
5
1D4
100
AcDbEntity
8
1
62
256
6
ByLayer
370
18
48
1
60
0
100
AcDbSpline
70
4
71
3
72
16
73
12
40
0
40
0
40
0
40
0
40
0.137060002790622
40
0.708960025721833
40
0.76669436557157
40
0.783328054485248
40
0.79280369794162
40
0.798883128364568
40
0.871716955297663
40
0.928021666426637
40
1
40
1
40
1
40
1
41
1
10
60.2246577297026
20
-3.99180276773214
30
0
41
1
10
60.2524606024331
20
-3.9905887607444
30
0
41
1
10
60.3962814301942
20
-3.98231193015963
30
0
41
1
10
60.5515538271925
20
-3.9622020726635
30
0
41
1
10
60.6823625379082
20
-3.93694829599019
30
0
41
1
10
60.6992598377235
20
-3.93355637364778
30
0
41
1
10
60.7059112391706
20
-3.93220461270218
30
0
41
1
10
60.7223996985219
20
-3.92882795368257
30
0
41
1
10
60.7475624756138
20
-3.92348907667727
30
0
41
1
10
60.7851932413672
20
-3.91506476629826
30
0
41
1
10
60.8092677512241
20
-3.90938927938913
30
0
41
1
10
60.8227968648462
20
-3.90610956527377
30
0
0
SPLINE
5
1D5
100
AcDbEntity
8
1
62
256
6
ByLayer
370
18
48
1
60
0
100
AcDbSpline
70
4
71
3
72
8
73
4
40
0
40
0
40
0
40
0
40
1
40
1
40
1
40
1
41
1
10
60.8798844741326
20
-3.89117495220265
30
0
41
1
10
60.8612781560119
20
-3.8960112663176
30
0
41
1
10
60.8422453498737
20
-3.90098606841636
30
0
41
1
10
60.8227968648462
20
-3.90610956527377
30
0
0
SPLINE
5
1D6
100
AcDbEntity
8
1
62
256
6
ByLayer
370
18
48
1
60
0
100
AcDbSpline
70
4
71
3
72
14
73
10
40
0
40
0
40
0
40
0
40
0.435924684115232
40
0.435924684115232
40
0.717962342057616
40
0.717962342057616
40
0.858981171028808
40
0.858981171028808
40
1
40
1
40
1
40
1
41
1
10
59.7927155806367
20
3.96546524480499
30
0
41
1
10
59.9413264265717
20
3.9834395748228
30
0
41
1
10
60.0894830585298
20
3.99023401793494
30
0
41
1
10
60.3340098041489
20
3.98332405360026
30
0
41
1
10
60.4301964180857
20
3.97598548379409
30
0
41
1
10
60.5749920825713
20
3.95788612833809
30
0
41
1
10
60.6233434121058
20
3.95067142752862
30
0
41
1
10
60.7202756866094
20
3.93383459953699
30
0
41
1
10
60.7689511098009
20
3.92418536760098
30
0
41
1
10
60.8174291241821
20
3.91338228804568
30
0
0
SPLINE
5
1D7
100
AcDbEntity
8
1
62
256
6
ByLayer
370
18
48
1
60
0
100
AcDbSpline
70
4
71
3
72
8
73
4
40
0
40
0
40
0
40
0
40
1
40
1
40
1
40
1
41
1
10
60.8227968648479
20
3.91220489194438
30
0
41
1
10
60.8210108937129
20
3.91259837828699
30
0
41
1
10
60.8192216547895
20
3.91299083886196
30
0
41
1
10
60.8174291241821
20
3.91338228804571
30
0
0
SPLINE
5
1D8
100
AcDbEntity
8
1
62
256
6
ByLayer
370
18
48
1
60
0
100
AcDbSpline
70
4
71
3
72
15
73
11
40
0
40
0
40
0
40
0
40
0.144072030513077
40
0.31386463856043
40
0.362783140607422
40
0.390650337488121
40
0.408529512160524
40
0.622728643231184
40
0.788316814369675
40
1
40
1
40
1
40
1
41
1
10
60.6258738306279
20
3.9498769961987
30
0
41
1
10
60.6357908940017
20
3.94830800213916
30
0
41
1
10
60.6573943801745
20
3.94478221798178
30
0
41
1
10
60.6823625379129
20
3.94043578386572
30
0
41
1
10
60.6992598377291
20
3.93736335465914
30
0
41
1
10
60.7059112391753
20
3.93613718543909
30
0
41
1
10
60.7223996985256
20
3.93307157817065
30
0
41
1
10
60.7475624756166
20
3.92820373017827
30
0
41
1
10
60.7851932413696
20
3.9204752540067
30
0
41
1
10
60.8092677512261
20
3.91523934254946
30
0
41
1
10
60.8227968648479
20
3.91220489194438
30
0
0
SPLINE
5
1D9
100
AcDbEntity
8
1
62
256
6
ByLayer
370
18
48
1
60
0
100
AcDbSpline
70
4
71
3
72
8
73
4
40
0
40
0
40
0
40
0
40
1
40
1
40
1
40
1
41
1
10
60.8798844741339
20
3.89816103020803
30
0
41
1
10
60.8612781560134
20
3.90266423555215
30
0
41
1
10
60.8422453498753
20
3.90734233657017
30
0
41
1
10
60.8227968648479
20
3.91220489194438
30
0
0
SPLINE
5
1DA
100
AcDbEntity
8
1
62
256
6
ByLayer
370
18
48
1
60
0
100
AcDbSpline
70
4
71
3
72
10
73
6
40
0
40
0
40
0
40
0
40
0.5
40
0.5
40
1
40
1
40
1
40
1
41
1
10
60.8798844741333
20
3.8981610302084
30
0
41
1
10
60.9637925617858
20
3.87785312478158
30
0
41
1
10
61.0473626104245
20
3.85420434146604
30
0
41
1
10
61.214293473654
20
3.7998824876955
30
0
41
1
10
61.2976410611168
20
3.76921956525411
30
0
41
1
10
61.3808643578106
20
3.73503036039804
30
0
0
SPLINE
5
1DB
100
AcDbEntity
8
1
62
256
6
ByLayer
370
18
48
1
60
0
100
AcDbSpline
70
4
71
3
72
8
73
4
40
0
40
0
40
0
40
0
40
1
40
1
40
1
40
1
41
1
10
63.9994150811534
20
0.0584638275351779
30
0
41
1
10
63.995598581621
20
0.0386199240686267
30
0
41
1
10
63.9917290748358
20
0.0187839209230276
30
0
41
1
10
63.9878056938352
20
-0.0010440381681462
30
0
0
LINE
5
7F
100
AcDbEntity
8
80
62
256
6
ByLayer
370
18
48
1
60
0
100
AcDbLine
10
0
20
0
30
0
11
-3
21
0
31
0
39
0
210
0
220
0
230
1
0
LINE
5
80
100
AcDbEntity
8
81
62
256
6
ByLayer
370
18
48
1
60
0
100
AcDbLine
10
64
20
0
30
0
11
67
21
0
31
0
39
0
210
0
220
0
230
1
0
LINE
5
81
100
AcDbEntity
8
SK4
62
256
6
ByLayer
370
18
48
0.05
60
0
100
AcDbLine
10
-39
20
0
30
0
11
67
21
0
31
0
39
0
210
0
220
0
230
1
0
LINE
5
83
100
AcDbEntity
8
4
62
256
6
ByLayer
370
18
48
0.05
60
0
100
AcDbLine
10
0
20
0
30
0
11
67
21
0
31
0
39
0
210
0
220
0
230
1
0
LINE
5
85
100
AcDbEntity
8
81
62
256
6
ByLayer
370
18
48
1
60
0
100
AcDbLine
10
-36
20
0
30
0
11
-39.9843
21
0
31
0
39
0
210
0
220
0
230
1
0
LINE
5
86
100
AcDbEntity
8
81
62
256
6
ByLayer
370
18
48
1
60
0
100
AcDbLine
10
-36
20
3.256994
30
0
11
-36
21
3.257639
31
0
39
0
210
0
220
0
230
1
0
LINE
5
87
100
AcDbEntity
8
81
62
256
6
ByLayer
370
18
48
1
60
0
100
AcDbLine
10
-42.467161
20
0
30
0
11
-42.767161
21
0
31
0
39
0
210
0
220
0
230
1
0
LINE
5
88
100
AcDbEntity
8
81
62
256
6
ByLayer
370
18
48
1
60
0
100
AcDbLine
10
-39.9843
20
0
30
0
11
-42.2783
21
0
31
0
39
0
210
0
220
0
230
1
0
LINE
5
89
100
AcDbEntity
8
81
62
256
6
ByLayer
370
18
48
1
60
0
100
AcDbLine
10
57.517139
20
0
30
0
11
57.705236
21
0
31
0
39
0
210
0
220
0
230
1
0
LINE
5
8A
100
AcDbEntity
8
81
62
256
6
ByLayer
370
18
48
1
60
0
100
AcDbLine
10
-36
20
-6.467161
30
0
11
-36
21
-6.279064
31
0
39
0
210
0
220
0
230
1
0
LINE
5
8B
100
AcDbEntity
8
81
62
256
6
ByLayer
370
18
48
1
60
0
100
AcDbLine
10
-42.467161
20
0
30
0
11
-42.767161
21
0
31
0
39
0
210
0
220
0
230
1
0
LINE
5
8C
100
AcDbEntity
8
81
62
256
6
ByLayer
370
18
48
1
60
0
100
AcDbLine
10
-36
20
0
30
0
11
-36
21
3.9843
31
0
39
0
210
0
220
0
230
1
0
LINE
5
8D
100
AcDbEntity
8
81
62
256
6
ByLayer
370
18
48
1
60
0
100
AcDbLine
10
-42.279064
20
0
30
0
11
-42.2783
21
0
31
0
39
0
210
0
220
0
230
1
0
LINE
5
8E
100
AcDbEntity
8
81
62
256
6
ByLayer
370
18
48
1
60
0
100
AcDbLine
10
-43.81989
20
0
30
0
11
-42.767161
21
0
31
0
39
0
210
0
220
0
230
1
0
LINE
5
8F
100
AcDbEntity
8
81
62
256
6
ByLayer
370
18
48
1
60
0
100
AcDbLine
10
-36
20
0
30
0
11
-36
21
-3.9843
31
0
39
0
210
0
220
0
230
1
0
LINE
5
90
100
AcDbEntity
8
81
62
256
6
ByLayer
370
18
48
1
60
0
100
AcDbLine
10
-36
20
-7.81989
30
0
11
-36
21
-6.767161
31
0
39
0
210
0
220
0
230
1
0
LINE
5
91
100
AcDbEntity
8
81
62
256
6
ByLayer
370
18
48
1
60
0
100
AcDbLine
10
60
20
0
30
0
11
57.706
21
0
31
0
39
0
210
0
220
0
230
1
0
LINE
5
92
100
AcDbEntity
8
81
62
256
6
ByLayer
370
18
48
1
60
0
100
AcDbLine
10
-36
20
3.9843
30
0
11
-36
21
3.257639
31
0
39
0
210
0
220
0
230
1
0
LINE
5
93
100
AcDbEntity
8
81
62
256
6
ByLayer
370
18
48
1
60
0
100
AcDbLine
10
-36
20
-6.467161
30
0
11
-36
21
-6.767161
31
0
39
0
210
0
220
0
230
1
0
LINE
5
94
100
AcDbEntity
8
81
62
256
6
ByLayer
370
13
48
1
60
0
100
AcDbLine
10
-36
20
0
30
0
11
-36
21
-3.9843
31
0
39
0
210
0
220
0
230
1
0
LINE
5
95
100
AcDbEntity
8
81
62
256
6
ByLayer
370
13
48
1
60
0
100
AcDbLine
10
-36
20
-3.188248
30
0
11
-36
21
-3.256994
31
0
39
0
210
0
220
0
230
1
0
LINE
5
96
100
AcDbEntity
8
81
62
256
6
ByLayer
370
18
48
1
60
0
100
AcDbLine
10
-36
20
3.276822
30
0
11
-36
21
3.188248
31
0
39
0
210
0
220
0
230
1
0
LINE
5
97
100
AcDbEntity
8
81
62
256
6
ByLayer
370
18
48
1
60
0
100
AcDbLine
10
-43.81989
20
0
30
0
11
-42.767161
21
0
31
0
39
0
210
0
220
0
230
1
0
LINE
5
98
100
AcDbEntity
8
81
62
256
6
ByLayer
370
18
48
1
60
0
100
AcDbLine
10
-42.467161
20
0
30
0
11
-42.279064
21
0
31
0
39
0
210
0
220
0
230
1
0
LINE
5
99
100
AcDbEntity
8
81
62
256
6
ByLayer
370
18
48
1
60
0
100
AcDbLine
10
-36
20
3.188248
30
0
11
-36
21
3.256994
31
0
39
0
210
0
220
0
230
1
0
LINE
5
9A
100
AcDbEntity
8
81
62
256
6
ByLayer
370
13
48
1
60
0
100
AcDbLine
10
-36
20
-3.256994
30
0
11
-36
21
-3.257639
31
0
39
0
210
0
220
0
230
1
0
LINE
5
9B
100
AcDbEntity
8
81
62
256
6
ByLayer
370
18
48
1
60
0
100
AcDbLine
10
-39.9843
20
0
30
0
11
-42.2783
21
0
31
0
39
0
210
0
220
0
230
1
0
LINE
5
9C
100
AcDbEntity
8
81
62
256
6
ByLayer
370
18
48
1
60
0
100
AcDbLine
10
-36
20
0
30
0
11
-39.9843
21
0
31
0
39
0
210
0
220
0
230
1
0
LINE
5
9D
100
AcDbEntity
8
81
62
256
6
ByLayer
370
13
48
1
60
0
100
AcDbLine
10
-36
20
-3.276822
30
0
11
-36
21
-3.188248
31
0
39
0
210
0
220
0
230
1
0
LINE
5
9E
100
AcDbEntity
8
81
62
256
6
ByLayer
370
18
48
1
60
0
100
AcDbLine
10
-36
20
-3.9843
30
0
11
-36
21
-6.2783
31
0
39
0
210
0
220
0
230
1
0
LINE
5
9F
100
AcDbEntity
8
81
62
256
6
ByLayer
370
18
48
1
60
0
100
AcDbLine
10
-42.279064
20
0
30
0
11
-42.2783
21
0
31
0
39
0
210
0
220
0
230
1
0
LINE
5
A0
100
AcDbEntity
8
81
62
256
6
ByLayer
370
18
48
1
60
0
100
AcDbLine
10
57.517139
20
0
30
0
11
57.217139
21
0
31
0
39
0
210
0
220
0
230
1
0
LINE
5
A1
100
AcDbEntity
8
81
62
256
6
ByLayer
370
18
48
1
60
0
100
AcDbLine
10
63.9843
20
0
30
0
11
60
21
0
31
0
39
0
210
0
220
0
230
1
0
LINE
5
A2
100
AcDbEntity
8
81
62
256
6
ByLayer
370
13
48
1
60
0
100
AcDbLine
10
-36
20
-3.9843
30
0
11
-36
21
-3.257639
31
0
39
0
210
0
220
0
230
1
0
LINE
5
A3
100
AcDbEntity
8
81
62
256
6
ByLayer
370
18
48
1
60
0
100
AcDbLine
10
-36
20
-6.279064
30
0
11
-36
21
-6.2783
31
0
39
0
210
0
220
0
230
1
0
LINE
5
A4
100
AcDbEntity
8
81
62
256
6
ByLayer
370
18
48
1
60
0
100
AcDbLine
10
-42.467161
20
0
30
0
11
-42.279064
21
0
31
0
39
0
210
0
220
0
230
1
0
LINE
5
A5
100
AcDbEntity
8
81
62
256
6
ByLayer
370
18
48
1
60
0
100
AcDbLine
10
57.705236
20
0
30
0
11
57.706
21
0
31
0
39
0
210
0
220
0
230
1
0
LINE
5
A6
100
AcDbEntity
8
81
62
256
6
ByLayer
370
18
48
1
60
0
100
AcDbLine
10
56.16441
20
0
30
0
11
57.217139
21
0
31
0
39
0
210
0
220
0
230
1
0
LINE
5
A7
100
AcDbEntity
8
1
62
256
6
ByLayer
370
18
48
1
60
0
100
AcDbLine
10
15.981335
20
4
30
0
11
0
21
4
31
0
39
0
210
0
220
0
230
1
0
LINE
5
A8
100
AcDbEntity
8
1
62
256
6
ByLayer
370
18
48
1
60
0
100
AcDbLine
10
0
20
-4
30
0
11
15.981335
21
-4
31
0
39
0
210
0
220
0
230
1
0
LINE
5
A9
100
AcDbEntity
8
1
62
256
6
ByLayer
370
18
48
1
60
0
100
AcDbLine
10
63.975357
20
-0.067144
30
0
11
63.976425
21
-0.06157
31
0
39
0
210
0
220
0
230
1
0
LINE
5
AA
100
AcDbEntity
8
1
62
256
6
ByLayer
370
18
48
1
60
0
100
AcDbLine
10
55.370499
20
3.2765
30
0
11
35.999417
21
3.2765
31
0
39
0
210
0
220
0
230
1
0
LINE
5
AB
100
AcDbEntity
8
1
62
256
6
ByLayer
370
18
48
1
60
0
100
AcDbLine
10
35.999417
20
-3.2765
30
0
11
55.569455
21
-3.2765
31
0
39
0
210
0
220
0
230
1
0
LINE
5
AC
100
AcDbEntity
8
1
62
256
6
ByLayer
370
18
48
1
60
0
100
AcDbLine
10
35.963266
20
3.277154
30
0
11
15.981335
21
4
31
0
39
0
210
0
220
0
230
1
0
LINE
5
AD
100
AcDbEntity
8
1
62
256
6
ByLayer
370
18
48
1
60
0
100
AcDbLine
10
15.981335
20
-4
30
0
11
35.963266
21
-3.277154
31
0
39
0
210
0
220
0
230
1
0
LINE
5
AE
100
AcDbEntity
8
SK1
62
256
6
ByLayer
370
18
48
1
60
0
100
AcDbLine
10
0
20
4
30
0
11
-35.4
21
4
31
0
39
0
210
0
220
0
230
1
0
LINE
5
B0
100
AcDbEntity
8
SK1
62
256
6
ByLayer
370
18
48
1
60
0
100
AcDbLine
10
-35.4
20
-4
30
0
11
0
21
-4
31
0
39
0
210
0
220
0
230
1
0
LINE
5
B1
100
AcDbEntity
8
SK1
62
256
6
ByLayer
370
18
48
1
60
0
100
AcDbLine
10
-36
20
-3.4
30
0
11
-35.4
21
-4
31
0
39
0
210
0
220
0
230
1
0
LINE
5
B2
100
AcDbEntity
8
SK1
62
256
6
ByLayer
370
18
48
1
60
0
100
AcDbLine
10
-35.4
20
4
30
0
11
-36
21
3.4
31
0
39
0
210
0
220
0
230
1
0
LINE
5
B3
100
AcDbEntity
8
1
62
256
6
ByLayer
370
18
48
1
60
0
100
AcDbLine
10
0
20
-4
30
0
11
0
21
4
31
0
39
0
210
0
220
0
230
1
0
LINE
5
B4
100
AcDbEntity
8
1
62
256
6
ByLayer
370
18
48
1
60
0
100
AcDbLine
10
63.983835
20
0.060894
30
0
11
63.987731
21
0.061005
31
0
39
0
210
0
220
0
230
1
0
LINE
5
B5
100
AcDbEntity
8
1
62
256
6
ByLayer
370
18
48
1
60
0
100
AcDbLine
10
63.999391
20
0.06
30
0
11
63.987547
21
0.06
31
0
39
0
210
0
220
0
230
1
0
LINE
5
B6
100
AcDbEntity
8
1
62
256
6
ByLayer
370
18
48
1
60
0
100
AcDbLine
10
63.765452
20
0.835949
30
0
11
63.736257
21
0.793229
31
0
39
0
210
0
220
0
230
1
0
LINE
5
B7
100
AcDbEntity
8
1
62
256
6
ByLayer
370
18
48
1
60
0
100
AcDbLine
10
63.85059
20
0.96296
30
0
11
63.765452
21
0.835949
31
0
39
0
210
0
220
0
230
1
0
LINE
5
B8
100
AcDbEntity
8
1
62
256
6
ByLayer
370
18
48
1
60
0
100
AcDbLine
10
63.725599
20
0.828534
30
0
11
63.765452
21
0.835949
31
0
39
0
210
0
220
0
230
1
0
LINE
5
B9
100
AcDbEntity
8
1
62
256
6
ByLayer
370
18
48
1
60
0
100
AcDbLine
10
63.976032
20
-0.061559
30
0
11
63.975405
21
-0.066853
31
0
39
0
210
0
220
0
230
1
0
LINE
5
BA
100
AcDbEntity
8
1
62
256
6
ByLayer
370
18
48
1
60
0
100
AcDbLine
10
63.978387
20
-0.056937
30
0
11
63.997875
21
-0.056597
31
0
39
0
210
0
220
0
230
1
0
LINE
5
BB
100
AcDbEntity
8
1
62
256
6
ByLayer
370
18
48
1
60
0
100
AcDbLine
10
63.47128
20
-1.533213
30
0
11
63.511621
21
-1.533231
31
0
39
0
210
0
220
0
230
1
0
LINE
5
BC
100
AcDbEntity
8
1
62
256
6
ByLayer
370
18
48
1
60
0
100
AcDbLine
10
55.069765
20
-3.225948
30
0
11
57.643142
21
-2.988469
31
0
39
0
210
0
220
0
230
1
0
LINE
5
BD
100
AcDbEntity
8
1
62
256
6
ByLayer
370
18
48
1
60
0
100
AcDbLine
10
57.708284
20
-3.033762
30
0
11
57.502576
21
-2.868404
31
0
39
0
210
0
220
0
230
1
0
LINE
5
BE
100
AcDbEntity
8
1
62
256
6
ByLayer
370
18
48
1
60
0
100
AcDbLine
10
57.490899
20
-2.882404
30
0
11
57.502576
21
-2.868404
31
0
39
0
210
0
220
0
230
1
0
LINE
5
BF
100
AcDbEntity
8
1
62
256
6
ByLayer
370
18
48
1
60
0
100
AcDbLine
10
63.750029
20
-1.015095
30
0
11
63.658492
21
-0.844042
31
0
39
0
210
0
220
0
230
1
0
LINE
5
C0
100
AcDbEntity
8
1
62
256
6
ByLayer
370
18
48
1
60
0
100
AcDbLine
10
63.668765
20
-0.766467
30
0
11
63.799182
21
-0.947121
31
0
39
0
210
0
220
0
230
1
0
LINE
5
C1
100
AcDbEntity
8
1
62
256
6
ByLayer
370
18
48
1
60
0
100
AcDbLine
10
63.603892
20
-0.516924
30
0
11
63.694119
21
-0.584
31
0
39
0
210
0
220
0
230
1
0
LINE
5
C2
100
AcDbEntity
8
1
62
256
6
ByLayer
370
18
48
1
60
0
100
AcDbLine
10
57.605367
20
2.690841
30
0
11
57.871179
21
2.999233
31
0
39
0
210
0
220
0
230
1
0
LINE
5
C3
100
AcDbEntity
8
1
62
256
6
ByLayer
370
18
48
1
60
0
100
AcDbLine
10
57.502576
20
-2.868404
30
0
11
57.605367
21
-2.743147
31
0
39
0
210
0
220
0
230
1
0
LINE
5
C4
100
AcDbEntity
8
1
62
256
6
ByLayer
370
18
48
1
60
0
100
AcDbLine
10
57.811074
20
2.772202
30
0
11
57.605367
21
2.690841
31
0
39
0
210
0
220
0
230
1
0
LINE
5
C5
100
AcDbEntity
8
1
62
256
6
ByLayer
370
18
48
1
60
0
100
AcDbLine
10
57.502576
20
2.507343
30
0
11
57.605367
21
2.690841
31
0
39
0
210
0
220
0
230
1
0
LINE
5
C6
100
AcDbEntity
8
1
62
256
6
ByLayer
370
18
48
1
60
0
100
AcDbLine
10
57.708284
20
2.588704
30
0
11
57.502576
21
2.507343
31
0
39
0
210
0
220
0
230
1
0
LINE
5
C7
100
AcDbEntity
8
1
62
256
6
ByLayer
370
18
48
1
60
0
100
AcDbLine
10
57.490899
20
2.464845
30
0
11
57.502576
21
2.507343
31
0
39
0
210
0
220
0
230
1
0
LINE
5
C8
100
AcDbEntity
8
1
62
256
6
ByLayer
370
18
48
1
60
0
100
AcDbLine
10
57.811074
20
-2.908505
30
0
11
57.605367
21
-2.743147
31
0
39
0
210
0
220
0
230
1
0
LINE
5
C9
100
AcDbEntity
8
1
62
256
6
ByLayer
370
18
48
1
60
0
100
AcDbLine
10
57.605367
20
-2.743147
30
0
11
57.871179
21
-2.417481
31
0
39
0
210
0
220
0
230
1
0
LINE
5
CA
100
AcDbEntity
8
1
62
256
6
ByLayer
370
18
48
1
60
0
100
AcDbLine
10
57.706
20
1.279021
30
0
11
57.706
21
1.387601
31
0
39
0
210
0
220
0
230
1
0
LINE
5
CB
100
AcDbEntity
8
1
62
256
6
ByLayer
370
18
48
1
60
0
100
AcDbLine
10
63.278896
20
1.105136
30
0
11
63.511621
21
0.903904
31
0
39
0
210
0
220
0
230
1
0
LINE
5
CC
100
AcDbEntity
8
1
62
256
6
ByLayer
370
18
48
1
60
0
100
AcDbLine
10
63.278896
20
1.105136
30
0
11
63.267349
21
1.127748
31
0
39
0
210
0
220
0
230
1
0
LINE
5
CD
100
AcDbEntity
8
1
62
256
6
ByLayer
370
18
48
1
60
0
100
AcDbLine
10
62.159068
20
1.998272
30
0
11
61.781111
21
2.274308
31
0
39
0
210
0
220
0
230
1
0
LINE
5
CE
100
AcDbEntity
8
1
62
256
6
ByLayer
370
18
48
1
60
0
100
AcDbLine
10
55.069765
20
2.109497
30
0
11
57.706
21
1.00999
31
0
39
0
210
0
220
0
230
1
0
LINE
5
CF
100
AcDbEntity
8
1
62
256
6
ByLayer
370
18
48
1
60
0
100
AcDbLine
10
57.706
20
-2.29428
30
0
11
57.706
21
-2.419645
31
0
39
0
210
0
220
0
230
1
0
LINE
5
D0
100
AcDbEntity
8
1
62
256
6
ByLayer
370
18
48
1
60
0
100
AcDbLine
10
57.706
20
1.00999
30
0
11
57.706
21
1.279021
31
0
39
0
210
0
220
0
230
1
0
LINE
5
D1
100
AcDbEntity
8
1
62
256
6
ByLayer
370
18
48
1
60
0
100
AcDbLine
10
57.706
20
0.930867
30
0
11
57.706
21
1.00999
31
0
39
0
210
0
220
0
230
1
0
LINE
5
D2
100
AcDbEntity
8
1
62
256
6
ByLayer
370
18
48
1
60
0
100
AcDbLine
10
57.706
20
-2.121188
30
0
11
57.706
21
-2.004877
31
0
39
0
210
0
220
0
230
1
0
LINE
5
D3
100
AcDbEntity
8
1
62
256
6
ByLayer
370
18
48
1
60
0
100
AcDbLine
10
57.706
20
-2.29428
30
0
11
57.706
21
-2.121188
31
0
39
0
210
0
220
0
230
1
0
LINE
5
D4
100
AcDbEntity
8
1
62
256
6
ByLayer
370
18
48
1
60
0
100
AcDbLine
10
57.706
20
0.795317
30
0
11
57.706
21
0.930867
31
0
39
0
210
0
220
0
230
1
0
LINE
5
D5
100
AcDbEntity
8
1
62
256
6
ByLayer
370
18
48
1
60
0
100
AcDbLine
10
63.306709
20
-0.46757
30
0
11
63.451753
21
-0.695018
31
0
39
0
210
0
220
0
230
1
0
LINE
5
D6
100
AcDbEntity
8
1
62
256
6
ByLayer
370
18
48
1
60
0
100
AcDbLine
10
63.306709
20
-0.46757
30
0
11
63.301179
21
-0.449844
31
0
39
0
210
0
220
0
230
1
0
LINE
5
D7
100
AcDbEntity
8
1
62
256
6
ByLayer
370
18
48
1
60
0
100
AcDbLine
10
61.830542
20
0.263175
30
0
11
61.731879
21
0.279118
31
0
39
0
210
0
220
0
230
1
0
LINE
5
D8
100
AcDbEntity
8
1
62
256
6
ByLayer
370
18
48
1
60
0
100
AcDbLine
10
57.706
20
-1.182616
30
0
11
57.706
21
-1.048604
31
0
39
0
210
0
220
0
230
1
0
LINE
5
D9
100
AcDbEntity
8
1
62
256
6
ByLayer
370
18
48
1
60
0
100
AcDbLine
10
57.489616
20
-0.315833
30
0
11
57.502576
21
-0.252524
31
0
39
0
210
0
220
0
230
1
0
LINE
5
DA
100
AcDbEntity
8
1
62
256
6
ByLayer
370
18
48
1
60
0
100
AcDbLine
10
55.114644
20
-1.190335
30
0
11
57.706
21
-2.004877
31
0
39
0
210
0
220
0
230
1
0
LINE
5
DB
100
AcDbEntity
8
1
62
256
6
ByLayer
370
18
48
1
60
0
100
AcDbLine
10
57.706
20
-2.004877
30
0
11
57.706
21
-1.182616
31
0
39
0
210
0
220
0
230
1
0
LINE
5
DC
100
AcDbEntity
8
1
62
256
6
ByLayer
370
18
48
1
60
0
100
AcDbLine
10
57.605367
20
0.057217
30
0
11
57.871179
21
0.69054
31
0
39
0
210
0
220
0
230
1
0
LINE
5
DD
100
AcDbEntity
8
1
62
256
6
ByLayer
370
18
48
1
60
0
100
AcDbLine
10
57.811074
20
-0.021757
30
0
11
57.605367
21
0.057217
31
0
39
0
210
0
220
0
230
1
0
LINE
5
DE
100
AcDbEntity
8
1
62
256
6
ByLayer
370
18
48
1
60
0
100
AcDbLine
10
57.502576
20
-0.252524
30
0
11
57.605367
21
0.057217
31
0
39
0
210
0
220
0
230
1
0
LINE
5
DF
100
AcDbEntity
8
1
62
256
6
ByLayer
370
18
48
1
60
0
100
AcDbLine
10
57.708284
20
-0.331498
30
0
11
57.502576
21
-0.252524
31
0
39
0
210
0
220
0
230
1
0
LINE
5
E0
100
AcDbEntity
8
1
62
256
6
ByLayer
370
18
48
1
60
0
100
AcDbLine
10
57.706
20
1.387601
30
0
11
57.706
21
2.587281
31
0
39
0
210
0
220
0
230
1
0
LINE
5
E1
100
AcDbEntity
8
1
62
256
6
ByLayer
370
18
48
1
60
0
100
AcDbLine
10
57.706
20
-1.048604
30
0
11
57.706
21
-0.331466
31
0
39
0
210
0
220
0
230
1
0
LINE
5
E2
100
AcDbEntity
8
1
62
256
6
ByLayer
370
18
48
1
60
0
100
AcDbLine
10
57.706
20
0.795317
30
0
11
57.706
21
0.742155
31
0
39
0
210
0
220
0
230
1
0
LINE
5
E3
100
AcDbEntity
8
1
62
256
6
ByLayer
370
18
48
1
60
0
100
AcDbLine
10
63.976032
20
-0.061559
30
0
11
63.988109
21
-0.061892
31
0
39
0
210
0
220
0
230
1
0
LINE
5
E4
100
AcDbEntity
8
1
62
256
6
ByLayer
370
18
48
1
60
0
100
AcDbLine
10
63.999215
20
-0.058754
30
0
11
63.987547
21
-0.058754
31
0
39
0
210
0
220
0
230
1
0
LINE
5
E5
100
AcDbEntity
8
1
62
256
6
ByLayer
370
18
48
1
60
0
100
AcDbLine
10
63.987365
20
0.001016
30
0
11
63.988127
21
-2.2E-05
31
0
39
0
210
0
220
0
230
1
0
LINE
5
E6
100
AcDbEntity
8
1
62
256
6
ByLayer
370
18
48
1
60
0
100
AcDbLine
10
15.981335
20
-4
30
0
11
15.981335
21
4
31
0
39
0
210
0
220
0
230
1
0
LINE
5
E7
100
AcDbEntity
8
SK1
62
256
6
ByLayer
370
18
48
1
60
0
100
AcDbLine
10
0
20
-4
30
0
11
0
21
4
31
0
39
0
210
0
220
0
230
1
0
LINE
5
E8
100
AcDbEntity
8
SK1
62
256
6
ByLayer
370
18
48
1
60
0
100
AcDbLine
10
-35.4
20
4
30
0
11
-35.4
21
-4
31
0
39
0
210
0
220
0
230
1
0
LINE
5
E9
100
AcDbEntity
8
SK1
62
256
6
ByLayer
370
18
48
1
60
0
100
AcDbLine
10
-36
20
3.4
30
0
11
-36
21
-3.4
31
0
39
0
210
0
220
0
230
1
0
LINE
5
EA
100
AcDbEntity
8
81
62
256
6
ByLayer
370
18
48
1
60
0
100
AcDbLine
10
56.16441
20
3.276822
30
0
11
56.16441
21
3.248662
31
0
39
0
210
0
220
0
230
1
0
LINE
5
EB
100
AcDbEntity
8
81
62
256
6
ByLayer
370
18
48
1
60
0
100
AcDbLine
10
56.16441
20
-3.12486
30
0
11
56.16441
21
-3.276822
31
0
39
0
210
0
220
0
230
1
0
LINE
5
EC
100
AcDbEntity
8
81
62
256
6
ByLayer
370
18
48
1
60
0
100
AcDbLine
10
57.517139
20
-3.188248
30
0
11
57.217139
21
-3.188248
31
0
39
0
210
0
220
0
230
1
0
LINE
5
ED
100
AcDbEntity
8
81
62
256
6
ByLayer
370
18
48
1
60
0
100
AcDbLine
10
57.217139
20
3.188248
30
0
11
57.517139
21
3.188248
31
0
39
0
210
0
220
0
230
1
0
LINE
5
EE
100
AcDbEntity
8
81
62
256
6
ByLayer
370
18
48
1
60
0
100
AcDbLine
10
57.705236
20
-3.256994
30
0
11
57.706
21
-3.257639
31
0
39
0
210
0
220
0
230
1
0
LINE
5
EF
100
AcDbEntity
8
81
62
256
6
ByLayer
370
18
48
1
60
0
100
AcDbLine
10
57.706
20
3.257639
30
0
11
57.705236
21
3.256994
31
0
39
0
210
0
220
0
230
1
0
LINE
5
F0
100
AcDbEntity
8
SK2
62
256
6
ByLayer
370
13
48
1
60
0
100
AcDbLine
10
-42.5
20
-4
30
0
11
-42.5
21
22.133313
31
0
39
0
210
0
220
0
230
1
0
LINE
5
F2
100
AcDbEntity
8
SK2
62
256
6
ByLayer
370
13
48
1
60
0
100
AcDbLine
10
-37.5875
20
-4
30
0
11
-44.5
21
-4
31
0
39
0
210
0
220
0
230
1
0
LINE
5
F3
100
AcDbEntity
8
SK2
62
256
6
ByLayer
370
13
48
1
60
0
100
AcDbLine
10
-37.5875
20
4
30
0
11
-44.5
21
4
31
0
39
0
210
0
220
0
230
1
0
LINE
5
F4
100
AcDbEntity
8
1
62
256
6
ByLayer
370
18
48
1
60
1
100
AcDbLine
10
-42.5
20
-4
30
0
11
-42.960784
21
-0.500002
31
0
39
0
210
0
220
0
230
1
0
LINE
5
F5
100
AcDbEntity
8
1
62
256
6
ByLayer
370
18
48
1
60
1
100
AcDbLine
10
-42.960784
20
-0.500002
30
0
11
-42.039216
21
-0.499998
31
0
39
0
210
0
220
0
230
1
0
LINE
5
F6
100
AcDbEntity
8
1
62
256
6
ByLayer
370
18
48
1
60
1
100
AcDbLine
10
-42.039216
20
-0.499998
30
0
11
-42.5
21
-4
31
0
39
0
210
0
220
0
230
1
0
LINE
5
F7
100
AcDbEntity
8
1
62
256
6
ByLayer
370
18
48
1
60
1
100
AcDbLine
10
-42.5
20
4
30
0
11
-42.039216
21
0.500002
31
0
39
0
210
0
220
0
230
1
0
LINE
5
F8
100
AcDbEntity
8
1
62
256
6
ByLayer
370
18
48
1
60
1
100
AcDbLine
10
-42.039216
20
0.500002
30
0
11
-42.960784
21
0.499998
31
0
39
0
210
0
220
0
230
1
0
LINE
5
F9
100
AcDbEntity
8
1
62
256
6
ByLayer
370
18
48
1
60
1
100
AcDbLine
10
-42.960784
20
0.499998
30
0
11
-42.5
21
4
31
0
39
0
210
0
220
0
230
1
0
LINE
5
FA
100
AcDbEntity
8
SK2
62
256
6
ByLayer
370
13
48
1
60
0
100
AcDbLine
10
40.5
20
-33.276822
30
0
11
40.5
21
10.776822
31
0
39
0
210
0
220
0
230
1
0
LINE
5
FB
100
AcDbEntity
8
SK2
62
256
6
ByLayer
370
13
48
1
60
0
100
AcDbLine
10
37.5875
20
-3.276822
30
0
11
42.5
21
-3.276822
31
0
39
0
210
0
220
0
230
1
0
LINE
5
FC
100
AcDbEntity
8
SK2
62
256
6
ByLayer
370
13
48
1
60
0
100
AcDbLine
10
37.5875
20
3.276822
30
0
11
42.5
21
3.276822
31
0
39
0
210
0
220
0
230
1
0
LINE
5
FD
100
AcDbEntity
8
1
62
256
6
ByLayer
370
18
48
1
60
1
100
AcDbLine
10
40.5
20
-3.276822
30
0
11
40.960784
21
-6.776821
31
0
39
0
210
0
220
0
230
1
0
LINE
5
FE
100
AcDbEntity
8
1
62
256
6
ByLayer
370
18
48
1
60
1
100
AcDbLine
10
40.960784
20
-6.776821
30
0
11
40.039216
21
-6.776824
31
0
39
0
210
0
220
0
230
1
0
LINE
5
FF
100
AcDbEntity
8
1
62
256
6
ByLayer
370
18
48
1
60
1
100
AcDbLine
10
40.039216
20
-6.776824
30
0
11
40.5
21
-3.276822
31
0
39
0
210
0
220
0
230
1
0
LINE
5
100
100
AcDbEntity
8
1
62
256
6
ByLayer
370
18
48
1
60
1
100
AcDbLine
10
40.5
20
3.276822
30
0
11
40.039216
21
6.776821
31
0
39
0
210
0
220
0
230
1
0
LINE
5
101
100
AcDbEntity
8
1
62
256
6
ByLayer
370
18
48
1
60
1
100
AcDbLine
10
40.039216
20
6.776821
30
0
11
40.960784
21
6.776824
31
0
39
0
210
0
220
0
230
1
0
LINE
5
102
100
AcDbEntity
8
1
62
256
6
ByLayer
370
18
48
1
60
1
100
AcDbLine
10
40.960784
20
6.776824
30
0
11
40.5
21
3.276822
31
0
39
0
210
0
220
0
230
1
0
LINE
5
103
100
AcDbEntity
8
2
62
256
6
ByLayer
370
13
48
1
60
0
100
AcDbLine
10
76.5
20
-4
30
0
11
76.5
21
20.272684
31
0
39
0
210
0
220
0
230
1
0
LINE
5
105
100
AcDbEntity
8
2
62
256
6
ByLayer
370
13
48
1
60
0
100
AcDbLine
10
61.5875
20
-4
30
0
11
78.5
21
-4
31
0
39
0
210
0
220
0
230
1
0
LINE
5
106
100
AcDbEntity
8
2
62
256
6
ByLayer
370
13
48
1
60
0
100
AcDbLine
10
61.5875
20
4
30
0
11
78.5
21
4
31
0
39
0
210
0
220
0
230
1
0
LINE
5
107
100
AcDbEntity
8
1
62
256
6
ByLayer
370
18
48
1
60
1
100
AcDbLine
10
76.5
20
-4
30
0
11
76.039216
21
-0.500002
31
0
39
0
210
0
220
0
230
1
0
LINE
5
108
100
AcDbEntity
8
1
62
256
6
ByLayer
370
18
48
1
60
1
100
AcDbLine
10
76.039216
20
-0.500002
30
0
11
76.960784
21
-0.499998
31
0
39
0
210
0
220
0
230
1
0
LINE
5
109
100
AcDbEntity
8
1
62
256
6
ByLayer
370
18
48
1
60
1
100
AcDbLine
10
76.960784
20
-0.499998
30
0
11
76.5
21
-4
31
0
39
0
210
0
220
0
230
1
0
LINE
5
10A
100
AcDbEntity
8
1
62
256
6
ByLayer
370
18
48
1
60
1
100
AcDbLine
10
76.5
20
4
30
0
11
76.960784
21
0.500002
31
0
39
0
210
0
220
0
230
1
0
LINE
5
10B
100
AcDbEntity
8
1
62
256
6
ByLayer
370
18
48
1
60
1
100
AcDbLine
10
76.960784
20
0.500002
30
0
11
76.039216
21
0.499998
31
0
39
0
210
0
220
0
230
1
0
LINE
5
10C
100
AcDbEntity
8
1
62
256
6
ByLayer
370
18
48
1
60
1
100
AcDbLine
10
76.039216
20
0.499998
30
0
11
76.5
21
4
31
0
39
0
210
0
220
0
230
1
0
LINE
5
10D
100
AcDbEntity
8
SK2
62
256
6
ByLayer
370
13
48
1
60
0
100
AcDbLine
10
14.39487
20
4.057311
30
0
11
1.171582
21
4.535005
31
0
39
0
210
0
220
0
230
1
0
LINE
5
10E
100
AcDbEntity
8
SK2
62
256
6
ByLayer
370
13
48
1
60
0
100
AcDbLine
10
-34.4125
20
0
30
0
11
5.089695
21
0
31
0
39
0
210
0
220
0
230
1
0
LINE
5
10F
100
AcDbEntity
8
1
62
256
6
ByLayer
370
18
48
1
60
1
100
AcDbLine
10
3.170278
20
4.462802
30
0
11
2.861033
21
7.97943
31
0
39
0
210
0
220
0
230
1
0
LINE
5
110
100
AcDbEntity
8
1
62
256
6
ByLayer
370
18
48
1
60
1
100
AcDbLine
10
2.861033
20
7.97943
30
0
11
3.781741
21
7.939646
31
0
39
0
210
0
220
0
230
1
0
LINE
5
111
100
AcDbEntity
8
1
62
256
6
ByLayer
370
18
48
1
60
1
100
AcDbLine
10
3.781741
20
7.939646
30
0
11
3.170278
21
4.462802
31
0
39
0
210
0
220
0
230
1
0
LINE
5
112
100
AcDbEntity
8
1
62
256
6
ByLayer
370
18
48
1
60
1
100
AcDbLine
10
3.089695
20
0
30
0
11
3.575239
21
-3.496649
31
0
39
0
210
0
220
0
230
1
0
LINE
5
113
100
AcDbEntity
8
1
62
256
6
ByLayer
370
18
48
1
60
1
100
AcDbLine
10
3.575239
20
-3.496649
30
0
11
2.653695
21
-3.503175
31
0
39
0
210
0
220
0
230
1
0
LINE
5
114
100
AcDbEntity
8
1
62
256
6
ByLayer
370
18
48
1
60
1
100
AcDbLine
10
2.653695
20
-3.503175
30
0
11
3.089695
21
0
31
0
39
0
210
0
220
0
230
1
0
LINE
5
1E0
100
AcDbEntity
8
1
62
256
6
ByLayer
370
18
48
1
60
1
100
AcDbLine
10
-42.5
20
-4
30
0
11
-42.960784
21
-0.500002
31
0
39
0
210
0
220
0
230
1
0
LINE
5
1E1
100
AcDbEntity
8
1
62
256
6
ByLayer
370
18
48
1
60
1
100
AcDbLine
10
-42.960784
20
-0.500002
30
0
11
-42.039216
21
-0.499998
31
0
39
0
210
0
220
0
230
1
0
LINE
5
1E2
100
AcDbEntity
8
1
62
256
6
ByLayer
370
18
48
1
60
1
100
AcDbLine
10
-42.039216
20
-0.499998
30
0
11
-42.5
21
-4
31
0
39
0
210
0
220
0
230
1
0
LINE
5
1E4
100
AcDbEntity
8
1
62
256
6
ByLayer
370
18
48
1
60
1
100
AcDbLine
10
-42.5
20
4
30
0
11
-42.039216
21
0.500002
31
0
39
0
210
0
220
0
230
1
0
LINE
5
1E5
100
AcDbEntity
8
1
62
256
6
ByLayer
370
18
48
1
60
1
100
AcDbLine
10
-42.039216
20
0.500002
30
0
11
-42.960784
21
0.499998
31
0
39
0
210
0
220
0
230
1
0
LINE
5
1E6
100
AcDbEntity
8
1
62
256
6
ByLayer
370
18
48
1
60
1
100
AcDbLine
10
-42.960784
20
0.499998
30
0
11
-42.5
21
4
31
0
39
0
210
0
220
0
230
1
0
LINE
5
1EA
100
AcDbEntity
8
1
62
256
6
ByLayer
370
18
48
1
60
1
100
AcDbLine
10
40.5
20
-3.276822
30
0
11
40.960784
21
-6.776821
31
0
39
0
210
0
220
0
230
1
0
LINE
5
1EB
100
AcDbEntity
8
1
62
256
6
ByLayer
370
18
48
1
60
1
100
AcDbLine
10
40.960784
20
-6.776821
30
0
11
40.039216
21
-6.776824
31
0
39
0
210
0
220
0
230
1
0
LINE
5
1EC
100
AcDbEntity
8
1
62
256
6
ByLayer
370
18
48
1
60
1
100
AcDbLine
10
40.039216
20
-6.776824
30
0
11
40.5
21
-3.276822
31
0
39
0
210
0
220
0
230
1
0
LINE
5
1EE
100
AcDbEntity
8
1
62
256
6
ByLayer
370
18
48
1
60
1
100
AcDbLine
10
40.5
20
3.276822
30
0
11
40.039216
21
6.776821
31
0
39
0
210
0
220
0
230
1
0
LINE
5
1EF
100
AcDbEntity
8
1
62
256
6
ByLayer
370
18
48
1
60
1
100
AcDbLine
10
40.039216
20
6.776821
30
0
11
40.960784
21
6.776824
31
0
39
0
210
0
220
0
230
1
0
LINE
5
1F0
100
AcDbEntity
8
1
62
256
6
ByLayer
370
18
48
1
60
1
100
AcDbLine
10
40.960784
20
6.776824
30
0
11
40.5
21
3.276822
31
0
39
0
210
0
220
0
230
1
0
LINE
5
1F4
100
AcDbEntity
8
1
62
256
6
ByLayer
370
18
48
1
60
1
100
AcDbLine
10
76.5
20
-4
30
0
11
76.039216
21
-0.500002
31
0
39
0
210
0
220
0
230
1
0
LINE
5
1F5
100
AcDbEntity
8
1
62
256
6
ByLayer
370
18
48
1
60
1
100
AcDbLine
10
76.039216
20
-0.500002
30
0
11
76.960784
21
-0.499998
31
0
39
0
210
0
220
0
230
1
0
LINE
5
1F6
100
AcDbEntity
8
1
62
256
6
ByLayer
370
18
48
1
60
1
100
AcDbLine
10
76.960784
20
-0.499998
30
0
11
76.5
21
-4
31
0
39
0
210
0
220
0
230
1
0
LINE
5
1F8
100
AcDbEntity
8
1
62
256
6
ByLayer
370
18
48
1
60
1
100
AcDbLine
10
76.5
20
4
30
0
11
76.960784
21
0.500002
31
0
39
0
210
0
220
0
230
1
0
LINE
5
1F9
100
AcDbEntity
8
1
62
256
6
ByLayer
370
18
48
1
60
1
100
AcDbLine
10
76.960784
20
0.500002
30
0
11
76.039216
21
0.499998
31
0
39
0
210
0
220
0
230
1
0
LINE
5
1FA
100
AcDbEntity
8
1
62
256
6
ByLayer
370
18
48
1
60
1
100
AcDbLine
10
76.039216
20
0.499998
30
0
11
76.5
21
4
31
0
39
0
210
0
220
0
230
1
0
LINE
5
1FD
100
AcDbEntity
8
1
62
256
6
ByLayer
370
18
48
1
60
1
100
AcDbLine
10
3.170278
20
4.462802
30
0
11
2.861033
21
7.97943
31
0
39
0
210
0
220
0
230
1
0
LINE
5
1FE
100
AcDbEntity
8
1
62
256
6
ByLayer
370
18
48
1
60
1
100
AcDbLine
10
2.861033
20
7.97943
30
0
11
3.781741
21
7.939646
31
0
39
0
210
0
220
0
230
1
0
LINE
5
1FF
100
AcDbEntity
8
1
62
256
6
ByLayer
370
18
48
1
60
1
100
AcDbLine
10
3.781741
20
7.939646
30
0
11
3.170278
21
4.462802
31
0
39
0
210
0
220
0
230
1
0
LINE
5
201
100
AcDbEntity
8
1
62
256
6
ByLayer
370
18
48
1
60
1
100
AcDbLine
10
3.089695
20
0
30
0
11
3.575239
21
-3.496649
31
0
39
0
210
0
220
0
230
1
0
LINE
5
202
100
AcDbEntity
8
1
62
256
6
ByLayer
370
18
48
1
60
1
100
AcDbLine
10
3.575239
20
-3.496649
30
0
11
2.653695
21
-3.503175
31
0
39
0
210
0
220
0
230
1
0
LINE
5
203
100
AcDbEntity
8
1
62
256
6
ByLayer
370
18
48
1
60
1
100
AcDbLine
10
2.653695
20
-3.503175
30
0
11
3.089695
21
0
31
0
39
0
210
0
220
0
230
1
0
MTEXT
5
1DC
100
AcDbEntity
8
SK2
62
256
6
ByLayer
370
18
48
1
60
0
100
AcDbMText
10
-43.841114
20
8.658437
30
0
210
0
220
0
230
1
1
%%c
40
3
41
0
44
1.084337
50
90
71
7
72
5
7
iso_b_vert
0
MTEXT
5
1DF
100
AcDbEntity
8
SK2
62
256
6
ByLayer
370
18
48
1
60
0
100
AcDbMText
10
-43.841114
20
14.635
30
0
210
0
220
0
230
1
1
\W0.6903;8 h6
40
3
41
0
44
1.084337
50
90
71
7
72
5
7
iso_b_vert
0
MTEXT
5
1E8
100
AcDbEntity
8
SK2
62
256
6
ByLayer
370
18
48
1
60
0
100
AcDbMText
10
39.158886
20
-31.618385
30
0
210
0
220
0
230
1
1
%%c
40
3
41
0
44
1.084337
50
90
71
7
72
5
7
iso_b_vert
0
MTEXT
5
1E9
100
AcDbEntity
8
SK2
62
256
6
ByLayer
370
18
48
1
60
0
100
AcDbMText
10
39.158886
20
-25.641822
30
0
210
0
220
0
230
1
1
\W0.7346;6.55
40
3
41
0
44
1.084337
50
90
71
7
72
5
7
iso_b_vert
0
MTEXT
5
1F2
100
AcDbEntity
8
2
62
256
6
ByLayer
370
18
48
1
60
0
100
AcDbMText
10
75.158886
20
10.658437
30
0
210
0
220
0
230
1
1
%%c
40
3
41
0
44
1.084337
50
90
71
7
72
5
7
iso_b_vert
0
MTEXT
5
1F3
100
AcDbEntity
8
2
62
256
6
ByLayer
370
18
48
1
60
0
100
AcDbMText
10
75.158886
20
16.635
30
0
210
0
220
0
230
1
1
\W0.5966;(8)
40
3
41
0
44
1.084337
50
90
71
7
72
5
7
iso_b_vert
0
MTEXT
5
1FC
100
AcDbEntity
8
SK2
62
256
6
ByLayer
370
18
48
1
60
0
100
AcDbMText
10
3.037981
20
12.048875
30
0
210
0
220
0
230
1
1
\W0.7635;(2%%d)
40
3
41
0
44
1.084337
50
83.1963742431443
71
7
72
5
7
iso_b_vert
0
MTEXT
5
205
100
AcDbEntity
8
SK6
62
256
6
ByLayer
370
18
48
1
60
0
100
AcDbMText
10
-15.17717
20
-43.946035
30
0
210
0
220
0
230
1
1
\W0.7831;2L446-0800-TA0800   T2CH
40
3
41
0
44
1.084337
50
0
71
7
72
5
7
iso_b_vert
0
HATCH
5
1E3
100
AcDbEntity
8
SK2
62
256
6
ByLayer
370
13
48
1
60
0
100
AcDbHatch
10
0
20
0
30
0
210
0
220
0
230
1
2
ANSI31
70
0
71
0
91
1
92
5
93
3
72
1
10
-42.5
20
-4
11
-42.9607837415528
21
-0.500001692553184
72
1
10
-42.9607837415528
20
-0.500001692553184
11
-42.0392162584472
21
-0.499998307446816
72
1
10
-42.0392162584472
20
-0.499998307446816
11
-42.5
21
-4
97
0
75
0
76
1
52
0
41
0.0062
77
0
78
1
53
45
43
0
44
0
45
-0.0139193969876572
46
0.0139193969876572
79
0
47
0
98
1
10
0
20
0
0
HATCH
5
1E7
100
AcDbEntity
8
SK2
62
256
6
ByLayer
370
13
48
1
60
0
100
AcDbHatch
10
0
20
0
30
0
210
0
220
0
230
1
2
ANSI31
70
0
71
0
91
1
92
5
93
3
72
1
10
-42.5
20
4
11
-42.0392162584472
21
0.500001692553184
72
1
10
-42.0392162584472
20
0.500001692553184
11
-42.9607837415528
21
0.499998307446816
72
1
10
-42.9607837415528
20
0.499998307446816
11
-42.5
21
4
97
0
75
0
76
1
52
0
41
0.0062
77
0
78
1
53
45
43
0
44
0
45
-0.0139193969876572
46
0.0139193969876572
79
0
47
0
98
1
10
0
20
0
0
HATCH
5
1ED
100
AcDbEntity
8
SK2
62
256
6
ByLayer
370
13
48
1
60
0
100
AcDbHatch
10
0
20
0
30
0
210
0
220
0
230
1
2
ANSI31
70
0
71
0
91
1
92
5
93
3
72
1
10
40.5
20
-3.27682224113548
11
40.9607837415528
21
-6.77682054858229
72
1
10
40.9607837415528
20
-6.77682054858229
11
40.0392162584472
21
-6.77682393368866
72
1
10
40.0392162584472
20
-6.77682393368866
11
40.5
21
-3.27682224113548
97
0
75
0
76
1
52
0
41
0.0062
77
0
78
1
53
45
43
0
44
0
45
-0.0139193969876572
46
0.0139193969876572
79
0
47
0
98
1
10
0
20
0
0
HATCH
5
1F1
100
AcDbEntity
8
SK2
62
256
6
ByLayer
370
13
48
1
60
0
100
AcDbHatch
10
0
20
0
30
0
210
0
220
0
230
1
2
ANSI31
70
0
71
0
91
1
92
5
93
3
72
1
10
40.5
20
3.27682224113516
11
40.0392162584472
21
6.77682054858198
72
1
10
40.0392162584472
20
6.77682054858198
11
40.9607837415528
21
6.77682393368835
72
1
10
40.9607837415528
20
6.77682393368835
11
40.5
21
3.27682224113516
97
0
75
0
76
1
52
0
41
0.0062
77
0
78
1
53
45
43
0
44
0
45
-0.0139193969876572
46
0.0139193969876572
79
0
47
0
98
1
10
0
20
0
0
HATCH
5
1F7
100
AcDbEntity
8
2
62
256
6
ByLayer
370
13
48
1
60
0
100
AcDbHatch
10
0
20
0
30
0
210
0
220
0
230
1
2
ANSI31
70
0
71
0
91
1
92
5
93
3
72
1
10
76.5
20
-4
11
76.0392162584472
21
-0.500001692553184
72
1
10
76.0392162584472
20
-0.500001692553184
11
76.9607837415528
21
-0.499998307446816
72
1
10
76.9607837415528
20
-0.499998307446816
11
76.5
21
-4
97
0
75
0
76
1
52
0
41
0.0062
77
0
78
1
53
45
43
0
44
0
45
-0.0139193969876572
46
0.0139193969876572
79
0
47
0
98
1
10
0
20
0
0
HATCH
5
1FB
100
AcDbEntity
8
2
62
256
6
ByLayer
370
13
48
1
60
0
100
AcDbHatch
10
0
20
0
30
0
210
0
220
0
230
1
2
ANSI31
70
0
71
0
91
1
92
5
93
3
72
1
10
76.5
20
4
11
76.9607837415528
21
0.500001692553184
72
1
10
76.9607837415528
20
0.500001692553184
11
76.0392162584472
21
0.499998307446816
72
1
10
76.0392162584472
20
0.499998307446816
11
76.5
21
4
97
0
75
0
76
1
52
0
41
0.0062
77
0
78
1
53
45
43
0
44
0
45
-0.0139193969876572
46
0.0139193969876572
79
0
47
0
98
1
10
0
20
0
0
HATCH
5
200
100
AcDbEntity
8
SK2
62
256
6
ByLayer
370
13
48
1
60
0
100
AcDbHatch
10
0
20
0
30
0
210
0
220
0
230
1
2
ANSI31
70
0
71
0
91
1
92
5
93
3
72
1
10
3.17027836315498
20
4.46280167499057
11
2.86103266072936
21
7.97943030254584
72
1
10
2.86103266072936
20
7.97943030254584
11
3.78174099718578
21
7.93964607063708
72
1
10
3.78174099718578
20
7.93964607063708
11
3.17027836315498
21
4.46280167499057
97
0
75
0
76
1
52
0
41
0.0062
77
0
78
1
53
45
43
0
44
0
45
-0.0139193969876572
46
0.0139193969876572
79
0
47
0
98
1
10
0
20
0
0
HATCH
5
204
100
AcDbEntity
8
SK2
62
256
6
ByLayer
370
13
48
1
60
0
100
AcDbHatch
10
0
20
0
30
0
210
0
220
0
230
1
2
ANSI31
70
0
71
0
91
1
92
5
93
3
72
1
10
3.08969490012976
20
2.84E-14
11
3.57523917732382
21
-3.49664933378997
72
1
10
3.57523917732382
20
-3.49664933378997
11
2.65369480115126
21
-3.50317533361451
72
1
10
2.65369480115126
20
-3.50317533361451
11
3.08969490012976
21
2.84E-14
97
0
75
0
76
1
52
0
41
0.0062
77
0
78
1
53
45
43
0
44
0
45
-0.0139193969876572
46
0.0139193969876572
79
0
47
0
98
1
10
0
20
0
0
DIMENSION
5
208
100
AcDbEntity
8
2
62
256
6
ByLayer
370
18
48
1
60
0
100
AcDbDimension
2
_U0
10
36
20
12.00759
30
0
11
50
21
12.00759
31
0
70
32
71
1
72
1
41
1
210
0
220
0
230
1
3
Standard
100
AcDbAlignedDimension
13
64
23
0
33
0
14
36
24
3.276822
34
0
50
0
100
AcDbRotatedDimension
1001
ACAD
1000
DSTYLE
1002
{
1070
   371
1070
    13
1070
   372
1070
    13
1070
     3
1000

1070
   170
1070
     0
1070
   144
1040
1.0
1070
   277
1070
     2
1070
   284
1070
     8
1070
   278
1070
    46
1070
   146
1040
1.166667
1070
   345
1005
16
1070
   347
1005
16
1070
   346
1005
16
1070
   344
1005
0
1070
   343
1005
0
1070
   172
1070
     1
1070
    76
1070
     0
1070
    75
1070
     0
1070
   282
1070
     0
1070
   281
1070
     0
1070
    71
1070
     0
1070
    74
1070
     0
1070
   279
1070
     0
1070
   173
1070
     1
1070
   340
1005
1DD
1070
   271
1070
     2
1070
   272
1070
     2
1070
    77
1070
     1
1070
    73
1070
     1
1070
   171
1070
     3
1070
   274
1070
     4
1070
   177
1070
     2
1070
   176
1070
     2
1070
   178
1070
     2
1070
    78
1070
     8
1070
    48
1040
-0.1
1070
    41
1040
3.5
1070
   147
1040
1.5
1070
    42
1040
1.5875
1070
    44
1040
2.0
1070
   140
1040
3.0
1002
}
1001
ACAD_DSTYLE_DIM_LINETYPE
1070
   380
1005
16
1001
ACAD_DSTYLE_DIM_EXT1_LINETYPE
1070
   381
1005
16
1001
ACAD_DSTYLE_DIM_EXT2_LINETYPE
1070
   382
1005
16
0
DIMENSION
5
221
100
AcDbEntity
8
2
62
256
6
ByLayer
370
18
48
1
60
0
100
AcDbDimension
2
_U1
10
15.981335
20
22.00759
30
0
11
39.990668
21
22.00759
31
0
70
32
71
1
72
1
41
1
210
0
220
0
230
1
3
Standard
100
AcDbAlignedDimension
13
64
23
0
33
0
14
15.981335
24
4
34
0
50
0
100
AcDbRotatedDimension
1001
ACAD
1000
DSTYLE
1002
{
1070
   371
1070
    13
1070
   372
1070
    13
1070
     3
1000

1070
   170
1070
     0
1070
   144
1040
1.0
1070
   277
1070
     2
1070
   284
1070
     8
1070
   278
1070
    46
1070
   146
1040
1.166667
1070
   345
1005
16
1070
   347
1005
16
1070
   346
1005
16
1070
   344
1005
0
1070
   343
1005
0
1070
   172
1070
     1
1070
    76
1070
     0
1070
    75
1070
     0
1070
   282
1070
     0
1070
   281
1070
     0
1070
    71
1070
     0
1070
    74
1070
     0
1070
   279
1070
     0
1070
   173
1070
     1
1070
   340
1005
1DD
1070
   271
1070
     2
1070
   272
1070
     2
1070
    77
1070
     1
1070
    73
1070
     1
1070
   171
1070
     3
1070
   274
1070
     4
1070
   177
1070
     2
1070
   176
1070
     2
1070
   178
1070
     2
1070
    78
1070
     8
1070
    48
1040
-0.1
1070
    41
1040
3.5
1070
   147
1040
1.5
1070
    42
1040
1.5875
1070
    44
1040
2.0
1070
   140
1040
3.0
1002
}
1001
ACAD_DSTYLE_DIM_LINETYPE
1070
   380
1005
16
1001
ACAD_DSTYLE_DIM_EXT1_LINETYPE
1070
   381
1005
16
1001
ACAD_DSTYLE_DIM_EXT2_LINETYPE
1070
   382
1005
16
0
DIMENSION
5
239
100
AcDbEntity
8
SK2
62
256
6
ByLayer
370
18
48
1
60
0
100
AcDbDimension
2
_U2
10
-36
20
32.00759
30
0
11
14
21
32.00759
31
0
70
32
71
1
72
1
41
1
210
0
220
0
230
1
3
Standard
100
AcDbAlignedDimension
13
64
23
0
33
0
14
-36
24
0
34
0
50
0
100
AcDbRotatedDimension
1001
ACAD
1000
DSTYLE
1002
{
1070
   371
1070
    13
1070
   372
1070
    13
1070
     3
1000

1070
   170
1070
     0
1070
   144
1040
1.0
1070
   277
1070
     2
1070
   284
1070
     8
1070
   278
1070
    46
1070
   146
1040
1.166667
1070
   345
1005
16
1070
   347
1005
16
1070
   346
1005
16
1070
   344
1005
0
1070
   343
1005
0
1070
   172
1070
     1
1070
    76
1070
     0
1070
    75
1070
     0
1070
   282
1070
     0
1070
   281
1070
     0
1070
    71
1070
     0
1070
    74
1070
     0
1070
   279
1070
     0
1070
   173
1070
     1
1070
   340
1005
1DD
1070
   271
1070
     2
1070
   272
1070
     2
1070
    77
1070
     1
1070
    73
1070
     1
1070
   171
1070
     3
1070
   274
1070
     4
1070
   177
1070
     2
1070
   176
1070
     2
1070
   178
1070
     2
1070
    78
1070
     8
1070
    48
1040
-0.1
1070
    41
1040
3.5
1070
   147
1040
1.5
1070
    42
1040
1.5875
1070
    44
1040
2.0
1070
   140
1040
3.0
1002
}
1001
ACAD_DSTYLE_DIM_LINETYPE
1070
   380
1005
16
1001
ACAD_DSTYLE_DIM_EXT1_LINETYPE
1070
   381
1005
16
1001
ACAD_DSTYLE_DIM_EXT2_LINETYPE
1070
   382
1005
16
0
DIMENSION
5
251
100
AcDbEntity
8
SK2
62
256
6
ByLayer
370
18
48
1
60
0
100
AcDbDimension
2
_U3
10
0.6
20
-17.66989
30
0
11
-17.7
21
-17.66989
31
0
70
32
71
1
72
1
41
1
210
0
220
0
230
1
3
Standard
100
AcDbAlignedDimension
13
-36
23
0
33
0
14
0.6
24
-4
34
0
50
0
100
AcDbRotatedDimension
1001
ACAD
1000
DSTYLE
1002
{
1070
   371
1070
    13
1070
   372
1070
    13
1070
     3
1000

1070
   170
1070
     0
1070
   144
1040
1.0
1070
   277
1070
     2
1070
   284
1070
     8
1070
   278
1070
    46
1070
   146
1040
1.166667
1070
   345
1005
16
1070
   347
1005
16
1070
   346
1005
16
1070
   344
1005
0
1070
   343
1005
0
1070
   172
1070
     1
1070
    76
1070
     0
1070
    75
1070
     0
1070
   282
1070
     0
1070
   281
1070
     0
1070
    71
1070
     0
1070
    74
1070
     0
1070
   279
1070
     0
1070
   173
1070
     1
1070
   340
1005
1DD
1070
   271
1070
     2
1070
   272
1070
     2
1070
    77
1070
     1
1070
    73
1070
     1
1070
   171
1070
     3
1070
   274
1070
     4
1070
   177
1070
     2
1070
   176
1070
     2
1070
   178
1070
     2
1070
    78
1070
     8
1070
    48
1040
-0.1
1070
    41
1040
3.5
1070
   147
1040
1.5
1070
    42
1040
1.5875
1070
    44
1040
2.0
1070
   140
1040
3.0
1002
}
1001
ACAD_DSTYLE_DIM_LINETYPE
1070
   380
1005
16
1001
ACAD_DSTYLE_DIM_EXT1_LINETYPE
1070
   381
1005
16
1001
ACAD_DSTYLE_DIM_EXT2_LINETYPE
1070
   382
1005
16
0
DIMENSION
5
269
100
AcDbEntity
8
SK2
62
256
6
ByLayer
370
18
48
1
60
0
100
AcDbDimension
2
_U4
10
57.706
20
-11.5
30
0
11
79.928571
21
-11.5
31
0
70
32
71
1
72
1
41
1
210
0
220
0
230
1
3
Standard
100
AcDbAlignedDimension
13
64
23
0
33
0
14
57.706
24
3.276822
34
0
50
0
100
AcDbRotatedDimension
1001
ACAD
1000
DSTYLE
1002
{
1070
   371
1070
    13
1070
   372
1070
    13
1070
     3
1000

1070
   170
1070
     0
1070
   144
1040
1.0
1070
   277
1070
     2
1070
   284
1070
     8
1070
   278
1070
    46
1070
   146
1040
1.166667
1070
   345
1005
16
1070
   347
1005
16
1070
   346
1005
16
1070
   344
1005
0
1070
   343
1005
0
1070
   172
1070
     1
1070
    76
1070
     0
1070
    75
1070
     0
1070
   282
1070
     0
1070
   281
1070
     0
1070
    71
1070
     0
1070
    74
1070
     0
1070
   279
1070
     0
1070
   173
1070
     1
1070
   340
1005
1DD
1070
   271
1070
     2
1070
   272
1070
     2
1070
    77
1070
     1
1070
    73
1070
     1
1070
   171
1070
     3
1070
   274
1070
     4
1070
   177
1070
     2
1070
   176
1070
     2
1070
   178
1070
     2
1070
    78
1070
     8
1070
    48
1040
-0.1
1070
    41
1040
3.5
1070
   147
1040
1.5
1070
    42
1040
1.5875
1070
    44
1040
2.0
1070
   140
1040
3.0
1002
}
1001
ACAD_DSTYLE_DIM_LINETYPE
1070
   380
1005
16
1001
ACAD_DSTYLE_DIM_EXT1_LINETYPE
1070
   381
1005
16
1001
ACAD_DSTYLE_DIM_EXT2_LINETYPE
1070
   382
1005
16
0
ENDSEC
0
SECTION
2
OBJECTS
0
DICTIONARY
5
2f3
330
0
100
AcDbDictionary
280
0
281
1
3
ACAD_GROUP
350
2f4
3
ACAD_MLINESTYLE
350
2f5
0
DICTIONARY
5
2f4
330
0
100
AcDbDictionary
280
0
281
1
0
DICTIONARY
5
2f5
330
0
100
AcDbDictionary
280
0
281
1
3
Standard
350
18
0
MLINESTYLE
5
18
330
2f5
100
AcDbMlineStyle
2
Standard
70
0
3

62
256
51
90
52
90
71
2
49
-0.5
62
256
6
ByLayer
49
0.5
62
256
6
ByLayer
0
RASTERVARIABLES
5
2e1
330

100
AcDbRasterVariables
90
0
70
1
71
1
72
1
0
ENDSEC
0
EOF
