0
SECTION
2
HEADER
9
$ACADVER
1
AC1015
9
$DWGCODEPAGE
3
ANSI_1252
9
$HANDSEED
5
21d
9
$ANGBASE
50
0
9
$ANGDIR
70
0
9
$ATTMODE
70
1
9
$AUNITS
70
0
9
$AUPREC
70
0
9
$CECOLOR
62
256
9
$CELTSCALE
40
1
9
$CELTYPE
6
ByLayer
9
$CELWEIGHT
370
18
9
$CLAYER
8
0
9
$CMLJUST
70
0
9
$CMLSCALE
40
1
9
$CMLSTYLE
2
Standard
9
$DIMSTYLE
2
Standard
9
$TEXTSIZE
40
0.2
9
$TEXTSTYLE
7
Standard
9
$LUNITS
70
2
9
$LUPREC
70
4
9
$EXTNAMES
290
1
9
$INSUNITS
70
4
9
$LTSCALE
40
1
9
$LWDISPLAY
290
1
9
$PDMODE
70
0
9
$PDSIZE
40
0
9
$PLINEGEN
70
0
0
ENDSEC
0
SECTION
2
CLASSES
0
CLASS
1
RASTERVARIABLES
2
AcDbRasterVariables
3
ISM
90
0
280
0
281
0
0
ENDSEC
0
SECTION
2
TABLES
0
TABLE
2
VPORT
5
213
100
AcDbSymbolTable
0
VPORT
5
1
100
AcDbSymbolTableRecord
100
AcDbViewportTableRecord
2
*Active
70
0
10
0
20
0
11
1
21
1
12
-1
22
1
13
0
23
0
14
0.5
24
0.5
15
10
25
10
16
0
26
0
36
1
17
0
27
0
37
0
0
ENDTAB
0
TABLE
2
LTYPE
5
214
100
AcDbSymbolTable
0
LTYPE
5
14
100
AcDbSymbolTableRecord
100
AcDbLinetypeTableRecord
70
0
2
ByBlock
3

72
65
73
0
40
0
0
LTYPE
5
15
100
AcDbSymbolTableRecord
100
AcDbLinetypeTableRecord
70
0
2
ByLayer
3

72
65
73
0
40
0
0
LTYPE
5
16
100
AcDbSymbolTableRecord
100
AcDbLinetypeTableRecord
70
0
2
Continuous
3
Solid line
72
65
73
0
40
0
0
LTYPE
5
6E
100
AcDbSymbolTableRecord
100
AcDbLinetypeTableRecord
70
0
2
CENTER
3
____ _ ____ _ ____ _ ____
72
65
73
4
40
47.5
49
22
74
0
49
-8.5
74
0
49
8.5
74
0
49
-8.5
74
0
0
LTYPE
5
6F
100
AcDbSymbolTableRecord
100
AcDbLinetypeTableRecord
70
0
2
DASHED
3
__ __ __ __ __ __ __ __ __
72
65
73
2
40
25.72
49
12.86
74
0
49
-12.86
74
0
0
ENDTAB
0
TABLE
2
LAYER
5
215
100
AcDbSymbolTable
0
LAYER
5
10
100
AcDbSymbolTableRecord
100
AcDbLayerTableRecord
2
0
70
0
62
7
6
Continuous
290
1
370
-3
390
0
0
LAYER
5
71
100
AcDbSymbolTableRecord
100
AcDbLayerTableRecord
2
80
70
0
62
-6
6
Continuous
290
1
370
-3
390
0
0
LAYER
5
73
100
AcDbSymbolTableRecord
100
AcDbLayerTableRecord
2
81
70
0
62
-3
6
Continuous
290
1
370
-3
390
0
0
LAYER
5
75
100
AcDbSymbolTableRecord
100
AcDbLayerTableRecord
2
1
70
0
62
4
6
Continuous
290
1
370
-3
390
0
0
LAYER
5
81
100
AcDbSymbolTableRecord
100
AcDbLayerTableRecord
2
4
70
0
62
-2
6
CENTER
290
1
370
-3
390
0
0
LAYER
5
B5
100
AcDbSymbolTableRecord
100
AcDbLayerTableRecord
2
2
70
0
62
7
6
Continuous
290
1
370
-3
390
0
0
LAYER
5
158
100
AcDbSymbolTableRecord
100
AcDbLayerTableRecord
2
Defpoints
70
0
62
7
6
Continuous
290
0
370
-3
390
0
0
LAYER
5
1ff
100
AcDbSymbolTableRecord
100
AcDbLayerTableRecord
2
SK4
70
0
62
2
6
CENTER
290
1
370
-3
390
0
0
LAYER
5
200
100
AcDbSymbolTableRecord
100
AcDbLayerTableRecord
2
SK1
70
0
62
4
6
Continuous
290
1
370
-3
390
0
0
LAYER
5
201
100
AcDbSymbolTableRecord
100
AcDbLayerTableRecord
2
SK2
70
0
62
7
6
Continuous
290
1
370
-3
390
0
0
LAYER
5
202
100
AcDbSymbolTableRecord
100
AcDbLayerTableRecord
2
SK6
70
0
62
5
6
Continuous
290
1
370
-3
390
0
0
ENDTAB
0
TABLE
2
STYLE
5
216
100
AcDbSymbolTable
0
STYLE
5
11
100
AcDbSymbolTableRecord
100
AcDbTextStyleTableRecord
2
Standard
3
txt
70
0
71
0
40
0
41
1
42
0
50
0
0
STYLE
5
122
100
AcDbSymbolTableRecord
100
AcDbTextStyleTableRecord
2
iso_b_vert
3
simplex.shx
70
0
71
0
40
0
41
1
42
0
50
0
0
STYLE
5
123
100
AcDbSymbolTableRecord
100
AcDbTextStyleTableRecord
2
DWGDirectTextStyle
3
simplex
70
0
71
0
40
0
41
1
42
0
50
0
0
ENDTAB
0
TABLE
2
DIMSTYLE
5
217
100
AcDbSymbolTable
100
AcDbDimStyleTable
0
DIMSTYLE
105
27
100
AcDbSymbolTableRecord
100
AcDbDimStyleTableRecord
2
Standard
70
0
3
<>
41
0.18
42
0.0625
44
0.18
140
0.18
147
0.09
73
0
74
0
77
1
271
2
275
0
278
52
280
0
340
11
0
ENDTAB
0
TABLE
2
VIEW
5
218
100
AcDbSymbolTable
0
ENDTAB
0
TABLE
2
UCS
5
219
100
AcDbSymbolTable
0
ENDTAB
0
TABLE
2
APPID
5
21a
100
AcDbSymbolTable
0
APPID
5
12
100
AcDbSymbolTableRecord
100
AcDbRegAppTableRecord
2
ACAD
70
0
0
APPID
5
154
100
AcDbSymbolTableRecord
100
AcDbRegAppTableRecord
2
ACAD_DSTYLE_DIMBREAK
70
0
0
APPID
5
1BE
100
AcDbSymbolTableRecord
100
AcDbRegAppTableRecord
2
ACAD_DSTYLE_DIM_LINETYPE
70
0
0
APPID
5
1BF
100
AcDbSymbolTableRecord
100
AcDbRegAppTableRecord
2
ACAD_DSTYLE_DIM_EXT1_LINETYPE
70
0
0
APPID
5
1C0
100
AcDbSymbolTableRecord
100
AcDbRegAppTableRecord
2
ACAD_DSTYLE_DIM_EXT2_LINETYPE
70
0
0
APPID
5
1FB
100
AcDbSymbolTableRecord
100
AcDbRegAppTableRecord
2
ACAD_MLEADERVER
70
0
0
ENDTAB
0
TABLE
2
BLOCK_RECORD
5
21b
100
AcDbSymbolTable
0
BLOCK_RECORD
5
1F
100
AcDbSymbolTableRecord
100
AcDbBlockTableRecord
2
*Model_Space
340
0
70
0
0
BLOCK_RECORD
5
1B
100
AcDbSymbolTableRecord
100
AcDbBlockTableRecord
2
*Paper_Space
340
0
70
0
0
BLOCK_RECORD
5
23
100
AcDbSymbolTableRecord
100
AcDbBlockTableRecord
2
*Paper_Space0
340
0
70
0
0
BLOCK_RECORD
5
159
100
AcDbSymbolTableRecord
100
AcDbBlockTableRecord
2
*D1
340
0
70
0
0
BLOCK_RECORD
5
165
100
AcDbSymbolTableRecord
100
AcDbBlockTableRecord
2
_U0
340
0
70
0
0
BLOCK_RECORD
5
171
100
AcDbSymbolTableRecord
100
AcDbBlockTableRecord
2
*D3
340
0
70
0
0
BLOCK_RECORD
5
17D
100
AcDbSymbolTableRecord
100
AcDbBlockTableRecord
2
_U1
340
0
70
0
0
BLOCK_RECORD
5
189
100
AcDbSymbolTableRecord
100
AcDbBlockTableRecord
2
*D5
340
0
70
0
0
BLOCK_RECORD
5
195
100
AcDbSymbolTableRecord
100
AcDbBlockTableRecord
2
_U2
340
0
70
0
0
ENDTAB
0
ENDSEC
0
SECTION
2
BLOCKS
0
BLOCK
5
20
100
AcDbEntity
8
0
100
AcDbBlockBegin
2
*Model_Space
70
0
10
0
20
0
30
0
3
*Model_Space
0
ENDBLK
5
21
100
AcDbEntity
8
0
100
AcDbBlockEnd
0
BLOCK
5
1C
100
AcDbEntity
8
0
100
AcDbBlockBegin
2
*Paper_Space
70
0
10
0
20
0
30
0
3
*Paper_Space
0
ENDBLK
5
1D
100
AcDbEntity
8
0
100
AcDbBlockEnd
0
BLOCK
5
24
100
AcDbEntity
8
0
100
AcDbBlockBegin
2
*Paper_Space0
70
0
10
0
20
0
30
0
3
*Paper_Space0
0
ENDBLK
5
25
100
AcDbEntity
8
0
100
AcDbBlockEnd
0
BLOCK
5
15A
100
AcDbEntity
8
0
100
AcDbBlockBegin
2
*D1
70
1
10
0
20
0
30
0
3
*D1
0
LINE
5
15C
100
AcDbEntity
8
0
62
256
6
ByLayer
370
-2
48
1
60
0
100
AcDbLine
10
63
20
-1.5875
30
0
11
63
21
-52.75
31
0
39
0
210
0
220
0
230
1
0
LINE
5
15D
100
AcDbEntity
8
0
62
256
6
ByLayer
370
-2
48
1
60
0
100
AcDbLine
10
0
20
-6.5875
30
0
11
0
21
-52.75
31
0
39
0
210
0
220
0
230
1
0
LINE
5
15E
100
AcDbEntity
8
0
62
256
6
ByLayer
370
-2
48
1
60
0
100
AcDbLine
10
59.5
20
-50.75
30
0
11
3.5
21
-50.75
31
0
39
0
210
0
220
0
230
1
0
SOLID
5
15F
100
AcDbEntity
8
0
62
256
6
ByLayer
370
-1
48
1
60
0
100
AcDbTrace
10
59.5
20
-51.333333
30
0
11
59.5
21
-50.166667
31
0
12
63
22
-50.75
32
0
13
63
23
-50.75
33
0
39
0
210
0
220
0
230
1
0
SOLID
5
160
100
AcDbEntity
8
0
62
256
6
ByLayer
370
-1
48
1
60
0
100
AcDbTrace
10
3.5
20
-50.166667
30
0
11
3.5
21
-51.333333
31
0
12
0
22
-50.75
32
0
13
0
23
-50.75
33
0
39
0
210
0
220
0
230
1
0
MTEXT
5
161
100
AcDbEntity
8
0
62
256
6
ByLayer
370
18
48
1
60
0
100
AcDbMText
10
31.5
20
-43.75
30
0
210
0
220
0
230
1
1
\A1;63
40
3.5
41
0
44
1
50
0
71
5
72
5
7
iso_b_vert
0
POINT
5
162
100
AcDbEntity
8
Defpoints
62
0
6
ByLayer
370
-1
48
1
60
0
100
AcDbPoint
10
63
20
0
30
0
39
0
210
0
220
0
230
1
50
360
0
POINT
5
163
100
AcDbEntity
8
Defpoints
62
0
6
ByLayer
370
-1
48
1
60
0
100
AcDbPoint
10
0
20
-5
30
0
39
0
210
0
220
0
230
1
50
360
0
POINT
5
164
100
AcDbEntity
8
Defpoints
62
0
6
ByLayer
370
-1
48
1
60
0
100
AcDbPoint
10
0
20
-50.75
30
0
39
0
210
0
220
0
230
1
50
360
0
ENDBLK
5
15B
100
AcDbEntity
8
0
100
AcDbBlockEnd
0
BLOCK
5
16C
100
AcDbEntity
8
0
100
AcDbBlockBegin
2
_U0
70
0
10
0
20
0
30
0
3
_U0
0
MTEXT
5
166
100
AcDbEntity
8
2
62
256
6
ByLayer
370
18
48
1
60
0
100
AcDbMText
10
29.595034
20
-49.717366
30
0
210
0
220
0
230
1
1
\W0.6740;63
40
3.5
41
0
44
1.084337
50
0
71
7
72
5
7
iso_b_vert
0
LINE
5
167
100
AcDbEntity
8
2
62
256
6
ByLayer
370
13
48
1
60
0
100
AcDbLine
10
63
20
-1.5875
30
0
11
63
21
-52.75
31
0
39
0
210
0
220
0
230
1
0
LINE
5
168
100
AcDbEntity
8
2
62
256
6
ByLayer
370
13
48
1
60
0
100
AcDbLine
10
0
20
-6.5875
30
0
11
0
21
-52.75
31
0
39
0
210
0
220
0
230
1
0
LINE
5
169
100
AcDbEntity
8
2
62
256
6
ByLayer
370
13
48
1
60
0
100
AcDbLine
10
63
20
-50.75
30
0
11
0
21
-50.75
31
0
39
0
210
0
220
0
230
1
0
SOLID
5
16A
100
AcDbEntity
8
2
62
256
6
ByLayer
370
18
48
1
60
0
100
AcDbTrace
10
63
20
-50.75
30
0
11
59.500002
21
-51.210784
31
0
12
59.499998
22
-50.289216
32
0
13
59.499998
23
-50.289216
33
0
39
0
210
0
220
0
230
1
0
SOLID
5
16B
100
AcDbEntity
8
2
62
256
6
ByLayer
370
18
48
1
60
0
100
AcDbTrace
10
0
20
-50.75
30
0
11
3.499998
21
-50.289216
31
0
12
3.500002
22
-51.210784
32
0
13
3.500002
23
-51.210784
33
0
39
0
210
0
220
0
230
1
0
ENDBLK
5
16D
100
AcDbEntity
8
0
100
AcDbBlockEnd
0
BLOCK
5
172
100
AcDbEntity
8
0
100
AcDbBlockBegin
2
*D3
70
1
10
0
20
0
30
0
3
*D3
0
LINE
5
174
100
AcDbEntity
8
0
62
256
6
ByLayer
370
-2
48
1
60
0
100
AcDbLine
10
63
20
-1.5875
30
0
11
63
21
-44.75
31
0
39
0
210
0
220
0
230
1
0
LINE
5
175
100
AcDbEntity
8
0
62
256
6
ByLayer
370
-2
48
1
60
0
100
AcDbLine
10
2
20
-1.5875
30
0
11
2
21
-44.75
31
0
39
0
210
0
220
0
230
1
0
LINE
5
176
100
AcDbEntity
8
0
62
256
6
ByLayer
370
-2
48
1
60
0
100
AcDbLine
10
59.5
20
-42.75
30
0
11
5.5
21
-42.75
31
0
39
0
210
0
220
0
230
1
0
SOLID
5
177
100
AcDbEntity
8
0
62
256
6
ByLayer
370
-1
48
1
60
0
100
AcDbTrace
10
59.5
20
-43.333333
30
0
11
59.5
21
-42.166667
31
0
12
63
22
-42.75
32
0
13
63
23
-42.75
33
0
39
0
210
0
220
0
230
1
0
SOLID
5
178
100
AcDbEntity
8
0
62
256
6
ByLayer
370
-1
48
1
60
0
100
AcDbTrace
10
5.5
20
-42.166667
30
0
11
5.5
21
-43.333333
31
0
12
2
22
-42.75
32
0
13
2
23
-42.75
33
0
39
0
210
0
220
0
230
1
0
MTEXT
5
179
100
AcDbEntity
8
0
62
256
6
ByLayer
370
18
48
1
60
0
100
AcDbMText
10
32.5
20
-35.75
30
0
210
0
220
0
230
1
1
\A1;61
40
3.5
41
0
44
1
50
0
71
5
72
5
7
iso_b_vert
0
POINT
5
17A
100
AcDbEntity
8
Defpoints
62
0
6
ByLayer
370
-1
48
1
60
0
100
AcDbPoint
10
63
20
0
30
0
39
0
210
0
220
0
230
1
50
360
0
POINT
5
17B
100
AcDbEntity
8
Defpoints
62
0
6
ByLayer
370
-1
48
1
60
0
100
AcDbPoint
10
2
20
0
30
0
39
0
210
0
220
0
230
1
50
360
0
POINT
5
17C
100
AcDbEntity
8
Defpoints
62
0
6
ByLayer
370
-1
48
1
60
0
100
AcDbPoint
10
2
20
-42.75
30
0
39
0
210
0
220
0
230
1
50
360
0
ENDBLK
5
173
100
AcDbEntity
8
0
100
AcDbBlockEnd
0
BLOCK
5
184
100
AcDbEntity
8
0
100
AcDbBlockBegin
2
_U1
70
0
10
0
20
0
30
0
3
_U1
0
MTEXT
5
17E
100
AcDbEntity
8
SK2
62
256
6
ByLayer
370
18
48
1
60
0
100
AcDbMText
10
31.032467
20
-41.717366
30
0
210
0
220
0
230
1
1
\W0.6351;61
40
3.5
41
0
44
1.084337
50
0
71
7
72
5
7
iso_b_vert
0
LINE
5
17F
100
AcDbEntity
8
SK2
62
256
6
ByLayer
370
13
48
1
60
0
100
AcDbLine
10
63
20
-1.5875
30
0
11
63
21
-44.75
31
0
39
0
210
0
220
0
230
1
0
LINE
5
180
100
AcDbEntity
8
SK2
62
256
6
ByLayer
370
13
48
1
60
0
100
AcDbLine
10
2
20
-1.5875
30
0
11
2
21
-44.75
31
0
39
0
210
0
220
0
230
1
0
LINE
5
181
100
AcDbEntity
8
SK2
62
256
6
ByLayer
370
13
48
1
60
0
100
AcDbLine
10
63
20
-42.75
30
0
11
2
21
-42.75
31
0
39
0
210
0
220
0
230
1
0
SOLID
5
182
100
AcDbEntity
8
SK2
62
256
6
ByLayer
370
18
48
1
60
0
100
AcDbTrace
10
63
20
-42.75
30
0
11
59.500002
21
-43.210784
31
0
12
59.499998
22
-42.289216
32
0
13
59.499998
23
-42.289216
33
0
39
0
210
0
220
0
230
1
0
SOLID
5
183
100
AcDbEntity
8
SK2
62
256
6
ByLayer
370
18
48
1
60
0
100
AcDbTrace
10
2
20
-42.75
30
0
11
5.499998
21
-42.289216
31
0
12
5.500002
22
-43.210784
32
0
13
5.500002
23
-43.210784
33
0
39
0
210
0
220
0
230
1
0
ENDBLK
5
185
100
AcDbEntity
8
0
100
AcDbBlockEnd
0
BLOCK
5
18A
100
AcDbEntity
8
0
100
AcDbBlockBegin
2
*D5
70
1
10
0
20
0
30
0
3
*D5
0
LINE
5
18C
100
AcDbEntity
8
0
62
256
6
ByLayer
370
-2
48
1
60
0
100
AcDbLine
10
63
20
-1.5875
30
0
11
63
21
-36.25
31
0
39
0
210
0
220
0
230
1
0
LINE
5
18D
100
AcDbEntity
8
0
62
256
6
ByLayer
370
-2
48
1
60
0
100
AcDbLine
10
16
20
-6.4625
30
0
11
16
21
-36.25
31
0
39
0
210
0
220
0
230
1
0
LINE
5
18E
100
AcDbEntity
8
0
62
256
6
ByLayer
370
-2
48
1
60
0
100
AcDbLine
10
59.5
20
-34.25
30
0
11
19.5
21
-34.25
31
0
39
0
210
0
220
0
230
1
0
SOLID
5
18F
100
AcDbEntity
8
0
62
256
6
ByLayer
370
-1
48
1
60
0
100
AcDbTrace
10
59.5
20
-34.833333
30
0
11
59.5
21
-33.666667
31
0
12
63
22
-34.25
32
0
13
63
23
-34.25
33
0
39
0
210
0
220
0
230
1
0
SOLID
5
190
100
AcDbEntity
8
0
62
256
6
ByLayer
370
-1
48
1
60
0
100
AcDbTrace
10
19.5
20
-33.666667
30
0
11
19.5
21
-34.833333
31
0
12
16
22
-34.25
32
0
13
16
23
-34.25
33
0
39
0
210
0
220
0
230
1
0
MTEXT
5
191
100
AcDbEntity
8
0
62
256
6
ByLayer
370
18
48
1
60
0
100
AcDbMText
10
39.5
20
-27.25
30
0
210
0
220
0
230
1
1
\A1;47
40
3.5
41
0
44
1
50
0
71
5
72
5
7
iso_b_vert
0
POINT
5
192
100
AcDbEntity
8
Defpoints
62
0
6
ByLayer
370
-1
48
1
60
0
100
AcDbPoint
10
63
20
0
30
0
39
0
210
0
220
0
230
1
50
360
0
POINT
5
193
100
AcDbEntity
8
Defpoints
62
0
6
ByLayer
370
-1
48
1
60
0
100
AcDbPoint
10
16
20
-4.875
30
0
39
0
210
0
220
0
230
1
50
360
0
POINT
5
194
100
AcDbEntity
8
Defpoints
62
0
6
ByLayer
370
-1
48
1
60
0
100
AcDbPoint
10
16
20
-34.25
30
0
39
0
210
0
220
0
230
1
50
360
0
ENDBLK
5
18B
100
AcDbEntity
8
0
100
AcDbBlockEnd
0
BLOCK
5
19E
100
AcDbEntity
8
0
100
AcDbBlockBegin
2
_U2
70
0
10
0
20
0
30
0
3
_U2
0
MTEXT
5
196
100
AcDbEntity
8
SK2
62
256
6
ByLayer
370
18
48
1
60
0
100
AcDbMText
10
33.542768
20
-33.217366
30
0
210
0
220
0
230
1
1
\W0.1790;(
40
3.5
41
0
44
1.084337
50
0
71
7
72
5
7
iso_b_vert
0
MTEXT
5
197
100
AcDbEntity
8
SK2
62
256
6
ByLayer
370
18
48
1
60
0
100
AcDbMText
10
45.460233
20
-33.217366
30
0
210
0
220
0
230
1
1
\W0.1969;)
40
3.5
41
0
44
1.084337
50
0
71
7
72
5
7
iso_b_vert
0
MTEXT
5
198
100
AcDbEntity
8
SK2
62
256
6
ByLayer
370
18
48
1
60
0
100
AcDbMText
10
37.410767
20
-33.217366
30
0
210
0
220
0
230
1
1
\W0.7361;47
40
3.5
41
0
44
1.084337
50
0
71
7
72
5
7
iso_b_vert
0
LINE
5
199
100
AcDbEntity
8
SK2
62
256
6
ByLayer
370
13
48
1
60
0
100
AcDbLine
10
63
20
-1.5875
30
0
11
63
21
-36.25
31
0
39
0
210
0
220
0
230
1
0
LINE
5
19A
100
AcDbEntity
8
SK2
62
256
6
ByLayer
370
13
48
1
60
0
100
AcDbLine
10
16
20
-6.4625
30
0
11
16
21
-36.25
31
0
39
0
210
0
220
0
230
1
0
LINE
5
19B
100
AcDbEntity
8
SK2
62
256
6
ByLayer
370
13
48
1
60
0
100
AcDbLine
10
63
20
-34.25
30
0
11
16
21
-34.25
31
0
39
0
210
0
220
0
230
1
0
SOLID
5
19C
100
AcDbEntity
8
SK2
62
256
6
ByLayer
370
18
48
1
60
0
100
AcDbTrace
10
63
20
-34.25
30
0
11
59.500002
21
-34.710784
31
0
12
59.499998
22
-33.789216
32
0
13
59.499998
23
-33.789216
33
0
39
0
210
0
220
0
230
1
0
SOLID
5
19D
100
AcDbEntity
8
SK2
62
256
6
ByLayer
370
18
48
1
60
0
100
AcDbTrace
10
16
20
-34.25
30
0
11
19.499998
21
-33.789216
31
0
12
19.500002
22
-34.710784
32
0
13
19.500002
23
-34.710784
33
0
39
0
210
0
220
0
230
1
0
ENDBLK
5
19F
100
AcDbEntity
8
0
100
AcDbBlockEnd
0
ENDSEC
0
SECTION
2
ENTITIES
0
ARC
5
CF
100
AcDbEntity
8
1
62
256
6
ByLayer
370
18
48
1
60
0
100
AcDbCircle
39
0
10
0.364182
20
-4.965444
30
0
40
0.199999999999999
210
0
220
0
230
1
100
AcDbArc
50
89.896868
51
155.568144
0
ARC
5
D0
100
AcDbEntity
8
1
62
256
6
ByLayer
370
18
48
1
60
0
100
AcDbCircle
39
0
10
0.364182
20
4.965444
30
0
40
0.199999999999999
210
0
220
0
230
1
100
AcDbArc
50
204.431856
51
270.103132
0
ARC
5
D1
100
AcDbEntity
8
1
62
256
6
ByLayer
370
18
48
1
60
0
100
AcDbCircle
39
0
10
0
20
-4.8
30
0
40
0.199999999999999
210
0
220
0
230
1
100
AcDbArc
50
270
51
335.568144
0
ARC
5
D2
100
AcDbEntity
8
1
62
256
6
ByLayer
370
18
48
1
60
0
100
AcDbCircle
39
0
10
0
20
4.8
30
0
40
0.199999999999999
210
0
220
0
230
1
100
AcDbArc
50
24.431856
51
90
0
ARC
5
D3
100
AcDbEntity
8
SK2
62
256
6
ByLayer
370
13
48
1
60
0
100
AcDbCircle
39
0
10
63
20
0
30
0
40
16.3410831393612
210
0
220
0
230
1
100
AcDbArc
50
11.471778
51
70
0
ARC
5
D4
100
AcDbEntity
8
SK2
62
256
6
ByLayer
370
13
48
1
60
0
100
AcDbCircle
39
0
10
63
20
0
30
0
40
16.3410831393612
210
0
220
0
230
1
100
AcDbArc
50
290
51
348.528222
0
ELLIPSE
5
D5
100
AcDbEntity
8
1
62
256
6
ByLayer
370
18
48
1
60
0
100
AcDbEllipse
10
16.1
20
-4.708852
30
0
11
-0.1
21
3.67517431418274E-16
31
0
210
0
220
0
230
1
40
1
41
-1.56589539420681
42
-0.00223171544352375
0
ELLIPSE
5
D6
100
AcDbEntity
8
1
62
256
6
ByLayer
370
18
48
1
60
0
100
AcDbEllipse
10
16.1
20
4.708852
30
0
11
-0.1
21
3.67517431418274E-16
31
0
210
0
220
0
230
1
40
1
41
0.00223171544352375
42
1.58548448179878
0
POINT
5
70
100
AcDbEntity
8
80
62
256
6
ByLayer
370
18
48
1
60
0
100
AcDbPoint
10
0
20
0
30
0
39
0
210
0
220
0
230
1
50
360
0
POINT
5
72
100
AcDbEntity
8
81
62
256
6
ByLayer
370
18
48
1
60
0
100
AcDbPoint
10
63
20
0
30
0
39
0
210
0
220
0
230
1
50
360
0
POINT
5
74
100
AcDbEntity
8
1
62
256
6
ByLayer
370
18
48
1
60
0
100
AcDbPoint
10
-144.504458
20
-200
30
0
39
0
210
0
220
0
230
1
50
360
0
POINT
5
76
100
AcDbEntity
8
1
62
256
6
ByLayer
370
13
48
1
60
1
100
AcDbPoint
10
-41.5
20
0
30
0
39
0
210
0
220
0
230
1
50
360
0
POINT
5
77
100
AcDbEntity
8
1
62
256
6
ByLayer
370
13
48
1
60
1
100
AcDbPoint
10
62.756476
20
0
30
0
39
0
210
0
220
0
230
1
50
360
0
POINT
5
78
100
AcDbEntity
8
1
62
256
6
ByLayer
370
18
48
1
60
1
100
AcDbPoint
10
63
20
0
30
0
39
0
210
0
220
0
230
1
50
360
0
POINT
5
79
100
AcDbEntity
8
1
62
256
6
ByLayer
370
18
48
1
60
1
100
AcDbPoint
10
0
20
-5
30
0
39
0
210
0
220
0
230
1
50
360
0
POINT
5
7A
100
AcDbEntity
8
1
62
256
6
ByLayer
370
18
48
1
60
1
100
AcDbPoint
10
63
20
0
30
0
39
0
210
0
220
0
230
1
50
360
0
POINT
5
7B
100
AcDbEntity
8
1
62
256
6
ByLayer
370
18
48
1
60
1
100
AcDbPoint
10
2
20
0
30
0
39
0
210
0
220
0
230
1
50
360
0
POINT
5
7C
100
AcDbEntity
8
1
62
256
6
ByLayer
370
18
48
1
60
1
100
AcDbPoint
10
63
20
0
30
0
39
0
210
0
220
0
230
1
50
360
0
POINT
5
7D
100
AcDbEntity
8
1
62
256
6
ByLayer
370
18
48
1
60
1
100
AcDbPoint
10
16
20
-4.875
30
0
39
0
210
0
220
0
230
1
50
360
0
SPLINE
5
D7
100
AcDbEntity
8
1
62
256
6
ByLayer
370
18
48
1
60
0
100
AcDbSpline
70
4
71
3
72
20
73
16
40
0
40
0
40
0
40
0
40
0.49999999999998
40
0.75
40
0.875000000000044
40
0.937500000000032
40
0.968750000000026
40
0.968750000000026
40
0.98437500000002
40
0.98437500000002
40
0.992187499999979
40
0.992187499999979
40
0.996093749999989
40
0.996093749999989
40
1
40
1
40
1
40
1
41
1
10
61.146810126326
20
-4.87478558678714
30
0
41
1
10
61.1679583166058
20
-4.84060039724679
30
0
41
1
10
61.1996935496851
20
-4.78908708551401
30
0
41
1
10
61.2367379306318
20
-4.72858376720015
30
0
41
1
10
61.2552644748643
20
-4.69823235849123
30
0
41
1
10
61.2645288188566
20
-4.68303178119308
30
0
41
1
10
61.2684994867639
20
-4.67651190641522
30
0
41
1
10
61.270484859732
20
-4.67325107934431
30
0
41
1
10
61.2711444793395
20
-4.67216849316091
30
0
41
1
10
61.2721416547239
20
-4.67052839011453
30
0
41
1
10
61.2724787144989
20
-4.6699718905426
30
0
41
1
10
61.2729864401995
20
-4.66913259810855
30
0
41
1
10
61.2731552600287
20
-4.66885372767808
30
0
41
1
10
61.2734816668554
20
-4.66831947388349
30
0
41
1
10
61.2736446873026
20
-4.66805405947957
30
0
41
1
10
61.2737598877664
20
-4.66787896957919
30
0
0
SPLINE
5
D8
100
AcDbEntity
8
1
62
256
6
ByLayer
370
18
48
1
60
0
100
AcDbSpline
70
4
71
3
72
8
73
4
40
0
40
0
40
0
40
0
40
1
40
1
40
1
40
1
41
1
10
16
20
2.23001155133966
30
0
41
1
10
16
20
2.22354253926525
30
0
41
1
10
16.0000000000001
20
2.2165238392526
30
0
41
1
10
16.0000000000001
20
2.208963048534
30
0
0
SPLINE
5
D9
100
AcDbEntity
8
1
62
256
6
ByLayer
370
18
48
1
60
0
100
AcDbSpline
70
4
71
3
72
72
73
68
40
0
40
0
40
0
40
0
40
0.0090145921178642
40
0.0090145921178642
40
0.0430050281938967
40
0.0430050281938967
40
0.060000246231913
40
0.060000246231913
40
0.0769954642699294
40
0.0769954642699294
40
0.110985900345962
40
0.110985900345962
40
0.11948350936497
40
0.11948350936497
40
0.120545710492346
40
0.12081126077419
40
0.12081126077419
40
0.120944035915112
40
0.120944035915112
40
0.121076811056034
40
0.121076811056034
40
0.121607911619722
40
0.121607911619722
40
0.123732313874474
40
0.123732313874474
40
0.127981118383978
40
0.127981118383978
40
0.144976336421992
40
0.144976336421992
40
0.178966772498022
40
0.178966772498022
40
0.246947644650081
40
0.246947644650081
40
0.382909388954198
40
0.382909388954198
40
0.450890261106257
40
0.450890261106257
40
0.484880697182286
40
0.484880697182286
40
0.501875915220301
40
0.501875915220301
40
0.510373524239308
40
0.510373524239308
40
0.51249792649406
40
0.51249792649406
40
0.513560127621436
40
0.513560127621436
40
0.514091228185124
40
0.514091228185124
40
0.514356778466968
40
0.514356778466968
40
0.51448955360789
40
0.51448955360789
40
0.514622328748812
40
0.514622328748812
40
0.514755103889734
40
0.514755103889734
40
0.514887879030656
40
0.515153429312501
40
0.515684529876188
40
0.516746731003564
40
0.518871133258315
40
0.654832877562398
40
0.654832877562398
40
0.79079462186648
40
0.79079462186648
40
1
40
1
40
1
40
1
41
1
10
9.07299717399488
20
4.58701088045123
30
0
41
1
10
9.05448188447485
20
4.54600148169277
30
0
41
1
10
9.03561539267565
20
4.50439687683485
30
0
41
1
10
8.94233492779469
20
4.30413042609592
30
0
41
1
10
8.86185359595987
20
4.13865436088591
30
0
41
1
10
8.73491219690484
20
3.87671706019907
30
0
41
1
10
8.69143102545746
20
3.7868509221814
30
0
41
1
10
8.60338955462944
20
3.6038620251866
30
0
41
1
10
8.55738872065018
20
3.51156577347487
30
0
41
1
10
8.41473343645006
20
3.23153939601968
30
0
41
1
10
8.31355655051857
20
3.03999679688292
30
0
41
1
10
8.17928749873113
20
2.79844396945165
30
0
41
1
10
8.15208644538092
20
2.74995793687668
30
0
41
1
10
8.12117842772031
20
2.69525049582015
30
0
41
1
10
8.11688023219602
20
2.68764930316178
30
0
41
1
10
8.11257538825575
20
2.68004436105127
30
0
41
1
10
8.11128353913952
20
2.67776265439954
30
0
41
1
10
8.11078301596257
20
2.6770406824084
30
0
41
1
10
8.11009263102244
20
2.67542301974444
30
0
41
1
10
8.11058045447294
20
2.67448106918101
30
0
41
1
10
8.11328116930014
20
2.67093363985683
30
0
41
1
10
8.11627090663467
20
2.66890919109113
30
0
41
1
10
8.13035513158437
20
2.65830726565699
30
0
41
1
10
8.14223038791457
20
2.65076630864266
30
0
41
1
10
8.17766675879855
20
2.62794735975422
30
0
41
1
10
8.20153454478071
20
2.61317040909884
30
0
41
1
10
8.32098372661528
20
2.53955352057918
30
0
41
1
10
8.41719549544871
20
2.48194677733699
30
0
41
1
10
8.70584813197249
20
2.30950120377975
30
0
41
1
10
8.89864495439994
20
2.19559352373022
30
0
41
1
10
9.47693085925079
20
1.85505860107514
30
0
41
1
10
9.86250619045919
20
1.63006028226141
30
0
41
1
10
11.0186896996326
20
0.959893609856607
30
0
41
1
10
11.7887301552393
20
0.519211463217516
30
0
41
1
10
12.9428460338807
20
-0.129074526782489
30
0
41
1
10
13.3274303387292
20
-0.3431016909812
30
0
41
1
10
13.903780569067
20
-0.661424974045048
30
0
41
1
10
14.0958559509213
20
-0.767042685089336
30
0
41
1
10
14.3835583485248
20
-0.925001243818485
30
0
41
1
10
14.4794053348423
20
-0.977563810895504
30
0
41
1
10
14.6226932414573
20
-1.05657523727785
30
0
41
1
10
14.6704274539702
20
-1.08290709036544
30
0
41
1
10
14.7295901171691
20
-1.11613158054826
30
0
41
1
10
14.7413973810774
20
-1.12279149682999
30
0
41
1
10
14.7589561900758
20
-1.13288101366561
30
0
41
1
10
14.7647871144635
20
-1.13625854031778
30
0
41
1
10
14.773414240494
20
-1.14140460356839
30
0
41
1
10
14.7762737973468
20
-1.14313209503104
30
0
41
1
10
14.7804550263632
20
-1.14577888071895
30
0
41
1
10
14.781835086032
20
-1.1466700320959
30
0
41
1
10
14.7838140136761
20
-1.14804998352054
30
0
41
1
10
14.7844607203298
20
-1.14851569215165
30
0
41
1
10
14.7856382561973
20
-1.1494870593576
30
0
41
1
10
14.7865285250782
20
-1.15022048473074
30
0
41
1
10
14.7853353381186
20
-1.15064385539799
30
0
41
1
10
14.7843229201897
20
-1.15035970552981
30
0
41
1
10
14.7826167098246
20
-1.15009131146513
30
0
41
1
10
14.7800574063858
20
-1.14968866436985
30
0
41
1
10
14.7740857851346
20
-1.14874876277344
30
0
41
1
10
14.7621428893262
20
-1.14686739276547
30
0
41
1
10
14.7382584882201
20
-1.14309838604069
30
0
41
1
10
13.8444015473413
20
-1.00156064709867
30
0
41
1
10
12.9619958253051
20
-0.840941456422286
30
0
41
1
10
11.2342075954977
20
-0.485992353728847
30
0
41
1
10
10.3748124050879
20
-0.289073613479332
30
0
41
1
10
8.20903397393693
20
0.2583528798651
30
0
41
1
10
6.9100904815032
20
0.634648684100426
30
0
41
1
10
5.6233431738178
20
1.05353569557039
30
0
0
SPLINE
5
DA
100
AcDbEntity
8
1
62
256
6
ByLayer
370
18
48
1
60
0
100
AcDbSpline
70
4
71
3
72
16
73
12
40
0
40
0
40
0
40
0
40
0.279622380716828
40
0.279622380716828
40
0.559244761433656
40
0.559244761433656
40
0.838867142150484
40
0.838867142150484
40
0.978678332508897
40
0.978678332508897
40
1
40
1
40
1
40
1
41
1
10
61.9334420441942
20
0.779520646483434
30
0
41
1
10
61.8706949964809
20
0.810105778824152
30
0
41
1
10
61.8080923671556
20
0.839577911705192
30
0
41
1
10
61.6832704042943
20
0.8955682045505
30
0
41
1
10
61.6210620659484
20
0.922001627103953
30
0
41
1
10
61.4970565448866
20
0.971699789877277
30
0
41
1
10
61.4352519579649
20
0.995021592618883
30
0
41
1
10
61.3428460490222
20
1.02768477873289
30
0
41
1
10
61.3122142963043
20
1.03808273021397
30
0
41
1
10
61.2770556932661
20
1.04965067264118
30
0
41
1
10
61.272405290093
20
1.0511758987121
30
0
41
1
10
61.2677569870973
20
1.05269508453418
30
0
0
SPLINE
5
DB
100
AcDbEntity
8
1
62
256
6
ByLayer
370
18
48
1
60
0
100
AcDbSpline
70
4
71
3
72
8
73
4
40
0
40
0
40
0
40
0
40
1
40
1
40
1
40
1
41
1
10
61.2241990134943
20
-4.66845043159702
30
0
41
1
10
61.1869095294677
20
-4.66882217899965
30
0
41
1
10
61.1496175643983
20
-4.66906259102322
30
0
41
1
10
61.1123225709687
20
-4.6691719619001
30
0
0
SPLINE
5
DC
100
AcDbEntity
8
1
62
256
6
ByLayer
370
18
48
1
60
0
100
AcDbSpline
70
4
71
3
72
80
73
76
40
0
40
0
40
0
40
0
40
0.0065410693162525
40
0.0065410693162525
40
0.0379885996352824
40
0.0379885996352824
40
0.0694361299543124
40
0.0694361299543124
40
0.100883660273342
40
0.100883660273342
40
0.116607425432857
40
0.116607425432857
40
0.132331190592372
40
0.132331190592372
40
0.195226251230435
40
0.195226251230435
40
0.226673781549466
40
0.226673781549466
40
0.258121311868497
40
0.258121311868497
40
0.273845077028013
40
0.273845077028013
40
0.289568842187529
40
0.289568842187529
40
0.32101637250656
40
0.32101637250656
40
0.352463902825591
40
0.352463902825591
40
0.383911433144622
40
0.383911433144622
40
0.39177331572438
40
0.39177331572438
40
0.399635198304138
40
0.415358963463655
40
0.415358963463655
40
0.446806493782688
40
0.446806493782688
40
0.509701554420755
40
0.509701554420755
40
0.541149084739788
40
0.541149084739788
40
0.572596615058822
40
0.572596615058822
40
0.635491675696887
40
0.635491675696887
40
0.651215440856404
40
0.651215440856404
40
0.666939206015921
40
0.666939206015921
40
0.698386736334956
40
0.698386736334956
40
0.72983426665399
40
0.72983426665399
40
0.761281796973024
40
0.761281796973024
40
0.792729327292058
40
0.792729327292058
40
0.824176857611092
40
0.824176857611092
40
0.839900622770609
40
0.839900622770609
40
0.855624387930126
40
0.855624387930126
40
0.887071918249159
40
0.887071918249159
40
0.918519448568192
40
0.918519448568192
40
0.949966978887225
40
0.949966978887225
40
0.957828861466984
40
0.957828861466984
40
0.965690744046742
40
0.981414509206259
40
0.981414509206259
40
1
40
1
40
1
40
1
41
1
10
50.1224409083927
20
-1.41001293273385
30
0
41
1
10
50.0732880493239
20
-1.38474494920788
30
0
41
1
10
50.0241449919347
20
-1.35941411398559
30
0
41
1
10
49.738784829817
20
-1.21195133579451
30
0
41
1
10
49.5027879088355
20
-1.08843625112897
30
0
41
1
10
49.0307792523691
20
-0.839328880341753
30
0
41
1
10
48.7947606216455
20
-0.713742489865922
30
0
41
1
10
48.3224082782046
20
-0.461061122308934
30
0
41
1
10
48.0860647222589
20
-0.333982141321485
30
0
41
1
10
47.731028864679
20
-0.14275223187704
30
0
41
1
10
47.6125625161456
20
-0.0788908387893059
30
0
41
1
10
47.3759272626314
20
0.0487199783705137
30
0
41
1
10
47.2577047394515
20
0.112508098338736
30
0
41
1
10
46.6669102033174
20
0.43106394590734
30
0
41
1
10
46.1951949977064
20
0.684458936473078
30
0
41
1
10
45.486928025015
20
1.05863635024244
30
0
41
1
10
45.2507069968931
20
1.18234493780932
30
0
41
1
10
44.7777493165227
20
1.42728474676537
30
0
41
1
10
44.5408903988976
20
1.54858075519866
30
0
41
1
10
44.1856363776425
20
1.72752385134106
30
0
41
1
10
44.0672302003009
20
1.78669254433512
30
0
41
1
10
43.8304195451262
20
1.90399938653351
30
0
41
1
10
43.7119806921401
20
1.96215032017457
30
0
41
1
10
43.356857067418
20
2.13480553851198
30
0
41
1
10
43.1203741580683
20
2.24749986417743
30
0
41
1
10
42.6475809386987
20
2.46755042547608
30
0
41
1
10
42.4113100994591
20
2.57498540818116
30
0
41
1
10
41.9385647461352
20
2.78390382037131
30
0
41
1
10
41.7020631273996
20
2.88532709840948
30
0
41
1
10
41.4061077061797
20
3.00806288848415
30
0
41
1
10
41.346889771257
20
3.03240991016693
30
0
41
1
10
41.2285894519866
20
3.08061608109534
30
0
41
1
10
41.0512797870807
20
3.15222113653095
30
0
41
1
10
40.8743621255159
20
3.22168841313234
30
0
41
1
10
40.5209752517821
20
3.35771619221279
30
0
41
1
10
40.2859829492311
20
3.44453124768234
30
0
41
1
10
39.5823478201102
20
3.69317849250237
30
0
41
1
10
39.1148732818803
20
3.84273345394541
30
0
41
1
10
38.4141792093657
20
4.04093578754654
30
0
41
1
10
38.1806885607941
20
4.10262810177594
30
0
41
1
10
37.7135847264494
20
4.21709412255936
30
0
41
1
10
37.479998834847
20
4.26990455920443
30
0
41
1
10
36.7783558177164
20
4.41413425288599
30
0
41
1
10
36.3095680494353
20
4.49154264214914
30
0
41
1
10
35.7205986537658
20
4.56305595423689
30
0
41
1
10
35.6026541969749
20
4.5761029506761
30
0
41
1
10
35.3664423835371
20
4.59970234396337
30
0
41
1
10
35.248126962207
20
4.61025910257388
30
0
41
1
10
34.8929145859572
20
4.63805540574401
30
0
41
1
10
34.6560660976387
20
4.65131315268252
30
0
41
1
10
34.1824561629063
20
4.66742500100546
30
0
41
1
10
33.9455342029786
20
4.67027720826874
30
0
41
1
10
33.4723181576885
20
4.66564354316452
30
0
41
1
10
33.2359433978321
20
4.65817131649328
30
0
41
1
10
32.7634378844186
20
4.63294740786407
30
0
41
1
10
32.5272769925233
20
4.6151779243454
30
0
41
1
10
32.0546934998188
20
4.56930850148913
30
0
41
1
10
31.8183069783233
20
4.54123121032947
30
0
41
1
10
31.463319395113
20
4.49138439035667
30
0
41
1
10
31.3448648954163
20
4.47346808474765
30
0
41
1
10
31.108111483149
20
4.43511632968267
30
0
41
1
10
30.9898135038524
20
4.41468522077861
30
0
41
1
10
30.6351011490159
20
4.34971251456199
30
0
41
1
10
30.398893808216
20
4.30151991037545
30
0
41
1
10
29.9264921488402
20
4.19562179684996
30
0
41
1
10
29.6903052513773
20
4.13791255633896
30
0
41
1
10
29.2176541419775
20
4.01340262873771
30
0
41
1
10
28.9811829949805
20
3.94659408291503
30
0
41
1
10
28.6851923472601
20
3.85756119115806
30
0
41
1
10
28.6259636446781
20
3.83947502326433
30
0
41
1
10
28.5076257505335
20
3.80280558785253
30
0
41
1
10
28.3302406678048
20
3.74703903876875
30
0
41
1
10
28.1532130313673
20
3.68900831011527
30
0
41
1
10
27.8959715690232
20
3.60248947917441
30
0
41
1
10
27.7567903737657
20
3.55427751345596
30
0
41
1
10
27.6177460337317
20
3.5047680490396
30
0
0
SPLINE
5
DD
100
AcDbEntity
8
1
62
256
6
ByLayer
370
18
48
1
60
0
100
AcDbSpline
70
2053
71
3
72
115
73
111
40
0
40
0
40
0
40
0
40
0.031249999999994
40
0.031249999999994
40
0.062499999999988
40
0.062499999999988
40
0.093749999999982
40
0.093749999999982
40
0.124999999999976
40
0.124999999999976
40
0.140624999999973
40
0.140624999999973
40
0.15624999999997
40
0.15624999999997
40
0.187499999999966
40
0.187499999999966
40
0.203124999999964
40
0.203124999999964
40
0.218749999999962
40
0.23437499999996
40
0.23437499999996
40
0.242187499999959
40
0.242187499999959
40
0.249999999999958
40
0.249999999999958
40
0.281249999999954
40
0.281249999999954
40
0.296874999999952
40
0.296874999999952
40
0.304687499999951
40
0.304687499999951
40
0.312499999999949
40
0.312499999999949
40
0.343749999999944
40
0.343749999999944
40
0.351562499999943
40
0.351562499999943
40
0.359374999999943
40
0.374999999999942
40
0.374999999999942
40
0.390624999999941
40
0.390624999999941
40
0.406249999999941
40
0.42187499999994
40
0.42187499999994
40
0.437499999999939
40
0.437499999999939
40
0.468749999999937
40
0.468749999999937
40
0.484374999999937
40
0.484374999999937
40
0.499999999999936
40
0.499999999999936
40
0.531249999999934
40
0.531249999999934
40
0.539062499999933
40
0.539062499999933
40
0.546874999999931
40
0.546874999999931
40
0.562499999999929
40
0.562499999999929
40
0.593749999999923
40
0.593749999999923
40
0.601562499999923
40
0.601562499999923
40
0.609374999999923
40
0.609374999999923
40
0.624999999999924
40
0.624999999999924
40
0.656249999999925
40
0.656249999999925
40
0.671874999999927
40
0.671874999999927
40
0.687499999999928
40
0.687499999999928
40
0.718749999999931
40
0.718749999999931
40
0.726562499999932
40
0.726562499999932
40
0.734374999999932
40
0.749999999999933
40
0.765624999999934
40
0.765624999999934
40
0.773437499999934
40
0.773437499999934
40
0.781249999999935
40
0.781249999999935
40
0.812499999999938
40
0.812499999999938
40
0.82031249999994
40
0.82031249999994
40
0.828124999999941
40
0.828124999999941
40
0.843749999999946
40
0.859374999999952
40
0.859374999999952
40
0.874999999999957
40
0.874999999999957
40
0.906249999999968
40
0.906249999999968
40
0.921874999999973
40
0.921874999999973
40
0.937499999999978
40
0.953124999999984
40
0.953124999999984
40
0.968749999999989
40
0.968749999999989
40
0.984374999999995
40
0.984374999999995
40
1
40
1
40
1
40
1
41
1
10
61.8459968834331
20
-1.89824141416662
30
0
41
1
10
61.8298044111799
20
-1.91792333299807
30
0
41
1
10
61.8143156781024
20
-1.93411052333843
30
0
41
1
10
61.784594092093
20
-1.95990681334149
30
0
41
1
10
61.7703620125917
20
-1.96951419163105
30
0
41
1
10
61.7431102573113
20
-1.98186143878866
30
0
41
1
10
61.7304455033942
20
-1.98443200989342
30
0
41
1
10
61.7069701892733
20
-1.98251050191357
30
0
41
1
10
61.6961434673063
20
-1.97802848044708
30
0
41
1
10
61.6812846279742
20
-1.96561307114226
30
0
41
1
10
61.6766167819568
20
-1.96055820254463
30
0
41
1
10
61.6679012814159
20
-1.94870379338423
30
0
41
1
10
61.6638419369347
20
-1.94189471951293
30
0
41
1
10
61.6525496804273
20
-1.91879430349755
30
0
41
1
10
61.6461919773311
20
-1.89985977908876
30
0
41
1
10
61.6385425011987
20
-1.86557704150579
30
0
41
1
10
61.6363426630424
20
-1.85329342093559
30
0
41
1
10
61.6326750557108
20
-1.82723659998356
30
0
41
1
10
61.6297249128764
20
-1.79962544074851
30
0
41
1
10
61.628229633063
20
-1.76885288470223
30
0
41
1
10
61.6276816284328
20
-1.74453001591871
30
0
41
1
10
61.6275947573473
20
-1.73621473631599
30
0
41
1
10
61.627620286821
20
-1.71915351034767
30
0
41
1
10
61.6277337199495
20
-1.71037640270774
30
0
41
1
10
61.6288090493107
20
-1.66587539759749
30
0
41
1
10
61.6312638859595
20
-1.62823360997928
30
0
41
1
10
61.6374399416375
20
-1.56867537738742
30
0
41
1
10
61.6399178054266
20
-1.54830280820371
30
0
41
1
10
61.6443133385854
20
-1.51691978952218
30
0
41
1
10
61.6458908914648
20
-1.5063346164464
30
0
41
1
10
61.6492312290974
20
-1.48519086420995
30
0
41
1
10
61.6509990249345
20
-1.47459541492123
30
0
41
1
10
61.6603251784899
20
-1.42150324642088
30
0
41
1
10
61.669327909099
20
-1.37866536592455
30
0
41
1
10
61.6826636483126
20
-1.32467287208837
30
0
41
1
10
61.685432930353
20
-1.31386768754899
30
0
41
1
10
61.6911088024483
20
-1.29250178828892
30
0
41
1
10
61.6998554532655
20
-1.26071327482589
30
0
41
1
10
61.7092912052844
20
-1.22968591152113
30
0
41
1
10
61.7224869648009
20
-1.18898051483561
30
0
41
1
10
61.729394597536
20
-1.1689536019048
30
0
41
1
10
61.7438345062979
20
-1.12959882647715
30
0
41
1
10
61.75865021518
20
-1.09161681048121
30
0
41
1
10
61.7741921675037
20
-1.05620853170325
30
0
41
1
10
61.7900927869187
20
-1.02204256518806
30
0
41
1
10
61.798239529334
20
-1.00554847289996
30
0
41
1
10
61.8231130198682
20
-0.958124318517037
30
0
41
1
10
61.8399145226358
20
-0.929891125159315
30
0
41
1
10
61.865417809909
20
-0.892095514714242
30
0
41
1
10
61.8739691277055
20
-0.880262433344996
30
0
41
1
10
61.8911679270645
20
-0.858107792429621
30
0
41
1
10
61.8997548847703
20
-0.847868655182708
30
0
41
1
10
61.9252501261857
20
-0.819798667785477
30
0
41
1
10
61.9419908497504
20
-0.804469850403393
30
0
41
1
10
61.9625702585571
20
-0.789343880462212
30
0
41
1
10
61.9666686172923
20
-0.78652214063959
30
0
41
1
10
61.9748288212751
20
-0.781287385476986
30
0
41
1
10
61.9788971894792
20
-0.778871389008884
30
0
41
1
10
61.9909514514783
20
-0.772290744584296
30
0
41
1
10
61.9988117674996
20
-0.768773414712626
30
0
41
1
10
62.0218642861576
20
-0.760746607062742
30
0
41
1
10
62.0365330641304
20
-0.75874075036279
30
0
41
1
10
62.0539176165284
20
-0.760471165121857
30
0
41
1
10
62.0573465549372
20
-0.761030871486298
30
0
41
1
10
62.0641048482443
20
-0.762586195826231
30
0
41
1
10
62.0674416824346
20
-0.763585031867223
30
0
41
1
10
62.0772239798785
20
-0.767223878814065
30
0
41
1
10
62.0834485211657
20
-0.770501126088874
30
0
41
1
10
62.1012192999843
20
-0.782863551681544
30
0
41
1
10
62.1118714289587
20
-0.794454528485005
30
0
41
1
10
62.125865421922
20
-0.817195151673161
30
0
41
1
10
62.1301973925359
20
-0.825673485296363
30
0
41
1
10
62.138133015377
20
-0.844568515896725
30
0
41
1
10
62.1416881895669
20
-0.854879866272455
30
0
41
1
10
62.1510089494071
20
-0.888228930598302
30
0
41
1
10
62.1554798859467
20
-0.9137358203389
30
0
41
1
10
62.1586265949283
20
-0.950171095975463
30
0
41
1
10
62.1591336468726
20
-0.957710078728411
30
0
41
1
10
62.1598849329045
20
-0.973162409874249
30
0
41
1
10
62.1606153281682
20
-0.996830814739639
30
0
41
1
10
62.1598684476057
20
-1.03870684074593
30
0
41
1
10
62.1571556569218
20
-1.07483836045151
30
0
41
1
10
62.1542973665287
20
-1.10297132877756
30
0
41
1
10
62.1532070723998
20
-1.11252172818445
30
0
41
1
10
62.1507429715611
20
-1.13198083308305
30
0
41
1
10
62.1493642507808
20
-1.1419175108812
30
0
41
1
10
62.141851941466
20
-1.19180282216152
30
0
41
1
10
62.1338333974846
20
-1.23280467382227
30
0
41
1
10
62.1214161366819
20
-1.28542713004313
30
0
41
1
10
62.1188118196186
20
-1.29602084270181
30
0
41
1
10
62.1133596808383
20
-1.31734973294425
30
0
41
1
10
62.1105079573847
20
-1.32809621204305
30
0
41
1
10
62.1017090747405
20
-1.36010885748505
30
0
41
1
10
62.0892574802838
20
-1.40247887638552
30
0
41
1
10
62.075469156935
20
-1.44426187886117
30
0
41
1
10
62.0610395358429
20
-1.48576086002231
30
0
41
1
10
62.0534708203827
20
-1.50644576302199
30
0
41
1
10
62.0303466275493
20
-1.56673071470172
30
0
41
1
10
62.014245307301
20
-1.60499658552573
30
0
41
1
10
61.9892122031838
20
-1.65973152074295
30
0
41
1
10
61.9807081442248
20
-1.67754217556117
30
0
41
1
10
61.9637562763049
20
-1.71159581274372
30
0
41
1
10
61.9467760719086
20
-1.74427266937468
30
0
41
1
10
61.9297531183995
20
-1.77432394463528
30
0
41
1
10
61.9127119991194
20
-1.80308490750917
30
0
41
1
10
61.9041525114645
20
-1.8168630973162
30
0
41
1
10
61.8872435959468
20
-1.84277470206709
30
0
41
1
10
61.8788770604221
20
-1.8549417877656
30
0
41
1
10
61.8623121776492
20
-1.87774212822154
30
0
41
1
10
61.8540931195597
20
-1.88840045475089
30
0
41
1
10
61.8459968834331
20
-1.89824141416662
30
0
0
SPLINE
5
DE
100
AcDbEntity
8
1
62
256
6
ByLayer
370
18
48
1
60
0
100
AcDbSpline
70
4
71
3
72
20
73
16
40
0
40
0
40
0
40
0
40
0.499999999999928
40
0.749999999999926
40
0.874999999999959
40
0.937499999999945
40
0.968749999999972
40
0.968749999999972
40
0.984374999999985
40
0.984374999999985
40
0.992187499999954
40
0.992187499999954
40
0.996093749999977
40
0.996093749999977
40
1
40
1
40
1
40
1
41
1
10
61.146810126321
20
4.87478558679476
30
0
41
1
10
61.1679583164297
20
4.84060039753103
30
0
41
1
10
61.1996935492521
20
4.78908708621699
30
0
41
1
10
61.2367379298989
20
4.72858376839812
30
0
41
1
10
61.2552644739813
20
4.69823235993829
30
0
41
1
10
61.2645288178986
20
4.68303178276506
30
0
41
1
10
61.2684994857737
20
4.67651190804088
30
0
41
1
10
61.2704848587258
20
4.67325108099681
30
0
41
1
10
61.2711444783345
20
4.6721684948086
30
0
41
1
10
61.272141653694
20
4.67052839181045
30
0
41
1
10
61.2724787134467
20
4.66997189228439
30
0
41
1
10
61.2729864391528
20
4.6691325998369
30
0
41
1
10
61.2731552589831
20
4.66885372940058
30
0
41
1
10
61.2734816658708
20
4.66831947548303
30
0
41
1
10
61.2736446863443
20
4.66805406102515
30
0
41
1
10
61.2737598870471
20
4.66787897067204
30
0
0
SPLINE
5
DF
100
AcDbEntity
8
1
62
256
6
ByLayer
370
18
48
1
60
0
100
AcDbSpline
70
4
71
3
72
25
73
21
40
0
40
0
40
0
40
0
40
0.109361328522717
40
0.109361328522717
40
0.164041992784074
40
0.191382324914749
40
0.191382324914749
40
0.218722657045425
40
0.218722657045425
40
0.328083985568123
40
0.328083985568123
40
0.43744531409082
40
0.43744531409082
40
0.656167971136215
40
0.656167971136215
40
0.765529299658913
40
0.765529299658913
40
0.87489062818161
40
0.87489062818161
40
1
40
1
40
1
40
1
41
1
10
61.2737598870554
20
4.66787897067601
30
0
41
1
10
61.0377628392685
20
4.67096872292095
30
0
41
1
10
60.8016761193182
20
4.66879222269259
30
0
41
1
10
60.4472033870728
20
4.65773998984818
30
0
41
1
10
60.2698777951128
20
4.65026066147709
30
0
41
1
10
60.092370175149
20
4.63984997647643
30
0
41
1
10
59.9739852362418
20
4.63225663407664
30
0
41
1
10
59.9147665929848
20
4.62813306961894
30
0
41
1
10
59.6190204416845
20
4.60592023486677
30
0
41
1
10
59.3831545507112
20
4.5830120218308
30
0
41
1
10
58.9125986116854
20
4.52726177220893
30
0
41
1
10
58.6778687399372
20
4.49441077166767
30
0
41
1
10
57.9747475562774
20
4.38131316124833
30
0
41
1
10
57.5074741293825
20
4.28663849824747
30
0
41
1
10
56.8068643526814
20
4.11715490133668
30
0
41
1
10
56.5734148390213
20
4.05610447729774
30
0
41
1
10
56.1061708386725
20
3.92519494684834
30
0
41
1
10
55.8723955904116
20
3.85533212984262
30
0
41
1
10
55.3705357872403
20
3.6965049358154
30
0
41
1
10
55.102343537832
20
3.60624363504144
30
0
41
1
10
54.8335091280938
20
3.5106689906448
30
0
0
SPLINE
5
E0
100
AcDbEntity
8
1
62
256
6
ByLayer
370
18
48
1
60
0
100
AcDbSpline
70
4
71
3
72
63
73
59
40
0
40
0
40
0
40
0
40
0.0345372607631275
40
0.0345372607631275
40
0.0564795957457836
40
0.0564795957457836
40
0.0784219307284394
40
0.0784219307284394
40
0.122306600693751
40
0.122306600693751
40
0.166191270659063
40
0.166191270659063
40
0.210075940624375
40
0.210075940624375
40
0.221047108115703
40
0.221047108115703
40
0.232018275607031
40
0.253960610589686
40
0.253960610589686
40
0.297845280555
40
0.297845280555
40
0.341729950520314
40
0.341729950520314
40
0.385614620485627
40
0.385614620485627
40
0.429499290450941
40
0.429499290450941
40
0.473383960416254
40
0.473383960416254
40
0.517268630381568
40
0.517268630381568
40
0.539210965364225
40
0.539210965364225
40
0.561153300346882
40
0.561153300346882
40
0.605037970312196
40
0.605037970312196
40
0.648922640277509
40
0.648922640277509
40
0.670864975260165
40
0.670864975260165
40
0.692807310242821
40
0.692807310242821
40
0.736691980208132
40
0.736691980208132
40
0.780576650173444
40
0.780576650173444
40
0.824461320138756
40
0.824461320138756
40
0.846403655121412
40
0.846403655121412
40
0.868345990104067
40
0.868345990104067
40
0.912230660069378
40
0.912230660069378
40
0.956115330034689
40
0.956115330034689
40
1
40
1
40
1
40
1
41
1
10
32.1399806208207
20
-4.57688792535197
30
0
41
1
10
31.953980781585
20
-4.55711378100654
30
0
41
1
10
31.7678988785161
20
-4.53415298113785
30
0
41
1
10
31.463319394614
20
-4.49138439028323
30
0
41
1
10
31.3448648949209
20
-4.47346808467114
30
0
41
1
10
31.1081114826617
20
-4.43511632960045
30
0
41
1
10
30.989813503369
20
-4.41468522069366
30
0
41
1
10
30.6351011485444
20
-4.34971251446919
30
0
41
1
10
30.3988938077523
20
-4.30151991027793
30
0
41
1
10
29.9264921483917
20
-4.19562179674352
30
0
41
1
10
29.6903052509364
20
-4.1379125562286
30
0
41
1
10
29.2176541415514
20
-4.01340262862018
30
0
41
1
10
28.9811829945617
20
-3.94659408279435
30
0
41
1
10
28.6851923468505
20
-3.85756119103382
30
0
41
1
10
28.6259636442705
20
-3.83947502313944
30
0
41
1
10
28.5076257501301
20
-3.80280558772654
30
0
41
1
10
28.3302406674076
20
-3.74703903864108
30
0
41
1
10
28.1532130309763
20
-3.68900830998621
30
0
41
1
10
27.7995354972611
20
-3.57005483153077
30
0
41
1
10
27.5642307638276
20
-3.4869037655418
30
0
41
1
10
27.0942824868131
20
-3.31335752981315
30
0
41
1
10
26.8596407498931
20
-3.22296343579041
30
0
41
1
10
26.3906901941708
20
-3.03536776341355
30
0
41
1
10
26.1563719485313
20
-2.93816430541412
30
0
41
1
10
25.6877921107824
20
-2.73741253003448
30
0
41
1
10
25.4535212237878
20
-2.63388017133607
30
0
41
1
10
24.9845238407096
20
-2.42116013804849
30
0
41
1
10
24.7498360781009
20
-2.31194753953997
30
0
41
1
10
24.2797427663519
20
-2.08835870903414
30
0
41
1
10
24.0443330241963
20
-1.97398731732628
30
0
41
1
10
23.690427381351
20
-1.79894100063808
30
0
41
1
10
23.5723320428635
20
-1.74000280858959
30
0
41
1
10
23.3358514979734
20
-1.6210055365417
30
0
41
1
10
23.2174115900505
20
-1.5609260086153
30
0
41
1
10
22.8621587578905
20
-1.37949843692229
30
0
41
1
10
22.6252886915011
20
-1.25690829990376
30
0
41
1
10
22.1515682930205
20
-1.00915125187382
30
0
41
1
10
21.9147300755708
20
-0.884008778009104
30
0
41
1
10
21.5594746216113
20
-0.694997077726129
30
0
41
1
10
21.4410411464496
20
-0.631770759211634
30
0
41
1
10
21.2043660252501
20
-0.505068595132286
30
0
41
1
10
21.0860980540257
20
-0.441569037614499
30
0
41
1
10
20.7314197337281
20
-0.250779011682226
30
0
41
1
10
20.4951062802867
20
-0.12324960971273
30
0
41
1
10
20.0223593632757
20
0.131738759096123
30
0
41
1
10
19.7859393653155
20
0.259222384658756
30
0
41
1
10
19.3126606306189
20
0.513525798537898
30
0
41
1
10
19.0757144977
20
0.640361247073059
30
0
41
1
10
18.7204608112397
20
0.829366584353096
30
0
41
1
10
18.6020661112353
20
0.892171027873133
30
0
41
1
10
18.3652807529905
20
1.01723531269346
30
0
41
1
10
18.2468557921262
20
1.07950786394599
30
0
41
1
10
17.8916732159188
20
1.26523485755976
30
0
41
1
10
17.6551454527436
20
1.38761254047779
30
0
41
1
10
17.1822866005687
20
1.62891609745529
30
0
41
1
10
16.9459529317495
20
1.74783416042888
30
0
41
1
10
16.4731476188537
20
1.98155854317508
30
0
41
1
10
16.2367046946631
20
2.0964422026164
30
0
41
1
10
15.9999999999987
20
2.2089630485375
30
0
0
SPLINE
5
E1
100
AcDbEntity
8
1
62
256
6
ByLayer
370
18
48
1
60
0
100
AcDbSpline
70
4
71
3
72
50
73
46
40
0
40
0
40
0
40
0
40
0.0283230833874338
40
0.0283230833874338
40
0.0782756275049604
40
0.0782756275049604
40
0.128228171622487
40
0.128228171622487
40
0.178180715740014
40
0.178180715740014
40
0.278085803975068
40
0.278085803975068
40
0.328038348092596
40
0.328038348092596
40
0.340526484121976
40
0.340526484121976
40
0.353014620151357
40
0.353014620151357
40
0.377990892210116
40
0.377990892210116
40
0.477895980445154
40
0.477895980445154
40
0.527848524562674
40
0.527848524562674
40
0.577801068680195
40
0.577801068680195
40
0.627753612797715
40
0.627753612797715
40
0.677706156915235
40
0.677706156915235
40
0.727658701032755
40
0.727658701032755
40
0.752634973091516
40
0.752634973091516
40
0.777611245150276
40
0.777611245150276
40
0.827563789267799
40
0.827563789267799
40
0.877516333385321
40
0.877516333385321
40
0.927468877502844
40
0.927468877502844
40
0.977421421620367
40
0.977421421620367
40
1
40
1
40
1
40
1
41
1
10
19.2906596784436
20
4.61838191611196
30
0
41
1
10
19.423735908011
20
4.62257997990505
30
0
41
1
10
19.5566988651963
20
4.62510827044795
30
0
41
1
10
19.9239053885308
20
4.62761676069701
30
0
41
1
10
20.1579589173248
20
4.62415528880911
30
0
41
1
10
20.6259012409588
20
4.60701333019574
30
0
41
1
10
20.8597754654788
20
4.59335773082503
30
0
41
1
10
21.3272971668145
20
4.55671007306265
30
0
41
1
10
21.5609685207129
20
4.5336806658423
30
0
41
1
10
22.2631554050494
20
4.4486895804896
30
0
41
1
10
22.7327759984935
20
4.37092059440616
30
0
41
1
10
23.4402869271659
20
4.22572063672908
30
0
41
1
10
23.6766322489708
20
4.17256026990751
30
0
41
1
10
23.9726691725282
20
4.10042355582897
30
0
41
1
10
24.0318871792246
20
4.08571539353605
30
0
41
1
10
24.1501742179509
20
4.05577439537015
30
0
41
1
10
24.2092694336327
20
4.04053522101614
30
0
41
1
10
24.3864302114441
20
3.99399997172023
30
0
41
1
10
24.5043716816599
20
3.96188537976568
30
0
41
1
10
25.0935023059198
20
3.79570768171035
30
0
41
1
10
25.5628913792656
20
3.64497280913815
30
0
41
1
10
26.2649400024115
20
3.39728679050046
30
0
41
1
10
26.4986108251634
20
3.31110587967422
30
0
41
1
10
26.9653644210497
20
3.13187029851008
30
0
41
1
10
27.1984930007634
20
3.03881761328205
30
0
41
1
10
27.6655213543787
20
2.8458797000302
30
0
41
1
10
27.8993737519889
20
2.74601075231897
30
0
41
1
10
28.3676361397993
20
2.5403110332436
30
0
41
1
10
28.6020527419888
20
2.43447107460131
30
0
41
1
10
29.0715132042061
20
2.21729785485107
30
0
41
1
10
29.3065394537116
20
2.10595034493343
30
0
41
1
10
29.6594117314798
20
1.93499670359282
30
0
41
1
10
29.7771210022738
20
1.87736756237334
30
0
41
1
10
30.0130423964264
20
1.76093335952231
30
0
41
1
10
30.1312617065645
20
1.70210980844843
30
0
41
1
10
30.4864148405582
20
1.52406087136586
30
0
41
1
10
30.7224509727596
20
1.40395423631065
30
0
41
1
10
31.1933185173948
20
1.16142415103337
30
0
41
1
10
31.4281610099568
20
1.03902169561948
30
0
41
1
10
31.8971274014199
20
0.792824675574082
30
0
41
1
10
32.1312352151508
20
0.668999596005108
30
0
41
1
10
32.5988076544064
20
0.4201029949879
30
0
41
1
10
32.8322869055453
20
0.295059216683825
30
0
41
1
10
33.1711575661192
20
0.113209723891913
30
0
41
1
10
33.2766213978398
20
0.0565510996756018
30
0
41
1
10
33.3820593933137
20
-0.0001589439775671
30
0
0
SPLINE
5
E2
100
AcDbEntity
8
1
62
256
6
ByLayer
370
18
48
1
60
0
100
AcDbSpline
70
4
71
3
72
8
73
4
40
0
40
0
40
0
40
0
40
1
40
1
40
1
40
1
41
1
10
61.2201209268089
20
4.67478912485657
30
0
41
1
10
61.1842594927049
20
4.6727413425757
30
0
41
1
10
61.1484145847058
20
4.67057326996465
30
0
41
1
10
61.1125856213382
20
4.66828542372264
30
0
0
SPLINE
5
E3
100
AcDbEntity
8
1
62
256
6
ByLayer
370
18
48
1
60
0
100
AcDbSpline
70
4
71
3
72
49
73
45
40
0
40
0
40
0
40
0
40
0.0542612052891398
40
0.0542612052891398
40
0.0796406281322899
40
0.0796406281322899
40
0.10502005097544
40
0.10502005097544
40
0.155778896661741
40
0.155778896661741
40
0.206537742348041
40
0.206537742348041
40
0.257296588034342
40
0.257296588034342
40
0.308055433720643
40
0.308055433720643
40
0.333434856563793
40
0.346124567985367
40
0.346124567985367
40
0.358814279406941
40
0.358814279406941
40
0.384193702250086
40
0.384193702250086
40
0.409573125093232
40
0.409573125093232
40
0.460331970779525
40
0.460331970779525
40
0.561849662152115
40
0.561849662152115
40
0.663367353524704
40
0.663367353524704
40
0.764885044897294
40
0.764885044897294
40
0.79026446774044
40
0.79026446774044
40
0.802954179162013
40
0.802954179162013
40
0.815643890583586
40
0.815643890583586
40
0.866402736269879
40
0.866402736269879
40
0.967920427642463
40
0.967920427642463
40
1
40
1
40
1
40
1
41
1
10
35.1949371793666
20
-4.65034978080234
30
0
41
1
10
34.9438758845109
20
-4.65431327385727
30
0
41
1
10
34.6932831766649
20
-4.65240197763444
30
0
41
1
10
34.3258342001017
20
-4.64093988808108
30
0
41
1
10
34.2087889594108
20
-4.63598985908124
30
0
41
1
10
33.9748055762024
20
-4.62364632112494
30
0
41
1
10
33.857870155653
20
-4.61626401715907
30
0
41
1
10
33.5071182907403
20
-4.59030938300083
30
0
41
1
10
33.2733505248308
20
-4.56789752272439
30
0
41
1
10
32.8056029659445
20
-4.51314007516734
30
0
41
1
10
32.5716241100977
20
-4.48080046625182
30
0
41
1
10
32.1030825181319
20
-4.40625528987584
30
0
41
1
10
31.8685173574148
20
-4.36404187688186
30
0
41
1
10
31.3985257082746
20
-4.26998526894121
30
0
41
1
10
31.1631020807921
20
-4.21814720089375
30
0
41
1
10
30.8090338235001
20
-4.13320717858528
30
0
41
1
10
30.6317660310722
20
-4.08893912689808
30
0
41
1
10
30.4540940450398
20
-4.0419957321372
30
0
41
1
10
30.3355501166729
20
-4.01010781235388
30
0
41
1
10
30.2762278574371
20
-3.9938666502959
30
0
41
1
10
30.0984929356746
20
-3.94436722498099
30
0
41
1
10
29.9801835858191
20
-3.91029711863328
30
0
41
1
10
29.7438949729855
20
-3.84012092856324
30
0
41
1
10
29.6259164834541
20
-3.80401844646229
30
0
41
1
10
29.2723913281923
20
-3.6926933621566
30
0
41
1
10
29.0372531887577
20
-3.61444259067298
30
0
41
1
10
28.3329559980709
20
-3.368529901171
30
0
41
1
10
27.8649143925896
20
-3.18972820950262
30
0
41
1
10
26.9291352629886
20
-2.80615099277418
30
0
41
1
10
26.4614260188005
20
-2.60130862499884
30
0
41
1
10
25.5236299725354
20
-2.1697147938535
30
0
41
1
10
25.0535176723088
20
-1.94301939902888
30
0
41
1
10
24.4625304891992
20
-1.64875242340528
30
0
41
1
10
24.3441650442882
20
-1.58935400084815
30
0
41
1
10
24.1663466352393
20
-1.4994732197483
30
0
41
1
10
24.1069994285856
20
-1.46936747331307
30
0
41
1
10
23.9883628816191
20
-1.40897766817295
30
0
41
1
10
23.9290931294965
20
-1.37870370475483
30
0
41
1
10
23.6329772092348
20
-1.22695686400456
30
0
41
1
10
23.3968275208812
20
-1.10435679826222
30
0
41
1
10
22.6899014836673
20
-0.734314572125754
30
0
41
1
10
22.220646568097
20
-0.484632538027256
30
0
41
1
10
21.6040018199153
20
-0.155517083883154
30
0
41
1
10
21.4560010233439
20
-0.0764470772226957
30
0
41
1
10
21.3080370049437
20
0.0026045574670945
30
0
0
SPLINE
5
E4
100
AcDbEntity
8
1
62
256
6
ByLayer
370
18
48
1
60
0
100
AcDbSpline
70
4
71
3
72
8
73
4
40
0
40
0
40
0
40
0
40
1
40
1
40
1
40
1
41
1
10
61.1247280027676
20
-0.304948866748475
30
0
41
1
10
61.145065504336
20
-0.312775405828802
30
0
41
1
10
61.165412614578
20
-0.320190662988921
30
0
41
1
10
61.1857777730457
20
-0.32719742822934
30
0
0
SPLINE
5
E5
100
AcDbEntity
8
1
62
256
6
ByLayer
370
18
48
1
60
0
100
AcDbSpline
70
4
71
3
72
50
73
46
40
0
40
0
40
0
40
0
40
0.0291749103266119
40
0.0291749103266119
40
0.0798257754119034
40
0.10515120795455
40
0.117813924225875
40
0.117813924225875
40
0.1304766404972
40
0.1304766404972
40
0.155802073039847
40
0.155802073039847
40
0.181127505582494
40
0.181127505582494
40
0.231778370667788
40
0.231778370667788
40
0.282429235753082
40
0.282429235753082
40
0.333080100838376
40
0.333080100838376
40
0.38373096592367
40
0.38373096592367
40
0.434381831008964
40
0.434381831008964
40
0.535683561179555
40
0.535683561179555
40
0.561008993722202
40
0.561008993722202
40
0.58633442626485
40
0.58633442626485
40
0.636985291350147
40
0.636985291350147
40
0.687636156435445
40
0.687636156435445
40
0.738287021520743
40
0.738287021520743
40
0.763612454063391
40
0.763612454063391
40
0.78893788660604
40
0.78893788660604
40
0.839588751691338
40
0.839588751691338
40
0.940890481861931
40
0.940890481861931
40
1
40
1
40
1
40
1
41
1
10
46.7496691300167
20
4.67221570317136
30
0
41
1
10
46.8842206899707
20
4.67438061254185
30
0
41
1
10
47.0189542098896
20
4.67465541007172
30
0
41
1
10
47.3880820026048
20
4.67058020151887
30
0
41
1
10
47.7402046785674
20
4.65867348466426
30
0
41
1
10
48.1523095836426
20
4.63171550248342
30
0
41
1
10
48.3291927097803
20
4.61747155412573
30
0
41
1
10
48.4471728605953
20
4.60738996836406
30
0
41
1
10
48.5062182742014
20
4.60205520805306
30
0
41
1
10
48.6832350217608
20
4.58519556638427
30
0
41
1
10
48.8010199978624
20
4.572835198446
30
0
41
1
10
49.0362064053215
20
4.54574180610186
30
0
41
1
10
49.1536280170489
20
4.53094872890165
30
0
41
1
10
49.5055911642435
20
4.48232587115746
30
0
41
1
10
49.7397710430128
20
4.44447884540821
30
0
41
1
10
50.2072767073948
20
4.35942826314502
30
0
41
1
10
50.4406302852263
20
4.31214470294648
30
0
41
1
10
50.9069004918435
20
4.20835272176978
30
0
41
1
10
51.1397744836297
20
4.15190169039377
30
0
41
1
10
51.6049595611819
20
4.03079253529299
30
0
41
1
10
51.8373429065312
20
3.9660328654374
30
0
41
1
10
52.3026318383149
20
3.82742098448847
30
0
41
1
10
52.5354906746818
20
3.75365185975045
30
0
41
1
10
53.2349354815984
20
3.52009109174241
30
0
41
1
10
53.7023641330994
20
3.34796769621048
30
0
41
1
10
54.2887956642961
20
3.11453807853258
30
0
41
1
10
54.4062049713051
20
3.06693258078053
30
0
41
1
10
54.6414107037041
20
2.96987501810497
30
0
41
1
10
54.7592505906498
20
2.92040337420863
30
0
41
1
10
55.1132915293167
20
2.76931907060424
30
0
41
1
10
55.3485977833173
20
2.66566157799338
30
0
41
1
10
55.8180516295393
20
2.45330312035105
30
0
41
1
10
56.0521931155382
20
2.34458296428843
30
0
41
1
10
56.5194829087173
20
2.12256146802832
30
0
41
1
10
56.7526208195177
20
2.00925362191143
30
0
41
1
10
57.1017458683573
20
1.83624589662168
30
0
41
1
10
57.2180432708032
20
1.77807947373509
30
0
41
1
10
57.4506299727182
20
1.66087215987156
30
0
41
1
10
57.5669096467197
20
1.60182843559093
30
0
41
1
10
57.915756353227
20
1.42350783050099
30
0
41
1
10
58.1483293504008
20
1.30303768770935
30
0
41
1
10
58.8463881998004
20
0.937718019691317
30
0
41
1
10
59.3122178564234
20
0.68894875322016
30
0
41
1
10
60.0518740903638
20
0.28972856594342
30
0
41
1
10
60.3248650284707
20
0.141487284605887
30
0
41
1
10
60.5985513288396
20
-0.0074320556951477
30
0
0
SPLINE
5
E6
100
AcDbEntity
8
1
62
256
6
ByLayer
370
18
48
1
60
0
100
AcDbSpline
70
4
71
3
72
8
73
4
40
0
40
0
40
0
40
0
40
1
40
1
40
1
40
1
41
1
10
61.1857777730457
20
-0.32719742822934
30
0
41
1
10
61.1876876735033
20
-0.32785454190514
30
0
41
1
10
61.1886622900527
20
-0.333146295565484
30
0
41
1
10
61.1879643070088
20
-0.338990754759095
30
0
0
SPLINE
5
E7
100
AcDbEntity
8
1
62
256
6
ByLayer
370
18
48
1
60
0
100
AcDbSpline
70
4
71
3
72
39
73
35
40
0
40
0
40
0
40
0
40
0.1106378303345
40
0.1106378303345
40
0.221275660669001
40
0.221275660669001
40
0.276594575836249
40
0.276594575836249
40
0.304254033419873
40
0.304254033419873
40
0.331913491003496
40
0.331913491003496
40
0.442551321337991
40
0.442551321337991
40
0.497870236505239
40
0.497870236505239
40
0.511699965297052
40
0.511699965297052
40
0.525529694088864
40
0.553189151672489
40
0.553189151672489
40
0.663826982006985
40
0.663826982006985
40
0.774464812341483
40
0.774464812341483
40
0.88510264267598
40
0.88510264267598
40
0.940421557843228
40
0.940421557843228
40
0.968081015426853
40
0.968081015426853
40
0.995740473010477
40
0.995740473010477
40
1
40
1
40
1
40
1
41
1
10
61.2201209268088
20
-4.67478912485703
30
0
41
1
10
60.748261904502
20
-4.64784473266854
30
0
41
1
10
60.27926402626
20
-4.60007462465759
30
0
41
1
10
59.3443413644354
20
-4.465237059412
30
0
41
1
10
58.8784167186457
20
-4.37815900300441
30
0
41
1
10
58.1798885653292
20
-4.21993101444997
30
0
41
1
10
57.9471082575269
20
-4.16258524940903
30
0
41
1
10
57.597729571359
20
-4.06987016750406
30
0
41
1
10
57.4812295568785
20
-4.03784518549932
30
0
41
1
10
57.2481526875902
20
-3.97162294160199
30
0
41
1
10
57.1315879326681
20
-3.9374357362986
30
0
41
1
10
56.5484545656257
20
-3.76113904193789
30
0
41
1
10
56.0807214296832
20
-3.60268892673815
30
0
41
1
10
55.3753348628394
20
-3.34095109961717
30
0
41
1
10
55.1395781701179
20
-3.24969565152611
30
0
41
1
10
54.8438742304669
20
-3.13086773309269
30
0
41
1
10
54.7846909150485
20
-3.10686722251529
30
0
41
1
10
54.6664804635802
20
-3.0585056797448
30
0
41
1
10
54.4893014995354
20
-2.9853830612864
30
0
41
1
10
54.3125085192032
20
-2.91055771047465
30
0
41
1
10
53.7239504945098
20
-2.65752222781237
30
0
41
1
10
53.2555121255125
20
-2.44349504757884
30
0
41
1
10
52.3206510732732
20
-1.99722178215419
30
0
41
1
10
51.8542053162381
20
-1.76501757779212
30
0
41
1
10
50.9205943210864
20
-1.28723300307396
30
0
41
1
10
50.4534922151988
20
-1.04152926332995
30
0
41
1
10
49.7501919405575
20
-0.666701369955263
30
0
41
1
10
49.5153204700439
20
-0.540701493999535
30
0
41
1
10
49.1621163954556
20
-0.350557329449117
30
0
41
1
10
49.0442324648846
20
-0.2869858713496
30
0
41
1
10
48.8081230540205
20
-0.159530731507914
30
0
41
1
10
48.6898584026427
20
-0.0956223503208378
30
0
41
1
10
48.553251103565
20
-0.0217943062693564
30
0
41
1
10
48.5350255866906
20
-0.0119444879034347
30
0
41
1
10
48.5168044487465
20
-0.002097217981202
30
0
0
SPLINE
5
E8
100
AcDbEntity
8
1
62
256
6
ByLayer
370
18
48
1
60
0
100
AcDbSpline
70
4
71
3
72
10
73
6
40
0
40
0
40
0
40
0
40
0.5
40
0.5
40
1
40
1
40
1
40
1
41
1
10
61.2201209268089
20
-4.67478912485703
30
0
41
1
10
61.2207902212051
20
-4.67371083176835
30
0
41
1
10
61.2214722505337
20
-4.67256815303213
30
0
41
1
10
61.2228038968844
20
-4.67022015843148
30
0
41
1
10
61.2234452051817
20
-4.66902551664552
30
0
41
1
10
61.2239670732098
20
-4.66797206130815
30
0
0
SPLINE
5
E9
100
AcDbEntity
8
1
62
256
6
ByLayer
370
18
48
1
60
0
100
AcDbSpline
70
4
71
3
72
10
73
6
40
0
40
0
40
0
40
0
40
0.499999999999992
40
0.499999999999992
40
1
40
1
40
1
40
1
41
1
10
61.2240969993627
20
-4.66389296374285
30
0
41
1
10
61.2242851778131
20
-4.66405398172884
30
0
41
1
10
61.2243898116587
20
-4.6644444118399
30
0
41
1
10
61.2243692665602
20
-4.66579579745269
30
0
41
1
10
61.224236670675
20
-4.6667667434921
30
0
41
1
10
61.2239670732098
20
-4.66797206130815
30
0
0
SPLINE
5
EA
100
AcDbEntity
8
1
62
256
6
ByLayer
370
18
48
1
60
0
100
AcDbSpline
70
4
71
3
72
28
73
24
40
0
40
0
40
0
40
0
40
0.125000000000024
40
0.125000000000024
40
0.187500000000023
40
0.187500000000023
40
0.250000000000022
40
0.250000000000022
40
0.375000000000016
40
0.375000000000016
40
0.437500000000048
40
0.437500000000048
40
0.500000000000079
40
0.500000000000079
40
0.625000000000058
40
0.625000000000058
40
0.687500000000048
40
0.687500000000048
40
0.750000000000039
40
0.750000000000039
40
0.875000000000019
40
0.875000000000019
40
1
40
1
40
1
40
1
41
1
10
16
20
-4.4127683941895
30
0
41
1
10
16
20
-4.40935142713352
30
0
41
1
10
16.0011281102031
20
-4.40598935831233
30
0
41
1
10
16.0044620832809
20
-4.40102934151656
30
0
41
1
10
16.0058642722217
20
-4.3993788456452
30
0
41
1
10
16.0091661135702
20
-4.39618937251902
30
0
41
1
10
16.0110648714614
20
-4.39464506914629
30
0
41
1
10
16.0174900510128
20
-4.39016292917651
30
0
41
1
10
16.0228334982362
20
-4.38734062949067
30
0
41
1
10
16.0319492072088
20
-4.38363239571248
30
0
41
1
10
16.0351735662351
20
-4.38247825204408
30
0
41
1
10
16.0419940661235
20
-4.38033597948027
30
0
41
1
10
16.0456148981375
20
-4.379342199934
30
0
41
1
10
16.0568813491813
20
-4.37666787101964
30
0
41
1
10
16.0648220638422
20
-4.37530592801554
30
0
41
1
10
16.0773721954815
20
-4.37389792744173
30
0
41
1
10
16.0816735190421
20
-4.37353707537429
30
0
41
1
10
16.0902449709729
20
-4.37305335384349
30
0
41
1
10
16.0945455097877
20
-4.37292634028287
30
0
41
1
10
16.1074911614091
20
-4.37288718877377
30
0
41
1
10
16.1162699681302
20
-4.37333122096862
30
0
41
1
10
16.1329963922233
20
-4.37509808478012
30
0
41
1
10
16.1411087269582
20
-4.37642565324512
30
0
41
1
10
16.1487467719924
20
-4.37817509666419
30
0
0
SPLINE
5
EB
100
AcDbEntity
8
1
62
256
6
ByLayer
370
18
48
1
60
0
100
AcDbSpline
70
4
71
3
72
108
73
104
40
0
40
0
40
0
40
0
40
0.0624999999999911
40
0.0624999999999911
40
0.0937499999999861
40
0.0937499999999861
40
0.124999999999981
40
0.124999999999981
40
0.156249999999976
40
0.156249999999976
40
0.187499999999971
40
0.187499999999971
40
0.203124999999969
40
0.203124999999969
40
0.218749999999967
40
0.218749999999967
40
0.249999999999964
40
0.249999999999964
40
0.257812499999963
40
0.257812499999963
40
0.265624999999963
40
0.281249999999963
40
0.281249999999963
40
0.296874999999962
40
0.296874999999962
40
0.312499999999962
40
0.312499999999962
40
0.320312499999962
40
0.320312499999962
40
0.328124999999962
40
0.328124999999962
40
0.343749999999961
40
0.343749999999961
40
0.359374999999961
40
0.359374999999961
40
0.363281249999961
40
0.363281249999961
40
0.367187499999961
40
0.367187499999961
40
0.37499999999996
40
0.37499999999996
40
0.406249999999959
40
0.406249999999959
40
0.414062499999959
40
0.414062499999959
40
0.421874999999959
40
0.421874999999959
40
0.437499999999959
40
0.437499999999959
40
0.445312499999959
40
0.445312499999959
40
0.453124999999959
40
0.453124999999959
40
0.468749999999958
40
0.468749999999958
40
0.499999999999955
40
0.499999999999955
40
0.515624999999954
40
0.515624999999954
40
0.531249999999952
40
0.531249999999952
40
0.56249999999995
40
0.56249999999995
40
0.593749999999947
40
0.593749999999947
40
0.624999999999944
40
0.624999999999944
40
0.656249999999941
40
0.656249999999941
40
0.657226562499941
40
0.657226562499941
40
0.658203124999941
40
0.658203124999941
40
0.659179687499941
40
0.659179687499941
40
0.660156249999941
40
0.660156249999941
40
0.662109374999942
40
0.662109374999942
40
0.664062499999943
40
0.664062499999943
40
0.666015624999944
40
0.666015624999944
40
0.666992187499945
40
0.666992187499945
40
0.667968749999945
40
0.667968749999945
40
0.671874999999946
40
0.687499999999949
40
0.687499999999949
40
0.718749999999954
40
0.718749999999954
40
0.74999999999996
40
0.74999999999996
40
0.81249999999997
40
0.81249999999997
40
0.87499999999998
40
0.87499999999998
40
0.906249999999985
40
0.906249999999985
40
0.93749999999999
40
0.93749999999999
40
1
40
1
40
1
40
1
41
1
10
5.62332428658218
20
1.0535483780292
30
0
41
1
10
5.35539352373982
20
1.19767654069469
30
0
41
1
10
5.09172318882159
20
1.3454487583729
30
0
41
1
10
4.70389220850728
20
1.57340340068842
30
0
41
1
10
4.57590003276451
20
1.6504418989158
30
0
41
1
10
4.32279955109021
20
1.80683858362369
30
0
41
1
10
4.19768977550845
20
1.88619567923033
30
0
41
1
10
3.95077362885334
20
2.04751990806722
30
0
41
1
10
3.82896468020965
20
2.12948512341416
30
0
41
1
10
3.58923499242516
20
2.29643840194879
30
0
41
1
10
3.47130934442973
20
2.38142280353375
30
0
41
1
10
3.29797933515869
20
2.51162741115485
30
0
41
1
10
3.24099449369092
20
2.55534009404315
30
0
41
1
10
3.12899717780405
20
2.64325734054091
30
0
41
1
10
3.07394817252819
20
2.68748894894276
30
0
41
1
10
2.91194838279185
20
2.82107671505602
30
0
41
1
10
2.80811001830816
20
2.91131614081394
30
0
41
1
10
2.68491428668349
20
3.02595078670552
30
0
41
1
10
2.66057965249109
20
3.04899819352829
30
0
41
1
10
2.6128346053751
20
3.09508476625152
30
0
41
1
10
2.54256161418647
20
3.16423955122005
30
0
41
1
10
2.47651578758499
20
3.23346917988482
30
0
41
1
10
2.39264468299683
20
3.32584474076543
30
0
41
1
10
2.35280275101925
20
3.37206716920539
30
0
41
1
10
2.27786122849199
20
3.46458804653542
30
0
41
1
10
2.24275944622488
20
3.51088641850319
30
0
41
1
10
2.19420745717022
20
3.58040016444738
30
0
41
1
10
2.17870845636494
20
3.60358249505572
30
0
41
1
10
2.14919444837457
20
3.64997162810093
30
0
41
1
10
2.13525241254527
20
3.67306877953942
30
0
41
1
10
2.09620107433418
20
3.74167626406339
30
0
41
1
10
2.07376303259818
20
3.78665812070003
30
0
41
1
10
2.036652863786
20
3.87499921104762
30
0
41
1
10
2.02197928544356
20
3.91835867885334
30
0
41
1
10
2.00894437236258
20
3.97146001084229
30
0
41
1
10
2.00660318521673
20
3.98202530575546
30
0
41
1
10
2.00246566963722
20
4.00304354441093
30
0
41
1
10
2.00066693077378
20
4.01351556456231
30
0
41
1
10
1.99613313217529
20
4.04457987978395
30
0
41
1
10
1.99425336398033
20
4.06483097096964
30
0
41
1
10
1.99049124746799
20
4.16383357548003
30
0
41
1
10
2.00546860466042
20
4.23584372292285
30
0
41
1
10
2.04597038561821
20
4.31731433521057
30
0
41
1
10
2.0551967249082
20
4.33322332736068
30
0
41
1
10
2.07557868896058
20
4.36384786640841
30
0
41
1
10
2.08674215940263
20
4.37859555913656
30
0
41
1
10
2.12298802394071
20
4.42124688948726
30
0
41
1
10
2.15082064536702
20
4.44756192120099
30
0
41
1
10
2.19753566672895
20
4.48419684727887
30
0
41
1
10
2.213936422372
20
4.49593471050648
30
0
41
1
10
2.2483212770673
20
4.51851091702542
30
0
41
1
10
2.26632267709854
20
4.52935875851597
30
0
41
1
10
2.32249171466103
20
4.56055708047842
30
0
41
1
10
2.36243552625493
20
4.57936462075264
30
0
41
1
10
2.48868528475546
20
4.63073204240976
30
0
41
1
10
2.58135709971074
20
4.65828100060548
30
0
41
1
10
2.73025710437969
20
4.692026067456
30
0
41
1
10
2.78155470261777
20
4.70199815696699
30
0
41
1
10
2.88714567675382
20
4.71967901282213
30
0
41
1
10
2.94155206112362
20
4.7273964437062
30
0
41
1
10
3.1072767712914
20
4.74734169376381
30
0
41
1
10
3.22147964412253
20
4.75647772328807
30
0
41
1
10
3.4557556665776
20
4.76840950684627
30
0
41
1
10
3.57583954975956
20
4.77119189011719
30
0
41
1
10
3.82086991556835
20
4.7716984124323
30
0
41
1
10
3.94582163930107
20
4.76941602269997
30
0
41
1
10
4.19987865569575
20
4.76070317662231
30
0
41
1
10
4.3289871116354
20
4.754269243793
30
0
41
1
10
4.46400201170215
20
4.74584443116493
30
0
41
1
10
4.46809515032066
20
4.74558743137572
30
0
41
1
10
4.47628496962886
20
4.74507004502445
30
0
41
1
10
4.48036424469072
20
4.74480634138664
30
0
41
1
10
4.4886174369187
20
4.74429289937009
30
0
41
1
10
4.49285679433507
20
4.74405653377323
30
0
41
1
10
4.50157045854999
20
4.74364971055303
30
0
41
1
10
4.50605055643891
20
4.74347816506429
30
0
41
1
10
4.51983963094722
20
4.74305612144701
30
0
41
1
10
4.52917810249565
20
4.74290380368365
30
0
41
1
10
4.54805320978826
20
4.74279238515652
30
0
41
1
10
4.55764295969666
20
4.74282738598072
30
0
41
1
10
4.57652217343645
20
4.74305801638744
30
0
41
1
10
4.5858440015335
20
4.74326440656614
30
0
41
1
10
4.59971540641126
20
4.74365723416429
30
0
41
1
10
4.60431536019107
20
4.74380310759443
30
0
41
1
10
4.61349484130594
20
4.74409794627229
30
0
41
1
10
4.6180821172575
20
4.7442458615225
30
0
41
1
10
4.6410194671154
20
4.74498250818726
30
0
41
1
10
4.73272424543066
20
4.74790619198481
30
0
41
1
10
4.82420259492662
20
4.75070954849329
30
0
41
1
10
5.04327574658421
20
4.75714145743282
30
0
41
1
10
5.18867502439252
20
4.76103458289185
30
0
41
1
10
5.4782198256965
20
4.76767786730949
30
0
41
1
10
5.62241404920144
20
4.77042804157216
30
0
41
1
10
6.05234330302321
20
4.77639970151981
30
0
41
1
10
6.33566917688901
20
4.7773469046023
30
0
41
1
10
6.8964812314685
20
4.77029014893969
30
0
41
1
10
7.17396100895365
20
4.76227629518382
30
0
41
1
10
7.58657830316298
20
4.74150780116798
30
0
41
1
10
7.7235201198784
20
4.73312970268131
30
0
41
1
10
7.99636376547429
20
4.71316612134098
30
0
41
1
10
8.13230709370936
20
4.70157535918742
30
0
41
1
10
8.53850574063668
20
4.66161463923552
30
0
41
1
10
8.80674634711366
20
4.62808009100209
30
0
41
1
10
9.07321185044256
20
4.58692887278582
30
0
0
SPLINE
5
EC
100
AcDbEntity
8
1
62
256
6
ByLayer
370
18
48
1
60
0
100
AcDbSpline
70
4
71
3
72
20
73
16
40
0
40
0
40
0
40
0
40
0.249999999999998
40
0.249999999999998
40
0.374999999999999
40
0.374999999999999
40
0.499999999999999
40
0.499999999999999
40
0.624999999999999
40
0.624999999999999
40
0.749999999999999
40
0.749999999999999
40
0.875
40
0.875
40
1
40
1
40
1
40
1
41
1
10
9.07297699834723
20
4.58696619360796
30
0
41
1
10
9.65537793670694
20
4.49710712060218
30
0
41
1
10
10.2331485222781
20
4.37678316954097
30
0
41
1
10
11.0967229380776
20
4.15475144913077
30
0
41
1
10
11.3840275971018
20
4.07377490193193
30
0
41
1
10
11.9583429589135
20
3.89873068880286
30
0
41
1
10
12.2453721745169
20
3.80468909815713
30
0
41
1
10
12.8196953189356
20
3.6041409120302
30
0
41
1
10
13.1070093109204
20
3.4976550804501
30
0
41
1
10
13.6825796723755
20
3.27294988542036
30
0
41
1
10
13.9707918900766
20
3.15466516763883
30
0
41
1
10
14.5489945059685
20
2.90733683489745
30
0
41
1
10
14.8389391359662
20
2.77821359840118
30
0
41
1
10
15.421105711215
20
2.50979904531417
30
0
41
1
10
15.710998846269
20
2.37162357110819
30
0
41
1
10
15.9999999999925
20
2.23001155134324
30
0
0
SPLINE
5
ED
100
AcDbEntity
8
1
62
256
6
ByLayer
370
18
48
1
60
0
100
AcDbSpline
70
4
71
3
72
54
73
50
40
0
40
0
40
0
40
0
40
0.0196633637179185
40
0.0196633637179185
40
0.0393267274358371
40
0.0393267274358371
40
0.0786534548716732
40
0.0786534548716732
40
0.157306909743345
40
0.157306909743345
40
0.19663363717918
40
0.19663363717918
40
0.216297000897098
40
0.216297000897098
40
0.235960364615015
40
0.235960364615015
40
0.27528709205085
40
0.27528709205085
40
0.314613819486685
40
0.314613819486685
40
0.393267274358354
40
0.393267274358354
40
0.471920729230023
40
0.471920729230023
40
0.550574184101691
40
0.550574184101691
40
0.57023754781961
40
0.57023754781961
40
0.589900911537528
40
0.589900911537528
40
0.629227638973366
40
0.629227638973366
40
0.648891002691284
40
0.648891002691284
40
0.668554366409202
40
0.707881093845036
40
0.707881093845036
40
0.786534548716707
40
0.786534548716707
40
0.806197912434624
40
0.806197912434624
40
0.816029594293583
40
0.816029594293583
40
0.825861276152543
40
0.865188003588379
40
0.865188003588379
40
0.943841458460053
40
0.943841458460053
40
1
40
1
40
1
40
1
41
1
10
16.0000000000004
20
2.30520279809832
30
0
41
1
10
16.1184970775027
20
2.24779990457535
30
0
41
1
10
16.2369948938953
20
2.18974614868256
30
0
41
1
10
16.4740478456627
20
2.07242623157902
30
0
41
1
10
16.5925752840077
20
2.01317386350399
30
0
41
1
10
16.9477470865957
20
1.83403672817334
30
0
41
1
10
17.184160620985
20
1.71267231666141
30
0
41
1
10
17.8927529968216
20
1.34357300438754
30
0
41
1
10
18.3642693609071
20
1.09080837962449
30
0
41
1
10
19.0722235555093
20
0.705120068943387
30
0
41
1
10
19.308324762956
20
0.575472125266856
30
0
41
1
10
19.6629348097631
20
0.3798701176988
30
0
41
1
10
19.7812147918278
20
0.314481584836187
30
0
41
1
10
20.0179784299575
20
0.183417823255127
30
0
41
1
10
20.1365329882734
20
0.117703240675269
30
0
41
1
10
20.4913848817733
20
-0.079067225710105
30
0
41
1
10
20.7272101836336
20
-0.209937940063099
30
0
41
1
10
21.1978063787519
20
-0.470291482776048
30
0
41
1
10
21.432586230442
20
-0.599758072564157
30
0
41
1
10
22.1358781942121
20
-0.985146929145515
30
0
41
1
10
22.6033225073514
20
-1.23809662785817
30
0
41
1
10
23.538048392136
20
-1.73136047280229
30
0
41
1
10
24.00533514938
20
-1.97166348945439
30
0
41
1
10
24.9425650290321
20
-2.4346800991101
30
0
41
1
10
25.4125087864525
20
-2.65739012235534
30
0
41
1
10
26.0035135197535
20
-2.92145879425289
30
0
41
1
10
26.1219752107985
20
-2.97359077227108
30
0
41
1
10
26.3588122455987
20
-3.0761236732003
30
0
41
1
10
26.4771906765903
20
-3.12652690391428
30
0
41
1
10
26.8322756946234
20
-3.2750550642227
30
0
41
1
10
27.0689290444986
20
-3.37050279523342
30
0
41
1
10
27.4240657690751
20
-3.50797144688585
30
0
41
1
10
27.5425015715684
20
-3.55285483654112
30
0
41
1
10
27.7793342801068
20
-3.64060876438452
30
0
41
1
10
28.1342898537887
20
-3.76913482272397
30
0
41
1
10
28.4885739296668
20
-3.88813618650062
30
0
41
1
10
29.1968067824034
20
-4.11288048185108
30
0
41
1
10
29.6685053491363
20
-4.24503768624922
30
0
41
1
10
30.2594528360324
20
-4.38629242219187
30
0
41
1
10
30.3777091186168
20
-4.41334609911266
30
0
41
1
10
30.5552306358986
20
-4.45209601031547
30
0
41
1
10
30.6144470058598
20
-4.46471145967868
30
0
41
1
10
30.7327515534021
20
-4.48928973175916
30
0
41
1
10
31.0282758873122
20
-4.54912357199899
30
0
41
1
10
31.3226982180334
20
-4.60088183143412
30
0
41
1
10
32.0277625081692
20
-4.70952927567308
30
0
41
1
10
32.4957172572927
20
-4.76121453924284
30
0
41
1
10
33.2965744411173
20
-4.81398454937593
30
0
41
1
10
33.6298224513293
20
-4.82531018940307
30
0
41
1
10
33.9632273379873
20
-4.8259217127241
30
0
0
SPLINE
5
EE
100
AcDbEntity
8
1
62
256
6
ByLayer
370
18
48
1
60
0
100
AcDbSpline
70
4
71
3
72
21
73
17
40
0
40
0
40
0
40
0
40
0.128635213235289
40
0.128635213235289
40
0.346476409926477
40
0.346476409926477
40
0.564317606617664
40
0.564317606617664
40
0.67323820496326
40
0.67323820496326
40
0.700468354549656
40
0.700468354549656
40
0.727698504136053
40
0.782158803308842
40
0.782158803308842
40
1
40
1
40
1
40
1
41
1
10
54.6899943883838
20
3.55765103810489
30
0
41
1
10
54.966028883137
20
3.66361797919751
30
0
41
1
10
55.2415535837112
20
3.76400742679104
30
0
41
1
10
55.9830872018813
20
4.01856725687924
30
0
41
1
10
56.4486892758231
20
4.16174906237336
30
0
41
1
10
57.3815844536061
20
4.41138380473464
30
0
41
1
10
57.8488789180971
20
4.51784256567427
30
0
41
1
10
58.5532130859505
20
4.64785462666217
30
0
41
1
10
58.7885591369294
20
4.68624344257432
30
0
41
1
10
59.0836919789119
20
4.72780824340259
30
0
41
1
10
59.1427616289771
20
4.73579916982413
30
0
41
1
10
59.2608175001426
20
4.7511104874699
30
0
41
1
10
59.4378448825164
20
4.77308158231946
30
0
41
1
10
59.6147305203757
20
4.79205914470387
30
0
41
1
10
60.2041518697938
20
4.84864153048053
30
0
41
1
10
60.675047044545
20
4.87254424118356
30
0
41
1
10
61.1468101263197
20
4.87478558678089
30
0
0
SPLINE
5
EF
100
AcDbEntity
8
1
62
256
6
ByLayer
370
18
48
1
60
0
100
AcDbSpline
70
4
71
3
72
63
73
59
40
0
40
0
40
0
40
0
40
0.001763567980553
40
0.001763567980553
40
0.0683126634485198
40
0.0683126634485198
40
0.101587211182504
40
0.118224485049496
40
0.118224485049496
40
0.134861758916488
40
0.134861758916488
40
0.201410854384458
40
0.201410854384458
40
0.234685402118443
40
0.234685402118443
40
0.251322675985435
40
0.251322675985435
40
0.267959949852426
40
0.267959949852426
40
0.334509045320394
40
0.334509045320394
40
0.367783593054378
40
0.367783593054378
40
0.401058140788361
40
0.401058140788361
40
0.467607236256327
40
0.467607236256327
40
0.534156331724294
40
0.534156331724294
40
0.550793605591284
40
0.550793605591284
40
0.567430879458275
40
0.600705427192254
40
0.600705427192254
40
0.633979974926234
40
0.633979974926234
40
0.667254522660213
40
0.667254522660213
40
0.683891796527202
40
0.683891796527202
40
0.700529070394191
40
0.73380361812817
40
0.73380361812817
40
0.767078165862149
40
0.767078165862149
40
0.800352713596127
40
0.800352713596127
40
0.816989987463117
40
0.816989987463117
40
0.833627261330106
40
0.833627261330106
40
0.866901809064085
40
0.866901809064085
40
0.900176356798064
40
0.900176356798064
40
0.933450904532043
40
0.933450904532043
40
1
40
1
40
1
40
1
41
1
10
37.2281658506714
20
-4.6600576797463
30
0
41
1
10
37.2157138252007
20
-4.66187097104373
30
0
41
1
10
37.2032625237744
20
-4.66366966495639
30
0
41
1
10
36.7209823274007
20
-4.73277730237615
30
0
41
1
10
36.2523673690208
20
-4.77938843272207
30
0
41
1
10
35.5487478803224
20
-4.81752470240562
30
0
41
1
10
35.1967811025967
20
-4.82865857015085
30
0
41
1
10
34.8441417023556
20
-4.82780120860286
30
0
41
1
10
34.6088519324267
20
-4.82455665880104
30
0
41
1
10
34.4911937879355
20
-4.82159787462453
30
0
41
1
10
33.9034949962193
20
-4.80017466449482
30
0
41
1
10
33.4347194882648
20
-4.76176045321119
30
0
41
1
10
32.7310479573577
20
-4.67305215999349
30
0
41
1
10
32.4964140445818
20
-4.63830454270214
30
0
41
1
10
32.1440589691379
20
-4.57853660138707
30
0
41
1
10
32.026540608883
20
-4.55733939095811
30
0
41
1
10
31.7913321577585
20
-4.51241023780031
30
0
41
1
10
31.6735861575672
20
-4.48866553808924
30
0
41
1
10
31.0854803387625
20
-4.36389265363255
30
0
41
1
10
30.6163674802623
20
-4.24462589805734
30
0
41
1
10
29.9124929339489
20
-4.03864730477824
30
0
41
1
10
29.6778658365926
20
-3.96544434166148
30
0
41
1
10
29.208167363308
20
-3.81036476488069
30
0
41
1
10
28.9730384274938
20
-3.728483799099
30
0
41
1
10
28.266737380978
20
-3.47046841309782
30
0
41
1
10
27.7973321590089
20
-3.28297012814534
30
0
41
1
10
26.8586523249444
20
-2.88089924222618
30
0
41
1
10
26.3893792578498
20
-2.66631482004459
30
0
41
1
10
25.8009330089427
20
-2.38388696059042
30
0
41
1
10
25.6831546756157
20
-2.32669270011357
30
0
41
1
10
25.4478789005882
20
-2.21120914032349
30
0
41
1
10
25.0951945176683
20
-2.03624877982898
30
0
41
1
10
24.7429841450409
20
-1.85644824788272
30
0
41
1
10
24.273429456363
20
-1.61303221159724
30
0
41
1
10
24.0386889819396
20
-1.48947171840547
30
0
41
1
10
23.5690220417951
20
-1.23908174631836
30
0
41
1
10
23.3340830725573
20
-1.1122720373917
30
0
41
1
10
22.9811440773306
20
-0.92027632029928
30
0
41
1
10
22.8633480203195
20
-0.85594375106777
30
0
41
1
10
22.6278843982018
20
-0.726947615157201
30
0
41
1
10
22.2749387426741
20
-0.532988367134323
30
0
41
1
10
21.922539695664
20
-0.338001260239906
30
0
41
1
10
21.4528166010213
20
-0.0777272357081245
30
0
41
1
10
21.2180298530814
20
0.0525619900750769
30
0
41
1
10
20.7483046977925
20
0.312899153055042
30
0
41
1
10
20.5133582245063
20
0.44293248783066
30
0
41
1
10
20.160476095088
20
0.637169850013379
30
0
41
1
10
20.0427729537814
20
0.70178256063727
30
0
41
1
10
19.8071740357799
20
0.830667359556315
30
0
41
1
10
19.6894172079034
20
0.894863474402115
30
0
41
1
10
19.3365754723835
20
1.0864088824205
30
0
41
1
10
19.1017636510798
20
1.21279243939651
30
0
41
1
10
18.6325779309497
20
1.46226610698187
30
0
41
1
10
18.3982073488042
20
1.5853629051706
30
0
41
1
10
17.9296108931338
20
1.82777225962141
30
0
41
1
10
17.6953811102256
20
1.94707683343671
30
0
41
1
10
16.9922372523556
20
2.29818403701307
30
0
41
1
10
16.5228652114713
20
2.52318188803983
30
0
41
1
10
16.0515667940059
20
2.73690161604998
30
0
0
SPLINE
5
F0
100
AcDbEntity
8
1
62
256
6
ByLayer
370
18
48
1
60
0
100
AcDbSpline
70
4
71
3
72
16
73
12
40
0
40
0
40
0
40
0
40
0.250000000000105
40
0.250000000000105
40
0.375000000000087
40
0.375000000000087
40
0.50000000000007
40
0.50000000000007
40
0.750000000000035
40
0.750000000000035
40
1
40
1
40
1
40
1
41
1
10
16.0515667940059
20
2.73690161604998
30
0
41
1
10
16.0437295159808
20
2.74045558709207
30
0
41
1
10
16.0366411032575
20
2.74477633481243
30
0
41
1
10
16.0271000272426
20
2.75236713454313
30
0
41
1
10
16.0240882510858
20
2.75510497640372
30
0
41
1
10
16.0186038307388
20
2.76081282564923
30
0
41
1
10
16.0161126778563
20
2.76379330780637
30
0
41
1
10
16.0093804191819
20
2.7731064406947
30
0
41
1
10
16.0058562803003
20
2.77990310338242
30
0
41
1
10
16.0012014719848
20
2.79377547000217
30
0
41
1
10
16
20
2.80096018454782
30
0
41
1
10
16
20
2.80822012499544
30
0
0
SPLINE
5
F1
100
AcDbEntity
8
1
62
256
6
ByLayer
370
18
48
1
60
0
100
AcDbSpline
70
4
71
3
72
112
73
108
40
0
40
0
40
0
40
0
40
0.0007640240254422
40
0.0007640240254422
40
0.012702041633656
40
0.012702041633656
40
0.0246400592418698
40
0.0246400592418698
40
0.048516094458298
40
0.048516094458298
40
0.0723921296747262
40
0.0723921296747262
40
0.0962681648911543
40
0.0962681648911543
40
0.120144200107583
40
0.120144200107583
40
0.144020235324011
40
0.144020235324011
40
0.191772305756867
40
0.191772305756867
40
0.215648340973295
40
0.215648340973295
40
0.22758635858151
40
0.22758635858151
40
0.239524376189724
40
0.239524376189724
40
0.263400411406154
40
0.263400411406154
40
0.287276446622583
40
0.287276446622583
40
0.311152481839012
40
0.311152481839012
40
0.323090499447227
40
0.323090499447227
40
0.335028517055442
40
0.335028517055442
40
0.358904552271873
40
0.358904552271873
40
0.382780587488303
40
0.382780587488303
40
0.406656622704733
40
0.406656622704733
40
0.418594640312948
40
0.418594640312948
40
0.430532657921163
40
0.430532657921163
40
0.454408693137595
40
0.454408693137595
40
0.478284728354026
40
0.478284728354026
40
0.502160763570457
40
0.502160763570457
40
0.514098781178674
40
0.514098781178674
40
0.52603679878689
40
0.52603679878689
40
0.549912834003323
40
0.549912834003323
40
0.56185085161154
40
0.56185085161154
40
0.573788869219758
40
0.573788869219758
40
0.621540939652628
40
0.621540939652628
40
0.633478957260845
40
0.633478957260845
40
0.645416974869062
40
0.645416974869062
40
0.657354992477278
40
0.657354992477278
40
0.669293010085495
40
0.669293010085495
40
0.693169045301929
40
0.693169045301929
40
0.717045080518362
40
0.717045080518362
40
0.72898309812658
40
0.72898309812658
40
0.740921115734797
40
0.740921115734797
40
0.752859133343014
40
0.752859133343014
40
0.764797150951231
40
0.764797150951231
40
0.8125492213841
40
0.8125492213841
40
0.824487238992317
40
0.824487238992317
40
0.836425256600534
40
0.836425256600534
40
0.860301291816968
40
0.860301291816968
40
0.884177327033401
40
0.884177327033401
40
0.908053362249834
40
0.908053362249834
40
0.919991379858052
40
0.919991379858052
40
0.931929397466269
40
0.931929397466269
40
0.955805432682703
40
0.955805432682703
40
0.967743450290921
40
0.967743450290921
40
0.979681467899138
40
0.979681467899138
40
1
40
1
40
1
40
1
41
1
10
17.5348950817703
20
4.63624672161146
30
0
41
1
10
17.5424151200368
20
4.63732489075775
30
0
41
1
10
17.5499353294434
20
4.63839785717988
30
0
41
1
10
17.6749631005968
20
4.65614963537953
30
0
41
1
10
17.7925103345965
20
4.67156079393845
30
0
41
1
10
18.0276764623302
20
4.69983212519818
30
0
41
1
10
18.1453341422746
20
4.71269587130823
30
0
41
1
10
18.4978112656037
20
4.74736770047588
30
0
41
1
10
18.7323357001891
20
4.76525563169329
30
0
41
1
10
19.2012725809809
20
4.79044117080932
30
0
41
1
10
19.4356559333335
20
4.79775944362146
30
0
41
1
10
19.9044204746004
20
4.80186996843656
30
0
41
1
10
20.1388117208004
20
4.79865536121613
30
0
41
1
10
20.6080508151827
20
4.78168268601274
30
0
41
1
10
20.8428980585244
20
4.76793244703356
30
0
41
1
10
21.3129489829026
20
4.72975370415548
30
0
41
1
10
21.5474414266493
20
4.70536964027465
30
0
41
1
10
22.250823214829
20
4.61698150229591
30
0
41
1
10
22.7194978574937
20
4.53782602630614
30
0
41
1
10
23.4230841322004
20
4.38947892897579
30
0
41
1
10
23.65771425464
20
4.33508654526455
30
0
41
1
10
24.0098734522584
20
4.24599670298059
30
0
41
1
10
24.1273301051999
20
4.21504222849418
30
0
41
1
10
24.3619785276011
20
4.15089888119041
30
0
41
1
10
24.4792306635558
20
4.11769603042256
30
0
41
1
10
24.8309822273485
20
4.01492099573261
30
0
41
1
10
25.0654545369252
20
3.94217221416795
30
0
41
1
10
25.5343130735815
20
3.78829097196964
30
0
41
1
10
25.7686982528499
20
3.70715498371712
30
0
41
1
10
26.2374698674272
20
3.53654874003709
30
0
41
1
10
26.4718576012346
20
3.44707853540342
30
0
41
1
10
26.8235782102743
20
3.30666950370897
30
0
41
1
10
26.9408964875962
20
3.25882206705501
30
0
41
1
10
27.1755665837835
20
3.16139956583851
30
0
41
1
10
27.2928326934247
20
3.11186274539762
30
0
41
1
10
27.6446587552743
20
2.96112832968277
30
0
41
1
10
27.8792059312437
20
2.85775990158345
30
0
41
1
10
28.3481212280587
20
2.64511048330425
30
0
41
1
10
28.5824976145148
20
2.53583775515011
30
0
41
1
10
29.051210115623
20
2.31156193109976
30
0
41
1
10
29.2855338778072
20
2.19654115522005
30
0
41
1
10
29.6369806800712
20
2.01960855305194
30
0
41
1
10
29.754143188509
20
1.9599275747569
30
0
41
1
10
29.9887822349783
20
1.83963169847448
30
0
41
1
10
30.1062158025912
20
1.77900795340716
30
0
41
1
10
30.4581654638512
20
1.59604490683674
30
0
41
1
10
30.692577965331
20
1.47248849119779
30
0
41
1
10
31.1610824479044
20
1.22244196095573
30
0
41
1
10
31.3951895186673
20
1.09597581030843
30
0
41
1
10
31.8636375070289
20
0.841085292513355
30
0
41
1
10
32.0979598655424
20
0.712630684179402
30
0
41
1
10
32.4496283448211
20
0.518491243764714
30
0
41
1
10
32.5668857055359
20
0.453541380794547
30
0
41
1
10
32.8015368245978
20
0.323286329035682
30
0
41
1
10
32.9189946908269
20
0.257946049659239
30
0
41
1
10
33.2711165701105
20
0.0618622876599488
30
0
41
1
10
33.5054709592938
20
-0.068959622442776
30
0
41
1
10
33.8564067289446
20
-0.265347862724724
30
0
41
1
10
33.9733035688502
20
-0.330804154298363
30
0
41
1
10
34.2072522875924
20
-0.461131756166281
30
0
41
1
10
34.3242890715329
20
-0.526030738883293
30
0
41
1
10
34.9096357622792
20
-0.8494769412263
30
0
41
1
10
35.3784557473165
20
-1.10484945465657
30
0
41
1
10
35.9655279969283
20
-1.41914132049678
30
0
41
1
10
36.0828822829581
20
-1.48169327178351
30
0
41
1
10
36.3172259276829
20
-1.60607273371869
30
0
41
1
10
36.4342586765054
20
-1.66790677372299
30
0
41
1
10
36.6682153729596
20
-1.79057260363112
30
0
41
1
10
36.7851409787553
20
-1.85140152344584
30
0
41
1
10
37.0190713072889
20
-1.97175224571024
30
0
41
1
10
37.1360695503734
20
-2.03128575675555
30
0
41
1
10
37.4871659654887
20
-2.20797353589896
30
0
41
1
10
37.7213604960433
20
-2.32322704499884
30
0
41
1
10
38.189964936717
20
-2.54874398005316
30
0
41
1
10
38.4243738588622
20
-2.65900762719698
30
0
41
1
10
38.7762152698957
20
-2.82050167184221
30
0
41
1
10
38.8935889239437
20
-2.87370603376797
30
0
41
1
10
39.127952682288
20
-2.97857540750175
30
0
41
1
10
39.2449908500085
20
-3.03024630876962
30
0
41
1
10
39.4789832151313
20
-3.13177317807336
30
0
41
1
10
39.5959363696325
20
-3.1816311281606
30
0
41
1
10
39.8299025613688
20
-3.27935582471105
30
0
41
1
10
39.9469093914546
20
-3.32723227797177
30
0
41
1
10
40.5320297781163
20
-3.56177279107709
30
0
41
1
10
41.0004146386255
20
-3.73397516047834
30
0
41
1
10
41.5864613959073
20
-3.92951837184819
30
0
41
1
10
41.7037196073096
20
-3.96763695449172
30
0
41
1
10
41.9383058178043
20
-4.04176209664891
30
0
41
1
10
42.0554787104359
20
-4.07771473421255
30
0
41
1
10
42.4068260607458
20
-4.18206898842047
30
0
41
1
10
42.6408049252124
20
-4.24699876488617
30
0
41
1
10
43.1083933019542
20
-4.36749066057783
30
0
41
1
10
43.3420300923531
20
-4.42301597463529
30
0
41
1
10
43.8097768441684
20
-4.52407797980388
30
0
41
1
10
44.0438639169026
20
-4.56964329920788
30
0
41
1
10
44.3954648583791
20
-4.63047588011071
30
0
41
1
10
44.512742828537
20
-4.64950082127652
30
0
41
1
10
44.7474599753163
20
-4.68503423749269
30
0
41
1
10
44.8649122010565
20
-4.70154269570571
30
0
41
1
10
45.2167618133109
20
-4.74716708852893
30
0
41
1
10
45.4509026604
20
-4.77242687193927
30
0
41
1
10
45.8015979179045
20
-4.8024901752986
30
0
41
1
10
45.9184062163763
20
-4.81120726143186
30
0
41
1
10
46.1518504579898
20
-4.82600726463602
30
0
41
1
10
46.2685109151506
20
-4.83208118777893
30
0
41
1
10
46.5840432805819
20
-4.84485124530542
30
0
41
1
10
46.7830736943126
20
-4.84901812348107
30
0
41
1
10
46.9823377077104
20
-4.8493571458018
30
0
0
SPLINE
5
F2
100
AcDbEntity
8
1
62
256
6
ByLayer
370
18
48
1
60
0
100
AcDbSpline
70
4
71
3
72
37
73
33
40
0
40
0
40
0
40
0
40
0.1663007135288
40
0.1663007135288
40
0.335134060344252
40
0.335134060344252
40
0.340410102432233
40
0.340410102432233
40
0.345686144520215
40
0.345686144520215
40
0.350962186608197
40
0.350962186608197
40
0.356238228696178
40
0.356238228696178
40
0.366790312872134
40
0.366790312872134
40
0.37734239704809
40
0.37734239704809
40
0.387894481224045
40
0.387894481224045
40
0.393170523312027
40
0.393170523312027
40
0.398446565400009
40
0.398446565400009
40
0.419550733751928
40
0.503967407159605
40
0.503967407159605
40
0.672800753974967
40
0.672800753974967
40
0.84163410079033
40
0.84163410079033
40
1
40
1
40
1
40
1
41
1
10
3.70386984923931
20
-4.77145483843978
30
0
41
1
10
3.82461913159463
20
-4.77162947043558
30
0
41
1
10
3.94772716705538
20
-4.76935067292044
30
0
41
1
10
4.19987865569573
20
-4.76070317662234
30
0
41
1
10
4.3289871116354
20
-4.75426924379303
30
0
41
1
10
4.46400201170221
20
-4.74584443116495
30
0
41
1
10
4.46809515032072
20
-4.74558743137575
30
0
41
1
10
4.47628496962889
20
-4.74507004502448
30
0
41
1
10
4.48036424469078
20
-4.74480634138666
30
0
41
1
10
4.48861743691876
20
-4.74429289937015
30
0
41
1
10
4.4928567943351
20
-4.74405653377326
30
0
41
1
10
4.50157045855002
20
-4.74364971055309
30
0
41
1
10
4.50605055643891
20
-4.74347816506435
30
0
41
1
10
4.51983963094725
20
-4.74305612144707
30
0
41
1
10
4.52917810249565
20
-4.7429038036837
30
0
41
1
10
4.54805320978826
20
-4.74279238515658
30
0
41
1
10
4.55764295969666
20
-4.74282738598075
30
0
41
1
10
4.57652217343645
20
-4.74305801638749
30
0
41
1
10
4.58584400153356
20
-4.7432644065662
30
0
41
1
10
4.59971540641132
20
-4.74365723416432
30
0
41
1
10
4.60431536019107
20
-4.74380310759449
30
0
41
1
10
4.61349484130594
20
-4.74409794627235
30
0
41
1
10
4.6180821172575
20
-4.74424586152253
30
0
41
1
10
4.6410194671154
20
-4.74498250818732
30
0
41
1
10
4.73272424543066
20
-4.74790619198487
30
0
41
1
10
4.82420259492665
20
-4.75070954849332
30
0
41
1
10
5.04327574658421
20
-4.75714145743288
30
0
41
1
10
5.18867502439252
20
-4.76103458289188
30
0
41
1
10
5.47821982569647
20
-4.76767786730952
30
0
41
1
10
5.62241404920147
20
-4.77042804157222
30
0
41
1
10
5.90014853382397
20
-4.77428573649098
30
0
41
1
10
6.03384879530211
20
-4.77548553578202
30
0
41
1
10
6.16686314507132
20
-4.77586926624093
30
0
0
SPLINE
5
F3
100
AcDbEntity
8
1
62
256
6
ByLayer
370
18
48
1
60
0
100
AcDbSpline
70
4
71
3
72
49
73
45
40
0
40
0
40
0
40
0
40
0.0058946667372788
40
0.0058946667372788
40
0.0558497074599649
40
0.0558497074599649
40
0.10580474818265
40
0.10580474818265
40
0.155759788905336
40
0.155759788905336
40
0.205714829628022
40
0.205714829628022
40
0.255669870350708
40
0.255669870350708
40
0.280647390712052
40
0.280647390712052
40
0.305624911073395
40
0.305624911073395
40
0.355579951796084
40
0.355579951796084
40
0.405534992518772
40
0.405534992518772
40
0.455490033241459
40
0.455490033241459
40
0.505445073964148
40
0.505445073964148
40
0.555400114686836
40
0.555400114686836
40
0.65531019613221
40
0.65531019613221
40
0.680287716493551
40
0.692776476674222
40
0.692776476674222
40
0.705265236854893
40
0.705265236854893
40
0.755220277577577
40
0.755220277577577
40
0.855130359022946
40
0.855130359022946
40
0.90508539974563
40
0.90508539974563
40
0.955040440468314
40
0.955040440468314
40
1
40
1
40
1
40
1
41
1
10
33.8491200231791
20
-0.262543045175704
30
0
41
1
10
33.8216001109384
20
-0.247735059270525
30
0
41
1
10
33.7940816484721
20
-0.232924333162799
30
0
41
1
10
33.5333502823761
20
-0.0926071767682117
30
0
41
1
10
33.3000079541774
20
0.0326505689661758
30
0
41
1
10
32.8330831297837
20
0.282703941201277
30
0
41
1
10
32.5995248679614
20
0.407545791280001
30
0
41
1
10
32.1317980213233
20
0.656061082321685
30
0
41
1
10
31.8976153391603
20
0.779707638539122
30
0
41
1
10
31.4285045595483
20
1.02557425764039
30
0
41
1
10
31.1935921475913
20
1.14782423515263
30
0
41
1
10
30.7225900429465
20
1.39007359081163
30
0
41
1
10
30.4864898042021
20
1.51005286069238
30
0
41
1
10
30.1312455320016
20
1.68793102954459
30
0
41
1
10
30.0129753807965
20
1.74671195650453
30
0
41
1
10
29.7769705704406
20
1.86306207003401
30
0
41
1
10
29.6592191828418
20
1.92065218680693
30
0
41
1
10
29.3062201991919
20
2.0914862696917
30
0
41
1
10
29.071110238901
20
2.20276675953292
30
0
41
1
10
28.601483262287
20
2.41984282763141
30
0
41
1
10
28.3669840069174
20
2.52565057514943
30
0
41
1
10
27.8985570714091
20
2.73131663420369
30
0
41
1
10
27.6646234671343
20
2.83118652803517
30
0
41
1
10
27.197433213862
20
3.02416182368162
30
0
41
1
10
26.9642211240874
20
3.11724122503878
30
0
41
1
10
26.4973009317945
20
3.29654173291206
30
0
41
1
10
26.2635489410875
20
3.38276774499315
30
0
41
1
10
25.5612635319665
20
3.63063145649792
30
0
41
1
10
25.0917282709656
20
3.78154484546275
30
0
41
1
10
24.5024254231593
20
3.94801753128482
30
0
41
1
10
24.3254615527178
20
3.99628165018518
30
0
41
1
10
24.1481244101395
20
4.04209444941009
30
0
41
1
10
24.0298029741723
20
4.07210034930878
30
0
41
1
10
23.9705687961557
20
4.08684124273177
30
0
41
1
10
23.6744335061285
20
4.15914843564744
30
0
41
1
10
23.4380091757051
20
4.21245834542532
30
0
41
1
10
22.7302601531104
20
4.35814549072947
30
0
41
1
10
22.260480086129
20
4.43628878714995
30
0
41
1
10
21.5580509261607
20
4.52190293568262
30
0
41
1
10
21.3242963043681
20
4.54514712976265
30
0
41
1
10
20.8566068610781
20
4.58223782796878
30
0
41
1
10
20.6226504408772
20
4.59612463740174
30
0
41
1
10
20.1779522901957
20
4.61286672916958
30
0
41
1
10
19.9672395021112
20
4.61666519898719
30
0
41
1
10
19.7563137328563
20
4.61636553922904
30
0
0
SPLINE
5
F4
100
AcDbEntity
8
1
62
256
6
ByLayer
370
13
48
1
60
0
100
AcDbSpline
70
4
71
3
72
37
73
33
40
0
40
0
40
0
40
0
40
0.0137584153103733
40
0.0137584153103733
40
0.106003797938262
40
0.198249180566151
40
0.198249180566151
40
0.244371871880095
40
0.267433217537068
40
0.267433217537068
40
0.29049456319404
40
0.29049456319404
40
0.382739945821929
40
0.382739945821929
40
0.428862637135874
40
0.428862637135874
40
0.474985328449818
40
0.474985328449818
40
0.567230711077707
40
0.567230711077707
40
0.613353402391651
40
0.613353402391651
40
0.659476093705596
40
0.659476093705596
40
0.751721476333484
40
0.751721476333484
40
0.797844167647428
40
0.797844167647428
40
0.843966858961373
40
0.843966858961373
40
0.936212241589262
40
1
40
1
40
1
40
1
41
1
10
16.1004925646907
20
4.60885310484756
30
0
41
1
10
16.1004913840517
20
4.60884565214025
30
0
41
1
10
16.1004902045578
20
4.60870966264912
30
0
41
1
10
16.1004811267073
20
4.6066760929163
30
0
41
1
10
16.100465444034
20
4.59165404974055
30
0
41
1
10
16.10045009065
20
4.55403767683947
30
0
41
1
10
16.1004387087998
20
4.51730131765154
30
0
41
1
10
16.1004330507687
20
4.49679918284545
30
0
41
1
10
16.1004274401852
20
4.47305916228999
30
0
41
1
10
16.1004237098634
20
4.45650686070999
30
0
41
1
10
16.1004218489527
20
4.44786352893087
30
0
41
1
10
16.1004125975791
20
4.40296482374217
30
0
41
1
10
16.1004053458387
20
4.36158105825413
30
0
41
1
10
16.1003946412247
20
4.29136679557075
30
0
41
1
10
16.1003911016134
20
4.26660368474907
30
0
41
1
10
16.100384068072
20
4.21434744573062
30
0
41
1
10
16.1003805704856
20
4.18682174033387
30
0
41
1
10
16.1003701705183
20
4.10049084787323
30
0
41
1
10
16.1003633517665
20
4.03787819644648
30
0
41
1
10
16.100353192354
20
3.93641099771432
30
0
41
1
10
16.1003498171324
20
3.90132878681379
30
0
41
1
10
16.1003430693195
20
3.82862998463153
30
0
41
1
10
16.1003396955901
20
3.79099701630133
30
0
41
1
10
16.1003295942004
20
3.67483203436586
30
0
41
1
10
16.1003228710563
20
3.59287345096681
30
0
41
1
10
16.1003126601668
20
3.46318542908747
30
0
41
1
10
16.100309235342
20
3.41882948254292
30
0
41
1
10
16.1003023171755
20
3.32784901181194
30
0
41
1
10
16.100298827629
20
3.28127308590661
30
0
41
1
10
16.1002882711767
20
3.13888301237657
30
0
41
1
10
16.1002761420025
20
2.97195543837225
30
0
41
1
10
16.1002633201497
20
2.79434488884752
30
0
41
1
10
16.1002579236192
20
2.71993116620106
30
0
0
SPLINE
5
F5
100
AcDbEntity
8
1
62
256
6
ByLayer
370
18
48
1
60
0
100
AcDbSpline
70
4
71
3
72
50
73
46
40
0
40
0
40
0
40
0
40
0.0208757747559684
40
0.0208757747559684
40
0.0705800334544855
40
0.0705800334544855
40
0.169988550851519
40
0.169988550851519
40
0.219692809550036
40
0.232118874224665
40
0.232118874224665
40
0.244544938899294
40
0.244544938899294
40
0.26939706824855
40
0.26939706824855
40
0.368805585645576
40
0.368805585645576
40
0.468214103042603
40
0.468214103042603
40
0.567622620439629
40
0.567622620439629
40
0.617326879138143
40
0.617326879138143
40
0.642179008487399
40
0.642179008487399
40
0.667031137836656
40
0.667031137836656
40
0.679457202511284
40
0.679457202511284
40
0.691883267185913
40
0.716735396535167
40
0.716735396535167
40
0.766439655233673
40
0.766439655233673
40
0.81614391393218
40
0.81614391393218
40
0.865848172630687
40
0.865848172630687
40
0.915552431329193
40
0.915552431329193
40
0.940404560678448
40
0.940404560678448
40
0.965256690027702
40
0.965256690027702
40
1
40
1
40
1
40
1
41
1
10
20.758188824141
20
0.306870468930612
30
0
41
1
10
20.8564752563177
20
0.254574596505193
30
0
41
1
10
20.9547537874141
20
0.202222931479867
30
0
41
1
10
21.2870554006919
20
0.0251377651672442
30
0
41
1
10
21.5211157802756
20
-0.0997138088229974
30
0
41
1
10
22.2238096801412
20
-0.473984507465815
30
0
41
1
10
22.6929471211124
20
-0.723136101604013
30
0
41
1
10
23.3996834186857
20
-1.09245094116386
30
0
41
1
10
23.6947888578931
20
-1.24541179427899
30
0
41
1
10
23.9910503154385
20
-1.39651227505948
30
0
41
1
10
24.109651670411
20
-1.45679558448873
30
0
41
1
10
24.1689839116166
20
-1.48685035353913
30
0
41
1
10
24.3467565025858
20
-1.57658084415326
30
0
41
1
10
24.4650919415414
20
-1.63588342471815
30
0
41
1
10
25.0559307478916
20
-1.92969328424974
30
0
41
1
10
25.5259301154116
20
-2.15609145545915
30
0
41
1
10
26.4635078941098
20
-2.58722055291764
30
0
41
1
10
26.931113099217
20
-2.79189630887927
30
0
41
1
10
27.8666725954219
20
-3.17528015575215
30
0
41
1
10
28.334598652028
20
-3.3540520063826
30
0
41
1
10
29.0387113220239
20
-3.60002202967959
30
0
41
1
10
29.2737856692364
20
-3.67830975648516
30
0
41
1
10
29.6272121027592
20
-3.78971613371544
30
0
41
1
10
29.7451574493561
20
-3.82584928769543
30
0
41
1
10
29.981377303837
20
-3.89609651790897
30
0
41
1
10
30.0996508076626
20
-3.93020768611777
30
0
41
1
10
30.2773303730379
20
-3.97977560491415
30
0
41
1
10
30.3366338478846
20
-3.99604067171961
30
0
41
1
10
30.4551482967712
20
-4.0279807185336
30
0
41
1
10
30.632776402757
20
-4.07500554366715
30
0
41
1
10
30.8100012575627
20
-4.11936476453693
30
0
41
1
10
31.1639848362261
20
-4.20449968353992
30
0
41
1
10
31.3993536904675
20
-4.25648399301878
30
0
41
1
10
31.8692364399428
20
-4.3508672046234
30
0
41
1
10
32.1037475008046
20
-4.39326147848024
30
0
41
1
10
32.572182103639
20
-4.46820028026792
30
0
41
1
10
32.8061081383918
20
-4.50075188743131
30
0
41
1
10
33.2737482139825
20
-4.55596554049046
30
0
41
1
10
33.5074611553305
20
-4.57862237506129
30
0
41
1
10
33.8581303744905
20
-4.60496601329109
30
0
41
1
10
33.9750384300679
20
-4.61248035771524
30
0
41
1
10
34.2089650666959
20
-4.62509545053041
30
0
41
1
10
34.3259807480132
20
-4.63018639548281
30
0
41
1
10
34.6067063130373
20
-4.6392925204099
30
0
41
1
10
34.7704673268743
20
-4.64208535156178
30
0
41
1
10
34.9343937776434
20
-4.64236927272097
30
0
0
SPLINE
5
F6
100
AcDbEntity
8
1
62
256
6
ByLayer
370
18
48
1
60
0
100
AcDbSpline
70
4
71
3
72
53
73
49
40
0
40
0
40
0
40
0
40
0.0988191134564026
40
0.0988191134564026
40
0.197638226912806
40
0.197638226912806
40
0.247047783641006
40
0.271752562005107
40
0.271752562005107
40
0.296457340369209
40
0.296457340369209
40
0.345866897097411
40
0.345866897097411
40
0.395276453825613
40
0.395276453825613
40
0.444686010553816
40
0.444686010553816
40
0.457038399735867
40
0.457038399735867
40
0.469390788917918
40
0.494095567282019
40
0.494095567282019
40
0.543505124010222
40
0.543505124010222
40
0.592914680738425
40
0.592914680738425
40
0.642324237466628
40
0.642324237466628
40
0.691733794194831
40
0.691733794194831
40
0.741143350923033
40
0.741143350923033
40
0.790552907651236
40
0.790552907651236
40
0.839962464379439
40
0.839962464379439
40
0.86466724274354
40
0.86466724274354
40
0.889372021107642
40
0.889372021107642
40
0.901724410289693
40
0.901724410289693
40
0.914076799471745
40
0.938781577835851
40
0.938781577835851
40
0.988191134564063
40
0.988191134564063
40
1
40
1
40
1
40
1
41
1
10
61.1879643070075
20
-0.338990754758413
30
0
41
1
10
60.7180175407211
20
-0.0836591627864607
30
0
41
1
10
60.2505103439404
20
0.170769413644621
30
0
41
1
10
59.3178099875579
20
0.673251176995592
30
0
41
1
10
58.8526053853029
20
0.921292660648589
30
0
41
1
10
58.1552908846407
20
1.28574508886607
30
0
41
1
10
57.8067558774998
20
1.46607421004904
30
0
41
1
10
57.4581654858383
20
1.64291663018901
30
0
41
1
10
57.2257287208267
20
1.75995428329017
30
0
41
1
10
57.1094977583801
20
1.81804647794681
30
0
41
1
10
56.7605536449821
20
1.99084963596789
30
0
41
1
10
56.5275132001401
20
2.10405203362441
30
0
41
1
10
56.0603658409595
20
2.32593428209475
30
0
41
1
10
55.8262695744703
20
2.43461901588441
30
0
41
1
10
55.3568494558716
20
2.64697335839278
30
0
41
1
10
55.1215325966247
20
2.75066381662282
30
0
41
1
10
54.8264480135077
20
2.87665668687327
30
0
41
1
10
54.7674280030815
20
2.90165474537724
30
0
41
1
10
54.6495612366436
20
2.95116272600111
30
0
41
1
10
54.4729342707919
20
3.02473078361524
30
0
41
1
10
54.2967458895204
20
3.09622616746651
30
0
41
1
10
53.9447428192301
20
3.23646511605142
30
0
41
1
10
53.7105171369875
20
3.32631499983213
30
0
41
1
10
53.2427527126583
20
3.49829879703464
30
0
41
1
10
53.0092246627181
20
3.58042700817634
30
0
41
1
10
52.5427465399096
20
3.73650850260526
30
0
41
1
10
52.3097979872648
20
3.81048248729192
30
0
41
1
10
51.8443332309726
20
3.94954413288949
30
0
41
1
10
51.6118644150339
20
4.01453946903826
30
0
41
1
10
51.1465220949307
20
4.13611630110407
30
0
41
1
10
50.913574497337
20
4.19281207961095
30
0
41
1
10
50.4471584224312
20
4.2971431416392
30
0
41
1
10
50.2137341555731
20
4.34471294110375
30
0
41
1
10
49.7460960468433
20
4.43035636862811
30
0
41
1
10
49.5118540404848
20
4.46851685078494
30
0
41
1
10
49.1598024674108
20
4.5176508121985
30
0
41
1
10
49.0423520109592
20
4.53262040093367
30
0
41
1
10
48.8071106890819
20
4.56004615355243
30
0
41
1
10
48.6892998210822
20
4.5725665189413
30
0
41
1
10
48.5122455255594
20
4.58967350896367
30
0
41
1
10
48.4531760254162
20
4.59509213883237
30
0
41
1
10
48.3351506585458
20
4.60534310681314
30
0
41
1
10
48.158199754793
20
4.61984412871141
30
0
41
1
10
47.9815156426975
20
4.63166304237555
30
0
41
1
10
47.6285171397484
20
4.65157884889121
30
0
41
1
10
47.3936778626325
20
4.65989226586322
30
0
41
1
10
47.1033677950032
20
4.66357655982989
30
0
41
1
10
47.0473980680849
20
4.66398431897574
30
0
41
1
10
46.9914590525931
20
4.66408019858485
30
0
0
SPLINE
5
F7
100
AcDbEntity
8
1
62
256
6
ByLayer
370
13
48
1
60
0
100
AcDbSpline
70
4
71
3
72
20
73
16
40
0
40
0
40
0
40
0
40
0.225753921877681
40
0.225753921877681
40
0.361546078397661
40
0.361546078397661
40
0.497338234917642
40
0.497338234917642
40
0.768922547957603
40
0.768922547957603
40
0.904714704477584
40
0.904714704477584
40
0.972610782737574
40
0.972610782737574
40
1
40
1
40
1
40
1
41
1
10
16.1005762192687
20
-4.3765858563647
30
0
41
1
10
16.1005705933273
20
-4.41116659204519
30
0
41
1
10
16.1005647321646
20
-4.44197018994481
30
0
41
1
10
16.100555050406
20
-4.48523373787248
30
0
41
1
10
16.1005513471103
20
-4.50011008265079
30
0
41
1
10
16.100543825597
20
-4.52708830100758
30
0
41
1
10
16.1005400060756
20
-4.53918844921248
30
0
41
1
10
16.1005284688752
20
-4.5711027657303
30
0
41
1
10
16.1005206522435
20
-4.58662357052913
30
0
41
1
10
16.1005088329732
20
-4.60129954326894
30
0
41
1
10
16.1005048771943
20
-4.60475531283447
30
0
41
1
10
16.1004989285718
20
-4.6077698021808
30
0
41
1
10
16.1004969425844
20
-4.60841242823534
30
0
41
1
10
16.100494161823
20
-4.60880441674428
30
0
41
1
10
16.1004933629956
20
-4.60885814404438
30
0
41
1
10
16.1004925646917
20
-4.60885310485438
30
0
0
SPLINE
5
F8
100
AcDbEntity
8
1
62
256
6
ByLayer
370
18
48
1
60
0
100
AcDbSpline
70
4
71
3
72
42
73
38
40
0
40
0
40
0
40
0
40
0.0388209240330245
40
0.0388209240330245
40
0.0655203428098821
40
0.0655203428098821
40
0.0922197615867402
40
0.0922197615867402
40
0.145618599140459
40
0.145618599140459
40
0.252416274247898
40
0.252416274247898
40
0.359213949355338
40
0.359213949355338
40
0.466011624462778
40
0.466011624462778
40
0.492711043239639
40
0.506060752628069
40
0.506060752628069
40
0.519410462016499
40
0.519410462016499
40
0.57280929957022
40
0.57280929957022
40
0.679606974677662
40
0.679606974677662
40
0.706306393454524
40
0.706306393454524
40
0.733005812231385
40
0.733005812231385
40
0.786404649785109
40
0.786404649785109
40
0.893202324892556
40
0.893202324892556
40
0.946601162446279
40
0.97330058122314
40
0.97330058122314
40
1
40
1
40
1
40
1
41
1
10
48.0527661530567
20
0.259313904796102
30
0
41
1
10
48.2241060448818
20
0.167093742934867
30
0
41
1
10
48.3957699437279
20
0.0745231197218459
30
0
41
1
10
48.6861640664171
20
-0.0820831939599032
30
0
41
1
10
48.8044191462601
20
-0.145854485765568
30
0
41
1
10
49.0404814504186
20
-0.273026875226577
30
0
41
1
10
49.1583421009873
20
-0.336460585818116
30
0
41
1
10
49.5114754008975
20
-0.526205854014734
30
0
41
1
10
49.7462989551723
20
-0.651958074241577
30
0
41
1
10
50.4494548711383
20
-1.02609168471159
30
0
41
1
10
50.9164579554266
20
-1.27140044538777
30
0
41
1
10
51.8498582903732
20
-1.74853317245208
30
0
41
1
10
52.3161930652772
20
-1.98047832575352
30
0
41
1
10
53.2508009412162
20
-2.42638715486822
30
0
41
1
10
53.7190996093512
20
-2.64030465383718
30
0
41
1
10
54.307461792086
20
-2.89329588392349
30
0
41
1
10
54.4841944604319
20
-2.9681147087569
30
0
41
1
10
54.6613101723305
20
-3.04124162242141
30
0
41
1
10
54.7794777395175
20
-3.08960850104884
30
0
41
1
10
54.8386360937186
20
-3.11361169931976
30
0
41
1
10
55.1342920165725
20
-3.23249120243816
30
0
41
1
10
55.3700524232852
20
-3.32382691356543
30
0
41
1
10
56.0755773444258
20
-3.58590439361552
30
0
41
1
10
56.5435737332488
20
-3.74471587831721
30
0
41
1
10
57.1272490856286
20
-3.92156582536612
30
0
41
1
10
57.2439318418185
20
-3.95586744526835
30
0
41
1
10
57.4772647315208
20
-4.02233187989972
30
0
41
1
10
57.5939032719076
20
-4.05448452969333
30
0
41
1
10
57.9437290072471
20
-4.14759385850189
30
0
41
1
10
58.1768486699085
20
-4.20521800997602
30
0
41
1
10
58.8765209461079
20
-4.36431126510345
30
0
41
1
10
59.343376690909
20
-4.45200669195322
30
0
41
1
10
60.0462361316974
20
-4.5540444015806
30
0
41
1
10
60.398309293835
20
-4.59768649613207
30
0
41
1
10
60.7517252808308
20
-4.62992979650008
30
0
41
1
10
60.9876759988712
20
-4.64885263300189
30
0
41
1
10
61.1058890024733
20
-4.65703128890823
30
0
41
1
10
61.224097003185
20
-4.66389296396474
30
0
0
SPLINE
5
F9
100
AcDbEntity
8
1
62
256
6
ByLayer
370
18
48
1
60
0
100
AcDbSpline
70
4
71
3
72
51
73
47
40
0
40
0
40
0
40
0
40
0.0624999999999997
40
0.0624999999999997
40
0.0937499999999999
40
0.109375
40
0.109375
40
0.125
40
0.125
40
0.1875
40
0.1875
40
0.25
40
0.312499999999999
40
0.312499999999999
40
0.343749999999999
40
0.343749999999999
40
0.359375
40
0.359375
40
0.375
40
0.4375
40
0.4375
40
0.468750000000001
40
0.468750000000001
40
0.500000000000001
40
0.500000000000001
40
0.562500000000002
40
0.562500000000002
40
0.593750000000002
40
0.593750000000002
40
0.625000000000002
40
0.625000000000002
40
0.687500000000003
40
0.687500000000003
40
0.718750000000003
40
0.718750000000003
40
0.750000000000003
40
0.750000000000003
40
0.812500000000003
40
0.812500000000003
40
0.828125000000003
40
0.828125000000003
40
0.843750000000003
40
0.875000000000002
40
0.875000000000002
40
0.937500000000001
40
1
40
1
40
1
40
1
41
1
10
61.1879643070088
20
-0.338990754758527
30
0
41
1
10
61.1717658016058
20
-0.474626576656391
30
0
41
1
10
61.1575944316287
20
-0.60955904784322
30
0
41
1
10
61.1388895651933
20
-0.810858272282047
30
0
41
1
10
61.1301764344173
20
-0.911232700442127
30
0
41
1
10
61.1223411487015
20
-1.01118303740006
30
0
41
1
10
61.1173043534105
20
-1.07772087512819
30
0
41
1
10
61.1148789852693
20
-1.11094897743371
30
0
41
1
10
61.1032404252037
20
-1.27622302678
30
0
41
1
10
61.0954469383873
20
-1.40617357966371
30
0
41
1
10
61.0822669052893
20
-1.66163182380387
30
0
41
1
10
61.0714951672267
20
-1.91264665819443
30
0
41
1
10
61.0645670225379
20
-2.15477246989855
30
0
41
1
10
61.0605377269818
20
-2.3329608278307
30
0
41
1
10
61.0593900027063
20
-2.39178852473046
30
0
41
1
10
61.0579352473274
20
-2.47916110179102
30
0
41
1
10
61.0574945210963
20
-2.5081667913727
30
0
41
1
10
61.0567006035736
20
-2.56571966701154
30
0
41
1
10
61.0549352583166
20
-2.70847189315103
30
0
41
1
10
61.0541947170079
20
-2.84561461831396
30
0
41
1
10
61.0541384895512
20
-3.00481144538333
30
0
41
1
10
61.0542595940923
20
-3.05698004718656
30
0
41
1
10
61.0547695072616
20
-3.15950954857615
30
0
41
1
10
61.0551577894513
20
-3.20973850077027
30
0
41
1
10
61.0567081982779
20
-3.357102347096
30
0
41
1
10
61.0582519460716
20
-3.45102382425597
30
0
41
1
10
61.0613604629075
20
-3.58542173513044
30
0
41
1
10
61.0625311041307
20
-3.62917710946732
30
0
41
1
10
61.0651514244175
20
-3.7143252536701
30
0
41
1
10
61.0665988605039
20
-3.75565566874255
30
0
41
1
10
61.0713843927916
20
-3.8759422173874
30
0
41
1
10
61.0751613139037
20
-3.95120066599995
30
0
41
1
10
61.0819097543589
20
-4.05666675944317
30
0
41
1
10
61.084344107904
20
-4.09061944453015
30
0
41
1
10
61.0896007004727
20
-4.15575768952769
30
0
41
1
10
61.0924236057474
20
-4.18696412671756
30
0
41
1
10
61.1015466459889
20
-4.27651949940983
30
0
41
1
10
61.1084968730178
20
-4.33081205923855
30
0
41
1
10
61.118565407617
20
-4.39187982884158
30
0
41
1
10
61.1206501878342
20
-4.4037616731778
30
0
41
1
10
61.1249575228468
20
-4.42679046502258
30
0
41
1
10
61.131624142586
20
-4.4602292688345
30
0
41
1
10
61.1389393454872
20
-4.49038212677738
30
0
41
1
10
61.1545272799198
20
-4.54635592755432
30
0
41
1
10
61.1778588441668
20
-4.60945086184995
30
0
41
1
10
61.2074191576914
20
-4.6496222943081
30
0
41
1
10
61.2240969996567
20
-4.66389296399444
30
0
0
SPLINE
5
FA
100
AcDbEntity
8
1
62
256
6
ByLayer
370
18
48
1
60
0
100
AcDbSpline
70
4
71
3
72
8
73
4
40
0
40
0
40
0
40
0
40
1
40
1
40
1
40
1
41
1
10
62.4778583633421
20
1.64444814316457
30
0
41
1
10
62.6111660229325
20
1.27033754397831
30
0
41
1
10
62.7433123072949
20
0.895820452397714
30
0
41
1
10
62.8742728049063
20
0.520888324157141
30
0
0
SPLINE
5
FB
100
AcDbEntity
8
1
62
256
6
ByLayer
370
18
48
1
60
0
100
AcDbSpline
70
4
71
3
72
8
73
4
40
0
40
0
40
0
40
0
40
1
40
1
40
1
40
1
41
1
10
62.8742728049063
20
0.520888324157141
30
0
41
1
10
62.9147834232506
20
0.404908829353929
30
0
41
1
10
62.956235281428
20
0.289458414951753
30
0
41
1
10
62.9986285858577
20
0.174515919145932
30
0
0
SPLINE
5
FC
100
AcDbEntity
8
1
62
256
6
ByLayer
370
18
48
1
60
0
100
AcDbSpline
70
4
71
3
72
28
73
24
40
0
40
0
40
0
40
0
40
0.0381677776934084
40
0.0381677776934084
40
0.125607070630376
40
0.125607070630376
40
0.300485656504339
40
0.300485656504339
40
0.344205302972822
40
0.344205302972822
40
0.387924949441305
40
0.387924949441305
40
0.475364242378271
40
0.475364242378271
40
0.650242828252169
40
0.650242828252169
40
0.737682121189118
40
0.737682121189118
40
0.781401767657611
40
0.781401767657611
40
0.825121414126104
40
0.825121414126104
40
1
40
1
40
1
40
1
41
1
10
60.9362120975573
20
1.15931942173111
30
0
41
1
10
60.9453144621805
20
1.16517718947313
30
0
41
1
10
60.9545011182581
20
1.17109777064178
30
0
41
1
10
60.9850081644057
20
1.19078466794554
30
0
41
1
10
61.0066714603526
20
1.20482931707824
30
0
41
1
10
61.0731252811463
20
1.2476761662335
30
0
41
1
10
61.1193963616729
20
1.27716483793549
30
0
41
1
10
61.1808379695821
20
1.31349728438676
30
0
41
1
10
61.1933090411148
20
1.32073387334518
30
0
41
1
10
61.2186452292812
20
1.3351064119972
30
0
41
1
10
61.2315006435415
20
1.34223940822764
30
0
41
1
10
61.270284678488
20
1.36326864335581
30
0
41
1
10
61.2965517051369
20
1.37686662721933
30
0
41
1
10
61.3766055439312
20
1.41625709832036
30
0
41
1
10
61.431659752102
20
1.44061339212789
30
0
41
1
10
61.5172085861485
20
1.47299649592449
30
0
41
1
10
61.5462193957922
20
1.48309954326439
30
0
41
1
10
61.5905300375291
20
1.49706327211459
30
0
41
1
10
61.6054613133654
20
1.50152701475631
30
0
41
1
10
61.635372585504
20
1.5099718359516
30
0
41
1
10
61.6503689767003
20
1.51395892684798
30
0
41
1
10
61.7255606944284
20
1.53270031293087
30
0
41
1
10
61.7863901276712
20
1.54385147612837
30
0
41
1
10
61.8479324739203
20
1.55110987929794
30
0
0
SPLINE
5
FD
100
AcDbEntity
8
1
62
256
6
ByLayer
370
18
48
1
60
0
100
AcDbSpline
70
4
71
3
72
12
73
8
40
0
40
0
40
0
40
0
40
0.25
40
0.25
40
0.5
40
0.5
40
1
40
1
40
1
40
1
41
1
10
61.8479324739203
20
1.55110987929797
30
0
41
1
10
61.9006623816867
20
1.55732892931783
30
0
41
1
10
61.9533786324486
20
1.56383687767615
30
0
41
1
10
62.0587387394865
20
1.57749872831076
30
0
41
1
10
62.1113597008619
20
1.58464288653633
30
0
41
1
10
62.2689584613354
20
1.60747541568114
30
0
41
1
10
62.3736443329887
20
1.62471122212816
30
0
41
1
10
62.477858363342
20
1.64444814316457
30
0
0
SPLINE
5
FE
100
AcDbEntity
8
1
62
256
6
ByLayer
370
18
48
1
60
0
100
AcDbSpline
70
4
71
3
72
32
73
28
40
0
40
0
40
0
40
0
40
0.125000000000003
40
0.125000000000003
40
0.250000000000006
40
0.250000000000006
40
0.375000000000009
40
0.375000000000009
40
0.500000000000012
40
0.500000000000012
40
0.562500000000014
40
0.562500000000014
40
0.593750000000015
40
0.609375000000013
40
0.609375000000013
40
0.625000000000011
40
0.625000000000011
40
0.687500000000009
40
0.687500000000009
40
0.718750000000011
40
0.718750000000011
40
0.750000000000012
40
0.875000000000003
40
0.875000000000003
40
0.937500000000002
40
0.937500000000002
40
1
40
1
40
1
40
1
41
1
10
61.3955142111997
20
4.45675396745412
30
0
41
1
10
61.4365167994052
20
4.33749458450069
30
0
41
1
10
61.4778002621127
20
4.21796226115637
30
0
41
1
10
61.5610004000974
20
3.97848015228098
30
0
41
1
10
61.6029127808854
20
3.85853103611922
30
0
41
1
10
61.6874792767164
20
3.6183099618261
30
0
41
1
10
61.7300946152311
20
3.49814528147996
30
0
41
1
10
61.8159577375219
20
3.25800862711262
30
0
41
1
10
61.8592258283433
20
3.13797544847853
30
0
41
1
10
61.9246080391456
20
2.95810238357987
30
0
41
1
10
61.9464790211625
20
2.89818355527729
30
0
41
1
10
61.9794037165382
20
2.80836341458306
30
0
41
1
10
61.9958952355108
20
2.76346768093006
30
0
41
1
10
62.0124306397221
20
2.71859324442002
30
0
41
1
10
62.0234640391059
20
2.68868167973901
30
0
41
1
10
62.0289809023962
20
2.67372592810076
30
0
41
1
10
62.0567275556705
20
2.59902694136883
30
0
41
1
10
62.0793545000702
20
2.53947849430028
30
0
41
1
10
62.1140550580486
20
2.45052084173429
30
0
41
1
10
62.1257367179195
20
2.42095629984635
30
0
41
1
10
62.1492372956373
20
2.36226985556857
30
0
41
1
10
62.2084032784884
20
2.21647455513977
30
0
41
1
10
62.2697675760391
20
2.07531770801217
30
0
41
1
10
62.3458860767104
20
1.91041794138488
30
0
41
1
10
62.371669955592
20
1.85619488723501
30
0
41
1
10
62.4240969591857
20
1.74920432257059
30
0
41
1
10
62.4507405590254
20
1.6964384664785
30
0
41
1
10
62.477858363342
20
1.64444814316459
30
0
0
SPLINE
5
FF
100
AcDbEntity
8
1
62
256
6
ByLayer
370
18
48
1
60
0
100
AcDbSpline
70
4
71
3
72
8
73
4
40
0
40
0
40
0
40
0
40
1
40
1
40
1
40
1
41
1
10
61.2737598870471
20
4.66787897067141
30
0
41
1
10
61.314318283543
20
4.59750697727549
30
0
41
1
10
61.3549030984398
20
4.5271311903636
30
0
41
1
10
61.3955142111997
20
4.45675396745415
30
0
0
SPLINE
5
100
100
AcDbEntity
8
1
62
256
6
ByLayer
370
18
48
1
60
0
100
AcDbSpline
70
4
71
3
72
8
73
4
40
0
40
0
40
0
40
0
40
1
40
1
40
1
40
1
41
1
10
61.2737598878323
20
-4.66787896930938
30
0
41
1
10
61.3143182840668
20
-4.59750697636761
30
0
41
1
10
61.3549030987018
20
-4.52713118990999
30
0
41
1
10
61.3955142111996
20
-4.45675396745474
30
0
0
SPLINE
5
101
100
AcDbEntity
8
1
62
256
6
ByLayer
370
18
48
1
60
0
100
AcDbSpline
70
4
71
3
72
13
73
9
40
0
40
0
40
0
40
0
40
0.500000000000011
40
0.500000000000011
40
0.625000000000004
40
0.625000000000004
40
0.749999999999998
40
1
40
1
40
1
40
1
41
1
10
61.3955142111995
20
-4.45675396745483
30
0
41
1
10
61.3617341521272
20
-4.50743520200547
30
0
41
1
10
61.3304330184372
20
-4.55101694342315
30
0
41
1
10
61.2944168105175
20
-4.59563098117903
30
0
41
1
10
61.2873612074365
20
-4.60406828623093
30
0
41
1
10
61.2735937708892
20
-4.61988599887678
30
0
41
1
10
61.2535728004947
20
-4.64189744570692
30
0
41
1
10
61.2353644857709
20
-4.6588526131967
30
0
41
1
10
61.2239670732098
20
-4.66797206130821
30
0
0
SPLINE
5
102
100
AcDbEntity
8
1
62
256
6
ByLayer
370
18
48
1
60
0
100
AcDbSpline
70
4
71
3
72
32
73
28
40
0
40
0
40
0
40
0
40
0.125000000000014
40
0.125000000000014
40
0.250000000000028
40
0.250000000000028
40
0.375000000000042
40
0.375000000000042
40
0.500000000000055
40
0.500000000000055
40
0.56250000000006
40
0.56250000000006
40
0.593750000000063
40
0.609375000000061
40
0.609375000000061
40
0.62500000000006
40
0.62500000000006
40
0.687500000000051
40
0.687500000000051
40
0.718750000000049
40
0.718750000000049
40
0.750000000000047
40
0.875000000000023
40
0.875000000000023
40
0.937500000000012
40
0.937500000000012
40
1
40
1
40
1
40
1
41
1
10
61.3955142111995
20
-4.45675396745474
30
0
41
1
10
61.4365167994051
20
-4.33749458450131
30
0
41
1
10
61.4778002621127
20
-4.217962261157
30
0
41
1
10
61.5610004000973
20
-3.9784801522816
30
0
41
1
10
61.6029127808853
20
-3.85853103611981
30
0
41
1
10
61.6874792767163
20
-3.6183099618267
30
0
41
1
10
61.730094615231
20
-3.49814528148056
30
0
41
1
10
61.8159577375218
20
-3.25800862711321
30
0
41
1
10
61.8592258283432
20
-3.13797544847907
30
0
41
1
10
61.9246080391455
20
-2.95810238358041
30
0
41
1
10
61.9464790211625
20
-2.89818355527785
30
0
41
1
10
61.9794037165381
20
-2.80836341458362
30
0
41
1
10
61.9958952355107
20
-2.76346768093063
30
0
41
1
10
62.0124306397221
20
-2.71859324442059
30
0
41
1
10
62.0234640391058
20
-2.68868167973955
30
0
41
1
10
62.0289809023961
20
-2.67372592810133
30
0
41
1
10
62.0567275556704
20
-2.59902694136937
30
0
41
1
10
62.0793545000702
20
-2.53947849430085
30
0
41
1
10
62.1140550580486
20
-2.45052084173486
30
0
41
1
10
62.1257367179194
20
-2.42095629984686
30
0
41
1
10
62.1492372956372
20
-2.36226985556911
30
0
41
1
10
62.2084032784884
20
-2.21647455514028
30
0
41
1
10
62.2697675760391
20
-2.07531770801268
30
0
41
1
10
62.3458860767103
20
-1.91041794138539
30
0
41
1
10
62.371669955592
20
-1.85619488723546
30
0
41
1
10
62.4240969591857
20
-1.74920432257105
30
0
41
1
10
62.4507405590254
20
-1.69643846647895
30
0
41
1
10
62.477858363342
20
-1.64444814316505
30
0
0
SPLINE
5
103
100
AcDbEntity
8
1
62
256
6
ByLayer
370
18
48
1
60
0
100
AcDbSpline
70
4
71
3
72
8
73
4
40
0
40
0
40
0
40
0
40
1
40
1
40
1
40
1
41
1
10
62.477858363342
20
-1.64444814316505
30
0
41
1
10
62.6111660229325
20
-1.27033754397877
30
0
41
1
10
62.7433123072949
20
-0.895820452398141
30
0
41
1
10
62.8742728049063
20
-0.520888324157539
30
0
0
SPLINE
5
104
100
AcDbEntity
8
1
62
256
6
ByLayer
370
18
48
1
60
0
100
AcDbSpline
70
4
71
3
72
8
73
4
40
0
40
0
40
0
40
0
40
1
40
1
40
1
40
1
41
1
10
62.8742728049064
20
-0.520888324157568
30
0
41
1
10
62.9147834232503
20
-0.404908829355378
30
0
41
1
10
62.9562352814273
20
-0.289458414954197
30
0
41
1
10
62.9986285858566
20
-0.174515919149428
30
0
0
SPLINE
5
105
100
AcDbEntity
8
1
62
256
6
ByLayer
370
18
48
1
60
0
100
AcDbSpline
70
4
71
3
72
8
73
4
40
0
40
0
40
0
40
0
40
1
40
1
40
1
40
1
41
1
10
62.9986285858577
20
-0.174515919148064
30
0
41
1
10
63.0004542922298
20
-0.0583530417314932
30
0
41
1
10
63.0004599927487
20
0.0579903390042773
30
0
41
1
10
62.9986285858577
20
0.174515919145932
30
0
0
SPLINE
5
106
100
AcDbEntity
8
1
62
256
6
ByLayer
370
18
48
1
60
0
100
AcDbSpline
70
4
71
3
72
56
73
52
40
0
40
0
40
0
40
0
40
0.0625000000000011
40
0.0625000000000011
40
0.0937500000000017
40
0.0937500000000017
40
0.109375000000002
40
0.109375000000002
40
0.125000000000002
40
0.125000000000002
40
0.187499999999992
40
0.187499999999992
40
0.249999999999981
40
0.249999999999981
40
0.281249999999979
40
0.281249999999979
40
0.312499999999977
40
0.312499999999977
40
0.374999999999979
40
0.374999999999979
40
0.40624999999998
40
0.40624999999998
40
0.421874999999981
40
0.421874999999981
40
0.437499999999981
40
0.437499999999981
40
0.499999999999984
40
0.499999999999984
40
0.531249999999985
40
0.531249999999985
40
0.562499999999986
40
0.562499999999986
40
0.624999999999989
40
0.624999999999989
40
0.65624999999999
40
0.65624999999999
40
0.687499999999991
40
0.687499999999991
40
0.74999999999999
40
0.74999999999999
40
0.781249999999991
40
0.781249999999991
40
0.812499999999992
40
0.812499999999992
40
0.874999999999995
40
0.874999999999995
40
0.937499999999997
40
0.937499999999997
40
0.968749999999998
40
0.968749999999998
40
1
40
1
40
1
40
1
41
1
10
62.9986285858578
20
0.174515919146017
30
0
41
1
10
62.9788863607465
20
0.118624687034185
30
0
41
1
10
62.958023556321
20
0.0632657785449169
30
0
41
1
10
62.9250376193311
20
-0.0189573550532316
30
0
41
1
10
62.9137595053833
20
-0.046228786239169
30
0
41
1
10
62.8964078530187
20
-0.0869250775231194
30
0
41
1
10
62.8905408747612
20
-0.100478976551585
30
0
41
1
10
62.8787456879717
20
-0.127320359082773
30
0
41
1
10
62.8728108938762
20
-0.140624036889818
30
0
41
1
10
62.8429557778452
20
-0.206560213315811
30
0
41
1
10
62.818495360938
20
-0.257454302918916
30
0
41
1
10
62.768492511973
20
-0.355476263468262
30
0
41
1
10
62.7429506425511
20
-0.402606296867532
30
0
41
1
10
62.7038109982473
20
-0.470257796553739
30
0
41
1
10
62.6905668136248
20
-0.492389740105153
30
0
41
1
10
62.6642595073998
20
-0.534824501492409
30
0
41
1
10
62.6511607156734
20
-0.55519587105087
30
0
41
1
10
62.6120305384078
20
-0.613792507606803
30
0
41
1
10
62.5861660632893
20
-0.649514441991641
30
0
41
1
10
62.5476968213215
20
-0.697918192368178
30
0
41
1
10
62.5349281478443
20
-0.713186174992813
30
0
41
1
10
62.5158542448064
20
-0.734732966757576
30
0
41
1
10
62.5094961584475
20
-0.741702490123515
30
0
41
1
10
62.4969222598775
20
-0.755055779369826
30
0
41
1
10
62.4906958198913
20
-0.761452462765391
30
0
41
1
10
62.4598580814222
20
-0.792055418425321
30
0
41
1
10
62.4361270879411
20
-0.812142463553187
30
0
41
1
10
62.4018241308336
20
-0.835774787077042
30
0
41
1
10
62.3906060116931
20
-0.842564822449958
30
0
41
1
10
62.3685896016156
20
-0.853933863430512
30
0
41
1
10
62.3577576229996
20
-0.858516522416011
30
0
41
1
10
62.3264107215334
20
-0.868710887048593
30
0
41
1
10
62.3068761704212
20
-0.870897661305719
30
0
41
1
10
62.2793755869889
20
-0.867625179169721
30
0
41
1
10
62.2705102510109
20
-0.865437830194793
30
0
41
1
10
62.2533556883262
20
-0.858882404542641
30
0
41
1
10
62.2450381222265
20
-0.854490270970871
30
0
41
1
10
62.2212223616462
20
-0.8382516183419
30
0
41
1
10
62.2067949643807
20
-0.823374781914964
30
0
41
1
10
62.1870316742394
20
-0.79545951499054
30
0
41
1
10
62.1807585005919
20
-0.785217378469696
30
0
41
1
10
62.1688084324311
20
-0.762899886401812
30
0
41
1
10
62.1631248152124
20
-0.750808009801602
30
0
41
1
10
62.146975662508
20
-0.711916461352843
30
0
41
1
10
62.1375472759819
20
-0.682872666921668
30
0
41
1
10
62.1210037422427
20
-0.619133762950469
30
0
41
1
10
62.1138905257724
20
-0.584435334230051
30
0
41
1
10
62.1048087165109
20
-0.528363564445812
30
0
41
1
10
62.1020439795219
20
-0.508973496167357
30
0
41
1
10
62.0970488235778
20
-0.468994786462844
30
0
41
1
10
62.0948210106432
20
-0.448435657667488
30
0
41
1
10
62.0928527826298
20
-0.427322974368792
30
0
0
SPLINE
5
107
100
AcDbEntity
8
1
62
256
6
ByLayer
370
18
48
1
60
0
100
AcDbSpline
70
4
71
3
72
8
73
4
40
0
40
0
40
0
40
0
40
1
40
1
40
1
40
1
41
1
10
62.0928527826298
20
-0.427322974368792
30
0
41
1
10
62.0560362044114
20
-0.0324008663823179
30
0
41
1
10
62.0027831981969
20
0.369932688933858
30
0
41
1
10
61.9334420441942
20
0.779520646483434
30
0
0
SPLINE
5
108
100
AcDbEntity
8
1
62
256
6
ByLayer
370
18
48
1
60
0
100
AcDbSpline
70
4
71
3
72
22
73
18
40
0
40
0
40
0
40
0
40
0.0625000000000039
40
0.0625000000000039
40
0.125000000000008
40
0.125000000000008
40
0.250000000000007
40
0.250000000000007
40
0.375000000000006
40
0.375000000000006
40
0.500000000000005
40
0.500000000000005
40
0.625000000000004
40
0.625000000000004
40
0.750000000000003
40
0.750000000000003
40
1
40
1
40
1
40
1
41
1
10
61.9334420441942
20
0.779520646483434
30
0
41
1
10
61.9185694274766
20
0.776992374911515
30
0
41
1
10
61.9036433546832
20
0.773941009265656
30
0
41
1
10
61.8737451143993
20
0.767212809228823
30
0
41
1
10
61.858772004926
20
0.763532333135913
30
0
41
1
10
61.8137350902088
20
0.751026490723916
30
0
41
1
10
61.783565871508
20
0.740833184872542
30
0
41
1
10
61.7230374266368
20
0.71685165042507
30
0
41
1
10
61.6926719421449
20
0.703007807673515
30
0
41
1
10
61.6318123240551
20
0.67148247677855
30
0
41
1
10
61.6013191261993
20
0.653802535868437
30
0
41
1
10
61.5403351149844
20
0.615105898087336
30
0
41
1
10
61.5098093725519
20
0.594026631126269
30
0
41
1
10
61.4491879814568
20
0.549264197385725
30
0
41
1
10
61.4190555646025
20
0.525456013492459
30
0
41
1
10
61.3292859467915
20
0.449358518512526
30
0
41
1
10
61.2702761487892
20
0.392598576112818
30
0
41
1
10
61.2123378092114
20
0.329719296527458
30
0
0
SPLINE
5
109
100
AcDbEntity
8
1
62
256
6
ByLayer
370
18
48
1
60
0
100
AcDbSpline
70
4
71
3
72
8
73
4
40
0
40
0
40
0
40
0
40
1
40
1
40
1
40
1
41
1
10
61.1156668660057
20
-4.84250019354346
30
0
41
1
10
61.1504384847944
20
-4.78686606633053
30
0
41
1
10
61.1852545688486
20
-4.73096194361659
30
0
41
1
10
61.2201209268088
20
-4.67478912485703
30
0
0
SPLINE
5
10A
100
AcDbEntity
8
1
62
256
6
ByLayer
370
18
48
1
60
0
100
AcDbSpline
70
4
71
3
72
12
73
8
40
0
40
0
40
0
40
0
40
0.5
40
0.5
40
0.75
40
0.75
40
1
40
1
40
1
40
1
41
1
10
61.1156668659909
20
-4.84250019356915
30
0
41
1
10
61.1208440654411
20
-4.85276485777106
30
0
41
1
10
61.1260266267787
20
-4.86059492176798
30
0
41
1
10
61.1338167455101
20
-4.86867631153845
30
0
41
1
10
61.1364176712088
20
-4.87075985015358
30
0
41
1
10
61.1416167314308
20
-4.8736947228499
30
0
41
1
10
61.1442143724313
20
-4.87454670739791
30
0
41
1
10
61.1468101263295
20
-4.8747855867814
30
0
0
SPLINE
5
10B
100
AcDbEntity
8
1
62
256
6
ByLayer
370
18
48
1
60
0
100
AcDbSpline
70
4
71
3
72
78
73
74
40
0
40
0
40
0
40
0
40
0.0537114620012125
40
0.0537114620012125
40
0.0671393275015154
40
0.0671393275015154
40
0.0805671930018182
40
0.107422924002424
40
0.107422924002424
40
0.13427865500303
40
0.13427865500303
40
0.147706520503332
40
0.147706520503332
40
0.161134386003634
40
0.161134386003634
40
0.214845848004843
40
0.214845848004843
40
0.228273713505146
40
0.228273713505146
40
0.241701579005449
40
0.268557310006056
40
0.268557310006056
40
0.322268772007269
40
0.322268772007269
40
0.335696637507572
40
0.335696637507572
40
0.349124503007875
40
0.375980234008481
40
0.375980234008481
40
0.429691696009692
40
0.429691696009692
40
0.443119561509996
40
0.443119561509996
40
0.456547427010299
40
0.456547427010299
40
0.483403158010908
40
0.483403158010908
40
0.537114620012126
40
0.537114620012126
40
0.55054248551243
40
0.55054248551243
40
0.563970351012734
40
0.563970351012734
40
0.590826082013342
40
0.590826082013342
40
0.644537544014558
40
0.644537544014558
40
0.671393275015166
40
0.671393275015166
40
0.698249006015773
40
0.698249006015773
40
0.725104737016381
40
0.725104737016381
40
0.751960468016988
40
0.751960468016988
40
0.778816199017596
40
0.778816199017596
40
0.7922440645179
40
0.7922440645179
40
0.805671930018203
40
0.805671930018203
40
0.859383392019417
40
0.859383392019417
40
0.886239123020025
40
0.886239123020025
40
0.899666988520329
40
0.899666988520329
40
0.913094854020633
40
0.913094854020633
40
0.96680631602185
40
0.96680631602185
40
0.993662047022458
40
1
40
1
40
1
40
1
41
1
10
61.115666866005
20
-4.84250019356904
30
0
41
1
10
60.6468856362275
20
-4.81127125133531
30
0
41
1
10
60.1784868535474
20
-4.75877375914311
30
0
41
1
10
59.5917952321714
20
-4.66726158177991
30
0
41
1
10
59.4743528644002
20
-4.64765584155677
30
0
41
1
10
59.2396150236181
20
-4.60592595294216
30
0
41
1
10
58.8876772914508
20
-4.53954886318346
30
0
41
1
10
58.5360544832648
20
-4.46196955863945
30
0
41
1
10
58.067146732683
20
-4.34883354360935
30
0
41
1
10
57.8326529949174
20
-4.28741632927313
30
0
41
1
10
57.4805282890173
20
-4.18826693227317
30
0
41
1
10
57.3630545748278
20
-4.15403552375489
30
0
41
1
10
57.1283254279578
20
-4.08332329902234
30
0
41
1
10
57.0110362070823
20
-4.04683334228918
30
0
41
1
10
56.4247123254206
20
-3.8589731926354
30
0
41
1
10
55.9560572072998
20
-3.691377680421
30
0
41
1
10
55.3690797955684
20
-3.46212094304039
30
0
41
1
10
55.2516010425678
20
-3.4152707674759
30
0
41
1
10
55.0169129982434
20
-3.31982986502842
30
0
41
1
10
54.6651302729699
20
-3.1739978916562
30
0
41
1
10
54.3138692919619
20
-3.02048151544238
30
0
41
1
10
53.6114761932225
20
-2.70403501140439
30
0
41
1
10
53.1433943681187
20
-2.48050882148973
30
0
41
1
10
52.5567259791315
20
-2.18803091299506
30
0
41
1
10
52.4392633928093
20
-2.12885640096857
30
0
41
1
10
52.2043680108567
20
-2.00939752485712
30
0
41
1
10
51.8522964512706
20
-1.8286607112949
30
0
41
1
10
51.5008074522272
20
-1.64367870848574
30
0
41
1
10
50.7981166855942
20
-1.26890221910355
30
0
41
1
10
50.3300233967518
20
-1.01265843603792
30
0
41
1
10
49.7434595629612
20
-0.687660666985039
30
0
41
1
10
49.6260757543876
20
-0.622424244552832
30
0
41
1
10
49.3911244324814
20
-0.491549377717064
30
0
41
1
10
49.2736119679812
20
-0.425941514162389
30
0
41
1
10
48.9214863429956
20
-0.229045130034081
30
0
41
1
10
48.6870668189643
20
-0.0975465698462585
30
0
41
1
10
47.9841643803928
20
0.296511027730929
30
0
41
1
10
47.5160043220202
20
0.558572423026362
30
0
41
1
10
46.9295151519484
20
0.882055300242371
30
0
41
1
10
46.8121531876558
20
0.946547779211954
30
0
41
1
10
46.5772672841505
20
1.07506409345226
30
0
41
1
10
46.4596811619158
20
1.13912147868837
30
0
41
1
10
46.1072757983657
20
1.33014383358665
30
0
41
1
10
45.8727090561124
20
1.45599095977786
30
0
41
1
10
45.1694405775048
20
1.82789576072284
30
0
41
1
10
44.7011936528729
20
2.06835891849329
30
0
41
1
10
43.9975270553576
20
2.41425209125603
30
0
41
1
10
43.7627511469127
20
2.52709046533536
30
0
41
1
10
43.2924611575838
20
2.74727086609084
30
0
41
1
10
43.057704464801
20
2.85425036312375
30
0
41
1
10
42.5885402968759
20
3.06141721235179
30
0
41
1
10
42.3541376385864
20
3.16161356724302
30
0
41
1
10
41.8853943369538
20
3.35484468619387
30
0
41
1
10
41.6510564239399
20
3.44788080759062
30
0
41
1
10
41.1820140630241
20
3.62622440100728
30
0
41
1
10
40.9473067236269
20
3.71152941770873
30
0
41
1
10
40.594689457278
20
3.83333228342522
30
0
41
1
10
40.4770409581865
20
3.8729117930595
30
0
41
1
10
40.2420298178832
20
3.94980232799915
30
0
41
1
10
40.1246039203414
20
3.98713564312192
30
0
41
1
10
39.5377706505849
20
4.16815900882415
30
0
41
1
10
39.0693314657334
20
4.29498406648287
30
0
41
1
10
38.3657974096124
20
4.45617821518471
30
0
41
1
10
38.131137972609
20
4.50507056291889
30
0
41
1
10
37.7786392200099
20
4.57092669525642
30
0
41
1
10
37.6609963975934
20
4.59164119305507
30
0
41
1
10
37.4257887971258
20
4.63049236498696
30
0
41
1
10
37.3082693180324
20
4.64862286950654
30
0
41
1
10
36.720982327404
20
4.7327773023755
30
0
41
1
10
36.252367369024
20
4.7793884327215
30
0
41
1
10
35.5487478803255
20
4.81752470240522
30
0
41
1
10
35.2587272514482
20
4.82669900955483
30
0
41
1
10
34.9682499280132
20
4.82773155957756
30
0
41
1
10
34.9127674767859
20
4.82763145071354
30
0
0
SPLINE
5
10C
100
AcDbEntity
8
1
62
256
6
ByLayer
370
18
48
1
60
0
100
AcDbSpline
70
4
71
3
72
18
73
14
40
0
40
0
40
0
40
0
40
0.387972877383027
40
0.387972877383027
40
0.484966096728786
40
0.484966096728786
40
0.581959316074545
40
0.581959316074545
40
0.775945754766068
40
0.775945754766068
40
0.96993219345759
40
0.96993219345759
40
1
40
1
40
1
40
1
41
1
10
16.1487467719924
20
-4.37817509666419
30
0
41
1
10
16.6180756602293
20
-4.4856717572913
30
0
41
1
10
17.0874261610269
20
-4.57272956526941
30
0
41
1
10
17.6749631005968
20
-4.65614963537968
30
0
41
1
10
17.7925103345964
20
-4.6715607939386
30
0
41
1
10
18.0276764623302
20
-4.69983212519833
30
0
41
1
10
18.1453341422746
20
-4.7126958713084
30
0
41
1
10
18.4978112656037
20
-4.74736770047605
30
0
41
1
10
18.7323357001891
20
-4.76525563169344
30
0
41
1
10
19.2012725809808
20
-4.79044117080949
30
0
41
1
10
19.4356559333335
20
-4.7977594436216
30
0
41
1
10
19.7063673454157
20
-4.8001332707334
30
0
41
1
10
19.7426967025012
20
-4.80032522759001
30
0
41
1
10
19.7790270919564
20
-4.80039056966981
30
0
0
SPLINE
5
10D
100
AcDbEntity
8
1
62
256
6
ByLayer
370
18
48
1
60
0
100
AcDbSpline
70
4
71
3
72
66
73
62
40
0
40
0
40
0
40
0
40
0.0011475890336954
40
0.0011475890336954
40
0.0223997679904261
40
0.0223997679904261
40
0.0649041259038884
40
0.0649041259038884
40
0.0861563048606194
40
0.0861563048606194
40
0.10740848381735
40
0.10740848381735
40
0.149912841730814
40
0.149912841730814
40
0.171165020687546
40
0.171165020687546
40
0.192417199644278
40
0.192417199644278
40
0.23492155755774
40
0.23492155755774
40
0.256173736514471
40
0.256173736514471
40
0.277425915471202
40
0.277425915471202
40
0.319930273384662
40
0.319930273384662
40
0.362434631298122
40
0.362434631298122
40
0.383686810254852
40
0.383686810254852
40
0.404938989211582
40
0.404938989211582
40
0.447443347125042
40
0.447443347125042
40
0.489947705038502
40
0.489947705038502
40
0.532452062951962
40
0.532452062951962
40
0.553704241908692
40
0.553704241908692
40
0.574956420865422
40
0.574956420865422
40
0.617460778778882
40
0.617460778778882
40
0.659965136692342
40
0.659965136692342
40
0.702469494605802
40
0.702469494605802
40
0.744973852519262
40
0.744973852519262
40
0.766226031475991
40
0.766226031475991
40
0.78747821043272
40
0.78747821043272
40
0.829982568346177
40
0.829982568346177
40
0.872486926259633
40
0.872486926259633
40
0.914991284173089
40
0.914991284173089
40
1
40
1
40
1
40
1
41
1
10
44.6110904919558
20
4.66437838888982
30
0
41
1
10
44.6174272272281
20
4.66534510395306
30
0
41
1
10
44.6237641970637
20
4.66630815108093
30
0
41
1
10
44.7474599753162
20
4.68503423749235
30
0
41
1
10
44.8649122010565
20
4.70154269570537
30
0
41
1
10
45.2167618133109
20
4.74716708852856
30
0
41
1
10
45.4509026604
20
4.7724268719389
30
0
41
1
10
45.8015979179045
20
4.80249017529823
30
0
41
1
10
45.9184062163763
20
4.81120726143152
30
0
41
1
10
46.1518504579898
20
4.82600726463565
30
0
41
1
10
46.2685109151506
20
4.83208118777858
30
0
41
1
10
46.6188426432916
20
4.84625962654377
30
0
41
1
10
46.8527772584133
20
4.85035840100684
30
0
41
1
10
47.2041479034981
20
4.84859597761331
30
0
41
1
10
47.3213511304192
20
4.84668774786482
30
0
41
1
10
47.5559118118815
20
4.84022561632131
30
0
41
1
10
47.6733252943383
20
4.83566861974231
30
0
41
1
10
48.0253848054532
20
4.81802535536104
30
0
41
1
10
48.2596315207351
20
4.80098630141003
30
0
41
1
10
48.6103973674177
20
4.76748657284861
30
0
41
1
10
48.7272192859295
20
4.7549951639715
30
0
41
1
10
48.9607156477915
20
4.72736325329052
30
0
41
1
10
49.0774074129841
20
4.712226621908
30
0
41
1
10
49.4277481172918
20
4.66305661431755
30
0
41
1
10
49.6615853586408
20
4.62525350860855
30
0
41
1
10
50.1295774080529
20
4.53955889733069
30
0
41
1
10
50.3637577262606
20
4.49166710919854
30
0
41
1
10
50.7156234766373
20
4.41243055956113
30
0
41
1
10
50.8329452345097
20
4.38479537996696
30
0
41
1
10
51.0672632889376
20
4.32715057603585
30
0
41
1
10
51.1843125924149
20
4.29712790207714
30
0
41
1
10
51.535125879199
20
4.20344172716085
30
0
41
1
10
51.7685995930549
20
4.13618170307737
30
0
41
1
10
52.2358311562896
20
3.99308844237285
30
0
41
1
10
52.4695498677875
20
3.91723588789276
30
0
41
1
10
52.9373251671193
20
3.7571032016632
30
0
41
1
10
53.1713823973717
20
3.6728230555922
30
0
41
1
10
53.5228526306757
20
3.54017981789906
30
0
41
1
10
53.6401367080882
20
3.49490281044155
30
0
41
1
10
53.8744372091591
20
3.4024604700783
30
0
41
1
10
53.9914721116985
20
3.35528817906155
30
0
41
1
10
54.3422845942846
20
3.2109852536712
30
0
41
1
10
54.5758022064116
20
3.11110259792361
30
0
41
1
10
55.0430607397389
20
2.90530521691986
30
0
41
1
10
55.2767638839491
20
2.79934960045637
30
0
41
1
10
55.7443984486399
20
2.58147805310949
30
0
41
1
10
55.9783309006458
20
2.46956287535272
30
0
41
1
10
56.4465667394751
20
2.23993133744048
30
0
41
1
10
56.6810518850895
20
2.1221124273159
30
0
41
1
10
57.0319004577039
20
1.94191978703381
30
0
41
1
10
57.1487576635047
20
1.88127454567481
30
0
41
1
10
57.3825033692588
20
1.75918089647647
30
0
41
1
10
57.4993845231888
20
1.69772108077785
30
0
41
1
10
57.8500763093495
20
1.51215085367068
30
0
41
1
10
58.0839331359723
20
1.38684704427629
30
0
41
1
10
58.5519466378979
20
1.13337146024512
30
0
41
1
10
58.7861047808252
20
1.00520176265218
30
0
41
1
10
59.2549626336572
20
0.746392780891568
30
0
41
1
10
59.4891050561315
20
0.616060372246608
30
0
41
1
10
60.1906455497454
20
0.223281270334894
30
0
41
1
10
60.6573648239672
20
-0.0410364439086095
30
0
41
1
10
61.124728002767
20
-0.304948866748901
30
0
0
SPLINE
5
10E
100
AcDbEntity
8
1
62
256
6
ByLayer
370
18
48
1
60
0
100
AcDbSpline
70
4
71
3
72
8
73
4
40
0
40
0
40
0
40
0
40
1
40
1
40
1
40
1
41
1
10
61.1247280027634
20
-0.304948866748589
30
0
41
1
10
61.1488981411057
20
-0.0935523799743692
30
0
41
1
10
61.1776920190689
20
0.11805161788854
30
0
41
1
10
61.2123378092112
20
0.329719296536212
30
0
0
SPLINE
5
10F
100
AcDbEntity
8
1
62
256
6
ByLayer
370
18
48
1
60
0
100
AcDbSpline
70
4
71
3
72
47
73
43
40
0
40
0
40
0
40
0
40
0.0668002675344243
40
0.0668002675344243
40
0.100200401301635
40
0.100200401301635
40
0.133600535068846
40
0.200400802603271
40
0.200400802603271
40
0.267201070137695
40
0.267201070137695
40
0.300601203904908
40
0.300601203904908
40
0.334001337672121
40
0.334001337672121
40
0.400801605206546
40
0.400801605206546
40
0.434201738973759
40
0.434201738973759
40
0.467601872740972
40
0.467601872740972
40
0.534402140275399
40
0.534402140275399
40
0.601202407809826
40
0.601202407809826
40
0.668002675344253
40
0.668002675344253
40
0.734802942878679
40
0.734802942878679
40
0.801603210413106
40
0.801603210413106
40
0.835003344180321
40
0.835003344180321
40
0.868403477947535
40
0.868403477947535
40
0.885103544831142
40
0.885103544831142
40
0.90180361171475
40
0.90180361171475
40
0.935203745481964
40
0.935203745481964
40
1
40
1
40
1
40
1
41
1
10
61.2123378092096
20
0.329719296525241
30
0
41
1
10
60.9216497515763
20
0.493411393252899
30
0
41
1
10
60.6319697458688
20
0.655800321603408
30
0
41
1
10
60.1985451428716
20
0.896747747688636
30
0
41
1
10
60.0542383179048
20
0.97659758744831
30
0
41
1
10
59.7659269577419
20
1.13531355065291
30
0
41
1
10
59.3339639771053
20
1.37199951957558
30
0
41
1
10
58.9027382788304
20
1.60317364903995
30
0
41
1
10
58.3276762087166
20
1.90526204701848
30
0
41
1
10
58.0401483112716
20
2.05332053839916
30
0
41
1
10
57.6083790898841
20
2.27012149143917
30
0
41
1
10
57.4643833599044
20
2.34151869062501
30
0
41
1
10
57.1762022891299
20
2.48249258478711
30
0
41
1
10
57.031994761659
20
2.55203360865011
30
0
41
1
10
56.5988338217893
20
2.75751214863468
30
0
41
1
10
56.309320122423
20
2.89027290664075
30
0
41
1
10
55.8734777271086
20
3.08231069028298
30
0
41
1
10
55.7279402125444
20
3.14514698756531
30
0
41
1
10
55.4362700542636
20
3.26832902042418
30
0
41
1
10
55.290715595257
20
3.32840527021946
30
0
41
1
10
54.8548910868201
20
3.50407993978806
30
0
41
1
10
54.5654524843076
20
3.61512840392857
30
0
41
1
10
53.9877036126165
20
3.82395513294776
30
0
41
1
10
53.6994052186549
20
3.92176367692406
30
0
41
1
10
53.1234625102073
20
4.10380284771077
30
0
41
1
10
52.8357844163428
20
4.1879997961951
30
0
41
1
10
52.2605725547331
20
4.34233859299766
30
0
41
1
10
51.9729450380371
20
4.41238754096108
30
0
41
1
10
51.3967756463098
20
4.53754238333531
30
0
41
1
10
51.1082709674832
20
4.59268386538579
30
0
41
1
10
50.6744803644059
20
4.66388060289586
30
0
41
1
10
50.5296937893578
20
4.68568410226092
30
0
41
1
10
50.2397284142577
20
4.72539330288103
30
0
41
1
10
50.0945555157288
20
4.74329938899371
30
0
41
1
10
49.8763759939707
20
4.76714701906562
30
0
41
1
10
49.8035811250058
20
4.77459524237375
30
0
41
1
10
49.6578403294025
20
4.78847978274177
30
0
41
1
10
49.5848633553663
20
4.79491799152996
30
0
41
1
10
49.3662630304362
20
4.81265694630372
30
0
41
1
10
49.2207969274996
20
4.82240018289977
30
0
41
1
10
48.7938172935069
20
4.8449819820805
30
0
41
1
10
48.5129715292283
20
4.85212375538512
30
0
41
1
10
48.2327225741969
20
4.85160731629924
30
0
0
SPLINE
5
110
100
AcDbEntity
8
1
62
256
6
ByLayer
370
18
48
1
60
0
100
AcDbSpline
70
4
71
3
72
73
73
69
40
0
40
0
40
0
40
0
40
0.0106845982134035
40
0.0106845982134035
40
0.0502572142848661
40
0.0502572142848661
40
0.0898298303563286
40
0.0898298303563286
40
0.0997229843741942
40
0.0997229843741942
40
0.10961613839206
40
0.129402446427791
40
0.129402446427791
40
0.149188754463522
40
0.149188754463522
40
0.168975062499254
40
0.168975062499254
40
0.208547678570717
40
0.208547678570717
40
0.248120294642181
40
0.248120294642181
40
0.267906602677913
40
0.267906602677913
40
0.287692910713645
40
0.287692910713645
40
0.36683814285657
40
0.36683814285657
40
0.376731296874436
40
0.376731296874436
40
0.386624450892302
40
0.386624450892302
40
0.406410758928035
40
0.406410758928035
40
0.4459833749995
40
0.4459833749995
40
0.485555991070965
40
0.485555991070965
40
0.525128607142429
40
0.525128607142429
40
0.564701223213894
40
0.564701223213894
40
0.584487531249626
40
0.584487531249626
40
0.604273839285359
40
0.604273839285359
40
0.643846455356824
40
0.643846455356824
40
0.663632763392556
40
0.663632763392556
40
0.683419071428288
40
0.683419071428288
40
0.722991687499752
40
0.722991687499752
40
0.762564303571216
40
0.762564303571216
40
0.782350611606948
40
0.782350611606948
40
0.802136919642681
40
0.802136919642681
40
0.841709535714144
40
0.841709535714144
40
0.881282151785608
40
0.881282151785608
40
0.920854767857072
40
0.920854767857072
40
0.960427383928536
40
0.960427383928536
40
1
40
1
40
1
40
1
41
1
10
27.6182466601161
20
-3.50958066005686
30
0
41
1
10
27.5403014902633
20
-3.53920973757042
30
0
41
1
10
27.4623273203741
20
-3.56841716772109
30
0
41
1
10
27.0954019171329
20
-3.70378812219065
30
0
41
1
10
26.8059898531674
20
-3.80447063649271
30
0
41
1
10
26.2257633253869
20
-3.99336347909215
30
0
41
1
10
25.9348594208847
20
-4.08146339504327
30
0
41
1
10
25.5696335669866
20
-4.18290316310663
30
0
41
1
10
25.4964920706633
20
-4.20276337336389
30
0
41
1
10
25.3504428681911
20
-4.24150644033719
30
0
41
1
10
25.1315749823878
20
-4.29819539675992
30
0
41
1
10
24.9132960042712
20
-4.35061142685748
30
0
41
1
10
24.622706181818
20
-4.41668077002879
30
0
41
1
10
24.4776203727633
20
-4.4477949979233
30
0
41
1
10
24.1878489093827
20
-4.5061996256743
30
0
41
1
10
24.0431796090542
20
-4.5334984911452
30
0
41
1
10
23.6095351710493
20
-4.60952992609489
30
0
41
1
10
23.3209249349673
20
-4.65240259146773
30
0
41
1
10
22.7439305225904
20
-4.72233804971185
30
0
41
1
10
22.455606400973
20
-4.74942886072961
30
0
41
1
10
22.0229147983968
20
-4.77811520812
30
0
41
1
10
21.878663377909
20
-4.78568884565263
30
0
41
1
10
21.5900639936747
20
-4.79682777004683
30
0
41
1
10
21.4456908454133
20
-4.8003885675482
30
0
41
1
10
20.723144321081
20
-4.80808764815225
30
0
41
1
10
20.1427846103117
20
-4.78198990695017
30
0
41
1
10
19.4848525840222
20
-4.71552667502056
30
0
41
1
10
19.4117227203456
20
-4.70762622624267
30
0
41
1
10
19.2656985659491
20
-4.69083920806918
30
0
41
1
10
19.1927583742337
20
-4.68194869317651
30
0
41
1
10
18.9741260216528
20
-4.65380568449126
30
0
41
1
10
18.8286250466008
20
-4.63308016643023
30
0
41
1
10
18.3927015322117
20
-4.56516689265561
30
0
41
1
10
18.1028499922769
20
-4.512255265606
30
0
41
1
10
17.5242215808154
20
-4.39168037914979
30
0
41
1
10
17.2354102412369
20
-4.32404102372575
30
0
41
1
10
16.658368292881
20
-4.17444282867243
30
0
41
1
10
16.370017570595
20
-4.09257466644144
30
0
41
1
10
15.7927929095749
20
-3.91556336401968
30
0
41
1
10
15.5039673395183
20
-3.82038081840932
30
0
41
1
10
15.0700281073738
20
-3.66794837366882
30
0
41
1
10
14.9252449226494
20
-3.61555151511015
30
0
41
1
10
14.6354238525317
20
-3.5075355289112
30
0
41
1
10
14.4903777097252
20
-3.4519239853162
30
0
41
1
10
14.0545592045044
20
-3.2805850068537
30
0
41
1
10
13.7631072794735
20
-3.160357362854
30
0
41
1
10
13.3240382974381
20
-2.97159135893091
30
0
41
1
10
13.1778787691822
20
-2.90746788386542
30
0
41
1
10
12.8861779054845
20
-2.77705716278197
30
0
41
1
10
12.7405842303169
20
-2.71075775939499
30
0
41
1
10
12.3044504761637
20
-2.50879027353895
30
0
41
1
10
12.0146884718348
20
-2.36984009691599
30
0
41
1
10
11.4359941411148
20
-2.08527039289703
30
0
41
1
10
11.1470462025952
20
-1.93968357445652
30
0
41
1
10
10.713865210817
20
-1.71699544314001
30
0
41
1
10
10.5695169874384
20
-1.64203853038836
30
0
41
1
10
10.2808214428046
20
-1.49082580228156
30
0
41
1
10
10.1364645249774
20
-1.41458725553198
30
0
41
1
10
9.70340096975247
20
-1.18390801242813
30
0
41
1
10
9.41458728625386
20
-1.02769996374602
30
0
41
1
10
8.83570148740733
20
-0.71230462391685
30
0
41
1
10
8.54566193474994
20
-0.553064005996049
30
0
41
1
10
7.96394761661193
20
-0.232257336942553
30
0
41
1
10
7.67219940231317
20
-0.0707799515012368
30
0
41
1
10
7.08670480950886
20
0.253734094388761
30
0
41
1
10
6.79438961531417
20
0.415749684214859
30
0
41
1
10
6.20927803725257
20
0.73688151367358
30
0
41
1
10
5.91656034193952
20
0.896141895455742
30
0
41
1
10
5.62336022627048
20
1.05353014432703
30
0
0
SPLINE
5
111
100
AcDbEntity
8
1
62
256
6
ByLayer
370
18
48
1
60
0
100
AcDbSpline
70
4
71
3
72
112
73
108
40
0
40
0
40
0
40
0
40
0.0123259061494337
40
0.0123259061494337
40
0.0381663673596034
40
0.0381663673596034
40
0.0640068285697731
40
0.0640068285697731
40
0.0898472897799428
40
0.0898472897799428
40
0.115687750990112
40
0.115687750990112
40
0.128607981595198
40
0.128607981595198
40
0.141528212200283
40
0.141528212200283
40
0.147988327502826
40
0.147988327502826
40
0.154448442805369
40
0.154448442805369
40
0.167368673410454
40
0.167368673410454
40
0.193209134620625
40
0.193209134620625
40
0.219049595830797
40
0.219049595830797
40
0.244890057040969
40
0.244890057040969
40
0.27073051825114
40
0.27073051825114
40
0.296570979461312
40
0.296570979461312
40
0.322411440671483
40
0.322411440671483
40
0.328871555974026
40
0.328871555974026
40
0.335331671276569
40
0.335331671276569
40
0.348251901881655
40
0.348251901881655
40
0.374092363091825
40
0.374092363091825
40
0.399932824301996
40
0.399932824301996
40
0.412853054907081
40
0.412853054907081
40
0.425773285512166
40
0.425773285512166
40
0.451613746722338
40
0.451613746722338
40
0.477454207932509
40
0.477454207932509
40
0.503294669142681
40
0.503294669142681
40
0.509754784445224
40
0.509754784445224
40
0.516214899747766
40
0.529135130352851
40
0.529135130352851
40
0.542055360957935
40
0.542055360957935
40
0.554975591563019
40
0.554975591563019
40
0.580816052773188
40
0.580816052773188
40
0.632496975193526
40
0.632496975193526
40
0.658337436403694
40
0.658337436403694
40
0.684177897613863
40
0.684177897613863
40
0.690638012916405
40
0.690638012916405
40
0.697098128218947
40
0.697098128218947
40
0.71001835882403
40
0.71001835882403
40
0.735858820034195
40
0.735858820034195
40
0.76169928124436
40
0.76169928124436
40
0.787539742454525
40
0.787539742454525
40
0.81338020366469
40
0.81338020366469
40
0.839220664874855
40
0.839220664874855
40
0.86506112608502
40
0.86506112608502
40
0.871521241387561
40
0.871521241387561
40
0.877981356690103
40
0.890901587295186
40
0.890901587295186
40
0.90382181790027
40
0.90382181790027
40
0.916742048505353
40
0.916742048505353
40
0.942582509715519
40
0.942582509715519
40
0.968422970925685
40
0.968422970925685
40
0.981343201530767
40
0.981343201530767
40
0.99426343213585
40
0.99426343213585
40
1
40
1
40
1
40
1
41
1
10
54.6904020219153
20
-3.56565868207397
30
0
41
1
10
54.5522927622168
20
-3.6184216898873
30
0
41
1
10
54.4143712231366
20
-3.66973656870843
30
0
41
1
10
53.9877036126166
20
-3.82395513294819
30
0
41
1
10
53.6994052186548
20
-3.92176367692443
30
0
41
1
10
53.1234625102073
20
-4.10380284771119
30
0
41
1
10
52.8357844163428
20
-4.1879997961955
30
0
41
1
10
52.2605725547331
20
-4.34233859299809
30
0
41
1
10
51.9729450380371
20
-4.41238754096147
30
0
41
1
10
51.3967756463098
20
-4.5375423833357
30
0
41
1
10
51.1082709674832
20
-4.59268386538619
30
0
41
1
10
50.6744803644059
20
-4.66388060289623
30
0
41
1
10
50.5296937893577
20
-4.68568410226129
30
0
41
1
10
50.2397284142576
20
-4.72539330288143
30
0
41
1
10
50.0945555157288
20
-4.7432993889941
30
0
41
1
10
49.8763759939707
20
-4.76714701906602
30
0
41
1
10
49.8035811250058
20
-4.77459524237412
30
0
41
1
10
49.6578403294025
20
-4.78847978274217
30
0
41
1
10
49.5848633553663
20
-4.79491799153035
30
0
41
1
10
49.3662630304362
20
-4.81265694630412
30
0
41
1
10
49.2207969274996
20
-4.82240018290014
30
0
41
1
10
48.7851034012833
20
-4.84544283629637
30
0
41
1
10
48.4956004451455
20
-4.85255809379586
30
0
41
1
10
47.9178430161318
20
-4.85051675834177
30
0
41
1
10
47.6296997181088
20
-4.84134796583388
30
0
41
1
10
47.0538488718663
20
-4.80693743953492
30
0
41
1
10
46.7661159136554
20
-4.78171510296846
30
0
41
1
10
46.1904911437323
20
-4.71548027473361
30
0
41
1
10
45.9025901320344
20
-4.67447296949157
30
0
41
1
10
45.3261269214653
20
-4.57680085012777
30
0
41
1
10
45.0375728364234
20
-4.52011445845906
30
0
41
1
10
44.4587598786754
20
-4.39153778720555
30
0
41
1
10
44.1685210294503
20
-4.31965074527091
30
0
41
1
10
43.8043671545709
20
-4.22037914725965
30
0
41
1
10
43.7314685637994
20
-4.20005379504815
30
0
41
1
10
43.5855209522876
20
-4.15846863848407
30
0
41
1
10
43.5125461005226
20
-4.13723128752449
30
0
41
1
10
43.2939362182333
20
-4.07229137003313
30
0
41
1
10
43.1485038426806
20
-4.02730157056672
30
0
41
1
10
42.7129568653812
20
-3.88745581541761
30
0
41
1
10
42.4235235359673
20
-3.78779585439273
30
0
41
1
10
41.845667520236
20
-3.57679717355597
30
0
41
1
10
41.5572897739774
20
-3.46540992154331
30
0
41
1
10
41.1251298376203
20
-3.29010034534235
30
0
41
1
10
40.9811282330852
20
-3.23031391336593
30
0
41
1
10
40.6932407286416
20
-3.10802487241867
30
0
41
1
10
40.5493414168094
20
-3.04553903966342
30
0
41
1
10
40.1175345505097
20
-2.85439565360588
30
0
41
1
10
39.8295153851978
20
-2.72205895877906
30
0
41
1
10
39.2525102164411
20
-2.4485583426916
30
0
41
1
10
38.9635688259404
20
-2.30732609559183
30
0
41
1
10
38.3841644861267
20
-2.0168058763843
30
0
41
1
10
38.0938155408869
20
-1.86731818388569
30
0
41
1
10
37.7293648238087
20
-1.67625434480664
30
0
41
1
10
37.6563664281313
20
-1.63781220571846
30
0
41
1
10
37.5103580267704
20
-1.56060887316147
30
0
41
1
10
37.2915530641418
20
-1.44444151425395
30
0
41
1
10
37.0733360624345
20
-1.32725073872285
30
0
41
1
10
36.7828406676696
20
-1.17019974385491
30
0
41
1
10
36.6378260532705
20
-1.09127084990354
30
0
41
1
10
36.3481665892848
20
-0.9327823554666
30
0
41
1
10
36.2035153568376
20
-0.853234418949285
30
0
41
1
10
35.7701069279206
20
-0.613661342174908
30
0
41
1
10
35.4817880754771
20
-0.452902687235934
30
0
41
1
10
34.6171936242876
20
0.0297670834313521
30
0
41
1
10
34.0414478844501
20
0.352379669521525
30
0
41
1
10
33.1756313762715
20
0.831752597508768
30
0
41
1
10
32.8865486583002
20
0.990583512064518
30
0
41
1
10
32.3066213127646
20
1.30485240321252
30
0
41
1
10
32.015830949359
20
1.46038926782788
30
0
41
1
10
31.6509235037958
20
1.65210842132129
30
0
41
1
10
31.577819227778
20
1.69033690167706
30
0
41
1
10
31.4317983193081
20
1.7663466272513
30
0
41
1
10
31.3588684234363
20
1.80414020062975
30
0
41
1
10
31.1403014695442
20
1.91685699970441
30
0
41
1
10
30.9948732809643
20
1.99109101449741
30
0
41
1
10
30.5592182642513
20
2.21072084039554
30
0
41
1
10
30.269602828698
20
2.35301727750999
30
0
41
1
10
29.6913849594924
20
2.62853312976085
30
0
41
1
10
29.4028092235047
20
2.76179550374513
30
0
41
1
10
28.8261461705847
20
3.01852409142276
30
0
41
1
10
28.5381514542939
20
3.14211494432675
30
0
41
1
10
27.9616948090213
20
3.37814590031528
30
0
41
1
10
27.6732372912557
20
3.49060548225791
30
0
41
1
10
27.0954019171329
20
3.70378812219042
30
0
41
1
10
26.8059898531675
20
3.80447063649248
30
0
41
1
10
26.225763325387
20
3.99336347909193
30
0
41
1
10
25.9348594208847
20
4.08146339504307
30
0
41
1
10
25.5696335669867
20
4.18290316310643
30
0
41
1
10
25.4964920706633
20
4.20276337336369
30
0
41
1
10
25.3504428681911
20
4.24150644033699
30
0
41
1
10
25.1315749823878
20
4.29819539675972
30
0
41
1
10
24.9132960042712
20
4.35061142685728
30
0
41
1
10
24.622706181818
20
4.41668077002859
30
0
41
1
10
24.4776203727633
20
4.4477949979231
30
0
41
1
10
24.1878489093828
20
4.50619962567413
30
0
41
1
10
24.0431796090542
20
4.533498491145
30
0
41
1
10
23.6095351710494
20
4.60952992609469
30
0
41
1
10
23.3209249349674
20
4.65240259146756
30
0
41
1
10
22.7439305225905
20
4.72233804971168
30
0
41
1
10
22.4556064009731
20
4.74942886072941
30
0
41
1
10
22.0229147983969
20
4.77811520811983
30
0
41
1
10
21.878663377909
20
4.78568884565243
30
0
41
1
10
21.5900639936747
20
4.79682777004666
30
0
41
1
10
21.4456908454133
20
4.80038856754803
30
0
41
1
10
21.2370195716389
20
4.8026120602955
30
0
41
1
10
21.1728289874605
20
4.80289830036764
30
0
41
1
10
21.1086068527343
20
4.80278611416355
30
0
0
SPLINE
5
112
100
AcDbEntity
8
1
62
256
6
ByLayer
370
18
48
1
60
0
100
AcDbSpline
70
4
71
3
72
84
73
80
40
0
40
0
40
0
40
0
40
0.019566051867445
40
0.019566051867445
40
0.0621936148297388
40
0.0621936148297388
40
0.0728505055703123
40
0.0728505055703123
40
0.0781789509405985
40
0.0781789509405985
40
0.0835073963108847
40
0.104821177792029
40
0.104821177792029
40
0.147448740754318
40
0.147448740754318
40
0.190076303716607
40
0.190076303716607
40
0.232703866678896
40
0.232703866678896
40
0.25401764816004
40
0.25401764816004
40
0.259346093530326
40
0.259346093530326
40
0.264674538900612
40
0.275331429641183
40
0.317958992603468
40
0.317958992603468
40
0.360586555565753
40
0.360586555565753
40
0.403214118528039
40
0.403214118528039
40
0.42452790000918
40
0.42452790000918
40
0.435184790749751
40
0.440513236120037
40
0.440513236120037
40
0.445841681490323
40
0.445841681490323
40
0.488469244452608
40
0.488469244452608
40
0.531096807414893
40
0.531096807414893
40
0.541753698155464
40
0.541753698155464
40
0.552410588896035
40
0.552410588896035
40
0.573724370377178
40
0.573724370377178
40
0.658979496301747
40
0.658979496301747
40
0.664307941672033
40
0.664307941672033
40
0.669636387042318
40
0.669636387042318
40
0.680293277782889
40
0.701607059264029
40
0.701607059264029
40
0.74423462222631
40
0.74423462222631
40
0.754891512966881
40
0.754891512966881
40
0.765548403707451
40
0.765548403707451
40
0.786862185188593
40
0.786862185188593
40
0.829489748150876
40
0.829489748150876
40
0.872117311113159
40
0.872117311113159
40
0.914744874075442
40
0.914744874075442
40
0.936058655556583
40
0.936058655556583
40
0.941387100926869
40
0.941387100926869
40
0.946715546297154
40
0.957372437037723
40
0.957372437037723
40
1
40
1
40
1
40
1
41
1
10
28.0740667910572
20
3.74570659391966
30
0
41
1
10
28.291118842827
20
3.8217830397231
30
0
41
1
10
28.5079322891269
20
3.89427919559571
30
0
41
1
10
29.196806782403
20
4.11288048185071
30
0
41
1
10
29.6685053491358
20
4.24503768624882
30
0
41
1
10
30.259452836032
20
4.38629242219153
30
0
41
1
10
30.3777091186164
20
4.41334609911229
30
0
41
1
10
30.5552306358982
20
4.45209601031513
30
0
41
1
10
30.6144470058593
20
4.46471145967834
30
0
41
1
10
30.7327515534017
20
4.48928973175882
30
0
41
1
10
31.0282758873118
20
4.54912357199865
30
0
41
1
10
31.3226982180329
20
4.60088183143378
30
0
41
1
10
32.0277625081687
20
4.70952927567276
30
0
41
1
10
32.4957172572923
20
4.76121453924253
30
0
41
1
10
33.4302065615568
20
4.82278982513787
30
0
41
1
10
33.8967361790322
20
4.83267354428688
30
0
41
1
10
34.8312302168179
20
4.81031780247682
30
0
41
1
10
35.2992015037989
20
4.7780739308399
30
0
41
1
10
36.0045069616361
20
4.69801189200021
30
0
41
1
10
36.240168305938
20
4.66604444064777
30
0
41
1
10
36.5356743960455
20
4.61948030418421
30
0
41
1
10
36.5948504480774
20
4.60983228721744
30
0
41
1
10
36.7131595228464
20
4.5898992022168
30
0
41
1
10
36.8904762546337
20
4.55905896270346
30
0
41
1
10
37.53911486342
20
4.43573257324655
30
0
41
1
10
38.1247350948947
20
4.29316223440455
30
0
41
1
10
39.0595319507047
20
4.02924903242206
30
0
41
1
10
39.5258347843645
20
3.8794011534244
30
0
41
1
10
40.4589956851293
20
3.54692456161419
30
0
41
1
10
40.9258605307614
20
3.36429518499128
30
0
41
1
10
41.6288294267747
20
3.06829240857553
30
0
41
1
10
41.8635953832166
20
2.96594692276588
30
0
41
1
10
42.2166758882814
20
2.80721288900583
30
0
41
1
10
42.393449443753
20
2.72654245569623
30
0
41
1
10
42.5706265026111
20
2.64397848160905
30
0
41
1
10
42.6888403778194
20
2.58852226127584
30
0
41
1
10
42.747993603876
20
2.56058791386101
30
0
41
1
10
43.2799438424591
20
2.30777631500348
30
0
41
1
10
43.7513412685108
20
2.07238388174153
30
0
41
1
10
44.6942145338399
20
1.58518794268508
30
0
41
1
10
45.1656415959081
20
1.33330330273549
30
0
41
1
10
45.7567714667258
20
1.0111610656387
30
0
41
1
10
45.8749375326986
20
0.946453262133929
30
0
41
1
10
46.1109305377697
20
0.816714849007923
30
0
41
1
10
46.2287997526073
20
0.751661232796693
30
0
41
1
10
46.5820995015862
20
0.556080821161828
30
0
41
1
10
46.8172246760954
20
0.425139068681972
30
0
41
1
10
47.9917417731857
20
-0.230662168641061
30
0
41
1
10
48.9276672386187
20
-0.759051269458666
30
0
41
1
10
49.9307228601709
20
-1.30178282290694
30
0
41
1
10
49.9897578318284
20
-1.33363961150812
30
0
41
1
10
50.1078971275843
20
-1.39720525175636
30
0
41
1
10
50.1670126996178
20
-1.42892005458427
30
0
41
1
10
50.3442342653322
20
-1.52369916208107
30
0
41
1
10
50.6983949478261
20
-1.71191416012502
30
0
41
1
10
51.0519253366842
20
-1.89574724654909
30
0
41
1
10
51.7587252445995
20
-2.25663624608089
30
0
41
1
10
52.229592646507
20
-2.48817019786574
30
0
41
1
10
52.8195510131373
20
-2.76338738705729
30
0
41
1
10
52.9376116858709
20
-2.81772025086545
30
0
41
1
10
53.1739184279746
20
-2.92488864737365
30
0
41
1
10
53.2919788089549
20
-2.97763913620884
30
0
41
1
10
53.6454803122867
20
-3.13309463568533
30
0
41
1
10
53.8804410046401
20
-3.23309347817707
30
0
41
1
10
54.5837822319971
20
-3.52155408424397
30
0
41
1
10
55.0506337006267
20
-3.69846686085137
30
0
41
1
10
55.9830872018806
20
-4.01856725687944
30
0
41
1
10
56.4486892758224
20
-4.16174906237359
30
0
41
1
10
57.3815844536054
20
-4.41138380473492
30
0
41
1
10
57.8488789180964
20
-4.51784256567458
30
0
41
1
10
58.5532130859498
20
-4.64785462666251
30
0
41
1
10
58.7885591369286
20
-4.68624344257466
30
0
41
1
10
59.083691978911
20
-4.72780824340293
30
0
41
1
10
59.1427616289764
20
-4.73579916982447
30
0
41
1
10
59.2608175001418
20
-4.75111048747024
30
0
41
1
10
59.4378448825156
20
-4.77308158231983
30
0
41
1
10
59.6147305203749
20
-4.79205914470424
30
0
41
1
10
60.204151869793
20
-4.84864153048093
30
0
41
1
10
60.6750470445441
20
-4.87254424118402
30
0
41
1
10
61.1468101263188
20
-4.87478558678137
30
0
0
SPLINE
5
113
100
AcDbEntity
8
SK1
62
256
6
ByLayer
370
18
48
1
60
0
100
AcDbSpline
70
4
71
3
72
8
73
4
40
0
40
0
40
0
40
0
40
1
40
1
40
1
40
1
41
1
10
-39.35
20
-4.10319851265345
30
0
41
1
10
-39.5672421247511
20
-3.88052152313364
30
0
41
1
10
-39.7840146068644
20
-3.65740042245034
30
0
41
1
10
-40
20
-3.43353502179633
30
0
0
SPLINE
5
114
100
AcDbEntity
8
SK1
62
256
6
ByLayer
370
18
48
1
60
0
100
AcDbSpline
70
4
71
3
72
20
73
16
40
0
40
0
40
0
40
0
40
0.124999999999995
40
0.124999999999995
40
0.187499999999993
40
0.187499999999993
40
0.249999999999992
40
0.249999999999992
40
0.37499999999999
40
0.37499999999999
40
0.499999999999988
40
0.499999999999988
40
0.749999999999994
40
0.749999999999994
40
1
40
1
40
1
40
1
41
1
10
-39.25
20
-4.23531090734767
30
0
41
1
10
-39.25
20
-4.23293919037374
30
0
41
1
10
-39.2510680086886
20
-4.22950086561343
30
0
41
1
10
-39.2538495157728
20
-4.22339482595552
30
0
41
1
10
-39.2549703876943
20
-4.22119832727208
30
0
41
1
10
-39.2575552869369
20
-4.21652007878311
30
0
41
1
10
-39.2590298143252
20
-4.21402238927197
30
0
41
1
10
-39.2638240044233
20
-4.20630058111516
30
0
41
1
10
-39.267515960107
20
-4.2008296277086
30
0
41
1
10
-39.275680748839
20
-4.189383617798
30
0
41
1
10
-39.2801886771091
20
-4.18336844897493
30
0
41
1
10
-39.2943187548888
20
-4.16522036277928
30
0
41
1
10
-39.3046720301746
20
-4.15278742387383
30
0
41
1
10
-39.3267894589619
20
-4.12762417968099
30
0
41
1
10
-39.3382086330433
20
-4.11528487067108
30
0
41
1
10
-39.35
20
-4.10319851265345
30
0
0
SPLINE
5
115
100
AcDbEntity
8
SK1
62
256
6
ByLayer
370
18
48
1
60
0
100
AcDbSpline
70
4
71
3
72
20
73
16
40
0
40
0
40
0
40
0
40
0.25
40
0.25
40
0.375
40
0.375
40
0.5
40
0.5
40
0.625
40
0.625
40
0.75
40
0.75
40
0.875
40
0.875
40
1
40
1
40
1
40
1
41
1
10
-39.35
20
-4.25680653780913
30
0
41
1
10
-39.338205186486
20
-4.26889642860846
30
0
41
1
10
-39.326788992333
20
-4.28092238711159
30
0
41
1
10
-39.3102132143741
20
-4.29885180634835
30
0
41
1
10
-39.304833241342
20
-4.30475446730077
30
0
41
1
10
-39.2945637817252
20
-4.31619110357181
30
0
41
1
10
-39.289643923718
20
-4.32175771214065
30
0
41
1
10
-39.2802807943173
20
-4.33254792239026
30
0
41
1
10
-39.2758194796066
20
-4.33779253766386
30
0
41
1
10
-39.267562331863
20
-4.34776175315537
30
0
41
1
10
-39.2638525857023
20
-4.35238114503164
30
0
41
1
10
-39.2574621956925
20
-4.36071562213701
30
0
41
1
10
-39.2547834319691
20
-4.3644353906283
30
0
41
1
10
-39.2510694001166
20
-4.37027932452608
30
0
41
1
10
-39.25
20
-4.372467402642
30
0
41
1
10
-39.25
20
-4.37355812998777
30
0
0
SPLINE
5
116
100
AcDbEntity
8
SK1
62
256
6
ByLayer
370
18
48
1
60
0
100
AcDbSpline
70
4
71
3
72
8
73
4
40
0
40
0
40
0
40
0
40
1
40
1
40
1
40
1
41
1
10
-40
20
-3.58714304695201
30
0
41
1
10
-39.7840045815599
20
-3.81101883867351
30
0
41
1
10
-39.5672336080339
20
-4.03413827807387
30
0
41
1
10
-39.35
20
-4.25680653780913
30
0
0
SPLINE
5
117
100
AcDbEntity
8
SK1
62
256
6
ByLayer
370
18
48
1
60
0
100
AcDbSpline
70
4
71
3
72
20
73
16
40
0
40
0
40
0
40
0
40
0.25
40
0.25
40
0.375
40
0.375
40
0.5
40
0.5
40
0.625
40
0.625
40
0.75
40
0.75
40
0.875
40
0.875
40
1
40
1
40
1
40
1
41
1
10
-39.35
20
4.25680653780941
30
0
41
1
10
-39.338205186486
20
4.26889642860874
30
0
41
1
10
-39.3267889923329
20
4.28092238711187
30
0
41
1
10
-39.3102132143741
20
4.29885180634864
30
0
41
1
10
-39.3048332413419
20
4.30475446730102
30
0
41
1
10
-39.2945637817251
20
4.31619110357209
30
0
41
1
10
-39.2896439237179
20
4.32175771214094
30
0
41
1
10
-39.2802807943173
20
4.33254792239055
30
0
41
1
10
-39.2758194796066
20
4.33779253766414
30
0
41
1
10
-39.2675623318629
20
4.34776175315565
30
0
41
1
10
-39.2638525857023
20
4.3523811450319
30
0
41
1
10
-39.2574621956925
20
4.36071562213729
30
0
41
1
10
-39.2547834319691
20
4.36443539062859
30
0
41
1
10
-39.2510694001165
20
4.37027932452636
30
0
41
1
10
-39.25
20
4.37246740264226
30
0
41
1
10
-39.25
20
4.37355812998806
30
0
0
SPLINE
5
118
100
AcDbEntity
8
SK1
62
256
6
ByLayer
370
18
48
1
60
0
100
AcDbSpline
70
4
71
3
72
8
73
4
40
0
40
0
40
0
40
0
40
1
40
1
40
1
40
1
41
1
10
-40
20
3.58714304695229
30
0
41
1
10
-39.7840045815599
20
3.81101883867379
30
0
41
1
10
-39.5672336080339
20
4.03413827807412
30
0
41
1
10
-39.35
20
4.25680653780941
30
0
0
SPLINE
5
119
100
AcDbEntity
8
1
62
256
6
ByLayer
370
18
48
1
60
0
100
AcDbSpline
70
4
71
3
72
35
73
31
40
0
40
0
40
0
40
0
40
1.28123453384E-05
40
2.88634701191E-05
40
5.59853433966E-05
40
7.66292916878E-05
40
9.3652298941E-05
40
0.0001095256884627
40
0.0002319576568804
40
0.0003268112460737
40
0.0004990529799137
40
0.00081577302251
40
0.0014106346237194
40
0.0025669027861884
40
0.0049341178806796
40
0.0101355772698316
40
0.0355335968033215
40
0.0663406104278216
40
0.100899985596664
40
0.18834512518085
40
0.281712447846449
40
0.364112222953744
40
0.440924058480036
40
0.531134207597382
40
0.610236851752307
40
0.708224746705391
40
0.809229014714213
40
0.866882656942252
40
0.93580675739853
40
1
40
1
40
1
40
1
41
1
10
37.0235722125497
20
0.162068360574693
30
0
41
1
10
37.0235886677698
20
0.162064324859529
30
0
41
1
10
37.0236215809962
20
0.162056401451736
30
0
41
1
10
37.0236545063163
20
0.16204966003005
30
0
41
1
10
37.0236288631082
20
0.162059354001798
30
0
41
1
10
37.0235666101025
20
0.1620791632063
30
0
41
1
10
37.0234650583418
20
0.162109089159856
30
0
41
1
10
37.0230675538543
20
0.16222258515603
30
0
41
1
10
37.0224034436629
20
0.162409555134303
30
0
41
1
10
37.021375679801
20
0.162701904996084
30
0
41
1
10
37.0198022246819
20
0.163147846479177
30
0
41
1
10
37.0168877479539
20
0.163973291452294
30
0
41
1
10
37.0112778919364
20
0.165557568379455
30
0
41
1
10
37.0000031359114
20
0.168729845929306
30
0
41
1
10
36.9758028596913
20
0.175505642567856
30
0
41
1
10
36.8830661132508
20
0.201349469147317
30
0
41
1
10
36.7073634974978
20
0.25036237999447
30
0
41
1
10
36.4485153548325
20
0.323727830265966
30
0
41
1
10
36.0120296248704
20
0.449511598286904
30
0
41
1
10
35.3974068878559
20
0.63237185151587
30
0
41
1
10
34.6491932398854
20
0.865240012338063
30
0
41
1
10
33.9336983753525
20
1.09745026573756
30
0
41
1
10
33.2298794765698
20
1.33430980766317
30
0
41
1
10
32.5380391340108
20
1.57580788171674
30
0
41
1
10
31.7897936713103
20
1.84647168776868
30
0
41
1
10
31.0148163616429
20
2.13703614516615
30
0
41
1
10
30.3032093568353
20
2.41428359662018
30
0
41
1
10
29.674618811548
20
2.66666011654917
30
0
41
1
10
29.1492150581587
20
2.88205440931432
30
0
41
1
10
28.7842905594366
20
3.03634482260463
30
0
41
1
10
28.6086606249374
20
3.11158339628324
30
0
0
SPLINE
5
11A
100
AcDbEntity
8
1
62
256
6
ByLayer
370
18
48
1
60
0
100
AcDbSpline
70
4
71
1
72
4
73
2
40
0
40
0
40
1
40
1
41
1
10
21.308174471672
20
0.0025312253556251
30
0
41
1
10
21.3081633250193
20
0.0025373532495223
30
0
0
SPLINE
5
11B
100
AcDbEntity
8
1
62
256
6
ByLayer
370
18
48
1
60
0
100
AcDbSpline
70
4
71
3
72
21
73
17
40
0
40
0
40
0
40
0
40
0.0705202757104666
40
0.121960122009028
40
0.154921511077041
40
0.182684919518059
40
0.210805343760915
40
0.239265279858055
40
0.376267559011417
40
0.473709318318345
40
0.557966414522401
40
0.641340150162139
40
0.746813078466743
40
0.854427221949523
40
0.962095016648219
40
1
40
1
40
1
40
1
41
1
10
34.9126696696387
20
-4.64232924499271
30
0
41
1
10
35.1406412133709
20
-4.64268913991947
30
0
41
1
10
35.5349079629075
20
-4.64333322994119
30
0
41
1
10
36.0357533864843
20
-4.64406925533817
30
0
41
1
10
36.3983623377119
20
-4.64478014619425
30
0
41
1
10
36.6855864527128
20
-4.64549974209055
30
0
41
1
10
36.9582576684531
20
-4.64621305326421
30
0
41
1
10
37.584084146523
20
-4.64752916688218
30
0
41
1
10
38.4340197701107
20
-4.64717805903175
30
0
41
1
10
39.464334806967
20
-4.65082552561995
30
0
41
1
10
40.3212700469713
20
-4.65255569923758
30
0
41
1
10
41.2041763585568
20
-4.65192142087545
30
0
41
1
10
42.1625934516389
20
-4.65427529801212
30
0
41
1
10
43.1995479490909
20
-4.65709883955231
30
0
41
1
10
44.0180667113983
20
-4.65861975506681
30
0
41
1
10
44.4886863645766
20
-4.65839042917756
30
0
41
1
10
44.611227774371
20
-4.65833428542638
30
0
0
SPLINE
5
11C
100
AcDbEntity
8
1
62
256
6
ByLayer
370
18
48
1
60
0
100
AcDbSpline
70
4
71
3
72
16
73
12
40
0
40
0
40
0
40
0
40
0.152539052558055
40
0.273175450243531
40
0.36163189281507
40
0.450273825651292
40
0.529063037638176
40
0.604922349502503
40
0.709756098994608
40
0.850413547680495
40
1
40
1
40
1
40
1
41
1
10
19.7778169851361
20
4.61639580837317
30
0
41
1
10
19.5908412245282
20
4.61619105354961
30
0
41
1
10
19.2559923632132
20
4.61569708393057
30
0
41
1
10
18.8127057947019
20
4.61481257361999
30
0
41
1
10
18.4477486798941
20
4.61379263336875
30
0
41
1
10
18.1340844059435
20
4.61313874582385
30
0
41
1
10
17.8358616644496
20
4.61284312436979
30
0
41
1
10
17.5177909123921
20
4.6126058566752
30
0
41
1
10
17.1238827950021
20
4.61215689964408
30
0
41
1
10
16.6396017580668
20
4.61115810685482
30
0
41
1
10
16.2838284589005
20
4.60967939611513
30
0
41
1
10
16.1004701162061
20
4.60875036330117
30
0
0
SPLINE
5
11D
100
AcDbEntity
8
1
62
256
6
ByLayer
370
18
48
1
60
0
100
AcDbSpline
70
4
71
3
72
22
73
18
40
0
40
0
40
0
40
0
40
0.0649705851896867
40
0.11332411754268
40
0.150165364218909
40
0.18887343361332
40
0.229049599818828
40
0.269226201474743
40
0.309397488115954
40
0.349561342753235
40
0.433685717156451
40
0.517781213747526
40
0.59976563268409
40
0.682699147727922
40
0.766511359115243
40
0.863438617434301
40
1
40
1
40
1
40
1
41
1
10
46.9803097403028
20
4.66410729800691
30
0
41
1
10
46.7692021065421
20
4.66397938840632
30
0
41
1
10
46.4009696363155
20
4.66331600542202
30
0
41
1
10
45.9128778234312
20
4.65951008083638
30
0
41
1
10
45.5103132404106
20
4.65851419884848
30
0
41
1
10
45.1341865890334
20
4.65817387727628
30
0
41
1
10
44.7472395064548
20
4.65827005434281
30
0
41
1
10
44.3555314466461
20
4.65843800188293
30
0
41
1
10
43.9638648417311
20
4.65846799396419
30
0
41
1
10
43.4293662515661
20
4.65790629181416
30
0
41
1
10
42.7521169817202
20
4.65542795615997
30
0
41
1
10
41.9389473257317
20
4.65371264757718
30
0
41
1
10
41.1296482204018
20
4.6519569417116
30
0
41
1
10
40.3212700417969
20
4.65256416976589
30
0
41
1
10
39.4643347782694
20
4.65080852990431
30
0
41
1
10
38.4331018490417
20
4.64725558113707
30
0
41
1
10
37.6742548489441
20
4.6472467951684
30
0
41
1
10
37.230426791179
20
4.64663637439082
30
0
0
SPLINE
5
11E
100
AcDbEntity
8
1
62
256
6
ByLayer
370
18
48
1
60
0
100
AcDbSpline
70
4
71
3
72
10
73
6
40
0
40
0
40
0
40
0
40
0.407799209528966
40
0.767374320404551
40
1
40
1
40
1
40
1
41
1
10
16.1004702487379
20
-4.6087443254429
30
0
41
1
10
16.2953955466048
20
-4.60972928068531
30
0
41
1
10
16.6621967293366
20
-4.61123294476891
30
0
41
1
10
17.1401966410746
20
-4.61217440281402
30
0
41
1
10
17.4232687572559
20
-4.612496325015
30
0
41
1
10
17.5344639125513
20
-4.612599872695
30
0
0
SPLINE
5
11F
100
AcDbEntity
8
1
62
256
6
ByLayer
370
18
48
1
60
0
100
AcDbSpline
70
4
71
3
72
16
73
12
40
0
40
0
40
0
40
0
40
0.0254468653412214
40
0.13495633501959
40
0.26717696967331
40
0.385374867454183
40
0.533558319917938
40
0.687437832355296
40
0.775412040323184
40
0.880460446860362
40
1
40
1
40
1
40
1
41
1
10
61.2693752390381
20
1.05281549776203
30
0
41
1
10
61.2214634337031
20
1.06828680296698
30
0
41
1
10
60.9674706754882
20
1.15078262053109
30
0
41
1
10
60.4659418632106
20
1.32077568996357
30
0
41
1
10
59.792377836087
20
1.5550721441607
30
0
41
1
10
59.0489904208774
20
1.8236286156814
30
0
41
1
10
58.2680789534259
20
2.1158647789988
30
0
41
1
10
57.5466404312628
20
2.39661613523239
30
0
41
1
10
56.9074011034001
20
2.65298909778772
30
0
41
1
10
56.3331484706032
20
2.88848000446794
30
0
41
1
10
55.9223561613788
20
3.06207404445794
30
0
41
1
10
55.7041894016089
20
3.15565722262792
30
0
0
LINE
5
7E
100
AcDbEntity
8
81
62
256
6
ByLayer
370
18
48
1
60
0
100
AcDbLine
10
63
20
0
30
0
11
68
21
0
31
0
39
0
210
0
220
0
230
1
0
LINE
5
7F
100
AcDbEntity
8
80
62
256
6
ByLayer
370
18
48
1
60
0
100
AcDbLine
10
0
20
0
30
0
11
-5
21
0
31
0
39
0
210
0
220
0
230
1
0
LINE
5
80
100
AcDbEntity
8
4
62
256
6
ByLayer
370
18
48
0.05
60
0
100
AcDbLine
10
0
20
0
30
0
11
63
21
0
31
0
39
0
210
0
220
0
230
1
0
LINE
5
82
100
AcDbEntity
8
SK4
62
256
6
ByLayer
370
18
48
0.05
60
0
100
AcDbLine
10
-40
20
0
30
0
11
63
21
0
31
0
39
0
210
0
220
0
230
1
0
LINE
5
84
100
AcDbEntity
8
1
62
256
6
ByLayer
370
18
48
1
60
0
100
AcDbLine
10
0
20
-5
30
0
11
0
21
5
31
0
39
0
210
0
220
0
230
1
0
LINE
5
85
100
AcDbEntity
8
1
62
256
6
ByLayer
370
18
48
1
60
0
100
AcDbLine
10
16
20
-4.793588
30
0
11
16
21
-4.412768
31
0
39
0
210
0
220
0
230
1
0
LINE
5
86
100
AcDbEntity
8
1
62
256
6
ByLayer
370
18
48
1
60
0
100
AcDbLine
10
16
20
2.305203
30
0
11
16
21
2.230012
31
0
39
0
210
0
220
0
230
1
0
LINE
5
87
100
AcDbEntity
8
1
62
256
6
ByLayer
370
18
48
1
60
0
100
AcDbLine
10
16
20
2.80822
30
0
11
16
21
4.793588
31
0
39
0
210
0
220
0
230
1
0
LINE
5
88
100
AcDbEntity
8
1
62
256
6
ByLayer
370
13
48
1
60
0
100
AcDbLine
10
0.364542
20
4.765445
30
0
11
0.364542
21
-4.765445
31
0
39
0
210
0
220
0
230
1
0
LINE
5
89
100
AcDbEntity
8
1
62
256
6
ByLayer
370
13
48
1
60
0
100
AcDbLine
10
62.874273
20
0.520888
30
0
11
61.847932
21
1.55111
31
0
39
0
210
0
220
0
230
1
0
LINE
5
8A
100
AcDbEntity
8
1
62
256
6
ByLayer
370
13
48
1
60
0
100
AcDbLine
10
0.182091
20
4.882722
30
0
11
0.182091
21
-4.882722
31
0
39
0
210
0
220
0
230
1
0
LINE
5
8B
100
AcDbEntity
8
SK1
62
256
6
ByLayer
370
18
48
1
60
0
100
AcDbLine
10
-40
20
-3.433456
30
0
11
-40
21
-3.587143
31
0
39
0
210
0
220
0
230
1
0
LINE
5
8D
100
AcDbEntity
8
SK1
62
256
6
ByLayer
370
13
48
1
60
0
100
AcDbLine
10
-39.35
20
-4.256807
30
0
11
-39.35
21
-4.103191
31
0
39
0
210
0
220
0
230
1
0
LINE
5
8E
100
AcDbEntity
8
SK1
62
256
6
ByLayer
370
18
48
1
60
0
100
AcDbLine
10
-39.25
20
-4.41
30
0
11
-39.25
21
-4.235311
31
0
39
0
210
0
220
0
230
1
0
LINE
5
8F
100
AcDbEntity
8
SK1
62
256
6
ByLayer
370
18
48
1
60
0
100
AcDbLine
10
-39.25
20
4.41
30
0
11
-39.25
21
4.373558
31
0
39
0
210
0
220
0
230
1
0
LINE
5
90
100
AcDbEntity
8
SK1
62
256
6
ByLayer
370
18
48
1
60
0
100
AcDbLine
10
-40
20
3.587143
30
0
11
-40
21
-3.433535
31
0
39
0
210
0
220
0
230
1
0
LINE
5
91
100
AcDbEntity
8
SK1
62
256
6
ByLayer
370
18
48
1
60
0
100
AcDbLine
10
0
20
-5
30
0
11
0
21
5
31
0
39
0
210
0
220
0
230
1
0
LINE
5
92
100
AcDbEntity
8
SK1
62
256
6
ByLayer
370
18
48
1
60
0
100
AcDbLine
10
-38.66
20
5
30
0
11
-38.66
21
-5
31
0
39
0
210
0
220
0
230
1
0
LINE
5
93
100
AcDbEntity
8
1
62
256
6
ByLayer
370
18
48
1
60
0
100
AcDbLine
10
0.364542
20
-4.765445
30
0
11
3.705724
21
-4.771459
31
0
39
0
210
0
220
0
230
1
0
LINE
5
94
100
AcDbEntity
8
1
62
256
6
ByLayer
370
18
48
1
60
0
100
AcDbLine
10
6.161724
20
-4.77588
30
0
11
16
21
-4.793588
31
0
39
0
210
0
220
0
230
1
0
LINE
5
95
100
AcDbEntity
8
1
62
256
6
ByLayer
370
18
48
1
60
0
100
AcDbLine
10
19.778563
20
-4.80039
30
0
11
21.107938
21
-4.802783
31
0
39
0
210
0
220
0
230
1
0
LINE
5
96
100
AcDbEntity
8
1
62
256
6
ByLayer
370
18
48
1
60
0
100
AcDbLine
10
33.963123
20
-4.825922
30
0
11
34.912289
21
-4.827631
31
0
39
0
210
0
220
0
230
1
0
LINE
5
97
100
AcDbEntity
8
1
62
256
6
ByLayer
370
18
48
1
60
0
100
AcDbLine
10
46.982768
20
-4.849357
30
0
11
48.23317
21
-4.851608
31
0
39
0
210
0
220
0
230
1
0
LINE
5
98
100
AcDbEntity
8
1
62
256
6
ByLayer
370
18
48
1
60
0
100
AcDbLine
10
48.23317
20
4.851608
30
0
11
46.982768
21
4.849357
31
0
39
0
210
0
220
0
230
1
0
LINE
5
99
100
AcDbEntity
8
1
62
256
6
ByLayer
370
18
48
1
60
0
100
AcDbLine
10
34.912289
20
4.827631
30
0
11
33.963123
21
4.825922
31
0
39
0
210
0
220
0
230
1
0
LINE
5
9A
100
AcDbEntity
8
1
62
256
6
ByLayer
370
18
48
1
60
0
100
AcDbLine
10
21.107938
20
4.802783
30
0
11
19.778563
21
4.80039
31
0
39
0
210
0
220
0
230
1
0
LINE
5
9B
100
AcDbEntity
8
1
62
256
6
ByLayer
370
18
48
1
60
0
100
AcDbLine
10
16
20
4.793588
30
0
11
6.161724
21
4.77588
31
0
39
0
210
0
220
0
230
1
0
LINE
5
9C
100
AcDbEntity
8
1
62
256
6
ByLayer
370
18
48
1
60
0
100
AcDbLine
10
3.705724
20
4.771459
30
0
11
0.364542
21
4.765445
31
0
39
0
210
0
220
0
230
1
0
LINE
5
9D
100
AcDbEntity
8
SK1
62
256
6
ByLayer
370
18
48
1
60
0
100
AcDbLine
10
-39.25
20
-4.41
30
0
11
-38.66
21
-5
31
0
39
0
210
0
220
0
230
1
0
LINE
5
9E
100
AcDbEntity
8
SK1
62
256
6
ByLayer
370
18
48
1
60
0
100
AcDbLine
10
-38.66
20
5
30
0
11
-39.25
21
4.41
31
0
39
0
210
0
220
0
230
1
0
LINE
5
9F
100
AcDbEntity
8
SK1
62
256
6
ByLayer
370
18
48
1
60
0
100
AcDbLine
10
-38.66
20
-5
30
0
11
0
21
-5
31
0
39
0
210
0
220
0
230
1
0
LINE
5
A0
100
AcDbEntity
8
SK1
62
256
6
ByLayer
370
18
48
1
60
0
100
AcDbLine
10
0
20
5
30
0
11
-38.66
21
5
31
0
39
0
210
0
220
0
230
1
0
LINE
5
A1
100
AcDbEntity
8
SK2
62
256
6
ByLayer
370
18
48
1
60
0
100
AcDbLine
10
-40
20
-50.75
30
0
11
0
21
-50.75
31
0
39
0
210
0
220
0
230
1
0
LINE
5
A3
100
AcDbEntity
8
SK2
62
256
6
ByLayer
370
18
48
1
60
0
100
AcDbLine
10
0
20
-6.5875
30
0
11
0
21
-52.75
31
0
39
0
210
0
220
0
230
1
0
LINE
5
A4
100
AcDbEntity
8
SK2
62
256
6
ByLayer
370
18
48
1
60
0
100
AcDbLine
10
-40
20
-5.2475
30
0
11
-40
21
-52.75
31
0
39
0
210
0
220
0
230
1
0
LINE
5
A5
100
AcDbEntity
8
1
62
256
6
ByLayer
370
18
48
1
60
1
100
AcDbLine
10
0
20
-50.75
30
0
11
-3.499998
21
-51.210784
31
0
39
0
210
0
220
0
230
1
0
LINE
5
A6
100
AcDbEntity
8
1
62
256
6
ByLayer
370
18
48
1
60
1
100
AcDbLine
10
-3.499998
20
-51.210784
30
0
11
-3.500002
21
-50.289216
31
0
39
0
210
0
220
0
230
1
0
LINE
5
A7
100
AcDbEntity
8
1
62
256
6
ByLayer
370
18
48
1
60
1
100
AcDbLine
10
-3.500002
20
-50.289216
30
0
11
0
21
-50.75
31
0
39
0
210
0
220
0
230
1
0
LINE
5
A8
100
AcDbEntity
8
1
62
256
6
ByLayer
370
18
48
1
60
1
100
AcDbLine
10
-40
20
-50.75
30
0
11
-36.500002
21
-50.289216
31
0
39
0
210
0
220
0
230
1
0
LINE
5
A9
100
AcDbEntity
8
1
62
256
6
ByLayer
370
18
48
1
60
1
100
AcDbLine
10
-36.500002
20
-50.289216
30
0
11
-36.499998
21
-51.210784
31
0
39
0
210
0
220
0
230
1
0
LINE
5
AA
100
AcDbEntity
8
1
62
256
6
ByLayer
370
18
48
1
60
1
100
AcDbLine
10
-36.499998
20
-51.210784
30
0
11
-40
21
-50.75
31
0
39
0
210
0
220
0
230
1
0
LINE
5
AB
100
AcDbEntity
8
SK2
62
256
6
ByLayer
370
18
48
1
60
0
100
AcDbLine
10
63
20
-61.75
30
0
11
-40
21
-61.75
31
0
39
0
210
0
220
0
230
1
0
LINE
5
AC
100
AcDbEntity
8
SK2
62
256
6
ByLayer
370
18
48
1
60
0
100
AcDbLine
10
-40
20
-5.2475
30
0
11
-40
21
-63.75
31
0
39
0
210
0
220
0
230
1
0
LINE
5
AD
100
AcDbEntity
8
SK2
62
256
6
ByLayer
370
18
48
1
60
0
100
AcDbLine
10
63
20
-1.5875
30
0
11
63
21
-63.75
31
0
39
0
210
0
220
0
230
1
0
LINE
5
AE
100
AcDbEntity
8
1
62
256
6
ByLayer
370
18
48
1
60
1
100
AcDbLine
10
-40
20
-61.75
30
0
11
-36.500002
21
-61.289216
31
0
39
0
210
0
220
0
230
1
0
LINE
5
AF
100
AcDbEntity
8
1
62
256
6
ByLayer
370
18
48
1
60
1
100
AcDbLine
10
-36.500002
20
-61.289216
30
0
11
-36.499998
21
-62.210784
31
0
39
0
210
0
220
0
230
1
0
LINE
5
B0
100
AcDbEntity
8
1
62
256
6
ByLayer
370
18
48
1
60
1
100
AcDbLine
10
-36.499998
20
-62.210784
30
0
11
-40
21
-61.75
31
0
39
0
210
0
220
0
230
1
0
LINE
5
B1
100
AcDbEntity
8
1
62
256
6
ByLayer
370
18
48
1
60
1
100
AcDbLine
10
63
20
-61.75
30
0
11
59.500002
21
-62.210784
31
0
39
0
210
0
220
0
230
1
0
LINE
5
B2
100
AcDbEntity
8
1
62
256
6
ByLayer
370
18
48
1
60
1
100
AcDbLine
10
59.500002
20
-62.210784
30
0
11
59.499998
21
-61.289216
31
0
39
0
210
0
220
0
230
1
0
LINE
5
B3
100
AcDbEntity
8
1
62
256
6
ByLayer
370
18
48
1
60
1
100
AcDbLine
10
59.499998
20
-61.289216
30
0
11
63
21
-61.75
31
0
39
0
210
0
220
0
230
1
0
LINE
5
B4
100
AcDbEntity
8
2
62
256
6
ByLayer
370
18
48
1
60
0
100
AcDbLine
10
69
20
-13.625
30
0
11
69
21
40.964398
31
0
39
0
210
0
220
0
230
1
0
LINE
5
B6
100
AcDbEntity
8
2
62
256
6
ByLayer
370
18
48
1
60
0
100
AcDbLine
10
62.813145
20
-4.875
30
0
11
71
21
-4.875
31
0
39
0
210
0
220
0
230
1
0
LINE
5
B7
100
AcDbEntity
8
2
62
256
6
ByLayer
370
18
48
1
60
0
100
AcDbLine
10
62.813145
20
4.875
30
0
11
71
21
4.875
31
0
39
0
210
0
220
0
230
1
0
LINE
5
B8
100
AcDbEntity
8
1
62
256
6
ByLayer
370
18
48
1
60
1
100
AcDbLine
10
69
20
-4.875
30
0
11
69.460784
21
-8.374998
31
0
39
0
210
0
220
0
230
1
0
LINE
5
B9
100
AcDbEntity
8
1
62
256
6
ByLayer
370
18
48
1
60
1
100
AcDbLine
10
69.460784
20
-8.374998
30
0
11
68.539216
21
-8.375002
31
0
39
0
210
0
220
0
230
1
0
LINE
5
BA
100
AcDbEntity
8
1
62
256
6
ByLayer
370
18
48
1
60
1
100
AcDbLine
10
68.539216
20
-8.375002
30
0
11
69
21
-4.875
31
0
39
0
210
0
220
0
230
1
0
LINE
5
BB
100
AcDbEntity
8
1
62
256
6
ByLayer
370
18
48
1
60
1
100
AcDbLine
10
69
20
4.875
30
0
11
68.539216
21
8.374998
31
0
39
0
210
0
220
0
230
1
0
LINE
5
BC
100
AcDbEntity
8
1
62
256
6
ByLayer
370
18
48
1
60
1
100
AcDbLine
10
68.539216
20
8.374998
30
0
11
69.460784
21
8.375002
31
0
39
0
210
0
220
0
230
1
0
LINE
5
BD
100
AcDbEntity
8
1
62
256
6
ByLayer
370
18
48
1
60
1
100
AcDbLine
10
69.460784
20
8.375002
30
0
11
69
21
4.875
31
0
39
0
210
0
220
0
230
1
0
LINE
5
BE
100
AcDbEntity
8
SK2
62
256
6
ByLayer
370
18
48
1
60
0
100
AcDbLine
10
-50.625
20
-5
30
0
11
-50.625
21
33.565751
31
0
39
0
210
0
220
0
230
1
0
LINE
5
BF
100
AcDbEntity
8
SK2
62
256
6
ByLayer
370
18
48
1
60
0
100
AcDbLine
10
-40.2475
20
-5
30
0
11
-52.625
21
-5
31
0
39
0
210
0
220
0
230
1
0
LINE
5
C0
100
AcDbEntity
8
SK2
62
256
6
ByLayer
370
18
48
1
60
0
100
AcDbLine
10
-40.2475
20
5
30
0
11
-52.625
21
5
31
0
39
0
210
0
220
0
230
1
0
LINE
5
C1
100
AcDbEntity
8
1
62
256
6
ByLayer
370
18
48
1
60
1
100
AcDbLine
10
-50.625
20
-5
30
0
11
-51.085784
21
-1.500002
31
0
39
0
210
0
220
0
230
1
0
LINE
5
C2
100
AcDbEntity
8
1
62
256
6
ByLayer
370
18
48
1
60
1
100
AcDbLine
10
-51.085784
20
-1.500002
30
0
11
-50.164216
21
-1.499998
31
0
39
0
210
0
220
0
230
1
0
LINE
5
C3
100
AcDbEntity
8
1
62
256
6
ByLayer
370
18
48
1
60
1
100
AcDbLine
10
-50.164216
20
-1.499998
30
0
11
-50.625
21
-5
31
0
39
0
210
0
220
0
230
1
0
LINE
5
C4
100
AcDbEntity
8
1
62
256
6
ByLayer
370
18
48
1
60
1
100
AcDbLine
10
-50.625
20
5
30
0
11
-50.164216
21
1.500002
31
0
39
0
210
0
220
0
230
1
0
LINE
5
C5
100
AcDbEntity
8
1
62
256
6
ByLayer
370
18
48
1
60
1
100
AcDbLine
10
-50.164216
20
1.500002
30
0
11
-51.085784
21
1.499998
31
0
39
0
210
0
220
0
230
1
0
LINE
5
C6
100
AcDbEntity
8
1
62
256
6
ByLayer
370
18
48
1
60
1
100
AcDbLine
10
-51.085784
20
1.499998
30
0
11
-50.625
21
5
31
0
39
0
210
0
220
0
230
1
0
LINE
5
C7
100
AcDbEntity
8
SK2
62
256
6
ByLayer
370
13
48
1
60
0
100
AcDbLine
10
63.542957
20
-1.491762
30
0
11
69.27302
21
-17.23498
31
0
39
0
210
0
220
0
230
1
0
LINE
5
C8
100
AcDbEntity
8
SK2
62
256
6
ByLayer
370
13
48
1
60
0
100
AcDbLine
10
63.542957
20
1.491762
30
0
11
69.27302
21
17.23498
31
0
39
0
210
0
220
0
230
1
0
LINE
5
C9
100
AcDbEntity
8
1
62
256
6
ByLayer
370
18
48
1
60
1
100
AcDbLine
10
68.58898
20
-15.355595
30
0
11
71.62894
21
-13.560895
31
0
39
0
210
0
220
0
230
1
0
LINE
5
CA
100
AcDbEntity
8
1
62
256
6
ByLayer
370
18
48
1
60
1
100
AcDbLine
10
71.62894
20
-13.560895
30
0
11
71.989862
21
-14.408846
31
0
39
0
210
0
220
0
230
1
0
LINE
5
CB
100
AcDbEntity
8
1
62
256
6
ByLayer
370
18
48
1
60
1
100
AcDbLine
10
71.989862
20
-14.408846
30
0
11
68.58898
21
-15.355595
31
0
39
0
210
0
220
0
230
1
0
LINE
5
CC
100
AcDbEntity
8
1
62
256
6
ByLayer
370
18
48
1
60
1
100
AcDbLine
10
68.58898
20
15.355595
30
0
11
71.989859
21
14.408848
31
0
39
0
210
0
220
0
230
1
0
LINE
5
CD
100
AcDbEntity
8
1
62
256
6
ByLayer
370
18
48
1
60
1
100
AcDbLine
10
71.989859
20
14.408848
30
0
11
71.628943
21
13.560893
31
0
39
0
210
0
220
0
230
1
0
LINE
5
CE
100
AcDbEntity
8
1
62
256
6
ByLayer
370
18
48
1
60
1
100
AcDbLine
10
71.628943
20
13.560893
30
0
11
68.58898
21
15.355595
31
0
39
0
210
0
220
0
230
1
0
LINE
5
120
100
AcDbEntity
8
1
62
256
6
ByLayer
370
13
48
0.05
60
0
100
AcDbLine
10
-46.5
20
0
30
0
11
67.756476
21
0
31
0
39
0
210
0
220
0
230
1
0
LINE
5
124
100
AcDbEntity
8
1
62
256
6
ByLayer
370
18
48
1
60
1
100
AcDbLine
10
0
20
-50.75
30
0
11
-3.499998
21
-51.210784
31
0
39
0
210
0
220
0
230
1
0
LINE
5
125
100
AcDbEntity
8
1
62
256
6
ByLayer
370
18
48
1
60
1
100
AcDbLine
10
-3.499998
20
-51.210784
30
0
11
-3.500002
21
-50.289216
31
0
39
0
210
0
220
0
230
1
0
LINE
5
126
100
AcDbEntity
8
1
62
256
6
ByLayer
370
18
48
1
60
1
100
AcDbLine
10
-3.500002
20
-50.289216
30
0
11
0
21
-50.75
31
0
39
0
210
0
220
0
230
1
0
LINE
5
128
100
AcDbEntity
8
1
62
256
6
ByLayer
370
18
48
1
60
1
100
AcDbLine
10
-40
20
-50.75
30
0
11
-36.500002
21
-50.289216
31
0
39
0
210
0
220
0
230
1
0
LINE
5
129
100
AcDbEntity
8
1
62
256
6
ByLayer
370
18
48
1
60
1
100
AcDbLine
10
-36.500002
20
-50.289216
30
0
11
-36.499998
21
-51.210784
31
0
39
0
210
0
220
0
230
1
0
LINE
5
12A
100
AcDbEntity
8
1
62
256
6
ByLayer
370
18
48
1
60
1
100
AcDbLine
10
-36.499998
20
-51.210784
30
0
11
-40
21
-50.75
31
0
39
0
210
0
220
0
230
1
0
LINE
5
12D
100
AcDbEntity
8
1
62
256
6
ByLayer
370
18
48
1
60
1
100
AcDbLine
10
-40
20
-61.75
30
0
11
-36.500002
21
-61.289216
31
0
39
0
210
0
220
0
230
1
0
LINE
5
12E
100
AcDbEntity
8
1
62
256
6
ByLayer
370
18
48
1
60
1
100
AcDbLine
10
-36.500002
20
-61.289216
30
0
11
-36.499998
21
-62.210784
31
0
39
0
210
0
220
0
230
1
0
LINE
5
12F
100
AcDbEntity
8
1
62
256
6
ByLayer
370
18
48
1
60
1
100
AcDbLine
10
-36.499998
20
-62.210784
30
0
11
-40
21
-61.75
31
0
39
0
210
0
220
0
230
1
0
LINE
5
131
100
AcDbEntity
8
1
62
256
6
ByLayer
370
18
48
1
60
1
100
AcDbLine
10
63
20
-61.75
30
0
11
59.500002
21
-62.210784
31
0
39
0
210
0
220
0
230
1
0
LINE
5
132
100
AcDbEntity
8
1
62
256
6
ByLayer
370
18
48
1
60
1
100
AcDbLine
10
59.500002
20
-62.210784
30
0
11
59.499998
21
-61.289216
31
0
39
0
210
0
220
0
230
1
0
LINE
5
133
100
AcDbEntity
8
1
62
256
6
ByLayer
370
18
48
1
60
1
100
AcDbLine
10
59.499998
20
-61.289216
30
0
11
63
21
-61.75
31
0
39
0
210
0
220
0
230
1
0
LINE
5
137
100
AcDbEntity
8
1
62
256
6
ByLayer
370
18
48
1
60
1
100
AcDbLine
10
69
20
-4.875
30
0
11
69.460784
21
-8.374998
31
0
39
0
210
0
220
0
230
1
0
LINE
5
138
100
AcDbEntity
8
1
62
256
6
ByLayer
370
18
48
1
60
1
100
AcDbLine
10
69.460784
20
-8.374998
30
0
11
68.539216
21
-8.375002
31
0
39
0
210
0
220
0
230
1
0
LINE
5
139
100
AcDbEntity
8
1
62
256
6
ByLayer
370
18
48
1
60
1
100
AcDbLine
10
68.539216
20
-8.375002
30
0
11
69
21
-4.875
31
0
39
0
210
0
220
0
230
1
0
LINE
5
13B
100
AcDbEntity
8
1
62
256
6
ByLayer
370
18
48
1
60
1
100
AcDbLine
10
69
20
4.875
30
0
11
68.539216
21
8.374998
31
0
39
0
210
0
220
0
230
1
0
LINE
5
13C
100
AcDbEntity
8
1
62
256
6
ByLayer
370
18
48
1
60
1
100
AcDbLine
10
68.539216
20
8.374998
30
0
11
69.460784
21
8.375002
31
0
39
0
210
0
220
0
230
1
0
LINE
5
13D
100
AcDbEntity
8
1
62
256
6
ByLayer
370
18
48
1
60
1
100
AcDbLine
10
69.460784
20
8.375002
30
0
11
69
21
4.875
31
0
39
0
210
0
220
0
230
1
0
LINE
5
141
100
AcDbEntity
8
1
62
256
6
ByLayer
370
18
48
1
60
1
100
AcDbLine
10
-50.625
20
-5
30
0
11
-51.085784
21
-1.500002
31
0
39
0
210
0
220
0
230
1
0
LINE
5
142
100
AcDbEntity
8
1
62
256
6
ByLayer
370
18
48
1
60
1
100
AcDbLine
10
-51.085784
20
-1.500002
30
0
11
-50.164216
21
-1.499998
31
0
39
0
210
0
220
0
230
1
0
LINE
5
143
100
AcDbEntity
8
1
62
256
6
ByLayer
370
18
48
1
60
1
100
AcDbLine
10
-50.164216
20
-1.499998
30
0
11
-50.625
21
-5
31
0
39
0
210
0
220
0
230
1
0
LINE
5
145
100
AcDbEntity
8
1
62
256
6
ByLayer
370
18
48
1
60
1
100
AcDbLine
10
-50.625
20
5
30
0
11
-50.164216
21
1.500002
31
0
39
0
210
0
220
0
230
1
0
LINE
5
146
100
AcDbEntity
8
1
62
256
6
ByLayer
370
18
48
1
60
1
100
AcDbLine
10
-50.164216
20
1.500002
30
0
11
-51.085784
21
1.499998
31
0
39
0
210
0
220
0
230
1
0
LINE
5
147
100
AcDbEntity
8
1
62
256
6
ByLayer
370
18
48
1
60
1
100
AcDbLine
10
-51.085784
20
1.499998
30
0
11
-50.625
21
5
31
0
39
0
210
0
220
0
230
1
0
LINE
5
14A
100
AcDbEntity
8
1
62
256
6
ByLayer
370
18
48
1
60
1
100
AcDbLine
10
68.58898
20
-15.355595
30
0
11
71.62894
21
-13.560895
31
0
39
0
210
0
220
0
230
1
0
LINE
5
14B
100
AcDbEntity
8
1
62
256
6
ByLayer
370
18
48
1
60
1
100
AcDbLine
10
71.62894
20
-13.560895
30
0
11
71.989862
21
-14.408846
31
0
39
0
210
0
220
0
230
1
0
LINE
5
14C
100
AcDbEntity
8
1
62
256
6
ByLayer
370
18
48
1
60
1
100
AcDbLine
10
71.989862
20
-14.408846
30
0
11
68.58898
21
-15.355595
31
0
39
0
210
0
220
0
230
1
0
LINE
5
14E
100
AcDbEntity
8
1
62
256
6
ByLayer
370
18
48
1
60
1
100
AcDbLine
10
68.58898
20
15.355595
30
0
11
71.989859
21
14.408848
31
0
39
0
210
0
220
0
230
1
0
LINE
5
14F
100
AcDbEntity
8
1
62
256
6
ByLayer
370
18
48
1
60
1
100
AcDbLine
10
71.989859
20
14.408848
30
0
11
71.628943
21
13.560893
31
0
39
0
210
0
220
0
230
1
0
LINE
5
150
100
AcDbEntity
8
1
62
256
6
ByLayer
370
18
48
1
60
1
100
AcDbLine
10
71.628943
20
13.560893
30
0
11
68.58898
21
15.355595
31
0
39
0
210
0
220
0
230
1
0
MTEXT
5
121
100
AcDbEntity
8
SK2
62
256
6
ByLayer
370
18
48
1
60
0
100
AcDbMText
10
-22.089233
20
-49.717366
30
0
210
0
220
0
230
1
1
\W0.7361;40
40
3.5
41
0
44
1.084337
50
0
71
7
72
5
7
iso_b_vert
0
MTEXT
5
12C
100
AcDbEntity
8
SK2
62
256
6
ByLayer
370
18
48
1
60
0
100
AcDbMText
10
8.724734
20
-60.717366
30
0
210
0
220
0
230
1
1
\W0.6217;103
40
3.5
41
0
44
1.084337
50
0
71
7
72
5
7
iso_b_vert
0
MTEXT
5
135
100
AcDbEntity
8
2
62
256
6
ByLayer
370
18
48
1
60
0
100
AcDbMText
10
67.435366
20
25.934844
30
0
210
0
220
0
230
1
1
%%c
40
3.5
41
0
44
1.084337
50
90
71
7
72
5
7
iso_b_vert
0
MTEXT
5
136
100
AcDbEntity
8
2
62
256
6
ByLayer
370
18
48
1
60
0
100
AcDbMText
10
67.435366
20
32.9075
30
0
210
0
220
0
230
1
1
\W0.7346;9.75
40
3.5
41
0
44
1.084337
50
90
71
7
72
5
7
iso_b_vert
0
MTEXT
5
13F
100
AcDbEntity
8
SK2
62
256
6
ByLayer
370
18
48
1
60
0
100
AcDbMText
10
-52.189634
20
23.444529
30
0
210
0
220
0
230
1
1
%%c
40
3.5
41
0
44
1.084337
50
90
71
7
72
5
7
iso_b_vert
0
MTEXT
5
140
100
AcDbEntity
8
SK2
62
256
6
ByLayer
370
18
48
1
60
0
100
AcDbMText
10
-52.189634
20
30.417185
30
0
210
0
220
0
230
1
1
\W0.5321;10
40
3.5
41
0
44
1.084337
50
90
71
7
72
5
7
iso_b_vert
0
MTEXT
5
149
100
AcDbEntity
8
SK2
62
256
6
ByLayer
370
18
48
1
60
0
100
AcDbMText
10
75.269434
20
-2.467366
30
0
210
0
220
0
230
1
1
\W0.7825;140%%d
40
3.5
41
0
44
1.084337
50
0
71
7
72
5
7
iso_b_vert
0
MTEXT
5
152
100
AcDbEntity
8
SK6
62
256
6
ByLayer
370
18
48
1
60
0
100
AcDbMText
10
-20.15712
20
-77.467366
30
0
210
0
220
0
230
1
1
\W0.7562;860.1-0975-047A1-SD S2BM
40
3.5
41
0
44
1.084337
50
0
71
7
72
5
7
iso_b_vert
0
HATCH
5
127
100
AcDbEntity
8
SK2
62
256
6
ByLayer
370
13
48
1
60
0
100
AcDbHatch
10
0
20
0
30
0
210
0
220
0
230
1
2
ANSI31
70
0
71
0
91
1
92
5
93
3
72
1
10
-2.84E-14
20
-50.7500000000002
11
-3.49999830744685
21
-51.210783741553
72
1
10
-3.49999830744685
20
-51.210783741553
11
-3.50000169255321
21
-50.2892162584475
72
1
10
-3.50000169255321
20
-50.2892162584475
11
-2.84E-14
21
-50.7500000000002
97
0
75
0
76
1
52
0
41
0.0062
77
0
78
1
53
45
43
0
44
0
45
-0.0139193969876572
46
0.0139193969876572
79
0
47
0
98
1
10
0
20
0
0
HATCH
5
12B
100
AcDbEntity
8
SK2
62
256
6
ByLayer
370
13
48
1
60
0
100
AcDbHatch
10
0
20
0
30
0
210
0
220
0
230
1
2
ANSI31
70
0
71
0
91
1
92
5
93
3
72
1
10
-40
20
-50.7500000000002
11
-36.5000016925532
21
-50.2892162584475
72
1
10
-36.5000016925532
20
-50.2892162584475
11
-36.4999983074468
21
-51.210783741553
72
1
10
-36.4999983074468
20
-51.210783741553
11
-40
21
-50.7500000000002
97
0
75
0
76
1
52
0
41
0.0062
77
0
78
1
53
45
43
0
44
0
45
-0.0139193969876572
46
0.0139193969876572
79
0
47
0
98
1
10
0
20
0
0
HATCH
5
130
100
AcDbEntity
8
SK2
62
256
6
ByLayer
370
13
48
1
60
0
100
AcDbHatch
10
0
20
0
30
0
210
0
220
0
230
1
2
ANSI31
70
0
71
0
91
1
92
5
93
3
72
1
10
-40
20
-61.7500000000002
11
-36.5000016925532
21
-61.2892162584475
72
1
10
-36.5000016925532
20
-61.2892162584475
11
-36.4999983074468
21
-62.210783741553
72
1
10
-36.4999983074468
20
-62.210783741553
11
-40
21
-61.7500000000002
97
0
75
0
76
1
52
0
41
0.0062
77
0
78
1
53
45
43
0
44
0
45
-0.0139193969876572
46
0.0139193969876572
79
0
47
0
98
1
10
0
20
0
0
HATCH
5
134
100
AcDbEntity
8
SK2
62
256
6
ByLayer
370
13
48
1
60
0
100
AcDbHatch
10
0
20
0
30
0
210
0
220
0
230
1
2
ANSI31
70
0
71
0
91
1
92
5
93
3
72
1
10
63
20
-61.7500000000002
11
59.5000016925532
21
-62.210783741553
72
1
10
59.5000016925532
20
-62.210783741553
11
59.4999983074468
21
-61.2892162584475
72
1
10
59.4999983074468
20
-61.2892162584475
11
63
21
-61.7500000000002
97
0
75
0
76
1
52
0
41
0.0062
77
0
78
1
53
45
43
0
44
0
45
-0.0139193969876572
46
0.0139193969876572
79
0
47
0
98
1
10
0
20
0
0
HATCH
5
13A
100
AcDbEntity
8
2
62
256
6
ByLayer
370
13
48
1
60
0
100
AcDbHatch
10
0
20
0
30
0
210
0
220
0
230
1
2
ANSI31
70
0
71
0
91
1
92
5
93
3
72
1
10
69
20
-4.87500000000023
11
69.4607837415528
21
-8.37499830744704
72
1
10
69.4607837415528
20
-8.37499830744704
11
68.5392162584472
21
-8.37500169255341
72
1
10
68.5392162584472
20
-8.37500169255341
11
69
21
-4.87500000000023
97
0
75
0
76
1
52
0
41
0.0062
77
0
78
1
53
45
43
0
44
0
45
-0.0139193969876572
46
0.0139193969876572
79
0
47
0
98
1
10
0
20
0
0
HATCH
5
13E
100
AcDbEntity
8
2
62
256
6
ByLayer
370
13
48
1
60
0
100
AcDbHatch
10
0
20
0
30
0
210
0
220
0
230
1
2
ANSI31
70
0
71
0
91
1
92
5
93
3
72
1
10
69
20
4.87499999999977
11
68.5392162584472
21
8.37499830744659
72
1
10
68.5392162584472
20
8.37499830744659
11
69.4607837415528
21
8.37500169255296
72
1
10
69.4607837415528
20
8.37500169255296
11
69
21
4.87499999999977
97
0
75
0
76
1
52
0
41
0.0062
77
0
78
1
53
45
43
0
44
0
45
-0.0139193969876572
46
0.0139193969876572
79
0
47
0
98
1
10
0
20
0
0
HATCH
5
144
100
AcDbEntity
8
SK2
62
256
6
ByLayer
370
13
48
1
60
0
100
AcDbHatch
10
0
20
0
30
0
210
0
220
0
230
1
2
ANSI31
70
0
71
0
91
1
92
5
93
3
72
1
10
-50.625
20
-5
11
-51.0857837415528
21
-1.50000169255318
72
1
10
-51.0857837415528
20
-1.50000169255318
11
-50.1642162584472
21
-1.49999830744682
72
1
10
-50.1642162584472
20
-1.49999830744682
11
-50.625
21
-5
97
0
75
0
76
1
52
0
41
0.0062
77
0
78
1
53
45
43
0
44
0
45
-0.0139193969876572
46
0.0139193969876572
79
0
47
0
98
1
10
0
20
0
0
HATCH
5
148
100
AcDbEntity
8
SK2
62
256
6
ByLayer
370
13
48
1
60
0
100
AcDbHatch
10
0
20
0
30
0
210
0
220
0
230
1
2
ANSI31
70
0
71
0
91
1
92
5
93
3
72
1
10
-50.625
20
5
11
-50.1642162584472
21
1.50000169255318
72
1
10
-50.1642162584472
20
1.50000169255318
11
-51.0857837415528
21
1.49999830744682
72
1
10
-51.0857837415528
20
1.49999830744682
11
-50.625
21
5
97
0
75
0
76
1
52
0
41
0.0062
77
0
78
1
53
45
43
0
44
0
45
-0.0139193969876572
46
0.0139193969876572
79
0
47
0
98
1
10
0
20
0
0
HATCH
5
14D
100
AcDbEntity
8
SK2
62
256
6
ByLayer
370
13
48
1
60
0
100
AcDbHatch
10
0
20
0
30
0
210
0
220
0
230
1
2
ANSI31
70
0
71
0
91
1
92
5
93
3
72
1
10
68.588979597421
20
-15.355595241707
11
71.6289400391414
21
-13.5608946200475
72
1
10
71.6289400391414
20
-13.5608946200475
11
71.9898618333187
21
-14.4088463193894
72
1
10
71.9898618333187
20
-14.4088463193894
11
68.588979597421
21
-15.355595241707
97
0
75
0
76
1
52
0
41
0.0062
77
0
78
1
53
45
43
0
44
0
45
-0.0139193969876572
46
0.0139193969876572
79
0
47
0
98
1
10
0
20
0
0
HATCH
5
151
100
AcDbEntity
8
SK2
62
256
6
ByLayer
370
13
48
1
60
0
100
AcDbHatch
10
0
20
0
30
0
210
0
220
0
230
1
2
ANSI31
70
0
71
0
91
1
92
5
93
3
72
1
10
68.5889795974211
20
15.3555952417065
11
71.9898587186134
21
14.4088476451172
72
1
10
71.9898587186134
20
14.4088476451172
11
71.6289431538468
21
13.5608932943186
72
1
10
71.6289431538468
20
13.5608932943186
11
68.5889795974211
21
15.3555952417065
97
0
75
0
76
1
52
0
41
0.0062
77
0
78
1
53
45
43
0
44
0
45
-0.0139193969876572
46
0.0139193969876572
79
0
47
0
98
1
10
0
20
0
0
DIMENSION
5
155
100
AcDbEntity
8
2
62
256
6
ByLayer
370
18
48
1
60
0
100
AcDbDimension
2
_U0
10
0
20
-50.75
30
0
11
31.5
21
-50.75
31
0
70
32
71
1
72
1
41
1
210
0
220
0
230
1
3
Standard
100
AcDbAlignedDimension
13
63
23
0
33
0
14
0
24
-5
34
0
50
0
100
AcDbRotatedDimension
1001
ACAD
1000
DSTYLE
1002
{
1070
   371
1070
    13
1070
   372
1070
    13
1070
   170
1070
     0
1070
   144
1040
1.0
1070
   277
1070
     2
1070
   284
1070
     8
1070
   278
1070
    46
1070
   146
1040
1.0
1070
   345
1005
16
1070
   347
1005
16
1070
   346
1005
16
1070
   344
1005
0
1070
   343
1005
0
1070
   172
1070
     1
1070
    76
1070
     0
1070
    75
1070
     0
1070
   282
1070
     0
1070
   281
1070
     0
1070
    71
1070
     0
1070
    74
1070
     0
1070
   279
1070
     0
1070
   173
1070
     1
1070
   340
1005
122
1070
   271
1070
     2
1070
   272
1070
     3
1070
    77
1070
     1
1070
    73
1070
     1
1070
   171
1070
     3
1070
   274
1070
     4
1070
   177
1070
     2
1070
   176
1070
     2
1070
   178
1070
     2
1070
    78
1070
     8
1070
    48
1040
-0.1
1070
    41
1040
3.5
1070
   147
1040
1.75
1070
    42
1040
1.5875
1070
    44
1040
2.0
1070
   140
1040
3.5
1002
}
1001
ACAD_DSTYLE_DIM_LINETYPE
1070
   380
1005
16
1001
ACAD_DSTYLE_DIM_EXT1_LINETYPE
1070
   381
1005
16
1001
ACAD_DSTYLE_DIM_EXT2_LINETYPE
1070
   382
1005
16
0
DIMENSION
5
16E
100
AcDbEntity
8
SK2
62
256
6
ByLayer
370
18
48
1
60
0
100
AcDbDimension
2
_U1
10
2
20
-42.75
30
0
11
32.5
21
-42.75
31
0
70
32
71
1
72
1
41
1
210
0
220
0
230
1
3
Standard
100
AcDbAlignedDimension
13
63
23
0
33
0
14
2
24
0
34
0
50
0
100
AcDbRotatedDimension
1001
ACAD
1000
DSTYLE
1002
{
1070
   371
1070
    13
1070
   372
1070
    13
1070
   170
1070
     0
1070
   144
1040
1.0
1070
   277
1070
     2
1070
   284
1070
     8
1070
   278
1070
    46
1070
   146
1040
1.0
1070
   345
1005
16
1070
   347
1005
16
1070
   346
1005
16
1070
   344
1005
0
1070
   343
1005
0
1070
   172
1070
     1
1070
    76
1070
     0
1070
    75
1070
     0
1070
   282
1070
     0
1070
   281
1070
     0
1070
    71
1070
     0
1070
    74
1070
     0
1070
   279
1070
     0
1070
   173
1070
     1
1070
   340
1005
122
1070
   271
1070
     2
1070
   272
1070
     3
1070
    77
1070
     1
1070
    73
1070
     1
1070
   171
1070
     3
1070
   274
1070
     4
1070
   177
1070
     2
1070
   176
1070
     2
1070
   178
1070
     2
1070
    78
1070
     8
1070
    48
1040
-0.1
1070
    41
1040
3.5
1070
   147
1040
1.75
1070
    42
1040
1.5875
1070
    44
1040
2.0
1070
   140
1040
3.5
1002
}
1001
ACAD_DSTYLE_DIM_LINETYPE
1070
   380
1005
16
1001
ACAD_DSTYLE_DIM_EXT1_LINETYPE
1070
   381
1005
16
1001
ACAD_DSTYLE_DIM_EXT2_LINETYPE
1070
   382
1005
16
0
DIMENSION
5
186
100
AcDbEntity
8
SK2
62
256
6
ByLayer
370
18
48
1
60
0
100
AcDbDimension
2
_U2
10
16
20
-34.25
30
0
11
39.5
21
-34.25
31
0
70
32
71
1
72
1
41
1
210
0
220
0
230
1
3
Standard
100
AcDbAlignedDimension
13
63
23
0
33
0
14
16
24
-4.875
34
0
50
0
100
AcDbRotatedDimension
1001
ACAD
1000
DSTYLE
1002
{
1070
   371
1070
    13
1070
   372
1070
    13
1070
   170
1070
     0
1070
   144
1040
1.0
1070
   277
1070
     2
1070
   284
1070
     8
1070
   278
1070
    46
1070
   146
1040
1.0
1070
   345
1005
16
1070
   347
1005
16
1070
   346
1005
16
1070
   344
1005
0
1070
   343
1005
0
1070
   172
1070
     1
1070
    76
1070
     0
1070
    75
1070
     0
1070
   282
1070
     0
1070
   281
1070
     0
1070
    71
1070
     0
1070
    74
1070
     0
1070
   279
1070
     0
1070
   173
1070
     1
1070
   340
1005
122
1070
   271
1070
     2
1070
   272
1070
     3
1070
    77
1070
     1
1070
    73
1070
     1
1070
   171
1070
     3
1070
   274
1070
     4
1070
   177
1070
     2
1070
   176
1070
     2
1070
   178
1070
     2
1070
    78
1070
     8
1070
    48
1040
-0.1
1070
    41
1040
3.5
1070
   147
1040
1.75
1070
    42
1040
1.5875
1070
    44
1040
2.0
1070
   140
1040
3.5
1002
}
1001
ACAD_DSTYLE_DIM_LINETYPE
1070
   380
1005
16
1001
ACAD_DSTYLE_DIM_EXT1_LINETYPE
1070
   381
1005
16
1001
ACAD_DSTYLE_DIM_EXT2_LINETYPE
1070
   382
1005
16
0
ENDSEC
0
SECTION
2
OBJECTS
0
DICTIONARY
5
210
330
0
100
AcDbDictionary
280
0
281
1
3
ACAD_GROUP
350
211
3
ACAD_MLINESTYLE
350
212
0
DICTIONARY
5
211
330
0
100
AcDbDictionary
280
0
281
1
0
DICTIONARY
5
212
330
0
100
AcDbDictionary
280
0
281
1
3
Standard
350
18
0
MLINESTYLE
5
18
330
212
100
AcDbMlineStyle
2
Standard
70
0
3

62
256
51
90
52
90
71
2
49
-0.5
62
256
6
ByLayer
49
0.5
62
256
6
ByLayer
0
RASTERVARIABLES
5
1fe
330

100
AcDbRasterVariables
90
0
70
1
71
1
72
1
0
ENDSEC
0
EOF
