0
SECTION
2
HEADER
9
$ACADVER
1
AC1015
9
$DWGCODEPAGE
3
ANSI_1252
9
$HANDSEED
5
225
9
$ANGBASE
50
0
9
$ANGDIR
70
0
9
$ATTMODE
70
1
9
$AUNITS
70
0
9
$AUPREC
70
0
9
$CECOLOR
62
256
9
$CELTSCALE
40
1
9
$CELTYPE
6
ByLayer
9
$CELWEIGHT
370
18
9
$CLAYER
8
0
9
$CMLJUST
70
0
9
$CMLSCALE
40
1
9
$CMLSTYLE
2
Standard
9
$DIMSTYLE
2
Standard
9
$TEXTSIZE
40
0.2
9
$TEXTSTYLE
7
Standard
9
$LUNITS
70
2
9
$LUPREC
70
4
9
$EXTNAMES
290
1
9
$INSUNITS
70
4
9
$LTSCALE
40
1
9
$LWDISPLAY
290
1
9
$PDMODE
70
0
9
$PDSIZE
40
0
9
$PLINEGEN
70
0
0
ENDSEC
0
SECTION
2
CLASSES
0
CLASS
1
RASTERVARIABLES
2
AcDbRasterVariables
3
ISM
90
0
280
0
281
0
0
ENDSEC
0
SECTION
2
TABLES
0
TABLE
2
VPORT
5
21b
100
AcDbSymbolTable
0
VPORT
5
1
100
AcDbSymbolTableRecord
100
AcDbViewportTableRecord
2
*Active
70
0
10
0
20
0
11
1
21
1
12
-1
22
1
13
0
23
0
14
0.5
24
0.5
15
10
25
10
16
0
26
0
36
1
17
0
27
0
37
0
0
ENDTAB
0
TABLE
2
LTYPE
5
21c
100
AcDbSymbolTable
0
LTYPE
5
14
100
AcDbSymbolTableRecord
100
AcDbLinetypeTableRecord
70
0
2
ByBlock
3

72
65
73
0
40
0
0
LTYPE
5
15
100
AcDbSymbolTableRecord
100
AcDbLinetypeTableRecord
70
0
2
ByLayer
3

72
65
73
0
40
0
0
LTYPE
5
16
100
AcDbSymbolTableRecord
100
AcDbLinetypeTableRecord
70
0
2
Continuous
3
Solid line
72
65
73
0
40
0
0
LTYPE
5
6E
100
AcDbSymbolTableRecord
100
AcDbLinetypeTableRecord
70
0
2
CENTER
3
____ _ ____ _ ____ _ ____
72
65
73
4
40
47.5
49
22
74
0
49
-8.5
74
0
49
8.5
74
0
49
-8.5
74
0
0
LTYPE
5
6F
100
AcDbSymbolTableRecord
100
AcDbLinetypeTableRecord
70
0
2
DASHED
3
__ __ __ __ __ __ __ __ __
72
65
73
2
40
25.72
49
12.86
74
0
49
-12.86
74
0
0
ENDTAB
0
TABLE
2
LAYER
5
21d
100
AcDbSymbolTable
0
LAYER
5
10
100
AcDbSymbolTableRecord
100
AcDbLayerTableRecord
2
0
70
0
62
7
6
Continuous
290
1
370
-3
390
0
0
LAYER
5
71
100
AcDbSymbolTableRecord
100
AcDbLayerTableRecord
2
81
70
0
62
-3
6
Continuous
290
1
370
-3
390
0
0
LAYER
5
73
100
AcDbSymbolTableRecord
100
AcDbLayerTableRecord
2
80
70
0
62
-6
6
Continuous
290
1
370
-3
390
0
0
LAYER
5
75
100
AcDbSymbolTableRecord
100
AcDbLayerTableRecord
2
1
70
0
62
4
6
Continuous
290
1
370
-3
390
0
0
LAYER
5
148
100
AcDbSymbolTableRecord
100
AcDbLayerTableRecord
2
Defpoints
70
0
62
7
6
Continuous
290
0
370
-3
390
0
0
LAYER
5
155
100
AcDbSymbolTableRecord
100
AcDbLayerTableRecord
2
2
70
0
62
7
6
Continuous
290
1
370
-3
390
0
0
LAYER
5
208
100
AcDbSymbolTableRecord
100
AcDbLayerTableRecord
2
SK1
70
0
62
4
6
Continuous
290
1
370
-3
390
0
0
LAYER
5
209
100
AcDbSymbolTableRecord
100
AcDbLayerTableRecord
2
SK2
70
0
62
7
6
Continuous
290
1
370
-3
390
0
0
LAYER
5
20a
100
AcDbSymbolTableRecord
100
AcDbLayerTableRecord
2
SK6
70
0
62
5
6
Continuous
290
1
370
-3
390
0
0
ENDTAB
0
TABLE
2
STYLE
5
21e
100
AcDbSymbolTable
0
STYLE
5
11
100
AcDbSymbolTableRecord
100
AcDbTextStyleTableRecord
2
Standard
3
txt
70
0
71
0
40
0
41
1
42
0
50
0
0
STYLE
5
137
100
AcDbSymbolTableRecord
100
AcDbTextStyleTableRecord
2
iso_b_vert
3
simplex.shx
70
0
71
0
40
0
41
1
42
0
50
0
0
STYLE
5
138
100
AcDbSymbolTableRecord
100
AcDbTextStyleTableRecord
2
DWGDirectTextStyle
3
simplex
70
0
71
0
40
0
41
1
42
0
50
0
0
ENDTAB
0
TABLE
2
DIMSTYLE
5
21f
100
AcDbSymbolTable
100
AcDbDimStyleTable
0
DIMSTYLE
105
27
100
AcDbSymbolTableRecord
100
AcDbDimStyleTableRecord
2
Standard
70
0
3
<>
41
0.18
42
0.0625
44
0.18
140
0.18
147
0.09
73
0
74
0
77
1
271
2
275
0
278
52
280
0
340
11
0
ENDTAB
0
TABLE
2
VIEW
5
220
100
AcDbSymbolTable
0
ENDTAB
0
TABLE
2
UCS
5
221
100
AcDbSymbolTable
0
ENDTAB
0
TABLE
2
APPID
5
222
100
AcDbSymbolTable
0
APPID
5
12
100
AcDbSymbolTableRecord
100
AcDbRegAppTableRecord
2
ACAD
70
0
0
APPID
5
144
100
AcDbSymbolTableRecord
100
AcDbRegAppTableRecord
2
ACAD_DSTYLE_DIMBREAK
70
0
0
APPID
5
1C7
100
AcDbSymbolTableRecord
100
AcDbRegAppTableRecord
2
ACAD_DSTYLE_DIM_LINETYPE
70
0
0
APPID
5
1C8
100
AcDbSymbolTableRecord
100
AcDbRegAppTableRecord
2
ACAD_DSTYLE_DIM_EXT1_LINETYPE
70
0
0
APPID
5
1C9
100
AcDbSymbolTableRecord
100
AcDbRegAppTableRecord
2
ACAD_DSTYLE_DIM_EXT2_LINETYPE
70
0
0
APPID
5
204
100
AcDbSymbolTableRecord
100
AcDbRegAppTableRecord
2
ACAD_MLEADERVER
70
0
0
ENDTAB
0
TABLE
2
BLOCK_RECORD
5
223
100
AcDbSymbolTable
0
BLOCK_RECORD
5
1F
100
AcDbSymbolTableRecord
100
AcDbBlockTableRecord
2
*Model_Space
340
0
70
0
0
BLOCK_RECORD
5
1B
100
AcDbSymbolTableRecord
100
AcDbBlockTableRecord
2
*Paper_Space
340
0
70
0
0
BLOCK_RECORD
5
23
100
AcDbSymbolTableRecord
100
AcDbBlockTableRecord
2
*Paper_Space0
340
0
70
0
0
BLOCK_RECORD
5
149
100
AcDbSymbolTableRecord
100
AcDbBlockTableRecord
2
*D1
340
0
70
0
0
BLOCK_RECORD
5
156
100
AcDbSymbolTableRecord
100
AcDbBlockTableRecord
2
_U0
340
0
70
0
0
BLOCK_RECORD
5
162
100
AcDbSymbolTableRecord
100
AcDbBlockTableRecord
2
*D3
340
0
70
0
0
BLOCK_RECORD
5
16F
100
AcDbSymbolTableRecord
100
AcDbBlockTableRecord
2
_U1
340
0
70
0
0
BLOCK_RECORD
5
17B
100
AcDbSymbolTableRecord
100
AcDbBlockTableRecord
2
*D5
340
0
70
0
0
BLOCK_RECORD
5
188
100
AcDbSymbolTableRecord
100
AcDbBlockTableRecord
2
_U2
340
0
70
0
0
BLOCK_RECORD
5
194
100
AcDbSymbolTableRecord
100
AcDbBlockTableRecord
2
*D7
340
0
70
0
0
BLOCK_RECORD
5
1A0
100
AcDbSymbolTableRecord
100
AcDbBlockTableRecord
2
_U3
340
0
70
0
0
ENDTAB
0
ENDSEC
0
SECTION
2
BLOCKS
0
BLOCK
5
20
100
AcDbEntity
8
0
100
AcDbBlockBegin
2
*Model_Space
70
0
10
0
20
0
30
0
3
*Model_Space
0
ENDBLK
5
21
100
AcDbEntity
8
0
100
AcDbBlockEnd
0
BLOCK
5
1C
100
AcDbEntity
8
0
100
AcDbBlockBegin
2
*Paper_Space
70
0
10
0
20
0
30
0
3
*Paper_Space
0
ENDBLK
5
1D
100
AcDbEntity
8
0
100
AcDbBlockEnd
0
BLOCK
5
24
100
AcDbEntity
8
0
100
AcDbBlockBegin
2
*Paper_Space0
70
0
10
0
20
0
30
0
3
*Paper_Space0
0
ENDBLK
5
25
100
AcDbEntity
8
0
100
AcDbBlockEnd
0
BLOCK
5
14A
100
AcDbEntity
8
0
100
AcDbBlockBegin
2
*D1
70
1
10
0
20
0
30
0
3
*D1
0
LINE
5
14C
100
AcDbEntity
8
0
62
256
6
ByLayer
370
-2
48
1
60
0
100
AcDbLine
10
56.5875
20
-35
30
0
11
88.1
21
-35
31
0
39
0
210
0
220
0
230
1
0
LINE
5
14D
100
AcDbEntity
8
0
62
256
6
ByLayer
370
-2
48
1
60
0
100
AcDbLine
10
1.5875
20
0
30
0
11
88.1
21
0
31
0
39
0
210
0
220
0
230
1
0
LINE
5
14E
100
AcDbEntity
8
0
62
256
6
ByLayer
370
-2
48
1
60
0
100
AcDbLine
10
86.1
20
-31.5
30
0
11
86.1
21
-3.5
31
0
39
0
210
0
220
0
230
1
0
SOLID
5
14F
100
AcDbEntity
8
0
62
256
6
ByLayer
370
-1
48
1
60
0
100
AcDbTrace
10
85.516667
20
-31.5
30
0
11
86.683333
21
-31.5
31
0
12
86.1
22
-35
32
0
13
86.1
23
-35
33
0
39
0
210
0
220
0
230
1
0
SOLID
5
150
100
AcDbEntity
8
0
62
256
6
ByLayer
370
-1
48
1
60
0
100
AcDbTrace
10
86.683333
20
-3.5
30
0
11
85.516667
21
-3.5
31
0
12
86.1
22
0
32
0
13
86.1
23
0
33
0
39
0
210
0
220
0
230
1
0
MTEXT
5
151
100
AcDbEntity
8
0
62
256
6
ByLayer
370
18
48
1
60
0
100
AcDbMText
10
79.1
20
-17.5
30
0
210
0
220
0
230
1
1
\A1;35
40
3.5
41
0
44
1
50
90
71
5
72
5
7
iso_b_vert
0
POINT
5
152
100
AcDbEntity
8
Defpoints
62
0
6
ByLayer
370
-1
48
1
60
0
100
AcDbPoint
10
55
20
-35
30
0
39
0
210
0
220
0
230
1
50
360
0
POINT
5
153
100
AcDbEntity
8
Defpoints
62
0
6
ByLayer
370
-1
48
1
60
0
100
AcDbPoint
10
0
20
0
30
0
39
0
210
0
220
0
230
1
50
360
0
POINT
5
154
100
AcDbEntity
8
Defpoints
62
0
6
ByLayer
370
-1
48
1
60
0
100
AcDbPoint
10
86.1
20
0
30
0
39
0
210
0
220
0
230
1
50
360
0
ENDBLK
5
14B
100
AcDbEntity
8
0
100
AcDbBlockEnd
0
BLOCK
5
15D
100
AcDbEntity
8
0
100
AcDbBlockBegin
2
_U0
70
0
10
0
20
0
30
0
3
_U0
0
MTEXT
5
157
100
AcDbEntity
8
2
62
256
6
ByLayer
370
18
48
1
60
0
100
AcDbMText
10
85.410366
20
-19.432966
30
0
210
0
220
0
230
1
1
\W0.6740;35
40
3.5
41
0
44
1.084337
50
90
71
7
72
5
7
iso_b_vert
0
LINE
5
158
100
AcDbEntity
8
2
62
256
6
ByLayer
370
13
48
1
60
0
100
AcDbLine
10
56.5875
20
-35
30
0
11
88.1
21
-35
31
0
39
0
210
0
220
0
230
1
0
LINE
5
159
100
AcDbEntity
8
2
62
256
6
ByLayer
370
13
48
1
60
0
100
AcDbLine
10
1.5875
20
0
30
0
11
88.1
21
0
31
0
39
0
210
0
220
0
230
1
0
LINE
5
15A
100
AcDbEntity
8
2
62
256
6
ByLayer
370
13
48
1
60
0
100
AcDbLine
10
86.1
20
-35
30
0
11
86.1
21
0
31
0
39
0
210
0
220
0
230
1
0
SOLID
5
15B
100
AcDbEntity
8
2
62
256
6
ByLayer
370
18
48
1
60
0
100
AcDbTrace
10
86.1
20
-35
30
0
11
85.639216
21
-31.500002
31
0
12
86.560784
22
-31.499998
32
0
13
86.560784
23
-31.499998
33
0
39
0
210
0
220
0
230
1
0
SOLID
5
15C
100
AcDbEntity
8
2
62
256
6
ByLayer
370
18
48
1
60
0
100
AcDbTrace
10
86.1
20
0
30
0
11
86.560784
21
-3.499998
31
0
12
85.639216
22
-3.500002
32
0
13
85.639216
23
-3.500002
33
0
39
0
210
0
220
0
230
1
0
ENDBLK
5
15E
100
AcDbEntity
8
0
100
AcDbBlockEnd
0
BLOCK
5
163
100
AcDbEntity
8
0
100
AcDbBlockBegin
2
*D3
70
1
10
0
20
0
30
0
3
*D3
0
LINE
5
165
100
AcDbEntity
8
0
62
256
6
ByLayer
370
-2
48
1
60
0
100
AcDbLine
10
56.5875
20
-33.5
30
0
11
77.1
21
-33.5
31
0
39
0
210
0
220
0
230
1
0
LINE
5
166
100
AcDbEntity
8
0
62
256
6
ByLayer
370
-2
48
1
60
0
100
AcDbLine
10
56.5875
20
-35
30
0
11
77.1
21
-35
31
0
39
0
210
0
220
0
230
1
0
LINE
5
167
100
AcDbEntity
8
0
62
256
6
ByLayer
370
-2
48
1
60
0
100
AcDbLine
10
75.1
20
-30
30
0
11
75.1
21
-26.5
31
0
39
0
210
0
220
0
230
1
0
LINE
5
168
100
AcDbEntity
8
0
62
256
6
ByLayer
370
-2
48
1
60
0
100
AcDbLine
10
75.1
20
-38.5
30
0
11
75.1
21
-42
31
0
39
0
210
0
220
0
230
1
0
SOLID
5
169
100
AcDbEntity
8
0
62
256
6
ByLayer
370
-1
48
1
60
0
100
AcDbTrace
10
74.516667
20
-30
30
0
11
75.683333
21
-30
31
0
12
75.1
22
-33.5
32
0
13
75.1
23
-33.5
33
0
39
0
210
0
220
0
230
1
0
SOLID
5
16A
100
AcDbEntity
8
0
62
256
6
ByLayer
370
-1
48
1
60
0
100
AcDbTrace
10
75.683333
20
-38.5
30
0
11
74.516667
21
-38.5
31
0
12
75.1
22
-35
32
0
13
75.1
23
-35
33
0
39
0
210
0
220
0
230
1
0
MTEXT
5
16B
100
AcDbEntity
8
0
62
256
6
ByLayer
370
18
48
1
60
0
100
AcDbMText
10
68.1
20
-34.25
30
0
210
0
220
0
230
1
1
\A1;1.5
40
3.5
41
0
44
1
50
90
71
5
72
5
7
iso_b_vert
0
POINT
5
16C
100
AcDbEntity
8
Defpoints
62
0
6
ByLayer
370
-1
48
1
60
0
100
AcDbPoint
10
55
20
-33.5
30
0
39
0
210
0
220
0
230
1
50
360
0
POINT
5
16D
100
AcDbEntity
8
Defpoints
62
0
6
ByLayer
370
-1
48
1
60
0
100
AcDbPoint
10
55
20
-35
30
0
39
0
210
0
220
0
230
1
50
360
0
POINT
5
16E
100
AcDbEntity
8
Defpoints
62
0
6
ByLayer
370
-1
48
1
60
0
100
AcDbPoint
10
75.1
20
-35
30
0
39
0
210
0
220
0
230
1
50
360
0
ENDBLK
5
164
100
AcDbEntity
8
0
100
AcDbBlockEnd
0
BLOCK
5
176
100
AcDbEntity
8
0
100
AcDbBlockBegin
2
_U1
70
0
10
0
20
0
30
0
3
_U1
0
MTEXT
5
170
100
AcDbEntity
8
2
62
256
6
ByLayer
370
18
48
1
60
0
100
AcDbMText
10
74.410366
20
-36.454533
30
0
210
0
220
0
230
1
1
\W0.6004;1.5
40
3.5
41
0
44
1.084337
50
90
71
7
72
5
7
iso_b_vert
0
LINE
5
171
100
AcDbEntity
8
2
62
256
6
ByLayer
370
13
48
1
60
0
100
AcDbLine
10
56.5875
20
-33.5
30
0
11
77.1
21
-33.5
31
0
39
0
210
0
220
0
230
1
0
LINE
5
172
100
AcDbEntity
8
2
62
256
6
ByLayer
370
13
48
1
60
0
100
AcDbLine
10
56.5875
20
-35
30
0
11
77.1
21
-35
31
0
39
0
210
0
220
0
230
1
0
LINE
5
173
100
AcDbEntity
8
2
62
256
6
ByLayer
370
13
48
1
60
0
100
AcDbLine
10
75.1
20
-24.75
30
0
11
75.1
21
-43.75
31
0
39
0
210
0
220
0
230
1
0
SOLID
5
174
100
AcDbEntity
8
2
62
256
6
ByLayer
370
18
48
1
60
0
100
AcDbTrace
10
75.1
20
-33.5
30
0
11
74.639216
21
-30.000002
31
0
12
75.560784
22
-29.999998
32
0
13
75.560784
23
-29.999998
33
0
39
0
210
0
220
0
230
1
0
SOLID
5
175
100
AcDbEntity
8
2
62
256
6
ByLayer
370
18
48
1
60
0
100
AcDbTrace
10
75.1
20
-35
30
0
11
75.560784
21
-38.499998
31
0
12
74.639216
22
-38.500002
32
0
13
74.639216
23
-38.500002
33
0
39
0
210
0
220
0
230
1
0
ENDBLK
5
177
100
AcDbEntity
8
0
100
AcDbBlockEnd
0
BLOCK
5
17C
100
AcDbEntity
8
0
100
AcDbBlockBegin
2
*D5
70
1
10
0
20
0
30
0
3
*D5
0
LINE
5
17E
100
AcDbEntity
8
0
62
256
6
ByLayer
370
-2
48
1
60
0
100
AcDbLine
10
47
20
-32.1625
30
0
11
47
21
16.5
31
0
39
0
210
0
220
0
230
1
0
LINE
5
17F
100
AcDbEntity
8
0
62
256
6
ByLayer
370
-2
48
1
60
0
100
AcDbLine
10
55
20
-31.9125
30
0
11
55
21
16.5
31
0
39
0
210
0
220
0
230
1
0
LINE
5
180
100
AcDbEntity
8
0
62
256
6
ByLayer
370
-2
48
1
60
0
100
AcDbLine
10
43.5
20
14.5
30
0
11
40
21
14.5
31
0
39
0
210
0
220
0
230
1
0
LINE
5
181
100
AcDbEntity
8
0
62
256
6
ByLayer
370
-2
48
1
60
0
100
AcDbLine
10
58.5
20
14.5
30
0
11
62
21
14.5
31
0
39
0
210
0
220
0
230
1
0
SOLID
5
182
100
AcDbEntity
8
0
62
256
6
ByLayer
370
-1
48
1
60
0
100
AcDbTrace
10
43.5
20
13.916667
30
0
11
43.5
21
15.083333
31
0
12
47
22
14.5
32
0
13
47
23
14.5
33
0
39
0
210
0
220
0
230
1
0
SOLID
5
183
100
AcDbEntity
8
0
62
256
6
ByLayer
370
-1
48
1
60
0
100
AcDbTrace
10
58.5
20
15.083333
30
0
11
58.5
21
13.916667
31
0
12
55
22
14.5
32
0
13
55
23
14.5
33
0
39
0
210
0
220
0
230
1
0
MTEXT
5
184
100
AcDbEntity
8
0
62
256
6
ByLayer
370
18
48
1
60
0
100
AcDbMText
10
51
20
21.5
30
0
210
0
220
0
230
1
1
\A1;8
40
3.5
41
0
44
1
50
0
71
5
72
5
7
iso_b_vert
0
POINT
5
185
100
AcDbEntity
8
Defpoints
62
0
6
ByLayer
370
-1
48
1
60
0
100
AcDbPoint
10
47
20
-33.75
30
0
39
0
210
0
220
0
230
1
50
360
0
POINT
5
186
100
AcDbEntity
8
Defpoints
62
0
6
ByLayer
370
-1
48
1
60
0
100
AcDbPoint
10
55
20
-33.5
30
0
39
0
210
0
220
0
230
1
50
360
0
POINT
5
187
100
AcDbEntity
8
Defpoints
62
0
6
ByLayer
370
-1
48
1
60
0
100
AcDbPoint
10
55
20
14.5
30
0
39
0
210
0
220
0
230
1
50
360
0
ENDBLK
5
17D
100
AcDbEntity
8
0
100
AcDbBlockEnd
0
BLOCK
5
18F
100
AcDbEntity
8
0
100
AcDbBlockBegin
2
_U2
70
0
10
0
20
0
30
0
3
_U2
0
MTEXT
5
189
100
AcDbEntity
8
2
62
256
6
ByLayer
370
18
48
1
60
0
100
AcDbMText
10
50.402767
20
15.532634
30
0
210
0
220
0
230
1
1
\W0.5404;8
40
3.5
41
0
44
1.084337
50
0
71
7
72
5
7
iso_b_vert
0
LINE
5
18A
100
AcDbEntity
8
2
62
256
6
ByLayer
370
13
48
1
60
0
100
AcDbLine
10
47
20
-32.1625
30
0
11
47
21
16.5
31
0
39
0
210
0
220
0
230
1
0
LINE
5
18B
100
AcDbEntity
8
2
62
256
6
ByLayer
370
13
48
1
60
0
100
AcDbLine
10
55
20
-31.9125
30
0
11
55
21
16.5
31
0
39
0
210
0
220
0
230
1
0
LINE
5
18C
100
AcDbEntity
8
2
62
256
6
ByLayer
370
13
48
1
60
0
100
AcDbLine
10
47
20
14.5
30
0
11
55
21
14.5
31
0
39
0
210
0
220
0
230
1
0
SOLID
5
18D
100
AcDbEntity
8
2
62
256
6
ByLayer
370
18
48
1
60
0
100
AcDbTrace
10
47
20
14.5
30
0
11
50.499998
21
14.960784
31
0
12
50.500002
22
14.039216
32
0
13
50.500002
23
14.039216
33
0
39
0
210
0
220
0
230
1
0
SOLID
5
18E
100
AcDbEntity
8
2
62
256
6
ByLayer
370
18
48
1
60
0
100
AcDbTrace
10
55
20
14.5
30
0
11
51.500002
21
14.039216
31
0
12
51.499998
22
14.960784
32
0
13
51.499998
23
14.960784
33
0
39
0
210
0
220
0
230
1
0
ENDBLK
5
190
100
AcDbEntity
8
0
100
AcDbBlockEnd
0
BLOCK
5
195
100
AcDbEntity
8
0
100
AcDbBlockBegin
2
*D7
70
1
10
0
20
0
30
0
3
*D7
0
LINE
5
197
100
AcDbEntity
8
0
62
256
6
ByLayer
370
-2
48
1
60
0
100
AcDbLine
10
0
20
-1.5875
30
0
11
0
21
-52.75
31
0
39
0
210
0
220
0
230
1
0
LINE
5
198
100
AcDbEntity
8
0
62
256
6
ByLayer
370
-2
48
1
60
0
100
AcDbLine
10
55
20
-36.5875
30
0
11
55
21
-52.75
31
0
39
0
210
0
220
0
230
1
0
LINE
5
199
100
AcDbEntity
8
0
62
256
6
ByLayer
370
-2
48
1
60
0
100
AcDbLine
10
3.5
20
-50.75
30
0
11
51.5
21
-50.75
31
0
39
0
210
0
220
0
230
1
0
SOLID
5
19A
100
AcDbEntity
8
0
62
256
6
ByLayer
370
-1
48
1
60
0
100
AcDbTrace
10
3.5
20
-50.166667
30
0
11
3.5
21
-51.333333
31
0
12
0
22
-50.75
32
0
13
0
23
-50.75
33
0
39
0
210
0
220
0
230
1
0
SOLID
5
19B
100
AcDbEntity
8
0
62
256
6
ByLayer
370
-1
48
1
60
0
100
AcDbTrace
10
51.5
20
-51.333333
30
0
11
51.5
21
-50.166667
31
0
12
55
22
-50.75
32
0
13
55
23
-50.75
33
0
39
0
210
0
220
0
230
1
0
MTEXT
5
19C
100
AcDbEntity
8
0
62
256
6
ByLayer
370
18
48
1
60
0
100
AcDbMText
10
27.5
20
-43.75
30
0
210
0
220
0
230
1
1
\A1;55
40
3.5
41
0
44
1
50
0
71
5
72
5
7
iso_b_vert
0
POINT
5
19D
100
AcDbEntity
8
Defpoints
62
0
6
ByLayer
370
-1
48
1
60
0
100
AcDbPoint
10
0
20
0
30
0
39
0
210
0
220
0
230
1
50
360
0
POINT
5
19E
100
AcDbEntity
8
Defpoints
62
0
6
ByLayer
370
-1
48
1
60
0
100
AcDbPoint
10
55
20
-35
30
0
39
0
210
0
220
0
230
1
50
360
0
POINT
5
19F
100
AcDbEntity
8
Defpoints
62
0
6
ByLayer
370
-1
48
1
60
0
100
AcDbPoint
10
55
20
-50.75
30
0
39
0
210
0
220
0
230
1
50
360
0
ENDBLK
5
196
100
AcDbEntity
8
0
100
AcDbBlockEnd
0
BLOCK
5
1A7
100
AcDbEntity
8
0
100
AcDbBlockBegin
2
_U3
70
0
10
0
20
0
30
0
3
_U3
0
MTEXT
5
1A1
100
AcDbEntity
8
2
62
256
6
ByLayer
370
18
48
1
60
0
100
AcDbMText
10
25.595034
20
-49.717366
30
0
210
0
220
0
230
1
1
\W0.6740;55
40
3.5
41
0
44
1.084337
50
0
71
7
72
5
7
iso_b_vert
0
LINE
5
1A2
100
AcDbEntity
8
2
62
256
6
ByLayer
370
13
48
1
60
0
100
AcDbLine
10
0
20
-1.5875
30
0
11
0
21
-52.75
31
0
39
0
210
0
220
0
230
1
0
LINE
5
1A3
100
AcDbEntity
8
2
62
256
6
ByLayer
370
13
48
1
60
0
100
AcDbLine
10
55
20
-36.5875
30
0
11
55
21
-52.75
31
0
39
0
210
0
220
0
230
1
0
LINE
5
1A4
100
AcDbEntity
8
2
62
256
6
ByLayer
370
13
48
1
60
0
100
AcDbLine
10
0
20
-50.75
30
0
11
55
21
-50.75
31
0
39
0
210
0
220
0
230
1
0
SOLID
5
1A5
100
AcDbEntity
8
2
62
256
6
ByLayer
370
18
48
1
60
0
100
AcDbTrace
10
0
20
-50.75
30
0
11
3.499998
21
-50.289216
31
0
12
3.500002
22
-51.210784
32
0
13
3.500002
23
-51.210784
33
0
39
0
210
0
220
0
230
1
0
SOLID
5
1A6
100
AcDbEntity
8
2
62
256
6
ByLayer
370
18
48
1
60
0
100
AcDbTrace
10
55
20
-50.75
30
0
11
51.500002
21
-51.210784
31
0
12
51.499998
22
-50.289216
32
0
13
51.499998
23
-50.289216
33
0
39
0
210
0
220
0
230
1
0
ENDBLK
5
1A8
100
AcDbEntity
8
0
100
AcDbBlockEnd
0
ENDSEC
0
SECTION
2
ENTITIES
0
ARC
5
EC
100
AcDbEntity
8
1
62
256
6
ByLayer
370
18
48
1
60
0
100
AcDbCircle
39
0
10
20.279208
20
-26.2
30
0
40
1.2
210
0
220
0
230
1
100
AcDbArc
50
60.157177
51
90
0
ARC
5
ED
100
AcDbEntity
8
SK1
62
256
6
ByLayer
370
18
48
1
60
0
100
AcDbCircle
39
0
10
-0.6
20
18.75
30
0
40
0.999999999999998
210
0
220
0
230
1
100
AcDbArc
50
293.578178
51
306.869898
0
ARC
5
EE
100
AcDbEntity
8
SK1
62
256
6
ByLayer
370
18
48
1
60
0
100
AcDbCircle
39
0
10
-0.6
20
-18.75
30
0
40
0.999999999999998
210
0
220
0
230
1
100
AcDbArc
50
53.130102
51
66.421822
0
ARC
5
F2
100
AcDbEntity
8
1
62
256
6
ByLayer
370
18
48
1
60
0
100
AcDbCircle
39
0
10
30.3
20
-26.15
30
0
40
1
210
0
220
0
230
1
100
AcDbArc
50
360
51
90
0
ARC
5
F3
100
AcDbEntity
8
1
62
256
6
ByLayer
370
18
48
1
60
0
100
AcDbCircle
39
0
10
24.065604
20
17.5
30
0
40
3.9999999999158
210
0
220
0
230
1
100
AcDbArc
50
180.5
51
187.685583
0
CIRCLE
5
EF
100
AcDbEntity
8
1
62
256
6
ByLayer
370
18
48
1
60
0
100
AcDbCircle
10
40.6
20
-27.85
30
0
40
1.7
39
0
210
0
220
0
230
1
0
CIRCLE
5
F0
100
AcDbEntity
8
1
62
256
6
ByLayer
370
18
48
1
60
0
100
AcDbCircle
10
40.6
20
-27.85
30
0
40
2.25
39
0
210
0
220
0
230
1
0
CIRCLE
5
F1
100
AcDbEntity
8
1
62
256
6
ByLayer
370
18
48
1
60
0
100
AcDbCircle
10
40.6
20
-27.85
30
0
40
3.8
39
0
210
0
220
0
230
1
0
ELLIPSE
5
F4
100
AcDbEntity
8
1
62
256
6
ByLayer
370
18
48
1
60
0
100
AcDbEllipse
10
49.541093
20
-33
30
0
11
6.12303176911354E-17
21
1.00000000000027
31
0
210
0
220
0
230
1
40
0.950583
41
2.41885840577648
42
-2.41885840577648
0
ELLIPSE
5
F5
100
AcDbEntity
8
1
62
256
6
ByLayer
370
18
48
1
60
0
100
AcDbEllipse
10
43.505664
20
-33.75
30
0
11
-2.78951487299376
21
3.41605763755018E-16
31
0
210
0
220
0
230
1
40
0.573576
41
-1.57079632679489
42
0
0
ELLIPSE
5
F6
100
AcDbEntity
8
1
62
256
6
ByLayer
370
18
48
1
60
0
100
AcDbEllipse
10
21.056258
20
0
30
0
11
11.7092723497286
21
24.6771864409389
31
0
210
0
220
0
230
1
40
0.341999
41
2.05975995310057
42
2.97437958168082
0
ELLIPSE
5
F7
100
AcDbEntity
8
1
62
256
6
ByLayer
370
18
48
1
60
0
100
AcDbEllipse
10
-1.056258
20
0
30
0
11
11.7092723497278
21
-24.6771864409383
31
0
210
0
220
0
230
1
40
0.341999
41
0.167213071908984
42
1.08183270048924
0
ELLIPSE
5
F8
100
AcDbEntity
8
1
62
256
6
ByLayer
370
18
48
1
60
0
100
AcDbEllipse
10
-1.056258
20
0
30
0
11
11.709272349728
21
24.6771864409385
31
0
210
0
220
0
230
1
40
0.341999
41
-1.08183270048924
42
-0.167213071908983
0
ELLIPSE
5
F9
100
AcDbEntity
8
1
62
256
6
ByLayer
370
18
48
1
60
0
100
AcDbEllipse
10
21.056258
20
0
30
0
11
11.7092723497267
21
-24.6771864409366
31
0
210
0
220
0
230
1
40
0.341999
41
-2.97437958168081
42
-2.0597599531005
0
ELLIPSE
5
FA
100
AcDbEntity
8
1
62
256
6
ByLayer
370
18
48
1
60
0
100
AcDbEllipse
10
20.218172
20
0
30
0
11
1.53075794227786E-15
21
24.9999999999982
31
0
210
0
220
0
230
1
40
0.008727
41
0.785398163397375
42
2.57755384875785
0
ELLIPSE
5
FB
100
AcDbEntity
8
1
62
256
6
ByLayer
370
18
48
1
60
0
100
AcDbEllipse
10
49.216784
20
-34.25
30
0
11
3.4700225514494
21
4.06497653311774E-15
31
0
210
0
220
0
230
1
40
0.086455
41
-0.349065850558103
42
0.349065850558078
0
POINT
5
70
100
AcDbEntity
8
81
62
256
6
ByLayer
370
18
48
1
60
0
100
AcDbPoint
10
55
20
-35
30
0
39
0
210
0
220
0
230
1
50
360
0
POINT
5
72
100
AcDbEntity
8
80
62
256
6
ByLayer
370
18
48
1
60
0
100
AcDbPoint
10
0
20
0
30
0
39
0
210
0
220
0
230
1
50
360
0
POINT
5
74
100
AcDbEntity
8
1
62
256
6
ByLayer
370
18
48
1
60
1
100
AcDbPoint
10
55
20
-35
30
0
39
0
210
0
220
0
230
1
50
360
0
POINT
5
76
100
AcDbEntity
8
1
62
256
6
ByLayer
370
18
48
1
60
1
100
AcDbPoint
10
0
20
0
30
0
39
0
210
0
220
0
230
1
50
360
0
POINT
5
77
100
AcDbEntity
8
1
62
256
6
ByLayer
370
18
48
1
60
1
100
AcDbPoint
10
55
20
-33.5
30
0
39
0
210
0
220
0
230
1
50
360
0
POINT
5
78
100
AcDbEntity
8
1
62
256
6
ByLayer
370
18
48
1
60
1
100
AcDbPoint
10
55
20
-35
30
0
39
0
210
0
220
0
230
1
50
360
0
POINT
5
79
100
AcDbEntity
8
1
62
256
6
ByLayer
370
18
48
1
60
1
100
AcDbPoint
10
47
20
-33.75
30
0
39
0
210
0
220
0
230
1
50
360
0
POINT
5
7A
100
AcDbEntity
8
1
62
256
6
ByLayer
370
18
48
1
60
1
100
AcDbPoint
10
55
20
-33.5
30
0
39
0
210
0
220
0
230
1
50
360
0
POINT
5
7B
100
AcDbEntity
8
1
62
256
6
ByLayer
370
18
48
1
60
1
100
AcDbPoint
10
0
20
0
30
0
39
0
210
0
220
0
230
1
50
360
0
POINT
5
7C
100
AcDbEntity
8
1
62
256
6
ByLayer
370
18
48
1
60
1
100
AcDbPoint
10
55
20
-35
30
0
39
0
210
0
220
0
230
1
50
360
0
SPLINE
5
FC
100
AcDbEntity
8
SK1
62
256
6
ByLayer
370
18
48
1
60
0
100
AcDbSpline
70
4
71
3
72
11
73
7
40
0
40
0
40
0
40
0
40
0.238912427191381
40
0.497455281052467
40
0.757410045821389
40
1
40
1
40
1
40
1
41
1
10
-0.394913799811292
20
-17.359780267379
30
0
41
1
10
-0.369683795840189
20
-17.3607068368228
30
0
41
1
10
-0.321113897423771
20
-17.3707504109673
30
0
41
1
10
-0.255179720944142
20
-17.4139496110851
30
0
41
1
10
-0.211248315226243
20
-17.4799022728818
30
0
41
1
10
-0.200957889270342
20
-17.5289140231062
30
0
41
1
10
-0.199999999999989
20
-17.5545583467655
30
0
0
SPLINE
5
FD
100
AcDbEntity
8
SK1
62
256
6
ByLayer
370
18
48
1
60
0
100
AcDbSpline
70
4
71
3
72
11
73
7
40
0
40
0
40
0
40
0
40
0.242589954254914
40
0.502544719057463
40
0.761087572886858
40
1
40
1
40
1
40
1
41
1
10
-0.199999999999989
20
17.5545582060014
30
0
41
1
10
-0.200957889268722
20
17.5289138828004
30
0
41
1
10
-0.211248315224566
20
17.4799021334559
30
0
41
1
10
-0.255179720936354
20
17.4139494728386
30
0
41
1
10
-0.321113897416438
20
17.3707502735068
30
0
41
1
10
-0.369683795838398
20
17.3607066995757
30
0
41
1
10
-0.394913799811292
20
17.3597801301672
30
0
0
SPLINE
5
FE
100
AcDbEntity
8
SK1
62
256
6
ByLayer
370
18
48
1
60
0
100
AcDbSpline
70
4
71
2
72
6
73
3
40
0
40
0
40
0
40
1
40
1
40
1
41
1
10
-30
20
-15.9931873508859
30
0
41
1
10
-29.2499999297871
20
-16.4259984461422
30
0
41
1
10
-28.5
20
-16.8588088260863
30
0
0
SPLINE
5
FF
100
AcDbEntity
8
SK1
62
256
6
ByLayer
370
18
48
1
60
0
100
AcDbSpline
70
4
71
2
72
6
73
3
40
0
40
0
40
0
40
1
40
1
40
1
41
1
10
-28.5
20
16.8588088951667
30
0
41
1
10
-29.2499999297894
20
16.425998517687
30
0
41
1
10
-30
20
15.9931874249212
30
0
0
SPLINE
5
100
100
AcDbEntity
8
SK1
62
256
6
ByLayer
370
18
48
1
60
0
100
AcDbSpline
70
4
71
2
72
6
73
3
40
0
40
0
40
0
40
1
40
1
40
1
41
1
10
-0.394913799811292
20
17.3602212447177
30
0
41
1
10
-1.19497688886898
20
17.340134563042
30
0
41
1
10
-1.99503997793928
20
17.3200478774323
30
0
0
SPLINE
5
101
100
AcDbEntity
8
SK1
62
256
6
ByLayer
370
18
48
1
60
0
100
AcDbSpline
70
4
71
2
72
6
73
3
40
0
40
0
40
0
40
1
40
1
40
1
41
1
10
-1.99503997793928
20
-17.3200475850767
30
0
41
1
10
-1.19497688886898
20
-17.3401342706943
30
0
41
1
10
-0.394913799811292
20
-17.3602209523781
30
0
0
SPLINE
5
102
100
AcDbEntity
8
SK1
62
256
6
ByLayer
370
18
48
1
60
0
100
AcDbSpline
70
4
71
3
72
13
73
9
40
0
40
0
40
0
40
0
40
0.239505988259609
40
0.36842653894641
40
0.500072261928253
40
0.631705988457419
40
0.760593443657081
40
1
40
1
40
1
40
1
41
1
10
-1.99503997793928
20
17.3252688086104
30
0
41
1
10
-2.0211092598112
20
17.3248666993254
30
0
41
1
10
-2.05883863807622
20
17.3310363194718
30
0
41
1
10
-2.10627567684702
20
17.3540697297104
30
0
41
1
10
-2.13886243910255
20
17.379225724067
30
0
41
1
10
-2.16563490775661
20
17.4104934409328
30
0
41
1
10
-2.19103207709688
20
17.4566916816953
30
0
41
1
10
-2.19909121920765
20
17.494049013599
30
0
41
1
10
-2.19999999999999
20
17.5200962264206
30
0
0
SPLINE
5
103
100
AcDbEntity
8
SK1
62
256
6
ByLayer
370
18
48
1
60
0
100
AcDbSpline
70
4
71
3
72
13
73
9
40
0
40
0
40
0
40
0
40
0.239406556947036
40
0.368294012345134
40
0.499927738941635
40
0.631573461844287
40
0.7604940123269
40
1
40
1
40
1
40
1
41
1
10
-2.19999999999999
20
-17.5200961072231
30
0
41
1
10
-2.19909121921685
20
-17.4940488942773
30
0
41
1
10
-2.19103207710597
20
-17.4566915621889
30
0
41
1
10
-2.16563490776917
20
-17.4104933211739
30
0
41
1
10
-2.13886243911927
20
-17.3792256041407
30
0
41
1
10
-2.10627567686484
20
-17.3540696096461
30
0
41
1
10
-2.05883863809936
20
-17.3310361992814
30
0
41
1
10
-2.02110925982339
20
-17.3248665791032
30
0
41
1
10
-1.99503997793928
20
-17.3252686883829
30
0
0
SPLINE
5
104
100
AcDbEntity
8
SK1
62
256
6
ByLayer
370
18
48
1
60
0
100
AcDbSpline
70
4
71
2
72
6
73
3
40
0
40
0
40
0
40
1
40
1
40
1
41
1
10
-2.19999999999999
20
17.5148290000611
30
0
41
1
10
-15.3499999982428
20
17.1846808487114
30
0
41
1
10
-28.5
20
16.8545316091351
30
0
0
SPLINE
5
105
100
AcDbEntity
8
SK1
62
256
6
ByLayer
370
18
48
1
60
0
100
AcDbSpline
70
4
71
2
72
6
73
3
40
0
40
0
40
0
40
1
40
1
40
1
41
1
10
-28.5
20
-16.8545313165689
30
0
41
1
10
-15.3499999982432
20
-17.1846805562453
30
0
41
1
10
-2.19999999999999
20
-17.5148287077807
30
0
0
SPLINE
5
106
100
AcDbEntity
8
1
62
256
6
ByLayer
370
18
48
1
60
0
100
AcDbSpline
70
4
71
3
72
8
73
4
40
0
40
0
40
0
40
0
40
1
40
1
40
1
40
1
41
1
10
21.5817357049735
20
-26.15
30
0
41
1
10
22.3420008490641
20
-29.0171492027151
30
0
41
1
10
23.1045395424668
20
-31.8837006100755
30
0
41
1
10
23.8680109294773
20
-34.7499999999815
30
0
0
SPLINE
5
107
100
AcDbEntity
8
1
62
256
6
ByLayer
370
18
48
1
60
0
100
AcDbSpline
70
4
71
3
72
15
73
11
40
0
40
0
40
0
40
0
40
0.249999999999997
40
0.249999999999997
40
0.374999999999998
40
0.374999999999998
40
0.499999999999998
40
0.499999999999998
40
0.749999999999999
40
1
40
1
40
1
40
1
41
1
10
21.4383186059721
20
-25.6302170074937
30
0
41
1
10
21.4496607640296
20
-25.6695615050441
30
0
41
1
10
21.4612491151198
20
-25.7102290972207
30
0
41
1
10
21.4789875137758
20
-25.7731759853425
30
0
41
1
10
21.4849694962166
20
-25.7945182594813
30
0
41
1
10
21.4970109851217
20
-25.8377095789255
30
0
41
1
10
21.5030379529406
20
-25.8594415224919
30
0
41
1
10
21.5211362893248
20
-25.9250351932724
30
0
41
1
10
21.5453135414534
20
-26.0135508261801
30
0
41
1
10
21.5695790253227
20
-26.1041541334106
30
0
41
1
10
21.5817357049735
20
-26.15
30
0
0
SPLINE
5
108
100
AcDbEntity
8
1
62
256
6
ByLayer
370
18
48
1
60
0
100
AcDbSpline
70
4
71
3
72
37
73
33
40
0
40
0
40
0
40
0
40
0.0312499999999945
40
0.0312499999999945
40
0.062499999999989
40
0.124999999999978
40
0.124999999999978
40
0.249999999999954
40
0.249999999999954
40
0.281249999999947
40
0.281249999999947
40
0.312499999999941
40
0.312499999999941
40
0.374999999999933
40
0.374999999999933
40
0.499999999999922
40
0.499999999999922
40
0.531249999999923
40
0.531249999999923
40
0.562499999999923
40
0.624999999999929
40
0.687499999999935
40
0.687499999999935
40
0.718749999999937
40
0.718749999999937
40
0.74999999999994
40
0.74999999999994
40
0.874999999999967
40
0.874999999999967
40
0.937499999999984
40
0.937499999999984
40
1
40
1
40
1
40
1
41
1
10
29.5979991993594
20
-25.15
30
0
41
1
10
29.616159662557
20
-25.15
30
0
41
1
10
29.6343436715722
20
-25.1503025762777
30
0
41
1
10
29.6705404692686
20
-25.1515196643775
30
0
41
1
10
29.7246748030338
20
-25.1542634146374
30
0
41
1
10
29.7783209647337
20
-25.1597933881372
30
0
41
1
10
29.8849379288975
20
-25.1747079219338
30
0
41
1
10
29.9551208774946
20
-25.1897592794783
30
0
41
1
10
30.0415829778382
20
-25.2158024637559
30
0
41
1
10
30.0588116390369
20
-25.2213750019034
30
0
41
1
10
30.0931357597247
20
-25.2332803218201
30
0
41
1
10
30.1102683325627
20
-25.2396289977521
30
0
41
1
10
30.1610060787218
20
-25.2596878790594
30
0
41
1
10
30.1940493017973
20
-25.2744353258394
30
0
41
1
10
30.2907724756647
20
-25.3229089218058
30
0
41
1
10
30.3520714248128
20
-25.3608215019205
30
0
41
1
10
30.4242042253867
20
-25.4161083927452
30
0
41
1
10
30.4384465541441
20
-25.4276015592398
30
0
41
1
10
30.4661892927072
20
-25.4511913425105
30
0
41
1
10
30.5067111080116
20
-25.4874857382757
30
0
41
1
10
30.5688053756179
20
-25.5525088685648
30
0
41
1
10
30.6125622959425
20
-25.6094566175086
30
0
41
1
10
30.6430477949145
20
-25.6541098054289
30
0
41
1
10
30.6528200581637
20
-25.6693186563508
30
0
41
1
10
30.6715554404667
20
-25.7004102576542
30
0
41
1
10
30.6805452052649
20
-25.7163445309867
30
0
41
1
10
30.7230509325826
20
-25.7971584961779
30
0
41
1
10
30.7488697960024
20
-25.8644367321645
30
0
41
1
10
30.7752531168167
20
-25.9693159907482
30
0
41
1
10
30.7819729542626
20
-26.0049415512714
30
0
41
1
10
30.7910147230196
20
-26.0776041037324
30
0
41
1
10
30.7932370625239
20
-26.1138738724258
30
0
41
1
10
30.7932370625239
20
-26.15
30
0
0
SPLINE
5
109
100
AcDbEntity
8
1
62
256
6
ByLayer
370
18
48
1
60
0
100
AcDbSpline
70
4
71
3
72
33
73
29
40
0
40
0
40
0
40
0
40
0.125000000000018
40
0.125000000000018
40
0.187500000000023
40
0.187500000000023
40
0.250000000000029
40
0.250000000000029
40
0.37500000000004
40
0.37500000000004
40
0.406250000000042
40
0.406250000000042
40
0.437500000000043
40
0.437500000000043
40
0.500000000000042
40
0.500000000000042
40
0.62500000000004
40
0.62500000000004
40
0.656250000000038
40
0.656250000000038
40
0.687500000000036
40
0.687500000000036
40
0.750000000000028
40
0.812500000000021
40
0.812500000000021
40
0.875000000000014
40
0.875000000000014
40
1
40
1
40
1
40
1
41
1
10
30.1397368307142
20
-25.15
30
0
41
1
10
30.2071055833143
20
-25.15
30
0
41
1
10
30.2735131192457
20
-25.1560926942454
30
0
41
1
10
30.3716360317392
20
-25.1742157749747
30
0
41
1
10
30.4040980234737
20
-25.1817637186531
30
0
41
1
10
30.4685154439817
20
-25.1999671223374
30
0
41
1
10
30.5005995875411
20
-25.2106842391689
30
0
41
1
10
30.5942590621149
20
-25.2470074317023
30
0
41
1
10
30.6537383245528
20
-25.2768276981421
30
0
41
1
10
30.7243435742832
20
-25.3211910993284
30
0
41
1
10
30.7382758559522
20
-25.3304211683924
30
0
41
1
10
30.7657552067245
20
-25.3496106169166
30
0
41
1
10
30.779331242548
20
-25.3595926841259
30
0
41
1
10
30.8192581400242
20
-25.3905010109516
30
0
41
1
10
30.8446575523052
20
-25.412259099656
30
0
41
1
10
30.9172761539376
20
-25.4809191664987
30
0
41
1
10
30.9609510550854
20
-25.5311735123727
30
0
41
1
10
31.0093565962303
20
-25.5998444499673
30
0
41
1
10
31.0187359240042
20
-25.6138950568287
30
0
41
1
10
31.0366582573285
20
-25.6422812788688
30
0
41
1
10
31.0452277297468
20
-25.6566521540257
30
0
41
1
10
31.0697769675525
20
-25.7002908544577
30
0
41
1
10
31.0994237772518
20
-25.7598760962957
30
0
41
1
10
31.122929897562
20
-25.8222481913133
30
0
41
1
10
31.1432883347351
20
-25.8860488117296
30
0
41
1
10
31.1519070702788
20
-25.918804833698
30
0
41
1
10
31.1724024636134
20
-26.017099031744
30
0
41
1
10
31.1792156108743
20
-26.0832436260867
30
0
41
1
10
31.1792156108743
20
-26.15
30
0
0
SPLINE
5
10A
100
AcDbEntity
8
1
62
256
6
ByLayer
370
18
48
1
60
0
100
AcDbSpline
70
4
71
3
72
8
73
4
40
0
40
0
40
0
40
0
40
1
40
1
40
1
40
1
41
1
10
50.4942077909625
20
-34.4252486010977
30
0
41
1
10
50.4691549175564
20
-34.5335485448034
30
0
41
1
10
50.4440270693918
20
-34.6418048597052
30
0
41
1
10
50.418794094547
20
-34.7500000000009
30
0
0
SPLINE
5
10B
100
AcDbEntity
8
1
62
256
6
ByLayer
370
18
48
1
60
0
100
AcDbSpline
70
4
71
3
72
15
73
11
40
0
40
0
40
0
40
0
40
0.249999999999955
40
0.49999999999991
40
0.49999999999991
40
0.624999999999917
40
0.624999999999917
40
0.749999999999923
40
0.749999999999923
40
1
40
1
40
1
40
1
41
1
10
50.4942077909625
20
-34.0747513989023
30
0
41
1
10
50.5007520179865
20
-34.1030411446256
30
0
41
1
10
50.5104979218074
20
-34.1605222434915
30
0
41
1
10
50.5138537966458
20
-34.2197269656836
30
0
41
1
10
50.5138661316832
20
-34.264806081283
30
0
41
1
10
50.5134467375826
20
-34.2798463880503
30
0
41
1
10
50.5117899659323
20
-34.3095688967595
30
0
41
1
10
50.5105528895612
20
-34.3243103865189
30
0
41
1
10
50.5056334664039
20
-34.3681808009453
30
0
41
1
10
50.5007521306688
20
-34.3969583682649
30
0
41
1
10
50.4942077909625
20
-34.4252486010977
30
0
0
SPLINE
5
10C
100
AcDbEntity
8
1
62
256
6
ByLayer
370
18
48
1
60
0
100
AcDbSpline
70
4
71
3
72
8
73
4
40
0
40
0
40
0
40
0
40
1
40
1
40
1
40
1
41
1
10
50.4187940945473
20
-33.75
30
0
41
1
10
50.4440270693919
20
-33.8581951402955
30
0
41
1
10
50.4691549175565
20
-33.9664514551969
30
0
41
1
10
50.4942077909625
20
-34.0747513989023
30
0
0
SPLINE
5
10D
100
AcDbEntity
8
1
62
256
6
ByLayer
370
18
48
1
60
0
100
AcDbSpline
70
4
71
3
72
49
73
45
40
0
40
0
40
0
40
0
40
0.0312500000000021
40
0.0312500000000021
40
0.062500000000004
40
0.062500000000004
40
0.125000000000007
40
0.125000000000007
40
0.187500000000009
40
0.187500000000009
40
0.218750000000012
40
0.218750000000012
40
0.234375000000013
40
0.234375000000013
40
0.250000000000015
40
0.250000000000015
40
0.375000000000021
40
0.375000000000021
40
0.406250000000022
40
0.406250000000022
40
0.437500000000023
40
0.437500000000023
40
0.500000000000024
40
0.500000000000024
40
0.562500000000025
40
0.562500000000025
40
0.593750000000024
40
0.593750000000024
40
0.625000000000023
40
0.625000000000023
40
0.687500000000021
40
0.687500000000021
40
0.75000000000002
40
0.75000000000002
40
0.781250000000017
40
0.796875000000016
40
0.796875000000016
40
0.812500000000015
40
0.812500000000015
40
0.87500000000001
40
0.87500000000001
40
0.937500000000005
40
0.937500000000005
40
1
40
1
40
1
40
1
41
1
10
45.4000000056525
20
-32.1499949995018
30
0
41
1
10
45.3999999943474
20
-32.1500050004954
30
0
41
1
10
45.3999986381791
20
-32.1512047273654
30
0
41
1
10
45.4000095292401
20
-32.1560251700557
30
0
41
1
10
45.4000218516852
20
-32.159628366087
30
0
41
1
10
45.4001507293746
20
-32.173946468492
30
0
41
1
10
45.4003444567976
20
-32.1881637492104
30
0
41
1
10
45.4016850615757
20
-32.2257871114469
30
0
41
1
10
45.4028310339538
20
-32.2491987219278
30
0
41
1
10
45.406180876592
20
-32.2912015403329
30
0
41
1
10
45.4075731800453
20
-32.3063506007276
30
0
41
1
10
45.4102262749495
20
-32.3307945656099
30
0
41
1
10
45.4112057246831
20
-32.3392327843001
30
0
41
1
10
45.4133664896292
20
-32.3565681478397
30
0
41
1
10
45.4145490755458
20
-32.3654777228338
30
0
41
1
10
45.4262172820696
20
-32.44776846999
30
0
41
1
10
45.4438054758716
20
-32.5359709046826
30
0
41
1
10
45.4829965774611
20
-32.659284104913
30
0
41
1
10
45.4916987216573
20
-32.6845932809643
30
0
41
1
10
45.5110468328328
20
-32.7363285668339
30
0
41
1
10
45.5217139700933
20
-32.7627905430047
30
0
41
1
10
45.5564979389303
20
-32.8425815063521
30
0
41
1
10
45.5835049287288
20
-32.8966076125896
30
0
41
1
10
45.6458470056421
20
-33.0044886669721
30
0
41
1
10
45.6811811700331
20
-33.0583453211045
30
0
41
1
10
45.7407815584297
20
-33.1376550503952
30
0
41
1
10
45.7617465782462
20
-33.1638458717913
30
0
41
1
10
45.8059135596587
20
-33.2155104697873
30
0
41
1
10
45.8291881303956
20
-33.2410539252091
30
0
41
1
10
45.9016389185091
20
-33.3155039002716
30
0
41
1
10
45.9535279620555
20
-33.3623650988635
30
0
41
1
10
46.0637854389054
20
-33.4493979970495
30
0
41
1
10
46.1221512216847
20
-33.4895733204689
30
0
41
1
10
46.2140464596978
20
-33.5441111225838
30
0
41
1
10
46.2610813000251
20
-33.5699505081365
30
0
41
1
10
46.3096609216529
20
-33.5935225546675
30
0
41
1
10
46.3423820634698
20
-33.6087200068829
30
0
41
1
10
46.3589253949397
20
-33.6160656766702
30
0
41
1
10
46.4419430524345
20
-33.6512581138133
30
0
41
1
10
46.5096698652021
20
-33.6746779703067
30
0
41
1
10
46.6469966371076
20
-33.7121956279596
30
0
41
1
10
46.7165969717878
20
-33.7262985964161
30
0
41
1
10
46.8572419216922
20
-33.7451973772988
30
0
41
1
10
46.9282856551218
20
-33.75
30
0
41
1
10
47
20
-33.75
30
0
0
SPLINE
5
10E
100
AcDbEntity
8
1
62
256
6
ByLayer
370
18
48
1
60
0
100
AcDbSpline
70
4
71
3
72
8
73
4
40
0
40
0
40
0
40
0
40
1
40
1
40
1
40
1
41
1
10
21.4383186059721
20
-25.15
30
0
41
1
10
21.5232818450259
20
-25.15
30
0
41
1
10
21.6344574796373
20
-25.15
30
0
41
1
10
21.7683853086035
20
-25.15
30
0
0
SPLINE
5
10F
100
AcDbEntity
8
1
62
256
6
ByLayer
370
18
48
1
60
0
100
AcDbSpline
70
4
71
3
72
26
73
22
40
0
40
0
40
0
40
0
40
0.125000000000001
40
0.125000000000001
40
0.250000000000003
40
0.250000000000003
40
0.312500000000006
40
0.312500000000006
40
0.375000000000008
40
0.375000000000008
40
0.500000000000005
40
0.500000000000005
40
0.625000000000002
40
0.625000000000002
40
0.687500000000002
40
0.687500000000002
40
0.750000000000002
40
0.750000000000002
40
0.875000000000001
40
0.875000000000001
40
1
40
1
40
1
40
1
41
1
10
21.4383186059721
20
-25.6302170074937
30
0
41
1
10
21.4273384371424
20
-25.5921282043369
30
0
41
1
10
21.414643664794
20
-25.5565576864707
30
0
41
1
10
21.3866131093298
20
-25.489773396279
30
0
41
1
10
21.3712717998091
20
-25.4585641341311
30
0
41
1
10
21.3467540221096
20
-25.4147602780868
30
0
41
1
10
21.3383298423659
20
-25.4006627839786
30
0
41
1
10
21.3210571708545
20
-25.3734547466867
30
0
41
1
10
21.3121777261249
20
-25.360303090497
30
0
41
1
10
21.2853235333158
20
-25.3227217821483
30
0
41
1
10
21.2671113644204
20
-25.3000986272758
30
0
41
1
10
21.230870732168
20
-25.2593328109204
30
0
41
1
10
21.2128360355555
20
-25.2411903930833
30
0
41
1
10
21.186653920174
20
-25.2173094640245
30
0
41
1
10
21.1780735157197
20
-25.2099072061718
30
0
41
1
10
21.1613651842623
20
-25.1962502767197
30
0
41
1
10
21.1532354237465
20
-25.1899978430742
30
0
41
1
10
21.1301630489078
20
-25.17328566676
30
0
41
1
10
21.116397661521
20
-25.1647464018475
30
0
41
1
10
21.0936436622351
20
-25.1531066426667
30
0
41
1
10
21.0846558404922
20
-25.15
30
0
41
1
10
21.0789973669916
20
-25.15
30
0
0
SPLINE
5
110
100
AcDbEntity
8
1
62
256
6
ByLayer
370
18
48
1
60
0
100
AcDbSpline
70
4
71
3
72
25
73
21
40
0
40
0
40
0
40
0
40
0.181842326632011
40
0.181842326632011
40
0.227302908290014
40
0.227302908290014
40
0.272763489948017
40
0.363684653264022
40
0.363684653264022
40
0.545526979896032
40
0.545526979896032
40
0.636448143212037
40
0.636448143212037
40
0.727369306528042
40
0.727369306528042
40
0.818290469844047
40
0.818290469844047
40
0.909211633160052
40
0.909211633160052
40
1
40
1
40
1
40
1
41
1
10
21.4383186059728
20
-25.15
30
0
41
1
10
21.4146629162652
20
-25.15
30
0
41
1
10
21.3822793813483
20
-25.15
30
0
41
1
10
21.3350215295799
20
-25.15
30
0
41
1
10
21.3252368705736
20
-25.15
30
0
41
1
10
21.3050439238065
20
-25.15
30
0
41
1
10
21.2738886135017
20
-25.15
30
0
41
1
10
21.2405768822479
20
-25.15
30
0
41
1
10
21.1723257653071
20
-25.15
30
0
41
1
10
21.1245662845257
20
-25.15
30
0
41
1
10
21.0555872547574
20
-25.15
30
0
41
1
10
21.0330538784938
20
-25.15
30
0
41
1
10
20.9902529260176
20
-25.15
30
0
41
1
10
20.969988292361
20
-25.15
30
0
41
1
10
20.9333038890485
20
-25.15
30
0
41
1
10
20.91689219796
20
-25.15
30
0
41
1
10
20.8896112773471
20
-25.15
30
0
41
1
10
20.8787590170183
20
-25.15
30
0
41
1
10
20.8640524846203
20
-25.15
30
0
41
1
10
20.860205221302
20
-25.15
30
0
41
1
10
20.86015560597
20
-25.15
30
0
0
SPLINE
5
111
100
AcDbEntity
8
1
62
256
6
ByLayer
370
18
48
1
60
0
100
AcDbSpline
70
4
71
3
72
65
73
61
40
0
40
0
40
0
40
0
40
0.0078125000000003
40
0.0078125000000003
40
0.0156250000000006
40
0.0156250000000006
40
0.0312500000000011
40
0.0312500000000011
40
0.0468750000000018
40
0.0468750000000018
40
0.0625000000000023
40
0.0625000000000023
40
0.0781250000000029
40
0.0781250000000029
40
0.0937500000000034
40
0.0937500000000034
40
0.125000000000004
40
0.125000000000004
40
0.156250000000004
40
0.156250000000004
40
0.187500000000004
40
0.187500000000004
40
0.218750000000004
40
0.218750000000004
40
0.250000000000004
40
0.250000000000004
40
0.312500000000004
40
0.312500000000004
40
0.375000000000005
40
0.375000000000005
40
0.437500000000005
40
0.437500000000005
40
0.468750000000005
40
0.484375000000005
40
0.484375000000005
40
0.500000000000004
40
0.500000000000004
40
0.562500000000003
40
0.562500000000003
40
0.625000000000001
40
0.625000000000001
40
0.6875
40
0.6875
40
0.703125
40
0.703125
40
0.718749999999999
40
0.718749999999999
40
0.75
40
0.75
40
0.812500000000001
40
0.812500000000001
40
0.843750000000001
40
0.843750000000001
40
0.859375000000002
40
0.859375000000002
40
0.875000000000002
40
0.875000000000002
40
0.937500000000001
40
0.937500000000001
40
1
40
1
40
1
40
1
41
1
10
20.1015362876591
20
16.9650527283992
30
0
41
1
10
20.1017034015956
20
16.9638143803122
30
0
41
1
10
20.1020066839016
20
16.9615689604782
30
0
41
1
10
20.1028739802305
20
16.9552225604785
30
0
41
1
10
20.1034406799307
20
16.9511033769583
30
0
41
1
10
20.1054866650437
20
16.936467240359
30
0
41
1
10
20.1073103047522
20
16.9236858717189
30
0
41
1
10
20.1117494056423
20
16.8939795404524
30
0
41
1
10
20.1143661133303
20
16.8770504118937
30
0
41
1
10
20.120327267364
20
16.8403496932662
30
0
41
1
10
20.1236526818981
20
16.820696850008
30
0
41
1
10
20.1309210666513
20
16.77978949237
30
0
41
1
10
20.1348685951514
20
16.7585039816958
30
0
41
1
10
20.1433669471227
20
16.7147906864398
30
0
41
1
10
20.1479180211759
20
16.6923595819382
30
0
41
1
10
20.162459859059
20
16.6238450368799
30
0
41
1
10
20.1733452516166
20
16.5765461853585
30
0
41
1
10
20.197355571921
20
16.4806378453863
30
0
41
1
10
20.2104919492547
20
16.4319534369108
30
0
41
1
10
20.2390330652647
20
16.3338236599874
30
0
41
1
10
20.2544381555435
20
16.2843703752691
30
0
41
1
10
20.2875483640891
20
16.1850718351758
30
0
41
1
10
20.3052757438522
20
16.1351665858406
30
0
41
1
10
20.3429539297721
20
16.035515352212
30
0
41
1
10
20.3628989152056
20
15.9857746745081
30
0
41
1
10
20.4260805062178
20
15.8370273947141
30
0
41
1
10
20.4726568459735
20
15.7385051728685
30
0
41
1
10
20.5750381517712
20
15.5434511760849
30
0
41
1
10
20.6308416571675
20
15.4469098424781
30
0
41
1
10
20.7522332534158
20
15.2562652119487
30
0
41
1
10
20.8178183138414
20
15.1621576247488
30
0
41
1
10
20.9241793743413
20
15.0231356800571
30
0
41
1
10
20.9793597465323
20
14.9541596467564
30
0
41
1
10
21.03770478268
20
14.8860507344991
30
0
41
1
10
21.0773267016399
20
14.84084539621
30
0
41
1
10
21.0975153589098
20
14.8183264489167
30
0
41
1
10
21.2001579934533
20
14.7064404874338
30
0
41
1
10
21.2871108824143
20
14.6198206933616
30
0
41
1
10
21.4713351322612
20
14.4528331487845
30
0
41
1
10
21.5686021815241
20
14.3724622039252
30
0
41
1
10
21.7744726436553
20
14.2186545774603
30
0
41
1
10
21.8830678256736
20
14.1452124846165
30
0
41
1
10
22.0268836439517
20
14.0583798944017
30
0
41
1
10
22.0560521742107
20
14.0412629592774
30
0
41
1
10
22.1152328209574
20
14.0075491842707
30
0
41
1
10
22.145193083176
20
13.9909833465307
30
0
41
1
10
22.2358326382889
20
13.942383025758
30
0
41
1
10
22.2974139446894
20
13.9113622186701
30
0
41
1
10
22.485746737876
20
13.8225935953853
30
0
41
1
10
22.6160710385209
20
13.7691203583953
30
0
41
1
10
22.8194552532919
20
13.6983864225327
30
0
41
1
10
22.8885699520132
20
13.6763921399792
30
0
41
1
10
22.9943562465227
20
13.645940441346
30
0
41
1
10
23.0300378371058
20
13.6361976819459
30
0
41
1
10
23.1015911483698
20
13.6177268479476
30
0
41
1
10
23.1375043295675
20
13.6089848429232
30
0
41
1
10
23.3177543270181
20
13.5677483473986
30
0
41
1
10
23.4641367223703
20
13.542650285291
30
0
41
1
10
23.7614084592185
20
13.5087790567683
30
0
41
1
10
23.9122962242714
20
13.5
30
0
41
1
10
24.0656038219736
20
13.5
30
0
0
SPLINE
5
112
100
AcDbEntity
8
1
62
256
6
ByLayer
370
18
48
1
60
0
100
AcDbSpline
70
4
71
3
72
30
73
26
40
0
40
0
40
0
40
0
40
0.0625000000000039
40
0.0625000000000039
40
0.125000000000007
40
0.125000000000007
40
0.187500000000011
40
0.187500000000011
40
0.218750000000012
40
0.218750000000012
40
0.250000000000012
40
0.250000000000012
40
0.375000000000009
40
0.375000000000009
40
0.437500000000008
40
0.437500000000008
40
0.500000000000008
40
0.500000000000008
40
0.625000000000006
40
0.625000000000006
40
0.750000000000004
40
0.750000000000004
40
0.875000000000002
40
0.875000000000002
40
1
40
1
40
1
40
1
41
1
10
21.4383186059721
20
-23.7019454950042
30
0
41
1
10
21.4249003004791
20
-23.6419848639199
30
0
41
1
10
21.4087863664848
20
-23.5839067969664
30
0
41
1
10
21.3722892347421
20
-23.4709054990938
30
0
41
1
10
21.3518986391946
20
-23.4159874244188
30
0
41
1
10
21.3076443289017
20
-23.3089291190832
30
0
41
1
10
21.283777056096
20
-23.2567913693147
30
0
41
1
10
21.2458590181284
20
-23.1804663379058
30
0
41
1
10
21.232893425134
20
-23.1553977810177
30
0
41
1
10
21.2065628733284
20
-23.106266032391
30
0
41
1
10
21.193173628623
20
-23.0821536637253
30
0
41
1
10
21.1253025393921
20
-22.9636895111902
30
0
41
1
10
21.068093469609
20
-22.8755837834485
30
0
41
1
10
20.9809533585674
20
-22.7508966364782
30
0
41
1
10
20.9516762507544
20
-22.7105887316672
30
0
41
1
10
20.893085519472
20
-22.6321329887377
30
0
41
1
10
20.8640296676923
20
-22.5943272976219
30
0
41
1
10
20.7780931346434
20
-22.4844861802435
30
0
41
1
10
20.7224451357878
20
-22.415983907998
30
0
41
1
10
20.6163653777122
20
-22.2851339896656
30
0
41
1
10
20.5659266287246
20
-22.2227955214179
30
0
41
1
10
20.4716364849594
20
-22.101537340534
30
0
41
1
10
20.4277814503869
20
-22.0426206378698
30
0
41
1
10
20.3476452411347
20
-21.9258251299121
30
0
41
1
10
20.3113616992944
20
-21.8679461561215
30
0
41
1
10
20.2792076144253
20
-21.8095567211174
30
0
0
SPLINE
5
113
100
AcDbEntity
8
1
62
256
6
ByLayer
370
18
48
1
60
0
100
AcDbSpline
70
4
71
3
72
8
73
4
40
0
40
0
40
0
40
0
40
1
40
1
40
1
40
1
41
1
10
21.7683853086035
20
-25.15
30
0
41
1
10
21.6563159198429
20
-24.6664910261022
30
0
41
1
10
21.5461472193523
20
-24.1837851513277
30
0
41
1
10
21.4383186059721
20
-23.7019454950042
30
0
0
SPLINE
5
114
100
AcDbEntity
8
1
62
256
6
ByLayer
370
18
48
1
60
0
100
AcDbSpline
70
4
71
3
72
26
73
22
40
0
40
0
40
0
40
0
40
0.249999999999997
40
0.249999999999997
40
0.374999999999996
40
0.374999999999996
40
0.499999999999994
40
0.499999999999994
40
0.562499999999996
40
0.562499999999996
40
0.624999999999999
40
0.624999999999999
40
0.750000000000006
40
0.750000000000006
40
0.875000000000012
40
0.875000000000012
40
0.906250000000011
40
0.906250000000011
40
0.937500000000009
40
0.937500000000009
40
1
40
1
40
1
40
1
41
1
10
11.8943375672975
20
-23.6665017920808
30
0
41
1
10
11.8788862370737
20
-23.686033116806
30
0
41
1
10
11.8602443227467
20
-23.7051129235882
30
0
41
1
10
11.8262196262291
20
-23.7324910902464
30
0
41
1
10
11.8138519277099
20
-23.7414211400326
30
0
41
1
10
11.7865761040498
20
-23.7588292909636
30
0
41
1
10
11.7716769242357
20
-23.7673085978343
30
0
41
1
10
11.7468017366172
20
-23.7796095569562
30
0
41
1
10
11.7380555263963
20
-23.7836514357395
30
0
41
1
10
11.719773612984
20
-23.7914778883489
30
0
41
1
10
11.7102266942346
20
-23.7952700628808
30
0
41
1
10
11.6801688454703
20
-23.8062336877525
30
0
41
1
10
11.6582924559948
20
-23.813005969379
30
0
41
1
10
11.6089650834003
20
-23.8249896713849
30
0
41
1
10
11.582404000511
20
-23.8299833264009
30
0
41
1
10
11.5458956692735
20
-23.8344558067494
30
0
41
1
10
11.5384012334117
20
-23.8352611656444
30
0
41
1
10
11.5233488813096
20
-23.8366445991221
30
0
41
1
10
11.5157579869923
20
-23.8372273769848
30
0
41
1
10
11.4927843117432
20
-23.8386381480423
30
0
41
1
10
11.4772013120199
20
-23.8391299750502
30
0
41
1
10
11.4613248654052
20
-23.8391299750502
30
0
0
SPLINE
5
115
100
AcDbEntity
8
1
62
256
6
ByLayer
370
18
48
1
60
0
100
AcDbSpline
70
4
71
3
72
30
73
26
40
0
40
0
40
0
40
0
40
0.0624999999999973
40
0.0624999999999973
40
0.124999999999995
40
0.124999999999995
40
0.156249999999992
40
0.156249999999992
40
0.187499999999989
40
0.187499999999989
40
0.249999999999988
40
0.249999999999988
40
0.312499999999988
40
0.312499999999988
40
0.374999999999988
40
0.374999999999988
40
0.499999999999992
40
0.499999999999992
40
0.56249999999999
40
0.56249999999999
40
0.624999999999989
40
0.624999999999989
40
0.749999999999989
40
0.749999999999989
40
1
40
1
40
1
40
1
41
1
10
8.5386751345948
20
-23.8391299750504
30
0
41
1
10
8.52282418317805
20
-23.8391299750504
30
0
41
1
10
8.50706439724274
20
-23.838635326325
30
0
41
1
10
8.47609922674792
20
-23.8367207404254
30
0
41
1
10
8.46115505954003
20
-23.8353222152631
30
0
41
1
10
8.43942789093373
20
-23.8326565134122
30
0
41
1
10
8.43230089820059
20
-23.8316728303992
30
0
41
1
10
8.41826331057831
20
-23.8295263669799
30
0
41
1
10
8.41133341861178
20
-23.8283593459882
30
0
41
1
10
8.39116971420628
20
-23.8246655611124
30
0
41
1
10
8.3784538615962
20
-23.8219342456095
30
0
41
1
10
8.35418344395194
20
-23.816035844018
30
0
41
1
10
8.34263086450954
20
-23.812868038308
30
0
41
1
10
8.3205004416742
20
-23.8061604830514
30
0
41
1
10
8.30988749524428
20
-23.8026065911347
30
0
41
1
10
8.27962274066843
20
-23.7915679133937
30
0
41
1
10
8.2615230214692
20
-23.7837256270429
30
0
41
1
10
8.23661756318498
20
-23.7714105724815
30
0
41
1
10
8.22868081710854
20
-23.7672030231185
30
0
41
1
10
8.21358407401564
20
-23.7586801045418
30
0
41
1
10
8.20641626669956
20
-23.7543620682907
30
0
41
1
10
8.18590373003096
20
-23.7412544902041
30
0
41
1
10
8.1735424287788
20
-23.7323123198157
30
0
41
1
10
8.13959628273551
20
-23.7049589195931
30
0
41
1
10
8.12110769698509
20
-23.6860254491251
30
0
41
1
10
8.10566243270267
20
-23.6665017920808
30
0
0
SPLINE
5
116
100
AcDbEntity
8
1
62
256
6
ByLayer
370
18
48
1
60
0
100
AcDbSpline
70
4
71
3
72
26
73
22
40
0
40
0
40
0
40
0
40
0.249999999999986
40
0.249999999999986
40
0.374999999999981
40
0.374999999999981
40
0.499999999999976
40
0.499999999999976
40
0.562499999999976
40
0.562499999999976
40
0.624999999999977
40
0.624999999999977
40
0.749999999999978
40
0.749999999999978
40
0.874999999999979
40
0.874999999999979
40
0.906249999999985
40
0.906249999999985
40
0.93749999999999
40
0.93749999999999
40
1
40
1
40
1
40
1
41
1
10
8.10566243270253
20
-8.05584836782785
30
0
41
1
10
8.12111376292629
20
-7.99846916820718
30
0
41
1
10
8.13975567725333
20
-7.94172327888202
30
0
41
1
10
8.17378037377094
20
-7.85937042586596
30
0
41
1
10
8.18614807229017
20
-7.83234954293016
30
0
41
1
10
8.21342389595023
20
-7.77938351245623
30
0
41
1
10
8.22832307576431
20
-7.75343444963914
30
0
41
1
10
8.25319826338284
20
-7.71559105034081
30
0
41
1
10
8.26194447360368
20
-7.70312184666892
30
0
41
1
10
8.28022638701603
20
-7.67891539799638
30
0
41
1
10
8.28977330576541
20
-7.66715495165661
30
0
41
1
10
8.31983115452977
20
-7.63307325241217
30
0
41
1
10
8.3417075440052
20
-7.61190750686279
30
0
41
1
10
8.39103491659975
20
-7.57431556968126
30
0
41
1
10
8.41759599948901
20
-7.55857361750122
30
0
41
1
10
8.45410433072652
20
-7.54444995843585
30
0
41
1
10
8.46159876658839
20
-7.54190496002269
30
0
41
1
10
8.47665111869043
20
-7.53753139400649
30
0
41
1
10
8.48424201300779
20
-7.53568798536671
30
0
41
1
10
8.50721568825682
20
-7.53122440152964
30
0
41
1
10
8.52279868798016
20
-7.52966679426521
30
0
41
1
10
8.53867513459488
20
-7.52966679426521
30
0
0
SPLINE
5
117
100
AcDbEntity
8
1
62
256
6
ByLayer
370
18
48
1
60
0
100
AcDbSpline
70
4
71
3
72
30
73
26
40
0
40
0
40
0
40
0
40
0.0625000000000092
40
0.0625000000000092
40
0.125000000000019
40
0.125000000000019
40
0.156250000000021
40
0.156250000000021
40
0.187500000000023
40
0.187500000000023
40
0.250000000000021
40
0.250000000000021
40
0.31250000000002
40
0.31250000000002
40
0.375000000000019
40
0.375000000000019
40
0.500000000000016
40
0.500000000000016
40
0.562500000000016
40
0.562500000000016
40
0.625000000000016
40
0.625000000000016
40
0.750000000000011
40
0.750000000000011
40
1
40
1
40
1
40
1
41
1
10
11.4613248654053
20
-7.52966679426495
30
0
41
1
10
11.477175816822
20
-7.52966679426495
30
0
41
1
10
11.4929356027573
20
-7.53123335639165
30
0
41
1
10
11.5239007732521
20
-7.53729092133952
30
0
41
1
10
11.5388449404601
20
-7.54171396614049
30
0
41
1
10
11.5605721090663
20
-7.55013193108829
30
0
41
1
10
11.5676991017995
20
-7.55323657194805
30
0
41
1
10
11.5817366894217
20
-7.56000567013078
30
0
41
1
10
11.5886665813883
20
-7.56368345606458
30
0
41
1
10
11.6088302857938
20
-7.57531366225038
30
0
41
1
10
11.6215461384038
20
-7.58390025536215
30
0
41
1
10
11.6458165560481
20
-7.60240297286816
30
0
41
1
10
11.6573691354905
20
-7.6123213786517
30
0
41
1
10
11.6794995583259
20
-7.63327217102551
30
0
41
1
10
11.6901125047557
20
-7.64434849039861
30
0
41
1
10
11.7203772593316
20
-7.67866353751202
30
0
41
1
10
11.7384769785308
20
-7.70292805784948
30
0
41
1
10
11.7633824368151
20
-7.74081492713998
30
0
41
1
10
11.7713191828915
20
-7.75372482186648
30
0
41
1
10
11.7864159259844
20
-7.77980127287398
30
0
41
1
10
11.7935837333005
20
-7.79297622996174
30
0
41
1
10
11.8140962699691
20
-7.8328550605851
30
0
41
1
10
11.8264575712212
20
-7.85991012495438
30
0
41
1
10
11.8604037172645
20
-7.94218253951274
30
0
41
1
10
11.8788923030149
20
-7.9984916943493
30
0
41
1
10
11.8943375672973
20
-8.05584836782793
30
0
0
SPLINE
5
118
100
AcDbEntity
8
1
62
256
6
ByLayer
370
18
48
1
60
0
100
AcDbSpline
70
4
71
3
72
26
73
22
40
0
40
0
40
0
40
0
40
0.250000000000012
40
0.250000000000012
40
0.375000000000016
40
0.375000000000016
40
0.500000000000017
40
0.500000000000017
40
0.562500000000013
40
0.562500000000013
40
0.625000000000009
40
0.625000000000009
40
0.750000000000003
40
0.750000000000003
40
0.874999999999998
40
0.874999999999998
40
0.906249999999998
40
0.906249999999998
40
0.937499999999998
40
0.937499999999998
40
1
40
1
40
1
40
1
41
1
10
8.10566243270253
20
23.6665017920809
30
0
41
1
10
8.12111376292626
20
23.6860331168061
30
0
41
1
10
8.13975567725336
20
23.7051129235882
30
0
41
1
10
8.17378037377094
20
23.7324910902464
30
0
41
1
10
8.18614807229017
20
23.7414211400326
30
0
41
1
10
8.21342389595023
20
23.7588292909636
30
0
41
1
10
8.22832307576431
20
23.7673085978343
30
0
41
1
10
8.25319826338284
20
23.7796095569563
30
0
41
1
10
8.26194447360368
20
23.7836514357395
30
0
41
1
10
8.280226387016
20
23.7914778883489
30
0
41
1
10
8.28977330576541
20
23.7952700628808
30
0
41
1
10
8.31983115452977
20
23.8062336877525
30
0
41
1
10
8.3417075440052
20
23.813005969379
30
0
41
1
10
8.39103491659975
20
23.8249896713849
30
0
41
1
10
8.41759599948901
20
23.8299833264009
30
0
41
1
10
8.45410433072652
20
23.8344558067494
30
0
41
1
10
8.46159876658839
20
23.8352611656444
30
0
41
1
10
8.47665111869043
20
23.8366445991221
30
0
41
1
10
8.48424201300779
20
23.8372273769848
30
0
41
1
10
8.50721568825682
20
23.8386381480423
30
0
41
1
10
8.52279868798016
20
23.8391299750502
30
0
41
1
10
8.53867513459488
20
23.8391299750502
30
0
0
SPLINE
5
119
100
AcDbEntity
8
1
62
256
6
ByLayer
370
18
48
1
60
0
100
AcDbSpline
70
4
71
3
72
30
73
26
40
0
40
0
40
0
40
0
40
0.0624999999999996
40
0.0624999999999996
40
0.124999999999999
40
0.124999999999999
40
0.156249999999998
40
0.156249999999998
40
0.187499999999997
40
0.187499999999997
40
0.249999999999997
40
0.249999999999997
40
0.312499999999997
40
0.312499999999997
40
0.374999999999997
40
0.374999999999997
40
0.499999999999993
40
0.499999999999993
40
0.562499999999991
40
0.562499999999991
40
0.624999999999989
40
0.624999999999989
40
0.749999999999994
40
0.749999999999994
40
1
40
1
40
1
40
1
41
1
10
11.4613248654053
20
23.8391299750504
30
0
41
1
10
11.477175816822
20
23.8391299750504
30
0
41
1
10
11.4929356027573
20
23.838635326325
30
0
41
1
10
11.5239007732521
20
23.8367207404254
30
0
41
1
10
11.53884494046
20
23.8353222152631
30
0
41
1
10
11.5605721090663
20
23.8326565134122
30
0
41
1
10
11.5676991017994
20
23.8316728303992
30
0
41
1
10
11.5817366894217
20
23.8295263669799
30
0
41
1
10
11.5886665813883
20
23.8283593459881
30
0
41
1
10
11.6088302857937
20
23.8246655611124
30
0
41
1
10
11.6215461384038
20
23.8219342456095
30
0
41
1
10
11.6458165560481
20
23.816035844018
30
0
41
1
10
11.6573691354905
20
23.812868038308
30
0
41
1
10
11.6794995583258
20
23.8061604830514
30
0
41
1
10
11.6901125047557
20
23.8026065911346
30
0
41
1
10
11.7203772593316
20
23.7915679133937
30
0
41
1
10
11.7384769785308
20
23.7837256270429
30
0
41
1
10
11.763382436815
20
23.7714105724815
30
0
41
1
10
11.7713191828915
20
23.7672030231185
30
0
41
1
10
11.7864159259844
20
23.7586801045418
30
0
41
1
10
11.7935837333005
20
23.7543620682907
30
0
41
1
10
11.8140962699691
20
23.7412544902041
30
0
41
1
10
11.8264575712212
20
23.7323123198157
30
0
41
1
10
11.8604037172645
20
23.7049589195931
30
0
41
1
10
11.8788923030149
20
23.6860254491251
30
0
41
1
10
11.8943375672973
20
23.6665017920808
30
0
0
SPLINE
5
11A
100
AcDbEntity
8
1
62
256
6
ByLayer
370
18
48
1
60
0
100
AcDbSpline
70
4
71
3
72
26
73
22
40
0
40
0
40
0
40
0
40
0.249999999999999
40
0.249999999999999
40
0.374999999999998
40
0.374999999999998
40
0.500000000000001
40
0.500000000000001
40
0.562500000000001
40
0.562500000000001
40
0.625
40
0.625
40
0.750000000000003
40
0.750000000000003
40
0.875000000000005
40
0.875000000000005
40
0.906250000000004
40
0.906250000000004
40
0.937500000000002
40
0.937500000000002
40
1
40
1
40
1
40
1
41
1
10
11.8943375672975
20
8.05584836782788
30
0
41
1
10
11.8788862370737
20
7.99846916820724
30
0
41
1
10
11.8602443227466
20
7.94172327888197
30
0
41
1
10
11.826219626229
20
7.85937042586593
30
0
41
1
10
11.8138519277098
20
7.83234954293013
30
0
41
1
10
11.7865761040498
20
7.77938351245621
30
0
41
1
10
11.7716769242357
20
7.75343444963914
30
0
41
1
10
11.7468017366172
20
7.71559105034081
30
0
41
1
10
11.7380555263963
20
7.70312184666892
30
0
41
1
10
11.719773612984
20
7.67891539799638
30
0
41
1
10
11.7102266942346
20
7.66715495165661
30
0
41
1
10
11.6801688454703
20
7.6330732524122
30
0
41
1
10
11.6582924559948
20
7.61190750686282
30
0
41
1
10
11.6089650834003
20
7.57431556968129
30
0
41
1
10
11.582404000511
20
7.55857361750125
30
0
41
1
10
11.5458956692735
20
7.54444995843591
30
0
41
1
10
11.5384012334116
20
7.54190496002275
30
0
41
1
10
11.5233488813096
20
7.53753139400655
30
0
41
1
10
11.5157579869923
20
7.53568798536676
30
0
41
1
10
11.4927843117432
20
7.5312244015297
30
0
41
1
10
11.4772013120199
20
7.52966679426524
30
0
41
1
10
11.4613248654052
20
7.52966679426524
30
0
0
SPLINE
5
11B
100
AcDbEntity
8
1
62
256
6
ByLayer
370
18
48
1
60
0
100
AcDbSpline
70
4
71
3
72
30
73
26
40
0
40
0
40
0
40
0
40
0.0624999999999853
40
0.0624999999999853
40
0.124999999999971
40
0.124999999999971
40
0.156249999999967
40
0.156249999999967
40
0.187499999999963
40
0.187499999999963
40
0.249999999999961
40
0.249999999999961
40
0.312499999999959
40
0.312499999999959
40
0.374999999999957
40
0.374999999999957
40
0.499999999999958
40
0.499999999999958
40
0.562499999999962
40
0.562499999999962
40
0.624999999999965
40
0.624999999999965
40
0.749999999999975
40
0.749999999999975
40
1
40
1
40
1
40
1
41
1
10
8.53867513459483
20
7.5296667942649
30
0
41
1
10
8.52282418317805
20
7.5296667942649
30
0
41
1
10
8.50706439724274
20
7.5312333563916
30
0
41
1
10
8.47609922674792
20
7.53729092133946
30
0
41
1
10
8.46115505954
20
7.54171396614043
30
0
41
1
10
8.43942789093373
20
7.5501319310882
30
0
41
1
10
8.43230089820059
20
7.55323657194796
30
0
41
1
10
8.41826331057831
20
7.56000567013072
30
0
41
1
10
8.41133341861178
20
7.5636834560645
30
0
41
1
10
8.39116971420628
20
7.5753136622503
30
0
41
1
10
8.3784538615962
20
7.5839002553621
30
0
41
1
10
8.35418344395194
20
7.60240297286808
30
0
41
1
10
8.34263086450954
20
7.61232137865161
30
0
41
1
10
8.3205004416742
20
7.63327217102542
30
0
41
1
10
8.30988749524428
20
7.64434849039853
30
0
41
1
10
8.2796227406684
20
7.67866353751194
30
0
41
1
10
8.2615230214692
20
7.70292805784939
30
0
41
1
10
8.23661756318495
20
7.74081492713989
30
0
41
1
10
8.22868081710851
20
7.7537248218664
30
0
41
1
10
8.21358407401564
20
7.77980127287393
30
0
41
1
10
8.20641626669956
20
7.79297622996168
30
0
41
1
10
8.18590373003096
20
7.83285506058505
30
0
41
1
10
8.1735424287788
20
7.8599101249543
30
0
41
1
10
8.13959628273551
20
7.94218253951269
30
0
41
1
10
8.12110769698509
20
7.99849169434924
30
0
41
1
10
8.10566243270267
20
8.05584836782788
30
0
0
SPLINE
5
11C
100
AcDbEntity
8
1
62
256
6
ByLayer
370
18
48
1
60
0
100
AcDbSpline
70
4
71
3
72
10
73
6
40
0
40
0
40
0
40
0
40
0.5
40
0.5
40
1
40
1
40
1
40
1
41
1
10
20.1015362876591
20
-21.1275712320815
30
0
41
1
10
20.1032019745962
20
-21.2483129697222
30
0
41
1
10
20.1184646407112
20
-21.3654550667621
30
0
41
1
10
20.1771011086747
20
-21.592736970496
30
0
41
1
10
20.2204607714827
20
-21.7028768083892
30
0
41
1
10
20.2792076144253
20
-21.8095567211174
30
0
0
SPLINE
5
11D
100
AcDbEntity
8
SK1
62
256
6
ByLayer
370
18
48
1
60
0
100
AcDbSpline
70
4
71
3
72
45
73
41
40
0
40
0
40
0
40
0
40
0.0236931870414055
40
0.0517111907436775
40
0.0797291944459494
40
0.107747198148221
40
0.163783205552765
40
0.219819212957309
40
0.247837216659581
40
0.275855220361853
40
0.303873224064125
40
0.331891227766397
40
0.359909231468669
40
0.387927235170941
40
0.415945238873213
40
0.429954240724349
40
0.443963242575485
40
0.471981246277757
40
0.485990248128893
40
0.49299474905446
40
0.499999249980028
40
0.507003750905596
40
0.514008251831165
40
0.5280172536823
40
0.556035257384572
40
0.570044259235708
40
0.584053261086844
40
0.612071264789116
40
0.640089268491388
40
0.66810727219366
40
0.696125275895932
40
0.724143279598204
40
0.752161283300476
40
0.780179287002748
40
0.836215294407292
40
0.892251301811836
40
0.920269305514108
40
0.94828730921638
40
0.976305312918651
40
1
40
1
40
1
40
1
41
1
10
-30
20
-15.9931897517409
30
0
41
1
10
-30
20
-15.9976527131054
30
0
41
1
10
-30
20
-15.9670746968208
30
0
41
1
10
-30
20
-15.7965327535813
30
0
41
1
10
-30
20
-15.4890634139888
30
0
41
1
10
-30
20
-14.9202427964398
30
0
41
1
10
-30
20
-13.9430330734595
30
0
41
1
10
-30
20
-12.6450674903883
30
0
41
1
10
-30
20
-11.4213703912989
30
0
41
1
10
-30
20
-10.4224348167646
30
0
41
1
10
-30
20
-9.34179238961872
30
0
41
1
10
-30
20
-8.18272269843541
30
0
41
1
10
-30
20
-6.94914704263559
30
0
41
1
10
-30
20
-5.64597176408017
30
0
41
1
10
-30
20
-4.51272494557483
30
0
41
1
10
-30
20
-3.56968220154852
30
0
41
1
10
-30
20
-2.61530613672116
30
0
41
1
10
-30
20
-1.675914880346
30
0
41
1
10
-30
20
-0.8333415404785
30
0
41
1
10
-30
20
-0.354131996183753
30
0
41
1
10
-30
20
-4.002277763E-07
30
0
41
1
10
-30
20
0.354131622770439
30
0
41
1
10
-30
20
0.833341855678952
30
0
41
1
10
-30
20
1.67591474804155
30
0
41
1
10
-30
20
2.61530592334967
30
0
41
1
10
-30
20
3.56968201835696
30
0
41
1
10
-30
20
4.51272453462846
30
0
41
1
10
-30
20
5.64597210397025
30
0
41
1
10
-30
20
6.94914665451276
30
0
41
1
10
-30
20
8.18272261240929
30
0
41
1
10
-30
20
9.34179268341308
30
0
41
1
10
-30
20
10.4224345134304
30
0
41
1
10
-30
20
11.42137036219
30
0
41
1
10
-30
20
12.6450678356931
30
0
41
1
10
-30
20
13.9430327235571
30
0
41
1
10
-30
20
14.9202435431778
30
0
41
1
10
-30
20
15.4890632796305
30
0
41
1
10
-30
20
15.7965331178349
30
0
41
1
10
-30
20
15.9670784642162
30
0
41
1
10
-30
20
15.9976546237334
30
0
41
1
10
-30
20
15.9931890148667
30
0
0
SPLINE
5
11E
100
AcDbEntity
8
SK1
62
256
6
ByLayer
370
18
48
1
60
0
100
AcDbSpline
70
4
71
3
72
38
73
34
40
0
40
0
40
0
40
0
40
0.0156249999999994
40
0.0156249999999994
40
0.0312499999999989
40
0.0312499999999989
40
0.0468749999999983
40
0.0468749999999983
40
0.0624999999999978
40
0.0624999999999978
40
0.0781249999999972
40
0.0781249999999972
40
0.0937499999999967
40
0.0937499999999967
40
0.124999999999996
40
0.124999999999996
40
0.156249999999996
40
0.156249999999996
40
0.187499999999995
40
0.187499999999995
40
0.249999999999994
40
0.249999999999994
40
0.312499999999993
40
0.312499999999993
40
0.374999999999993
40
0.374999999999993
40
0.499999999999994
40
0.499999999999994
40
0.624999999999995
40
0.624999999999995
40
0.749999999999996
40
0.749999999999996
40
1
40
1
40
1
40
1
41
1
10
-0.394913799811292
20
5.38724256160012
30
0
41
1
10
-0.391760928947491
20
5.38456196831947
30
0
41
1
10
-0.388473887026265
20
5.38206549938212
30
0
41
1
10
-0.38153937388509
20
5.37756780385979
30
0
41
1
10
-0.377868038063696
20
5.37555831609174
30
0
41
1
10
-0.370241250613816
20
5.3723360299343
30
0
41
1
10
-0.366271728735939
20
5.37110702101791
30
0
41
1
10
-0.357904387099552
20
5.36969675293611
30
0
41
1
10
-0.353672033871135
20
5.36955188220819
30
0
41
1
10
-0.34515378855366
20
5.37051023807433
30
0
41
1
10
-0.340905624745204
20
5.37162929612282
30
0
41
1
10
-0.332865959292377
20
5.37490714744834
30
0
41
1
10
-0.328982330604219
20
5.37709874944122
30
0
41
1
10
-0.318249907555923
20
5.38460165612528
30
0
41
1
10
-0.312019326339481
20
5.39094692539055
30
0
41
1
10
-0.301003751718952
20
5.40461199814789
30
0
41
1
10
-0.296164698039007
20
5.41201401791545
30
0
41
1
10
-0.287542348293414
20
5.4270010731546
30
0
41
1
10
-0.283724888361974
20
5.43464123738531
30
0
41
1
10
-0.27320640701916
20
5.45783596374696
30
0
41
1
10
-0.267422418729012
20
5.47365965349934
30
0
41
1
10
-0.257164394743881
20
5.50568135296541
30
0
41
1
10
-0.252718404682298
20
5.5218878599284
30
0
41
1
10
-0.244723140953198
20
5.55455058376137
30
0
41
1
10
-0.241184891539916
20
5.57099638970121
30
0
41
1
10
-0.231616433421465
20
5.62029294902339
30
0
41
1
10
-0.226581907125762
20
5.65322539657006
30
0
41
1
10
-0.218149341071296
20
5.71913713924843
30
0
41
1
10
-0.214779228537765
20
5.75205694597241
30
0
41
1
10
-0.20923421427949
20
5.81770188154849
30
0
41
1
10
-0.207062820514693
20
5.85044931358669
30
0
41
1
10
-0.201930655445068
20
5.94848814748264
30
0
41
1
10
-0.200329859654715
20
6.01357702681216
30
0
41
1
10
-0.199999999999989
20
6.07843116862819
30
0
0
SPLINE
5
11F
100
AcDbEntity
8
SK1
62
256
6
ByLayer
370
18
48
1
60
0
100
AcDbSpline
70
4
71
3
72
38
73
34
40
0
40
0
40
0
40
0
40
0.250000000000001
40
0.250000000000001
40
0.375
40
0.375
40
0.499999999999999
40
0.499999999999999
40
0.624999999999997
40
0.624999999999997
40
0.687499999999997
40
0.687499999999997
40
0.749999999999996
40
0.749999999999996
40
0.812499999999996
40
0.812499999999996
40
0.843749999999997
40
0.843749999999997
40
0.874999999999998
40
0.874999999999998
40
0.906249999999999
40
0.906249999999999
40
0.921874999999999
40
0.921874999999999
40
0.9375
40
0.9375
40
0.953125
40
0.953125
40
0.96875
40
0.96875
40
0.984375
40
0.984375
40
1
40
1
40
1
40
1
41
1
10
-0.199999999999989
20
-6.07843244581235
30
0
41
1
10
-0.200330038101583
20
-6.01354333629638
30
0
41
1
10
-0.201932717755398
20
-5.94845143863458
30
0
41
1
10
-0.207061534202296
20
-5.85047499196594
30
0
41
1
10
-0.20923073586448
20
-5.81775962891638
30
0
41
1
10
-0.214765406462959
20
-5.75220767186642
30
0
41
1
10
-0.218124597314045
20
-5.71937115218233
30
0
41
1
10
-0.22653373528064
20
-5.65356559342146
30
0
41
1
10
-0.231573562776475
20
-5.62053570750788
30
0
41
1
10
-0.241167183894675
20
-5.57107991706795
30
0
41
1
10
-0.244699800125915
20
-5.55465646091204
30
0
41
1
10
-0.252692130238899
20
-5.52198910291162
30
0
41
1
10
-0.257144178245824
20
-5.50574351678898
30
0
41
1
10
-0.267463037667511
20
-5.47353830586408
30
0
41
1
10
-0.273296210573335
20
-5.45757128507682
30
0
41
1
10
-0.284017391060786
20
-5.43403466061349
30
0
41
1
10
-0.28792239407619
20
-5.42628126698935
30
0
41
1
10
-0.296591327986164
20
-5.41134235290917
30
0
41
1
10
-0.301354650858116
20
-5.40411801099191
30
0
41
1
10
-0.312400979321524
20
-5.39054104494755
30
0
41
1
10
-0.318577749103326
20
-5.38430052549953
30
0
41
1
10
-0.329419339218219
20
-5.37683593115614
30
0
41
1
10
-0.333263890221929
20
-5.37470929745373
30
0
41
1
10
-0.341321667102989
20
-5.37150405183561
30
0
41
1
10
-0.345568573158772
20
-5.37043109064084
30
0
41
1
10
-0.35401586551319
20
-5.36955368909105
30
0
41
1
10
-0.358331183030089
20
-5.36974313779842
30
0
41
1
10
-0.366503702076443
20
-5.37117873901857
30
0
41
1
10
-0.370423579197166
20
-5.3724029821978
30
0
41
1
10
-0.378006935713074
20
-5.37563233451903
30
0
41
1
10
-0.381650196472492
20
-5.37763658736259
30
0
41
1
10
-0.388519962703782
20
-5.3821033059937
30
0
41
1
10
-0.391781832950699
20
-5.38458208568073
30
0
41
1
10
-0.394913799809103
20
-5.38724490303883
30
0
0
SPLINE
5
120
100
AcDbEntity
8
SK1
62
256
6
ByLayer
370
13
48
1
60
0
100
AcDbSpline
70
4
71
3
72
20
73
16
40
0
40
0
40
0
40
0
40
0.0673850407650419
40
0.135634765303284
40
0.203884489841527
40
0.272134214379769
40
0.408633663456254
40
0.545133112532739
40
0.613382837070981
40
0.681632561609223
40
0.749882286147466
40
0.818132010685708
40
0.88638173522395
40
0.954631459762193
40
1
40
1
40
1
40
1
41
1
10
-0.394913799811292
20
17.3602188926788
30
0
41
1
10
-0.394913799811349
20
17.3741382160917
30
0
41
1
10
-0.394913799811292
20
17.3456596443912
30
0
41
1
10
-0.394913799811292
20
17.1536380024563
30
0
41
1
10
-0.394913799811292
20
16.8259463034278
30
0
41
1
10
-0.394913799811292
20
16.224825355641
30
0
41
1
10
-0.394913799811292
20
15.1889742433629
30
0
41
1
10
-0.394913799811292
20
13.8156305223415
30
0
41
1
10
-0.394913799811292
20
12.5286533763275
30
0
41
1
10
-0.394913799811292
20
11.4729576347282
30
0
41
1
10
-0.394913799811292
20
10.3283869583107
30
0
41
1
10
-0.394913799811292
20
9.09679923539034
30
0
41
1
10
-0.394913799811292
20
7.7796880789966
30
0
41
1
10
-0.394913799811292
20
6.5348354946259
30
0
41
1
10
-0.394913799811292
20
5.7190547501427
30
0
41
1
10
-0.394913799811292
20
5.38724256160785
30
0
0
SPLINE
5
121
100
AcDbEntity
8
SK1
62
256
6
ByLayer
370
13
48
1
60
0
100
AcDbSpline
70
4
71
3
72
20
73
16
40
0
40
0
40
0
40
0
40
0.0453684843394078
40
0.113618273002618
40
0.181868061665829
40
0.25011785032904
40
0.31836763899225
40
0.386617427655461
40
0.454867216318672
40
0.591366793645093
40
0.727866370971514
40
0.796116159634725
40
0.864365948297935
40
0.932615736961146
40
1
40
1
40
1
40
1
41
1
10
-0.394913799811292
20
-5.38724490303881
30
0
41
1
10
-0.394913799811292
20
-5.71905630139054
30
0
41
1
10
-0.394913799811292
20
-6.53483606378791
30
0
41
1
10
-0.394913799811292
20
-7.77968825069564
30
0
41
1
10
-0.394913799811292
20
-9.09679950047928
30
0
41
1
10
-0.394913799811292
20
-10.3283867090429
30
0
41
1
10
-0.394913799811292
20
-11.4729578043957
30
0
41
1
10
-0.394913799811292
20
-12.5286535254346
30
0
41
1
10
-0.394913799811292
20
-13.8156301488903
30
0
41
1
10
-0.394913799811292
20
-15.1889746622834
30
0
41
1
10
-0.394913799811292
20
-16.2248245878661
30
0
41
1
10
-0.394913799811292
20
-16.8259464323311
30
0
41
1
10
-0.394913799811292
20
-17.1536376810083
30
0
41
1
10
-0.394913799811292
20
-17.3456582491033
30
0
41
1
10
-0.394913799811263
20
-17.3741378068848
30
0
41
1
10
-0.394913799811377
20
-17.3602193113323
30
0
0
SPLINE
5
122
100
AcDbEntity
8
SK1
62
256
6
ByLayer
370
18
48
1
60
0
100
AcDbSpline
70
4
71
3
72
53
73
49
40
0
40
0
40
0
40
0
40
0.0156250000000009
40
0.0156250000000009
40
0.0312500000000018
40
0.0312500000000018
40
0.0625000000000042
40
0.0625000000000042
40
0.070312500000004
40
0.070312500000004
40
0.0781250000000039
40
0.0937500000000039
40
0.0937500000000039
40
0.101562500000004
40
0.101562500000004
40
0.109375000000004
40
0.109375000000004
40
0.125000000000004
40
0.125000000000004
40
0.140625000000004
40
0.140625000000004
40
0.156250000000004
40
0.156250000000004
40
0.187500000000004
40
0.187500000000004
40
0.218750000000004
40
0.218750000000004
40
0.250000000000004
40
0.250000000000004
40
0.281250000000004
40
0.281250000000004
40
0.312500000000004
40
0.312500000000004
40
0.375000000000003
40
0.375000000000003
40
0.437500000000003
40
0.437500000000003
40
0.500000000000002
40
0.500000000000002
40
0.625
40
0.625
40
0.687499999999999
40
0.687499999999999
40
0.749999999999998
40
0.749999999999998
40
0.874999999999999
40
0.874999999999999
40
1
40
1
40
1
40
1
41
1
10
-0.394913799811292
20
-5.38724490303878
30
0
41
1
10
-0.403020392727001
20
-5.39413717786459
30
0
41
1
10
-0.411386251483464
20
-5.40075705360886
30
0
41
1
10
-0.428743917867422
20
-5.41334179407005
30
0
41
1
10
-0.437770416117502
20
-5.41932732155468
30
0
41
1
10
-0.465729936503891
20
-5.43590631685376
30
0
41
1
10
-0.48545098532486
20
-5.44513209892818
30
0
41
1
10
-0.512078734988137
20
-5.4533397528954
30
0
41
1
10
-0.517525389033295
20
-5.45481548249097
30
0
41
1
10
-0.528445210270348
20
-5.45734844847985
30
0
41
1
10
-0.544917445528711
20
-5.460540346752
30
0
41
1
10
-0.561675487241871
20
-5.46185622962997
30
0
41
1
10
-0.578637021974174
20
-5.46183701163628
30
0
41
1
10
-0.584356912700059
20
-5.46160478770398
30
0
41
1
10
-0.595695338836947
20
-5.46069496960087
30
0
41
1
10
-0.601299914959668
20
-5.46002170773141
30
0
41
1
10
-0.617932285477139
20
-5.4573891634796
30
0
41
1
10
-0.628779113835947
20
-5.45481846069112
30
0
41
1
10
-0.650045797816915
20
-5.44823342219192
30
0
41
1
10
-0.660532703009153
20
-5.44418605279546
30
0
41
1
10
-0.680770506185979
20
-5.43496537787163
30
0
41
1
10
-0.690494000998427
20
-5.42981903443436
30
0
41
1
10
-0.718704728837821
20
-5.41307616107991
30
0
41
1
10
-0.736341322354406
20
-5.40008757388534
30
0
41
1
10
-0.768905931142342
20
-5.3725169261117
30
0
41
1
10
-0.783971777383812
20
-5.35785904442625
30
0
41
1
10
-0.812437519911725
20
-5.32733553299158
30
0
41
1
10
-0.825828436847388
20
-5.3114635713869
30
0
41
1
10
-0.851357742368549
20
-5.27880041053604
30
0
41
1
10
-0.863513824307887
20
-5.26197522516898
30
0
41
1
10
-0.886742970836508
20
-5.22772922691763
30
0
41
1
10
-0.897760317588364
20
-5.21039425330497
30
0
41
1
10
-0.9294183550615
20
-5.15788155457784
30
0
41
1
10
-0.948685190430837
20
-5.12220258194975
30
0
41
1
10
-0.984745886096846
20
-5.04988928444084
30
0
41
1
10
-1.00152410230015
20
-5.01324987497119
30
0
41
1
10
-1.0332301135569
20
-4.93921284702586
30
0
41
1
10
-1.0481521641187
20
-4.90181336669085
30
0
41
1
10
-1.09072783956063
20
-4.7886606233923
30
0
41
1
10
-1.11622081339451
20
-4.71196262616613
30
0
41
1
10
-1.15147501748677
20
-4.59543056617446
30
0
41
1
10
-1.16271294340757
20
-4.55635268985438
30
0
41
1
10
-1.18426257821704
20
-4.47793290560358
30
0
41
1
10
-1.19458151328425
20
-4.4385658061575
30
0
41
1
10
-1.22434718173432
20
-4.32001891689728
30
0
41
1
10
-1.24261095077244
20
-4.24039497937332
30
0
41
1
10
-1.27663490881506
20
-4.08005058420358
30
0
41
1
10
-1.29239108240535
20
-3.99932964943406
30
0
41
1
10
-1.30710678118655
20
-3.91808311129773
30
0
0
SPLINE
5
123
100
AcDbEntity
8
SK1
62
256
6
ByLayer
370
18
48
1
60
0
100
AcDbSpline
70
4
71
3
72
50
73
46
40
0
40
0
40
0
40
0
40
0.124999999999999
40
0.124999999999999
40
0.249999999999997
40
0.249999999999997
40
0.312499999999997
40
0.312499999999997
40
0.374999999999997
40
0.374999999999997
40
0.499999999999997
40
0.499999999999997
40
0.562499999999997
40
0.562499999999997
40
0.624999999999998
40
0.624999999999998
40
0.687499999999998
40
0.687499999999998
40
0.718749999999998
40
0.718749999999998
40
0.749999999999998
40
0.749999999999998
40
0.781249999999998
40
0.781249999999998
40
0.812499999999999
40
0.812499999999999
40
0.843749999999999
40
0.843749999999999
40
0.859374999999999
40
0.859374999999999
40
0.874999999999999
40
0.874999999999999
40
0.890624999999999
40
0.890624999999999
40
0.906249999999999
40
0.906249999999999
40
0.921874999999999
40
0.921874999999999
40
0.937499999999999
40
0.937499999999999
40
0.953125
40
0.953125
40
0.96875
40
0.96875
40
1
40
1
40
1
40
1
41
1
10
-1.30710678118655
20
3.91808269248796
30
0
41
1
10
-1.29238372607517
20
3.99936988902869
30
0
41
1
10
-1.27661859809459
20
4.08013408760158
30
0
41
1
10
-1.24257202444835
20
4.24057073726354
30
0
41
1
10
-1.22429462395718
20
4.32024366329264
30
0
41
1
10
-1.19450305218299
20
4.43886894670428
30
0
41
1
10
-1.18417456263643
20
4.47826299864514
30
0
41
1
10
-1.16260343866753
20
4.55673847320068
30
0
41
1
10
-1.15135515985605
20
4.5958383808707
30
0
41
1
10
-1.11609621830422
20
4.71234577760799
30
0
41
1
10
-1.09059413059555
20
4.78904752584498
30
0
41
1
10
-1.04798244371665
20
4.90224508459647
30
0
41
1
10
-1.03304457478234
20
4.93966608077309
30
0
41
1
10
-1.00129416978024
20
5.01376164954297
30
0
41
1
10
-0.98448753502646
20
5.05043807526349
30
0
41
1
10
-0.948347177186236
20
5.12284414993096
30
0
41
1
10
-0.9290296408507
20
5.15857889561173
30
0
41
1
10
-0.897260448987026
20
5.21119248410568
30
0
41
1
10
-0.8861698860768
20
5.22860723544372
30
0
41
1
10
-0.862932209486871
20
5.26279281423709
30
0
41
1
10
-0.85080730255018
20
5.27953884086708
30
0
41
1
10
-0.825257514876
20
5.31215335693128
30
0
41
1
10
-0.811836627358673
20
5.32802442998909
30
0
41
1
10
-0.783237057424145
20
5.35859529837754
30
0
41
1
10
-0.768034946557918
20
5.3733304614868
30
0
41
1
10
-0.735187935399324
20
5.40097830060952
30
0
41
1
10
-0.717826906306072
20
5.41366379171245
30
0
41
1
10
-0.689742098894556
20
5.43022628481569
30
0
41
1
10
-0.68003652504504
20
5.43533205618729
30
0
41
1
10
-0.659758151599817
20
5.44449947952498
30
0
41
1
10
-0.649331735085582
20
5.44848807488123
30
0
41
1
10
-0.627999143283205
20
5.45501931647436
30
0
41
1
10
-0.617058166617738
20
5.45757599588921
30
0
41
1
10
-0.594591467840047
20
5.46102572365922
30
0
41
1
10
-0.58336584661788
20
5.4618713105761
30
0
41
1
10
-0.560930035443761
20
5.46180969649637
30
0
41
1
10
-0.549664818445279
20
5.46089328829356
30
0
41
1
10
-0.527386860231843
20
5.45734523281897
30
0
41
1
10
-0.516608715435041
20
5.45476351226009
30
0
41
1
10
-0.495657428995088
20
5.44824432393753
30
0
41
1
10
-0.485484698823484
20
5.44430592701531
30
0
41
1
10
-0.465658214706991
20
5.43526409556435
30
0
41
1
10
-0.455974774655147
20
5.43013648208
30
0
41
1
10
-0.428167571421085
20
5.41359596702645
30
0
41
1
10
-0.411056331481689
20
5.40096705709072
30
0
41
1
10
-0.394913799811292
20
5.38724256160785
30
0
0
SPLINE
5
124
100
AcDbEntity
8
SK1
62
256
6
ByLayer
370
18
48
1
60
0
100
AcDbSpline
70
4
71
3
72
38
73
34
40
0
40
0
40
0
40
0
40
0.0625000000000006
40
0.0625000000000006
40
0.125000000000001
40
0.125000000000001
40
0.187500000000002
40
0.187500000000002
40
0.218750000000002
40
0.218750000000002
40
0.250000000000002
40
0.250000000000002
40
0.375000000000002
40
0.375000000000002
40
0.437500000000002
40
0.437500000000002
40
0.500000000000002
40
0.500000000000002
40
0.562500000000002
40
0.562500000000002
40
0.593750000000002
40
0.593750000000002
40
0.609375000000002
40
0.609375000000002
40
0.625000000000002
40
0.625000000000002
40
0.750000000000001
40
0.750000000000001
40
0.875000000000001
40
0.875000000000001
40
0.9375
40
0.9375
40
1
40
1
40
1
40
1
41
1
10
-1.30710678118655
20
-3.91808311129768
30
0
41
1
10
-1.33526589565594
20
-3.76261441071907
30
0
41
1
10
-1.36271475580057
20
-3.60607338167009
30
0
41
1
10
-1.41582315096537
20
-3.29066553946589
30
0
41
1
10
-1.44149329508792
20
-3.13180385741538
30
0
41
1
10
-1.49055743488208
20
-2.81150726182858
30
0
41
1
10
-1.51394731043968
20
-2.65007047288915
30
0
41
1
10
-1.54688933197929
20
-2.40575612114199
30
0
41
1
10
-1.55749771994263
20
-2.32406172494169
30
0
41
1
10
-1.57784909269048
20
-2.16057674059007
30
0
41
1
10
-1.5876007265538
20
-2.07872253566575
30
0
41
1
10
-1.63408221528164
20
-1.66887252592323
30
0
41
1
10
-1.66399327242203
20
-1.33914312869115
30
0
41
1
10
-1.69494665814693
20
-0.84136228930052
30
0
41
1
10
-1.70293626023371
20
-0.674902568806118
30
0
41
1
10
-1.71367008139578
20
-0.340831662555303
30
0
41
1
10
-1.71636335941631
20
-0.173213348331842
30
0
41
1
10
-1.71646782396985
20
0.163187101305937
30
0
41
1
10
-1.71388361409092
20
0.331968562038014
30
0
41
1
10
-1.70582437938029
20
0.58605256890192
30
0
41
1
10
-1.70245250680873
20
0.670897601193644
30
0
41
1
10
-1.69640659794263
20
0.798386309984636
30
0
41
1
10
-1.69422507481974
20
0.840939584978486
30
0
41
1
10
-1.68955923537888
20
0.925771372654225
30
0
41
1
10
-1.68707319146449
20
0.968091690681831
30
0
41
1
10
-1.66337509736468
20
1.34813830750841
30
0
41
1
10
-1.63296978491243
20
1.6800471987703
30
0
41
1
10
-1.55846884179033
20
2.33418302861884
30
0
41
1
10
-1.51435013598103
20
2.65639932915298
30
0
41
1
10
-1.44117770353176
20
3.13375373985022
30
0
41
1
10
-1.41562242099803
20
3.29187611045597
30
0
41
1
10
-1.36267126502631
20
3.60631098585768
30
0
41
1
10
-1.33526487251859
20
3.76261955749285
30
0
41
1
10
-1.30710678118655
20
3.91808269248793
30
0
0
SPLINE
5
125
100
AcDbEntity
8
SK1
62
256
6
ByLayer
370
13
48
1
60
0
100
AcDbSpline
70
4
71
3
72
45
73
41
40
0
40
0
40
0
40
0
40
0.0139247013735271
40
0.0425173650913979
40
0.0711100288092687
40
0.0997026925271395
40
0.156888019962881
40
0.214073347398622
40
0.242666011116493
40
0.271258674834364
40
0.299851338552235
40
0.328444002270106
40
0.357036665987977
40
0.385629329705847
40
0.414221993423718
40
0.428518325282653
40
0.442814657141589
40
0.47140732085946
40
0.485703652718395
40
0.492851818647863
40
0.49999998457733
40
0.507148150506798
40
0.514296316436266
40
0.528592648295201
40
0.557185312013072
40
0.571481643872007
40
0.585777975730943
40
0.614370639448814
40
0.642963303166684
40
0.671555966884555
40
0.700148630602426
40
0.728741294320297
40
0.757333958038167
40
0.785926621756038
40
0.84311194919178
40
0.900297276627521
40
0.928889940345392
40
0.957482604063263
40
0.986075267781134
40
1
40
1
40
1
40
1
41
1
10
-1.99503997793928
20
17.3200455837771
30
0
41
1
10
-1.99503997793928
20
17.3133444818896
30
0
41
1
10
-1.99503997793928
20
17.2734198545776
30
0
41
1
10
-1.99503997793928
20
17.1138754381145
30
0
41
1
10
-1.99503997793928
20
16.786776230537
30
0
41
1
10
-1.99503997793928
20
16.1866016937524
30
0
41
1
10
-1.99503997793928
20
15.152468715744
30
0
41
1
10
-1.99503997793928
20
13.7813335607202
30
0
41
1
10
-1.99503997793928
20
12.4962104807245
30
0
41
1
10
-1.99503997793928
20
11.4421777785236
30
0
41
1
10
-1.99503997793928
20
10.2994801886281
30
0
41
1
10
-1.99503997793928
20
9.07001720037854
30
0
41
1
10
-1.99503997793928
20
7.7553535878281
30
0
41
1
10
-1.99503997793928
20
6.35676356337376
30
0
41
1
10
-1.99503997793928
20
5.12318891405303
30
0
41
1
10
-1.99503997793928
20
4.0953123914187
30
0
41
1
10
-1.99503997793928
20
3.04236280324244
30
0
41
1
10
-1.99503997793928
20
1.95640624898675
30
0
41
1
10
-1.99503997793928
20
0.981337209960486
30
0
41
1
10
-1.99503997793928
20
0.420771221994357
30
0
41
1
10
-1.99503997793928
20
-6.88173714E-08
30
0
41
1
10
-1.99503997793928
20
-0.420771319084707
30
0
41
1
10
-1.99503997793928
20
-0.981337226851394
30
0
41
1
10
-1.99503997793928
20
-1.95640625727882
30
0
41
1
10
-1.99503997793928
20
-3.04236295320669
30
0
41
1
10
-1.99503997793928
20
-4.09531236648536
30
0
41
1
10
-1.99503997793928
20
-5.12318926412425
30
0
41
1
10
-1.99503997793928
20
-6.35676341745574
30
0
41
1
10
-1.99503997793928
20
-7.75535376586828
30
0
41
1
10
-1.99503997793928
20
-9.07001746022104
30
0
41
1
10
-1.99503997793928
20
-10.2994799380558
30
0
41
1
10
-1.99503997793928
20
-11.4421779521075
30
0
41
1
10
-1.99503997793928
20
-12.4962106263157
30
0
41
1
10
-1.99503997793928
20
-13.7813331880937
30
0
41
1
10
-1.99503997793928
20
-15.1524691326423
30
0
41
1
10
-1.99503997793928
20
-16.1866009265939
30
0
41
1
10
-1.99503997793928
20
-16.7867763596001
30
0
41
1
10
-1.99503997793928
20
-17.1138751154123
30
0
41
1
10
-1.99503997793928
20
-17.27341936842
30
0
41
1
10
-1.99503997793928
20
-17.3133442549962
30
0
41
1
10
-1.99503997793928
20
-17.3200454162421
30
0
0
SPLINE
5
126
100
AcDbEntity
8
SK1
62
256
6
ByLayer
370
18
48
1
60
0
100
AcDbSpline
70
4
71
3
72
45
73
41
40
0
40
0
40
0
40
0
40
0.0138970879733563
40
0.0424913842850273
40
0.0710856805966982
40
0.0996799769083691
40
0.156868569531711
40
0.214057162155053
40
0.242651458466724
40
0.271245754778395
40
0.299840051090066
40
0.328434347401737
40
0.357028643713407
40
0.385622940025079
40
0.414217236336749
40
0.428514384492585
40
0.44281153264842
40
0.471405828960091
40
0.485702977115927
40
0.492851551193844
40
0.500000125271762
40
0.50714869934968
40
0.514297273427598
40
0.528594421583433
40
0.557188717895104
40
0.571485866050939
40
0.585783014206775
40
0.614377310518446
40
0.642971606830117
40
0.671565903141788
40
0.700160199453459
40
0.72875449576513
40
0.757348792076801
40
0.785943088388471
40
0.843131681011813
40
0.900320273635155
40
0.928914569946826
40
0.957508866258497
40
0.986103162570168
40
1
40
1
40
1
40
1
41
1
10
-2.19999999999999
20
17.5147947892361
30
0
41
1
10
-2.19999999999999
20
17.5080196694892
30
0
41
1
10
-2.19999999999999
20
17.4676808504569
30
0
41
1
10
-2.19999999999999
20
17.3066647416643
30
0
41
1
10
-2.19999999999999
20
16.9766928316826
30
0
41
1
10
-2.19999999999999
20
16.3719296090069
30
0
41
1
10
-2.19999999999999
20
15.3294662349403
30
0
41
1
10
-2.19999999999999
20
13.9476228193307
30
0
41
1
10
-2.19999999999999
20
12.6535102764493
30
0
41
1
10
-2.19999999999999
20
11.5914143063801
30
0
41
1
10
-2.19999999999999
20
10.4396350324424
30
0
41
1
10
-2.19999999999999
20
9.19987024087132
30
0
41
1
10
-2.19999999999999
20
7.87333968058334
30
0
41
1
10
-2.19999999999999
20
6.46078587277509
30
0
41
1
10
-2.19999999999999
20
5.21252864051553
30
0
41
1
10
-2.19999999999999
20
4.17223690222141
30
0
41
1
10
-2.19999999999999
20
3.10486136355075
30
0
41
1
10
-2.19999999999999
20
1.99745538275133
30
0
41
1
10
-2.19999999999999
20
1.00299590932914
30
0
41
1
10
-2.19999999999999
20
0.430523737893537
30
0
41
1
10
-2.19999999999999
20
-2.03164063E-08
30
0
41
1
10
-2.19999999999999
20
-0.430523794544825
30
0
41
1
10
-2.19999999999999
20
-1.00299597482069
30
0
41
1
10
-2.19999999999999
20
-1.99745537289451
30
0
41
1
10
-2.19999999999999
20
-3.10486150423552
30
0
41
1
10
-2.19999999999999
20
-4.17223684682958
30
0
41
1
10
-2.19999999999999
20
-5.21252898167785
30
0
41
1
10
-2.19999999999999
20
-6.4607857552443
30
0
41
1
10
-2.19999999999999
20
-7.87333982787851
30
0
41
1
10
-2.19999999999999
20
-9.19987052615136
30
0
41
1
10
-2.19999999999999
20
-10.4396347881955
30
0
41
1
10
-2.19999999999999
20
-11.5914144609754
30
0
41
1
10
-2.19999999999999
20
-12.6535104390874
30
0
41
1
10
-2.19999999999999
20
-13.9476224427057
30
0
41
1
10
-2.19999999999999
20
-15.3294666616432
30
0
41
1
10
-2.19999999999999
20
-16.3719288388599
30
0
41
1
10
-2.19999999999999
20
-16.9766929599708
30
0
41
1
10
-2.19999999999999
20
-17.3066644250431
30
0
41
1
10
-2.19999999999999
20
-17.4676797245981
30
0
41
1
10
-2.19999999999999
20
-17.5080189078941
30
0
41
1
10
-2.19999999999999
20
-17.5147942103534
30
0
0
SPLINE
5
127
100
AcDbEntity
8
SK1
62
256
6
ByLayer
370
18
48
1
60
0
100
AcDbSpline
70
4
71
3
72
45
73
41
40
0
40
0
40
0
40
0
40
0.0275257069430734
40
0.055318320281918
40
0.0831109336207627
40
0.110903546959607
40
0.166488773637297
40
0.222074000314986
40
0.249866613653831
40
0.277659226992675
40
0.30545184033152
40
0.333244453670364
40
0.361037067009209
40
0.388829680348053
40
0.416622293686898
40
0.430518600356321
40
0.444414907025743
40
0.472207520364588
40
0.48610382703401
40
0.493051980368721
40
0.500000133703432
40
0.506948287038143
40
0.513896440372854
40
0.527792747042277
40
0.555585360381121
40
0.569481667050544
40
0.583377973719966
40
0.611170587058811
40
0.638963200397655
40
0.6667558137365
40
0.694548427075344
40
0.722341040414189
40
0.750133653753034
40
0.777926267091878
40
0.833511493769568
40
0.889096720447257
40
0.916889333786101
40
0.944681947124946
40
0.972474560463791
40
1
40
1
40
1
40
1
41
1
10
-28.5
20
16.8545102161042
30
0
41
1
10
-28.5
20
16.8681142907108
30
0
41
1
10
-28.5
20
16.84054279932
30
0
41
1
10
-28.5
20
16.653119129773
30
0
41
1
10
-28.5
20
16.3328855300396
30
0
41
1
10
-28.5
20
15.7436777114932
30
0
41
1
10
-28.5
20
14.7294539424714
30
0
41
1
10
-28.5
20
13.3839109677473
30
0
41
1
10
-28.5
20
12.1202722318355
30
0
41
1
10
-28.5
20
11.0855103162798
30
0
41
1
10
-28.5
20
9.96451747418803
30
0
41
1
10
-28.5
20
8.75967525472745
30
0
41
1
10
-28.5
20
7.47337302390386
30
0
41
1
10
-28.5
20
6.10815570815362
30
0
41
1
10
-28.5
20
4.90967166078667
30
0
41
1
10
-28.5
20
3.91146685141305
30
0
41
1
10
-28.5
20
2.89299452712916
30
0
41
1
10
-28.5
20
1.85830097558352
30
0
41
1
10
-28.5
20
0.929574056191939
30
0
41
1
10
-28.5
20
0.397463221290906
30
0
41
1
10
-28.5
20
-1.847321585E-07
30
0
41
1
10
-28.5
20
-0.39746341502854
30
0
41
1
10
-28.5
20
-0.929573956929886
30
0
41
1
10
-28.5
20
-1.85830102725041
30
0
41
1
10
-28.5
20
-2.89299469927084
30
0
41
1
10
-28.5
20
-3.9114668992739
30
0
41
1
10
-28.5
20
-4.9096720321497
30
0
41
1
10
-28.5
20
-6.10815549439155
30
0
41
1
10
-28.5
20
-7.47337327542297
30
0
41
1
10
-28.5
20
-8.75967545377557
30
0
41
1
10
-28.5
20
-9.96451720849825
30
0
41
1
10
-28.5
20
-11.0855105352455
30
0
41
1
10
-28.5
20
-12.1202723366856
30
0
41
1
10
-28.5
20
-13.3839106046769
30
0
41
1
10
-28.5
20
-14.7294543359372
30
0
41
1
10
-28.5
20
-15.7436769514769
30
0
41
1
10
-28.5
20
-16.3328856609547
30
0
41
1
10
-28.5
20
-16.6531187925377
30
0
41
1
10
-28.5
20
-16.8405416056489
30
0
41
1
10
-28.5
20
-16.8681139650965
30
0
41
1
10
-28.5
20
-16.8545105055527
30
0
0
SPLINE
5
128
100
AcDbEntity
8
1
62
256
6
ByLayer
370
18
48
1
60
0
100
AcDbSpline
70
4
71
2
72
9
73
6
40
0
40
0
40
0
40
0.25
40
0.5
40
0.75
40
1
40
1
40
1
41
1
10
41
20
-34.82769703718
30
0
41
1
10
41.0001092394922
20
-34.8689635750695
30
0
41
1
10
41.0325028855593
20
-34.9445256211392
30
0
41
1
10
41.0921537595873
20
-35.0010388226986
30
0
41
1
10
41.1693970578237
20
-35.0296944356826
30
0
41
1
10
41.21162896566
20
-35.027358668843
30
0
0
SPLINE
5
129
100
AcDbEntity
8
1
62
256
6
ByLayer
370
18
48
1
60
0
100
AcDbSpline
70
4
71
11
72
24
73
12
40
0
40
0
40
0
40
0
40
0
40
0
40
0
40
0
40
0
40
0
40
0
40
0
40
1
40
1
40
1
40
1
40
1
40
1
40
1
40
1
40
1
40
1
40
1
40
1
41
1
10
54.9999999999961
20
-34.8276970371813
30
0
41
1
10
54.9999999999961
20
-34.8573147458933
30
0
41
1
10
54.9951753520661
20
-34.8869324524183
30
0
41
1
10
54.9855260574461
20
-34.9156769179522
30
0
41
1
10
54.9712299260561
20
-34.9426748811852
30
0
41
1
10
54.9526425846561
20
-34.9670944854903
30
0
41
1
10
54.9302862333661
20
-34.9881866153043
30
0
41
1
10
54.9048271859761
20
-35.0053226369103
30
0
41
1
10
54.8770436494861
20
-35.0180247886213
30
0
41
1
10
54.8477867627061
20
-35.0259864169293
30
0
41
1
10
54.8179386343661
20
-35.0290807854093
30
0
41
1
10
54.7883710343361
20
-35.0273586688442
30
0
0
SPLINE
5
12A
100
AcDbEntity
8
1
62
256
6
ByLayer
370
18
48
1
60
0
100
AcDbSpline
70
4
71
2
72
9
73
6
40
0
40
0
40
0
40
0.25
40
0.5
40
0.75
40
1
40
1
40
1
41
1
10
55
20
-33.67230296282
30
0
41
1
10
54.9998907605078
20
-33.6310364249305
30
0
41
1
10
54.9674971144407
20
-33.5554743788608
30
0
41
1
10
54.9078462404127
20
-33.4989611773014
30
0
41
1
10
54.8306029421763
20
-33.4703055643174
30
0
41
1
10
54.78837103434
20
-33.472641331157
30
0
0
SPLINE
5
12B
100
AcDbEntity
8
1
62
256
6
ByLayer
370
18
48
1
60
0
100
AcDbSpline
70
4
71
2
72
6
73
3
40
0
40
0
40
0
40
1
40
1
40
1
41
1
10
52.2619556336701
20
-34.865
30
0
41
1
10
52.2891230644757
20
-34.8650814807595
30
0
41
1
10
52.31527774538
20
-34.87181483481
30
0
0
SPLINE
5
12C
100
AcDbEntity
8
1
62
256
6
ByLayer
370
18
48
1
60
0
100
AcDbSpline
70
4
71
3
72
8
73
4
40
0
40
0
40
0
40
0
40
1
40
1
40
1
40
1
41
1
10
52.59413847113
20
-34.9400740520553
30
0
41
1
10
52.5805696105712
20
-34.9393850756538
30
0
41
1
10
52.5670817740324
20
-34.937311652087
30
0
41
1
10
52.5539524966836
20
-34.9338985667085
30
0
0
SPLINE
5
12D
100
AcDbEntity
8
1
62
256
6
ByLayer
370
18
48
1
60
0
100
AcDbSpline
70
4
71
2
72
6
73
3
40
0
40
0
40
0
40
1
40
1
40
1
41
1
10
52.5941384711301
20
-33.559925947945
30
0
41
1
10
52.5736710143955
20
-33.5610292200989
30
0
41
1
10
52.55395249668
20
-33.566101433292
30
0
0
SPLINE
5
12E
100
AcDbEntity
8
1
62
256
6
ByLayer
370
18
48
1
60
0
100
AcDbSpline
70
4
71
3
72
8
73
4
40
0
40
0
40
0
40
0
40
1
40
1
40
1
40
1
41
1
10
52.2619556336722
20
-33.635
30
0
41
1
10
52.2799283605682
20
-33.635
30
0
41
1
10
52.2978997250143
20
-33.6327024096992
30
0
41
1
10
52.3152777453804
20
-33.6281851651917
30
0
0
SPLINE
5
12F
100
AcDbEntity
8
1
62
256
6
ByLayer
370
18
48
1
60
0
100
AcDbSpline
70
4
71
2
72
6
73
3
40
0
40
0
40
0
40
1
40
1
40
1
41
1
10
43.4058615288699
20
-34.940074052055
30
0
41
1
10
43.4263289856045
20
-34.9389707799011
30
0
41
1
10
43.44604750332
20
-34.933898566708
30
0
0
SPLINE
5
130
100
AcDbEntity
8
1
62
256
6
ByLayer
370
18
48
1
60
0
100
AcDbSpline
70
4
71
3
72
8
73
4
40
0
40
0
40
0
40
0
40
1
40
1
40
1
40
1
41
1
10
43.7380443663278
20
-34.865
30
0
41
1
10
43.7200716394318
20
-34.865
30
0
41
1
10
43.7021002749858
20
-34.8672975903013
30
0
41
1
10
43.6847222546195
20
-34.8718148348082
30
0
0
SPLINE
5
131
100
AcDbEntity
8
1
62
256
6
ByLayer
370
18
48
1
60
0
100
AcDbSpline
70
4
71
8
72
18
73
9
40
0
40
0
40
0
40
0
40
0
40
0
40
0
40
0
40
0
40
1
40
1
40
1
40
1
40
1
40
1
40
1
40
1
40
1
41
1
10
50.93030465213
20
-33.635
30
0
41
1
10
50.93569467283
20
-33.635
30
0
41
1
10
50.94108469351
20
-33.635
30
0
41
1
10
50.94647375969
20
-33.635
30
0
41
1
10
50.95186091693
20
-33.635
30
0
41
1
10
50.95724521111
20
-33.635
30
0
41
1
10
50.96262568882
20
-33.635
30
0
41
1
10
50.96800139774
20
-33.635
30
0
41
1
10
50.97337138695
20
-33.635
30
0
0
SPLINE
5
132
100
AcDbEntity
8
1
62
256
6
ByLayer
370
18
48
1
60
0
100
AcDbSpline
70
4
71
8
72
18
73
9
40
0
40
0
40
0
40
0
40
0
40
0
40
0
40
0
40
0
40
1
40
1
40
1
40
1
40
1
40
1
40
1
40
1
40
1
41
1
10
50.93030465213
20
-34.865
30
0
41
1
10
50.93569467283
20
-34.865
30
0
41
1
10
50.94108469351
20
-34.865
30
0
41
1
10
50.94647375969
20
-34.865
30
0
41
1
10
50.95186091693
20
-34.865
30
0
41
1
10
50.95724521111
20
-34.865
30
0
41
1
10
50.96262568882
20
-34.865
30
0
41
1
10
50.96800139774
20
-34.865
30
0
41
1
10
50.97337138695
20
-34.865
30
0
0
SPLINE
5
133
100
AcDbEntity
8
1
62
256
6
ByLayer
370
18
48
1
60
0
100
AcDbSpline
70
4
71
5
72
12
73
6
40
0
40
0
40
0
40
0
40
0
40
0
40
1
40
1
40
1
40
1
40
1
40
1
41
1
10
50.93030465213
20
-34.715
30
0
41
1
10
50.93900871679
20
-34.715000005788
30
0
41
1
10
50.94771207877
20
-34.714479620531
30
0
41
1
10
50.9563680199
20
-34.713438991369
30
0
41
1
10
50.96493319321
20
-34.711898973823
30
0
41
1
10
50.97337138695
20
-34.709894646959
30
0
0
SPLINE
5
134
100
AcDbEntity
8
1
62
256
6
ByLayer
370
18
48
1
60
0
100
AcDbSpline
70
4
71
5
72
12
73
6
40
0
40
0
40
0
40
0
40
0
40
0
40
1
40
1
40
1
40
1
40
1
40
1
41
1
10
50.93030465213
20
-33.785
30
0
41
1
10
50.93900871679
20
-33.784999994212
30
0
41
1
10
50.94771207877
20
-33.785520379469
30
0
41
1
10
50.9563680199
20
-33.786561008631
30
0
41
1
10
50.96493319321
20
-33.788101026177
30
0
41
1
10
50.97337138695
20
-33.790105353041
30
0
0
SPLINE
5
135
100
AcDbEntity
8
1
62
256
6
ByLayer
370
18
48
1
60
0
100
AcDbSpline
70
4
71
8
72
18
73
9
40
0
40
0
40
0
40
0
40
0
40
0
40
0
40
0
40
0
40
1
40
1
40
1
40
1
40
1
40
1
40
1
40
1
40
1
41
1
10
45.06969534787
20
-34.865
30
0
41
1
10
45.06430532717
20
-34.865
30
0
41
1
10
45.05891530649
20
-34.865
30
0
41
1
10
45.05352624031
20
-34.865
30
0
41
1
10
45.04813908307
20
-34.865
30
0
41
1
10
45.04275478889
20
-34.865
30
0
41
1
10
45.03737431118
20
-34.865
30
0
41
1
10
45.03199860226
20
-34.865
30
0
41
1
10
45.02662861305
20
-34.865
30
0
0
LINE
5
7D
100
AcDbEntity
8
1
62
256
6
ByLayer
370
18
48
1
60
0
100
AcDbLine
10
20
20
25
30
0
11
0.3
21
25
31
0
39
0
210
0
220
0
230
1
0
LINE
5
7E
100
AcDbEntity
8
1
62
256
6
ByLayer
370
18
48
1
60
0
100
AcDbLine
10
0.3
20
-25
30
0
11
20.279208
21
-25
31
0
39
0
210
0
220
0
230
1
0
LINE
5
7F
100
AcDbEntity
8
1
62
256
6
ByLayer
370
18
48
1
60
0
100
AcDbLine
10
0
20
-24.7
30
0
11
0.3
21
-25
31
0
39
0
210
0
220
0
230
1
0
LINE
5
80
100
AcDbEntity
8
1
62
256
6
ByLayer
370
18
48
1
60
0
100
AcDbLine
10
0.3
20
25
30
0
11
0
21
24.7
31
0
39
0
210
0
220
0
230
1
0
LINE
5
81
100
AcDbEntity
8
80
62
256
6
ByLayer
370
18
48
1
60
0
100
AcDbLine
10
0
20
0
30
0
11
-5
21
0
31
0
39
0
210
0
220
0
230
1
0
LINE
5
82
100
AcDbEntity
8
81
62
256
6
ByLayer
370
18
48
1
60
0
100
AcDbLine
10
55
20
-35
30
0
11
60
21
-35
31
0
39
0
210
0
220
0
230
1
0
LINE
5
83
100
AcDbEntity
8
1
62
256
6
ByLayer
370
18
48
1
60
0
100
AcDbLine
10
27.1
20
-34.75
30
0
11
23.868011
21
-34.75
31
0
39
0
210
0
220
0
230
1
0
LINE
5
84
100
AcDbEntity
8
1
62
256
6
ByLayer
370
13
48
1
60
0
100
AcDbLine
10
27.1
20
-26.15
30
0
11
21.581736
21
-26.15
31
0
39
0
210
0
220
0
230
1
0
LINE
5
85
100
AcDbEntity
8
1
62
256
6
ByLayer
370
18
48
1
60
0
100
AcDbLine
10
30.793237
20
-34.75
30
0
11
27.1
21
-34.75
31
0
39
0
210
0
220
0
230
1
0
LINE
5
86
100
AcDbEntity
8
1
62
256
6
ByLayer
370
13
48
1
60
0
100
AcDbLine
10
27.1
20
-34.75
30
0
11
27.1
21
-26.15
31
0
39
0
210
0
220
0
230
1
0
LINE
5
87
100
AcDbEntity
8
1
62
256
6
ByLayer
370
13
48
1
60
0
100
AcDbLine
10
27.1
20
-25.15
30
0
11
27.1
21
-26.15
31
0
39
0
210
0
220
0
230
1
0
LINE
5
88
100
AcDbEntity
8
1
62
256
6
ByLayer
370
13
48
1
60
0
100
AcDbLine
10
30.793237
20
-26.15
30
0
11
27.1
21
-26.15
31
0
39
0
210
0
220
0
230
1
0
LINE
5
89
100
AcDbEntity
8
1
62
256
6
ByLayer
370
18
48
1
60
0
100
AcDbLine
10
30.793237
20
-34.75
30
0
11
30.793237
21
-26.15
31
0
39
0
210
0
220
0
230
1
0
LINE
5
8A
100
AcDbEntity
8
1
62
256
6
ByLayer
370
18
48
1
60
0
100
AcDbLine
10
30.793237
20
-34.75
30
0
11
31.179323
21
-34.75
31
0
39
0
210
0
220
0
230
1
0
LINE
5
8B
100
AcDbEntity
8
1
62
256
6
ByLayer
370
18
48
1
60
0
100
AcDbLine
10
31.3
20
-34.75
30
0
11
31.179216
21
-34.75
31
0
39
0
210
0
220
0
230
1
0
LINE
5
8C
100
AcDbEntity
8
1
62
256
6
ByLayer
370
18
48
1
60
0
100
AcDbLine
10
31.179216
20
-26.15
30
0
11
31.179216
21
-34.75
31
0
39
0
210
0
220
0
230
1
0
LINE
5
8D
100
AcDbEntity
8
1
62
256
6
ByLayer
370
13
48
1
60
0
100
AcDbLine
10
31.3
20
-26.15
30
0
11
31.179216
21
-26.15
31
0
39
0
210
0
220
0
230
1
0
LINE
5
8E
100
AcDbEntity
8
1
62
256
6
ByLayer
370
18
48
1
60
0
100
AcDbLine
10
47
20
-34.75
30
0
11
50.418794
21
-34.75
31
0
39
0
210
0
220
0
230
1
0
LINE
5
8F
100
AcDbEntity
8
1
62
256
6
ByLayer
370
18
48
1
60
0
100
AcDbLine
10
47
20
-33.75
30
0
11
48.912341
21
-33.75
31
0
39
0
210
0
220
0
230
1
0
LINE
5
90
100
AcDbEntity
8
1
62
256
6
ByLayer
370
18
48
1
60
0
100
AcDbLine
10
50.169845
20
-33.75
30
0
11
50.418794
21
-33.75
31
0
39
0
210
0
220
0
230
1
0
LINE
5
91
100
AcDbEntity
8
1
62
256
6
ByLayer
370
18
48
1
60
0
100
AcDbLine
10
48.912308
20
-33.75
30
0
11
50.169845
21
-33.75
31
0
39
0
210
0
220
0
230
1
0
LINE
5
92
100
AcDbEntity
8
1
62
256
6
ByLayer
370
18
48
1
60
0
100
AcDbLine
10
28.299843
20
-25.15
30
0
11
27.300157
21
-25.15
31
0
39
0
210
0
220
0
230
1
0
LINE
5
93
100
AcDbEntity
8
1
62
256
6
ByLayer
370
18
48
1
60
0
100
AcDbLine
10
28.299843
20
13.5
30
0
11
27.300157
21
13.5
31
0
39
0
210
0
220
0
230
1
0
LINE
5
94
100
AcDbEntity
8
1
62
256
6
ByLayer
370
18
48
1
60
0
100
AcDbLine
10
40.716149
20
-34.75
30
0
11
47
21
-34.75
31
0
39
0
210
0
220
0
230
1
0
LINE
5
95
100
AcDbEntity
8
1
62
256
6
ByLayer
370
18
48
1
60
0
100
AcDbLine
10
47
20
-33.75
30
0
11
47
21
-34.75
31
0
39
0
210
0
220
0
230
1
0
LINE
5
96
100
AcDbEntity
8
1
62
256
6
ByLayer
370
13
48
1
60
0
100
AcDbLine
10
47
20
-33.75
30
0
11
40.716149
21
-33.75
31
0
39
0
210
0
220
0
230
1
0
LINE
5
97
100
AcDbEntity
8
1
62
256
6
ByLayer
370
18
48
1
60
0
100
AcDbLine
10
30.3
20
-25.15
30
0
11
28.3
21
-25.15
31
0
39
0
210
0
220
0
230
1
0
LINE
5
98
100
AcDbEntity
8
1
62
256
6
ByLayer
370
18
48
1
60
0
100
AcDbLine
10
28.3
20
13.5
30
0
11
37.8
21
13.5
31
0
39
0
210
0
220
0
230
1
0
LINE
5
99
100
AcDbEntity
8
1
62
256
6
ByLayer
370
18
48
1
60
0
100
AcDbLine
10
28.3
20
-25.15
30
0
11
28.3
21
13.5
31
0
39
0
210
0
220
0
230
1
0
LINE
5
9A
100
AcDbEntity
8
1
62
256
6
ByLayer
370
18
48
1
60
0
100
AcDbLine
10
31.3
20
-34.75
30
0
11
31.3
21
-26.15
31
0
39
0
210
0
220
0
230
1
0
LINE
5
9B
100
AcDbEntity
8
1
62
256
6
ByLayer
370
18
48
1
60
0
100
AcDbLine
10
31.3
20
-34.75
30
0
11
40.716149
21
-34.75
31
0
39
0
210
0
220
0
230
1
0
LINE
5
9C
100
AcDbEntity
8
1
62
256
6
ByLayer
370
18
48
1
60
0
100
AcDbLine
10
40.716149
20
-34.75
30
0
11
40.716149
21
-33.75
31
0
39
0
210
0
220
0
230
1
0
LINE
5
9D
100
AcDbEntity
8
1
62
256
6
ByLayer
370
18
48
1
60
0
100
AcDbLine
10
43.505664
20
-32.15
30
0
11
45.4
21
-32.15
31
0
39
0
210
0
220
0
230
1
0
LINE
5
9E
100
AcDbEntity
8
1
62
256
6
ByLayer
370
18
48
1
60
0
100
AcDbLine
10
45.4
20
-24.05
30
0
11
45.4
21
-32.15
31
0
39
0
210
0
220
0
230
1
0
LINE
5
9F
100
AcDbEntity
8
1
62
256
6
ByLayer
370
18
48
1
60
0
100
AcDbLine
10
45.4
20
-24.05
30
0
11
37.8
21
13.5
31
0
39
0
210
0
220
0
230
1
0
LINE
5
A0
100
AcDbEntity
8
1
62
256
6
ByLayer
370
18
48
1
60
0
100
AcDbLine
10
27.3
20
-25.15
30
0
11
24.101384
21
-25.15
31
0
39
0
210
0
220
0
230
1
0
LINE
5
A1
100
AcDbEntity
8
1
62
256
6
ByLayer
370
18
48
1
60
0
100
AcDbLine
10
24.101384
20
13.5
30
0
11
27.3
21
13.5
31
0
39
0
210
0
220
0
230
1
0
LINE
5
A2
100
AcDbEntity
8
1
62
256
6
ByLayer
370
18
48
1
60
0
100
AcDbLine
10
27.3
20
13.5
30
0
11
27.3
21
-25.15
31
0
39
0
210
0
220
0
230
1
0
LINE
5
A3
100
AcDbEntity
8
1
62
256
6
ByLayer
370
13
48
1
60
0
100
AcDbLine
10
21.438319
20
-23.701945
30
0
11
21.438319
21
-25.15
31
0
39
0
210
0
220
0
230
1
0
LINE
5
A4
100
AcDbEntity
8
1
62
256
6
ByLayer
370
13
48
1
60
0
100
AcDbLine
10
24.101384
20
13.5
30
0
11
24.101384
21
-25.15
31
0
39
0
210
0
220
0
230
1
0
LINE
5
A5
100
AcDbEntity
8
1
62
256
6
ByLayer
370
18
48
1
60
0
100
AcDbLine
10
24.101384
20
13.5
30
0
11
24.065604
21
13.5
31
0
39
0
210
0
220
0
230
1
0
LINE
5
A6
100
AcDbEntity
8
1
62
256
6
ByLayer
370
18
48
1
60
0
100
AcDbLine
10
21.768385
20
-25.15
30
0
11
24.101384
21
-25.15
31
0
39
0
210
0
220
0
230
1
0
LINE
5
A7
100
AcDbEntity
8
1
62
256
6
ByLayer
370
13
48
1
60
0
100
AcDbLine
10
11.461325
20
23.83913
30
0
11
11.461325
21
7.529667
31
0
39
0
210
0
220
0
230
1
0
LINE
5
A8
100
AcDbEntity
8
1
62
256
6
ByLayer
370
13
48
1
60
0
100
AcDbLine
10
11.894338
20
23.666502
30
0
11
11.894338
21
8.055848
31
0
39
0
210
0
220
0
230
1
0
LINE
5
A9
100
AcDbEntity
8
1
62
256
6
ByLayer
370
13
48
1
60
0
100
AcDbLine
10
8.105662
20
-8.055848
30
0
11
8.105662
21
-23.666502
31
0
39
0
210
0
220
0
230
1
0
LINE
5
AA
100
AcDbEntity
8
1
62
256
6
ByLayer
370
13
48
1
60
0
100
AcDbLine
10
8.538675
20
-7.529667
30
0
11
8.538675
21
-23.83913
31
0
39
0
210
0
220
0
230
1
0
LINE
5
AB
100
AcDbEntity
8
1
62
256
6
ByLayer
370
13
48
1
60
0
100
AcDbLine
10
8.105662
20
23.666502
30
0
11
8.105662
21
8.055848
31
0
39
0
210
0
220
0
230
1
0
LINE
5
AC
100
AcDbEntity
8
1
62
256
6
ByLayer
370
13
48
1
60
0
100
AcDbLine
10
8.538675
20
23.83913
30
0
11
8.538675
21
7.529667
31
0
39
0
210
0
220
0
230
1
0
LINE
5
AD
100
AcDbEntity
8
1
62
256
6
ByLayer
370
13
48
1
60
0
100
AcDbLine
10
11.461325
20
-7.529667
30
0
11
11.461325
21
-23.83913
31
0
39
0
210
0
220
0
230
1
0
LINE
5
AE
100
AcDbEntity
8
1
62
256
6
ByLayer
370
13
48
1
60
0
100
AcDbLine
10
11.894338
20
-8.055848
30
0
11
11.894338
21
-23.666502
31
0
39
0
210
0
220
0
230
1
0
LINE
5
AF
100
AcDbEntity
8
1
62
256
6
ByLayer
370
18
48
1
60
0
100
AcDbLine
10
11.461325
20
-23.83913
30
0
11
8.538675
21
-23.83913
31
0
39
0
210
0
220
0
230
1
0
LINE
5
B0
100
AcDbEntity
8
1
62
256
6
ByLayer
370
18
48
1
60
0
100
AcDbLine
10
8.538675
20
-7.529667
30
0
11
11.461325
21
-7.529667
31
0
39
0
210
0
220
0
230
1
0
LINE
5
B1
100
AcDbEntity
8
1
62
256
6
ByLayer
370
18
48
1
60
0
100
AcDbLine
10
8.538675
20
23.83913
30
0
11
11.461325
21
23.83913
31
0
39
0
210
0
220
0
230
1
0
LINE
5
B2
100
AcDbEntity
8
1
62
256
6
ByLayer
370
18
48
1
60
0
100
AcDbLine
10
11.461325
20
7.529667
30
0
11
8.538675
21
7.529667
31
0
39
0
210
0
220
0
230
1
0
LINE
5
B3
100
AcDbEntity
8
1
62
256
6
ByLayer
370
18
48
1
60
0
100
AcDbLine
10
20
20
25
30
0
11
20.063901
21
17.67767
31
0
39
0
210
0
220
0
230
1
0
LINE
5
B4
100
AcDbEntity
8
1
62
256
6
ByLayer
370
13
48
1
60
0
100
AcDbLine
10
20.279208
20
-25
30
0
11
20.279208
21
-21.809557
31
0
39
0
210
0
220
0
230
1
0
LINE
5
B5
100
AcDbEntity
8
1
62
256
6
ByLayer
370
18
48
1
60
0
100
AcDbLine
10
20.063901
20
17.67767
30
0
11
20.065756
21
17.465094
31
0
39
0
210
0
220
0
230
1
0
LINE
5
B6
100
AcDbEntity
8
1
62
256
6
ByLayer
370
13
48
1
60
0
100
AcDbLine
10
20.101536
20
-21.127571
30
0
11
20.101536
21
16.965053
31
0
39
0
210
0
220
0
230
1
0
LINE
5
B7
100
AcDbEntity
8
1
62
256
6
ByLayer
370
18
48
1
60
0
100
AcDbLine
10
0.3
20
25
30
0
11
0.3
21
-25
31
0
39
0
210
0
220
0
230
1
0
LINE
5
B8
100
AcDbEntity
8
1
62
256
6
ByLayer
370
18
48
1
60
0
100
AcDbLine
10
0
20
24.7
30
0
11
0
21
-24.7
31
0
39
0
210
0
220
0
230
1
0
LINE
5
B9
100
AcDbEntity
8
SK1
62
256
6
ByLayer
370
18
48
1
60
0
100
AcDbLine
10
-0.2
20
-17.833485
30
0
11
-0.2
21
-6.078432
31
0
39
0
210
0
220
0
230
1
0
LINE
5
BB
100
AcDbEntity
8
SK1
62
256
6
ByLayer
370
18
48
1
60
0
100
AcDbLine
10
-0.2
20
17.833485
30
0
11
-0.2
21
6.078431
31
0
39
0
210
0
220
0
230
1
0
LINE
5
BC
100
AcDbEntity
8
SK1
62
256
6
ByLayer
370
13
48
1
60
0
100
AcDbLine
10
-1.307107
20
3.918083
30
0
11
-1.307107
21
-3.918083
31
0
39
0
210
0
220
0
230
1
0
LINE
5
BD
100
AcDbEntity
8
SK1
62
256
6
ByLayer
370
18
48
1
60
0
100
AcDbLine
10
-1.99504
20
17.325269
30
0
11
-1.99504
21
17.320045
31
0
39
0
210
0
220
0
230
1
0
LINE
5
BE
100
AcDbEntity
8
SK1
62
256
6
ByLayer
370
18
48
1
60
0
100
AcDbLine
10
-1.99504
20
-17.320045
30
0
11
-1.99504
21
-17.325269
31
0
39
0
210
0
220
0
230
1
0
LINE
5
BF
100
AcDbEntity
8
1
62
256
6
ByLayer
370
18
48
1
60
0
100
AcDbLine
10
41.211628
20
-35.027359
30
0
11
42.415156
21
-34.957261
31
0
39
0
210
0
220
0
230
1
0
LINE
5
C0
100
AcDbEntity
8
1
62
256
6
ByLayer
370
18
48
1
60
0
100
AcDbLine
10
41
20
-34.827698
30
0
11
41
21
-34.749998
31
0
39
0
210
0
220
0
230
1
0
LINE
5
C1
100
AcDbEntity
8
1
62
256
6
ByLayer
370
18
48
1
60
0
100
AcDbLine
10
54.788372
20
-33.472641
30
0
11
53.584844
21
-33.542739
31
0
39
0
210
0
220
0
230
1
0
LINE
5
C2
100
AcDbEntity
8
1
62
256
6
ByLayer
370
18
48
1
60
0
100
AcDbLine
10
54.788372
20
-35.027359
30
0
11
53.584844
21
-34.957261
31
0
39
0
210
0
220
0
230
1
0
LINE
5
C3
100
AcDbEntity
8
1
62
256
6
ByLayer
370
18
48
1
60
0
100
AcDbLine
10
55
20
-34.827698
30
0
11
55
21
-33.672302
31
0
39
0
210
0
220
0
230
1
0
LINE
5
C4
100
AcDbEntity
8
1
62
256
6
ByLayer
370
18
48
1
60
0
100
AcDbLine
10
53.584844
20
-33.542739
30
0
11
53.171689
21
-33.530656
31
0
39
0
210
0
220
0
230
1
0
LINE
5
C5
100
AcDbEntity
8
1
62
256
6
ByLayer
370
18
48
1
60
0
100
AcDbLine
10
53.584844
20
-34.957261
30
0
11
53.171689
21
-34.969344
31
0
39
0
210
0
220
0
230
1
0
LINE
5
C6
100
AcDbEntity
8
1
62
256
6
ByLayer
370
18
48
1
60
0
100
AcDbLine
10
53.584844
20
-34.957261
30
0
11
53.584844
21
-33.542739
31
0
39
0
210
0
220
0
230
1
0
LINE
5
C7
100
AcDbEntity
8
1
62
256
6
ByLayer
370
18
48
1
60
0
100
AcDbLine
10
42.415156
20
-34.957261
30
0
11
42.828311
21
-34.969344
31
0
39
0
210
0
220
0
230
1
0
LINE
5
C8
100
AcDbEntity
8
1
62
256
6
ByLayer
370
18
48
1
60
0
100
AcDbLine
10
42.415156
20
-34.957261
30
0
11
42.415156
21
-34.749989
31
0
39
0
210
0
220
0
230
1
0
LINE
5
C9
100
AcDbEntity
8
1
62
256
6
ByLayer
370
18
48
1
60
0
100
AcDbLine
10
52.261956
20
-34.865
30
0
11
50.973371
21
-34.865
31
0
39
0
210
0
220
0
230
1
0
LINE
5
CA
100
AcDbEntity
8
1
62
256
6
ByLayer
370
18
48
1
60
0
100
AcDbLine
10
52.261956
20
-33.635
30
0
11
50.973371
21
-33.635
31
0
39
0
210
0
220
0
230
1
0
LINE
5
CB
100
AcDbEntity
8
1
62
256
6
ByLayer
370
18
48
1
60
0
100
AcDbLine
10
52.315277
20
-34.871815
30
0
11
52.553952
21
-34.933899
31
0
39
0
210
0
220
0
230
1
0
LINE
5
CC
100
AcDbEntity
8
1
62
256
6
ByLayer
370
18
48
1
60
0
100
AcDbLine
10
52.594138
20
-34.940074
30
0
11
53.171689
21
-34.969344
31
0
39
0
210
0
220
0
230
1
0
LINE
5
CD
100
AcDbEntity
8
1
62
256
6
ByLayer
370
18
48
1
60
0
100
AcDbLine
10
53.171689
20
-34.969344
30
0
11
53.171689
21
-33.530656
31
0
39
0
210
0
220
0
230
1
0
LINE
5
CE
100
AcDbEntity
8
1
62
256
6
ByLayer
370
18
48
1
60
0
100
AcDbLine
10
52.594138
20
-33.559926
30
0
11
53.171689
21
-33.530656
31
0
39
0
210
0
220
0
230
1
0
LINE
5
CF
100
AcDbEntity
8
1
62
256
6
ByLayer
370
18
48
1
60
0
100
AcDbLine
10
52.315277
20
-33.628185
30
0
11
52.553952
21
-33.566101
31
0
39
0
210
0
220
0
230
1
0
LINE
5
D0
100
AcDbEntity
8
1
62
256
6
ByLayer
370
18
48
1
60
0
100
AcDbLine
10
43.738044
20
-34.865
30
0
11
45.026629
21
-34.865
31
0
39
0
210
0
220
0
230
1
0
LINE
5
D1
100
AcDbEntity
8
1
62
256
6
ByLayer
370
18
48
1
60
0
100
AcDbLine
10
42.828311
20
-34.969344
30
0
11
42.828311
21
-34.749989
31
0
39
0
210
0
220
0
230
1
0
LINE
5
D2
100
AcDbEntity
8
1
62
256
6
ByLayer
370
18
48
1
60
0
100
AcDbLine
10
43.405862
20
-34.940074
30
0
11
42.828311
21
-34.969344
31
0
39
0
210
0
220
0
230
1
0
LINE
5
D3
100
AcDbEntity
8
1
62
256
6
ByLayer
370
18
48
1
60
0
100
AcDbLine
10
43.684723
20
-34.871815
30
0
11
43.446048
21
-34.933899
31
0
39
0
210
0
220
0
230
1
0
LINE
5
D4
100
AcDbEntity
8
1
62
256
6
ByLayer
370
18
48
1
60
0
100
AcDbLine
10
50.930305
20
-34.865
30
0
11
45.069695
21
-34.865
31
0
39
0
210
0
220
0
230
1
0
LINE
5
D5
100
AcDbEntity
8
1
62
256
6
ByLayer
370
18
48
1
60
0
100
AcDbLine
10
50.930305
20
-33.635
30
0
11
46.45866
21
-33.635
31
0
39
0
210
0
220
0
230
1
0
LINE
5
D6
100
AcDbEntity
8
1
62
256
6
ByLayer
370
13
48
1
60
0
100
AcDbLine
10
50.973371
20
-33.790105
30
0
11
50.973371
21
-33.635
31
0
39
0
210
0
220
0
230
1
0
LINE
5
D7
100
AcDbEntity
8
1
62
256
6
ByLayer
370
13
48
1
60
0
100
AcDbLine
10
50.930305
20
-33.785
30
0
11
50.930305
21
-33.635
31
0
39
0
210
0
220
0
230
1
0
LINE
5
D8
100
AcDbEntity
8
1
62
256
6
ByLayer
370
18
48
1
60
0
100
AcDbLine
10
50.973371
20
-34.709895
30
0
11
52.477538
21
-34.352606
31
0
39
0
210
0
220
0
230
1
0
LINE
5
D9
100
AcDbEntity
8
1
62
256
6
ByLayer
370
13
48
1
60
0
100
AcDbLine
10
50.502664
20
-34.352606
30
0
11
52.477538
21
-34.352606
31
0
39
0
210
0
220
0
230
1
0
LINE
5
DA
100
AcDbEntity
8
1
62
256
6
ByLayer
370
18
48
1
60
0
100
AcDbLine
10
50.930305
20
-34.715
30
0
11
50.426842
21
-34.715
31
0
39
0
210
0
220
0
230
1
0
LINE
5
DB
100
AcDbEntity
8
1
62
256
6
ByLayer
370
13
48
1
60
0
100
AcDbLine
10
50.930305
20
-34.715
30
0
11
50.930305
21
-34.865
31
0
39
0
210
0
220
0
230
1
0
LINE
5
DC
100
AcDbEntity
8
1
62
256
6
ByLayer
370
13
48
1
60
0
100
AcDbLine
10
50.973371
20
-34.709895
30
0
11
50.973371
21
-34.865
31
0
39
0
210
0
220
0
230
1
0
LINE
5
DD
100
AcDbEntity
8
1
62
256
6
ByLayer
370
18
48
1
60
0
100
AcDbLine
10
50.930305
20
-33.785
30
0
11
50.426842
21
-33.785
31
0
39
0
210
0
220
0
230
1
0
LINE
5
DE
100
AcDbEntity
8
1
62
256
6
ByLayer
370
13
48
1
60
0
100
AcDbLine
10
50.501965
20
-34.147394
30
0
11
52.477538
21
-34.147394
31
0
39
0
210
0
220
0
230
1
0
LINE
5
DF
100
AcDbEntity
8
1
62
256
6
ByLayer
370
18
48
1
60
0
100
AcDbLine
10
50.973371
20
-33.790105
30
0
11
52.477538
21
-34.147394
31
0
39
0
210
0
220
0
230
1
0
LINE
5
E0
100
AcDbEntity
8
1
62
256
6
ByLayer
370
13
48
1
60
0
100
AcDbLine
10
45.026629
20
-34.750001
30
0
11
45.026629
21
-34.865
31
0
39
0
210
0
220
0
230
1
0
LINE
5
E1
100
AcDbEntity
8
1
62
256
6
ByLayer
370
13
48
1
60
0
100
AcDbLine
10
45.069695
20
-34.750002
30
0
11
45.069695
21
-34.865
31
0
39
0
210
0
220
0
230
1
0
LINE
5
E2
100
AcDbEntity
8
SK2
62
256
6
ByLayer
370
18
48
1
60
0
100
AcDbLine
10
-39.975
20
-25
30
0
11
-39.975
21
25
31
0
39
0
210
0
220
0
230
1
0
LINE
5
E4
100
AcDbEntity
8
SK2
62
256
6
ByLayer
370
18
48
1
60
0
100
AcDbLine
10
-1.2875
20
25
30
0
11
-41.975
21
25
31
0
39
0
210
0
220
0
230
1
0
LINE
5
E5
100
AcDbEntity
8
SK2
62
256
6
ByLayer
370
18
48
1
60
0
100
AcDbLine
10
-1.2875
20
-25
30
0
11
-41.975
21
-25
31
0
39
0
210
0
220
0
230
1
0
LINE
5
E6
100
AcDbEntity
8
1
62
256
6
ByLayer
370
18
48
1
60
1
100
AcDbLine
10
-39.975
20
25
30
0
11
-39.514216
21
21.500002
31
0
39
0
210
0
220
0
230
1
0
LINE
5
E7
100
AcDbEntity
8
1
62
256
6
ByLayer
370
18
48
1
60
1
100
AcDbLine
10
-39.514216
20
21.500002
30
0
11
-40.435784
21
21.499998
31
0
39
0
210
0
220
0
230
1
0
LINE
5
E8
100
AcDbEntity
8
1
62
256
6
ByLayer
370
18
48
1
60
1
100
AcDbLine
10
-40.435784
20
21.499998
30
0
11
-39.975
21
25
31
0
39
0
210
0
220
0
230
1
0
LINE
5
E9
100
AcDbEntity
8
1
62
256
6
ByLayer
370
18
48
1
60
1
100
AcDbLine
10
-39.975
20
-25
30
0
11
-40.435784
21
-21.500002
31
0
39
0
210
0
220
0
230
1
0
LINE
5
EA
100
AcDbEntity
8
1
62
256
6
ByLayer
370
18
48
1
60
1
100
AcDbLine
10
-40.435784
20
-21.500002
30
0
11
-39.514216
21
-21.499998
31
0
39
0
210
0
220
0
230
1
0
LINE
5
EB
100
AcDbEntity
8
1
62
256
6
ByLayer
370
18
48
1
60
1
100
AcDbLine
10
-39.514216
20
-21.499998
30
0
11
-39.975
21
-25
31
0
39
0
210
0
220
0
230
1
0
LINE
5
13A
100
AcDbEntity
8
1
62
256
6
ByLayer
370
18
48
1
60
1
100
AcDbLine
10
-39.975
20
25
30
0
11
-39.514216
21
21.500002
31
0
39
0
210
0
220
0
230
1
0
LINE
5
13B
100
AcDbEntity
8
1
62
256
6
ByLayer
370
18
48
1
60
1
100
AcDbLine
10
-39.514216
20
21.500002
30
0
11
-40.435784
21
21.499998
31
0
39
0
210
0
220
0
230
1
0
LINE
5
13C
100
AcDbEntity
8
1
62
256
6
ByLayer
370
18
48
1
60
1
100
AcDbLine
10
-40.435784
20
21.499998
30
0
11
-39.975
21
25
31
0
39
0
210
0
220
0
230
1
0
LINE
5
13E
100
AcDbEntity
8
1
62
256
6
ByLayer
370
18
48
1
60
1
100
AcDbLine
10
-39.975
20
-25
30
0
11
-40.435784
21
-21.500002
31
0
39
0
210
0
220
0
230
1
0
LINE
5
13F
100
AcDbEntity
8
1
62
256
6
ByLayer
370
18
48
1
60
1
100
AcDbLine
10
-40.435784
20
-21.500002
30
0
11
-39.514216
21
-21.499998
31
0
39
0
210
0
220
0
230
1
0
LINE
5
140
100
AcDbEntity
8
1
62
256
6
ByLayer
370
18
48
1
60
1
100
AcDbLine
10
-39.514216
20
-21.499998
30
0
11
-39.975
21
-25
31
0
39
0
210
0
220
0
230
1
0
MTEXT
5
136
100
AcDbEntity
8
SK2
62
256
6
ByLayer
370
18
48
1
60
0
100
AcDbMText
10
-41.539634
20
-4.530622
30
0
210
0
220
0
230
1
1
%%c
40
3.5
41
0
44
1.084337
50
90
71
7
72
5
7
iso_b_vert
0
MTEXT
5
139
100
AcDbEntity
8
SK2
62
256
6
ByLayer
370
18
48
1
60
0
100
AcDbMText
10
-41.539634
20
2.442034
30
0
210
0
220
0
230
1
1
\W0.6740;50
40
3.5
41
0
44
1.084337
50
90
71
7
72
5
7
iso_b_vert
0
MTEXT
5
142
100
AcDbEntity
8
SK6
62
256
6
ByLayer
370
18
48
1
60
0
100
AcDbMText
10
-19.8145
20
-59.234155
30
0
210
0
220
0
230
1
1
\W0.7582;C2R-CC5-LD08GB
40
3.5
41
0
44
1.084337
50
0
71
7
72
5
7
iso_b_vert
0
HATCH
5
13D
100
AcDbEntity
8
SK2
62
256
6
ByLayer
370
13
48
1
60
0
100
AcDbHatch
10
0
20
0
30
0
210
0
220
0
230
1
2
ANSI31
70
0
71
0
91
1
92
5
93
3
72
1
10
-39.9750000000001
20
25
11
-39.5142162584474
21
21.5000016925532
72
1
10
-39.5142162584474
20
21.5000016925532
11
-40.4357837415529
21
21.4999983074468
72
1
10
-40.4357837415529
20
21.4999983074468
11
-39.9750000000001
21
25
97
0
75
0
76
1
52
0
41
0.0062
77
0
78
1
53
45
43
0
44
0
45
-0.0139193969876572
46
0.0139193969876572
79
0
47
0
98
1
10
0
20
0
0
HATCH
5
141
100
AcDbEntity
8
SK2
62
256
6
ByLayer
370
13
48
1
60
0
100
AcDbHatch
10
0
20
0
30
0
210
0
220
0
230
1
2
ANSI31
70
0
71
0
91
1
92
5
93
3
72
1
10
-39.9750000000001
20
-25
11
-40.4357837415529
21
-21.5000016925532
72
1
10
-40.4357837415529
20
-21.5000016925532
11
-39.5142162584474
21
-21.4999983074468
72
1
10
-39.5142162584474
20
-21.4999983074468
11
-39.9750000000001
21
-25
97
0
75
0
76
1
52
0
41
0.0062
77
0
78
1
53
45
43
0
44
0
45
-0.0139193969876572
46
0.0139193969876572
79
0
47
0
98
1
10
0
20
0
0
DIMENSION
5
145
100
AcDbEntity
8
2
62
256
6
ByLayer
370
18
48
1
60
0
100
AcDbDimension
2
_U0
10
86.1
20
0
30
0
11
86.1
21
-17.5
31
0
70
32
71
1
72
1
41
1
210
0
220
0
230
1
3
Standard
100
AcDbAlignedDimension
13
55
23
-35
33
0
14
0
24
0
34
0
50
90
100
AcDbRotatedDimension
1001
ACAD
1000
DSTYLE
1002
{
1070
   371
1070
    13
1070
   372
1070
    13
1070
   170
1070
     0
1070
   144
1040
1.0
1070
   277
1070
     2
1070
   284
1070
     8
1070
   278
1070
    46
1070
   146
1040
1.0
1070
   345
1005
16
1070
   347
1005
16
1070
   346
1005
16
1070
   344
1005
0
1070
   343
1005
0
1070
   172
1070
     1
1070
    76
1070
     0
1070
    75
1070
     0
1070
   282
1070
     0
1070
   281
1070
     0
1070
    71
1070
     0
1070
    74
1070
     0
1070
   279
1070
     0
1070
   173
1070
     1
1070
   340
1005
137
1070
   271
1070
     1
1070
   272
1070
     2
1070
    77
1070
     1
1070
    73
1070
     0
1070
   171
1070
     3
1070
   274
1070
     4
1070
   177
1070
     2
1070
   176
1070
     2
1070
   178
1070
     2
1070
    78
1070
     8
1070
    48
1040
-0.1
1070
    41
1040
3.5
1070
   147
1040
1.75
1070
    42
1040
1.5875
1070
    44
1040
2.0
1070
   140
1040
3.5
1002
}
1001
ACAD_DSTYLE_DIM_LINETYPE
1070
   380
1005
16
1001
ACAD_DSTYLE_DIM_EXT1_LINETYPE
1070
   381
1005
16
1001
ACAD_DSTYLE_DIM_EXT2_LINETYPE
1070
   382
1005
16
0
DIMENSION
5
15F
100
AcDbEntity
8
2
62
256
6
ByLayer
370
18
48
1
60
0
100
AcDbDimension
2
_U1
10
75.1
20
-35
30
0
11
75.1
21
-34.25
31
0
70
32
71
1
72
1
41
1
210
0
220
0
230
1
3
Standard
100
AcDbAlignedDimension
13
55
23
-33.5
33
0
14
55
24
-35
34
0
50
90
100
AcDbRotatedDimension
1001
ACAD
1000
DSTYLE
1002
{
1070
   371
1070
    13
1070
   372
1070
    13
1070
   170
1070
     0
1070
   144
1040
1.0
1070
   277
1070
     2
1070
   284
1070
     8
1070
   278
1070
    46
1070
   146
1040
1.0
1070
   345
1005
16
1070
   347
1005
16
1070
   346
1005
16
1070
   344
1005
0
1070
   343
1005
0
1070
   172
1070
     1
1070
    76
1070
     0
1070
    75
1070
     0
1070
   282
1070
     0
1070
   281
1070
     0
1070
    71
1070
     0
1070
    74
1070
     0
1070
   279
1070
     0
1070
   173
1070
     1
1070
   340
1005
137
1070
   271
1070
     1
1070
   272
1070
     2
1070
    77
1070
     1
1070
    73
1070
     0
1070
   171
1070
     3
1070
   274
1070
     4
1070
   177
1070
     2
1070
   176
1070
     2
1070
   178
1070
     2
1070
    78
1070
     8
1070
    48
1040
-0.1
1070
    41
1040
3.5
1070
   147
1040
1.75
1070
    42
1040
1.5875
1070
    44
1040
2.0
1070
   140
1040
3.5
1002
}
1001
ACAD_DSTYLE_DIM_LINETYPE
1070
   380
1005
16
1001
ACAD_DSTYLE_DIM_EXT1_LINETYPE
1070
   381
1005
16
1001
ACAD_DSTYLE_DIM_EXT2_LINETYPE
1070
   382
1005
16
0
DIMENSION
5
178
100
AcDbEntity
8
2
62
256
6
ByLayer
370
18
48
1
60
0
100
AcDbDimension
2
_U2
10
55
20
14.5
30
0
11
51
21
14.5
31
0
70
32
71
1
72
1
41
1
210
0
220
0
230
1
3
Standard
100
AcDbAlignedDimension
13
47
23
-33.75
33
0
14
55
24
-33.5
34
0
50
0
100
AcDbRotatedDimension
1001
ACAD
1000
DSTYLE
1002
{
1070
   371
1070
    13
1070
   372
1070
    13
1070
   170
1070
     0
1070
   144
1040
1.0
1070
   277
1070
     2
1070
   284
1070
     8
1070
   278
1070
    46
1070
   146
1040
1.0
1070
   345
1005
16
1070
   347
1005
16
1070
   346
1005
16
1070
   344
1005
0
1070
   343
1005
0
1070
   172
1070
     1
1070
    76
1070
     0
1070
    75
1070
     0
1070
   282
1070
     0
1070
   281
1070
     0
1070
    71
1070
     0
1070
    74
1070
     0
1070
   279
1070
     0
1070
   173
1070
     1
1070
   340
1005
137
1070
   271
1070
     1
1070
   272
1070
     2
1070
    77
1070
     1
1070
    73
1070
     1
1070
   171
1070
     3
1070
   274
1070
     4
1070
   177
1070
     2
1070
   176
1070
     2
1070
   178
1070
     2
1070
    78
1070
     8
1070
    48
1040
-0.1
1070
    41
1040
3.5
1070
   147
1040
1.75
1070
    42
1040
1.5875
1070
    44
1040
2.0
1070
   140
1040
3.5
1002
}
1001
ACAD_DSTYLE_DIM_LINETYPE
1070
   380
1005
16
1001
ACAD_DSTYLE_DIM_EXT1_LINETYPE
1070
   381
1005
16
1001
ACAD_DSTYLE_DIM_EXT2_LINETYPE
1070
   382
1005
16
0
DIMENSION
5
191
100
AcDbEntity
8
2
62
256
6
ByLayer
370
18
48
1
60
0
100
AcDbDimension
2
_U3
10
55
20
-50.75
30
0
11
27.5
21
-50.75
31
0
70
32
71
1
72
1
41
1
210
0
220
0
230
1
3
Standard
100
AcDbAlignedDimension
13
0
23
0
33
0
14
55
24
-35
34
0
50
0
100
AcDbRotatedDimension
1001
ACAD
1000
DSTYLE
1002
{
1070
   371
1070
    13
1070
   372
1070
    13
1070
   170
1070
     0
1070
   144
1040
1.0
1070
   277
1070
     2
1070
   284
1070
     8
1070
   278
1070
    46
1070
   146
1040
1.0
1070
   345
1005
16
1070
   347
1005
16
1070
   346
1005
16
1070
   344
1005
0
1070
   343
1005
0
1070
   172
1070
     1
1070
    76
1070
     0
1070
    75
1070
     0
1070
   282
1070
     0
1070
   281
1070
     0
1070
    71
1070
     0
1070
    74
1070
     0
1070
   279
1070
     0
1070
   173
1070
     1
1070
   340
1005
137
1070
   271
1070
     1
1070
   272
1070
     2
1070
    77
1070
     1
1070
    73
1070
     1
1070
   171
1070
     3
1070
   274
1070
     4
1070
   177
1070
     2
1070
   176
1070
     2
1070
   178
1070
     2
1070
    78
1070
     8
1070
    48
1040
-0.1
1070
    41
1040
3.5
1070
   147
1040
1.75
1070
    42
1040
1.5875
1070
    44
1040
2.0
1070
   140
1040
3.5
1002
}
1001
ACAD_DSTYLE_DIM_LINETYPE
1070
   380
1005
16
1001
ACAD_DSTYLE_DIM_EXT1_LINETYPE
1070
   381
1005
16
1001
ACAD_DSTYLE_DIM_EXT2_LINETYPE
1070
   382
1005
16
0
ENDSEC
0
SECTION
2
OBJECTS
0
DICTIONARY
5
218
330
0
100
AcDbDictionary
280
0
281
1
3
ACAD_GROUP
350
219
3
ACAD_MLINESTYLE
350
21a
0
DICTIONARY
5
219
330
0
100
AcDbDictionary
280
0
281
1
0
DICTIONARY
5
21a
330
0
100
AcDbDictionary
280
0
281
1
3
Standard
350
18
0
MLINESTYLE
5
18
330
21a
100
AcDbMlineStyle
2
Standard
70
0
3

62
256
51
90
52
90
71
2
49
-0.5
62
256
6
ByLayer
49
0.5
62
256
6
ByLayer
0
RASTERVARIABLES
5
207
330

100
AcDbRasterVariables
90
0
70
1
71
1
72
1
0
ENDSEC
0
EOF
