0
SECTION
2
HEADER
9
$ACADVER
1
AC1015
9
$DWGCODEPAGE
3
ANSI_1252
9
$HANDSEED
5
233
9
$ANGBASE
50
0
9
$ANGDIR
70
0
9
$ATTMODE
70
1
9
$AUNITS
70
0
9
$AUPREC
70
0
9
$CECOLOR
62
256
9
$CELTSCALE
40
1
9
$CELTYPE
6
ByLayer
9
$CELWEIGHT
370
18
9
$CLAYER
8
0
9
$CMLJUST
70
0
9
$CMLSCALE
40
1
9
$CMLSTYLE
2
Standard
9
$DIMSTYLE
2
Standard
9
$TEXTSIZE
40
0.2
9
$TEXTSTYLE
7
Standard
9
$LUNITS
70
2
9
$LUPREC
70
4
9
$EXTNAMES
290
1
9
$INSUNITS
70
4
9
$LTSCALE
40
1
9
$LWDISPLAY
290
1
9
$PDMODE
70
0
9
$PDSIZE
40
0
9
$PLINEGEN
70
0
0
ENDSEC
0
SECTION
2
CLASSES
0
CLASS
1
RASTERVARIABLES
2
AcDbRasterVariables
3
ISM
90
0
280
0
281
0
0
ENDSEC
0
SECTION
2
TABLES
0
TABLE
2
VPORT
5
229
100
AcDbSymbolTable
0
VPORT
5
1
100
AcDbSymbolTableRecord
100
AcDbViewportTableRecord
2
*Active
70
0
10
0
20
0
11
1
21
1
12
-1
22
1
13
0
23
0
14
0.5
24
0.5
15
10
25
10
16
0
26
0
36
1
17
0
27
0
37
0
0
ENDTAB
0
TABLE
2
LTYPE
5
22a
100
AcDbSymbolTable
0
LTYPE
5
14
100
AcDbSymbolTableRecord
100
AcDbLinetypeTableRecord
70
0
2
ByBlock
3

72
65
73
0
40
0
0
LTYPE
5
15
100
AcDbSymbolTableRecord
100
AcDbLinetypeTableRecord
70
0
2
ByLayer
3

72
65
73
0
40
0
0
LTYPE
5
16
100
AcDbSymbolTableRecord
100
AcDbLinetypeTableRecord
70
0
2
Continuous
3
Solid line
72
65
73
0
40
0
0
LTYPE
5
6E
100
AcDbSymbolTableRecord
100
AcDbLinetypeTableRecord
70
0
2
CENTER
3
____ _ ____ _ ____ _ ____
72
65
73
4
40
47.5
49
22
74
0
49
-8.5
74
0
49
8.5
74
0
49
-8.5
74
0
0
LTYPE
5
6F
100
AcDbSymbolTableRecord
100
AcDbLinetypeTableRecord
70
0
2
DASHED
3
__ __ __ __ __ __ __ __ __
72
65
73
2
40
25.72
49
12.86
74
0
49
-12.86
74
0
0
ENDTAB
0
TABLE
2
LAYER
5
22b
100
AcDbSymbolTable
0
LAYER
5
10
100
AcDbSymbolTableRecord
100
AcDbLayerTableRecord
2
0
70
0
62
7
6
Continuous
290
1
370
-3
390
0
0
LAYER
5
71
100
AcDbSymbolTableRecord
100
AcDbLayerTableRecord
2
81
70
0
62
-3
6
Continuous
290
1
370
-3
390
0
0
LAYER
5
73
100
AcDbSymbolTableRecord
100
AcDbLayerTableRecord
2
80
70
0
62
-6
6
Continuous
290
1
370
-3
390
0
0
LAYER
5
75
100
AcDbSymbolTableRecord
100
AcDbLayerTableRecord
2
1
70
0
62
4
6
Continuous
290
1
370
-3
390
0
0
LAYER
5
156
100
AcDbSymbolTableRecord
100
AcDbLayerTableRecord
2
Defpoints
70
0
62
7
6
Continuous
290
0
370
-3
390
0
0
LAYER
5
164
100
AcDbSymbolTableRecord
100
AcDbLayerTableRecord
2
2
70
0
62
7
6
Continuous
290
1
370
-3
390
0
0
LAYER
5
216
100
AcDbSymbolTableRecord
100
AcDbLayerTableRecord
2
SK1
70
0
62
4
6
Continuous
290
1
370
-3
390
0
0
LAYER
5
217
100
AcDbSymbolTableRecord
100
AcDbLayerTableRecord
2
SK2
70
0
62
7
6
Continuous
290
1
370
-3
390
0
0
LAYER
5
218
100
AcDbSymbolTableRecord
100
AcDbLayerTableRecord
2
SK6
70
0
62
5
6
Continuous
290
1
370
-3
390
0
0
ENDTAB
0
TABLE
2
STYLE
5
22c
100
AcDbSymbolTable
0
STYLE
5
11
100
AcDbSymbolTableRecord
100
AcDbTextStyleTableRecord
2
Standard
3
txt
70
0
71
0
40
0
41
1
42
0
50
0
0
STYLE
5
145
100
AcDbSymbolTableRecord
100
AcDbTextStyleTableRecord
2
iso_b_vert
3
simplex.shx
70
0
71
0
40
0
41
1
42
0
50
0
0
STYLE
5
146
100
AcDbSymbolTableRecord
100
AcDbTextStyleTableRecord
2
DWGDirectTextStyle
3
simplex
70
0
71
0
40
0
41
1
42
0
50
0
0
ENDTAB
0
TABLE
2
DIMSTYLE
5
22d
100
AcDbSymbolTable
100
AcDbDimStyleTable
0
DIMSTYLE
105
27
100
AcDbSymbolTableRecord
100
AcDbDimStyleTableRecord
2
Standard
70
0
3
<>
41
0.18
42
0.0625
44
0.18
140
0.18
147
0.09
73
0
74
0
77
1
271
2
275
0
278
52
280
0
340
11
0
ENDTAB
0
TABLE
2
VIEW
5
22e
100
AcDbSymbolTable
0
ENDTAB
0
TABLE
2
UCS
5
22f
100
AcDbSymbolTable
0
ENDTAB
0
TABLE
2
APPID
5
230
100
AcDbSymbolTable
0
APPID
5
12
100
AcDbSymbolTableRecord
100
AcDbRegAppTableRecord
2
ACAD
70
0
0
APPID
5
152
100
AcDbSymbolTableRecord
100
AcDbRegAppTableRecord
2
ACAD_DSTYLE_DIMBREAK
70
0
0
APPID
5
1D5
100
AcDbSymbolTableRecord
100
AcDbRegAppTableRecord
2
ACAD_DSTYLE_DIM_LINETYPE
70
0
0
APPID
5
1D6
100
AcDbSymbolTableRecord
100
AcDbRegAppTableRecord
2
ACAD_DSTYLE_DIM_EXT1_LINETYPE
70
0
0
APPID
5
1D7
100
AcDbSymbolTableRecord
100
AcDbRegAppTableRecord
2
ACAD_DSTYLE_DIM_EXT2_LINETYPE
70
0
0
APPID
5
212
100
AcDbSymbolTableRecord
100
AcDbRegAppTableRecord
2
ACAD_MLEADERVER
70
0
0
ENDTAB
0
TABLE
2
BLOCK_RECORD
5
231
100
AcDbSymbolTable
0
BLOCK_RECORD
5
1F
100
AcDbSymbolTableRecord
100
AcDbBlockTableRecord
2
*Model_Space
340
0
70
0
0
BLOCK_RECORD
5
1B
100
AcDbSymbolTableRecord
100
AcDbBlockTableRecord
2
*Paper_Space
340
0
70
0
0
BLOCK_RECORD
5
23
100
AcDbSymbolTableRecord
100
AcDbBlockTableRecord
2
*Paper_Space0
340
0
70
0
0
BLOCK_RECORD
5
157
100
AcDbSymbolTableRecord
100
AcDbBlockTableRecord
2
*D1
340
0
70
0
0
BLOCK_RECORD
5
165
100
AcDbSymbolTableRecord
100
AcDbBlockTableRecord
2
_U0
340
0
70
0
0
BLOCK_RECORD
5
171
100
AcDbSymbolTableRecord
100
AcDbBlockTableRecord
2
*D3
340
0
70
0
0
BLOCK_RECORD
5
17E
100
AcDbSymbolTableRecord
100
AcDbBlockTableRecord
2
_U1
340
0
70
0
0
BLOCK_RECORD
5
18A
100
AcDbSymbolTableRecord
100
AcDbBlockTableRecord
2
*D5
340
0
70
0
0
BLOCK_RECORD
5
196
100
AcDbSymbolTableRecord
100
AcDbBlockTableRecord
2
_U2
340
0
70
0
0
BLOCK_RECORD
5
1A2
100
AcDbSymbolTableRecord
100
AcDbBlockTableRecord
2
*D7
340
0
70
0
0
BLOCK_RECORD
5
1AE
100
AcDbSymbolTableRecord
100
AcDbBlockTableRecord
2
_U3
340
0
70
0
0
ENDTAB
0
ENDSEC
0
SECTION
2
BLOCKS
0
BLOCK
5
20
100
AcDbEntity
8
0
100
AcDbBlockBegin
2
*Model_Space
70
0
10
0
20
0
30
0
3
*Model_Space
0
ENDBLK
5
21
100
AcDbEntity
8
0
100
AcDbBlockEnd
0
BLOCK
5
1C
100
AcDbEntity
8
0
100
AcDbBlockBegin
2
*Paper_Space
70
0
10
0
20
0
30
0
3
*Paper_Space
0
ENDBLK
5
1D
100
AcDbEntity
8
0
100
AcDbBlockEnd
0
BLOCK
5
24
100
AcDbEntity
8
0
100
AcDbBlockBegin
2
*Paper_Space0
70
0
10
0
20
0
30
0
3
*Paper_Space0
0
ENDBLK
5
25
100
AcDbEntity
8
0
100
AcDbBlockEnd
0
BLOCK
5
158
100
AcDbEntity
8
0
100
AcDbBlockBegin
2
*D1
70
1
10
0
20
0
30
0
3
*D1
0
LINE
5
15A
100
AcDbEntity
8
0
62
256
6
ByLayer
370
-2
48
1
60
0
100
AcDbLine
10
61.5875
20
2
30
0
11
93.1
21
2
31
0
39
0
210
0
220
0
230
1
0
LINE
5
15B
100
AcDbEntity
8
0
62
256
6
ByLayer
370
-2
48
1
60
0
100
AcDbLine
10
1.5875
20
0
30
0
11
93.1
21
0
31
0
39
0
210
0
220
0
230
1
0
LINE
5
15C
100
AcDbEntity
8
0
62
256
6
ByLayer
370
-2
48
1
60
0
100
AcDbLine
10
91.1
20
5.5
30
0
11
91.1
21
9
31
0
39
0
210
0
220
0
230
1
0
LINE
5
15D
100
AcDbEntity
8
0
62
256
6
ByLayer
370
-2
48
1
60
0
100
AcDbLine
10
91.1
20
-3.5
30
0
11
91.1
21
-7
31
0
39
0
210
0
220
0
230
1
0
SOLID
5
15E
100
AcDbEntity
8
0
62
256
6
ByLayer
370
-1
48
1
60
0
100
AcDbTrace
10
90.516667
20
5.5
30
0
11
91.683333
21
5.5
31
0
12
91.1
22
2
32
0
13
91.1
23
2
33
0
39
0
210
0
220
0
230
1
0
SOLID
5
15F
100
AcDbEntity
8
0
62
256
6
ByLayer
370
-1
48
1
60
0
100
AcDbTrace
10
91.683333
20
-3.5
30
0
11
90.516667
21
-3.5
31
0
12
91.1
22
0
32
0
13
91.1
23
0
33
0
39
0
210
0
220
0
230
1
0
MTEXT
5
160
100
AcDbEntity
8
0
62
256
6
ByLayer
370
18
48
1
60
0
100
AcDbMText
10
84.1
20
1
30
0
210
0
220
0
230
1
1
\A1;2
40
3.5
41
0
44
1
50
90
71
5
72
5
7
iso_b_vert
0
POINT
5
161
100
AcDbEntity
8
Defpoints
62
0
6
ByLayer
370
-1
48
1
60
0
100
AcDbPoint
10
60
20
2
30
0
39
0
210
0
220
0
230
1
50
360
0
POINT
5
162
100
AcDbEntity
8
Defpoints
62
0
6
ByLayer
370
-1
48
1
60
0
100
AcDbPoint
10
0
20
0
30
0
39
0
210
0
220
0
230
1
50
360
0
POINT
5
163
100
AcDbEntity
8
Defpoints
62
0
6
ByLayer
370
-1
48
1
60
0
100
AcDbPoint
10
91.1
20
0
30
0
39
0
210
0
220
0
230
1
50
360
0
ENDBLK
5
159
100
AcDbEntity
8
0
100
AcDbBlockEnd
0
BLOCK
5
16C
100
AcDbEntity
8
0
100
AcDbBlockBegin
2
_U0
70
0
10
0
20
0
30
0
3
_U0
0
MTEXT
5
166
100
AcDbEntity
8
2
62
256
6
ByLayer
370
18
48
1
60
0
100
AcDbMText
10
90.410366
20
0.374767
30
0
210
0
220
0
230
1
1
\W0.5404;2
40
3.5
41
0
44
1.084337
50
90
71
7
72
5
7
iso_b_vert
0
LINE
5
167
100
AcDbEntity
8
2
62
256
6
ByLayer
370
13
48
1
60
0
100
AcDbLine
10
61.5875
20
2
30
0
11
93.1
21
2
31
0
39
0
210
0
220
0
230
1
0
LINE
5
168
100
AcDbEntity
8
2
62
256
6
ByLayer
370
13
48
1
60
0
100
AcDbLine
10
1.5875
20
0
30
0
11
93.1
21
0
31
0
39
0
210
0
220
0
230
1
0
LINE
5
169
100
AcDbEntity
8
2
62
256
6
ByLayer
370
13
48
1
60
0
100
AcDbLine
10
91.1
20
10.75
30
0
11
91.1
21
-8.75
31
0
39
0
210
0
220
0
230
1
0
SOLID
5
16A
100
AcDbEntity
8
2
62
256
6
ByLayer
370
18
48
1
60
0
100
AcDbTrace
10
91.1
20
2
30
0
11
90.639216
21
5.499998
31
0
12
91.560784
22
5.500002
32
0
13
91.560784
23
5.500002
33
0
39
0
210
0
220
0
230
1
0
SOLID
5
16B
100
AcDbEntity
8
2
62
256
6
ByLayer
370
18
48
1
60
0
100
AcDbTrace
10
91.1
20
0
30
0
11
91.560784
21
-3.499998
31
0
12
90.639216
22
-3.500002
32
0
13
90.639216
23
-3.500002
33
0
39
0
210
0
220
0
230
1
0
ENDBLK
5
16D
100
AcDbEntity
8
0
100
AcDbBlockEnd
0
BLOCK
5
172
100
AcDbEntity
8
0
100
AcDbBlockBegin
2
*D3
70
1
10
0
20
0
30
0
3
*D3
0
LINE
5
174
100
AcDbEntity
8
0
62
256
6
ByLayer
370
-2
48
1
60
0
100
AcDbLine
10
61.5875
20
-2
30
0
11
82.1
21
-2
31
0
39
0
210
0
220
0
230
1
0
LINE
5
175
100
AcDbEntity
8
0
62
256
6
ByLayer
370
-2
48
1
60
0
100
AcDbLine
10
61.5875
20
2
30
0
11
82.1
21
2
31
0
39
0
210
0
220
0
230
1
0
LINE
5
176
100
AcDbEntity
8
0
62
256
6
ByLayer
370
-2
48
1
60
0
100
AcDbLine
10
80.1
20
-5.5
30
0
11
80.1
21
-9
31
0
39
0
210
0
220
0
230
1
0
LINE
5
177
100
AcDbEntity
8
0
62
256
6
ByLayer
370
-2
48
1
60
0
100
AcDbLine
10
80.1
20
5.5
30
0
11
80.1
21
9
31
0
39
0
210
0
220
0
230
1
0
SOLID
5
178
100
AcDbEntity
8
0
62
256
6
ByLayer
370
-1
48
1
60
0
100
AcDbTrace
10
80.683333
20
-5.5
30
0
11
79.516667
21
-5.5
31
0
12
80.1
22
-2
32
0
13
80.1
23
-2
33
0
39
0
210
0
220
0
230
1
0
SOLID
5
179
100
AcDbEntity
8
0
62
256
6
ByLayer
370
-1
48
1
60
0
100
AcDbTrace
10
79.516667
20
5.5
30
0
11
80.683333
21
5.5
31
0
12
80.1
22
2
32
0
13
80.1
23
2
33
0
39
0
210
0
220
0
230
1
0
MTEXT
5
17A
100
AcDbEntity
8
0
62
256
6
ByLayer
370
18
48
1
60
0
100
AcDbMText
10
73.1
20
0
30
0
210
0
220
0
230
1
1
\A1;4
40
3.5
41
0
44
1
50
90
71
5
72
5
7
iso_b_vert
0
POINT
5
17B
100
AcDbEntity
8
Defpoints
62
0
6
ByLayer
370
-1
48
1
60
0
100
AcDbPoint
10
60
20
-2
30
0
39
0
210
0
220
0
230
1
50
360
0
POINT
5
17C
100
AcDbEntity
8
Defpoints
62
0
6
ByLayer
370
-1
48
1
60
0
100
AcDbPoint
10
60
20
2
30
0
39
0
210
0
220
0
230
1
50
360
0
POINT
5
17D
100
AcDbEntity
8
Defpoints
62
0
6
ByLayer
370
-1
48
1
60
0
100
AcDbPoint
10
80.1
20
2
30
0
39
0
210
0
220
0
230
1
50
360
0
ENDBLK
5
173
100
AcDbEntity
8
0
100
AcDbBlockEnd
0
BLOCK
5
185
100
AcDbEntity
8
0
100
AcDbBlockBegin
2
_U1
70
0
10
0
20
0
30
0
3
_U1
0
MTEXT
5
17F
100
AcDbEntity
8
2
62
256
6
ByLayer
370
18
48
1
60
0
100
AcDbMText
10
79.410366
20
-0.8095
30
0
210
0
220
0
230
1
1
\W0.6380;4
40
3.5
41
0
44
1.084337
50
90
71
7
72
5
7
iso_b_vert
0
LINE
5
180
100
AcDbEntity
8
2
62
256
6
ByLayer
370
13
48
1
60
0
100
AcDbLine
10
61.5875
20
-2
30
0
11
82.1
21
-2
31
0
39
0
210
0
220
0
230
1
0
LINE
5
181
100
AcDbEntity
8
2
62
256
6
ByLayer
370
13
48
1
60
0
100
AcDbLine
10
61.5875
20
2
30
0
11
82.1
21
2
31
0
39
0
210
0
220
0
230
1
0
LINE
5
182
100
AcDbEntity
8
2
62
256
6
ByLayer
370
13
48
1
60
0
100
AcDbLine
10
80.1
20
-10.75
30
0
11
80.1
21
10.75
31
0
39
0
210
0
220
0
230
1
0
SOLID
5
183
100
AcDbEntity
8
2
62
256
6
ByLayer
370
18
48
1
60
0
100
AcDbTrace
10
80.1
20
-2
30
0
11
80.560784
21
-5.499998
31
0
12
79.639216
22
-5.500002
32
0
13
79.639216
23
-5.500002
33
0
39
0
210
0
220
0
230
1
0
SOLID
5
184
100
AcDbEntity
8
2
62
256
6
ByLayer
370
18
48
1
60
0
100
AcDbTrace
10
80.1
20
2
30
0
11
79.639216
21
5.499998
31
0
12
80.560784
22
5.500002
32
0
13
80.560784
23
5.500002
33
0
39
0
210
0
220
0
230
1
0
ENDBLK
5
186
100
AcDbEntity
8
0
100
AcDbBlockEnd
0
BLOCK
5
18B
100
AcDbEntity
8
0
100
AcDbBlockBegin
2
*D5
70
1
10
0
20
0
30
0
3
*D5
0
LINE
5
18D
100
AcDbEntity
8
0
62
256
6
ByLayer
370
-2
48
1
60
0
100
AcDbLine
10
40
20
-2.7625
30
0
11
40
21
-36.925
31
0
39
0
210
0
220
0
230
1
0
LINE
5
18E
100
AcDbEntity
8
0
62
256
6
ByLayer
370
-2
48
1
60
0
100
AcDbLine
10
60
20
-3.5875
30
0
11
60
21
-36.925
31
0
39
0
210
0
220
0
230
1
0
LINE
5
18F
100
AcDbEntity
8
0
62
256
6
ByLayer
370
-2
48
1
60
0
100
AcDbLine
10
43.5
20
-34.925
30
0
11
56.5
21
-34.925
31
0
39
0
210
0
220
0
230
1
0
SOLID
5
190
100
AcDbEntity
8
0
62
256
6
ByLayer
370
-1
48
1
60
0
100
AcDbTrace
10
43.5
20
-34.341667
30
0
11
43.5
21
-35.508333
31
0
12
40
22
-34.925
32
0
13
40
23
-34.925
33
0
39
0
210
0
220
0
230
1
0
SOLID
5
191
100
AcDbEntity
8
0
62
256
6
ByLayer
370
-1
48
1
60
0
100
AcDbTrace
10
56.5
20
-35.508333
30
0
11
56.5
21
-34.341667
31
0
12
60
22
-34.925
32
0
13
60
23
-34.925
33
0
39
0
210
0
220
0
230
1
0
MTEXT
5
192
100
AcDbEntity
8
0
62
256
6
ByLayer
370
18
48
1
60
0
100
AcDbMText
10
50
20
-27.925
30
0
210
0
220
0
230
1
1
\A1;20
40
3.5
41
0
44
1
50
0
71
5
72
5
7
iso_b_vert
0
POINT
5
193
100
AcDbEntity
8
Defpoints
62
0
6
ByLayer
370
-1
48
1
60
0
100
AcDbPoint
10
40
20
-1.175
30
0
39
0
210
0
220
0
230
1
50
360
0
POINT
5
194
100
AcDbEntity
8
Defpoints
62
0
6
ByLayer
370
-1
48
1
60
0
100
AcDbPoint
10
60
20
-2
30
0
39
0
210
0
220
0
230
1
50
360
0
POINT
5
195
100
AcDbEntity
8
Defpoints
62
0
6
ByLayer
370
-1
48
1
60
0
100
AcDbPoint
10
60
20
-34.925
30
0
39
0
210
0
220
0
230
1
50
360
0
ENDBLK
5
18C
100
AcDbEntity
8
0
100
AcDbBlockEnd
0
BLOCK
5
19D
100
AcDbEntity
8
0
100
AcDbBlockBegin
2
_U2
70
0
10
0
20
0
30
0
3
_U2
0
MTEXT
5
197
100
AcDbEntity
8
2
62
256
6
ByLayer
370
18
48
1
60
0
100
AcDbMText
10
48.095034
20
-33.892366
30
0
210
0
220
0
230
1
1
\W0.6740;20
40
3.5
41
0
44
1.084337
50
0
71
7
72
5
7
iso_b_vert
0
LINE
5
198
100
AcDbEntity
8
2
62
256
6
ByLayer
370
13
48
1
60
0
100
AcDbLine
10
40
20
-2.7625
30
0
11
40
21
-36.925
31
0
39
0
210
0
220
0
230
1
0
LINE
5
199
100
AcDbEntity
8
2
62
256
6
ByLayer
370
13
48
1
60
0
100
AcDbLine
10
60
20
-3.5875
30
0
11
60
21
-36.925
31
0
39
0
210
0
220
0
230
1
0
LINE
5
19A
100
AcDbEntity
8
2
62
256
6
ByLayer
370
13
48
1
60
0
100
AcDbLine
10
40
20
-34.925
30
0
11
60
21
-34.925
31
0
39
0
210
0
220
0
230
1
0
SOLID
5
19B
100
AcDbEntity
8
2
62
256
6
ByLayer
370
18
48
1
60
0
100
AcDbTrace
10
40
20
-34.925
30
0
11
43.499998
21
-34.464216
31
0
12
43.500002
22
-35.385784
32
0
13
43.500002
23
-35.385784
33
0
39
0
210
0
220
0
230
1
0
SOLID
5
19C
100
AcDbEntity
8
2
62
256
6
ByLayer
370
18
48
1
60
0
100
AcDbTrace
10
60
20
-34.925
30
0
11
56.500002
21
-35.385784
31
0
12
56.499998
22
-34.464216
32
0
13
56.499998
23
-34.464216
33
0
39
0
210
0
220
0
230
1
0
ENDBLK
5
19E
100
AcDbEntity
8
0
100
AcDbBlockEnd
0
BLOCK
5
1A3
100
AcDbEntity
8
0
100
AcDbBlockBegin
2
*D7
70
1
10
0
20
0
30
0
3
*D7
0
LINE
5
1A5
100
AcDbEntity
8
0
62
256
6
ByLayer
370
-2
48
1
60
0
100
AcDbLine
10
0
20
1.5875
30
0
11
0
21
40.25
31
0
39
0
210
0
220
0
230
1
0
LINE
5
1A6
100
AcDbEntity
8
0
62
256
6
ByLayer
370
-2
48
1
60
0
100
AcDbLine
10
60
20
3.5875
30
0
11
60
21
40.25
31
0
39
0
210
0
220
0
230
1
0
LINE
5
1A7
100
AcDbEntity
8
0
62
256
6
ByLayer
370
-2
48
1
60
0
100
AcDbLine
10
3.5
20
38.25
30
0
11
56.5
21
38.25
31
0
39
0
210
0
220
0
230
1
0
SOLID
5
1A8
100
AcDbEntity
8
0
62
256
6
ByLayer
370
-1
48
1
60
0
100
AcDbTrace
10
3.5
20
38.833333
30
0
11
3.5
21
37.666667
31
0
12
0
22
38.25
32
0
13
0
23
38.25
33
0
39
0
210
0
220
0
230
1
0
SOLID
5
1A9
100
AcDbEntity
8
0
62
256
6
ByLayer
370
-1
48
1
60
0
100
AcDbTrace
10
56.5
20
37.666667
30
0
11
56.5
21
38.833333
31
0
12
60
22
38.25
32
0
13
60
23
38.25
33
0
39
0
210
0
220
0
230
1
0
MTEXT
5
1AA
100
AcDbEntity
8
0
62
256
6
ByLayer
370
18
48
1
60
0
100
AcDbMText
10
30
20
45.25
30
0
210
0
220
0
230
1
1
\A1;60
40
3.5
41
0
44
1
50
0
71
5
72
5
7
iso_b_vert
0
POINT
5
1AB
100
AcDbEntity
8
Defpoints
62
0
6
ByLayer
370
-1
48
1
60
0
100
AcDbPoint
10
0
20
0
30
0
39
0
210
0
220
0
230
1
50
360
0
POINT
5
1AC
100
AcDbEntity
8
Defpoints
62
0
6
ByLayer
370
-1
48
1
60
0
100
AcDbPoint
10
60
20
2
30
0
39
0
210
0
220
0
230
1
50
360
0
POINT
5
1AD
100
AcDbEntity
8
Defpoints
62
0
6
ByLayer
370
-1
48
1
60
0
100
AcDbPoint
10
60
20
38.25
30
0
39
0
210
0
220
0
230
1
50
360
0
ENDBLK
5
1A4
100
AcDbEntity
8
0
100
AcDbBlockEnd
0
BLOCK
5
1B5
100
AcDbEntity
8
0
100
AcDbBlockBegin
2
_U3
70
0
10
0
20
0
30
0
3
_U3
0
MTEXT
5
1AF
100
AcDbEntity
8
2
62
256
6
ByLayer
370
18
48
1
60
0
100
AcDbMText
10
28.095034
20
39.282634
30
0
210
0
220
0
230
1
1
\W0.6740;60
40
3.5
41
0
44
1.084337
50
0
71
7
72
5
7
iso_b_vert
0
LINE
5
1B0
100
AcDbEntity
8
2
62
256
6
ByLayer
370
13
48
1
60
0
100
AcDbLine
10
0
20
1.5875
30
0
11
0
21
40.25
31
0
39
0
210
0
220
0
230
1
0
LINE
5
1B1
100
AcDbEntity
8
2
62
256
6
ByLayer
370
13
48
1
60
0
100
AcDbLine
10
60
20
3.5875
30
0
11
60
21
40.25
31
0
39
0
210
0
220
0
230
1
0
LINE
5
1B2
100
AcDbEntity
8
2
62
256
6
ByLayer
370
13
48
1
60
0
100
AcDbLine
10
0
20
38.25
30
0
11
60
21
38.25
31
0
39
0
210
0
220
0
230
1
0
SOLID
5
1B3
100
AcDbEntity
8
2
62
256
6
ByLayer
370
18
48
1
60
0
100
AcDbTrace
10
0
20
38.25
30
0
11
3.499998
21
38.710784
31
0
12
3.500002
22
37.789216
32
0
13
3.500002
23
37.789216
33
0
39
0
210
0
220
0
230
1
0
SOLID
5
1B4
100
AcDbEntity
8
2
62
256
6
ByLayer
370
18
48
1
60
0
100
AcDbTrace
10
60
20
38.25
30
0
11
56.500002
21
37.789216
31
0
12
56.499998
22
38.710784
32
0
13
56.499998
23
38.710784
33
0
39
0
210
0
220
0
230
1
0
ENDBLK
5
1B6
100
AcDbEntity
8
0
100
AcDbBlockEnd
0
ENDSEC
0
SECTION
2
ENTITIES
0
ARC
5
DF
100
AcDbEntity
8
SK1
62
256
6
ByLayer
370
18
48
1
60
0
100
AcDbCircle
39
0
10
-0.6
20
11.8
30
0
40
0.999999999999996
210
0
220
0
230
1
100
AcDbArc
50
293.578178
51
306.869898
0
ARC
5
E0
100
AcDbEntity
8
SK1
62
256
6
ByLayer
370
18
48
1
60
0
100
AcDbCircle
39
0
10
-0.6
20
-11.8
30
0
40
0.999999999999996
210
0
220
0
230
1
100
AcDbArc
50
53.130102
51
66.421822
0
ARC
5
E4
100
AcDbEntity
8
1
62
256
6
ByLayer
370
18
48
1
60
0
100
AcDbCircle
39
0
10
40
20
-9.675
30
0
40
8.5
210
0
220
0
230
1
100
AcDbArc
50
90
51
155
0
ARC
5
E5
100
AcDbEntity
8
1
62
256
6
ByLayer
370
18
48
1
60
0
100
AcDbCircle
39
0
10
40
20
9.675
30
0
40
8.5
210
0
220
0
230
1
100
AcDbArc
50
205
51
270
0
ARC
5
E6
100
AcDbEntity
8
1
62
256
6
ByLayer
370
18
48
1
60
0
100
AcDbCircle
39
0
10
41.397496
20
0
30
0
40
2.00056587453268
210
0
220
0
230
1
100
AcDbArc
50
70
51
143.352823
0
ARC
5
E7
100
AcDbEntity
8
1
62
256
6
ByLayer
370
18
48
1
60
0
100
AcDbCircle
39
0
10
41.397496
20
0
30
0
40
2.00056587453268
210
0
220
0
230
1
100
AcDbArc
50
216.643741
51
290
0
ARC
5
E8
100
AcDbEntity
8
1
62
256
6
ByLayer
370
18
48
1
60
0
100
AcDbCircle
39
0
10
57.997504
20
0
30
0
40
2.00056587453268
210
0
220
0
230
1
100
AcDbArc
50
250
51
110
0
CIRCLE
5
E1
100
AcDbEntity
8
1
62
256
6
ByLayer
370
18
48
1
60
0
100
AcDbCircle
10
29.25
20
0
30
0
40
2.15000000000001
39
0
210
0
220
0
230
1
0
CIRCLE
5
E2
100
AcDbEntity
8
1
62
256
6
ByLayer
370
18
48
1
60
0
100
AcDbCircle
10
29.25
20
0
30
0
40
2.75
39
0
210
0
220
0
230
1
0
CIRCLE
5
E3
100
AcDbEntity
8
1
62
256
6
ByLayer
370
18
48
1
60
0
100
AcDbCircle
10
29.25
20
0
30
0
40
4.55
39
0
210
0
220
0
230
1
0
ELLIPSE
5
E9
100
AcDbEntity
8
1
62
256
6
ByLayer
370
18
48
1
60
0
100
AcDbEllipse
10
15.13963
20
0
30
0
11
9.79685083056879E-16
21
15.9999999999833
31
0
210
0
220
0
230
1
40
0.008727
41
0.988711624075924
42
2.15288102951387
0
ELLIPSE
5
EA
100
AcDbEntity
8
1
62
256
6
ByLayer
370
18
48
1
60
0
100
AcDbEllipse
10
-0.928203
20
0
30
0
11
7.49393430382602
21
15.7933993222004
31
0
210
0
220
0
230
1
40
0.341999
41
-1.08757920120051
42
-0.16146657119771
0
ELLIPSE
5
EB
100
AcDbEntity
8
1
62
256
6
ByLayer
370
18
48
1
60
0
100
AcDbEllipse
10
12.928203
20
0
30
0
11
7.49393430382462
21
-15.7933993221993
31
0
210
0
220
0
230
1
40
0.341999
41
-2.98012608239206
42
-2.05401345238921
0
ELLIPSE
5
EC
100
AcDbEntity
8
1
62
256
6
ByLayer
370
18
48
1
60
0
100
AcDbEllipse
10
12.928203
20
0
30
0
11
7.49393430382517
21
15.7933993222
31
0
210
0
220
0
230
1
40
0.341999
41
2.05401345238925
42
2.98012608239207
0
ELLIPSE
5
ED
100
AcDbEntity
8
1
62
256
6
ByLayer
370
18
48
1
60
0
100
AcDbEllipse
10
-0.928203
20
0
30
0
11
7.49393430382587
21
-15.7933993222002
31
0
210
0
220
0
230
1
40
0.341999
41
0.161466571197716
42
1.08757920120051
0
POINT
5
70
100
AcDbEntity
8
81
62
256
6
ByLayer
370
18
48
1
60
0
100
AcDbPoint
10
60
20
2
30
0
39
0
210
0
220
0
230
1
50
360
0
POINT
5
72
100
AcDbEntity
8
80
62
256
6
ByLayer
370
18
48
1
60
0
100
AcDbPoint
10
0
20
0
30
0
39
0
210
0
220
0
230
1
50
360
0
POINT
5
74
100
AcDbEntity
8
1
62
256
6
ByLayer
370
18
48
1
60
1
100
AcDbPoint
10
60
20
2
30
0
39
0
210
0
220
0
230
1
50
360
0
POINT
5
76
100
AcDbEntity
8
1
62
256
6
ByLayer
370
18
48
1
60
1
100
AcDbPoint
10
0
20
0
30
0
39
0
210
0
220
0
230
1
50
360
0
POINT
5
77
100
AcDbEntity
8
1
62
256
6
ByLayer
370
18
48
1
60
1
100
AcDbPoint
10
60
20
-2
30
0
39
0
210
0
220
0
230
1
50
360
0
POINT
5
78
100
AcDbEntity
8
1
62
256
6
ByLayer
370
18
48
1
60
1
100
AcDbPoint
10
60
20
2
30
0
39
0
210
0
220
0
230
1
50
360
0
POINT
5
79
100
AcDbEntity
8
1
62
256
6
ByLayer
370
18
48
1
60
1
100
AcDbPoint
10
40
20
-1.175
30
0
39
0
210
0
220
0
230
1
50
360
0
POINT
5
7A
100
AcDbEntity
8
1
62
256
6
ByLayer
370
18
48
1
60
1
100
AcDbPoint
10
60
20
-2
30
0
39
0
210
0
220
0
230
1
50
360
0
POINT
5
7B
100
AcDbEntity
8
1
62
256
6
ByLayer
370
18
48
1
60
1
100
AcDbPoint
10
0
20
0
30
0
39
0
210
0
220
0
230
1
50
360
0
POINT
5
7C
100
AcDbEntity
8
1
62
256
6
ByLayer
370
18
48
1
60
1
100
AcDbPoint
10
60
20
2
30
0
39
0
210
0
220
0
230
1
50
360
0
SPLINE
5
EE
100
AcDbEntity
8
SK1
62
256
6
ByLayer
370
18
48
1
60
0
100
AcDbSpline
70
4
71
2
72
6
73
3
40
0
40
0
40
0
40
1
40
1
40
1
41
1
10
-0.394913799811249
20
10.7561253011184
30
0
41
1
10
-0.944976888870315
20
10.7424218878285
30
0
41
1
10
-1.49503997793926
20
10.7287184519682
30
0
0
SPLINE
5
EF
100
AcDbEntity
8
SK1
62
256
6
ByLayer
370
18
48
1
60
0
100
AcDbSpline
70
4
71
2
72
6
73
3
40
0
40
0
40
0
40
1
40
1
40
1
41
1
10
-1.49503997793934
20
-10.7287185965104
30
0
41
1
10
-0.9449768888704
20
-10.742422032064
30
0
41
1
10
-0.394913799811334
20
-10.7561254450469
30
0
0
SPLINE
5
F0
100
AcDbEntity
8
SK1
62
256
6
ByLayer
370
18
48
1
60
0
100
AcDbSpline
70
4
71
2
72
6
73
3
40
0
40
0
40
0
40
1
40
1
40
1
41
1
10
-18
20
10.610149600804
30
0
41
1
10
-18.4999993598727
20
10.3216388688798
30
0
41
1
10
-19
20
10.0331225704843
30
0
0
SPLINE
5
F1
100
AcDbEntity
8
SK1
62
256
6
ByLayer
370
18
48
1
60
0
100
AcDbSpline
70
4
71
2
72
6
73
3
40
0
40
0
40
0
40
1
40
1
40
1
41
1
10
-19
20
-10.0331227046419
30
0
41
1
10
-18.499999359849
20
-10.3216390035827
30
0
41
1
10
-18
20
-10.6101497360691
30
0
0
SPLINE
5
F2
100
AcDbEntity
8
SK1
62
256
6
ByLayer
370
18
48
1
60
0
100
AcDbSpline
70
4
71
3
72
13
73
9
40
0
40
0
40
0
40
0
40
0.239503299986072
40
0.368422974046453
40
0.500068382752372
40
0.631702431366343
40
0.760590771380856
40
1
40
1
40
1
40
1
41
1
10
-1.49503997793926
20
10.8252677308309
30
0
41
1
10
-1.52110932222985
20
10.8248656203855
30
0
41
1
10
-1.55883875866951
20
10.8310353403565
30
0
41
1
10
-1.60627575626161
20
10.8540692579953
30
0
41
1
10
-1.63886251160174
20
10.8792258274844
30
0
41
1
10
-1.66563496160408
20
10.9104942540852
30
0
41
1
10
-1.69103211703243
20
10.9566935764512
30
0
41
1
10
-1.69909125944697
20
10.994051696625
30
0
41
1
10
-1.69999999999996
20
11.020099440279
30
0
0
SPLINE
5
F3
100
AcDbEntity
8
SK1
62
256
6
ByLayer
370
18
48
1
60
0
100
AcDbSpline
70
4
71
3
72
13
73
9
40
0
40
0
40
0
40
0
40
0.239409228197305
40
0.368297568070461
40
0.499931616633788
40
0.631577025391789
40
0.760496699593568
40
1
40
1
40
1
40
1
41
1
10
-1.70000000000005
20
-11.0200995388071
30
0
41
1
10
-1.69909125944083
20
-10.9940517952282
30
0
41
1
10
-1.69103211702642
20
-10.9566936751655
30
0
41
1
10
-1.66563496159549
20
-10.9104943529528
30
0
41
1
10
-1.63886251159012
20
-10.8792259264472
30
0
41
1
10
-1.60627575624902
20
-10.854069357026
30
0
41
1
10
-1.55883875865182
20
-10.8310354394285
30
0
41
1
10
-1.52110932222064
20
-10.8248657194289
30
0
41
1
10
-1.49503997793934
20
-10.825267829839
30
0
0
SPLINE
5
F4
100
AcDbEntity
8
SK1
62
256
6
ByLayer
370
18
48
1
60
0
100
AcDbSpline
70
4
71
2
72
6
73
3
40
0
40
0
40
0
40
1
40
1
40
1
41
1
10
-1.69999999999996
20
11.0168487405457
30
0
41
1
10
-9.84999999929852
20
10.8122283432519
30
0
41
1
10
-18
20
10.6076073812181
30
0
0
SPLINE
5
F5
100
AcDbEntity
8
SK1
62
256
6
ByLayer
370
18
48
1
60
0
100
AcDbSpline
70
4
71
2
72
6
73
3
40
0
40
0
40
0
40
1
40
1
40
1
41
1
10
-18
20
-10.6076075596898
30
0
41
1
10
-9.84999999929853
20
-10.8122285220589
30
0
41
1
10
-1.70000000000005
20
-11.0168489196732
30
0
0
SPLINE
5
F6
100
AcDbEntity
8
1
62
256
6
ByLayer
370
18
48
1
60
0
100
AcDbSpline
70
4
71
3
72
10
73
6
40
0
40
0
40
0
40
0
40
0.5
40
0.5
40
1
40
1
40
1
40
1
41
1
10
53.4801404940493
20
-0.250000000000199
30
0
41
1
10
53.4430772328393
20
-0.404279663337348
30
0
41
1
10
53.4059481831248
20
-0.558524907664008
30
0
41
1
10
53.3314476410639
20
-0.866888555989192
30
0
41
1
10
53.2940821738264
20
-1.02101011218414
30
0
41
1
10
53.2564650356196
20
-1.17500000000021
30
0
0
SPLINE
5
F7
100
AcDbEntity
8
1
62
256
6
ByLayer
370
18
48
1
60
0
100
AcDbSpline
70
4
71
3
72
8
73
4
40
0
40
0
40
0
40
0
40
1
40
1
40
1
40
1
41
1
10
53.5857112745855
20
-0.187898990899669
30
0
41
1
10
53.5505281081462
20
-0.208625391574372
30
0
41
1
10
53.5153390373538
20
-0.229330098066782
30
0
41
1
10
53.4801404940493
20
-0.250000000000199
30
0
0
SPLINE
5
F8
100
AcDbEntity
8
1
62
256
6
ByLayer
370
18
48
1
60
0
100
AcDbSpline
70
4
71
3
72
20
73
16
40
0
40
0
40
0
40
0
40
0.25
40
0.25
40
0.375
40
0.375
40
0.5
40
0.5
40
0.625
40
0.625
40
0.75
40
0.75
40
0.875
40
0.875
40
1
40
1
40
1
40
1
41
1
10
53.65
20
-0.0488189610526035
30
0
41
1
10
53.65
20
-0.0638217794996763
30
0
41
1
10
53.6484924087302
20
-0.0784495004903931
30
0
41
1
10
53.6440099431632
20
-0.0998384647166972
30
0
41
1
10
53.6421399009512
20
-0.106836367655205
30
0
41
1
10
53.63776894528
20
-0.120185803774433
30
0
41
1
10
53.635256939605
20
-0.12659522216606
30
0
41
1
10
53.6295762389825
20
-0.138880507365314
30
0
41
1
10
53.6263814444356
20
-0.14478817502598
30
0
41
1
10
53.619521489196
20
-0.155697212315431
30
0
41
1
10
53.615841911272
20
-0.160741874023756
30
0
41
1
10
53.6079897195557
20
-0.170021606397796
30
0
41
1
10
53.6037906872316
20
-0.174278298875151
30
0
41
1
10
53.5950065746481
20
-0.181828317364079
30
0
41
1
10
53.5904443117283
20
-0.185110759152281
30
0
41
1
10
53.5857112746068
20
-0.18789899096106
30
0
0
SPLINE
5
F9
100
AcDbEntity
8
1
62
256
6
ByLayer
370
18
48
1
60
0
100
AcDbSpline
70
4
71
3
72
20
73
16
40
0
40
0
40
0
40
0
40
0.249999999999998
40
0.249999999999998
40
0.374999999999999
40
0.374999999999999
40
0.499999999999999
40
0.499999999999999
40
0.624999999999999
40
0.624999999999999
40
0.749999999999999
40
0.749999999999999
40
0.875
40
0.875
40
1
40
1
40
1
40
1
41
1
10
53.5857112745856
20
0.187898990899242
30
0
41
1
10
53.5951757497497
20
0.182323469299547
30
0
41
1
10
53.6038635176323
20
0.174865455521342
30
0
41
1
10
53.6157398564133
20
0.160878322355671
30
0
41
1
10
53.6194823456993
20
0.155752117849829
30
0
41
1
10
53.6263277800807
20
0.144880758177635
30
0
41
1
10
53.6294637329827
20
0.139098877933236
30
0
41
1
10
53.6351566529456
20
0.126836128266376
30
0
41
1
10
53.6377270889565
20
0.120301530375997
30
0
41
1
10
53.6421198354106
20
0.10690958843648
30
0
41
1
10
53.6439617592401
20
0.100024636762185
30
0
41
1
10
53.6469439324268
20
0.0858806237746137
30
0
41
1
10
53.6480878716445
20
0.0785828372019637
30
0
41
1
10
53.6496166133107
20
0.0637754610120851
30
0
41
1
10
53.6500000000058
20
0.0563221692640354
30
0
41
1
10
53.6500000000058
20
0.048818961052973
30
0
0
SPLINE
5
FA
100
AcDbEntity
8
1
62
256
6
ByLayer
370
18
48
1
60
0
100
AcDbSpline
70
4
71
3
72
8
73
4
40
0
40
0
40
0
40
0
40
1
40
1
40
1
40
1
41
1
10
53.4801404940493
20
0.249999999999801
30
0
41
1
10
53.5153390563553
20
0.229330086907964
30
0
41
1
10
53.5505281244122
20
0.208625381991681
30
0
41
1
10
53.5857112745856
20
0.187898990899242
30
0
0
SPLINE
5
FB
100
AcDbEntity
8
1
62
256
6
ByLayer
370
18
48
1
60
0
100
AcDbSpline
70
4
71
3
72
10
73
6
40
0
40
0
40
0
40
0
40
0.5
40
0.5
40
1
40
1
40
1
40
1
41
1
10
53.2564650356196
20
1.17499999999981
30
0
41
1
10
53.2940821738263
20
1.02101011218374
30
0
41
1
10
53.3314476410639
20
0.866888555988794
30
0
41
1
10
53.4059481831248
20
0.558524907663582
30
0
41
1
10
53.4430772328393
20
0.40427966333695
30
0
41
1
10
53.4801404940493
20
0.249999999999801
30
0
0
SPLINE
5
FC
100
AcDbEntity
8
1
62
256
6
ByLayer
370
18
48
1
60
0
100
AcDbSpline
70
4
71
3
72
8
73
4
40
0
40
0
40
0
40
0
40
1
40
1
40
1
40
1
41
1
10
16.6098313526223
20
-14.2493425733816
30
0
41
1
10
16.5496309295304
20
-14.2716556591215
30
0
41
1
10
16.4923819392695
20
-14.2945261742016
30
0
41
1
10
16.4383186059721
20
-14.3174531607124
30
0
0
SPLINE
5
FD
100
AcDbEntity
8
1
62
256
6
ByLayer
370
18
48
1
60
0
100
AcDbSpline
70
4
71
3
72
8
73
4
40
0
40
0
40
0
40
0
40
1
40
1
40
1
40
1
41
1
10
16.4383186059722
20
14.3174531607123
30
0
41
1
10
16.4924331809291
20
14.2945044438204
30
0
41
1
10
16.5496857682236
20
14.271635333343
30
0
41
1
10
16.6098313526224
20
14.2493425733814
30
0
0
SPLINE
5
FE
100
AcDbEntity
8
1
62
256
6
ByLayer
370
18
48
1
60
0
100
AcDbSpline
70
4
71
3
72
21
73
17
40
0
40
0
40
0
40
0
40
0.125
40
0.125
40
0.25
40
0.375
40
0.375
40
0.5
40
0.5
40
0.625
40
0.625
40
0.75
40
0.75
40
0.875
40
0.875
40
1
40
1
40
1
40
1
41
1
10
15.2792076144251
20
-15.0678866333991
30
0
41
1
10
15.3340301041376
20
-15.0170152672823
30
0
41
1
10
15.3900984443013
20
-14.9678658670874
30
0
41
1
10
15.5034795581733
20
-14.8738507370962
30
0
41
1
10
15.6181038884624
20
-14.7841205308877
30
0
41
1
10
15.7323291936653
20
-14.7042118706658
30
0
41
1
10
15.8447469840117
20
-14.6296239502934
30
0
41
1
10
15.9000521748532
20
-14.5949891209044
30
0
41
1
10
16.0070925283053
20
-14.5312538627969
30
0
41
1
10
16.0588304072635
20
-14.5021504575442
30
0
41
1
10
16.1567930139981
20
-14.4495523076411
30
0
41
1
10
16.202769953235
20
-14.426186424951
30
0
41
1
10
16.2866664333179
20
-14.3852154421764
30
0
41
1
10
16.3245962599432
20
-14.3676026967035
30
0
41
1
10
16.3900382302198
20
-14.3381273969404
30
0
41
1
10
16.4175762739613
20
-14.3262494952558
30
0
41
1
10
16.4383186059721
20
-14.3174531607124
30
0
0
SPLINE
5
FF
100
AcDbEntity
8
1
62
256
6
ByLayer
370
18
48
1
60
0
100
AcDbSpline
70
4
71
3
72
19
73
15
40
0
40
0
40
0
40
0
40
0.125
40
0.125
40
0.25
40
0.25
40
0.5
40
0.5
40
0.625
40
0.625
40
0.75
40
0.875
40
0.875
40
1
40
1
40
1
40
1
41
1
10
16.4383186059722
20
14.3174531607123
30
0
41
1
10
16.4175133061135
20
14.3262761984372
30
0
41
1
10
16.3899194749727
20
14.3381797427042
30
0
41
1
10
16.3245029443855
20
14.3676458721042
30
0
41
1
10
16.2866525973019
20
14.3852244520662
30
0
41
1
10
16.1613180557023
20
14.4464250331812
30
0
41
1
10
16.0620925965465
20
14.498567992365
30
0
41
1
10
15.9015354236232
20
14.5940751294538
30
0
41
1
10
15.8459923133135
20
14.6288239499015
30
0
41
1
10
15.7332200420314
20
14.7035950344028
30
0
41
1
10
15.6186752548963
20
14.7836857569633
30
0
41
1
10
15.5038177734129
20
14.8735777930099
30
0
41
1
10
15.3902413695476
20
14.967739883277
30
0
41
1
10
15.33409454554
20
15.0169554702506
30
0
41
1
10
15.2792076144253
20
15.0678866333992
30
0
0
SPLINE
5
100
100
AcDbEntity
8
1
62
256
6
ByLayer
370
18
48
1
60
0
100
AcDbSpline
70
4
71
3
72
20
73
16
40
0
40
0
40
0
40
0
40
0.0625000000000005
40
0.0625000000000005
40
0.125000000000001
40
0.125000000000001
40
0.25
40
0.25
40
0.500000000000002
40
0.500000000000002
40
0.750000000000004
40
0.750000000000004
40
0.875000000000002
40
0.875000000000002
40
1
40
1
40
1
40
1
41
1
10
16.6098313526223
20
-14.2493425733816
30
0
41
1
10
16.6349881432351
20
-14.2400182929687
30
0
41
1
10
16.6604557941622
20
-14.2308665805356
30
0
41
1
10
16.7120311260796
20
-14.2129323226368
30
0
41
1
10
16.738164602137
20
-14.2041414392348
30
0
41
1
10
16.8173814888559
20
-14.178417003958
30
0
41
1
10
16.8710298660235
20
-14.1622106391611
30
0
41
1
10
17.0345171785345
20
-14.116619270819
30
0
41
1
10
17.1468910495159
20
-14.0902538437806
30
0
41
1
10
17.3787309209441
20
-14.0467817390286
30
0
41
1
10
17.4981946080173
20
-14.029668529424
30
0
41
1
10
17.6831469589817
20
-14.0120883523058
30
0
41
1
10
17.7458699602576
20
-14.0075805639815
30
0
41
1
10
17.8721382725472
20
-14.0015444970776
30
0
41
1
10
17.9358017090078
20
-14.0000000000001
30
0
41
1
10
17.9999999999999
20
-14.0000000000001
30
0
0
SPLINE
5
101
100
AcDbEntity
8
1
62
256
6
ByLayer
370
18
48
1
60
0
100
AcDbSpline
70
4
71
3
72
17
73
13
40
0
40
0
40
0
40
0
40
0.25
40
0.25
40
0.500000000000001
40
0.500000000000001
40
0.625000000000002
40
0.687500000000002
40
0.687500000000002
40
0.750000000000003
40
0.750000000000003
40
1
40
1
40
1
40
1
41
1
10
18.0000000000001
20
13.9999999999999
30
0
41
1
10
17.8711256767731
20
13.9999999999999
30
0
41
1
10
17.7456406792261
20
14.0062041257305
30
0
41
1
10
17.5009352792554
20
14.0293528797052
30
0
41
1
10
17.3817169778132
20
14.0463048012746
30
0
41
1
10
17.2073795276442
20
14.0788716302842
30
0
41
1
10
17.1213357138534
20
14.0969438007799
30
0
41
1
10
17.0369599606748
20
14.1175541738835
30
0
41
1
10
16.9810793135888
20
14.1318438055222
30
0
41
1
10
16.9532948298037
20
14.1392713999108
30
0
41
1
10
16.8156259676067
20
14.1776537648729
30
0
41
1
10
16.7104772666798
20
14.2120385015096
30
0
41
1
10
16.6098313526224
20
14.2493425733815
30
0
0
SPLINE
5
102
100
AcDbEntity
8
1
62
256
6
ByLayer
370
18
48
1
60
0
100
AcDbSpline
70
4
71
3
72
8
73
4
40
0
40
0
40
0
40
0
40
1
40
1
40
1
40
1
41
1
10
16.6098313526224
20
14.2493425733814
30
0
41
1
10
16.5513605122251
20
13.9492049276787
30
0
41
1
10
16.494146010503
20
13.6490334516007
30
0
41
1
10
16.4383186059722
20
13.3487852302097
30
0
0
SPLINE
5
103
100
AcDbEntity
8
1
62
256
6
ByLayer
370
18
48
1
60
0
100
AcDbSpline
70
4
71
3
72
28
73
24
40
0
40
0
40
0
40
0
40
0.125
40
0.125
40
0.249999999999999
40
0.249999999999999
40
0.374999999999999
40
0.374999999999999
40
0.499999999999998
40
0.499999999999998
40
0.624999999999998
40
0.624999999999998
40
0.687499999999998
40
0.687499999999998
40
0.718749999999998
40
0.718749999999998
40
0.749999999999997
40
0.749999999999997
40
0.874999999999998
40
0.874999999999998
40
0.937499999999999
40
0.937499999999999
40
1
40
1
40
1
40
1
41
1
10
15.2792076144253
20
10.5931691361124
30
0
41
1
10
15.3142327312189
20
10.6985110986708
30
0
41
1
10
15.3529901653961
20
10.8026044747274
30
0
41
1
10
15.4374203404074
20
11.0098472029328
30
0
41
1
10
15.4830952102358
20
11.1129986492451
30
0
41
1
10
15.5802693092
20
11.3202210980147
30
0
41
1
10
15.6317701399246
20
11.4242937208529
30
0
41
1
10
15.7389039336498
20
11.6354691267732
30
0
41
1
10
15.794539267995
20
11.7425714404376
30
0
41
1
10
15.9075951103828
20
11.9621394814488
30
0
41
1
10
15.9650217056729
20
12.0745995806664
30
0
41
1
10
16.0501648617545
20
12.2492866471614
30
0
41
1
10
16.0783733678415
20
12.308517881192
30
0
41
1
10
16.1200625462841
20
12.3991551871225
30
0
41
1
10
16.1338696824528
20
12.4297020302155
30
0
41
1
10
16.1610674042812
20
12.4911282060872
30
0
41
1
10
16.1744709454922
20
12.5220344699661
30
0
41
1
10
16.2403368079057
20
12.6776032837818
30
0
41
1
10
16.2893978794333
20
12.8053491154405
30
0
41
1
10
16.3536446871501
20
13.0035490430508
30
0
41
1
10
16.3734940717258
20
13.0707170941804
30
0
41
1
10
16.4091929096494
20
13.2076565098858
30
0
41
1
10
16.4250497437115
20
13.2774232830239
30
0
41
1
10
16.4383186059722
20
13.3487852302097
30
0
0
SPLINE
5
104
100
AcDbEntity
8
1
62
256
6
ByLayer
370
18
48
1
60
0
100
AcDbSpline
70
4
71
3
72
27
73
23
40
0
40
0
40
0
40
0
40
0.0625000000000015
40
0.0625000000000015
40
0.125000000000003
40
0.125000000000003
40
0.250000000000006
40
0.250000000000006
40
0.281250000000006
40
0.281250000000006
40
0.312500000000006
40
0.375000000000006
40
0.375000000000006
40
0.500000000000004
40
0.500000000000004
40
0.625000000000003
40
0.625000000000003
40
0.750000000000002
40
0.750000000000002
40
0.875000000000001
40
0.875000000000001
40
1
40
1
40
1
40
1
41
1
10
16.4383186059721
20
-13.3487852302099
30
0
41
1
10
16.425118333479
20
-13.2777921691632
30
0
41
1
10
16.4093409004595
20
-13.2082987140648
30
0
41
1
10
16.3737867952433
20
-13.0717663712057
30
0
41
1
10
16.3540031780785
20
-13.0047315761923
30
0
41
1
10
16.2899068120155
20
-12.8067681422281
30
0
41
1
10
16.24088110212
20
-12.6789643230511
30
0
41
1
10
16.1749502039226
20
-12.5231480028989
30
0
41
1
10
16.161548380191
20
-12.4922318153879
30
0
41
1
10
16.1344838987675
20
-12.4310726041777
30
0
41
1
10
16.0934513023517
20
-12.3402408317431
30
0
41
1
10
16.051417578931
20
-12.251902905749
30
0
41
1
10
15.9667292565016
20
-12.078014138619
30
0
41
1
10
15.9094653778653
20
-11.9657952790501
30
0
41
1
10
15.7964529966446
20
-11.7462653875312
30
0
41
1
10
15.740699727454
20
-11.6389593460622
30
0
41
1
10
15.6331268983588
20
-11.4270161803792
30
0
41
1
10
15.581295748191
20
-11.3223566734638
30
0
41
1
10
15.4834178910741
20
-11.1137393235709
30
0
41
1
10
15.4375491476783
20
-11.0101582920126
30
0
41
1
10
15.3529335531446
20
-10.8024705915684
30
0
41
1
10
15.3141833123408
20
-10.69836246586
30
0
41
1
10
15.2792076144249
20
-10.5931691361126
30
0
0
SPLINE
5
105
100
AcDbEntity
8
1
62
256
6
ByLayer
370
18
48
1
60
0
100
AcDbSpline
70
4
71
3
72
8
73
4
40
0
40
0
40
0
40
0
40
1
40
1
40
1
40
1
41
1
10
16.4383186059721
20
-13.3487852302099
30
0
41
1
10
16.4941501635623
20
-13.6490557873819
30
0
41
1
10
16.5513648930696
20
-13.9492274150653
30
0
41
1
10
16.6098313526223
20
-14.2493425733816
30
0
0
SPLINE
5
106
100
AcDbEntity
8
1
62
256
6
ByLayer
370
18
48
1
60
0
100
AcDbSpline
70
4
71
3
72
27
73
23
40
0
40
0
40
0
40
0
40
0.124988188693592
40
0.124988188693592
40
0.249976377387183
40
0.249976377387183
40
0.374964566080774
40
0.374964566080774
40
0.499952754774365
40
0.499952754774365
40
0.531199801947763
40
0.531199801947763
40
0.56244684912116
40
0.56244684912116
40
0.624940943467955
40
0.624940943467955
40
0.749929132161546
40
0.749929132161546
40
0.874917320855137
40
0.874917320855137
40
0.999905509548728
40
1
40
1
40
1
40
1
41
1
10
15.2792076144252
20
-15.0678866333994
30
0
41
1
10
15.1992164026558
20
-15.1421127811241
30
0
41
1
10
15.1296775869366
20
-15.2126241583479
30
0
41
1
10
15.0063703627531
20
-15.3454950682741
30
0
41
1
10
14.9526352891433
20
-15.4078592013228
30
0
41
1
10
14.8576011364988
20
-15.523923469719
30
0
41
1
10
14.8163175274744
20
-15.5776260050209
30
0
41
1
10
14.7438484674699
20
-15.6759502899852
30
0
41
1
10
14.7126708025114
20
-15.7205735172711
30
0
41
1
10
14.6789734319407
20
-15.7704423239864
30
0
41
1
10
14.6724991038819
20
-15.7801206220179
30
0
41
1
10
14.6600599390034
20
-15.7988804995169
30
0
41
1
10
14.6540911402315
20
-15.8079682033005
30
0
41
1
10
14.6369568595174
20
-15.8342717581079
30
0
41
1
10
14.6265600217037
20
-15.8505309986973
30
0
41
1
10
14.5981803542384
20
-15.8955095161477
30
0
41
1
10
14.5829933993678
20
-15.9204313714009
30
0
41
1
10
14.5590670635282
20
-15.9602646454697
30
0
41
1
10
14.5503304362075
20
-15.9751760065125
30
0
41
1
10
14.5387424697863
20
-15.9950489747882
30
0
41
1
10
14.5358901819121
20
-16.0000143028844
30
0
41
1
10
14.5358981880026
20
-16.0000003806223
30
0
41
1
10
14.5358986865195
20
-15.9999995136269
30
0
0
SPLINE
5
107
100
AcDbEntity
8
1
62
256
6
ByLayer
370
18
48
1
60
0
100
AcDbSpline
70
4
71
3
72
14
73
10
40
0
40
0
40
0
40
0
40
0.25
40
0.25
40
0.5
40
0.5
40
0.75
40
0.75
40
1
40
1
40
1
40
1
41
1
10
15.0229944775422
20
-8.79626433019595
30
0
41
1
10
15.0239122758634
20
-8.95605911594734
30
0
41
1
10
15.0289922648566
20
-9.11337010124211
30
0
41
1
10
15.0487491006491
20
-9.42299515171896
30
0
41
1
10
15.0634227342069
20
-9.5753093882139
30
0
41
1
10
15.1038677469374
20
-9.87488717740362
30
0
41
1
10
15.1296341737683
20
-10.0221510065435
30
0
41
1
10
15.1941175000709
20
-10.3115430465113
30
0
41
1
10
15.2328261660205
20
-10.4536717340042
30
0
41
1
10
15.2792076144252
20
-10.5931691361126
30
0
0
SPLINE
5
108
100
AcDbEntity
8
1
62
256
6
ByLayer
370
18
48
1
60
0
100
AcDbSpline
70
4
71
3
72
14
73
10
40
0
40
0
40
0
40
0
40
0.25
40
0.25
40
0.5
40
0.5
40
0.75
40
0.75
40
1
40
1
40
1
40
1
41
1
10
15.2792076144253
20
10.5931691361124
30
0
41
1
10
15.2328261660205
20
10.4536717340041
30
0
41
1
10
15.1941175000709
20
10.3115430465112
30
0
41
1
10
15.1296341737684
20
10.0221510065434
30
0
41
1
10
15.1038677469375
20
9.87488717740351
30
0
41
1
10
15.063422734207
20
9.57530938821378
30
0
41
1
10
15.0487491006492
20
9.42299515171885
30
0
41
1
10
15.0289922648567
20
9.113370101242
30
0
41
1
10
15.0239122758634
20
8.95605911594723
30
0
41
1
10
15.0229944775423
20
8.79626433019584
30
0
0
SPLINE
5
109
100
AcDbEntity
8
1
62
256
6
ByLayer
370
18
48
1
60
0
100
AcDbSpline
70
4
71
3
72
23
73
19
40
0
40
0
40
0
40
0
40
7.3736617837E-06
40
0.125006451954061
40
0.125006451954061
40
0.250005530246338
40
0.250005530246338
40
0.375004608538615
40
0.375004608538615
40
0.500003686830892
40
0.500003686830892
40
0.625002765123169
40
0.625002765123169
40
0.750001843415446
40
0.750001843415446
40
0.875000921707723
40
0.875000921707723
40
1
40
1
40
1
40
1
41
1
10
14.535898172258
20
16.0000004077682
30
0
41
1
10
14.535898670994
20
15.9999995408989
30
0
41
1
10
14.5359043395825
20
15.9999896876014
30
0
41
1
10
14.5387668134471
20
15.9950066582174
30
0
41
1
10
14.5504063285096
20
15.9750464267294
30
0
41
1
10
14.5591821353049
20
15.960069027661
30
0
41
1
10
14.5832482044847
20
15.9200112698009
30
0
41
1
10
14.5985368799625
20
15.8949286570338
30
0
41
1
10
14.6366849965329
20
15.8345003109199
30
0
41
1
10
14.6593844659983
20
15.7994101513903
30
0
41
1
10
14.713198409927
20
15.7198151094021
30
0
41
1
10
14.7443087452085
20
15.675309216005
30
0
41
1
10
14.8166277087788
20
15.5772219162287
30
0
41
1
10
14.8578282380769
20
15.5236391046041
30
0
41
1
10
14.9527091972206
20
15.4077759685997
30
0
41
1
10
15.0063735475102
20
15.3454933341253
30
0
41
1
10
15.1296050461759
20
15.2127006286943
30
0
41
1
10
15.1991374082276
20
15.1421860823276
30
0
41
1
10
15.2792076144253
20
15.0678866333992
30
0
0
SPLINE
5
10A
100
AcDbEntity
8
1
62
256
6
ByLayer
370
18
48
1
60
0
100
AcDbSpline
70
4
71
3
72
24
73
20
40
0
40
0
40
0
40
0
40
0.0624999999999987
40
0.0624999999999987
40
0.124999999999997
40
0.124999999999997
40
0.249999999999997
40
0.249999999999997
40
0.374999999999996
40
0.374999999999996
40
0.437499999999997
40
0.437499999999997
40
0.499999999999998
40
0.499999999999998
40
0.624999999999997
40
0.624999999999997
40
0.749999999999995
40
0.749999999999995
40
1
40
1
40
1
40
1
41
1
10
7.07679491924333
20
15.2769622091385
30
0
41
1
10
7.08626323279285
20
15.2769622091385
30
0
41
1
10
7.09555909908863
20
15.2766767665957
30
0
41
1
10
7.11383636157854
20
15.2755844637371
30
0
41
1
10
7.12288968289408
20
15.2747681865974
30
0
41
1
10
7.14908346306856
20
15.2716451329302
30
0
41
1
10
7.16496872151987
20
15.268738812049
30
0
41
1
10
7.19453158276966
20
15.2617474805529
30
0
41
1
10
7.20768429079331
20
15.2577843892055
30
0
41
1
10
7.22573832045626
20
15.2513732657937
30
0
41
1
10
7.23147393078446
20
15.2491554094552
30
0
41
1
10
7.24245955537381
20
15.24457767362
30
0
41
1
10
7.24772142874497
20
15.2422111791404
30
0
41
1
10
7.26269940300651
20
15.2350027269099
30
0
41
1
10
7.27167180250154
20
15.2300336355428
30
0
41
1
10
7.2880997359126
20
15.2198327834235
30
0
41
1
10
7.29554986762543
20
15.214600303678
30
0
41
1
10
7.31604838234094
20
15.198560277361
30
0
41
1
10
7.32728622413833
20
15.1873822623296
30
0
41
1
10
7.33660254037869
20
15.1759383782003
30
0
0
SPLINE
5
10B
100
AcDbEntity
8
1
62
256
6
ByLayer
370
18
48
1
60
0
100
AcDbSpline
70
4
71
3
72
26
73
22
40
0
40
0
40
0
40
0
40
0.25
40
0.25
40
0.375
40
0.375
40
0.5
40
0.5
40
0.625
40
0.625
40
0.6875
40
0.6875
40
0.75
40
0.75
40
0.8125
40
0.8125
40
0.875
40
0.875
40
0.9375
40
0.9375
40
1
40
1
40
1
40
1
41
1
10
7.33660254037861
20
5.06861858311177
30
0
41
1
10
7.32728982767759
20
5.03436773122374
30
0
41
1
10
7.31614231629351
20
5.00076260618599
30
0
41
1
10
7.29568810990142
20
4.95169735098639
30
0
41
1
10
7.28824166023679
20
4.9355683494027
30
0
41
1
10
7.27177247547107
20
4.90388358540409
30
0
41
1
10
7.262705116966
20
4.88825374454376
30
0
41
1
10
7.24272264769482
20
4.85817905892637
30
0
41
1
10
7.23183787729366
20
4.84374619181
30
0
41
1
10
7.2136568799915
20
4.82335822863095
30
0
41
1
10
7.20728028574973
20
4.81677720791063
30
0
41
1
10
7.19399447938267
20
4.80434108428395
30
0
41
1
10
7.18706371265947
20
4.79845918233448
30
0
41
1
10
7.17251656377684
20
4.78749730730041
30
0
41
1
10
7.16490128977483
20
4.78241603395361
30
0
41
1
10
7.148819916848
20
4.77324997167185
30
0
41
1
10
7.1403600578945
20
4.76918729638876
30
0
41
1
10
7.12304490820171
20
4.7625608299542
30
0
41
1
10
7.1141240724597
20
4.75995494840853
30
0
41
1
10
7.09567030488515
20
4.75638866313562
30
0
41
1
10
7.08624924967637
20
4.75546271781749
30
0
41
1
10
7.0767949192433
20
4.75546271781749
30
0
0
SPLINE
5
10C
100
AcDbEntity
8
1
62
256
6
ByLayer
370
18
48
1
60
0
100
AcDbSpline
70
4
71
3
72
24
73
20
40
0
40
0
40
0
40
0
40
0.0624999999999981
40
0.0624999999999981
40
0.124999999999996
40
0.124999999999996
40
0.250000000000001
40
0.250000000000001
40
0.375000000000006
40
0.375000000000006
40
0.437500000000009
40
0.437500000000009
40
0.500000000000012
40
0.500000000000012
40
0.62500000000001
40
0.62500000000001
40
0.750000000000009
40
0.750000000000009
40
1
40
1
40
1
40
1
41
1
10
4.9232050807569
20
4.75546271781755
30
0
41
1
10
4.91373676720738
20
4.75546271781755
30
0
41
1
10
4.9044409009116
20
4.75637996187979
30
0
41
1
10
4.88616363842166
20
4.759886833114
30
0
41
1
10
4.87711031710612
20
4.76250659424693
30
0
41
1
10
4.85091653693163
20
4.77251545749058
30
0
41
1
10
4.83503127848033
20
4.78181464126985
30
0
41
1
10
4.80546841723054
20
4.8040815994184
30
0
41
1
10
4.79231570920689
20
4.81666025178743
30
0
41
1
10
4.77426167954394
20
4.83690641005072
30
0
41
1
10
4.76852606921574
20
4.84389474378378
30
0
41
1
10
4.75754044462639
20
4.85828246847987
30
0
41
1
10
4.75227857125523
20
4.86570247833646
30
0
41
1
10
4.73730059699369
20
4.88824517182357
30
0
41
1
10
4.72832819749866
20
4.9037078458343
30
0
41
1
10
4.7119002640876
20
4.93527762356774
30
0
41
1
10
4.70445013237477
20
4.95138709271157
30
0
41
1
10
4.68395161765926
20
5.00049514204591
30
0
41
1
10
4.67271377586189
20
5.03435447791105
30
0
41
1
10
4.66339745962151
20
5.06861858311169
30
0
0
SPLINE
5
10D
100
AcDbEntity
8
1
62
256
6
ByLayer
370
18
48
1
60
0
100
AcDbSpline
70
4
71
3
72
26
73
22
40
0
40
0
40
0
40
0
40
0.249999999999998
40
0.249999999999998
40
0.374999999999998
40
0.374999999999998
40
0.499999999999998
40
0.499999999999998
40
0.624999999999998
40
0.624999999999998
40
0.687499999999999
40
0.687499999999999
40
0.749999999999999
40
0.749999999999999
40
0.812499999999999
40
0.812499999999999
40
0.874999999999999
40
0.874999999999999
40
0.9375
40
0.9375
40
1
40
1
40
1
40
1
41
1
10
4.66339745962159
20
15.1759383782003
30
0
41
1
10
4.67271017232261
20
15.1873778358497
30
0
41
1
10
4.68385768370669
20
15.198472208594
30
0
41
1
10
4.70431189009878
20
15.214499313942
30
0
41
1
10
4.71175833976341
20
15.2197385738514
30
0
41
1
10
4.72822752452916
20
15.22997711649
30
0
41
1
10
4.73729488303422
20
15.2349999859553
30
0
41
1
10
4.75727735230541
20
15.2446169343317
30
0
41
1
10
4.76816212270657
20
15.249207392375
30
0
41
1
10
4.7863431200087
20
15.2556634144465
30
0
41
1
10
4.79271971425047
20
15.2577422915747
30
0
41
1
10
4.80600552061753
20
15.2616627289629
30
0
41
1
10
4.81293628734073
20
15.263512783028
30
0
41
1
10
4.82748343622339
20
15.2669545926744
30
0
41
1
10
4.83509871022537
20
15.2685467526768
30
0
41
1
10
4.8511800831522
20
15.271414727144
30
0
41
1
10
4.8596399421057
20
15.2726836076142
30
0
41
1
10
4.87695509179849
20
15.2747512708819
30
0
41
1
10
4.8858759275405
20
15.2755632425517
30
0
41
1
10
4.90432969511508
20
15.276674061237
30
0
41
1
10
4.91375075032386
20
15.2769622091386
30
0
41
1
10
4.9232050807569
20
15.2769622091386
30
0
0
SPLINE
5
10E
100
AcDbEntity
8
1
62
256
6
ByLayer
370
18
48
1
60
0
100
AcDbSpline
70
4
71
3
72
24
73
20
40
0
40
0
40
0
40
0
40
0.062499999999999
40
0.062499999999999
40
0.124999999999998
40
0.124999999999998
40
0.25
40
0.25
40
0.375000000000002
40
0.375000000000002
40
0.437500000000002
40
0.437500000000002
40
0.500000000000001
40
0.500000000000001
40
0.625000000000002
40
0.625000000000002
40
0.750000000000003
40
0.750000000000003
40
1
40
1
40
1
40
1
41
1
10
4.92320508075682
20
-15.2769622091386
30
0
41
1
10
4.9137367672073
20
-15.2769622091386
30
0
41
1
10
4.90444090091151
20
-15.2766767665958
30
0
41
1
10
4.88616363842158
20
-15.2755844637371
30
0
41
1
10
4.87711031710603
20
-15.2747681865974
30
0
41
1
10
4.85091653693155
20
-15.2716451329302
30
0
41
1
10
4.83503127848024
20
-15.2687388120491
30
0
41
1
10
4.80546841723046
20
-15.261747480553
30
0
41
1
10
4.7923157092068
20
-15.2577843892056
30
0
41
1
10
4.77426167954386
20
-15.2513732657938
30
0
41
1
10
4.76852606921565
20
-15.2491554094553
30
0
41
1
10
4.7575404446263
20
-15.2445776736201
30
0
41
1
10
4.75227857125515
20
-15.2422111791405
30
0
41
1
10
4.73730059699361
20
-15.2350027269099
30
0
41
1
10
4.7283281974986
20
-15.2300336355428
30
0
41
1
10
4.71190026408752
20
-15.2198327834236
30
0
41
1
10
4.70445013237469
20
-15.2146003036781
30
0
41
1
10
4.68395161765918
20
-15.1985602773611
30
0
41
1
10
4.67271377586181
20
-15.1873822623297
30
0
41
1
10
4.66339745962142
20
-15.1759383782004
30
0
0
SPLINE
5
10F
100
AcDbEntity
8
1
62
256
6
ByLayer
370
18
48
1
60
0
100
AcDbSpline
70
4
71
3
72
26
73
22
40
0
40
0
40
0
40
0
40
0.250000000000003
40
0.250000000000003
40
0.375000000000005
40
0.375000000000005
40
0.500000000000006
40
0.500000000000006
40
0.625000000000008
40
0.625000000000008
40
0.687500000000007
40
0.687500000000007
40
0.750000000000005
40
0.750000000000005
40
0.812500000000004
40
0.812500000000004
40
0.875000000000003
40
0.875000000000003
40
0.937500000000001
40
0.937500000000001
40
1
40
1
40
1
40
1
41
1
10
4.66339745962151
20
-5.06861858311174
30
0
41
1
10
4.67271017232252
20
-5.03436773122371
30
0
41
1
10
4.68385768370663
20
-5.00076260618602
30
0
41
1
10
4.70431189009872
20
-4.95169735098639
30
0
41
1
10
4.71175833976335
20
-4.9355683494027
30
0
41
1
10
4.72822752452907
20
-4.90388358540409
30
0
41
1
10
4.73729488303414
20
-4.88825374454376
30
0
41
1
10
4.75727735230532
20
-4.85817905892637
30
0
41
1
10
4.76816212270649
20
-4.84374619181
30
0
41
1
10
4.78634312000861
20
-4.82335822863095
30
0
41
1
10
4.79271971425041
20
-4.81677720791063
30
0
41
1
10
4.80600552061745
20
-4.80434108428395
30
0
41
1
10
4.81293628734068
20
-4.79845918233448
30
0
41
1
10
4.8274834362233
20
-4.78749730730041
30
0
41
1
10
4.83509871022528
20
-4.78241603395361
30
0
41
1
10
4.85118008315212
20
-4.77324997167182
30
0
41
1
10
4.85963994210562
20
-4.76918729638876
30
0
41
1
10
4.87695509179844
20
-4.7625608299542
30
0
41
1
10
4.88587592754044
20
-4.75995494840853
30
0
41
1
10
4.904329695115
20
-4.75638866313562
30
0
41
1
10
4.91375075032377
20
-4.75546271781749
30
0
41
1
10
4.92320508075684
20
-4.75546271781749
30
0
0
SPLINE
5
110
100
AcDbEntity
8
1
62
256
6
ByLayer
370
18
48
1
60
0
100
AcDbSpline
70
4
71
3
72
24
73
20
40
0
40
0
40
0
40
0
40
0.0624999999999998
40
0.0624999999999998
40
0.125
40
0.125
40
0.250000000000001
40
0.250000000000001
40
0.375000000000001
40
0.375000000000001
40
0.4375
40
0.4375
40
0.499999999999999
40
0.499999999999999
40
0.625
40
0.625
40
0.750000000000002
40
0.750000000000002
40
1
40
1
40
1
40
1
41
1
10
7.07679491924324
20
-4.75546271781761
30
0
41
1
10
7.08626323279276
20
-4.75546271781761
30
0
41
1
10
7.09555909908855
20
-4.75637996187982
30
0
41
1
10
7.11383636157848
20
-4.75988683311405
30
0
41
1
10
7.12288968289403
20
-4.76250659424699
30
0
41
1
10
7.14908346306851
20
-4.77251545749064
30
0
41
1
10
7.16496872151981
20
-4.78181464126993
30
0
41
1
10
7.1945315827696
20
-4.80408159941848
30
0
41
1
10
7.20768429079325
20
-4.81666025178748
30
0
41
1
10
7.22573832045623
20
-4.8369064100508
30
0
41
1
10
7.23147393078443
20
-4.84389474378386
30
0
41
1
10
7.24245955537376
20
-4.85828246847996
30
0
41
1
10
7.24772142874494
20
-4.86570247833654
30
0
41
1
10
7.26269940300648
20
-4.88824517182366
30
0
41
1
10
7.27167180250149
20
-4.90370784583442
30
0
41
1
10
7.28809973591257
20
-4.93527762356786
30
0
41
1
10
7.2955498676254
20
-4.95138709271168
30
0
41
1
10
7.31604838234088
20
-5.00049514204605
30
0
41
1
10
7.32728622413836
20
-5.03435447791151
30
0
41
1
10
7.33660254037872
20
-5.06861858311217
30
0
0
SPLINE
5
111
100
AcDbEntity
8
1
62
256
6
ByLayer
370
18
48
1
60
0
100
AcDbSpline
70
4
71
3
72
26
73
22
40
0
40
0
40
0
40
0
40
0.249999999999998
40
0.249999999999998
40
0.374999999999999
40
0.374999999999999
40
0.500000000000001
40
0.500000000000001
40
0.625000000000002
40
0.625000000000002
40
0.687500000000002
40
0.687500000000002
40
0.750000000000001
40
0.750000000000001
40
0.812500000000001
40
0.812500000000001
40
0.875000000000001
40
0.875000000000001
40
0.9375
40
0.9375
40
1
40
1
40
1
40
1
41
1
10
7.33660254037864
20
-15.1759383782002
30
0
41
1
10
7.32728982767765
20
-15.1873778358496
30
0
41
1
10
7.31614231629345
20
-15.198472208594
30
0
41
1
10
7.29568810990136
20
-15.214499313942
30
0
41
1
10
7.28824166023674
20
-15.2197385738514
30
0
41
1
10
7.27177247547101
20
-15.2299771164901
30
0
41
1
10
7.26270511696595
20
-15.2349999859553
30
0
41
1
10
7.24272264769476
20
-15.2446169343317
30
0
41
1
10
7.2318378772936
20
-15.249207392375
30
0
41
1
10
7.21365687999148
20
-15.2556634144466
30
0
41
1
10
7.20728028574968
20
-15.2577422915748
30
0
41
1
10
7.19399447938264
20
-15.261662728963
30
0
41
1
10
7.18706371265944
20
-15.263512783028
30
0
41
1
10
7.17251656377678
20
-15.2669545926744
30
0
41
1
10
7.16490128977478
20
-15.2685467526768
30
0
41
1
10
7.14881991684794
20
-15.271414727144
30
0
41
1
10
7.14036005789444
20
-15.2726836076142
30
0
41
1
10
7.12304490820165
20
-15.274751270882
30
0
41
1
10
7.11412407245965
20
-15.2755632425518
30
0
41
1
10
7.09567030488506
20
-15.276674061237
30
0
41
1
10
7.08624924967628
20
-15.2769622091386
30
0
41
1
10
7.07679491924321
20
-15.2769622091386
30
0
0
SPLINE
5
112
100
AcDbEntity
8
SK1
62
256
6
ByLayer
370
18
48
1
60
0
100
AcDbSpline
70
4
71
3
72
8
73
4
40
0
40
0
40
0
40
0
40
1
40
1
40
1
40
1
41
1
10
-0.394913799811249
20
10.7863826978029
30
0
41
1
10
-0.394913799811249
20
10.7772102101423
30
0
41
1
10
-0.394913799811249
20
10.767131757724
30
0
41
1
10
-0.394913799811249
20
10.7561716978029
30
0
0
SPLINE
5
113
100
AcDbEntity
8
SK1
62
256
6
ByLayer
370
13
48
1
60
0
100
AcDbSpline
70
4
71
3
72
17
73
13
40
0
40
0
40
0
40
0
40
0.0281908533087117
40
0.114664343609579
40
0.201137833910446
40
0.374084814512179
40
0.547031795113913
40
0.63350528541478
40
0.719978775715647
40
0.892925756317381
40
0.979399246618248
40
1
40
1
40
1
40
1
41
1
10
-0.394913799811249
20
10.7561711443508
30
0
41
1
10
-0.394913799811249
20
10.7416120995826
30
0
41
1
10
-0.394913799811249
20
10.6760666838352
30
0
41
1
10
-0.394913799811249
20
10.5176015241825
30
0
41
1
10
-0.394913799811249
20
10.1419122155822
30
0
41
1
10
-0.394913799811249
20
9.49397590704038
30
0
41
1
10
-0.394913799811263
20
8.63424142104822
30
0
41
1
10
-0.394913799811263
20
7.82801077124961
30
0
41
1
10
-0.394913799811263
20
6.94587050581816
30
0
41
1
10
-0.394913799811263
20
5.95443994194233
30
0
41
1
10
-0.394913799811278
20
5.06372374199364
30
0
41
1
10
-0.394913799811278
20
4.70990996410777
30
0
41
1
10
-0.394913799811278
20
4.64134914436013
30
0
0
SPLINE
5
114
100
AcDbEntity
8
SK1
62
256
6
ByLayer
370
13
48
1
60
0
100
AcDbSpline
70
4
71
3
72
17
73
13
40
0
40
0
40
0
40
0
40
0.0206008114849108
40
0.107074291439751
40
0.280021251349432
40
0.366494731304272
40
0.452968211259112
40
0.625915171168793
40
0.798862131078473
40
0.885335611033314
40
0.971809090988154
40
1
40
1
40
1
40
1
41
1
10
-0.394913799811306
20
-4.64134848730563
30
0
41
1
10
-0.394913799811306
20
-4.70990950240184
30
0
41
1
10
-0.394913799811306
20
-5.06372344169986
30
0
41
1
10
-0.39491379981132
20
-5.95443982150175
30
0
41
1
10
-0.39491379981132
20
-6.94587050303235
30
0
41
1
10
-0.39491379981132
20
-7.82801067908787
30
0
41
1
10
-0.39491379981132
20
-8.63424165383259
30
0
41
1
10
-0.39491379981132
20
-9.49397564760932
30
0
41
1
10
-0.394913799811334
20
-10.1419126962119
30
0
41
1
10
-0.394913799811334
20
-10.5176014399701
30
0
41
1
10
-0.394913799811334
20
-10.676066875307
30
0
41
1
10
-0.394913799811334
20
-10.7416124016333
30
0
41
1
10
-0.394913799811334
20
-10.7561714872868
30
0
0
SPLINE
5
115
100
AcDbEntity
8
SK1
62
256
6
ByLayer
370
18
48
1
60
0
100
AcDbSpline
70
4
71
3
72
8
73
4
40
0
40
0
40
0
40
0
40
1
40
1
40
1
40
1
41
1
10
-0.394913799811334
20
-10.7561718177129
30
0
41
1
10
-0.394913799811334
20
-10.7671318775979
30
0
41
1
10
-0.394913799811334
20
-10.7772103303574
30
0
41
1
10
-0.394913799811334
20
-10.7863828177394
30
0
0
SPLINE
5
116
100
AcDbEntity
8
SK1
62
256
6
ByLayer
370
18
48
1
60
0
100
AcDbSpline
70
4
71
3
72
36
73
32
40
0
40
0
40
0
40
0
40
0.250000000000009
40
0.250000000000009
40
0.375000000000013
40
0.375000000000013
40
0.500000000000016
40
0.500000000000016
40
0.625000000000019
40
0.625000000000019
40
0.687500000000018
40
0.687500000000018
40
0.750000000000018
40
0.750000000000018
40
0.812500000000017
40
0.812500000000017
40
0.843750000000014
40
0.843750000000014
40
0.875000000000011
40
0.875000000000011
40
0.906250000000009
40
0.906250000000009
40
0.921875000000008
40
0.921875000000008
40
0.937500000000006
40
0.937500000000006
40
0.953125000000005
40
0.953125000000005
40
0.968750000000004
40
0.968750000000004
40
1
40
1
40
1
40
1
41
1
10
-0.200000000000017
20
-5.33617165766907
30
0
41
1
10
-0.200315036908989
20
-5.27289521367564
30
0
41
1
10
-0.201789875664233
20
-5.20909745628526
30
0
41
1
10
-0.20662458717392
20
-5.11250115776275
30
0
41
1
10
-0.208678726715405
20
-5.08015186615313
30
0
41
1
10
-0.213963773164934
20
-5.01511877685402
30
0
41
1
10
-0.217192809775838
20
-4.98240206952661
30
0
41
1
10
-0.22531778962076
20
-4.91677347333891
30
0
41
1
10
-0.230191721451291
20
-4.88386769345621
30
0
41
1
10
-0.23952304101185
20
-4.83438451823684
30
0
41
1
10
-0.242981263754089
20
-4.81784570689231
30
0
41
1
10
-0.250820187075703
20
-4.78490372523328
30
0
41
1
10
-0.25519424913206
20
-4.76849148766289
30
0
41
1
10
-0.265341062182401
20
-4.73587605207916
30
0
41
1
10
-0.271083459937046
20
-4.71966709939039
30
0
41
1
10
-0.281609047729504
20
-4.69567298808659
30
0
41
1
10
-0.285461791842195
20
-4.6876968242268
30
0
41
1
10
-0.294043491658442
20
-4.6721963164303
30
0
41
1
10
-0.298764108881443
20
-4.66464732333566
30
0
41
1
10
-0.309721117058885
20
-4.65026872536157
30
0
41
1
10
-0.315847861838733
20
-4.64354733439694
30
0
41
1
10
-0.326745887820337
20
-4.63511696599338
30
0
41
1
10
-0.330584548634349
20
-4.63265939381191
30
0
41
1
10
-0.338813417399351
20
-4.62868790402121
30
0
41
1
10
-0.343173056238484
20
-4.6272155817847
30
0
41
1
10
-0.351980615732842
20
-4.62559605054793
30
0
41
1
10
-0.356492604281158
20
-4.62544479071906
30
0
41
1
10
-0.365142247836957
20
-4.62634244958329
30
0
41
1
10
-0.369383299461447
20
-4.62738999635829
30
0
41
1
10
-0.381287419818477
20
-4.63171844250411
30
0
41
1
10
-0.388425258622931
20
-4.63618835793983
30
0
41
1
10
-0.394913799811306
20
-4.64134848730546
30
0
0
SPLINE
5
117
100
AcDbEntity
8
SK1
62
256
6
ByLayer
370
18
48
1
60
0
100
AcDbSpline
70
4
71
3
72
38
73
34
40
0
40
0
40
0
40
0
40
0.0156250000000001
40
0.0156250000000001
40
0.0312500000000001
40
0.0312500000000001
40
0.0468750000000002
40
0.0468750000000002
40
0.0625000000000003
40
0.0625000000000003
40
0.0781250000000003
40
0.0781250000000003
40
0.0937500000000004
40
0.0937500000000004
40
0.125
40
0.125
40
0.15625
40
0.15625
40
0.1875
40
0.1875
40
0.25
40
0.25
40
0.3125
40
0.3125
40
0.375
40
0.375
40
0.5
40
0.5
40
0.625
40
0.625
40
0.75
40
0.75
40
1
40
1
40
1
40
1
41
1
10
-0.394913799811334
20
-10.7863828177394
30
0
41
1
10
-0.391653760520228
20
-10.7868073974503
30
0
41
1
10
-0.388248787569978
20
-10.7872931954185
30
0
41
1
10
-0.381044741115773
20
-10.7884335693737
30
0
41
1
10
-0.377204200362641
20
-10.7890960220832
30
0
41
1
10
-0.369217304814995
20
-10.7906171798376
30
0
41
1
10
-0.365072240206089
20
-10.7914740808883
30
0
41
1
10
-0.356374930614663
20
-10.7934464855686
30
0
41
1
10
-0.35183165931771
20
-10.7945648569913
30
0
41
1
10
-0.342969526903517
20
-10.7969321132109
30
0
41
1
10
-0.338551791726545
20
-10.7982071558628
30
0
41
1
10
-0.330303438066125
20
-10.8007493496092
30
0
41
1
10
-0.326369654867165
20
-10.8020461167561
30
0
41
1
10
-0.315536517292401
20
-10.8058045642772
30
0
41
1
10
-0.309326332727949
20
-10.8082174869319
30
0
41
1
10
-0.298446200707758
20
-10.8127210422056
30
0
41
1
10
-0.293734896847141
20
-10.8148292922467
30
0
41
1
10
-0.285156710198294
20
-10.8188587541708
30
0
41
1
10
-0.281308084304044
20
-10.8207758502489
30
0
41
1
10
-0.270808032640474
20
-10.8262193711045
30
0
41
1
10
-0.265079336283307
20
-10.8294898497133
30
0
41
1
10
-0.254957395207811
20
-10.8355789099845
30
0
41
1
10
-0.25059435146791
20
-10.8383909645595
30
0
41
1
10
-0.24277585396149
20
-10.8436594160096
30
0
41
1
10
-0.23932253516233
20
-10.8461181112255
30
0
41
1
10
-0.230013012871893
20
-10.8530063957256
30
0
41
1
10
-0.225170221794116
20
-10.856962537247
30
0
41
1
10
-0.217103926423306
20
-10.8639154388083
30
0
41
1
10
-0.21390186397052
20
-10.8669066874342
30
0
41
1
10
-0.208648832379353
20
-10.8720738307053
30
0
41
1
10
-0.206604004109494
20
-10.8742481192771
30
0
41
1
10
-0.20178833322619
20
-10.8796826575044
30
0
41
1
10
-0.200314798330893
20
-10.8818612008295
30
0
41
1
10
-0.200000000000046
20
-10.8828072437538
30
0
0
SPLINE
5
118
100
AcDbEntity
8
SK1
62
256
6
ByLayer
370
18
48
1
60
0
100
AcDbSpline
70
4
71
3
72
30
73
26
40
0
40
0
40
0
40
0
40
0.146364699131652
40
0.146364699131652
40
0.288637249276381
40
0.288637249276381
40
0.43090979942111
40
0.43090979942111
40
0.573182349565838
40
0.573182349565838
40
0.644318624638201
40
0.644318624638201
40
0.715454899710564
40
0.715454899710564
40
0.786591174782927
40
0.786591174782927
40
0.822159312319106
40
0.822159312319106
40
0.857727449855285
40
0.857727449855285
40
0.893295587391465
40
0.893295587391465
40
0.928863724927644
40
0.928863724927644
40
1
40
1
40
1
40
1
41
1
10
-0.227816434488233
20
10.8548826471143
30
0
41
1
10
-0.23037691658692
20
10.8528278745432
30
0
41
1
10
-0.233220851458512
20
10.85062850099
30
0
41
1
10
-0.239531834141445
20
10.8459675871965
30
0
41
1
10
-0.242990287729171
20
10.8435098262164
30
0
41
1
10
-0.250829509162699
20
10.8382377057441
30
0
41
1
10
-0.255203622748098
20
10.8354242429045
30
0
41
1
10
-0.265350305450383
20
10.8293335169385
30
0
41
1
10
-0.271092516939333
20
10.8260627858261
30
0
41
1
10
-0.281617658957188
20
10.8206200367945
30
0
41
1
10
-0.285470142006744
20
10.8187061746377
30
0
41
1
10
-0.294050968040125
20
10.8146863407048
30
0
41
1
10
-0.298771103309917
20
10.8125793071682
30
0
41
1
10
-0.309727185477598
20
10.8080590642197
30
0
41
1
10
-0.315854674148454
20
10.8056853782479
30
0
41
1
10
-0.326751827399335
20
10.8019180767803
30
0
41
1
10
-0.330590319508516
20
10.8006572352284
30
0
41
1
10
-0.338819356976657
20
10.7981283892307
30
0
41
1
10
-0.343178718210794
20
10.7968736830311
30
0
41
1
10
-0.351986317586665
20
10.7945259507966
30
0
41
1
10
-0.356497925187298
20
10.7934172166753
30
0
41
1
10
-0.365146941171375
20
10.7914582979728
30
0
41
1
10
-0.369387457526742
20
10.7905830468156
30
0
41
1
10
-0.381289694858708
20
10.7883210861532
30
0
41
1
10
-0.388426507712126
20
10.787227586153
30
0
41
1
10
-0.394913799811249
20
10.7863826978029
30
0
0
SPLINE
5
119
100
AcDbEntity
8
SK1
62
256
6
ByLayer
370
18
48
1
60
0
100
AcDbSpline
70
4
71
3
72
38
73
34
40
0
40
0
40
0
40
0
40
0.0156249999999998
40
0.0156249999999998
40
0.0312499999999995
40
0.0312499999999995
40
0.0468749999999993
40
0.0468749999999993
40
0.0624999999999991
40
0.0624999999999991
40
0.0781249999999988
40
0.0781249999999988
40
0.0937499999999986
40
0.0937499999999986
40
0.124999999999998
40
0.124999999999998
40
0.156249999999998
40
0.156249999999998
40
0.187499999999998
40
0.187499999999998
40
0.249999999999998
40
0.249999999999998
40
0.312499999999998
40
0.312499999999998
40
0.374999999999999
40
0.374999999999999
40
0.5
40
0.5
40
0.625
40
0.625
40
0.750000000000001
40
0.750000000000001
40
1
40
1
40
1
40
1
41
1
10
-0.394913799811278
20
4.64134914436013
30
0
41
1
10
-0.391653189194216
20
4.63875608233846
30
0
41
1
10
-0.388247644464371
20
4.63635905357211
30
0
41
1
10
-0.381042481174944
20
4.6320995470027
30
0
41
1
10
-0.377201381196443
20
4.63022186752829
30
0
41
1
10
-0.369213525336718
20
4.62734082823926
30
0
41
1
10
-0.365068062021663
20
4.62632645462108
30
0
41
1
10
-0.356370248565014
20
4.62544187206512
30
0
41
1
10
-0.351826851563388
20
4.62560736428983
30
0
41
1
10
-0.34296474122587
20
4.62727285800153
30
0
41
1
10
-0.338547041295868
20
4.6287905488239
30
0
41
1
10
-0.33029873787315
20
4.6328263706809
30
0
41
1
10
-0.326364934955123
20
4.63537991970733
30
0
41
1
10
-0.315531464191864
20
4.64386259141477
30
0
41
1
10
-0.309321048903214
20
4.65073469454796
30
0
41
1
10
-0.298440053614044
20
4.6651370301698
30
0
41
1
10
-0.293728422559795
20
4.67271763549797
30
0
41
1
10
-0.285149710641107
20
4.68831331247333
30
0
41
1
10
-0.281300680936269
20
4.69633189696827
30
0
41
1
10
-0.270799710556346
20
4.72041012361524
30
0
41
1
10
-0.265070718767504
20
4.73666607870942
30
0
41
1
10
-0.254948515158276
20
4.76936595895617
30
0
41
1
10
-0.25058551346531
20
4.78581541608034
30
0
41
1
10
-0.242767326722756
20
4.81882524209507
30
0
41
1
10
-0.239314267493128
20
4.83541616500196
30
0
41
1
10
-0.230005515013147
20
4.88501617585194
30
0
41
1
10
-0.225163636448784
20
4.91788495786889
30
0
41
1
10
-0.217099280693418
20
4.98329719794708
30
0
41
1
10
-0.21389821382958
20
5.01583953785894
30
0
41
1
10
-0.208646822672321
20
5.08063396121401
30
0
41
1
10
-0.206602645472969
20
5.1128857104508
30
0
41
1
10
-0.201788314269905
20
5.20924017881703
30
0
41
1
10
-0.200314800742873
20
5.27294373858308
30
0
41
1
10
-0.199999999999989
20
5.33617277211951
30
0
0
SPLINE
5
11A
100
AcDbEntity
8
SK1
62
256
6
ByLayer
370
18
48
1
60
0
100
AcDbSpline
70
4
71
3
72
51
73
47
40
0
40
0
40
0
40
0
40
0.124999999999999
40
0.124999999999999
40
0.249999999999997
40
0.249999999999997
40
0.374999999999996
40
0.374999999999996
40
0.437499999999995
40
0.437499999999995
40
0.499999999999994
40
0.499999999999994
40
0.562499999999993
40
0.562499999999993
40
0.624999999999992
40
0.624999999999992
40
0.687499999999991
40
0.687499999999991
40
0.74999999999999
40
0.74999999999999
40
0.76562499999999
40
0.76562499999999
40
0.781249999999991
40
0.781249999999991
40
0.812499999999993
40
0.812499999999993
40
0.843749999999994
40
0.843749999999994
40
0.859374999999995
40
0.859374999999995
40
0.874999999999996
40
0.874999999999996
40
0.890624999999997
40
0.898437499999997
40
0.898437499999997
40
0.906249999999997
40
0.906249999999997
40
0.921874999999998
40
0.921874999999998
40
0.937499999999999
40
0.937499999999999
40
0.96875
40
0.96875
40
0.984375
40
0.984375
40
1
40
1
40
1
40
1
41
1
10
-1.30710678118653
20
3.31451661882926
30
0
41
1
10
-1.29142986997665
20
3.38976307636253
30
0
41
1
10
-1.27470678566337
20
3.46427410813732
30
0
41
1
10
-1.23877915534885
20
3.61180951708161
30
0
41
1
10
-1.21957882703768
20
3.68483461732913
30
0
41
1
10
-1.17811208044554
20
3.82934535289559
30
0
41
1
10
-1.15585567945415
20
3.90083274551361
30
0
41
1
10
-1.11943756194685
20
4.00681611681387
30
0
41
1
10
-1.10678144688853
20
4.04195283320607
30
0
41
1
10
-1.08030614075893
20
4.11162708010295
30
0
41
1
10
-1.06648472871339
20
4.14617704758263
30
0
41
1
10
-1.03740732877087
20
4.21463704338331
30
0
41
1
10
-1.02215411448115
20
4.24854782318411
30
0
41
1
10
-0.989810534632483
20
4.31562720626889
30
0
41
1
10
-0.97270311893638
20
4.3488316390202
30
0
41
1
10
-0.936235844758897
20
4.41390614485465
30
0
41
1
10
-0.916870779376694
20
4.44582238792879
30
0
41
1
10
-0.874845150953703
20
4.50797334116768
30
0
41
1
10
-0.852227053599179
20
4.53822671358753
30
0
41
1
10
-0.820553631186357
20
4.57441330787637
30
0
41
1
10
-0.814043724021857
20
4.58156684750043
30
0
41
1
10
-0.800609998002344
20
4.59567874151736
30
0
41
1
10
-0.79366989187298
20
4.60265230200582
30
0
41
1
10
-0.772270499685661
20
4.62306727311523
30
0
41
1
10
-0.757231647480609
20
4.63603379142552
30
0
41
1
10
-0.724940396994384
20
4.66015250963079
30
0
41
1
10
-0.707546163600355
20
4.67137767327185
30
0
41
1
10
-0.679832616693687
20
4.68564152883172
30
0
41
1
10
-0.670305694635118
20
4.68998135172839
30
0
41
1
10
-0.650546741946158
20
4.69765260580627
30
0
41
1
10
-0.640222164998661
20
4.70100461325833
30
0
41
1
10
-0.61925317591222
20
4.70631884291771
30
0
41
1
10
-0.60329433531065
20
4.70928016936773
30
0
41
1
10
-0.586953973627331
20
4.71055934574198
30
0
41
1
10
-0.575971256180551
20
4.71101914305441
30
0
41
1
10
-0.570446527115422
20
4.71104969942959
30
0
41
1
10
-0.554075802154344
20
4.71055195258873
30
0
41
1
10
-0.543321725827354
20
4.70944141268532
30
0
41
1
10
-0.522108041141593
20
4.70578341121956
30
0
41
1
10
-0.511566178687616
20
4.70320510552418
30
0
41
1
10
-0.481180482697866
20
4.69375600670261
30
0
41
1
10
-0.462414422633358
20
4.68523355319658
30
0
41
1
10
-0.435788278906457
20
4.67016153959392
30
0
41
1
10
-0.427196329503303
20
4.66475992808148
30
0
41
1
10
-0.410646855784066
20
4.65344243596107
30
0
41
1
10
-0.402660711616633
20
4.64751002192168
30
0
41
1
10
-0.394913799811278
20
4.64134914436013
30
0
0
SPLINE
5
11B
100
AcDbEntity
8
SK1
62
256
6
ByLayer
370
18
48
1
60
0
100
AcDbSpline
70
4
71
3
72
49
73
45
40
0
40
0
40
0
40
0
40
0.0312499999999989
40
0.0312499999999989
40
0.0468749999999988
40
0.0468749999999988
40
0.0624999999999987
40
0.0624999999999987
40
0.0781249999999985
40
0.0781249999999985
40
0.0859374999999984
40
0.0859374999999984
40
0.0937499999999982
40
0.109374999999998
40
0.109374999999998
40
0.124999999999998
40
0.124999999999998
40
0.140624999999997
40
0.140624999999997
40
0.156249999999997
40
0.156249999999997
40
0.187499999999996
40
0.187499999999996
40
0.203124999999996
40
0.203124999999996
40
0.218749999999996
40
0.218749999999996
40
0.249999999999997
40
0.249999999999997
40
0.312499999999998
40
0.312499999999998
40
0.374999999999999
40
0.374999999999999
40
0.4375
40
0.4375
40
0.500000000000001
40
0.500000000000001
40
0.625
40
0.625
40
0.75
40
0.75
40
0.875
40
0.875
40
1
40
1
40
1
40
1
41
1
10
-0.394913799811306
20
-4.64134848730561
30
0
41
1
10
-0.41047290633928
20
-4.65372214729592
30
0
41
1
10
-0.426942829143158
20
-4.66516143545468
30
0
41
1
10
-0.45366592288714
20
-4.68027682446794
30
0
41
1
10
-0.462966990665919
20
-4.68499077617696
30
0
41
1
10
-0.48204065282026
20
-4.69338840362659
30
0
41
1
10
-0.491831035317475
20
-4.69708841757182
30
0
41
1
10
-0.512007846856051
20
-4.70331959628982
30
0
41
1
10
-0.522393850510156
20
-4.70585160410928
30
0
41
1
10
-0.538509027232806
20
-4.7086003971155
30
0
41
1
10
-0.543976580029977
20
-4.70933923526332
30
0
41
1
10
-0.554868580612833
20
-4.71041558869646
30
0
41
1
10
-0.571225704249997
20
-4.71144475460159
30
0
41
1
10
-0.5876405073071
20
-4.71070982968027
30
0
41
1
10
-0.609578781712315
20
-4.70814275449186
30
0
41
1
10
-0.620374827492938
20
-4.70608282011185
30
0
41
1
10
-0.641350213090263
20
-4.70066349410453
30
0
41
1
10
-0.651584949943043
20
-4.69729749278468
30
0
41
1
10
-0.671613199750638
20
-4.68941827906221
30
0
41
1
10
-0.681210585475696
20
-4.68498433991073
30
0
41
1
10
-0.708965296078404
20
-4.67052822129415
30
0
41
1
10
-0.726125293179777
20
-4.65935713023322
30
0
41
1
10
-0.75049224342311
20
-4.64101614114148
30
0
41
1
10
-0.75833105080028
20
-4.63466996063099
30
0
41
1
10
-0.773435300259322
20
-4.62169082720084
30
0
41
1
10
-0.780721313355457
20
-4.61504174878664
30
0
41
1
10
-0.801920392594184
20
-4.59469556410733
30
0
41
1
10
-0.815181474568604
20
-4.58060351558976
30
0
41
1
10
-0.853068613917898
20
-4.53715229328864
30
0
41
1
10
-0.875849179816726
20
-4.50661286524704
30
0
41
1
10
-0.918270620990739
20
-4.4436195297605
30
0
41
1
10
-0.937648218653891
20
-4.41151284912419
30
0
41
1
10
-0.973982716029653
20
-4.34641054667097
30
0
41
1
10
-0.990922443825198
20
-4.31341024355515
30
0
41
1
10
-1.0230070147559
20
-4.24668344942171
30
0
41
1
10
-1.03814572296366
20
-4.21295529145058
30
0
41
1
10
-1.08144833641848
20
-4.110828328325
30
0
41
1
10
-1.107528922913
20
-4.04149516781195
30
0
41
1
10
-1.15587378854894
20
-3.90075641540054
30
0
41
1
10
-1.17812664766191
20
-3.82929955489212
30
0
41
1
10
-1.21961966811577
20
-3.68468606745108
30
0
41
1
10
-1.23882094986983
20
-3.61164482751008
30
0
41
1
10
-1.27473665787788
20
-3.46414251617398
30
0
41
1
10
-1.29144675655321
20
-3.38968077243678
30
0
41
1
10
-1.30710678118655
20
-3.3145152459299
30
0
0
SPLINE
5
11C
100
AcDbEntity
8
SK1
62
256
6
ByLayer
370
18
48
1
60
0
100
AcDbSpline
70
4
71
3
72
39
73
35
40
0
40
0
40
0
40
0
40
0.023456723355065
40
0.051488678024018
40
0.0795206326929711
40
0.107552587361924
40
0.16361649669983
40
0.219680406037736
40
0.24771236070669
40
0.275744315375642
40
0.331808224713549
40
0.359840179382502
40
0.387872134051455
40
0.415904088720408
40
0.443936043389361
40
0.471967998058314
40
0.48598397539279
40
0.499999952727267
40
0.514015930061743
40
0.52803190739622
40
0.556063862065173
40
0.584095816734126
40
0.612127771403079
40
0.640159726072032
40
0.668191680740985
40
0.724255590078892
40
0.752287544747844
40
0.780319499416797
40
0.836383408754704
40
0.89244731809261
40
0.920479272761563
40
0.948511227430516
40
0.976543182099469
40
1
40
1
40
1
40
1
41
1
10
-19
20
-10.033123856668
30
0
41
1
10
-19
20
-10.0359545733873
30
0
41
1
10
-19
20
-10.0171751019865
30
0
41
1
10
-19
20
-9.91123849548634
30
0
41
1
10
-19
20
-9.71891814529585
30
0
41
1
10
-19
20
-9.36252651571954
30
0
41
1
10
-19
20
-8.7496587940804
30
0
41
1
10
-19
20
-7.93503539480014
30
0
41
1
10
-19
20
-7.166696276571
30
0
41
1
10
-19
20
-6.32708816497816
30
0
41
1
10
-19
20
-5.39691150719773
30
0
41
1
10
-19
20
-4.35855334822469
30
0
41
1
10
-19
20
-3.54050720156593
30
0
41
1
10
-19
20
-2.68380947355109
30
0
41
1
10
-19
20
-1.79728161122429
30
0
41
1
10
-19
20
-1.05021119288867
30
0
41
1
10
-19
20
-0.444754022192967
30
0
41
1
10
-19
20
1.751604657E-07
30
0
41
1
10
-19
20
0.444753991208131
30
0
41
1
10
-19
20
1.05021111926766
30
0
41
1
10
-19
20
1.79728192772174
30
0
41
1
10
-19
20
2.68380958588858
30
0
41
1
10
-19
20
3.54050705744928
30
0
41
1
10
-19
20
4.3585535429925
30
0
41
1
10
-19
20
5.3969115971864
30
0
41
1
10
-19
20
6.32708816044828
30
0
41
1
10
-19
20
7.16669631785621
30
0
41
1
10
-19
20
7.93503517871468
30
0
41
1
10
-19
20
8.74965901233364
30
0
41
1
10
-19
20
9.36252604803431
30
0
41
1
10
-19
20
9.7189182317581
30
0
41
1
10
-19
20
9.91123825969154
30
0
41
1
10
-19
20
10.0171748849792
30
0
41
1
10
-19
20
10.0359545233779
30
0
41
1
10
-19
20
10.0331237407599
30
0
0
SPLINE
5
11D
100
AcDbEntity
8
SK1
62
256
6
ByLayer
370
18
48
1
60
0
100
AcDbSpline
70
4
71
3
72
9
73
5
40
0
40
0
40
0
40
0
40
0.518667811888027
40
1
40
1
40
1
40
1
41
1
10
-1.49503997793926
20
10.8252683822456
30
0
41
1
10
-1.49503997793927
20
10.8252040236056
30
0
41
1
10
-1.49503997793924
20
10.8074035690938
30
0
41
1
10
-1.49503997793927
20
10.7587880254605
30
0
41
1
10
-1.49503997793926
20
10.7287503822454
30
0
0
SPLINE
5
11E
100
AcDbEntity
8
SK1
62
256
6
ByLayer
370
13
48
1
60
0
100
AcDbSpline
70
4
71
3
72
19
73
15
40
0
40
0
40
0
40
0
40
0.0232344806578658
40
0.0945100567014703
40
0.165785632745075
40
0.308336784832284
40
0.450887936919493
40
0.522163512963098
40
0.593439089006703
40
0.735990241093912
40
0.807265817137516
40
0.878541393181121
40
0.949816969224725
40
1
40
1
40
1
40
1
41
1
10
-1.49503997793926
20
10.7287503822461
30
0
41
1
10
-1.49503997793926
20
10.7142230482068
30
0
41
1
10
-1.49503997793924
20
10.6488155776348
30
0
41
1
10
-1.49503997793926
20
10.4906675023526
30
0
41
1
10
-1.49503997793926
20
10.1156289513023
30
0
41
1
10
-1.49503997793926
20
9.46887528495321
30
0
41
1
10
-1.49503997793927
20
8.61066206691208
30
0
41
1
10
-1.49503997793927
20
7.80570924310555
30
0
41
1
10
-1.49503997793927
20
6.92500328929282
30
0
41
1
10
-1.49503997793927
20
5.93563839600924
30
0
41
1
10
-1.49503997793928
20
4.83747557076666
30
0
41
1
10
-1.49503997793928
20
3.96252944300574
30
0
41
1
10
-1.49503997793928
20
3.12815554972914
30
0
41
1
10
-1.49503997793928
20
2.57901008145927
30
0
41
1
10
-1.49503997793928
20
2.34849338234218
30
0
0
SPLINE
5
11F
100
AcDbEntity
8
SK1
62
256
6
ByLayer
370
13
48
1
60
0
100
AcDbSpline
70
4
71
3
72
19
73
15
40
0
40
0
40
0
40
0
40
0.0501831328105892
40
0.121458725256451
40
0.192734317702313
40
0.264009910148174
40
0.406561095039898
40
0.47783668748576
40
0.549112279931621
40
0.691663464823345
40
0.834214649715069
40
0.90549024216093
40
0.976765834606792
40
1
40
1
40
1
40
1
41
1
10
-1.49503997793931
20
-2.3484920325788
30
0
41
1
10
-1.49503997793931
20
-2.57900913866001
30
0
41
1
10
-1.49503997793931
20
-3.12815500226569
30
0
41
1
10
-1.49503997793931
20
-3.96252951444393
30
0
41
1
10
-1.49503997793931
20
-4.83747546310528
30
0
41
1
10
-1.49503997793931
20
-5.93563827659562
30
0
41
1
10
-1.49503997793933
20
-6.92500328675368
30
0
41
1
10
-1.49503997793933
20
-7.80570915265955
30
0
41
1
10
-1.49503997793933
20
-8.61066229913334
30
0
41
1
10
-1.49503997793933
20
-9.46887502691081
30
0
41
1
10
-1.49503997793934
20
-10.1156294314955
30
0
41
1
10
-1.49503997793934
20
-10.4906674180643
30
0
41
1
10
-1.49503997793934
20
-10.6488154173425
30
0
41
1
10
-1.49503997793936
20
-10.7142228392841
30
0
41
1
10
-1.49503997793936
20
-10.7287500325204
30
0
0
SPLINE
5
120
100
AcDbEntity
8
SK1
62
256
6
ByLayer
370
18
48
1
60
0
100
AcDbSpline
70
4
71
3
72
9
73
5
40
0
40
0
40
0
40
0
40
0.480965331175158
40
1
40
1
40
1
40
1
41
1
10
-1.49503997793936
20
-10.7287507032537
30
0
41
1
10
-1.49503997793936
20
-10.7587883479014
30
0
41
1
10
-1.49503997793933
20
-10.8074409508284
30
0
41
1
10
-1.49503997793933
20
-10.8252312906441
30
0
41
1
10
-1.49503997793933
20
-10.8252687032538
30
0
0
SPLINE
5
121
100
AcDbEntity
8
SK1
62
256
6
ByLayer
370
18
48
1
60
0
100
AcDbSpline
70
4
71
3
72
50
73
46
40
0
40
0
40
0
40
0
40
0.124999999999993
40
0.124999999999993
40
0.249999999999987
40
0.249999999999987
40
0.312499999999983
40
0.312499999999983
40
0.343749999999981
40
0.343749999999981
40
0.374999999999979
40
0.374999999999979
40
0.406249999999978
40
0.406249999999978
40
0.421874999999977
40
0.421874999999977
40
0.437499999999976
40
0.437499999999976
40
0.453124999999976
40
0.453124999999976
40
0.460937499999976
40
0.460937499999976
40
0.468749999999976
40
0.468749999999976
40
0.476562499999977
40
0.476562499999977
40
0.484374999999977
40
0.484374999999977
40
0.499999999999978
40
0.499999999999978
40
0.515624999999979
40
0.515624999999979
40
0.531249999999981
40
0.531249999999981
40
0.562499999999983
40
0.562499999999983
40
0.624999999999986
40
0.624999999999986
40
0.687499999999989
40
0.687499999999989
40
0.749999999999991
40
0.749999999999991
40
0.874999999999996
40
0.874999999999996
40
1
40
1
40
1
40
1
41
1
10
-1.69999999999999
20
2.34765420370229
30
0
41
1
10
-1.69980343680018
20
2.30204296329814
30
0
41
1
10
-1.69915039367987
20
2.25635328938307
30
0
41
1
10
-1.69653309873968
20
2.16478330538484
30
0
41
1
10
-1.69459916908717
20
2.11890560637775
30
0
41
1
10
-1.68995560549762
20
2.04988104532177
30
0
41
1
10
-1.68811440381067
20
2.026837939378
30
0
41
1
10
-1.68462315938687
20
1.99219601544965
30
0
41
1
10
-1.68333613778454
20
1.98063568355292
30
0
41
1
10
-1.68041145611022
20
1.95748001200514
30
0
41
1
10
-1.67877301232556
20
1.94586360536206
30
0
41
1
10
-1.67497483096689
20
1.92276974286997
30
0
41
1
10
-1.67282618887013
20
1.91127637950416
30
0
41
1
10
-1.66887115205897
20
1.89419287581472
30
0
41
1
10
-1.66742423583294
20
1.88851124598514
30
0
41
1
10
-1.66416551260078
20
1.87735964831148
30
0
41
1
10
-1.662359861196
20
1.8718764964907
30
0
41
1
10
-1.65807410816046
20
1.86126309906433
30
0
41
1
10
-1.65558240733868
20
1.8560666599372
30
0
41
1
10
-1.65094843729227
20
1.84951261814737
30
0
41
1
10
-1.64926857345709
20
1.84756086938978
30
0
41
1
10
-1.64547058536633
20
1.84443339232337
30
0
41
1
10
-1.64342437159498
20
1.84335697758962
30
0
41
1
10
-1.63925809788927
20
1.8424625676509
30
0
41
1
10
-1.63716436135068
20
1.84265099543572
30
0
41
1
10
-1.6332492271918
20
1.8439380266808
30
0
41
1
10
-1.63139685760362
20
1.84502279335263
30
0
41
1
10
-1.62620205615826
20
1.84900379634971
30
0
41
1
10
-1.62321157089434
20
1.85255132027478
30
0
41
1
10
-1.61769248369454
20
1.86030187295179
30
0
41
1
10
-1.61521688012277
20
1.86447571968583
30
0
41
1
10
-1.61056317312594
20
1.87313396792089
30
0
41
1
10
-1.6083915023864
20
1.8776251804901
30
0
41
1
10
-1.60217434005762
20
1.89140717435808
30
0
41
1
10
-1.59841255627541
20
1.90102400468518
30
0
41
1
10
-1.587822149377
20
1.9302989986453
30
0
41
1
10
-1.58166446065891
20
1.95038898447223
30
0
41
1
10
-1.57011438927675
20
1.99102269015194
30
0
41
1
10
-1.564757186142
20
2.01158981154214
30
0
41
1
10
-1.55453695277316
20
2.05299657334314
30
0
41
1
10
-1.54968042595409
20
2.07384054331874
30
0
41
1
10
-1.53563332649337
20
2.13663479390587
30
0
41
1
10
-1.52695339101722
20
2.17884887827935
30
0
41
1
10
-1.51042221129255
20
2.26350502578163
30
0
41
1
10
-1.50258018333607
20
2.30596680519997
30
0
41
1
10
-1.49503997793928
20
2.34849338234218
30
0
0
SPLINE
5
122
100
AcDbEntity
8
SK1
62
256
6
ByLayer
370
18
48
1
60
0
100
AcDbSpline
70
4
71
3
72
50
73
46
40
0
40
0
40
0
40
0
40
0.124999999999993
40
0.124999999999993
40
0.249999999999986
40
0.249999999999986
40
0.312499999999982
40
0.312499999999982
40
0.374999999999977
40
0.374999999999977
40
0.437499999999973
40
0.437499999999973
40
0.46874999999997
40
0.46874999999997
40
0.484374999999968
40
0.484374999999968
40
0.499999999999967
40
0.499999999999967
40
0.507812499999967
40
0.507812499999967
40
0.515624999999967
40
0.515624999999967
40
0.523437499999968
40
0.523437499999968
40
0.531249999999968
40
0.531249999999968
40
0.539062499999969
40
0.539062499999969
40
0.546874999999969
40
0.546874999999969
40
0.562499999999971
40
0.562499999999971
40
0.578124999999972
40
0.578124999999972
40
0.593749999999973
40
0.593749999999973
40
0.624999999999975
40
0.624999999999975
40
0.687499999999979
40
0.687499999999979
40
0.749999999999983
40
0.749999999999983
40
0.874999999999992
40
0.874999999999992
40
1
40
1
40
1
40
1
41
1
10
-1.4950399779399
20
-2.34849203257858
30
0
41
1
10
-1.50264486299136
20
-2.30560072837358
30
0
41
1
10
-1.51055569104388
20
-2.26278077026905
30
0
41
1
10
-1.52723779413651
20
-2.17743187773848
30
0
41
1
10
-1.53599602067253
20
-2.13489523766003
30
0
41
1
10
-1.55020424476854
20
-2.07156115964614
30
0
41
1
10
-1.55512152574804
20
-2.05052989285036
30
0
41
1
10
-1.56549038663996
20
-2.00872925934067
30
0
41
1
10
-1.57093965450312
20
-1.9879376472413
30
0
41
1
10
-1.58270783684463
20
-1.94692992432044
30
0
41
1
10
-1.58898554423647
20
-1.92669096647967
30
0
41
1
10
-1.59982985491632
20
-1.89736086048552
30
0
41
1
10
-1.60367776004784
20
-1.88777253140711
30
0
41
1
10
-1.61012801536765
20
-1.87403352849674
30
0
41
1
10
-1.61238739824751
20
-1.86957502492965
30
0
41
1
10
-1.61725988408107
20
-1.86105354384
30
0
41
1
10
-1.6198801252792
20
-1.85696555156221
30
0
41
1
10
-1.62422190548617
20
-1.85152626087802
30
0
41
1
10
-1.62574025018972
20
-1.84982698790452
30
0
41
1
10
-1.62899704637212
20
-1.84678183261011
30
0
41
1
10
-1.63073797021959
20
-1.84543674111649
30
0
41
1
10
-1.63444006998856
20
-1.84343334345596
30
0
41
1
10
-1.6364310452875
20
-1.84277379291592
30
0
41
1
10
-1.64049371863736
20
-1.84257528778565
30
0
41
1
10
-1.64263141831243
20
-1.84306719353074
30
0
41
1
10
-1.6466167007513
20
-1.84520272843358
30
0
41
1
10
-1.64851494362384
20
-1.84684788948113
30
0
41
1
10
-1.65189818459373
20
-1.85070880506405
30
0
41
1
10
-1.65343748347132
20
-1.85296435164065
30
0
41
1
10
-1.65758301818305
20
-1.86005243113519
30
0
41
1
10
-1.65983641715789
20
-1.86533039904762
30
0
41
1
10
-1.66377295358207
20
-1.87606716402044
30
0
41
1
10
-1.66545095510661
20
-1.88154764100148
30
0
41
1
10
-1.66849020043534
20
-1.89263136704571
30
0
41
1
10
-1.66984560772777
20
-1.89823686093516
30
0
41
1
10
-1.67358927825892
20
-1.91517885650293
30
0
41
1
10
-1.67566088610397
20
-1.92664763316901
30
0
41
1
10
-1.68112003269374
20
-1.96089400109636
30
0
41
1
10
-1.6838055343846
20
-1.9837178331704
30
0
41
1
10
-1.6883263063022
20
-2.02935224085806
30
0
41
1
10
-1.69012636136873
20
-2.05216278261108
30
0
41
1
10
-1.6946746436506
20
-2.12057478489859
30
0
41
1
10
-1.69658414869915
20
-2.16620101192839
30
0
41
1
10
-1.69916210808094
20
-2.25713844148177
30
0
41
1
10
-1.69980522112591
20
-2.3024558176067
30
0
41
1
10
-1.7
20
-2.34765294685573
30
0
0
SPLINE
5
123
100
AcDbEntity
8
SK1
62
256
6
ByLayer
370
18
48
1
60
0
100
AcDbSpline
70
4
71
3
72
10
73
6
40
0
40
0
40
0
40
0
40
0.5
40
0.5
40
1
40
1
40
1
40
1
41
1
10
-1.30710678118655
20
-3.31451524592987
30
0
41
1
10
-1.33975739597589
20
-3.15779769861589
30
0
41
1
10
-1.37201250439206
20
-2.99910289734024
30
0
41
1
10
-1.43497554121927
20
-2.67729808228725
30
0
41
1
10
-1.46566312449343
20
-2.51417653001474
30
0
41
1
10
-1.4950399779393
20
-2.34849203258926
30
0
0
SPLINE
5
124
100
AcDbEntity
8
SK1
62
256
6
ByLayer
370
18
48
1
60
0
100
AcDbSpline
70
4
71
3
72
10
73
6
40
0
40
0
40
0
40
0
40
0.5
40
0.5
40
1
40
1
40
1
40
1
41
1
10
-1.49503997793928
20
2.34849338234221
30
0
41
1
10
-1.46566316358728
20
2.51417790895556
30
0
41
1
10
-1.4349756098799
20
2.6772994834665
30
0
41
1
10
-1.37201258068183
20
2.99910431043691
30
0
41
1
10
-1.33975744342436
20
3.15779909733413
30
0
41
1
10
-1.30710678118653
20
3.31451661882926
30
0
0
SPLINE
5
125
100
AcDbEntity
8
SK1
62
256
6
ByLayer
370
18
48
1
60
0
100
AcDbSpline
70
4
71
3
72
20
73
16
40
0
40
0
40
0
40
0
40
0.0618285640118163
40
0.125322965995489
40
0.188817367979162
40
0.252311769962835
40
0.37930057393018
40
0.506289377897526
40
0.569783779881199
40
0.633278181864872
40
0.760266985832217
40
0.82376138781589
40
0.887255789799563
40
0.950750191783236
40
1
40
1
40
1
40
1
41
1
10
-1.69999999999993
20
11.0168587088663
30
0
41
1
10
-1.69999999999993
20
11.025472780902
30
0
41
1
10
-1.69999999999996
20
11.0077567930114
30
0
41
1
10
-1.69999999999996
20
10.8874544346102
30
0
41
1
10
-1.69999999999996
20
10.6806097131649
30
0
41
1
10
-1.69999999999996
20
10.3009819355762
30
0
41
1
10
-1.69999999999996
20
9.64588812329171
30
0
41
1
10
-1.69999999999996
20
8.77694672660431
30
0
41
1
10
-1.69999999999997
20
7.96298250837995
30
0
41
1
10
-1.69999999999997
20
7.07216160324032
30
0
41
1
10
-1.69999999999997
20
6.06822933336571
30
0
41
1
10
-1.69999999999999
20
4.95534741364136
30
0
41
1
10
-1.69999999999999
20
4.06639719899749
30
0
41
1
10
-1.69999999999999
20
3.19422498243512
30
0
41
1
10
-1.69999999999999
20
2.6085619558728
30
0
41
1
10
-1.69999999999999
20
2.34765420370229
30
0
0
SPLINE
5
126
100
AcDbEntity
8
SK1
62
256
6
ByLayer
370
18
48
1
60
0
100
AcDbSpline
70
4
71
3
72
20
73
16
40
0
40
0
40
0
40
0
40
0.0492498069260345
40
0.112744110627466
40
0.176238414328897
40
0.239732718030329
40
0.366721325433192
40
0.430215629134623
40
0.493709932836055
40
0.620698540238918
40
0.74768714764178
40
0.811181451343212
40
0.874675755044643
40
0.938170058746075
40
1
40
1
40
1
40
1
41
1
10
-1.7
20
-2.34765294686034
30
0
41
1
10
-1.70000000000002
20
-2.60856107921731
30
0
41
1
10
-1.70000000000002
20
-3.19422443293118
30
0
41
1
10
-1.70000000000002
20
-4.06639725254809
30
0
41
1
10
-1.70000000000002
20
-4.95534732741851
30
0
41
1
10
-1.70000000000002
20
-6.06822920670999
30
0
41
1
10
-1.70000000000003
20
-7.07216159896134
30
0
41
1
10
-1.70000000000003
20
-7.96298240583451
30
0
41
1
10
-1.70000000000003
20
-8.77694696279681
30
0
41
1
10
-1.70000000000003
20
-9.64588785545641
30
0
41
1
10
-1.70000000000005
20
-10.3009824188478
30
0
41
1
10
-1.70000000000005
20
-10.6806096294116
30
0
41
1
10
-1.70000000000005
20
-10.8874546409424
30
0
41
1
10
-1.70000000000005
20
-11.0077581004515
30
0
41
1
10
-1.70000000000003
20
-11.0254732754409
30
0
41
1
10
-1.70000000000003
20
-11.0168581573863
30
0
0
SPLINE
5
127
100
AcDbEntity
8
SK1
62
256
6
ByLayer
370
18
48
1
60
0
100
AcDbSpline
70
4
71
3
72
28
73
24
40
0
40
0
40
0
40
0
40
0.125
40
0.125
40
0.25
40
0.25
40
0.375
40
0.375
40
0.40625
40
0.40625
40
0.4375
40
0.4375
40
0.5
40
0.5
40
0.625
40
0.625
40
0.75
40
0.75
40
0.8125
40
0.8125
40
0.875
40
0.875
40
1
40
1
40
1
40
1
41
1
10
-1.7
20
-2.34765294686034
30
0
41
1
10
-1.73205415669226
20
-2.16038584160378
30
0
41
1
10
-1.76222065032137
20
-1.97131662577766
30
0
41
1
10
-1.81699375220627
20
-1.58898156364668
30
0
41
1
10
-1.84157210171965
20
-1.39570674274961
30
0
41
1
10
-1.88287055486934
20
-1.00413788392149
30
0
41
1
10
-1.8996074295806
20
-0.805850441666081
30
0
41
1
10
-1.91396022727268
20
-0.554216735189272
30
0
41
1
10
-1.91649855456244
20
-0.503699732728535
30
0
41
1
10
-1.92087575570552
20
-0.402270484700296
30
0
41
1
10
-1.92271432260527
20
-0.351352531619938
30
0
41
1
10
-1.92711759702395
20
-0.1991732695476
30
0
41
1
10
-1.92858996592999
20
-0.098096875673491
30
0
41
1
10
-1.92851257349817
20
0.203996833737762
30
0
41
1
10
-1.92249647820373
20
0.403884260844421
30
0
41
1
10
-1.89992814454848
20
0.800898512891649
30
0
41
1
10
-1.88342776895729
20
0.998033489767096
30
0
41
1
10
-1.85255630843312
20
1.29195216882439
30
0
41
1
10
-1.84124169681192
20
1.38962690798928
30
0
41
1
10
-1.81682576986773
20
1.58441982262917
30
0
41
1
10
-1.80370973774758
20
1.68162305605506
30
0
41
1
10
-1.76234965181257
20
1.97058473862921
30
0
41
1
10
-1.73206310969363
20
2.16033448890278
30
0
41
1
10
-1.69999999999999
20
2.34765420370229
30
0
0
SPLINE
5
128
100
AcDbEntity
8
SK1
62
256
6
ByLayer
370
18
48
1
60
0
100
AcDbSpline
70
4
71
3
72
39
73
35
40
0
40
0
40
0
40
0
40
0.0271657229722778
40
0.0549795258408552
40
0.0827933287094327
40
0.11060713157801
40
0.166234737315165
40
0.22186234305232
40
0.249676145920897
40
0.277489948789475
40
0.33311755452663
40
0.360931357395207
40
0.388745160263784
40
0.416558963132362
40
0.44437276600094
40
0.472186568869517
40
0.486093470303806
40
0.500000371738094
40
0.513907273172383
40
0.527814174606672
40
0.555627977475249
40
0.583441780343827
40
0.611255583212404
40
0.639069386080982
40
0.666883188949559
40
0.722510794686714
40
0.750324597555291
40
0.778138400423869
40
0.833766006161024
40
0.889393611898179
40
0.917207414766756
40
0.945021217635334
40
0.972835020503911
40
1
40
1
40
1
40
1
41
1
10
-18
20
10.6076106351329
30
0
41
1
10
-18
20
10.6159562140104
30
0
41
1
10
-18
20
10.5989384260218
30
0
41
1
10
-18
20
10.4823597514039
30
0
41
1
10
-18
20
10.2815422565791
30
0
41
1
10
-18
20
9.91155641668587
30
0
41
1
10
-18
20
9.27398520146801
30
0
41
1
10
-18
20
8.42758364438689
30
0
41
1
10
-18
20
7.63255231230312
30
0
41
1
10
-18
20
6.76298285981454
30
0
41
1
10
-18
20
5.7896565616218
30
0
41
1
10
-18
20
4.70769937196647
30
0
41
1
10
-18
20
3.84817166067395
30
0
41
1
10
-18
20
2.94117947415668
30
0
41
1
10
-18
20
1.99095585453046
30
0
41
1
10
-18
20
1.17129189084355
30
0
41
1
10
-18
20
0.501599059707615
30
0
41
1
10
-18
20
7.85940699E-08
30
0
41
1
10
-18
20
-0.501599044412359
30
0
41
1
10
-18
20
-1.17129192458168
30
0
41
1
10
-18
20
-1.99095571595871
30
0
41
1
10
-18
20
-2.94117931205875
30
0
41
1
10
-18
20
-3.84817175180615
30
0
41
1
10
-18
20
-4.70769924070129
30
0
41
1
10
-18
20
-5.78965645018155
30
0
41
1
10
-18
20
-6.76298285919086
30
0
41
1
10
-18
20
-7.6325522351784
30
0
41
1
10
-18
20
-8.42758387223563
30
0
41
1
10
-18
20
-9.27398495420741
30
0
41
1
10
-18
20
-9.9115568934896
30
0
41
1
10
-18
20
-10.2815421717017
30
0
41
1
10
-18
20
-10.482359969962
30
0
41
1
10
-18
20
-10.5989377396193
30
0
41
1
10
-18
20
-10.6159558334494
30
0
41
1
10
-18
20
-10.6076113864166
30
0
0
SPLINE
5
129
100
AcDbEntity
8
1
62
256
6
ByLayer
370
18
48
1
60
0
100
AcDbSpline
70
4
71
3
72
14
73
10
40
0
40
0
40
0
40
0
40
0.25
40
0.25
40
0.5
40
0.5
40
0.75
40
0.75
40
1
40
1
40
1
40
1
41
1
10
42.791588913577
20
-1.62154950660485
30
0
41
1
10
42.8114588936115
20
-1.61431742527327
30
0
41
1
10
42.8312895601214
20
-1.60724107882388
30
0
41
1
10
42.8708718324792
20
-1.59340157338417
30
0
41
1
10
42.8906718383176
20
-1.58662256456483
30
0
41
1
10
42.9298379484623
20
-1.57350716675038
30
0
41
1
10
42.9492662345035
20
-1.56714955421407
30
0
41
1
10
42.9875224474254
20
-1.55493645822051
30
0
41
1
10
43.0063143045607
20
-1.54909173561222
30
0
41
1
10
43.0247609011037
20
-1.5435158551451
30
0
0
SPLINE
5
12A
100
AcDbEntity
8
1
62
256
6
ByLayer
370
18
48
1
60
0
100
AcDbSpline
70
4
71
3
72
14
73
10
40
0
40
0
40
0
40
0
40
0.25
40
0.25
40
0.5
40
0.5
40
0.75
40
0.75
40
1
40
1
40
1
40
1
41
1
10
43.0247609011037
20
1.54351585514476
30
0
41
1
10
43.006314122643
20
1.54909179060039
30
0
41
1
10
42.9875393625753
20
1.55493134213992
30
0
41
1
10
42.9493545220462
20
1.56712108566561
30
0
41
1
10
42.929900629957
20
1.57348651499521
30
0
41
1
10
42.8907431747607
20
1.58659833942664
30
0
41
1
10
42.8709629645057
20
1.59336997484104
30
0
41
1
10
42.8313078514218
20
1.60723441943517
30
0
41
1
10
42.8114589418068
20
1.61431740773128
30
0
41
1
10
42.791588913577
20
1.62154950660448
30
0
0
SPLINE
5
12B
100
AcDbEntity
8
1
62
256
6
ByLayer
370
18
48
1
60
0
100
AcDbSpline
70
4
71
3
72
14
73
10
40
0
40
0
40
0
40
0
40
0.25
40
0.25
40
0.5
40
0.5
40
0.75
40
0.75
40
1
40
1
40
1
40
1
41
1
10
56.3702390988962
20
1.54351585514473
30
0
41
1
10
56.388685877357
20
1.54909179060036
30
0
41
1
10
56.4074606374247
20
1.55493134213989
30
0
41
1
10
56.4456454779538
20
1.56712108566555
30
0
41
1
10
56.465099370043
20
1.57348651499518
30
0
41
1
10
56.5042568252393
20
1.58659833942661
30
0
41
1
10
56.5240370354944
20
1.59336997484101
30
0
41
1
10
56.5636921485782
20
1.60723441943514
30
0
41
1
10
56.5835410581932
20
1.61431740773125
30
0
41
1
10
56.603411086423
20
1.62154950660445
30
0
0
SPLINE
5
12C
100
AcDbEntity
8
1
62
256
6
ByLayer
370
18
48
1
60
0
100
AcDbSpline
70
4
71
3
72
14
73
10
40
0
40
0
40
0
40
0
40
0.25
40
0.25
40
0.5
40
0.5
40
0.75
40
0.75
40
1
40
1
40
1
40
1
41
1
10
56.603411086423
20
-1.62154950660488
30
0
41
1
10
56.5835411063884
20
-1.6143174252733
30
0
41
1
10
56.5637104398786
20
-1.6072410788239
30
0
41
1
10
56.5241281675208
20
-1.5934015733842
30
0
41
1
10
56.5043281616824
20
-1.58662256456486
30
0
41
1
10
56.4651620515377
20
-1.5735071667504
30
0
41
1
10
56.4457337654964
20
-1.5671495542141
30
0
41
1
10
56.4074775525746
20
-1.55493645822054
30
0
41
1
10
56.3886856954393
20
-1.54909173561225
30
0
41
1
10
56.3702390988962
20
-1.54351585514513
30
0
0
SPLINE
5
12D
100
AcDbEntity
8
1
62
256
6
ByLayer
370
18
48
1
60
0
100
AcDbSpline
70
4
71
3
72
8
73
4
40
0
40
0
40
0
40
0
40
1
40
1
40
1
40
1
41
1
10
43.0247609011037
20
-1.54351585514513
30
0
41
1
10
43.3130102679434
20
-1.45638628571692
30
0
41
1
10
43.6012616832048
20
-1.36925528409645
30
0
41
1
10
43.8895143447955
20
-1.28212341102656
30
0
0
SPLINE
5
12E
100
AcDbEntity
8
1
62
256
6
ByLayer
370
18
48
1
60
0
100
AcDbSpline
70
4
71
3
72
10
73
6
40
0
40
0
40
0
40
0
40
0.844817807026577
40
0.844817807026577
40
1
40
1
40
1
40
1
41
1
10
43.8895143447955
20
-1.28212341102656
30
0
41
1
10
44.0405555949773
20
-1.23646726004242
30
0
41
1
10
44.1930657177398
20
-1.20312187556667
30
0
41
1
10
44.3751573726871
20
-1.17678853707369
30
0
41
1
10
44.4034595149257
20
-1.17307722915021
30
0
41
1
10
44.431806423026
20
-1.16974113668348
30
0
0
SPLINE
5
12F
100
AcDbEntity
8
1
62
256
6
ByLayer
370
18
48
1
60
0
100
AcDbSpline
70
4
71
3
72
10
73
6
40
0
40
0
40
0
40
0
40
0.144521800254364
40
0.144521800254364
40
1
40
1
40
1
40
1
41
1
10
44.4249784115038
20
1.17055207245909
30
0
41
1
10
44.3989144080549
20
1.17367569369603
30
0
41
1
10
44.3728882692158
20
1.17711668538854
30
0
41
1
10
44.1930657177398
20
1.20312187556633
30
0
41
1
10
44.0405555949773
20
1.23646726004208
30
0
41
1
10
43.8895143447954
20
1.28212341102622
30
0
0
SPLINE
5
130
100
AcDbEntity
8
1
62
256
6
ByLayer
370
18
48
1
60
0
100
AcDbSpline
70
4
71
3
72
8
73
4
40
0
40
0
40
0
40
0
40
1
40
1
40
1
40
1
41
1
10
43.8895143447954
20
1.28212341102622
30
0
41
1
10
43.6012616832048
20
1.36925528409611
30
0
41
1
10
43.3130102679434
20
1.45638628571658
30
0
41
1
10
43.0247609011037
20
1.54351585514476
30
0
0
SPLINE
5
131
100
AcDbEntity
8
1
62
256
6
ByLayer
370
18
48
1
60
0
100
AcDbSpline
70
4
71
3
72
9
73
5
40
0
40
0
40
0
40
0
40
0.32837961314206
40
1
40
1
40
1
40
1
41
1
10
53.9554103866439
20
1.14749999999981
30
0
41
1
10
54.0240643009238
20
1.14749999999981
30
0
41
1
10
54.2331330479847
20
1.14749999999981
30
0
41
1
10
54.4422017950455
20
1.14749999999978
30
0
41
1
10
54.5826165191147
20
1.14749999999978
30
0
0
SPLINE
5
132
100
AcDbEntity
8
1
62
256
6
ByLayer
370
18
48
1
60
0
100
AcDbSpline
70
2053
71
3
72
86
73
82
40
0
40
0
40
0
40
0
40
0.0312499999999632
40
0.0312499999999632
40
0.0468749999999426
40
0.0468749999999426
40
0.0624999999999219
40
0.0624999999999219
40
0.0937499999998887
40
0.0937499999998887
40
0.124999999999855
40
0.124999999999855
40
0.156249999999822
40
0.156249999999822
40
0.171874999999805
40
0.171874999999805
40
0.187499999999789
40
0.187499999999789
40
0.218749999999775
40
0.218749999999775
40
0.24999999999976
40
0.24999999999976
40
0.281249999999746
40
0.281249999999746
40
0.312499999999732
40
0.312499999999732
40
0.328124999999725
40
0.328124999999725
40
0.343749999999718
40
0.343749999999718
40
0.374999999999704
40
0.374999999999704
40
0.40624999999969
40
0.40624999999969
40
0.421874999999683
40
0.421874999999683
40
0.437499999999676
40
0.437499999999676
40
0.468749999999655
40
0.468749999999655
40
0.499999999999633
40
0.499999999999633
40
0.531249999999611
40
0.531249999999611
40
0.546874999999602
40
0.546874999999602
40
0.562499999999593
40
0.562499999999593
40
0.593749999999576
40
0.593749999999576
40
0.624999999999558
40
0.624999999999558
40
0.656249999999541
40
0.656249999999541
40
0.687499999999523
40
0.687499999999523
40
0.703124999999524
40
0.703124999999524
40
0.718749999999525
40
0.718749999999525
40
0.749999999999547
40
0.749999999999547
40
0.781249999999569
40
0.781249999999569
40
0.796874999999591
40
0.796874999999591
40
0.812499999999612
40
0.812499999999612
40
0.843749999999674
40
0.843749999999674
40
0.874999999999736
40
0.874999999999736
40
0.906249999999798
40
0.906249999999798
40
0.921874999999829
40
0.921874999999829
40
0.93749999999986
40
0.93749999999986
40
0.96874999999993
40
0.96874999999993
40
1
40
1
40
1
40
1
41
1
10
54.8030657144238
20
0.799999999999796
30
0
41
1
10
54.8030657144238
20
0.790548473851175
30
0
41
1
10
54.8039043535791
20
0.781254888922518
30
0
41
1
10
54.8063688247771
20
0.767541734473099
30
0
41
1
10
54.8073928958801
20
0.763008835089408
30
0
41
1
10
54.809855443655
20
0.754021081483359
30
0
41
1
10
54.8113008715107
20
0.749554032375897
30
0
41
1
10
54.8161710026755
20
0.736559932608088
30
0
41
1
10
54.820144657546
20
0.728342682726748
30
0
41
1
10
54.8295327441876
20
0.71279116756628
30
0
41
1
10
54.8349971469886
20
0.705428008974508
30
0
41
1
10
54.8469336712806
20
0.692230280102507
30
0
41
1
10
54.8534466793449
20
0.686308130658972
30
0
41
1
10
54.8640528114492
20
0.678464204791652
30
0
41
1
10
54.8677275884099
20
0.676028808985933
30
0
41
1
10
54.8751964782655
20
0.671615030752321
30
0
41
1
10
54.8790101667619
20
0.66962132742205
30
0
41
1
10
54.8906853659613
20
0.664270098108062
30
0
41
1
10
54.8988366187303
20
0.661524269919568
30
0
41
1
10
54.9155358798793
20
0.657849384987713
30
0
41
1
10
54.9239297505663
20
0.656940578284861
30
0
41
1
10
54.9408036106664
20
0.6569306692098
30
0
41
1
10
54.9493729919476
20
0.657858934784542
30
0
41
1
10
54.9659651202318
20
0.661507922622349
30
0
41
1
10
54.9740294776004
20
0.664207870052508
30
0
41
1
10
54.9857765185348
20
0.669578282861607
30
0
41
1
10
54.9896539747981
20
0.671603363253553
30
0
41
1
10
54.9971498078038
20
0.676032432078074
30
0
41
1
10
55.0007749617933
20
0.678436284303132
30
0
41
1
10
55.0112909789602
20
0.686202157751666
30
0
41
1
10
55.0178259058821
20
0.692113085034123
30
0
41
1
10
55.0299071463284
20
0.70545952755316
30
0
41
1
10
55.0352728687818
20
0.712700529437285
30
0
41
1
10
55.0423022299754
20
0.724319277132196
30
0
41
1
10
55.0444771410968
20
0.728322569836934
30
0
41
1
10
55.0484834668208
20
0.736595394924279
30
0
41
1
10
55.0503201407057
20
0.740884001834957
30
0
41
1
10
55.0551939827442
20
0.753886803221093
30
0
41
1
10
55.0576415095721
20
0.762804482181082
30
0
41
1
10
55.0609529963843
20
0.781131965295145
30
0
41
1
10
55.0618019258694
20
0.790613079572324
30
0
41
1
10
55.0618078944471
20
0.809285779941746
30
0
41
1
10
55.0609923574364
20
0.818564653713025
30
0
41
1
10
55.0585163090947
20
0.832394997006702
30
0
41
1
10
55.0574764634179
20
0.836995153142851
30
0
41
1
10
55.0550196843943
20
0.845963247588145
30
0
41
1
10
55.0535990326452
20
0.850357206725022
30
0
41
1
10
55.0487699969128
20
0.863273367940536
30
0
41
1
10
55.044773494859
20
0.871575873056884
30
0
41
1
10
55.0353139390243
20
0.88725135475616
30
0
41
1
10
55.0299605268388
20
0.894461717043271
30
0
41
1
10
55.0180439260839
20
0.907665402194283
30
0
41
1
10
55.0113971553957
20
0.913710758610648
30
0
41
1
10
54.9973282909994
20
0.924117588131537
30
0
41
1
10
54.9899011902182
20
0.92851713813792
30
0
41
1
10
54.9781702934452
20
0.933908122460224
30
0
41
1
10
54.9741377288137
20
0.935509308013053
30
0
41
1
10
54.9660000830778
20
0.938245463719113
30
0
41
1
10
54.961898054691
20
0.939382932389378
30
0
41
1
10
54.9494949145863
20
0.942121301142492
30
0
41
1
10
54.941097687863
20
0.943054691826404
30
0
41
1
10
54.9240372088812
20
0.943073951902619
30
0
41
1
10
54.9155940543502
20
0.94215273290547
30
0
41
1
10
54.9031945711919
20
0.939439959048173
30
0
41
1
10
54.8990980646547
20
0.938312263585857
30
0
41
1
10
54.89097977336
20
0.93560138603047
30
0
41
1
10
54.8869386163967
20
0.934007739868747
30
0
41
1
10
54.8751672601562
20
0.928626843101512
30
0
41
1
10
54.8677320597997
20
0.924237232919808
30
0
41
1
10
54.8536733910878
20
0.913878633287396
30
0
41
1
10
54.8470072522927
20
0.907841658460853
30
0
41
1
10
54.8350533663961
20
0.894643465750278
30
0
41
1
10
54.8296956072914
20
0.887447927618553
30
0
41
1
10
54.8226033573117
20
0.875744918563584
30
0
41
1
10
54.8203940372848
20
0.871678156037405
30
0
41
1
10
54.8163908006368
20
0.863412394526847
30
0
41
1
10
54.8145835292563
20
0.85919386462831
30
0
41
1
10
54.8097339539668
20
0.846286087982833
30
0
41
1
10
54.8072528666786
20
0.837316848758888
30
0
41
1
10
54.8039044501541
20
0.818805048621016
30
0
41
1
10
54.8030657144238
20
0.80945152614845
30
0
41
1
10
54.8030657144238
20
0.799999999999796
30
0
0
SPLINE
5
133
100
AcDbEntity
8
1
62
256
6
ByLayer
370
18
48
1
60
0
100
AcDbSpline
70
4
71
3
72
8
73
4
40
0
40
0
40
0
40
0
40
1
40
1
40
1
40
1
41
1
10
55.5054856552046
20
1.28212341102619
30
0
41
1
10
55.7937383167952
20
1.36925528409606
30
0
41
1
10
56.0819897320566
20
1.45638628571655
30
0
41
1
10
56.3702390988962
20
1.54351585514473
30
0
0
SPLINE
5
134
100
AcDbEntity
8
1
62
256
6
ByLayer
370
18
48
1
60
0
100
AcDbSpline
70
4
71
3
72
10
73
6
40
0
40
0
40
0
40
0
40
0.5
40
0.5
40
1
40
1
40
1
40
1
41
1
10
54.582616508264
20
1.14749999999978
30
0
41
1
10
54.7391048904532
20
1.14749999999978
30
0
41
1
10
54.8942657370395
20
1.15862812901165
30
0
41
1
10
55.2019342822602
20
1.2031218755663
30
0
41
1
10
55.3544444050227
20
1.23646726004205
30
0
41
1
10
55.5054856552046
20
1.28212341102619
30
0
0
SPLINE
5
135
100
AcDbEntity
8
1
62
256
6
ByLayer
370
18
48
1
60
0
100
AcDbSpline
70
4
71
3
72
10
73
6
40
0
40
0
40
0
40
0
40
0.5
40
0.5
40
1
40
1
40
1
40
1
41
1
10
53.9554103866439
20
1.02543792813512
30
0
41
1
10
53.9554103866439
20
1.01627452410631
30
0
41
1
10
53.9571738595486
20
1.00748513092398
30
0
41
1
10
53.9635474706028
20
0.990638489481171
30
0
41
1
10
53.967955858937
20
0.983038630675281
30
0
41
1
10
53.9731735695529
20
0.9759843313457
30
0
0
SPLINE
5
136
100
AcDbEntity
8
1
62
256
6
ByLayer
370
18
48
1
60
0
100
AcDbSpline
70
4
71
3
72
8
73
4
40
0
40
0
40
0
40
0
40
1
40
1
40
1
40
1
41
1
10
53.9731735695529
20
0.9759843313457
30
0
41
1
10
54.1230725593748
20
0.773322202064719
30
0
41
1
10
54.2729716182136
20
0.570660118283229
30
0
41
1
10
54.4228704431208
20
0.367997880281905
30
0
0
SPLINE
5
137
100
AcDbEntity
8
1
62
256
6
ByLayer
370
18
48
1
60
0
100
AcDbSpline
70
4
71
3
72
18
73
14
40
0
40
0
40
0
40
0
40
0.125
40
0.125
40
0.25
40
0.25
40
0.375000000000001
40
0.375000000000001
40
0.500000000000001
40
0.500000000000001
40
0.75
40
0.75
40
1
40
1
40
1
40
1
41
1
10
54.4228704431208
20
0.367997880281905
30
0
41
1
10
54.4297529613735
20
0.358692760291461
30
0
41
1
10
54.4374228509054
20
0.350467133293222
30
0
41
1
10
54.4537559273189
20
0.335377699236801
30
0
41
1
10
54.4624299034354
20
0.328528684310555
30
0
41
1
10
54.4805213594743
20
0.31585000557908
30
0
41
1
10
54.4899572311153
20
0.310022631037924
30
0
41
1
10
54.5090478305954
20
0.299377180016904
30
0
41
1
10
54.518753588903
20
0.294524123602315
30
0
41
1
10
54.5482517124691
20
0.281079716054165
30
0
41
1
10
54.5684196955816
20
0.27358781588913
30
0
41
1
10
54.6094891224037
20
0.260750895207593
30
0
41
1
10
54.6304102228782
20
0.255420020115821
30
0
41
1
10
54.6514623770258
20
0.251024355552687
30
0
0
SPLINE
5
138
100
AcDbEntity
8
1
62
256
6
ByLayer
370
18
48
1
60
0
100
AcDbSpline
70
4
71
3
72
8
73
4
40
0
40
0
40
0
40
0
40
1
40
1
40
1
40
1
41
1
10
54.6514623770258
20
0.251024355552744
30
0
41
1
10
54.7393712313774
20
0.232669092088969
30
0
41
1
10
54.8275338597589
20
0.215946920316981
30
0
41
1
10
54.9159343515671
20
0.20075565179809
30
0
0
SPLINE
5
139
100
AcDbEntity
8
1
62
256
6
ByLayer
370
18
48
1
60
0
100
AcDbSpline
70
4
71
3
72
8
73
4
40
0
40
0
40
0
40
0
40
1
40
1
40
1
40
1
41
1
10
54.9159343515671
20
0.20075565179809
30
0
41
1
10
54.9225685880009
20
0.199615584983718
30
0
41
1
10
54.929202823954
20
0.198475517842184
30
0
41
1
10
54.9358370594138
20
0.197335450364818
30
0
0
SPLINE
5
13A
100
AcDbEntity
8
1
62
256
6
ByLayer
370
18
48
1
60
0
100
AcDbSpline
70
4
71
3
72
28
73
24
40
0
40
0
40
0
40
0
40
0.0624999999999919
40
0.0624999999999919
40
0.0937499999999816
40
0.0937499999999816
40
0.124999999999971
40
0.124999999999971
40
0.187499999999973
40
0.187499999999973
40
0.249999999999976
40
0.249999999999976
40
0.312499999999978
40
0.312499999999978
40
0.37499999999998
40
0.37499999999998
40
0.499999999999984
40
0.499999999999984
40
0.624999999999988
40
0.624999999999988
40
0.749999999999992
40
0.749999999999992
40
1
40
1
40
1
40
1
41
1
10
55.2284917122327
20
-1.99E-13
30
0
41
1
10
55.2284917122327
20
0.0085814522132068
30
0
41
1
10
55.227384083539
20
0.0169404255670429
30
0
41
1
10
55.2242614386326
20
0.0291853878787265
30
0
41
1
10
55.2229644184512
20
0.0332434444314345
30
0
41
1
10
55.21997908966
20
0.0410826194628555
30
0
41
1
10
55.2182910589812
20
0.0448774484813157
30
0
41
1
10
55.2127218932362
20
0.0559394017550119
30
0
41
1
10
55.2083209201955
20
0.0629115621458709
30
0
41
1
10
55.1985444432371
20
0.0760745432764338
30
0
41
1
10
55.193255611231
20
0.082160280098492
30
0
41
1
10
55.1820888747995
20
0.0936027488607749
30
0
41
1
10
55.1762087827746
20
0.09895677353785
30
0
41
1
10
55.1639789231533
20
0.10908357772243
30
0
41
1
10
55.1576060609867
20
0.113868725928938
30
0
41
1
10
55.1381773491621
20
0.127314468801131
30
0
41
1
10
55.1247520843769
20
0.135146696814076
30
0
41
1
10
55.0972519128723
20
0.149256270938565
30
0
41
1
10
55.0831723772235
20
0.155522537864385
30
0
41
1
10
55.0545010863416
20
0.166829105792118
30
0
41
1
10
55.0398900947458
20
0.171868400544753
30
0
41
1
10
54.9958251033996
20
0.185319534691473
30
0
41
1
10
54.9660029858934
20
0.1921515536051
30
0
41
1
10
54.9358370594138
20
0.197335450364818
30
0
0
SPLINE
5
13B
100
AcDbEntity
8
1
62
256
6
ByLayer
370
18
48
1
60
0
100
AcDbSpline
70
4
71
3
72
26
73
22
40
0
40
0
40
0
40
0
40
0.250000000000045
40
0.250000000000045
40
0.375000000000045
40
0.375000000000045
40
0.500000000000045
40
0.500000000000045
40
0.625000000000045
40
0.625000000000045
40
0.750000000000045
40
0.750000000000045
40
0.812500000000045
40
0.812500000000045
40
0.875000000000045
40
0.875000000000045
40
0.906250000000034
40
0.906250000000034
40
0.937500000000022
40
0.937500000000022
40
1
40
1
40
1
40
1
41
1
10
54.9358370594138
20
-0.197335450365244
30
0
41
1
10
54.9660009846977
20
-0.19215189750318
30
0
41
1
10
54.995730607104
20
-0.185333039263469
30
0
41
1
10
55.039499231103
20
-0.171995270196788
30
0
41
1
10
55.0539497295492
20
-0.167025798646932
30
0
41
1
10
55.0825099352992
20
-0.155803644883747
30
0
41
1
10
55.0966209951894
20
-0.149556055765999
30
0
41
1
10
55.1243901952592
20
-0.135355452618256
30
0
41
1
10
55.1380060296608
20
-0.127422079667895
30
0
41
1
10
55.1639703117236
20
-0.109475145318754
30
0
41
1
10
55.1764444296552
20
-0.0993780808381075
30
0
41
1
10
55.1932076111805
20
-0.0822136794258483
30
0
41
1
10
55.1984861160638
20
-0.0761415170715054
30
0
41
1
10
55.2082180406185
20
-0.0630614459869889
30
0
41
1
10
55.2126788506172
20
-0.0560157628407865
30
0
41
1
10
55.2182698422464
20
-0.0449241057078495
30
0
41
1
10
55.219960375876
20
-0.0411262707854121
30
0
41
1
10
55.2229448906999
20
-0.0333001416251761
30
0
41
1
10
55.224244695644
20
-0.0292437320967736
30
0
41
1
10
55.2273839325633
20
-0.0169555221901305
30
0
41
1
10
55.2284917122327
20
-0.0085805612053491
30
0
41
1
10
55.2284917122327
20
-1.99E-13
30
0
0
SPLINE
5
13C
100
AcDbEntity
8
1
62
256
6
ByLayer
370
18
48
1
60
0
100
AcDbSpline
70
4
71
3
72
8
73
4
40
0
40
0
40
0
40
0
40
1
40
1
40
1
40
1
41
1
10
54.9358370594138
20
-0.197335450365244
30
0
41
1
10
54.929202823954
20
-0.19847551784261
30
0
41
1
10
54.9225685880009
20
-0.199615584984144
30
0
41
1
10
54.9159343515671
20
-0.200755651798517
30
0
0
SPLINE
5
13D
100
AcDbEntity
8
1
62
256
6
ByLayer
370
18
48
1
60
0
100
AcDbSpline
70
4
71
3
72
8
73
4
40
0
40
0
40
0
40
0
40
1
40
1
40
1
40
1
41
1
10
54.9159343515671
20
-0.200755651798517
30
0
41
1
10
54.8275338597589
20
-0.215946920317378
30
0
41
1
10
54.7393712313774
20
-0.232669092089367
30
0
41
1
10
54.6514623770258
20
-0.251024355553113
30
0
0
SPLINE
5
13E
100
AcDbEntity
8
1
62
256
6
ByLayer
370
18
48
1
60
0
100
AcDbSpline
70
4
71
3
72
18
73
14
40
0
40
0
40
0
40
0
40
0.25
40
0.25
40
0.5
40
0.5
40
0.625
40
0.625
40
0.75
40
0.75
40
0.875
40
0.875
40
1
40
1
40
1
40
1
41
1
10
54.6514623770258
20
-0.251024355553142
30
0
41
1
10
54.6303988125323
20
-0.255422402582837
30
0
41
1
10
54.6096172148423
20
-0.260719584972833
30
0
41
1
10
54.5687336225315
20
-0.27348105960678
30
0
41
1
10
54.5486274661308
20
-0.280932080914681
30
0
41
1
10
54.5191635474602
20
-0.294325820879323
30
0
41
1
10
54.5094593520091
20
-0.299163841086681
30
0
41
1
10
54.4903485829187
20
-0.309788930008153
30
0
41
1
10
54.4808851146446
20
-0.315612489262833
30
0
41
1
10
54.462656013967
20
-0.328353371469461
30
0
41
1
10
54.453921732258
20
-0.335235835547081
30
0
41
1
10
54.43748872564
20
-0.350395116499101
30
0
41
1
10
54.4297791612319
20
-0.358657338252925
30
0
41
1
10
54.4228704431206
20
-0.367997880281933
30
0
0
SPLINE
5
13F
100
AcDbEntity
8
1
62
256
6
ByLayer
370
18
48
1
60
0
100
AcDbSpline
70
4
71
3
72
8
73
4
40
0
40
0
40
0
40
0
40
1
40
1
40
1
40
1
41
1
10
54.4228704431208
20
-0.367997880282303
30
0
41
1
10
54.2729716182136
20
-0.570660118283655
30
0
41
1
10
54.1230725593748
20
-0.773322202065117
30
0
41
1
10
53.9731735695529
20
-0.975984331346098
30
0
0
SPLINE
5
140
100
AcDbEntity
8
1
62
256
6
ByLayer
370
18
48
1
60
0
100
AcDbSpline
70
4
71
3
72
12
73
8
40
0
40
0
40
0
40
0
40
0.5
40
0.5
40
0.75
40
0.75
40
1
40
1
40
1
40
1
41
1
10
53.9731735695529
20
-0.975984331346098
30
0
41
1
10
53.9679680849771
20
-0.983022101175862
30
0
41
1
10
53.9635610560128
20
-0.990616402290868
30
0
41
1
10
53.9587842858698
20
-1.00322161493625
30
0
41
1
10
53.957546438692
20
-1.00751902109678
30
0
41
1
10
53.9558587746247
20
-1.01632655276143
30
0
41
1
10
53.9554103866439
20
-1.02087114416719
30
0
41
1
10
53.9554103866439
20
-1.02543792813552
30
0
0
SPLINE
5
141
100
AcDbEntity
8
1
62
256
6
ByLayer
370
18
48
1
60
0
100
AcDbSpline
70
4
71
3
72
9
73
5
40
0
40
0
40
0
40
0
40
0.671620386858389
40
1
40
1
40
1
40
1
41
1
10
54.5826165191147
20
-1.14750000000021
30
0
41
1
10
54.4422017950455
20
-1.14750000000021
30
0
41
1
10
54.2331330479848
20
-1.14750000000021
30
0
41
1
10
54.0240643009241
20
-1.14750000000021
30
0
41
1
10
53.9554103866443
20
-1.14750000000021
30
0
0
SPLINE
5
142
100
AcDbEntity
8
1
62
256
6
ByLayer
370
18
48
1
60
0
100
AcDbSpline
70
4
71
3
72
10
73
6
40
0
40
0
40
0
40
0
40
0.5
40
0.5
40
1
40
1
40
1
40
1
41
1
10
55.5054856552046
20
-1.28212341102662
30
0
41
1
10
55.3544444050227
20
-1.23646726004247
30
0
41
1
10
55.2019342822602
20
-1.20312187556669
30
0
41
1
10
54.8942657370394
20
-1.15862812901207
30
0
41
1
10
54.7391048904532
20
-1.14750000000021
30
0
41
1
10
54.582616508264
20
-1.14750000000021
30
0
0
SPLINE
5
143
100
AcDbEntity
8
1
62
256
6
ByLayer
370
18
48
1
60
0
100
AcDbSpline
70
4
71
3
72
8
73
4
40
0
40
0
40
0
40
0
40
1
40
1
40
1
40
1
41
1
10
56.3702390988962
20
-1.54351585514516
30
0
41
1
10
56.0819897320565
20
-1.45638628571694
30
0
41
1
10
55.7937383167952
20
-1.36925528409648
30
0
41
1
10
55.5054856552046
20
-1.28212341102662
30
0
0
LINE
5
7D
100
AcDbEntity
8
1
62
256
6
ByLayer
370
18
48
1
60
0
100
AcDbLine
10
0
20
-15.7
30
0
11
0.3
21
-16
31
0
39
0
210
0
220
0
230
1
0
LINE
5
7E
100
AcDbEntity
8
1
62
256
6
ByLayer
370
18
48
1
60
0
100
AcDbLine
10
0.3
20
16
30
0
11
0
21
15.7
31
0
39
0
210
0
220
0
230
1
0
LINE
5
7F
100
AcDbEntity
8
1
62
256
6
ByLayer
370
18
48
1
60
0
100
AcDbLine
10
14.539822
20
16
30
0
11
0.3
21
16
31
0
39
0
210
0
220
0
230
1
0
LINE
5
80
100
AcDbEntity
8
1
62
256
6
ByLayer
370
18
48
1
60
0
100
AcDbLine
10
0.3
20
-16
30
0
11
14.539822
21
-16
31
0
39
0
210
0
220
0
230
1
0
LINE
5
81
100
AcDbEntity
8
80
62
256
6
ByLayer
370
18
48
1
60
0
100
AcDbLine
10
0
20
0
30
0
11
-5
21
0
31
0
39
0
210
0
220
0
230
1
0
LINE
5
82
100
AcDbEntity
8
81
62
256
6
ByLayer
370
18
48
1
60
0
100
AcDbLine
10
60
20
2
30
0
11
65
21
2
31
0
39
0
210
0
220
0
230
1
0
LINE
5
83
100
AcDbEntity
8
1
62
256
6
ByLayer
370
18
48
1
60
0
100
AcDbLine
10
53.256432
20
1.175
30
0
11
53.597124
21
1.175
31
0
39
0
210
0
220
0
230
1
0
LINE
5
84
100
AcDbEntity
8
1
62
256
6
ByLayer
370
18
48
1
60
0
100
AcDbLine
10
53.256432
20
-1.175
30
0
11
53.597124
21
-1.175
31
0
39
0
210
0
220
0
230
1
0
LINE
5
85
100
AcDbEntity
8
1
62
256
6
ByLayer
370
18
48
1
60
0
100
AcDbLine
10
53.597124
20
1.175
30
0
11
54.51552
21
1.175
31
0
39
0
210
0
220
0
230
1
0
LINE
5
86
100
AcDbEntity
8
1
62
256
6
ByLayer
370
18
48
1
60
0
100
AcDbLine
10
53.596862
20
1.147496
30
0
11
53.597124
21
1.175
31
0
39
0
210
0
220
0
230
1
0
LINE
5
87
100
AcDbEntity
8
1
62
256
6
ByLayer
370
18
48
1
60
0
100
AcDbLine
10
54.51552
20
1.175
30
0
11
54.969599
21
1.175
31
0
39
0
210
0
220
0
230
1
0
LINE
5
88
100
AcDbEntity
8
1
62
256
6
ByLayer
370
18
48
1
60
0
100
AcDbLine
10
54.515259
20
1.147496
30
0
11
54.51552
21
1.175
31
0
39
0
210
0
220
0
230
1
0
LINE
5
89
100
AcDbEntity
8
1
62
256
6
ByLayer
370
18
48
1
60
0
100
AcDbLine
10
53.597124
20
-1.175
30
0
11
53.596862
21
-1.147496
31
0
39
0
210
0
220
0
230
1
0
LINE
5
8A
100
AcDbEntity
8
1
62
256
6
ByLayer
370
18
48
1
60
0
100
AcDbLine
10
53.597124
20
-1.175
30
0
11
54.51552
21
-1.175
31
0
39
0
210
0
220
0
230
1
0
LINE
5
8B
100
AcDbEntity
8
1
62
256
6
ByLayer
370
18
48
1
60
0
100
AcDbLine
10
54.51552
20
-1.175
30
0
11
54.962707
21
-1.175
31
0
39
0
210
0
220
0
230
1
0
LINE
5
8C
100
AcDbEntity
8
1
62
256
6
ByLayer
370
18
48
1
60
0
100
AcDbLine
10
54.51552
20
-1.175
30
0
11
54.515259
21
-1.147496
31
0
39
0
210
0
220
0
230
1
0
LINE
5
8D
100
AcDbEntity
8
1
62
256
6
ByLayer
370
18
48
1
60
0
100
AcDbLine
10
53.256465
20
1.175
30
0
11
49.95
21
1.175
31
0
39
0
210
0
220
0
230
1
0
LINE
5
8E
100
AcDbEntity
8
1
62
256
6
ByLayer
370
18
48
1
60
0
100
AcDbLine
10
53.256465
20
-1.175
30
0
11
49.95
21
-1.175
31
0
39
0
210
0
220
0
230
1
0
LINE
5
8F
100
AcDbEntity
8
1
62
256
6
ByLayer
370
18
48
1
60
0
100
AcDbLine
10
53.65
20
0.048819
30
0
11
53.65
21
-0.048819
31
0
39
0
210
0
220
0
230
1
0
LINE
5
90
100
AcDbEntity
8
1
62
256
6
ByLayer
370
18
48
1
60
0
100
AcDbLine
10
20.200157
20
-14
30
0
11
21.199843
21
-14
31
0
39
0
210
0
220
0
230
1
0
LINE
5
91
100
AcDbEntity
8
1
62
256
6
ByLayer
370
18
48
1
60
0
100
AcDbLine
10
21.199843
20
14
30
0
11
20.200157
21
14
31
0
39
0
210
0
220
0
230
1
0
LINE
5
92
100
AcDbEntity
8
1
62
256
6
ByLayer
370
18
48
1
60
0
100
AcDbLine
10
49.95
20
1.175
30
0
11
42.328976
21
1.175
31
0
39
0
210
0
220
0
230
1
0
LINE
5
93
100
AcDbEntity
8
1
62
256
6
ByLayer
370
18
48
1
60
0
100
AcDbLine
10
49.95
20
-1.175
30
0
11
42.328976
21
-1.175
31
0
39
0
210
0
220
0
230
1
0
LINE
5
94
100
AcDbEntity
8
1
62
256
6
ByLayer
370
18
48
1
60
0
100
AcDbLine
10
49.95
20
1.175
30
0
11
49.95
21
-1.175
31
0
39
0
210
0
220
0
230
1
0
LINE
5
95
100
AcDbEntity
8
1
62
256
6
ByLayer
370
18
48
1
60
0
100
AcDbLine
10
20.2
20
-14
30
0
11
19.022842
21
-14
31
0
39
0
210
0
220
0
230
1
0
LINE
5
96
100
AcDbEntity
8
1
62
256
6
ByLayer
370
18
48
1
60
0
100
AcDbLine
10
19.022842
20
14
30
0
11
20.2
21
14
31
0
39
0
210
0
220
0
230
1
0
LINE
5
97
100
AcDbEntity
8
1
62
256
6
ByLayer
370
18
48
1
60
0
100
AcDbLine
10
20.2
20
14
30
0
11
20.2
21
-14
31
0
39
0
210
0
220
0
230
1
0
LINE
5
98
100
AcDbEntity
8
1
62
256
6
ByLayer
370
18
48
1
60
0
100
AcDbLine
10
28.604507
20
-14
30
0
11
21.2
21
-14
31
0
39
0
210
0
220
0
230
1
0
LINE
5
99
100
AcDbEntity
8
1
62
256
6
ByLayer
370
18
48
1
60
0
100
AcDbLine
10
21.2
20
14
30
0
11
28.604507
21
14
31
0
39
0
210
0
220
0
230
1
0
LINE
5
9A
100
AcDbEntity
8
1
62
256
6
ByLayer
370
18
48
1
60
0
100
AcDbLine
10
32.296384
20
-6.082745
30
0
11
28.604507
21
-14
31
0
39
0
210
0
220
0
230
1
0
LINE
5
9B
100
AcDbEntity
8
1
62
256
6
ByLayer
370
18
48
1
60
0
100
AcDbLine
10
42.328976
20
-1.175
30
0
11
40
21
-1.175
31
0
39
0
210
0
220
0
230
1
0
LINE
5
9C
100
AcDbEntity
8
1
62
256
6
ByLayer
370
18
48
1
60
0
100
AcDbLine
10
42.328976
20
-1.175
30
0
11
42.328976
21
1.175
31
0
39
0
210
0
220
0
230
1
0
LINE
5
9D
100
AcDbEntity
8
1
62
256
6
ByLayer
370
18
48
1
60
0
100
AcDbLine
10
42.328976
20
1.175
30
0
11
40
21
1.175
31
0
39
0
210
0
220
0
230
1
0
LINE
5
9E
100
AcDbEntity
8
1
62
256
6
ByLayer
370
18
48
1
60
0
100
AcDbLine
10
32.296384
20
6.082745
30
0
11
28.604507
21
14
31
0
39
0
210
0
220
0
230
1
0
LINE
5
9F
100
AcDbEntity
8
1
62
256
6
ByLayer
370
18
48
1
60
0
100
AcDbLine
10
21.2
20
-14
30
0
11
21.2
21
14
31
0
39
0
210
0
220
0
230
1
0
LINE
5
A0
100
AcDbEntity
8
1
62
256
6
ByLayer
370
13
48
1
60
0
100
AcDbLine
10
16.438319
20
-13.348785
30
0
11
16.438319
21
-14.317453
31
0
39
0
210
0
220
0
230
1
0
LINE
5
A1
100
AcDbEntity
8
1
62
256
6
ByLayer
370
13
48
1
60
0
100
AcDbLine
10
16.438319
20
14.317453
30
0
11
16.438319
21
13.348785
31
0
39
0
210
0
220
0
230
1
0
LINE
5
A2
100
AcDbEntity
8
1
62
256
6
ByLayer
370
18
48
1
60
0
100
AcDbLine
10
18
20
-14
30
0
11
19.022842
21
-14
31
0
39
0
210
0
220
0
230
1
0
LINE
5
A3
100
AcDbEntity
8
1
62
256
6
ByLayer
370
13
48
1
60
0
100
AcDbLine
10
19.022842
20
14
30
0
11
19.022842
21
-14
31
0
39
0
210
0
220
0
230
1
0
LINE
5
A4
100
AcDbEntity
8
1
62
256
6
ByLayer
370
18
48
1
60
0
100
AcDbLine
10
19.022842
20
14
30
0
11
18
21
14
31
0
39
0
210
0
220
0
230
1
0
LINE
5
A5
100
AcDbEntity
8
1
62
256
6
ByLayer
370
13
48
1
60
0
100
AcDbLine
10
7.076795
20
-4.755463
30
0
11
7.076795
21
-15.276962
31
0
39
0
210
0
220
0
230
1
0
LINE
5
A6
100
AcDbEntity
8
1
62
256
6
ByLayer
370
13
48
1
60
0
100
AcDbLine
10
7.336603
20
-5.068619
30
0
11
7.336603
21
-15.175938
31
0
39
0
210
0
220
0
230
1
0
LINE
5
A7
100
AcDbEntity
8
1
62
256
6
ByLayer
370
13
48
1
60
0
100
AcDbLine
10
4.663397
20
15.175938
30
0
11
4.663397
21
5.068619
31
0
39
0
210
0
220
0
230
1
0
LINE
5
A8
100
AcDbEntity
8
1
62
256
6
ByLayer
370
13
48
1
60
0
100
AcDbLine
10
4.923205
20
15.276962
30
0
11
4.923205
21
4.755463
31
0
39
0
210
0
220
0
230
1
0
LINE
5
A9
100
AcDbEntity
8
1
62
256
6
ByLayer
370
13
48
1
60
0
100
AcDbLine
10
4.663397
20
-5.068619
30
0
11
4.663397
21
-15.175938
31
0
39
0
210
0
220
0
230
1
0
LINE
5
AA
100
AcDbEntity
8
1
62
256
6
ByLayer
370
13
48
1
60
0
100
AcDbLine
10
4.923205
20
-4.755463
30
0
11
4.923205
21
-15.276962
31
0
39
0
210
0
220
0
230
1
0
LINE
5
AB
100
AcDbEntity
8
1
62
256
6
ByLayer
370
13
48
1
60
0
100
AcDbLine
10
7.076795
20
15.276962
30
0
11
7.076795
21
4.755463
31
0
39
0
210
0
220
0
230
1
0
LINE
5
AC
100
AcDbEntity
8
1
62
256
6
ByLayer
370
13
48
1
60
0
100
AcDbLine
10
7.336603
20
15.175938
30
0
11
7.336603
21
5.068619
31
0
39
0
210
0
220
0
230
1
0
LINE
5
AD
100
AcDbEntity
8
1
62
256
6
ByLayer
370
18
48
1
60
0
100
AcDbLine
10
0
20
-15.7
30
0
11
0
21
15.7
31
0
39
0
210
0
220
0
230
1
0
LINE
5
AE
100
AcDbEntity
8
1
62
256
6
ByLayer
370
13
48
1
60
0
100
AcDbLine
10
15.022994
20
-8.796264
30
0
11
15.022994
21
8.796264
31
0
39
0
210
0
220
0
230
1
0
LINE
5
AF
100
AcDbEntity
8
1
62
256
6
ByLayer
370
13
48
1
60
0
100
AcDbLine
10
15.279208
20
-10.593169
30
0
11
15.279208
21
-15.067887
31
0
39
0
210
0
220
0
230
1
0
LINE
5
B0
100
AcDbEntity
8
1
62
256
6
ByLayer
370
13
48
1
60
0
100
AcDbLine
10
15.279208
20
15.067887
30
0
11
15.279208
21
10.593169
31
0
39
0
210
0
220
0
230
1
0
LINE
5
B1
100
AcDbEntity
8
1
62
256
6
ByLayer
370
18
48
1
60
0
100
AcDbLine
10
0.3
20
-16
30
0
11
0.3
21
16
31
0
39
0
210
0
220
0
230
1
0
LINE
5
B2
100
AcDbEntity
8
1
62
256
6
ByLayer
370
18
48
1
60
0
100
AcDbLine
10
7.076795
20
4.755463
30
0
11
4.923205
21
4.755463
31
0
39
0
210
0
220
0
230
1
0
LINE
5
B3
100
AcDbEntity
8
1
62
256
6
ByLayer
370
18
48
1
60
0
100
AcDbLine
10
4.923205
20
15.276962
30
0
11
7.076795
21
15.276962
31
0
39
0
210
0
220
0
230
1
0
LINE
5
B4
100
AcDbEntity
8
1
62
256
6
ByLayer
370
18
48
1
60
0
100
AcDbLine
10
4.923205
20
-4.755463
30
0
11
7.076795
21
-4.755463
31
0
39
0
210
0
220
0
230
1
0
LINE
5
B5
100
AcDbEntity
8
1
62
256
6
ByLayer
370
18
48
1
60
0
100
AcDbLine
10
7.076795
20
-15.276962
30
0
11
4.923205
21
-15.276962
31
0
39
0
210
0
220
0
230
1
0
LINE
5
B6
100
AcDbEntity
8
SK1
62
256
6
ByLayer
370
18
48
1
60
0
100
AcDbLine
10
-0.2
20
-5.336172
30
0
11
-0.2
21
-10.883485
31
0
39
0
210
0
220
0
230
1
0
LINE
5
B8
100
AcDbEntity
8
SK1
62
256
6
ByLayer
370
18
48
1
60
0
100
AcDbLine
10
-0.2
20
10.883485
30
0
11
-0.2
21
5.336173
31
0
39
0
210
0
220
0
230
1
0
LINE
5
B9
100
AcDbEntity
8
SK1
62
256
6
ByLayer
370
13
48
1
60
0
100
AcDbLine
10
-1.307107
20
3.314517
30
0
11
-1.307107
21
-3.314515
31
0
39
0
210
0
220
0
230
1
0
LINE
5
BA
100
AcDbEntity
8
1
62
256
6
ByLayer
370
18
48
1
60
0
100
AcDbLine
10
42.08173
20
-1.879917
30
0
11
42.791589
21
-1.62155
31
0
39
0
210
0
220
0
230
1
0
LINE
5
BB
100
AcDbEntity
8
1
62
256
6
ByLayer
370
18
48
1
60
0
100
AcDbLine
10
42.791589
20
1.62155
30
0
11
42.08173
21
1.879917
31
0
39
0
210
0
220
0
230
1
0
LINE
5
BC
100
AcDbEntity
8
1
62
256
6
ByLayer
370
18
48
1
60
0
100
AcDbLine
10
56.603411
20
1.62155
30
0
11
57.31327
21
1.879917
31
0
39
0
210
0
220
0
230
1
0
LINE
5
BD
100
AcDbEntity
8
1
62
256
6
ByLayer
370
18
48
1
60
0
100
AcDbLine
10
57.31327
20
-1.879917
30
0
11
56.603411
21
-1.62155
31
0
39
0
210
0
220
0
230
1
0
LINE
5
BE
100
AcDbEntity
8
1
62
256
6
ByLayer
370
13
48
1
60
0
100
AcDbLine
10
42.791589
20
-1.62155
30
0
11
42.791589
21
-1.174965
31
0
39
0
210
0
220
0
230
1
0
LINE
5
BF
100
AcDbEntity
8
1
62
256
6
ByLayer
370
13
48
1
60
0
100
AcDbLine
10
42.791589
20
1.174965
30
0
11
42.791589
21
1.62155
31
0
39
0
210
0
220
0
230
1
0
LINE
5
C0
100
AcDbEntity
8
1
62
256
6
ByLayer
370
13
48
1
60
0
100
AcDbLine
10
56.603411
20
-1.62155
30
0
11
56.603411
21
1.62155
31
0
39
0
210
0
220
0
230
1
0
LINE
5
C1
100
AcDbEntity
8
1
62
256
6
ByLayer
370
13
48
1
60
0
100
AcDbLine
10
53.569613
20
0.197335
30
0
11
54.935837
21
0.197335
31
0
39
0
210
0
220
0
230
1
0
LINE
5
C2
100
AcDbEntity
8
1
62
256
6
ByLayer
370
13
48
1
60
0
100
AcDbLine
10
54.935837
20
-0.197335
30
0
11
53.569613
21
-0.197335
31
0
39
0
210
0
220
0
230
1
0
LINE
5
C3
100
AcDbEntity
8
1
62
256
6
ByLayer
370
13
48
1
60
0
100
AcDbLine
10
55.228492
20
0
30
0
11
53.649912
21
0
31
0
39
0
210
0
220
0
230
1
0
LINE
5
C4
100
AcDbEntity
8
1
62
256
6
ByLayer
370
13
48
1
60
0
100
AcDbLine
10
53.563708
20
0.200756
30
0
11
54.915934
21
0.200756
31
0
39
0
210
0
220
0
230
1
0
LINE
5
C5
100
AcDbEntity
8
1
62
256
6
ByLayer
370
13
48
1
60
0
100
AcDbLine
10
53.563708
20
-0.200756
30
0
11
54.915934
21
-0.200756
31
0
39
0
210
0
220
0
230
1
0
LINE
5
C6
100
AcDbEntity
8
1
62
256
6
ByLayer
370
13
48
1
60
0
100
AcDbLine
10
53.47985
20
0.251024
30
0
11
54.651462
21
0.251024
31
0
39
0
210
0
220
0
230
1
0
LINE
5
C7
100
AcDbEntity
8
1
62
256
6
ByLayer
370
13
48
1
60
0
100
AcDbLine
10
53.47985
20
-0.251024
30
0
11
54.651462
21
-0.251024
31
0
39
0
210
0
220
0
230
1
0
LINE
5
C8
100
AcDbEntity
8
1
62
256
6
ByLayer
370
13
48
1
60
0
100
AcDbLine
10
53.451511
20
-0.367998
30
0
11
54.42287
21
-0.367998
31
0
39
0
210
0
220
0
230
1
0
LINE
5
C9
100
AcDbEntity
8
1
62
256
6
ByLayer
370
13
48
1
60
0
100
AcDbLine
10
53.451511
20
0.367998
30
0
11
54.42287
21
0.367998
31
0
39
0
210
0
220
0
230
1
0
LINE
5
CA
100
AcDbEntity
8
1
62
256
6
ByLayer
370
18
48
1
60
0
100
AcDbLine
10
53.263101
20
-1.1475
30
0
11
53.95541
21
-1.1475
31
0
39
0
210
0
220
0
230
1
0
LINE
5
CB
100
AcDbEntity
8
1
62
256
6
ByLayer
370
13
48
1
60
0
100
AcDbLine
10
53.304565
20
-0.975984
30
0
11
53.973174
21
-0.975984
31
0
39
0
210
0
220
0
230
1
0
LINE
5
CC
100
AcDbEntity
8
1
62
256
6
ByLayer
370
13
48
1
60
0
100
AcDbLine
10
53.95541
20
-1.025438
30
0
11
53.292507
21
-1.025438
31
0
39
0
210
0
220
0
230
1
0
LINE
5
CD
100
AcDbEntity
8
1
62
256
6
ByLayer
370
13
48
1
60
0
100
AcDbLine
10
53.973174
20
0.975984
30
0
11
53.304565
21
0.975984
31
0
39
0
210
0
220
0
230
1
0
LINE
5
CE
100
AcDbEntity
8
1
62
256
6
ByLayer
370
18
48
1
60
0
100
AcDbLine
10
53.95541
20
1.1475
30
0
11
53.263101
21
1.1475
31
0
39
0
210
0
220
0
230
1
0
LINE
5
CF
100
AcDbEntity
8
1
62
256
6
ByLayer
370
13
48
1
60
0
100
AcDbLine
10
53.292507
20
1.025438
30
0
11
53.95541
21
1.025438
31
0
39
0
210
0
220
0
230
1
0
LINE
5
D0
100
AcDbEntity
8
1
62
256
6
ByLayer
370
13
48
1
60
0
100
AcDbLine
10
43.024761
20
-1.543516
30
0
11
43.024761
21
-1.174953
31
0
39
0
210
0
220
0
230
1
0
LINE
5
D1
100
AcDbEntity
8
1
62
256
6
ByLayer
370
13
48
1
60
0
100
AcDbLine
10
43.024761
20
1.174953
30
0
11
43.024761
21
1.543516
31
0
39
0
210
0
220
0
230
1
0
LINE
5
D2
100
AcDbEntity
8
1
62
256
6
ByLayer
370
13
48
1
60
0
100
AcDbLine
10
56.370239
20
-1.543516
30
0
11
56.370239
21
1.543516
31
0
39
0
210
0
220
0
230
1
0
LINE
5
D3
100
AcDbEntity
8
1
62
256
6
ByLayer
370
18
48
1
60
0
100
AcDbLine
10
53.95541
20
1.1475
30
0
11
53.95541
21
1.025438
31
0
39
0
210
0
220
0
230
1
0
LINE
5
D4
100
AcDbEntity
8
1
62
256
6
ByLayer
370
18
48
1
60
0
100
AcDbLine
10
53.95541
20
-1.025438
30
0
11
53.95541
21
-1.1475
31
0
39
0
210
0
220
0
230
1
0
LINE
5
D5
100
AcDbEntity
8
SK2
62
256
6
ByLayer
370
18
48
1
60
0
100
AcDbLine
10
-28.975
20
-16
30
0
11
-28.975
21
16
31
0
39
0
210
0
220
0
230
1
0
LINE
5
D7
100
AcDbEntity
8
SK2
62
256
6
ByLayer
370
18
48
1
60
0
100
AcDbLine
10
-1.2875
20
16
30
0
11
-30.975
21
16
31
0
39
0
210
0
220
0
230
1
0
LINE
5
D8
100
AcDbEntity
8
SK2
62
256
6
ByLayer
370
18
48
1
60
0
100
AcDbLine
10
-1.2875
20
-16
30
0
11
-30.975
21
-16
31
0
39
0
210
0
220
0
230
1
0
LINE
5
D9
100
AcDbEntity
8
1
62
256
6
ByLayer
370
18
48
1
60
1
100
AcDbLine
10
-28.975
20
16
30
0
11
-28.514216
21
12.500002
31
0
39
0
210
0
220
0
230
1
0
LINE
5
DA
100
AcDbEntity
8
1
62
256
6
ByLayer
370
18
48
1
60
1
100
AcDbLine
10
-28.514216
20
12.500002
30
0
11
-29.435784
21
12.499998
31
0
39
0
210
0
220
0
230
1
0
LINE
5
DB
100
AcDbEntity
8
1
62
256
6
ByLayer
370
18
48
1
60
1
100
AcDbLine
10
-29.435784
20
12.499998
30
0
11
-28.975
21
16
31
0
39
0
210
0
220
0
230
1
0
LINE
5
DC
100
AcDbEntity
8
1
62
256
6
ByLayer
370
18
48
1
60
1
100
AcDbLine
10
-28.975
20
-16
30
0
11
-29.435784
21
-12.500002
31
0
39
0
210
0
220
0
230
1
0
LINE
5
DD
100
AcDbEntity
8
1
62
256
6
ByLayer
370
18
48
1
60
1
100
AcDbLine
10
-29.435784
20
-12.500002
30
0
11
-28.514216
21
-12.499998
31
0
39
0
210
0
220
0
230
1
0
LINE
5
DE
100
AcDbEntity
8
1
62
256
6
ByLayer
370
18
48
1
60
1
100
AcDbLine
10
-28.514216
20
-12.499998
30
0
11
-28.975
21
-16
31
0
39
0
210
0
220
0
230
1
0
LINE
5
148
100
AcDbEntity
8
1
62
256
6
ByLayer
370
18
48
1
60
1
100
AcDbLine
10
-28.975
20
16
30
0
11
-28.514216
21
12.500002
31
0
39
0
210
0
220
0
230
1
0
LINE
5
149
100
AcDbEntity
8
1
62
256
6
ByLayer
370
18
48
1
60
1
100
AcDbLine
10
-28.514216
20
12.500002
30
0
11
-29.435784
21
12.499998
31
0
39
0
210
0
220
0
230
1
0
LINE
5
14A
100
AcDbEntity
8
1
62
256
6
ByLayer
370
18
48
1
60
1
100
AcDbLine
10
-29.435784
20
12.499998
30
0
11
-28.975
21
16
31
0
39
0
210
0
220
0
230
1
0
LINE
5
14C
100
AcDbEntity
8
1
62
256
6
ByLayer
370
18
48
1
60
1
100
AcDbLine
10
-28.975
20
-16
30
0
11
-29.435784
21
-12.500002
31
0
39
0
210
0
220
0
230
1
0
LINE
5
14D
100
AcDbEntity
8
1
62
256
6
ByLayer
370
18
48
1
60
1
100
AcDbLine
10
-29.435784
20
-12.500002
30
0
11
-28.514216
21
-12.499998
31
0
39
0
210
0
220
0
230
1
0
LINE
5
14E
100
AcDbEntity
8
1
62
256
6
ByLayer
370
18
48
1
60
1
100
AcDbLine
10
-28.514216
20
-12.499998
30
0
11
-28.975
21
-16
31
0
39
0
210
0
220
0
230
1
0
MTEXT
5
144
100
AcDbEntity
8
SK2
62
256
6
ByLayer
370
18
48
1
60
0
100
AcDbMText
10
-30.539634
20
-4.530622
30
0
210
0
220
0
230
1
1
%%c
40
3.5
41
0
44
1.084337
50
90
71
7
72
5
7
iso_b_vert
0
MTEXT
5
147
100
AcDbEntity
8
SK2
62
256
6
ByLayer
370
18
48
1
60
0
100
AcDbMText
10
-30.539634
20
2.442034
30
0
210
0
220
0
230
1
1
\W0.6740;32
40
3.5
41
0
44
1.084337
50
90
71
7
72
5
7
iso_b_vert
0
MTEXT
5
150
100
AcDbEntity
8
SK6
62
256
6
ByLayer
370
18
48
1
60
0
100
AcDbMText
10
-11.8145
20
-54.217366
30
0
210
0
220
0
230
1
1
\W0.7660;C2T-CC3-NG20BB
40
3.5
41
0
44
1.084337
50
0
71
7
72
5
7
iso_b_vert
0
HATCH
5
14B
100
AcDbEntity
8
SK2
62
256
6
ByLayer
370
13
48
1
60
0
100
AcDbHatch
10
0
20
0
30
0
210
0
220
0
230
1
2
ANSI31
70
0
71
0
91
1
92
5
93
3
72
1
10
-28.9750000000001
20
15.9999999999999
11
-28.5142162584473
21
12.5000016925531
72
1
10
-28.5142162584473
20
12.5000016925531
11
-29.4357837415528
21
12.4999983074468
72
1
10
-29.4357837415528
20
12.4999983074468
11
-28.9750000000001
21
15.9999999999999
97
0
75
0
76
1
52
0
41
0.0062
77
0
78
1
53
45
43
0
44
0
45
-0.0139193969876572
46
0.0139193969876572
79
0
47
0
98
1
10
0
20
0
0
HATCH
5
14F
100
AcDbEntity
8
SK2
62
256
6
ByLayer
370
13
48
1
60
0
100
AcDbHatch
10
0
20
0
30
0
210
0
220
0
230
1
2
ANSI31
70
0
71
0
91
1
92
5
93
3
72
1
10
-28.9750000000001
20
-16.0000000000001
11
-29.4357837415528
21
-12.5000016925532
72
1
10
-29.4357837415528
20
-12.5000016925532
11
-28.5142162584473
21
-12.4999983074469
72
1
10
-28.5142162584473
20
-12.4999983074469
11
-28.9750000000001
21
-16.0000000000001
97
0
75
0
76
1
52
0
41
0.0062
77
0
78
1
53
45
43
0
44
0
45
-0.0139193969876572
46
0.0139193969876572
79
0
47
0
98
1
10
0
20
0
0
DIMENSION
5
153
100
AcDbEntity
8
2
62
256
6
ByLayer
370
18
48
1
60
0
100
AcDbDimension
2
_U0
10
91.1
20
0
30
0
11
91.1
21
1
31
0
70
32
71
1
72
1
41
1
210
0
220
0
230
1
3
Standard
100
AcDbAlignedDimension
13
60
23
2
33
0
14
0
24
0
34
0
50
90
100
AcDbRotatedDimension
1001
ACAD
1000
DSTYLE
1002
{
1070
   371
1070
    13
1070
   372
1070
    13
1070
   170
1070
     0
1070
   144
1040
1.0
1070
   277
1070
     2
1070
   284
1070
     8
1070
   278
1070
    46
1070
   146
1040
1.0
1070
   345
1005
16
1070
   347
1005
16
1070
   346
1005
16
1070
   344
1005
0
1070
   343
1005
0
1070
   172
1070
     1
1070
    76
1070
     0
1070
    75
1070
     0
1070
   282
1070
     0
1070
   281
1070
     0
1070
    71
1070
     0
1070
    74
1070
     0
1070
   279
1070
     0
1070
   173
1070
     1
1070
   340
1005
145
1070
   271
1070
     1
1070
   272
1070
     2
1070
    77
1070
     1
1070
    73
1070
     0
1070
   171
1070
     3
1070
   274
1070
     4
1070
   177
1070
     2
1070
   176
1070
     2
1070
   178
1070
     2
1070
    78
1070
     8
1070
    48
1040
-0.1
1070
    41
1040
3.5
1070
   147
1040
1.75
1070
    42
1040
1.5875
1070
    44
1040
2.0
1070
   140
1040
3.5
1002
}
1001
ACAD_DSTYLE_DIM_LINETYPE
1070
   380
1005
16
1001
ACAD_DSTYLE_DIM_EXT1_LINETYPE
1070
   381
1005
16
1001
ACAD_DSTYLE_DIM_EXT2_LINETYPE
1070
   382
1005
16
0
DIMENSION
5
16E
100
AcDbEntity
8
2
62
256
6
ByLayer
370
18
48
1
60
0
100
AcDbDimension
2
_U1
10
80.1
20
2
30
0
11
80.1
21
0
31
0
70
32
71
1
72
1
41
1
210
0
220
0
230
1
3
Standard
100
AcDbAlignedDimension
13
60
23
-2
33
0
14
60
24
2
34
0
50
90
100
AcDbRotatedDimension
1001
ACAD
1000
DSTYLE
1002
{
1070
   371
1070
    13
1070
   372
1070
    13
1070
   170
1070
     0
1070
   144
1040
1.0
1070
   277
1070
     2
1070
   284
1070
     8
1070
   278
1070
    46
1070
   146
1040
1.0
1070
   345
1005
16
1070
   347
1005
16
1070
   346
1005
16
1070
   344
1005
0
1070
   343
1005
0
1070
   172
1070
     1
1070
    76
1070
     0
1070
    75
1070
     0
1070
   282
1070
     0
1070
   281
1070
     0
1070
    71
1070
     0
1070
    74
1070
     0
1070
   279
1070
     0
1070
   173
1070
     1
1070
   340
1005
145
1070
   271
1070
     1
1070
   272
1070
     2
1070
    77
1070
     1
1070
    73
1070
     0
1070
   171
1070
     3
1070
   274
1070
     4
1070
   177
1070
     2
1070
   176
1070
     2
1070
   178
1070
     2
1070
    78
1070
     8
1070
    48
1040
-0.1
1070
    41
1040
3.5
1070
   147
1040
1.75
1070
    42
1040
1.5875
1070
    44
1040
2.0
1070
   140
1040
3.5
1002
}
1001
ACAD_DSTYLE_DIM_LINETYPE
1070
   380
1005
16
1001
ACAD_DSTYLE_DIM_EXT1_LINETYPE
1070
   381
1005
16
1001
ACAD_DSTYLE_DIM_EXT2_LINETYPE
1070
   382
1005
16
0
DIMENSION
5
187
100
AcDbEntity
8
2
62
256
6
ByLayer
370
18
48
1
60
0
100
AcDbDimension
2
_U2
10
60
20
-34.925
30
0
11
50
21
-34.925
31
0
70
32
71
1
72
1
41
1
210
0
220
0
230
1
3
Standard
100
AcDbAlignedDimension
13
40
23
-1.175
33
0
14
60
24
-2
34
0
50
0
100
AcDbRotatedDimension
1001
ACAD
1000
DSTYLE
1002
{
1070
   371
1070
    13
1070
   372
1070
    13
1070
   170
1070
     0
1070
   144
1040
1.0
1070
   277
1070
     2
1070
   284
1070
     8
1070
   278
1070
    46
1070
   146
1040
1.0
1070
   345
1005
16
1070
   347
1005
16
1070
   346
1005
16
1070
   344
1005
0
1070
   343
1005
0
1070
   172
1070
     1
1070
    76
1070
     0
1070
    75
1070
     0
1070
   282
1070
     0
1070
   281
1070
     0
1070
    71
1070
     0
1070
    74
1070
     0
1070
   279
1070
     0
1070
   173
1070
     1
1070
   340
1005
145
1070
   271
1070
     1
1070
   272
1070
     2
1070
    77
1070
     1
1070
    73
1070
     1
1070
   171
1070
     3
1070
   274
1070
     4
1070
   177
1070
     2
1070
   176
1070
     2
1070
   178
1070
     2
1070
    78
1070
     8
1070
    48
1040
-0.1
1070
    41
1040
3.5
1070
   147
1040
1.75
1070
    42
1040
1.5875
1070
    44
1040
2.0
1070
   140
1040
3.5
1002
}
1001
ACAD_DSTYLE_DIM_LINETYPE
1070
   380
1005
16
1001
ACAD_DSTYLE_DIM_EXT1_LINETYPE
1070
   381
1005
16
1001
ACAD_DSTYLE_DIM_EXT2_LINETYPE
1070
   382
1005
16
0
DIMENSION
5
19F
100
AcDbEntity
8
2
62
256
6
ByLayer
370
18
48
1
60
0
100
AcDbDimension
2
_U3
10
60
20
38.25
30
0
11
30
21
38.25
31
0
70
32
71
1
72
1
41
1
210
0
220
0
230
1
3
Standard
100
AcDbAlignedDimension
13
0
23
0
33
0
14
60
24
2
34
0
50
0
100
AcDbRotatedDimension
1001
ACAD
1000
DSTYLE
1002
{
1070
   371
1070
    13
1070
   372
1070
    13
1070
   170
1070
     0
1070
   144
1040
1.0
1070
   277
1070
     2
1070
   284
1070
     8
1070
   278
1070
    46
1070
   146
1040
1.0
1070
   345
1005
16
1070
   347
1005
16
1070
   346
1005
16
1070
   344
1005
0
1070
   343
1005
0
1070
   172
1070
     1
1070
    76
1070
     0
1070
    75
1070
     0
1070
   282
1070
     0
1070
   281
1070
     0
1070
    71
1070
     0
1070
    74
1070
     0
1070
   279
1070
     0
1070
   173
1070
     1
1070
   340
1005
145
1070
   271
1070
     1
1070
   272
1070
     2
1070
    77
1070
     1
1070
    73
1070
     1
1070
   171
1070
     3
1070
   274
1070
     4
1070
   177
1070
     2
1070
   176
1070
     2
1070
   178
1070
     2
1070
    78
1070
     8
1070
    48
1040
-0.1
1070
    41
1040
3.5
1070
   147
1040
1.75
1070
    42
1040
1.5875
1070
    44
1040
2.0
1070
   140
1040
3.5
1002
}
1001
ACAD_DSTYLE_DIM_LINETYPE
1070
   380
1005
16
1001
ACAD_DSTYLE_DIM_EXT1_LINETYPE
1070
   381
1005
16
1001
ACAD_DSTYLE_DIM_EXT2_LINETYPE
1070
   382
1005
16
0
ENDSEC
0
SECTION
2
OBJECTS
0
DICTIONARY
5
226
330
0
100
AcDbDictionary
280
0
281
1
3
ACAD_GROUP
350
227
3
ACAD_MLINESTYLE
350
228
0
DICTIONARY
5
227
330
0
100
AcDbDictionary
280
0
281
1
0
DICTIONARY
5
228
330
0
100
AcDbDictionary
280
0
281
1
3
Standard
350
18
0
MLINESTYLE
5
18
330
228
100
AcDbMlineStyle
2
Standard
70
0
3

62
256
51
90
52
90
71
2
49
-0.5
62
256
6
ByLayer
49
0.5
62
256
6
ByLayer
0
RASTERVARIABLES
5
215
330

100
AcDbRasterVariables
90
0
70
1
71
1
72
1
0
ENDSEC
0
EOF
