0
SECTION
2
HEADER
9
$ACADVER
1
AC1015
9
$DWGCODEPAGE
3
ANSI_1252
9
$HANDSEED
5
220
9
$ANGBASE
50
0
9
$ANGDIR
70
0
9
$ATTMODE
70
1
9
$AUNITS
70
0
9
$AUPREC
70
0
9
$CECOLOR
62
256
9
$CELTSCALE
40
1
9
$CELTYPE
6
ByLayer
9
$CELWEIGHT
370
18
9
$CLAYER
8
0
9
$CMLJUST
70
0
9
$CMLSCALE
40
1
9
$CMLSTYLE
2
Standard
9
$DIMSTYLE
2
Standard
9
$TEXTSIZE
40
0.2
9
$TEXTSTYLE
7
Standard
9
$LUNITS
70
2
9
$LUPREC
70
4
9
$EXTNAMES
290
1
9
$INSUNITS
70
4
9
$LTSCALE
40
1
9
$LWDISPLAY
290
1
9
$PDMODE
70
0
9
$PDSIZE
40
0
9
$PLINEGEN
70
0
0
ENDSEC
0
SECTION
2
CLASSES
0
CLASS
1
RASTERVARIABLES
2
AcDbRasterVariables
3
ISM
90
0
280
0
281
0
0
ENDSEC
0
SECTION
2
TABLES
0
TABLE
2
VPORT
5
216
100
AcDbSymbolTable
0
VPORT
5
1
100
AcDbSymbolTableRecord
100
AcDbViewportTableRecord
2
*Active
70
0
10
0
20
0
11
1
21
1
12
-1
22
1
13
0
23
0
14
0.5
24
0.5
15
10
25
10
16
0
26
0
36
1
17
0
27
0
37
0
0
ENDTAB
0
TABLE
2
LTYPE
5
217
100
AcDbSymbolTable
0
LTYPE
5
14
100
AcDbSymbolTableRecord
100
AcDbLinetypeTableRecord
70
0
2
ByBlock
3

72
65
73
0
40
0
0
LTYPE
5
15
100
AcDbSymbolTableRecord
100
AcDbLinetypeTableRecord
70
0
2
ByLayer
3

72
65
73
0
40
0
0
LTYPE
5
16
100
AcDbSymbolTableRecord
100
AcDbLinetypeTableRecord
70
0
2
Continuous
3
Solid line
72
65
73
0
40
0
0
LTYPE
5
6E
100
AcDbSymbolTableRecord
100
AcDbLinetypeTableRecord
70
0
2
CENTER
3
____ _ ____ _ ____ _ ____
72
65
73
4
40
47.5
49
22
74
0
49
-8.5
74
0
49
8.5
74
0
49
-8.5
74
0
0
LTYPE
5
6F
100
AcDbSymbolTableRecord
100
AcDbLinetypeTableRecord
70
0
2
DASHED
3
__ __ __ __ __ __ __ __ __
72
65
73
2
40
25.72
49
12.86
74
0
49
-12.86
74
0
0
ENDTAB
0
TABLE
2
LAYER
5
218
100
AcDbSymbolTable
0
LAYER
5
10
100
AcDbSymbolTableRecord
100
AcDbLayerTableRecord
2
0
70
0
62
7
6
Continuous
290
1
370
-3
390
0
0
LAYER
5
71
100
AcDbSymbolTableRecord
100
AcDbLayerTableRecord
2
81
70
0
62
-3
6
Continuous
290
1
370
-3
390
0
0
LAYER
5
73
100
AcDbSymbolTableRecord
100
AcDbLayerTableRecord
2
80
70
0
62
-6
6
Continuous
290
1
370
-3
390
0
0
LAYER
5
75
100
AcDbSymbolTableRecord
100
AcDbLayerTableRecord
2
1
70
0
62
4
6
Continuous
290
1
370
-3
390
0
0
LAYER
5
E4
100
AcDbSymbolTableRecord
100
AcDbLayerTableRecord
2
2
70
0
62
7
6
Continuous
290
1
370
-3
390
0
0
LAYER
5
15D
100
AcDbSymbolTableRecord
100
AcDbLayerTableRecord
2
Defpoints
70
0
62
7
6
Continuous
290
0
370
-3
390
0
0
LAYER
5
203
100
AcDbSymbolTableRecord
100
AcDbLayerTableRecord
2
SK1
70
0
62
4
6
Continuous
290
1
370
-3
390
0
0
LAYER
5
204
100
AcDbSymbolTableRecord
100
AcDbLayerTableRecord
2
SK6
70
0
62
5
6
Continuous
290
1
370
-3
390
0
0
LAYER
5
205
100
AcDbSymbolTableRecord
100
AcDbLayerTableRecord
2
SK2
70
0
62
7
6
Continuous
290
1
370
-3
390
0
0
ENDTAB
0
TABLE
2
STYLE
5
219
100
AcDbSymbolTable
0
STYLE
5
11
100
AcDbSymbolTableRecord
100
AcDbTextStyleTableRecord
2
Standard
3
txt
70
0
71
0
40
0
41
1
42
0
50
0
0
STYLE
5
14D
100
AcDbSymbolTableRecord
100
AcDbTextStyleTableRecord
2
iso_b_vert
3
simplex.shx
70
0
71
0
40
0
41
1
42
0
50
0
0
STYLE
5
14E
100
AcDbSymbolTableRecord
100
AcDbTextStyleTableRecord
2
DWGDirectTextStyle
3
simplex
70
0
71
0
40
0
41
1
42
0
50
0
0
ENDTAB
0
TABLE
2
DIMSTYLE
5
21a
100
AcDbSymbolTable
100
AcDbDimStyleTable
0
DIMSTYLE
105
27
100
AcDbSymbolTableRecord
100
AcDbDimStyleTableRecord
2
Standard
70
0
3
<>
41
0.18
42
0.0625
44
0.18
140
0.18
147
0.09
73
0
74
0
77
1
271
2
275
0
278
52
280
0
340
11
0
ENDTAB
0
TABLE
2
VIEW
5
21b
100
AcDbSymbolTable
0
ENDTAB
0
TABLE
2
UCS
5
21c
100
AcDbSymbolTable
0
ENDTAB
0
TABLE
2
APPID
5
21d
100
AcDbSymbolTable
0
APPID
5
12
100
AcDbSymbolTableRecord
100
AcDbRegAppTableRecord
2
ACAD
70
0
0
APPID
5
159
100
AcDbSymbolTableRecord
100
AcDbRegAppTableRecord
2
ACAD_DSTYLE_DIMBREAK
70
0
0
APPID
5
1C2
100
AcDbSymbolTableRecord
100
AcDbRegAppTableRecord
2
ACAD_DSTYLE_DIM_LINETYPE
70
0
0
APPID
5
1C3
100
AcDbSymbolTableRecord
100
AcDbRegAppTableRecord
2
ACAD_DSTYLE_DIM_EXT1_LINETYPE
70
0
0
APPID
5
1C4
100
AcDbSymbolTableRecord
100
AcDbRegAppTableRecord
2
ACAD_DSTYLE_DIM_EXT2_LINETYPE
70
0
0
APPID
5
1FF
100
AcDbSymbolTableRecord
100
AcDbRegAppTableRecord
2
ACAD_MLEADERVER
70
0
0
ENDTAB
0
TABLE
2
BLOCK_RECORD
5
21e
100
AcDbSymbolTable
0
BLOCK_RECORD
5
1F
100
AcDbSymbolTableRecord
100
AcDbBlockTableRecord
2
*Model_Space
340
0
70
0
0
BLOCK_RECORD
5
1B
100
AcDbSymbolTableRecord
100
AcDbBlockTableRecord
2
*Paper_Space
340
0
70
0
0
BLOCK_RECORD
5
23
100
AcDbSymbolTableRecord
100
AcDbBlockTableRecord
2
*Paper_Space0
340
0
70
0
0
BLOCK_RECORD
5
15E
100
AcDbSymbolTableRecord
100
AcDbBlockTableRecord
2
*D1
340
0
70
0
0
BLOCK_RECORD
5
16B
100
AcDbSymbolTableRecord
100
AcDbBlockTableRecord
2
_U0
340
0
70
0
0
BLOCK_RECORD
5
177
100
AcDbSymbolTableRecord
100
AcDbBlockTableRecord
2
*D3
340
0
70
0
0
BLOCK_RECORD
5
183
100
AcDbSymbolTableRecord
100
AcDbBlockTableRecord
2
_U1
340
0
70
0
0
BLOCK_RECORD
5
18F
100
AcDbSymbolTableRecord
100
AcDbBlockTableRecord
2
*D5
340
0
70
0
0
BLOCK_RECORD
5
19B
100
AcDbSymbolTableRecord
100
AcDbBlockTableRecord
2
_U2
340
0
70
0
0
ENDTAB
0
ENDSEC
0
SECTION
2
BLOCKS
0
BLOCK
5
20
100
AcDbEntity
8
0
100
AcDbBlockBegin
2
*Model_Space
70
0
10
0
20
0
30
0
3
*Model_Space
0
ENDBLK
5
21
100
AcDbEntity
8
0
100
AcDbBlockEnd
0
BLOCK
5
1C
100
AcDbEntity
8
0
100
AcDbBlockBegin
2
*Paper_Space
70
0
10
0
20
0
30
0
3
*Paper_Space
0
ENDBLK
5
1D
100
AcDbEntity
8
0
100
AcDbBlockEnd
0
BLOCK
5
24
100
AcDbEntity
8
0
100
AcDbBlockBegin
2
*Paper_Space0
70
0
10
0
20
0
30
0
3
*Paper_Space0
0
ENDBLK
5
25
100
AcDbEntity
8
0
100
AcDbBlockEnd
0
BLOCK
5
15F
100
AcDbEntity
8
0
100
AcDbBlockBegin
2
*D1
70
1
10
0
20
0
30
0
3
*D1
0
LINE
5
161
100
AcDbEntity
8
0
62
256
6
ByLayer
370
-2
48
1
60
0
100
AcDbLine
10
-94
20
-1.5875
30
0
11
-94
21
-28.75
31
0
39
0
210
0
220
0
230
1
0
LINE
5
162
100
AcDbEntity
8
0
62
256
6
ByLayer
370
-2
48
1
60
0
100
AcDbLine
10
160
20
24.4125
30
0
11
160
21
-28.75
31
0
39
0
210
0
220
0
230
1
0
LINE
5
163
100
AcDbEntity
8
0
62
256
6
ByLayer
370
-2
48
1
60
0
100
AcDbLine
10
-90.5
20
-26.75
30
0
11
156.5
21
-26.75
31
0
39
0
210
0
220
0
230
1
0
SOLID
5
164
100
AcDbEntity
8
0
62
256
6
ByLayer
370
-1
48
1
60
0
100
AcDbTrace
10
-90.5
20
-26.166667
30
0
11
-90.5
21
-27.333333
31
0
12
-94
22
-26.75
32
0
13
-94
23
-26.75
33
0
39
0
210
0
220
0
230
1
0
SOLID
5
165
100
AcDbEntity
8
0
62
256
6
ByLayer
370
-1
48
1
60
0
100
AcDbTrace
10
156.5
20
-27.333333
30
0
11
156.5
21
-26.166667
31
0
12
160
22
-26.75
32
0
13
160
23
-26.75
33
0
39
0
210
0
220
0
230
1
0
MTEXT
5
166
100
AcDbEntity
8
0
62
256
6
ByLayer
370
18
48
1
60
0
100
AcDbMText
10
33
20
-19.75
30
0
210
0
220
0
230
1
1
\A1;254
40
3.5
41
0
44
1
50
0
71
5
72
5
7
iso_b_vert
0
POINT
5
167
100
AcDbEntity
8
Defpoints
62
0
6
ByLayer
370
-1
48
1
60
0
100
AcDbPoint
10
-94
20
0
30
0
39
0
210
0
220
0
230
1
50
360
0
POINT
5
168
100
AcDbEntity
8
Defpoints
62
0
6
ByLayer
370
-1
48
1
60
0
100
AcDbPoint
10
160
20
26
30
0
39
0
210
0
220
0
230
1
50
360
0
POINT
5
169
100
AcDbEntity
8
Defpoints
62
0
6
ByLayer
370
-1
48
1
60
0
100
AcDbPoint
10
160
20
-26.75
30
0
39
0
210
0
220
0
230
1
50
360
0
ENDBLK
5
160
100
AcDbEntity
8
0
100
AcDbBlockEnd
0
BLOCK
5
172
100
AcDbEntity
8
0
100
AcDbBlockBegin
2
_U0
70
0
10
0
20
0
30
0
3
_U0
0
MTEXT
5
16C
100
AcDbEntity
8
SK2
62
256
6
ByLayer
370
18
48
1
60
0
100
AcDbMText
10
29.603034
20
-25.717366
30
0
210
0
220
0
230
1
1
\W0.7411;254
40
3.5
41
0
44
1.084337
50
0
71
7
72
5
7
iso_b_vert
0
LINE
5
16D
100
AcDbEntity
8
SK2
62
256
6
ByLayer
370
13
48
1
60
0
100
AcDbLine
10
-94
20
-1.5875
30
0
11
-94
21
-28.75
31
0
39
0
210
0
220
0
230
1
0
LINE
5
16E
100
AcDbEntity
8
SK2
62
256
6
ByLayer
370
13
48
1
60
0
100
AcDbLine
10
160
20
24.4125
30
0
11
160
21
-28.75
31
0
39
0
210
0
220
0
230
1
0
LINE
5
16F
100
AcDbEntity
8
SK2
62
256
6
ByLayer
370
13
48
1
60
0
100
AcDbLine
10
-94
20
-26.75
30
0
11
160
21
-26.75
31
0
39
0
210
0
220
0
230
1
0
SOLID
5
170
100
AcDbEntity
8
SK2
62
256
6
ByLayer
370
18
48
1
60
0
100
AcDbTrace
10
-94
20
-26.75
30
0
11
-90.500002
21
-26.289216
31
0
12
-90.499998
22
-27.210784
32
0
13
-90.499998
23
-27.210784
33
0
39
0
210
0
220
0
230
1
0
SOLID
5
171
100
AcDbEntity
8
SK2
62
256
6
ByLayer
370
18
48
1
60
0
100
AcDbTrace
10
160
20
-26.75
30
0
11
156.500002
21
-27.210784
31
0
12
156.499998
22
-26.289216
32
0
13
156.499998
23
-26.289216
33
0
39
0
210
0
220
0
230
1
0
ENDBLK
5
173
100
AcDbEntity
8
0
100
AcDbBlockEnd
0
BLOCK
5
178
100
AcDbEntity
8
0
100
AcDbBlockBegin
2
*D3
70
1
10
0
20
0
30
0
3
*D3
0
LINE
5
17A
100
AcDbEntity
8
0
62
256
6
ByLayer
370
-2
48
1
60
0
100
AcDbLine
10
0
20
1.5875
30
0
11
0
21
50.25
31
0
39
0
210
0
220
0
230
1
0
LINE
5
17B
100
AcDbEntity
8
0
62
256
6
ByLayer
370
-2
48
1
60
0
100
AcDbLine
10
160
20
27.5875
30
0
11
160
21
50.25
31
0
39
0
210
0
220
0
230
1
0
LINE
5
17C
100
AcDbEntity
8
0
62
256
6
ByLayer
370
-2
48
1
60
0
100
AcDbLine
10
3.5
20
48.25
30
0
11
156.5
21
48.25
31
0
39
0
210
0
220
0
230
1
0
SOLID
5
17D
100
AcDbEntity
8
0
62
256
6
ByLayer
370
-1
48
1
60
0
100
AcDbTrace
10
3.5
20
48.833333
30
0
11
3.5
21
47.666667
31
0
12
0
22
48.25
32
0
13
0
23
48.25
33
0
39
0
210
0
220
0
230
1
0
SOLID
5
17E
100
AcDbEntity
8
0
62
256
6
ByLayer
370
-1
48
1
60
0
100
AcDbTrace
10
156.5
20
47.666667
30
0
11
156.5
21
48.833333
31
0
12
160
22
48.25
32
0
13
160
23
48.25
33
0
39
0
210
0
220
0
230
1
0
MTEXT
5
17F
100
AcDbEntity
8
0
62
256
6
ByLayer
370
18
48
1
60
0
100
AcDbMText
10
80
20
55.25
30
0
210
0
220
0
230
1
1
\A1;160
40
3.5
41
0
44
1
50
0
71
5
72
5
7
iso_b_vert
0
POINT
5
180
100
AcDbEntity
8
Defpoints
62
0
6
ByLayer
370
-1
48
1
60
0
100
AcDbPoint
10
0
20
0
30
0
39
0
210
0
220
0
230
1
50
360
0
POINT
5
181
100
AcDbEntity
8
Defpoints
62
0
6
ByLayer
370
-1
48
1
60
0
100
AcDbPoint
10
160
20
26
30
0
39
0
210
0
220
0
230
1
50
360
0
POINT
5
182
100
AcDbEntity
8
Defpoints
62
0
6
ByLayer
370
-1
48
1
60
0
100
AcDbPoint
10
160
20
48.25
30
0
39
0
210
0
220
0
230
1
50
360
0
ENDBLK
5
179
100
AcDbEntity
8
0
100
AcDbBlockEnd
0
BLOCK
5
18A
100
AcDbEntity
8
0
100
AcDbBlockBegin
2
_U1
70
0
10
0
20
0
30
0
3
_U1
0
MTEXT
5
184
100
AcDbEntity
8
SK2
62
256
6
ByLayer
370
18
48
1
60
0
100
AcDbMText
10
77.224734
20
49.282634
30
0
210
0
220
0
230
1
1
\W0.6217;160
40
3.5
41
0
44
1.084337
50
0
71
7
72
5
7
iso_b_vert
0
LINE
5
185
100
AcDbEntity
8
SK2
62
256
6
ByLayer
370
13
48
1
60
0
100
AcDbLine
10
0
20
1.5875
30
0
11
0
21
50.25
31
0
39
0
210
0
220
0
230
1
0
LINE
5
186
100
AcDbEntity
8
SK2
62
256
6
ByLayer
370
13
48
1
60
0
100
AcDbLine
10
160
20
27.5875
30
0
11
160
21
50.25
31
0
39
0
210
0
220
0
230
1
0
LINE
5
187
100
AcDbEntity
8
SK2
62
256
6
ByLayer
370
13
48
1
60
0
100
AcDbLine
10
0
20
48.25
30
0
11
160
21
48.25
31
0
39
0
210
0
220
0
230
1
0
SOLID
5
188
100
AcDbEntity
8
SK2
62
256
6
ByLayer
370
18
48
1
60
0
100
AcDbTrace
10
0
20
48.25
30
0
11
3.499998
21
48.710784
31
0
12
3.500002
22
47.789216
32
0
13
3.500002
23
47.789216
33
0
39
0
210
0
220
0
230
1
0
SOLID
5
189
100
AcDbEntity
8
SK2
62
256
6
ByLayer
370
18
48
1
60
0
100
AcDbTrace
10
160
20
48.25
30
0
11
156.500002
21
47.789216
31
0
12
156.499998
22
48.710784
32
0
13
156.499998
23
48.710784
33
0
39
0
210
0
220
0
230
1
0
ENDBLK
5
18B
100
AcDbEntity
8
0
100
AcDbBlockEnd
0
BLOCK
5
190
100
AcDbEntity
8
0
100
AcDbBlockBegin
2
*D5
70
1
10
0
20
0
30
0
3
*D5
0
LINE
5
192
100
AcDbEntity
8
0
62
256
6
ByLayer
370
-2
48
1
60
0
100
AcDbLine
10
-95.5875
20
20
30
0
11
-107.6
21
20
31
0
39
0
210
0
220
0
230
1
0
LINE
5
193
100
AcDbEntity
8
0
62
256
6
ByLayer
370
-2
48
1
60
0
100
AcDbLine
10
-95.5875
20
-20
30
0
11
-107.6
21
-20
31
0
39
0
210
0
220
0
230
1
0
LINE
5
194
100
AcDbEntity
8
0
62
256
6
ByLayer
370
-2
48
1
60
0
100
AcDbLine
10
-105.6
20
16.5
30
0
11
-105.6
21
-16.5
31
0
39
0
210
0
220
0
230
1
0
SOLID
5
195
100
AcDbEntity
8
0
62
256
6
ByLayer
370
-1
48
1
60
0
100
AcDbTrace
10
-105.016667
20
16.5
30
0
11
-106.183333
21
16.5
31
0
12
-105.6
22
20
32
0
13
-105.6
23
20
33
0
39
0
210
0
220
0
230
1
0
SOLID
5
196
100
AcDbEntity
8
0
62
256
6
ByLayer
370
-1
48
1
60
0
100
AcDbTrace
10
-106.183333
20
-16.5
30
0
11
-105.016667
21
-16.5
31
0
12
-105.6
22
-20
32
0
13
-105.6
23
-20
33
0
39
0
210
0
220
0
230
1
0
MTEXT
5
197
100
AcDbEntity
8
0
62
256
6
ByLayer
370
18
48
1
60
0
100
AcDbMText
10
-112.6
20
0
30
0
210
0
220
0
230
1
1
\A1;40
40
3.5
41
0
44
1
50
90
71
5
72
5
7
iso_b_vert
0
POINT
5
198
100
AcDbEntity
8
Defpoints
62
0
6
ByLayer
370
-1
48
1
60
0
100
AcDbPoint
10
-94
20
20
30
0
39
0
210
0
220
0
230
1
50
360
0
POINT
5
199
100
AcDbEntity
8
Defpoints
62
0
6
ByLayer
370
-1
48
1
60
0
100
AcDbPoint
10
-94
20
-20
30
0
39
0
210
0
220
0
230
1
50
360
0
POINT
5
19A
100
AcDbEntity
8
Defpoints
62
0
6
ByLayer
370
-1
48
1
60
0
100
AcDbPoint
10
-105.6
20
-20
30
0
39
0
210
0
220
0
230
1
50
360
0
ENDBLK
5
191
100
AcDbEntity
8
0
100
AcDbBlockEnd
0
BLOCK
5
1A2
100
AcDbEntity
8
0
100
AcDbBlockBegin
2
_U2
70
0
10
0
20
0
30
0
3
_U2
0
MTEXT
5
19C
100
AcDbEntity
8
SK2
62
256
6
ByLayer
370
18
48
1
60
0
100
AcDbMText
10
-106.289634
20
-2.117233
30
0
210
0
220
0
230
1
1
\W0.7361;40
40
3.5
41
0
44
1.084337
50
90
71
7
72
5
7
iso_b_vert
0
LINE
5
19D
100
AcDbEntity
8
SK2
62
256
6
ByLayer
370
13
48
1
60
0
100
AcDbLine
10
-95.5875
20
20
30
0
11
-107.6
21
20
31
0
39
0
210
0
220
0
230
1
0
LINE
5
19E
100
AcDbEntity
8
SK2
62
256
6
ByLayer
370
13
48
1
60
0
100
AcDbLine
10
-95.5875
20
-20
30
0
11
-107.6
21
-20
31
0
39
0
210
0
220
0
230
1
0
LINE
5
19F
100
AcDbEntity
8
SK2
62
256
6
ByLayer
370
13
48
1
60
0
100
AcDbLine
10
-105.6
20
20
30
0
11
-105.6
21
-20
31
0
39
0
210
0
220
0
230
1
0
SOLID
5
1A0
100
AcDbEntity
8
SK2
62
256
6
ByLayer
370
18
48
1
60
0
100
AcDbTrace
10
-105.6
20
20
30
0
11
-105.139216
21
16.500002
31
0
12
-106.060784
22
16.499998
32
0
13
-106.060784
23
16.499998
33
0
39
0
210
0
220
0
230
1
0
SOLID
5
1A1
100
AcDbEntity
8
SK2
62
256
6
ByLayer
370
18
48
1
60
0
100
AcDbTrace
10
-105.6
20
-20
30
0
11
-106.060784
21
-16.500002
31
0
12
-105.139216
22
-16.499998
32
0
13
-105.139216
23
-16.499998
33
0
39
0
210
0
220
0
230
1
0
ENDBLK
5
1A3
100
AcDbEntity
8
0
100
AcDbBlockEnd
0
ENDSEC
0
SECTION
2
ENTITIES
0
ARC
5
EC
100
AcDbEntity
8
1
62
256
6
ByLayer
370
18
48
1
60
0
100
AcDbCircle
39
0
10
94.196944
20
-20.73925
30
0
40
1
210
0
220
0
230
1
100
AcDbArc
50
90
51
131.409622
0
ARC
5
ED
100
AcDbEntity
8
1
62
256
6
ByLayer
370
18
48
1
60
0
100
AcDbCircle
39
0
10
97.66229
20
-20.73925
30
0
40
1
210
0
220
0
230
1
100
AcDbArc
50
29.291298
51
90
0
ARC
5
EE
100
AcDbEntity
8
1
62
256
6
ByLayer
370
18
48
1
60
0
100
AcDbCircle
39
0
10
97.66229
20
20.73925
30
0
40
1
210
0
220
0
230
1
100
AcDbArc
50
270
51
317.456272
0
ARC
5
EF
100
AcDbEntity
8
1
62
256
6
ByLayer
370
18
48
1
60
0
100
AcDbCircle
39
0
10
139.448326
20
31.060403
30
0
40
11.0000000000226
210
0
220
0
230
1
100
AcDbArc
50
270
51
290
0
ARC
5
F1
100
AcDbEntity
8
1
62
256
6
ByLayer
370
18
48
1
60
0
100
AcDbCircle
39
0
10
137.427099
20
0.155297
30
0
40
11
210
0
220
0
230
1
100
AcDbArc
50
110
51
140
0
ARC
5
F2
100
AcDbEntity
8
1
62
256
6
ByLayer
370
18
48
1
60
0
100
AcDbCircle
39
0
10
123.708431
20
11.311008
30
0
40
2.1768
210
0
220
0
230
1
100
AcDbArc
50
320
51
20
0
ARC
5
F3
100
AcDbEntity
8
1
62
256
6
ByLayer
370
18
48
1
60
0
100
AcDbCircle
39
0
10
123.708431
20
11.311008
30
0
40
2.1768
210
0
220
0
230
1
100
AcDbArc
50
20
51
80
0
ARC
5
F4
100
AcDbEntity
8
1
62
256
6
ByLayer
370
18
48
1
60
0
100
AcDbCircle
39
0
10
123.708431
20
11.311008
30
0
40
2.1768
210
0
220
0
230
1
100
AcDbArc
50
80
51
140
0
ARC
5
F5
100
AcDbEntity
8
1
62
256
6
ByLayer
370
18
48
1
60
0
100
AcDbCircle
39
0
10
123.708431
20
11.311008
30
0
40
2.1768
210
0
220
0
230
1
100
AcDbArc
50
140
51
200
0
ARC
5
F6
100
AcDbEntity
8
1
62
256
6
ByLayer
370
18
48
1
60
0
100
AcDbCircle
39
0
10
123.708431
20
11.311008
30
0
40
2.1768
210
0
220
0
230
1
100
AcDbArc
50
200
51
260
0
ARC
5
F7
100
AcDbEntity
8
1
62
256
6
ByLayer
370
18
48
1
60
0
100
AcDbCircle
39
0
10
123.708431
20
11.311008
30
0
40
2.1768
210
0
220
0
230
1
100
AcDbArc
50
260
51
320
0
ARC
5
FA
100
AcDbEntity
8
1
62
256
6
ByLayer
370
18
48
1
60
0
100
AcDbCircle
39
0
10
123.708431
20
11.311008
30
0
40
2.8067
210
0
220
0
230
1
100
AcDbArc
50
290
51
350
0
ARC
5
FB
100
AcDbEntity
8
1
62
256
6
ByLayer
370
18
48
1
60
0
100
AcDbCircle
39
0
10
123.708431
20
11.311008
30
0
40
2.8067
210
0
220
0
230
1
100
AcDbArc
50
170
51
230
0
ARC
5
FC
100
AcDbEntity
8
1
62
256
6
ByLayer
370
18
48
1
60
0
100
AcDbCircle
39
0
10
123.708431
20
11.311008
30
0
40
2.8067
210
0
220
0
230
1
100
AcDbArc
50
350
51
50
0
ARC
5
FD
100
AcDbEntity
8
1
62
256
6
ByLayer
370
18
48
1
60
0
100
AcDbCircle
39
0
10
123.708431
20
11.311008
30
0
40
2.8067
210
0
220
0
230
1
100
AcDbArc
50
110
51
170
0
ARC
5
FE
100
AcDbEntity
8
1
62
256
6
ByLayer
370
18
48
1
60
0
100
AcDbCircle
39
0
10
123.708431
20
11.311008
30
0
40
2.8067
210
0
220
0
230
1
100
AcDbArc
50
50
51
110
0
ARC
5
FF
100
AcDbEntity
8
1
62
256
6
ByLayer
370
18
48
1
60
0
100
AcDbCircle
39
0
10
123.708431
20
11.311008
30
0
40
2.8067
210
0
220
0
230
1
100
AcDbArc
50
230
51
290
0
ARC
5
100
100
AcDbEntity
8
2
62
256
6
ByLayer
370
13
48
1
60
0
100
AcDbCircle
39
0
10
160
20
26
30
0
40
37.6310211805671
210
0
220
0
230
1
100
AcDbArc
50
0
51
20
0
CIRCLE
5
F0
100
AcDbEntity
8
1
62
256
6
ByLayer
370
18
48
1
60
0
100
AcDbCircle
10
123.708431
20
11.311008
30
0
40
5.75
39
0
210
0
220
0
230
1
0
CIRCLE
5
F8
100
AcDbEntity
8
1
62
256
6
ByLayer
370
13
48
1
60
0
100
AcDbCircle
10
123.708431
20
11.311008
30
0
40
4.55
39
0
210
0
220
0
230
1
0
CIRCLE
5
F9
100
AcDbEntity
8
1
62
256
6
ByLayer
370
18
48
1
60
0
100
AcDbCircle
10
123.708431
20
11.311008
30
0
40
5.35
39
0
210
0
220
0
230
1
0
ELLIPSE
5
101
100
AcDbEntity
8
1
62
256
6
ByLayer
370
18
48
1
60
0
100
AcDbEllipse
10
148.840174
20
18.835376
30
0
11
0.0513030214988846
21
-0.140953893117883
31
0
210
0
220
0
230
1
40
0.736005
41
0.349065850410724
42
1.5707963267949
0
ELLIPSE
5
102
100
AcDbEntity
8
1
62
256
6
ByLayer
370
18
48
1
60
0
100
AcDbEllipse
10
148.481074
20
19.821995
30
0
11
0.0513030214957704
21
-0.140953893122457
31
0
210
0
220
0
230
1
40
0.736005
41
1.5707963267949
42
2.79252680321187
0
ELLIPSE
5
103
100
AcDbEntity
8
1
62
256
6
ByLayer
370
18
48
1
60
0
100
AcDbEllipse
10
96.511596
20
4.413602
30
0
11
-8.38814416013536
21
-2.56451303025164
31
0
210
1.24515076058805E-17
220
1.34856168418918E-16
230
1
40
0.34202
41
2.33002047682605
42
-2.29417528301388
0
ELLIPSE
5
104
100
AcDbEntity
8
1
62
256
6
ByLayer
370
18
48
1
60
0
100
AcDbEllipse
10
98.80673
20
5.115295
30
0
11
-0.745547847043002
21
2.43857712770587
31
0
210
0
220
0
230
1
40
0.34202
41
-2.37546079963511
42
-0.647879621116568
0
ELLIPSE
5
105
100
AcDbEntity
8
1
62
256
6
ByLayer
370
13
48
1
60
0
100
AcDbEllipse
10
100.226882
20
5.549479
30
0
11
-0.877115114167191
21
2.86891426788583
31
0
210
0
220
0
230
1
40
0.34202
41
-2.99471583092959
42
-0.0451555727899569
0
ELLIPSE
5
106
100
AcDbEntity
8
1
62
256
6
ByLayer
370
18
48
1
60
0
100
AcDbEllipse
10
110.35467
20
0
30
0
11
10.3959070046456
21
-19.5303119716243
31
0
210
0
220
0
230
1
40
0.514688
41
-1.41940772682996
42
-0.905976808144345
0
ELLIPSE
5
107
100
AcDbEntity
8
1
62
256
6
ByLayer
370
18
48
1
60
0
100
AcDbEllipse
10
100.460933
20
5.621036
30
0
11
1.04399853448272
21
-2.81652199080798
31
0
210
0
220
0
230
1
40
0.507009
41
-0.779077556092861
42
0.25815980369537
0
ELLIPSE
5
108
100
AcDbEntity
8
1
62
256
6
ByLayer
370
18
48
1
60
0
100
AcDbEllipse
10
100.435381
20
5.625367
30
0
11
-1.02231182234512
21
2.80877864753476
31
0
210
0
220
0
230
1
40
0.5
41
0.210964803739486
42
2.37670238141952
0
ELLIPSE
5
109
100
AcDbEntity
8
1
62
256
6
ByLayer
370
18
48
1
60
0
100
AcDbEllipse
10
100.460933
20
5.621036
30
0
11
1.04399853447594
21
-2.81652199078498
31
0
210
0
220
0
230
1
40
0.507009
41
2.86014905132827
42
-2.93113570025347
0
ELLIPSE
5
10A
100
AcDbEntity
8
1
62
256
6
ByLayer
370
18
48
1
60
0
100
AcDbEllipse
10
110.35467
20
0
30
0
11
10.13369912797
21
-19.0377141029157
31
0
210
0
220
0
230
1
40
0.514688
41
-2.75107788196234
42
-2.19442905836079
0
POINT
5
70
100
AcDbEntity
8
81
62
256
6
ByLayer
370
18
48
1
60
0
100
AcDbPoint
10
160
20
26
30
0
39
0
210
0
220
0
230
1
50
360
0
POINT
5
72
100
AcDbEntity
8
80
62
256
6
ByLayer
370
18
48
1
60
0
100
AcDbPoint
10
0
20
0
30
0
39
0
210
0
220
0
230
1
50
360
0
POINT
5
74
100
AcDbEntity
8
1
62
256
6
ByLayer
370
18
48
1
60
1
100
AcDbPoint
10
-94
20
0
30
0
39
0
210
0
220
0
230
1
50
360
0
POINT
5
76
100
AcDbEntity
8
1
62
256
6
ByLayer
370
18
48
1
60
1
100
AcDbPoint
10
160
20
26
30
0
39
0
210
0
220
0
230
1
50
360
0
POINT
5
77
100
AcDbEntity
8
1
62
256
6
ByLayer
370
18
48
1
60
1
100
AcDbPoint
10
160
20
26
30
0
39
0
210
0
220
0
230
1
50
360
0
POINT
5
78
100
AcDbEntity
8
1
62
256
6
ByLayer
370
18
48
1
60
1
100
AcDbPoint
10
-94
20
20
30
0
39
0
210
0
220
0
230
1
50
360
0
POINT
5
79
100
AcDbEntity
8
1
62
256
6
ByLayer
370
18
48
1
60
1
100
AcDbPoint
10
-94
20
-20
30
0
39
0
210
0
220
0
230
1
50
360
0
SPLINE
5
10B
100
AcDbEntity
8
1
62
256
6
ByLayer
370
18
48
1
60
0
100
AcDbSpline
70
4
71
3
72
10
73
6
40
0
40
0
40
0
40
0
40
0.5
40
0.5
40
1
40
1
40
1
40
1
41
1
10
99.3058519206752
20
20.0604032122065
30
0
41
1
10
99.1501621028322
20
20.0604032122065
30
0
41
1
10
99.0129062951279
20
20.0604032122065
30
0
41
1
10
98.7841638514066
20
20.0604032122065
30
0
41
1
10
98.6927550989572
20
20.0604032122065
30
0
41
1
10
98.6282156087696
20
20.0604032122065
30
0
0
SPLINE
5
10C
100
AcDbEntity
8
1
62
256
6
ByLayer
370
18
48
1
60
0
100
AcDbSpline
70
4
71
3
72
8
73
4
40
0
40
0
40
0
40
0
40
1
40
1
40
1
40
1
41
1
10
99.3058519206752
20
20.0604032122065
30
0
41
1
10
99.0755907197276
20
19.0747275658565
30
0
41
1
10
98.8491614493917
20
18.0882822138368
30
0
41
1
10
98.6282156087695
20
17.1007354256567
30
0
0
SPLINE
5
10D
100
AcDbEntity
8
1
62
256
6
ByLayer
370
18
48
1
60
0
100
AcDbSpline
70
4
71
3
72
28
73
24
40
0
40
0
40
0
40
0
40
0.125000000000008
40
0.125000000000008
40
0.250000000000016
40
0.250000000000016
40
0.312500000000042
40
0.312500000000042
40
0.375000000000069
40
0.375000000000069
40
0.500000000000122
40
0.500000000000122
40
0.625000000000176
40
0.625000000000176
40
0.656250000000161
40
0.656250000000161
40
0.687500000000146
40
0.687500000000146
40
0.750000000000117
40
0.750000000000117
40
0.875000000000059
40
0.875000000000059
40
1
40
1
40
1
40
1
41
1
10
101.406424455024
20
8.26156964797823
30
0
41
1
10
101.329294496644
20
8.26130803543302
30
0
41
1
10
101.253219297038
20
8.26420897646153
30
0
41
1
10
101.10282417947
20
8.27422267697017
30
0
41
1
10
101.028507041385
20
8.28134768516352
30
0
41
1
10
100.918229471239
20
8.29411954925422
30
0
41
1
10
100.881671192865
20
8.2987281940278
30
0
41
1
10
100.808949388809
20
8.3085042750879
30
0
41
1
10
100.772722587226
20
8.31368271415823
30
0
41
1
10
100.665914125343
20
8.32966790335857
30
0
41
1
10
100.596790479773
20
8.34096607718712
30
0
41
1
10
100.462583879625
20
8.36391928007717
30
0
41
1
10
100.397501253666
20
8.37557923376582
30
0
41
1
10
100.318786749014
20
8.38993394617339
30
0
41
1
10
100.30317654139
20
8.39279419458873
30
0
41
1
10
100.272227491656
20
8.39848311365463
30
0
41
1
10
100.256863511591
20
8.40131643404453
30
0
41
1
10
100.21138638815
20
8.40971773809613
30
0
41
1
10
100.181944197504
20
8.4151761239977
30
0
41
1
10
100.096260642674
20
8.43102798217049
30
0
41
1
10
100.042648378459
20
8.44089613174452
30
0
41
1
10
99.9428480372069
20
8.45879750497042
30
0
41
1
10
99.8966545991019
20
8.46683258177507
30
0
41
1
10
99.8546267179011
20
8.47375667230375
30
0
0
SPLINE
5
10E
100
AcDbEntity
8
1
62
256
6
ByLayer
370
18
48
1
60
0
100
AcDbSpline
70
4
71
3
72
29
73
25
40
0
40
0
40
0
40
0
40
0.125000000000068
40
0.125000000000068
40
0.250000000000135
40
0.250000000000135
40
0.312500000000157
40
0.312500000000157
40
0.343750000000168
40
0.343750000000168
40
0.375000000000178
40
0.375000000000178
40
0.500000000000142
40
0.500000000000142
40
0.625000000000107
40
0.625000000000107
40
0.656250000000098
40
0.656250000000098
40
0.68750000000009
40
0.750000000000072
40
0.750000000000072
40
0.875000000000036
40
0.875000000000036
40
1
40
1
40
1
40
1
41
1
10
101.834905825485
20
3.03298453999881
30
0
41
1
10
101.862596951543
20
3.06357600794931
30
0
41
1
10
101.892918072149
20
3.09724419149706
30
0
41
1
10
101.958416325568
20
3.17004457976231
30
0
41
1
10
101.993595541567
20
3.20918024275687
30
0
41
1
10
102.05001912091
20
3.27162608080843
30
0
41
1
10
102.069439129367
20
3.29306638379987
30
0
41
1
10
102.099517197525
20
3.32612883745256
30
0
41
1
10
102.109704908501
20
3.33730371972922
30
0
41
1
10
102.130261847721
20
3.35979347770663
30
0
41
1
10
102.140648012181
20
3.37112700555571
30
0
41
1
10
102.193122119538
20
3.42821069771927
30
0
41
1
10
102.236826199921
20
3.4752073633783
30
0
41
1
10
102.328022761252
20
3.57120553887748
30
0
41
1
10
102.375511189322
20
3.62021076891796
30
0
41
1
10
102.437699899861
20
3.68230338343361
30
0
41
1
10
102.450301696172
20
3.69478442586268
30
0
41
1
10
102.475677771502
20
3.71969131596492
30
0
41
1
10
102.51400110704
20
3.75697018135071
30
0
41
1
10
102.553145647871
20
3.79394467945966
30
0
41
1
10
102.632673105876
20
3.86731104468845
30
0
41
1
10
102.687328315502
20
3.91545593603152
30
0
41
1
10
102.800966724965
20
4.00906566882566
30
0
41
1
10
102.859940173033
20
4.05453898336432
30
0
41
1
10
102.921882706797
20
4.09788232110535
30
0
0
SPLINE
5
10F
100
AcDbEntity
8
1
62
256
6
ByLayer
370
18
48
1
60
0
100
AcDbSpline
70
4
71
3
72
10
73
6
40
0
40
0
40
0
40
0
40
0.5
40
0.5
40
1
40
1
40
1
40
1
41
1
10
109.13139292556
20
-16.4532503060478
30
0
41
1
10
109.081566544656
20
-16.4237210127645
30
0
41
1
10
109.03378989906
20
-16.3928180480146
30
0
41
1
10
108.942225379711
20
-16.3282523363455
30
0
41
1
10
108.898390473132
20
-16.2945388962958
30
0
41
1
10
108.856866005178
20
-16.2596924940173
30
0
0
SPLINE
5
110
100
AcDbEntity
8
1
62
256
6
ByLayer
370
18
48
1
60
0
100
AcDbSpline
70
4
71
3
72
17
73
13
40
0
40
0
40
0
40
0
40
0.250000000000027
40
0.250000000000027
40
0.500000000000054
40
0.500000000000054
40
0.562500000000039
40
0.562500000000039
40
0.625000000000024
40
0.749999999999995
40
0.749999999999995
40
1
40
1
40
1
40
1
41
1
10
97.6622897824805
20
16.0273548382471
30
0
41
1
10
97.7228573292125
20
16.0584195996786
30
0
41
1
10
97.7848596246899
20
16.091867624015
30
0
41
1
10
97.9099769973625
20
16.1659850741909
30
0
41
1
10
97.9731110500967
20
16.2066246956898
30
0
41
1
10
98.0517014001671
20
16.2635678003383
30
0
41
1
10
98.0674377946143
20
16.2752938604138
30
0
41
1
10
98.0985183339546
20
16.2991566589041
30
0
41
1
10
98.1446450039539
20
16.3356313168835
30
0
41
1
10
98.1891799358838
20
16.3742372744784
30
0
41
1
10
98.2758116293186
20
16.4545611080841
30
0
41
1
10
98.3303401540041
20
16.5122341648476
30
0
41
1
10
98.3805926334695
20
16.5749742527674
30
0
0
SPLINE
5
111
100
AcDbEntity
8
1
62
256
6
ByLayer
370
18
48
1
60
0
100
AcDbSpline
70
4
71
3
72
16
73
12
40
0
40
0
40
0
40
0
40
0.249999999999959
40
0.249999999999959
40
0.499999999999917
40
0.499999999999917
40
0.624999999999927
40
0.624999999999927
40
0.749999999999936
40
0.749999999999936
40
1
40
1
40
1
40
1
41
1
10
98.3805926334695
20
16.5749742527674
30
0
41
1
10
98.4112189901023
20
16.6132111781539
30
0
41
1
10
98.4391748757572
20
16.6530970044178
30
0
41
1
10
98.4902064368256
20
16.7358819766991
30
0
41
1
10
98.5132793044205
20
16.7787828564238
30
0
41
1
10
98.5443532820049
20
16.8453170862827
30
0
41
1
10
98.5541342600658
20
16.8678959693782
30
0
41
1
10
98.5724505908005
20
16.913628418677
30
0
41
1
10
98.5809376042725
20
16.9366548429498
30
0
41
1
10
98.6044632058963
20
17.0061960925092
30
0
41
1
10
98.6175739422945
20
17.0531710835599
30
0
41
1
10
98.6282156087695
20
17.1007354256567
30
0
0
SPLINE
5
112
100
AcDbEntity
8
1
62
256
6
ByLayer
370
18
48
1
60
0
100
AcDbSpline
70
4
71
3
72
16
73
12
40
0
40
0
40
0
40
0
40
0.0058837460379385
40
0.0058837460379385
40
0.130148277783196
40
0.130148277783196
40
0.254412809528454
40
0.254412809528454
40
0.502941873018969
40
0.502941873018969
40
1
40
1
40
1
40
1
41
1
10
98.3965700224775
20
20.0604032122065
30
0
41
1
10
98.3965689005909
20
20.0604032122065
30
0
41
1
10
98.3965723417141
20
20.0604032122065
30
0
41
1
10
98.3967496294883
20
20.0604032122065
30
0
41
1
10
98.398958686064
20
20.0604032122065
30
0
41
1
10
98.4072212271278
20
20.0604032122065
30
0
41
1
10
98.4132713945588
20
20.0604032122065
30
0
41
1
10
98.4362540506552
20
20.0604032122065
30
0
41
1
10
98.4580686952647
20
20.0604032122065
30
0
41
1
10
98.5316526185893
20
20.0604032122065
30
0
41
1
10
98.5912783472567
20
20.0604032122065
30
0
41
1
10
98.6282156087699
20
20.0604032122065
30
0
0
SPLINE
5
113
100
AcDbEntity
8
1
62
256
6
ByLayer
370
18
48
1
60
0
100
AcDbSpline
70
4
71
3
72
10
73
6
40
0
40
0
40
0
40
0
40
0.5
40
0.5
40
1
40
1
40
1
40
1
41
1
10
94.0000000000001
20
17.5107499999997
30
0
41
1
10
94.0312460555931
20
17.5419960555927
30
0
41
1
10
94.0631988974758
20
17.5739488974753
30
0
41
1
10
94.1287466105438
20
17.6394966105434
30
0
41
1
10
94.1623385204312
20
17.6730885204307
30
0
41
1
10
94.1969437584384
20
17.707693758438
30
0
0
SPLINE
5
114
100
AcDbEntity
8
1
62
256
6
ByLayer
370
18
48
1
60
0
100
AcDbSpline
70
4
71
3
72
20
73
16
40
0
40
0
40
0
40
0
40
0.125000000000007
40
0.125000000000007
40
0.250000000000014
40
0.250000000000014
40
0.375000000000021
40
0.375000000000021
40
0.500000000000029
40
0.500000000000029
40
0.750000000000049
40
0.750000000000049
40
0.875000000000024
40
0.875000000000024
40
1
40
1
40
1
40
1
41
1
10
94.0000000000001
20
17.5107499999996
30
0
41
1
10
93.9736597094205
20
17.5107499999996
30
0
41
1
10
93.9484483768595
20
17.5107499999996
30
0
41
1
10
93.8998794172277
20
17.5107499999996
30
0
41
1
10
93.8765239812536
20
17.5107499999996
30
0
41
1
10
93.831396155276
20
17.5107499999996
30
0
41
1
10
93.8095825153849
20
17.5107499999996
30
0
41
1
10
93.7681585286726
20
17.5107499999996
30
0
41
1
10
93.7484231208177
20
17.5107499999996
30
0
41
1
10
93.6916475372682
20
17.5107499999996
30
0
41
1
10
93.6570114786689
20
17.5107499999996
30
0
41
1
10
93.6086879078532
20
17.5107499999996
30
0
41
1
10
93.5931585394442
20
17.5107499999996
30
0
41
1
10
93.5633869776423
20
17.5107499999996
30
0
41
1
10
93.5491580955006
20
17.5107499999996
30
0
41
1
10
93.5355059306722
20
17.5107499999996
30
0
0
SPLINE
5
115
100
AcDbEntity
8
1
62
256
6
ByLayer
370
18
48
1
60
0
100
AcDbSpline
70
4
71
3
72
30
73
26
40
0
40
0
40
0
40
0
40
0.250000000000021
40
0.250000000000021
40
0.312500000000028
40
0.312500000000028
40
0.375000000000034
40
0.375000000000034
40
0.500000000000001
40
0.500000000000001
40
0.562500000000011
40
0.562500000000011
40
0.625000000000021
40
0.625000000000021
40
0.75000000000004
40
0.75000000000004
40
0.81250000000005
40
0.81250000000005
40
0.87500000000006
40
0.87500000000006
40
0.93750000000007
40
0.93750000000007
40
0.968750000000035
40
0.968750000000035
40
1
40
1
40
1
40
1
41
1
10
93.5355059306722
20
7.57100492421543
30
0
41
1
10
93.5683164274168
20
7.49460665113358
30
0
41
1
10
93.6043126204376
20
7.41966057031877
30
0
41
1
10
93.6550755241243
20
7.32860714484761
30
0
41
1
10
93.665522559137
20
7.3105306860526
30
0
41
1
10
93.6870819441815
20
7.27468105077267
30
0
41
1
10
93.6982081958393
20
7.2568874305372
30
0
41
1
10
93.7325546748762
20
7.20429262349114
30
0
41
1
10
93.7567596104405
20
7.17020722645168
30
0
41
1
10
93.795660292374
20
7.12101882406364
30
0
41
1
10
93.8090624762176
20
7.10494827345789
30
0
41
1
10
93.8368998987288
20
7.07357986570011
30
0
41
1
10
93.8513130613826
20
7.05831285376644
30
0
41
1
10
93.8958902396734
20
7.01440220368264
30
0
41
1
10
93.9274838844913
20
6.98745256710106
30
0
41
1
10
93.978966615642
20
6.95209919849822
30
0
41
1
10
93.9968352001677
20
6.94115915434031
30
0
41
1
10
94.0342486548853
20
6.92148869054941
30
0
41
1
10
94.0534105192078
20
6.91296393492286
30
0
41
1
10
94.0927762944689
20
6.89891478942963
30
0
41
1
10
94.1129796181316
20
6.89338870861832
30
0
41
1
10
94.1441976061255
20
6.88772839632173
30
0
41
1
10
94.1547076928342
20
6.88629292803984
30
0
41
1
10
94.1757544652182
20
6.8843784361529
30
0
41
1
10
94.1862535214599
20
6.88389356124099
30
0
41
1
10
94.1969437584384
20
6.88389356124099
30
0
0
SPLINE
5
116
100
AcDbEntity
8
1
62
256
6
ByLayer
370
18
48
1
60
0
100
AcDbSpline
70
4
71
3
72
30
73
26
40
0
40
0
40
0
40
0
40
0.0312499999999284
40
0.0312499999999284
40
0.0624999999998568
40
0.0624999999998568
40
0.124999999999795
40
0.124999999999795
40
0.156249999999802
40
0.156249999999802
40
0.18749999999981
40
0.18749999999981
40
0.249999999999824
40
0.249999999999824
40
0.312499999999838
40
0.312499999999838
40
0.374999999999852
40
0.374999999999852
40
0.499999999999881
40
0.499999999999881
40
0.624999999999911
40
0.624999999999911
40
0.749999999999941
40
0.749999999999941
40
1
40
1
40
1
40
1
41
1
10
94.1969437584383
20
-6.88389356124173
30
0
41
1
10
94.1865516223384
20
-6.88389356124173
30
0
41
1
10
94.1761408515555
20
-6.88435799293552
30
0
41
1
10
94.1552816008156
20
-6.88622668104651
30
0
41
1
10
94.1447887369073
20
-6.88763943180754
30
0
41
1
10
94.1135716123172
20
-6.89324644732793
30
0
41
1
10
94.0933353389177
20
-6.89874446493261
30
0
41
1
10
94.0637251001417
20
-6.90926874576883
30
0
41
1
10
94.0539794243568
20
-6.91315753010608
30
0
41
1
10
94.0347209574117
20
-6.9216477539531
30
0
41
1
10
94.0251772658084
20
-6.92626670432134
30
0
41
1
10
93.9971951807962
20
-6.94095301558352
30
0
41
1
10
93.9793476882871
20
-6.95185550851107
30
0
41
1
10
93.9449470510751
20
-6.97544291054291
30
0
41
1
10
93.928395597575
20
-6.98813014856304
30
0
41
1
10
93.896369441879
20
-7.01498739371203
30
0
41
1
10
93.8808597182487
20
-7.0291945128055
30
0
41
1
10
93.8359514785646
20
-7.07347207571772
30
0
41
1
10
93.8084708748262
20
-7.104819482545
30
0
41
1
10
93.756896866408
20
-7.17003452917481
30
0
41
1
10
93.7328226505743
20
-7.20391644636732
30
0
41
1
10
93.6872664153931
20
-7.27360899499388
30
0
41
1
10
93.6657638734742
20
-7.30947534290675
30
0
41
1
10
93.6045931976794
20
-7.41907882452762
30
0
41
1
10
93.5684485678162
20
-7.49429896611235
30
0
41
1
10
93.5355059306713
20
-7.57100492421571
30
0
0
SPLINE
5
117
100
AcDbEntity
8
1
62
256
6
ByLayer
370
18
48
1
60
0
100
AcDbSpline
70
4
71
3
72
41
73
37
40
0
40
0
40
0
40
0
40
0.124999999999996
40
0.124999999999996
40
0.249999999999992
40
0.249999999999992
40
0.31249999999999
40
0.31249999999999
40
0.343749999999998
40
0.343749999999998
40
0.375000000000006
40
0.375000000000006
40
0.500000000000034
40
0.500000000000034
40
0.625000000000063
40
0.625000000000063
40
0.65625000000007
40
0.65625000000007
40
0.687500000000077
40
0.687500000000077
40
0.750000000000121
40
0.750000000000121
40
0.812500000000165
40
0.812500000000165
40
0.875000000000209
40
0.875000000000209
40
0.8906250000002
40
0.8906250000002
40
0.90625000000019
40
0.90625000000019
40
0.937500000000127
40
0.968750000000063
40
0.968750000000063
40
0.984375000000032
40
0.984375000000032
40
1
40
1
40
1
40
1
41
1
10
98.5344333701422
20
-8.23483454599986
30
0
41
1
10
98.5187598112729
20
-8.16612850457113
30
0
41
1
10
98.5015835892888
20
-8.09782359850547
30
0
41
1
10
98.4639276302838
20
-7.96209565849236
30
0
41
1
10
98.4434515610876
20
-7.89467164542043
30
0
41
1
10
98.409876616456
20
-7.7942993262167
30
0
41
1
10
98.3982061689501
20
-7.76096970177704
30
0
41
1
10
98.3799091241777
20
-7.71118652198456
30
0
41
1
10
98.3736851107905
20
-7.69464528572232
30
0
41
1
10
98.3609039965129
20
-7.66150011680185
30
0
41
1
10
98.3543839709791
20
-7.64499376942825
30
0
41
1
10
98.3211029643087
20
-7.56281037580956
30
0
41
1
10
98.2923293575303
20
-7.49816300525478
30
0
41
1
10
98.2292116431592
20
-7.37171817778665
30
0
41
1
10
98.1949078200431
20
-7.3099001110065
30
0
41
1
10
98.1469774963402
20
-7.23521142743971
30
0
41
1
10
98.1371336038593
20
-7.2204055975007
30
0
41
1
10
98.1168620601101
20
-7.19109259337876
30
0
41
1
10
98.1064343881946
20
-7.17658758609591
30
0
41
1
10
98.0743505117884
20
-7.13384508288539
30
0
41
1
10
98.0518486438991
20
-7.10628738951826
30
0
41
1
10
98.0039305417854
20
-7.05362717042257
30
0
41
1
10
97.9783824699017
20
-7.02841563570817
30
0
41
1
10
97.924389278745
20
-6.98237199422445
30
0
41
1
10
97.8958930821734
20
-6.96142980331572
30
0
41
1
10
97.8576627372279
20
-6.9388717210104
30
0
41
1
10
97.8498843414132
20
-6.93454361390655
30
0
41
1
10
97.8340356080494
20
-6.92629226122057
30
0
41
1
10
97.8259379608706
20
-6.92235749224901
30
0
41
1
10
97.8014257880904
20
-6.91134368810359
30
0
41
1
10
97.7681227115172
20
-6.89872800269359
30
0
41
1
10
97.7334429559222
20
-6.89070595706403
30
0
41
1
10
97.7068519754117
20
-6.88662862375418
30
0
41
1
10
97.6978809460507
20
-6.88559609021351
30
0
41
1
10
97.6800557952826
20
-6.8842321648211
30
0
41
1
10
97.671163023983
20
-6.88389356124193
30
0
41
1
10
97.6622897824804
20
-6.88389356124193
30
0
0
SPLINE
5
118
100
AcDbEntity
8
1
62
256
6
ByLayer
370
18
48
1
60
0
100
AcDbSpline
70
4
71
3
72
16
73
12
40
0
40
0
40
0
40
0
40
0.250000000000001
40
0.250000000000001
40
0.500000000000001
40
0.500000000000001
40
0.625000000000002
40
0.625000000000002
40
0.750000000000002
40
0.750000000000002
40
1
40
1
40
1
40
1
41
1
10
97.6622897824805
20
16.0273548382471
30
0
41
1
10
97.6112452412813
20
16.0011743739507
30
0
41
1
10
97.5647418957356
20
15.9727861946559
30
0
41
1
10
97.4800487912178
20
15.9118275854804
30
0
41
1
10
97.4418639359386
20
15.8792551267059
30
0
41
1
10
97.3905763931987
20
15.8272774447184
30
0
41
1
10
97.3744379804747
20
15.8093696099968
30
0
41
1
10
97.3445237556729
20
15.7729792081812
30
0
41
1
10
97.3307045109325
20
15.7544628712114
30
0
41
1
10
97.2924656790823
20
15.6979816279818
30
0
41
1
10
97.2712536994388
20
15.6590870340661
30
0
41
1
10
97.2539716507348
20
15.6189977451336
30
0
0
SPLINE
5
119
100
AcDbEntity
8
1
62
256
6
ByLayer
370
18
48
1
60
0
100
AcDbSpline
70
4
71
9
72
20
73
10
40
0
40
0
40
0
40
0
40
0
40
0
40
0
40
0
40
0
40
0
40
1
40
1
40
1
40
1
40
1
40
1
40
1
40
1
40
1
40
1
41
1
10
132.384763152675
20
9.92437360604188
30
0
41
1
10
132.937271498101
20
9.76954121761517
30
0
41
1
10
133.514611378701
20
9.70331851000375
30
0
41
1
10
134.100541712745
20
9.73025680770456
30
0
41
1
10
134.677848206713
20
9.85143434698162
30
0
41
1
10
135.229234537921
20
10.0642066119736
30
0
41
1
10
135.738293532883
20
10.3622431105586
30
0
41
1
10
136.190436058456
20
10.7358837039332
30
0
41
1
10
136.573634542476
20
11.1727655920456
30
0
41
1
10
136.878915224738
20
11.6586073621488
30
0
0
SPLINE
5
11A
100
AcDbEntity
8
1
62
256
6
ByLayer
370
18
48
1
60
0
100
AcDbSpline
70
4
71
9
72
20
73
10
40
0
40
0
40
0
40
0
40
0
40
0
40
0
40
0
40
0
40
0
40
1
40
1
40
1
40
1
40
1
40
1
40
1
40
1
40
1
40
1
41
1
10
159.758770483144
20
23.3680805733021
30
0
41
1
10
159.415406244177
20
24.3114651665657
30
0
41
1
10
158.807325914357
20
25.1585081066542
30
0
41
1
10
157.965429203939
20
25.8242880032943
30
0
41
1
10
156.952372719334
20
26.2355491784631
30
0
41
1
10
155.857380223611
20
26.3446448223857
30
0
41
1
10
154.783092037091
20
26.1414279727539
30
0
41
1
10
153.826359738625
20
25.6548669639188
30
0
41
1
10
153.063080323472
20
24.944488382186
30
0
41
1
10
152.540296640006
20
24.0874162006275
30
0
0
SPLINE
5
11B
100
AcDbEntity
8
1
62
256
6
ByLayer
370
18
48
1
60
0
100
AcDbSpline
70
4
71
9
72
20
73
10
40
0
40
0
40
0
40
0
40
0
40
0
40
0
40
0
40
0
40
0
40
1
40
1
40
1
40
1
40
1
40
1
40
1
40
1
40
1
40
1
41
1
10
159.758770652492
20
23.3680801080209
30
0
41
1
10
160.102134309191
20
22.4246953146337
30
0
41
1
10
160.18078646038
20
21.3849562881466
30
0
41
1
10
159.963811240953
20
20.3337785357603
30
0
41
1
10
159.452118553522
20
19.3675540494948
30
0
41
1
10
158.683430984953
20
18.5801343295465
30
0
41
1
10
157.729853237089
20
18.0452683243848
30
0
41
1
10
156.684198406119
20
17.803019997478
30
0
41
1
10
155.642869912241
20
17.8565749882652
30
0
41
1
10
154.691479000218
20
18.1770914688826
30
0
0
SPLINE
5
11C
100
AcDbEntity
8
1
62
256
6
ByLayer
370
18
48
1
60
0
100
AcDbSpline
70
4
71
3
72
21
73
17
40
0
40
0
40
0
40
0
40
0.0498591071718392
40
0.103026384935957
40
0.159504494725955
40
0.21929600290414
40
0.282403422774384
40
0.348829241397915
40
0.418575936602257
40
0.491645989728327
40
0.568041899183157
40
0.647766198198257
40
0.730821475890508
40
0.817210392803271
40
0.906935668681615
40
1
40
1
40
1
40
1
41
1
10
154.691447192789
20
18.1769970419558
30
0
41
1
10
154.68925216465
20
18.177712060662
30
0
41
1
10
154.684716467427
20
18.1791895398358
30
0
41
1
10
154.677598002407
20
18.1811630638176
30
0
41
1
10
154.669968863721
20
18.1829947065167
30
0
41
1
10
154.661820001055
20
18.184607998442
30
0
41
1
10
154.653156066677
20
18.1859531985066
30
0
41
1
10
154.643982918942
20
18.1869684754331
30
0
41
1
10
154.634312110245
20
18.1875915580447
30
0
41
1
10
154.62416049144
20
18.1877566485832
30
0
41
1
10
154.613551083883
20
18.1873962011553
30
0
41
1
10
154.602514269494
20
18.1864395616765
30
0
41
1
10
154.591086182845
20
18.1848200767938
30
0
41
1
10
154.579318588299
20
18.1824504996818
30
0
41
1
10
154.567243021584
20
18.179324206596
30
0
41
1
10
154.559237600475
20
18.1765718504116
30
0
41
1
10
154.555161771582
20
18.1751705333904
30
0
0
SPLINE
5
11D
100
AcDbEntity
8
1
62
256
6
ByLayer
370
18
48
1
60
0
100
AcDbSpline
70
4
71
2
72
6
73
3
40
0
40
0
40
0
40
1
40
1
40
1
41
1
10
152.540211577652
20
24.0874680904639
30
0
41
1
10
152.502607134537
20
24.0262100387274
30
0
41
1
10
152.434636882963
20
24.0012647822631
30
0
0
SPLINE
5
11E
100
AcDbEntity
8
1
62
256
6
ByLayer
370
18
48
1
60
0
100
AcDbSpline
70
4
71
8
72
18
73
9
40
0
40
0
40
0
40
0
40
0
40
0
40
0
40
0
40
0
40
1
40
1
40
1
40
1
40
1
40
1
40
1
40
1
40
1
41
1
10
150.677046043353
20
23.3615540326262
30
0
41
1
10
150.79459951088
20
23.4043399957409
30
0
41
1
10
150.919336016268
20
23.4497403708285
30
0
41
1
10
151.050211146168
20
23.497375022518
30
0
41
1
10
151.186091128282
20
23.54683129144
30
0
41
1
10
151.325772331841
20
23.5976710918219
30
0
41
1
10
151.46800353961
20
23.6494390178335
30
0
41
1
10
151.61150975031
20
23.7016710069609
30
0
41
1
10
151.755015960946
20
23.7539029960644
30
0
0
SPLINE
5
11F
100
AcDbEntity
8
1
62
256
6
ByLayer
370
18
48
1
60
0
100
AcDbSpline
70
4
71
8
72
18
73
9
40
0
40
0
40
0
40
0
40
0
40
0
40
0
40
0
40
0
40
1
40
1
40
1
40
1
40
1
40
1
40
1
40
1
40
1
41
1
10
152.797570931972
20
17.5354597837536
30
0
41
1
10
152.915124399499
20
17.5782457468683
30
0
41
1
10
153.039860904887
20
17.6236461219558
30
0
41
1
10
153.170736034787
20
17.6712807736453
30
0
41
1
10
153.306616016901
20
17.7207370425674
30
0
41
1
10
153.44629722046
20
17.7715768429493
30
0
41
1
10
153.588528428229
20
17.8233447689609
30
0
41
1
10
153.73203463893
20
17.8755767580883
30
0
41
1
10
153.875540849565
20
17.9278087471917
30
0
0
SPLINE
5
120
100
AcDbEntity
8
1
62
256
6
ByLayer
370
18
48
1
60
0
100
AcDbSpline
70
4
71
11
72
24
73
12
40
0
40
0
40
0
40
0
40
0
40
0
40
0
40
0
40
0
40
0
40
0
40
0
40
1
40
1
40
1
40
1
40
1
40
1
40
1
40
1
40
1
40
1
40
1
40
1
41
1
10
148.994783775912
20
22.43931765841
30
0
41
1
10
148.995326446605
20
22.4378266829348
30
0
41
1
10
148.995906281245
20
22.4363492340408
30
0
41
1
10
148.996523096148
20
22.4348858163676
30
0
41
1
10
148.997176691924
20
22.4334369288176
30
0
41
1
10
148.997866853542
20
22.4320030643234
30
0
41
1
10
148.998593350478
20
22.4305847095292
30
0
41
1
10
148.999355936809
20
22.4291823445594
30
0
41
1
10
149.000154351357
20
22.4277964427408
30
0
41
1
10
149.000988317837
20
22.4264274703381
30
0
41
1
10
149.001857544999
20
22.4250758863168
30
0
41
1
10
149.002761726806
20
22.4237421421207
30
0
0
SPLINE
5
121
100
AcDbEntity
8
1
62
256
6
ByLayer
370
18
48
1
60
0
100
AcDbSpline
70
4
71
11
72
24
73
12
40
0
40
0
40
0
40
0
40
0
40
0
40
0
40
0
40
0
40
0
40
0
40
0
40
1
40
1
40
1
40
1
40
1
40
1
40
1
40
1
40
1
40
1
40
1
40
1
41
1
10
150.097258636366
20
20.8092671622333
30
0
41
1
10
150.099794792204
20
20.8055261190792
30
0
41
1
10
150.102605956036
20
20.8019254318585
30
0
41
1
10
150.105685374345
20
20.7984750625326
30
0
41
1
10
150.109025378263
20
20.7951845058898
30
0
41
1
10
150.112617412409
20
20.7920627468895
30
0
41
1
10
150.116452069031
20
20.7891182206942
30
0
41
1
10
150.120519127152
20
20.7863587757233
30
0
41
1
10
150.124807596341
20
20.7837916399899
30
0
41
1
10
150.129305764902
20
20.7814233910436
30
0
41
1
10
150.13400125202
20
20.7792599297383
30
0
41
1
10
150.138881063294
20
20.7773064579399
30
0
0
SPLINE
5
122
100
AcDbEntity
8
1
62
256
6
ByLayer
370
18
48
1
60
0
100
AcDbSpline
70
4
71
3
72
18
73
14
40
0
40
0
40
0
40
0
40
0.109297592929004
40
0.214849986229891
40
0.31667466206392
40
0.414791095966394
40
0.509221058678134
40
0.599988974381585
40
0.687122347628563
40
0.770652274198999
40
0.850614054790476
40
0.927047934932942
40
1
40
1
40
1
40
1
41
1
10
150.331686304997
20
20.7170333086833
30
0
41
1
10
150.329339647625
20
20.7169010885872
30
0
41
1
10
150.324726743622
20
20.7166411790589
30
0
41
1
10
150.317884963145
20
20.7166017635384
30
0
41
1
10
150.311260989328
20
20.7168096828765
30
0
41
1
10
150.304857918532
20
20.7172708200314
30
0
41
1
10
150.298682773344
20
20.7179622143542
30
0
41
1
10
150.292741314825
20
20.7188686552743
30
0
41
1
10
150.287039500743
20
20.7199742921924
30
0
41
1
10
150.28158249111
20
20.7212619767388
30
0
41
1
10
150.276376985628
20
20.722723448027
30
0
41
1
10
150.271423257294
20
20.7243219795153
30
0
41
1
10
150.268229273429
20
20.7255511975029
30
0
41
1
10
150.266669503409
20
20.7261514814887
30
0
0
SPLINE
5
123
100
AcDbEntity
8
1
62
256
6
ByLayer
370
18
48
1
60
0
100
AcDbSpline
70
4
71
5
72
12
73
6
40
0
40
0
40
0
40
0
40
0
40
0
40
1
40
1
40
1
40
1
40
1
40
1
41
1
10
150.563766491313
20
20.7426004402652
30
0
41
1
10
150.517725633109
20
20.7355987382371
30
0
41
1
10
150.471434318041
20
20.7296568916132
30
0
41
1
10
150.425089316045
20
20.7243058808049
30
0
41
1
10
150.378448718697
20
20.720207140509
30
0
41
1
10
150.331685629714
20
20.7170351640377
30
0
0
SPLINE
5
124
100
AcDbEntity
8
1
62
256
6
ByLayer
370
18
48
1
60
0
100
AcDbSpline
70
4
71
2
72
10
73
7
40
0
40
0
40
0
40
0.5
40
0.5
40
0.75
40
0.75
40
1
40
1
40
1
41
1
10
150.563766491289
20
20.7426004402948
30
0
41
1
10
150.655737032357
20
20.756497404181
30
0
41
1
10
150.734474701876
20
20.7344144764985
30
0
41
1
10
150.780216131901
20
20.7215857415675
30
0
41
1
10
150.815950563129
20
20.6970244541905
30
0
41
1
10
150.857499399091
20
20.6684667616476
30
0
41
1
10
150.879548880814
20
20.6266125137854
30
0
0
SPLINE
5
125
100
AcDbEntity
8
1
62
256
6
ByLayer
370
18
48
1
60
0
100
AcDbSpline
70
4
71
5
72
12
73
6
40
0
40
0
40
0
40
0
40
0
40
0
40
1
40
1
40
1
40
1
40
1
40
1
41
1
10
150.879548880842
20
20.626612513887
30
0
41
1
10
150.897236174526
20
20.5928092903847
30
0
41
1
10
150.913721082197
20
20.5581790836439
30
0
41
1
10
150.929378149708
20
20.5234349423856
30
0
41
1
10
150.943643564278
20
20.4877385877637
30
0
41
1
10
150.956748103533
20
20.4517341616306
30
0
0
SPLINE
5
126
100
AcDbEntity
8
1
62
256
6
ByLayer
370
18
48
1
60
0
100
AcDbSpline
70
4
71
5
72
12
73
6
40
0
40
0
40
0
40
0
40
0
40
0
40
1
40
1
40
1
40
1
40
1
40
1
41
1
10
151.194710583883
20
19.7607128513033
30
0
41
1
10
151.186531543689
20
19.7979767960562
30
0
41
1
10
151.176899847792
20
19.8351013678918
30
0
41
1
10
151.166560753844
20
19.8717810932336
30
0
41
1
10
151.154543520943
20
19.9082957190639
30
0
41
1
10
151.141438981406
20
19.9443001450944
30
0
0
SPLINE
5
127
100
AcDbEntity
8
1
62
256
6
ByLayer
370
18
48
1
60
0
100
AcDbSpline
70
4
71
3
72
40
73
36
40
0
40
0
40
0
40
0
40
0.033560582961633
40
0.0663709615070224
40
0.0984232417106703
40
0.129710930810307
40
0.160228792735704
40
0.189972713251084
40
0.218939576168239
40
0.247127151502463
40
0.274533995981308
40
0.301159366011242
40
0.327003142989228
40
0.352065770719433
40
0.376348204639947
40
0.399851872575572
40
0.422578646791685
40
0.444530827244381
40
0.46571113608599
40
0.486122723712545
40
0.505769186920544
40
0.549313132024726
40
0.591337907778188
40
0.631886110491316
40
0.671006428074003
40
0.708754146893593
40
0.745191774120088
40
0.780389758704388
40
0.814427280754925
40
0.847393062069825
40
0.879386130393749
40
0.910516448403527
40
0.94090529929017
40
0.970685310158134
40
1
40
1
40
1
40
1
41
1
10
151.027362841102
20
19.4688799374492
30
0
41
1
10
151.030534708886
20
19.4708432653622
30
0
41
1
10
151.036807541359
20
19.474726033474
30
0
41
1
10
151.045936805307
20
19.4807745532354
30
0
41
1
10
151.054733124588
20
19.4868879610944
30
0
41
1
10
151.063189771365
20
19.493071706714
30
0
41
1
10
151.07131520469
20
19.4993058496485
30
0
41
1
10
151.079113795829
20
19.5055774650018
30
0
41
1
10
151.086590796128
20
19.511872306815
30
0
41
1
10
151.093751042665
20
19.5181769928954
30
0
41
1
10
151.100599282615
20
19.5244784673105
30
0
41
1
10
151.107140082489
20
19.5307641588094
30
0
41
1
10
151.113377845937
20
19.5370219547433
30
0
41
1
10
151.119316806342
20
19.5432402174185
30
0
41
1
10
151.124961024065
20
19.5494077860116
30
0
41
1
10
151.130314396033
20
19.5555139756593
30
0
41
1
10
151.135380620351
20
19.5615485835158
30
0
41
1
10
151.140163326446
20
19.5675018559343
30
0
41
1
10
151.144665622118
20
19.5733645839766
30
0
41
1
10
151.148891706799
20
19.5791277360989
30
0
41
1
10
151.154493426689
20
19.5871498531491
30
0
41
1
10
151.16121261194
20
19.5975541370716
30
0
41
1
10
151.16870056893
20
19.6105291238526
30
0
41
1
10
151.175336076792
20
19.623530206663
30
0
41
1
10
151.181131505233
20
19.636527363676
30
0
41
1
10
151.18609667655
20
19.6494924545887
30
0
41
1
10
151.190241477246
20
19.6623982803055
30
0
41
1
10
151.193575178801
20
19.6752189570909
30
0
41
1
10
151.196106352224
20
19.6879298924281
30
0
41
1
10
151.197843523
20
19.7005079690879
30
0
41
1
10
151.198792515762
20
19.7129311657695
30
0
41
1
10
151.198965865509
20
19.7251800145592
30
0
41
1
10
151.19834902288
20
19.7372324049302
30
0
41
1
10
151.197022305748
20
19.7490822943417
30
0
41
1
10
151.195477102055
20
19.7568564038793
30
0
41
1
10
151.194710583797
20
19.7607128513636
30
0
0
SPLINE
5
128
100
AcDbEntity
8
1
62
256
6
ByLayer
370
18
48
1
60
0
100
AcDbSpline
70
4
71
5
72
12
73
6
40
0
40
0
40
0
40
0
40
0
40
0
40
1
40
1
40
1
40
1
40
1
40
1
41
1
10
151.027362841099
20
19.4688799374864
30
0
41
1
10
150.987592890205
20
19.4446490592246
30
0
41
1
10
150.948312340144
20
19.4194452940508
30
0
41
1
10
150.909370445451
20
19.3937544130913
30
0
41
1
10
150.871007055552
20
19.3669142322354
30
0
41
1
10
150.83314554392
20
19.3392853729959
30
0
0
SPLINE
5
129
100
AcDbEntity
8
1
62
256
6
ByLayer
370
18
48
1
60
0
100
AcDbSpline
70
4
71
2
72
6
73
3
40
0
40
0
40
0
40
1
40
1
40
1
41
1
10
150.833145543905
20
19.3392853729981
30
0
41
1
10
150.804002957387
20
19.3178785797003
30
0
41
1
10
150.789199766023
20
19.2905113839722
30
0
0
SPLINE
5
12A
100
AcDbEntity
8
1
62
256
6
ByLayer
370
18
48
1
60
0
100
AcDbSpline
70
4
71
11
72
24
73
12
40
0
40
0
40
0
40
0
40
0
40
0
40
0
40
0
40
0
40
0
40
0
40
0
40
1
40
1
40
1
40
1
40
1
40
1
40
1
40
1
40
1
40
1
40
1
40
1
41
1
10
150.712849634005
20
19.1179447966003
30
0
41
1
10
150.712387745905
20
19.1224408114686
30
0
41
1
10
150.712226745205
20
19.1270060791858
30
0
41
1
10
150.712367861837
20
19.1316286273688
30
0
41
1
10
150.71281132424
20
19.1362962531341
30
0
41
1
10
150.713556354031
20
19.1409965743118
30
0
41
1
10
150.714601166473
20
19.1457170820056
30
0
41
1
10
150.715942976709
20
19.1504451940596
30
0
41
1
10
150.717578011659
20
19.1551683089822
30
0
41
1
10
150.719501527611
20
19.1598738599449
30
0
41
1
10
150.721707833304
20
19.1645493683965
30
0
41
1
10
150.724190318146
20
19.1691824968366
30
0
0
SPLINE
5
12B
100
AcDbEntity
8
1
62
256
6
ByLayer
370
18
48
1
60
0
100
AcDbSpline
70
4
71
11
72
24
73
12
40
0
40
0
40
0
40
0
40
0
40
0
40
0
40
0
40
0
40
0
40
0
40
0
40
1
40
1
40
1
40
1
40
1
40
1
40
1
40
1
40
1
40
1
40
1
40
1
41
1
10
150.916081155582
20
17.1605964917102
30
0
41
1
10
150.915538484889
20
17.1620874671854
30
0
41
1
10
150.91503297815
20
17.1635919692229
30
0
41
1
10
150.91456481903
20
17.1651094931763
30
0
41
1
10
150.914134175477
20
17.1666395286991
30
0
41
1
10
150.913741199619
20
17.168181559964
30
0
41
1
10
150.913386027672
20
17.1697350660015
30
0
41
1
10
150.913068779866
20
17.1712995209387
30
0
41
1
10
150.912789560377
20
17.172874394304
30
0
41
1
10
150.912548457266
20
17.1744591513263
30
0
41
1
10
150.912345542442
20
17.1760532532055
30
0
41
1
10
150.912180871646
20
17.1776561573973
30
0
0
SPLINE
5
12C
100
AcDbEntity
8
SK1
62
256
6
ByLayer
370
18
48
1
60
0
100
AcDbSpline
70
4
71
3
72
17
73
13
40
0
40
0
40
0
40
0
40
0.25
40
0.25
40
0.5
40
0.75
40
0.75
40
0.875
40
0.875
40
0.9375
40
0.9375
40
1
40
1
40
1
40
1
41
1
10
-91.9999999999999
20
17.5107500000003
30
0
41
1
10
-92.2126673761983
20
17.5107500000003
30
0
41
1
10
-92.4160329385889
20
17.5107500000003
30
0
41
1
10
-92.8011598829477
20
17.5107500000003
30
0
41
1
10
-93.164684962691
20
17.5107500000003
30
0
41
1
10
-93.4780224393293
20
17.5107500000003
30
0
41
1
10
-93.6911877970903
20
17.5107500000003
30
0
41
1
10
-93.7585990589838
20
17.5107500000003
30
0
41
1
10
-93.8538351797885
20
17.5107500000003
30
0
41
1
10
-93.8846188502747
20
17.5107500000003
30
0
41
1
10
-93.9439576397417
20
17.5107500000003
30
0
41
1
10
-93.9725352570445
20
17.5107500000003
30
0
41
1
10
-93.9999999999999
20
17.5107500000003
30
0
0
SPLINE
5
12D
100
AcDbEntity
8
SK1
62
256
6
ByLayer
370
18
48
1
60
0
100
AcDbSpline
70
4
71
3
72
23
73
19
40
0
40
0
40
0
40
0
40
0.25
40
0.25
40
0.375
40
0.375
40
0.4375
40
0.4375
40
0.46875
40
0.484375
40
0.484375
40
0.5
40
0.5
40
0.625
40
0.625
40
0.75
40
0.75
40
1
40
1
40
1
40
1
41
1
10
-92
20
-7.57100492421546
30
0
41
1
10
-92.4621265140156
20
-6.35088124014032
30
0
41
1
10
-92.8354873445005
20
-5.11288978089607
30
0
41
1
10
-93.2211311688456
20
-3.22079787823267
30
0
41
1
10
-93.320578844348
20
-2.58424294195467
30
0
41
1
10
-93.4212400001699
20
-1.61964581624574
30
0
41
1
10
-93.4467141132079
20
-1.29648708530502
30
0
41
1
10
-93.4722713790811
20
-0.809201865985131
30
0
41
1
10
-93.4818874921451
20
-0.564922668042357
30
0
41
1
10
-93.4866693899374
20
-0.319670383787894
30
0
41
1
10
-93.4887737706043
20
-0.15595075133578
30
0
41
1
10
-93.4892825723676
20
-0.074021631595599
30
0
41
1
10
-93.4889748624032
20
0.6618008686184
30
0
41
1
10
-93.4539497433767
20
1.30918834445612
30
0
41
1
10
-93.3194959593523
20
2.59158917584605
30
0
41
1
10
-93.2200918967655
20
3.2266072583615
30
0
41
1
10
-92.8347809942872
20
5.11492686876346
30
0
41
1
10
-92.4618864421418
20
6.35151508686937
30
0
41
1
10
-92
20
7.57100492421614
30
0
0
SPLINE
5
12E
100
AcDbEntity
8
1
62
256
6
ByLayer
370
18
48
1
60
0
100
AcDbSpline
70
4
71
3
72
37
73
33
40
0
40
0
40
0
40
0
40
0.125000000000006
40
0.125000000000006
40
0.250000000000013
40
0.250000000000013
40
0.375000000000019
40
0.375000000000019
40
0.437500000000022
40
0.437500000000022
40
0.500000000000025
40
0.500000000000025
40
0.562500000000028
40
0.562500000000028
40
0.625000000000031
40
0.625000000000031
40
0.687500000000034
40
0.687500000000034
40
0.718750000000035
40
0.718750000000035
40
0.750000000000037
40
0.750000000000037
40
0.81250000000004
40
0.81250000000004
40
0.843750000000038
40
0.843750000000038
40
0.875000000000037
40
0.906250000000036
40
0.906250000000036
40
0.937500000000035
40
0.937500000000035
40
1
40
1
40
1
40
1
41
1
10
124.668378686225
20
8.67357246895321
30
0
41
1
10
124.702621882882
20
8.68603597326228
30
0
41
1
10
124.736412158596
20
8.69985130843847
30
0
41
1
10
124.802685771598
20
8.73011803668678
30
0
41
1
10
124.835243007035
20
8.74660197563139
30
0
41
1
10
124.898650357838
20
8.78232326126465
30
0
41
1
10
124.929590597736
20
8.80160803559704
30
0
41
1
10
124.974216006588
20
8.83279805979615
30
0
41
1
10
124.988797682791
20
8.84357587707959
30
0
41
1
10
125.017296788008
20
8.86598989152182
30
0
41
1
10
125.031210993781
20
8.87762588273978
30
0
41
1
10
125.058078412685
20
8.90172349875243
30
0
41
1
10
125.071055458377
20
8.9142013728318
30
0
41
1
10
125.095917649731
20
8.94017386226955
30
0
41
1
10
125.107826161221
20
8.95370387931061
30
0
41
1
10
125.129930119008
20
8.9815724251882
30
0
41
1
10
125.140171465751
20
8.99594880627311
30
0
41
1
10
125.154003380259
20
9.01833372259841
30
0
41
1
10
125.158357476176
20
9.02593286193499
30
0
41
1
10
125.166472475978
20
9.04144647252721
30
0
41
1
10
125.170248160225
20
9.04939945602371
30
0
41
1
10
125.180361766911
20
9.07341177954089
30
0
41
1
10
125.18554011875
20
9.08966564274883
30
0
41
1
10
125.190343990996
20
9.1144868973731
30
0
41
1
10
125.191448976991
20
9.12289710228285
30
0
41
1
10
125.192487593492
20
9.1395044392859
30
0
41
1
10
125.19237504776
20
9.1559011148677
30
0
41
1
10
125.189869732608
20
9.17185160559001
30
0
41
1
10
125.186099628302
20
9.18756283618859
30
0
41
1
10
125.183589136733
20
9.19522470285395
30
0
41
1
10
125.174458994199
20
9.21710647162158
30
0
41
1
10
125.166200104191
20
9.23046268068828
30
0
41
1
10
125.155998278435
20
9.24271504673575
30
0
0
SPLINE
5
12F
100
AcDbEntity
8
1
62
256
6
ByLayer
370
18
48
1
60
0
100
AcDbSpline
70
4
71
3
72
35
73
31
40
0
40
0
40
0
40
0
40
0.124999999999986
40
0.124999999999986
40
0.249999999999971
40
0.249999999999971
40
0.374999999999957
40
0.374999999999957
40
0.437499999999972
40
0.437499999999972
40
0.499999999999988
40
0.499999999999988
40
0.625000000000068
40
0.625000000000068
40
0.687500000000078
40
0.687500000000078
40
0.718750000000085
40
0.718750000000085
40
0.750000000000091
40
0.750000000000091
40
0.812500000000026
40
0.812500000000026
40
0.843750000000035
40
0.843750000000035
40
0.875000000000045
40
0.906250000000054
40
0.906250000000054
40
0.937500000000064
40
0.937500000000064
40
1
40
1
40
1
40
1
41
1
10
126.472490670333
20
10.8236294074552
30
0
41
1
10
126.466166463037
20
10.7877630455968
30
0
41
1
10
126.458425408674
20
10.7520687423601
30
0
41
1
10
126.440129368936
20
10.6815546510193
30
0
41
1
10
126.429581737881
20
10.6467267597733
30
0
41
1
10
126.405398339
20
10.5780211298554
30
0
41
1
10
126.391798526798
20
10.5442493273628
30
0
41
1
10
126.368863571577
20
10.4949366638839
30
0
41
1
10
126.360788341308
20
10.4787104768927
30
0
41
1
10
126.343664219474
20
10.4467391245267
30
0
41
1
10
126.334613694562
20
10.4309949992485
30
0
41
1
10
126.305968342852
20
10.3849410169635
30
0
41
1
10
126.284775259476
20
10.3555652363357
30
0
41
1
10
126.249237813614
20
10.3155194747706
30
0
41
1
10
126.23669250319
20
10.3027775911654
30
0
41
1
10
126.2168901391
20
10.2851689159006
30
0
41
1
10
126.210124376137
20
10.2795481942505
30
0
41
1
10
126.196220393982
20
10.268873211454
30
0
41
1
10
126.189056347821
20
10.2638037056577
30
0
41
1
10
126.167205483308
20
10.2497574054834
30
0
41
1
10
126.152126499682
20
10.2418861278168
30
0
41
1
10
126.128562640327
20
10.2329128557251
30
0
41
1
10
126.12048838295
20
10.2303858577222
30
0
41
1
10
126.104355648807
20
10.226519444775
30
0
41
1
10
126.088230497418
20
10.2238175520791
30
0
41
1
10
126.072129216286
20
10.2235385801328
30
0
41
1
10
126.056043878744
20
10.2245405627282
30
0
41
1
10
126.048087373447
20
10.2256874185753
30
0
41
1
10
126.025018815833
20
10.2308840232867
30
0
41
1
10
126.010470935034
20
10.2366884868341
30
0
41
1
10
125.996668900745
20
10.2445872810615
30
0
0
SPLINE
5
130
100
AcDbEntity
8
1
62
256
6
ByLayer
370
18
48
1
60
0
100
AcDbSpline
70
4
71
3
72
50
73
46
40
0
40
0
40
0
40
0
40
0.0312499999999877
40
0.0312499999999877
40
0.0624999999999755
40
0.0624999999999755
40
0.0937499999999631
40
0.0937499999999631
40
0.124999999999951
40
0.124999999999951
40
0.156249999999939
40
0.156249999999939
40
0.187499999999926
40
0.187499999999926
40
0.218749999999914
40
0.218749999999914
40
0.249999999999902
40
0.249999999999902
40
0.312499999999898
40
0.312499999999898
40
0.374999999999893
40
0.374999999999893
40
0.437499999999889
40
0.437499999999889
40
0.499999999999885
40
0.499999999999885
40
0.624999999999877
40
0.624999999999877
40
0.687499999999873
40
0.687499999999873
40
0.749999999999868
40
0.749999999999868
40
0.812499999999864
40
0.812499999999864
40
0.843749999999887
40
0.843749999999887
40
0.874999999999909
40
0.874999999999909
40
0.906249999999932
40
0.906249999999932
40
0.937499999999955
40
0.937499999999955
40
0.968749999999977
40
0.968749999999977
40
1
40
1
40
1
40
1
41
1
10
125.147868808229
20
9.2610397170096
30
0
41
1
10
125.142313148279
20
9.2735627516162
30
0
41
1
10
125.138121346754
20
9.28661065305883
30
0
41
1
10
125.131913405715
20
9.31355358688168
30
0
41
1
10
125.129914288291
20
9.3274402746782
30
0
41
1
10
125.127767188029
20
9.35548029511412
30
0
41
1
10
125.127610036199
20
9.3697332436351
30
0
41
1
10
125.128810113602
20
9.39830105666488
30
0
41
1
10
125.130162967448
20
9.4126383042148
30
0
41
1
10
125.13414103484
20
9.44141591967502
30
0
41
1
10
125.136766094544
20
9.45582950507418
30
0
41
1
10
125.143074404001
20
9.48452816748326
30
0
41
1
10
125.146762342473
20
9.49884227325737
30
0
41
1
10
125.155083106061
20
9.52741882702344
30
0
41
1
10
125.159720167694
20
9.54168668188805
30
0
41
1
10
125.16978482706
20
9.56999541999537
30
0
41
1
10
125.175219499934
20
9.58406148743046
30
0
41
1
10
125.192625095522
20
9.62602918139365
30
0
41
1
10
125.205731527314
20
9.65377330908916
30
0
41
1
10
125.234261118183
20
9.70823125684333
30
0
41
1
10
125.24969746197
20
9.73498762596594
30
0
41
1
10
125.28272240906
20
9.78765799606253
30
0
41
1
10
125.300284966387
20
9.81351635901532
30
0
41
1
10
125.337113535695
20
9.86392544530506
30
0
41
1
10
125.356422807505
20
9.88854360638965
30
0
41
1
10
125.416983378429
20
9.9606100654529
30
0
41
1
10
125.4601057389
20
10.0054707997789
30
0
41
1
10
125.529185016499
20
10.0677189179146
30
0
41
1
10
125.553035797017
20
10.0876679837162
30
0
41
1
10
125.601565267051
20
10.125007114503
30
0
41
1
10
125.626322290082
20
10.1424812287826
30
0
41
1
10
125.676998147736
20
10.1747441850834
30
0
41
1
10
125.702912840067
20
10.1895412876079
30
0
41
1
10
125.742916356422
20
10.2092472910689
30
0
41
1
10
125.756483656233
20
10.215412071242
30
0
41
1
10
125.783675688714
20
10.226606331913
30
0
41
1
10
125.797334365531
20
10.2316563023928
30
0
41
1
10
125.824808581258
20
10.2405110568995
30
0
41
1
10
125.838623882148
20
10.2443173527612
30
0
41
1
10
125.866455654762
20
10.2504502569063
30
0
41
1
10
125.88052415881
20
10.2527849092773
30
0
41
1
10
125.908698461364
20
10.2555666471728
30
0
41
1
10
125.922641066307
20
10.2560032417606
30
0
41
1
10
125.950194575212
20
10.2545838710493
30
0
41
1
10
125.96380643037
20
10.252734385881
30
0
41
1
10
125.9772109557
20
10.2494112007499
30
0
0
SPLINE
5
131
100
AcDbEntity
8
1
62
256
6
ByLayer
370
18
48
1
60
0
100
AcDbSpline
70
4
71
3
72
8
73
4
40
0
40
0
40
0
40
0
40
1
40
1
40
1
40
1
41
1
10
125.155998278435
20
9.24271504673575
30
0
41
1
10
125.153288553916
20
9.24882304726728
30
0
41
1
10
125.150578731287
20
9.25493126895063
30
0
41
1
10
125.147868808229
20
9.2610397170096
30
0
0
SPLINE
5
132
100
AcDbEntity
8
1
62
256
6
ByLayer
370
18
48
1
60
0
100
AcDbSpline
70
4
71
3
72
8
73
4
40
0
40
0
40
0
40
0
40
1
40
1
40
1
40
1
41
1
10
125.996668900745
20
10.2445872810615
30
0
41
1
10
125.990183155741
20
10.2461951956149
30
0
41
1
10
125.983697175909
20
10.2478031683859
30
0
41
1
10
125.977210955701
20
10.2494112007497
30
0
0
SPLINE
5
133
100
AcDbEntity
8
1
62
256
6
ByLayer
370
18
48
1
60
0
100
AcDbSpline
70
4
71
3
72
35
73
31
40
0
40
0
40
0
40
0
40
0.125000000000016
40
0.125000000000016
40
0.250000000000033
40
0.250000000000033
40
0.375000000000049
40
0.375000000000049
40
0.43750000000006
40
0.43750000000006
40
0.50000000000007
40
0.50000000000007
40
0.625000000000086
40
0.625000000000086
40
0.687500000000112
40
0.687500000000112
40
0.718750000000113
40
0.718750000000113
40
0.750000000000114
40
0.750000000000114
40
0.812500000000116
40
0.812500000000116
40
0.843750000000106
40
0.843750000000106
40
0.875000000000096
40
0.906250000000086
40
0.906250000000086
40
0.937500000000076
40
0.937500000000076
40
1
40
1
40
1
40
1
41
1
10
121.904318765846
20
9.16095080921099
30
0
41
1
10
121.876419688983
20
9.1843609143169
30
0
41
1
10
121.849378042791
20
9.20891201566559
30
0
41
1
10
121.797459068234
20
9.26001389653791
30
0
41
1
10
121.772571045183
20
9.28656235860439
30
0
41
1
10
121.725161923731
20
9.34185861134412
30
0
41
1
10
121.702714590942
20
9.37052229544366
30
0
41
1
10
121.671476049251
20
9.4150408810396
30
0
41
1
10
121.661461374245
20
9.43014732908952
30
0
41
1
10
121.64233543182
20
9.46096292979823
30
0
41
1
10
121.633225881824
20
9.47667297692848
30
0
41
1
10
121.607664639075
20
9.524507570352
30
0
41
1
10
121.592821008483
20
9.55754920925435
30
0
41
1
10
121.575909084585
20
9.60834842093877
30
0
41
1
10
121.571146944903
20
9.62558392026733
30
0
41
1
10
121.565798566842
20
9.65153760825635
30
0
41
1
10
121.564313760587
20
9.66020729168366
30
0
41
1
10
121.562020945377
20
9.67758598484164
30
0
41
1
10
121.561212647654
20
9.68632498370906
30
0
41
1
10
121.55997362713
20
9.71227153755942
30
0
41
1
10
121.560696392523
20
9.72926595927586
30
0
41
1
10
121.564707240615
20
9.75415949613441
30
0
41
1
10
121.566555924838
20
9.76241550714147
30
0
41
1
10
121.571273880075
20
9.77832007121458
30
0
41
1
10
121.576996708172
20
9.79363571527924
30
0
41
1
10
121.58480559183
20
9.80771941277297
30
0
41
1
10
121.593716002983
20
9.82114873241511
30
0
41
1
10
121.59868746193
20
9.82746584020407
30
0
41
1
10
121.61472213243
20
9.84484549477068
30
0
41
1
10
121.627022885717
20
9.85454209734002
30
0
41
1
10
121.640764459322
20
9.86254561254444
30
0
0
SPLINE
5
134
100
AcDbEntity
8
1
62
256
6
ByLayer
370
18
48
1
60
0
100
AcDbSpline
70
4
71
3
72
35
73
31
40
0
40
0
40
0
40
0
40
0.12500000000005
40
0.12500000000005
40
0.250000000000099
40
0.250000000000099
40
0.375000000000149
40
0.375000000000149
40
0.500000000000199
40
0.500000000000199
40
0.56250000000022
40
0.56250000000022
40
0.625000000000242
40
0.625000000000242
40
0.687500000000264
40
0.687500000000264
40
0.718750000000277
40
0.718750000000277
40
0.75000000000029
40
0.75000000000029
40
0.812500000000262
40
0.812500000000262
40
0.843750000000218
40
0.843750000000218
40
0.875000000000174
40
0.90625000000013
40
0.90625000000013
40
0.937500000000085
40
0.937500000000085
40
1
40
1
40
1
40
1
41
1
10
120.944370829574
20
11.7983860879708
30
0
41
1
10
120.938046764362
20
11.7625205319085
30
0
41
1
10
120.933117557469
20
11.7263761192338
30
0
41
1
10
120.926186923135
20
11.6538047752048
30
0
41
1
10
120.924188525404
20
11.6174711954671
30
0
41
1
10
120.923413841694
20
11.5447024080053
30
0
41
1
10
120.924639598847
20
11.5082521283516
30
0
41
1
10
120.930912675371
20
11.4358042653776
30
0
41
1
10
120.935950766633
20
11.3997842163525
30
0
41
1
10
120.947132734283
20
11.3467012689034
30
0
41
1
10
120.951461785638
20
11.3291926977492
30
0
41
1
10
120.961549144279
20
11.2946238818869
30
0
41
1
10
120.967299297711
20
11.2776071016667
30
0
41
1
10
120.980365898771
20
11.2445933651395
30
0
41
1
10
120.987691963361
20
11.22854679694
30
0
41
1
10
121.000177153101
20
11.2053595535278
30
0
41
1
10
121.004589746682
20
11.1977785092965
30
0
41
1
10
121.013995724437
20
11.1829617491547
30
0
41
1
10
121.018997821136
20
11.1757208601712
30
0
41
1
10
121.034720400968
20
11.1549968110519
30
0
41
1
10
121.046222788838
20
11.142368038476
30
0
41
1
10
121.065428876354
20
11.1257335758414
30
0
41
1
10
121.07215361084
20
11.1205953790329
30
0
41
1
10
121.085918787363
20
11.1114757866328
30
0
41
1
10
121.10008883675
20
11.1034306854877
30
0
41
1
10
121.115099822622
20
11.0976400053397
30
0
41
1
10
121.130555996814
20
11.0930522739623
30
0
41
1
10
121.138473674699
20
11.0913842319742
30
0
41
1
10
121.162024574801
20
11.0883385854094
30
0
41
1
10
121.177735230316
20
11.0888139599064
30
0
41
1
10
121.193452964204
20
11.0915238448426
30
0
0
SPLINE
5
135
100
AcDbEntity
8
1
62
256
6
ByLayer
370
18
48
1
60
0
100
AcDbSpline
70
4
71
3
72
52
73
48
40
0
40
0
40
0
40
0
40
0.0156250000000018
40
0.0156250000000018
40
0.0312500000000037
40
0.0312500000000037
40
0.0625000000000073
40
0.0625000000000073
40
0.093750000000011
40
0.093750000000011
40
0.125000000000015
40
0.125000000000015
40
0.18750000000001
40
0.18750000000001
40
0.218750000000008
40
0.218750000000008
40
0.250000000000007
40
0.250000000000007
40
0.312500000000006
40
0.312500000000006
40
0.375000000000004
40
0.375000000000004
40
0.437500000000003
40
0.437500000000003
40
0.500000000000001
40
0.500000000000001
40
0.5625
40
0.5625
40
0.624999999999998
40
0.624999999999998
40
0.687499999999997
40
0.687499999999997
40
0.749999999999996
40
0.749999999999996
40
0.812499999999994
40
0.812499999999994
40
0.843749999999995
40
0.843749999999995
40
0.874999999999996
40
0.874999999999996
40
0.906249999999997
40
0.906249999999997
40
0.937499999999998
40
0.937499999999998
40
0.968749999999999
40
0.968749999999999
40
1
40
1
40
1
40
1
41
1
10
121.65467106884
20
9.87698472741431
30
0
41
1
10
121.659428618148
20
9.88192445056376
30
0
41
1
10
121.663918335614
20
9.88711737347433
30
0
41
1
10
121.672418346396
20
9.89795792184057
30
0
41
1
10
121.676434756242
20
9.90361808178866
30
0
41
1
10
121.687705742247
20
9.92101633780186
30
0
41
1
10
121.694238738218
20
9.93322350560277
30
0
41
1
10
121.70575745025
20
9.95861113097806
30
0
41
1
10
121.710739637929
20
9.9717937638857
30
0
41
1
10
121.719398893034
20
9.99899590631722
30
0
41
1
10
121.723055675759
20
10.0129703780847
30
0
41
1
10
121.732223858051
20
10.0554350348216
30
0
41
1
10
121.736010446689
20
10.0847283482107
30
0
41
1
10
121.738970209079
20
10.1291542092901
30
0
41
1
10
121.739503065786
20
10.144067014634
30
0
41
1
10
121.739752989098
20
10.1740894308326
30
0
41
1
10
121.739468029176
20
10.1892135308121
30
0
41
1
10
121.737499009455
20
10.2345958937185
30
0
41
1
10
121.734713195945
20
10.2649492064352
30
0
41
1
10
121.726580605595
20
10.3258692846925
30
0
41
1
10
121.721230745337
20
10.3563816319138
30
0
41
1
10
121.708293520175
20
10.4169996509264
30
0
41
1
10
121.700688810468
20
10.4472041704471
30
0
41
1
10
121.683334900004
20
10.5072981072017
30
0
41
1
10
121.673627372666
20
10.5370470091591
30
0
41
1
10
121.6521847194
20
10.5959595195727
30
0
41
1
10
121.640504213121
20
10.6249730184926
30
0
41
1
10
121.615198333624
20
10.6821038792053
30
0
41
1
10
121.60157355217
20
10.7102083472164
30
0
41
1
10
121.572476486075
20
10.7650353400906
30
0
41
1
10
121.556945715324
20
10.7918669137105
30
0
41
1
10
121.524027866497
20
10.8437333688568
30
0
41
1
10
121.506611960384
20
10.8688286759926
30
0
41
1
10
121.46967267996
20
10.9169203702992
30
0
41
1
10
121.450271458603
20
10.9397728685666
30
0
41
1
10
121.419426792326
20
10.9719149690168
30
0
41
1
10
121.408833770893
20
10.9822857865901
30
0
41
1
10
121.387113887393
20
11.0020718847927
30
0
41
1
10
121.375977641398
20
11.0115004121759
30
0
41
1
10
121.353051254896
20
11.0292846991161
30
0
41
1
10
121.34128239415
20
11.0376211501896
30
0
41
1
10
121.317184172051
20
11.0528697571983
30
0
41
1
10
121.304795238187
20
11.0598197923401
30
0
41
1
10
121.279434486182
20
11.0719351760157
30
0
41
1
10
121.266565633442
20
11.0770575283502
30
0
41
1
10
121.240361127657
20
11.085061784743
30
0
41
1
10
121.22702675999
20
11.0879499239553
30
0
41
1
10
121.21338732928
20
11.0894018374242
30
0
0
SPLINE
5
136
100
AcDbEntity
8
1
62
256
6
ByLayer
370
18
48
1
60
0
100
AcDbSpline
70
4
71
3
72
8
73
4
40
0
40
0
40
0
40
0
40
1
40
1
40
1
40
1
41
1
10
121.21338732928
20
11.0894018374242
30
0
41
1
10
121.206742296555
20
11.0901091992431
30
0
41
1
10
121.20009751009
20
11.0908165348476
30
0
41
1
10
121.193452964204
20
11.0915238448426
30
0
0
SPLINE
5
137
100
AcDbEntity
8
1
62
256
6
ByLayer
370
18
48
1
60
0
100
AcDbSpline
70
4
71
3
72
8
73
4
40
0
40
0
40
0
40
0
40
1
40
1
40
1
40
1
41
1
10
121.640764459322
20
9.86254561254444
30
0
41
1
10
121.645399826674
20
9.8673584752033
30
0
41
1
10
121.650035361858
20
9.87217151212104
30
0
41
1
10
121.654671068839
20
9.8769847274138
30
0
0
SPLINE
5
138
100
AcDbEntity
8
1
62
256
6
ByLayer
370
18
48
1
60
0
100
AcDbSpline
70
4
71
3
72
35
73
31
40
0
40
0
40
0
40
0
40
0.125000000000016
40
0.125000000000016
40
0.250000000000033
40
0.250000000000033
40
0.375000000000049
40
0.375000000000049
40
0.437500000000058
40
0.437500000000058
40
0.500000000000066
40
0.500000000000066
40
0.625000000000083
40
0.625000000000083
40
0.687500000000109
40
0.687500000000109
40
0.718750000000111
40
0.718750000000111
40
0.750000000000112
40
0.750000000000112
40
0.812500000000114
40
0.812500000000114
40
0.843750000000105
40
0.843750000000105
40
0.875000000000095
40
0.906250000000085
40
0.906250000000085
40
0.937500000000076
40
0.937500000000076
40
1
40
1
40
1
40
1
41
1
10
125.512542734061
20
13.4610646862151
30
0
41
1
10
125.540441810923
20
13.4376545811092
30
0
41
1
10
125.567483457116
20
13.4131034797605
30
0
41
1
10
125.619402431672
20
13.3620015988882
30
0
41
1
10
125.644290454724
20
13.3354531368217
30
0
41
1
10
125.691699576175
20
13.280156884082
30
0
41
1
10
125.714146908965
20
13.2514931999824
30
0
41
1
10
125.745385450655
20
13.2069746143865
30
0
41
1
10
125.755400125661
20
13.1918681663365
30
0
41
1
10
125.774526068087
20
13.1610525656278
30
0
41
1
10
125.783635618082
20
13.1453425184976
30
0
41
1
10
125.809196860832
20
13.0975079250741
30
0
41
1
10
125.824040491423
20
13.0644662861717
30
0
41
1
10
125.840952415321
20
13.0136670744873
30
0
41
1
10
125.845714555003
20
12.9964315751587
30
0
41
1
10
125.851062933065
20
12.9704778871697
30
0
41
1
10
125.85254773932
20
12.9618082037424
30
0
41
1
10
125.854840554529
20
12.9444295105845
30
0
41
1
10
125.855648852253
20
12.935690511717
30
0
41
1
10
125.856887872776
20
12.9097439578667
30
0
41
1
10
125.856165107383
20
12.8927495361502
30
0
41
1
10
125.852154259292
20
12.8678559992917
30
0
41
1
10
125.850305575069
20
12.8595999882846
30
0
41
1
10
125.845587619832
20
12.8436954242115
30
0
41
1
10
125.83986495185
20
12.8283796871201
30
0
41
1
10
125.832055908076
20
12.8142960826531
30
0
41
1
10
125.823145496924
20
12.800866763011
30
0
41
1
10
125.818174037977
20
12.794549655222
30
0
41
1
10
125.802139367476
20
12.7771700006554
30
0
41
1
10
125.78983861419
20
12.7674733980861
30
0
41
1
10
125.776097040585
20
12.7594698828816
30
0
0
SPLINE
5
139
100
AcDbEntity
8
1
62
256
6
ByLayer
370
18
48
1
60
0
100
AcDbSpline
70
4
71
3
72
35
73
31
40
0
40
0
40
0
40
0
40
0.125000000000003
40
0.125000000000003
40
0.250000000000005
40
0.250000000000005
40
0.375000000000008
40
0.375000000000008
40
0.50000000000001
40
0.50000000000001
40
0.562500000000011
40
0.562500000000011
40
0.625000000000012
40
0.625000000000012
40
0.687500000000013
40
0.687500000000013
40
0.718750000000011
40
0.718750000000011
40
0.750000000000009
40
0.750000000000009
40
0.812499999999955
40
0.812499999999955
40
0.843749999999962
40
0.843749999999962
40
0.874999999999969
40
0.906249999999976
40
0.906249999999976
40
0.937499999999983
40
0.937499999999983
40
1
40
1
40
1
40
1
41
1
10
126.472490670333
20
10.8236294074552
30
0
41
1
10
126.478814735545
20
10.8594949635175
30
0
41
1
10
126.483743942437
20
10.8956393761923
30
0
41
1
10
126.490674576772
20
10.9682107202212
30
0
41
1
10
126.492672974503
20
11.0045442999589
30
0
41
1
10
126.493447658213
20
11.0773130874207
30
0
41
1
10
126.492221901059
20
11.1137633670744
30
0
41
1
10
126.485948824536
20
11.1862112300485
30
0
41
1
10
126.480910733274
20
11.2222312790736
30
0
41
1
10
126.469728765624
20
11.2753142265226
30
0
41
1
10
126.465399714269
20
11.2928227976768
30
0
41
1
10
126.455312355627
20
11.3273916135391
30
0
41
1
10
126.449562202195
20
11.3444083937594
30
0
41
1
10
126.436495601136
20
11.3774221302865
30
0
41
1
10
126.429169536546
20
11.393468698486
30
0
41
1
10
126.416684346806
20
11.4166559418983
30
0
41
1
10
126.412271753225
20
11.4242369861295
30
0
41
1
10
126.40286577547
20
11.4390537462714
30
0
41
1
10
126.397863678771
20
11.4462946352548
30
0
41
1
10
126.382141098939
20
11.4670186843741
30
0
41
1
10
126.370638711069
20
11.4796474569501
30
0
41
1
10
126.351432623553
20
11.4962819195846
30
0
41
1
10
126.344707889066
20
11.5014201163932
30
0
41
1
10
126.330942712544
20
11.5105397087933
30
0
41
1
10
126.316772663156
20
11.5185848099383
30
0
41
1
10
126.301761677285
20
11.5243754900864
30
0
41
1
10
126.286305503093
20
11.5289632214637
30
0
41
1
10
126.278387825207
20
11.5306312634518
30
0
41
1
10
126.254836925106
20
11.5336769100166
30
0
41
1
10
126.239126269591
20
11.5332015355197
30
0
41
1
10
126.223408535703
20
11.5304916505834
30
0
0
SPLINE
5
13A
100
AcDbEntity
8
1
62
256
6
ByLayer
370
18
48
1
60
0
100
AcDbSpline
70
4
71
3
72
52
73
48
40
0
40
0
40
0
40
0
40
0.0156250000000012
40
0.0156250000000012
40
0.0312500000000027
40
0.0312500000000027
40
0.0625000000000053
40
0.0625000000000053
40
0.0937500000000081
40
0.0937500000000081
40
0.125000000000011
40
0.125000000000011
40
0.187500000000007
40
0.187500000000007
40
0.218750000000006
40
0.218750000000006
40
0.250000000000005
40
0.250000000000005
40
0.312500000000004
40
0.312500000000004
40
0.375000000000003
40
0.375000000000003
40
0.437500000000003
40
0.437500000000003
40
0.500000000000002
40
0.500000000000002
40
0.562500000000001
40
0.562500000000001
40
0.625
40
0.625
40
0.6875
40
0.6875
40
0.749999999999999
40
0.749999999999999
40
0.812499999999998
40
0.812499999999998
40
0.843749999999999
40
0.843749999999999
40
0.874999999999999
40
0.874999999999999
40
0.906249999999999
40
0.906249999999999
40
0.937499999999999
40
0.937499999999999
40
0.96875
40
0.96875
40
1
40
1
40
1
40
1
41
1
10
125.762190431067
20
12.7450307680118
30
0
41
1
10
125.757432881758
20
12.7400910448623
30
0
41
1
10
125.752943164292
20
12.7348981219517
30
0
41
1
10
125.744443153511
20
12.7240575735855
30
0
41
1
10
125.740426743665
20
12.7183974136374
30
0
41
1
10
125.729155757659
20
12.7009991576242
30
0
41
1
10
125.722622761689
20
12.6887919898233
30
0
41
1
10
125.711104049657
20
12.663404364448
30
0
41
1
10
125.706121861978
20
12.6502217315404
30
0
41
1
10
125.697462606873
20
12.6230195891088
30
0
41
1
10
125.693805824147
20
12.6090451173414
30
0
41
1
10
125.684637641855
20
12.5665804606045
30
0
41
1
10
125.680851053218
20
12.5372871472153
30
0
41
1
10
125.677891290827
20
12.492861286136
30
0
41
1
10
125.67735843412
20
12.4779484807921
30
0
41
1
10
125.677108510809
20
12.4479260645934
30
0
41
1
10
125.67739347073
20
12.432801964614
30
0
41
1
10
125.679362490451
20
12.3874196017075
30
0
41
1
10
125.682148303962
20
12.3570662889909
30
0
41
1
10
125.690280894312
20
12.2961462107335
30
0
41
1
10
125.69563075457
20
12.2656338635123
30
0
41
1
10
125.708567979731
20
12.2050158444996
30
0
41
1
10
125.716172689439
20
12.174811324979
30
0
41
1
10
125.733526599903
20
12.1147173882244
30
0
41
1
10
125.74323412724
20
12.084968486267
30
0
41
1
10
125.764676780506
20
12.0260559758534
30
0
41
1
10
125.776357286785
20
11.9970424769334
30
0
41
1
10
125.801663166282
20
11.9399116162207
30
0
41
1
10
125.815287947737
20
11.9118071482097
30
0
41
1
10
125.844385013832
20
11.8569801553355
30
0
41
1
10
125.859915784583
20
11.8301485817156
30
0
41
1
10
125.89283363341
20
11.7782821265693
30
0
41
1
10
125.910249539523
20
11.7531868194335
30
0
41
1
10
125.947188819947
20
11.705095125127
30
0
41
1
10
125.966590041304
20
11.6822426268594
30
0
41
1
10
125.99743470758
20
11.6501005264093
30
0
41
1
10
126.008027729014
20
11.639729708836
30
0
41
1
10
126.029747612513
20
11.6199436106333
30
0
41
1
10
126.040883858508
20
11.6105150832502
30
0
41
1
10
126.063810245011
20
11.59273079631
30
0
41
1
10
126.075579105756
20
11.5843943452365
30
0
41
1
10
126.099677327855
20
11.5691457382277
30
0
41
1
10
126.112066261719
20
11.562195703086
30
0
41
1
10
126.137427013725
20
11.5500803194104
30
0
41
1
10
126.150295866465
20
11.5449579670759
30
0
41
1
10
126.176500372249
20
11.5369537106831
30
0
41
1
10
126.189834739917
20
11.5340655714708
30
0
41
1
10
126.203474170626
20
11.5326136580019
30
0
0
SPLINE
5
13B
100
AcDbEntity
8
1
62
256
6
ByLayer
370
18
48
1
60
0
100
AcDbSpline
70
4
71
3
72
8
73
4
40
0
40
0
40
0
40
0
40
1
40
1
40
1
40
1
41
1
10
126.203474170626
20
11.5326136580019
30
0
41
1
10
126.210119203352
20
11.5319062961829
30
0
41
1
10
126.216763989816
20
11.5311989605785
30
0
41
1
10
126.223408535703
20
11.5304916505834
30
0
0
SPLINE
5
13C
100
AcDbEntity
8
1
62
256
6
ByLayer
370
18
48
1
60
0
100
AcDbSpline
70
4
71
3
72
8
73
4
40
0
40
0
40
0
40
0
40
1
40
1
40
1
40
1
41
1
10
125.776097040585
20
12.7594698828816
30
0
41
1
10
125.771461673233
20
12.7546570202228
30
0
41
1
10
125.766826138048
20
12.749843983305
30
0
41
1
10
125.762190431067
20
12.7450307680122
30
0
0
SPLINE
5
13D
100
AcDbEntity
8
1
62
256
6
ByLayer
370
18
48
1
60
0
100
AcDbSpline
70
4
71
3
72
35
73
31
40
0
40
0
40
0
40
0
40
0.124999999999931
40
0.124999999999931
40
0.249999999999861
40
0.249999999999861
40
0.374999999999792
40
0.374999999999792
40
0.499999999999722
40
0.499999999999722
40
0.562499999999722
40
0.562499999999722
40
0.624999999999722
40
0.624999999999722
40
0.687499999999722
40
0.687499999999722
40
0.71874999999975
40
0.71874999999975
40
0.749999999999777
40
0.749999999999777
40
0.812499999999827
40
0.812499999999827
40
0.843749999999856
40
0.843749999999856
40
0.874999999999885
40
0.906249999999914
40
0.906249999999914
40
0.937499999999942
40
0.937499999999942
40
1
40
1
40
1
40
1
41
1
10
122.748482813681
20
13.9484430264729
30
0
41
1
10
122.714260298404
20
13.9359870495704
30
0
41
1
10
122.680493715377
20
13.9221836616225
30
0
41
1
10
122.614179770694
20
13.8919000950062
30
0
41
1
10
122.581714768765
20
13.8754639683392
30
0
41
1
10
122.518307808365
20
13.8397504703813
30
0
41
1
10
122.487353818787
20
13.8204637937204
30
0
41
1
10
122.427748667263
20
13.7788072186042
30
0
41
1
10
122.399073435393
20
13.7564340790722
30
0
41
1
10
122.35869323822
20
13.7202087372984
30
0
41
1
10
122.345694896493
20
13.7077053832735
30
0
41
1
10
122.320801103099
20
13.681685066502
30
0
41
1
10
122.308939215853
20
13.6681968974439
30
0
41
1
10
122.286881781877
20
13.6403740207217
30
0
41
1
10
122.276648078467
20
13.6260061785772
30
0
41
1
10
122.262809931499
20
13.6036000653852
30
0
41
1
10
122.258450851398
20
13.595988125132
30
0
41
1
10
122.250322149591
20
13.5804339293779
30
0
41
1
10
122.246552404134
20
13.5724815420727
30
0
41
1
10
122.236466141044
20
13.5485033639651
30
0
41
1
10
122.231280497109
20
13.5322276175779
30
0
41
1
10
122.226477673648
20
13.5072774265641
30
0
41
1
10
122.225390231925
20
13.4988845372611
30
0
41
1
10
122.224375021496
20
13.4824037485049
30
0
41
1
10
122.224492784222
20
13.4661095751899
30
0
41
1
10
122.226983401044
20
13.4502143400154
30
0
41
1
10
122.230738396222
20
13.434535034831
30
0
41
1
10
122.233252668428
20
13.4268441036492
30
0
41
1
10
122.242390511183
20
13.404925602597
30
0
41
1
10
122.250657525331
20
13.3915574630591
30
0
41
1
10
122.260863221471
20
13.3793004486903
30
0
0
SPLINE
5
13E
100
AcDbEntity
8
1
62
256
6
ByLayer
370
18
48
1
60
0
100
AcDbSpline
70
4
71
3
72
52
73
48
40
0
40
0
40
0
40
0
40
0.0156250000000071
40
0.0156250000000071
40
0.0312500000000144
40
0.0312500000000144
40
0.0625000000000303
40
0.0625000000000303
40
0.0937500000000463
40
0.0937500000000463
40
0.125000000000062
40
0.125000000000062
40
0.187500000000095
40
0.187500000000095
40
0.218750000000111
40
0.218750000000111
40
0.250000000000127
40
0.250000000000127
40
0.312500000000116
40
0.312500000000116
40
0.375000000000104
40
0.375000000000104
40
0.437500000000092
40
0.437500000000092
40
0.500000000000081
40
0.500000000000081
40
0.562500000000069
40
0.562500000000069
40
0.625000000000057
40
0.625000000000057
40
0.687500000000046
40
0.687500000000046
40
0.750000000000034
40
0.750000000000034
40
0.812500000000022
40
0.812500000000022
40
0.843750000000019
40
0.843750000000019
40
0.875000000000015
40
0.875000000000015
40
0.906250000000011
40
0.906250000000011
40
0.937500000000007
40
0.937500000000007
40
0.968750000000004
40
0.968750000000004
40
1
40
1
40
1
40
1
41
1
10
121.439650544206
20
12.3726042946762
30
0
41
1
10
121.446307244596
20
12.3709539976898
30
0
41
1
10
121.453049306489
20
12.3696622497637
30
0
41
1
10
121.466687502156
20
12.3677212986777
30
0
41
1
10
121.473597549383
20
12.3670730656934
30
0
41
1
10
121.494300374075
20
12.3660112334935
30
0
41
1
10
121.508138589484
20
12.3664570769205
30
0
41
1
10
121.535884274017
20
12.3691753923694
30
0
41
1
10
121.549791862843
20
12.3714520077271
30
0
41
1
10
121.577679236779
20
12.3775539440439
30
0
41
1
10
121.591609875697
20
12.3813743131913
30
0
41
1
10
121.63296943834
20
12.3946667627885
30
0
41
1
10
121.660231486215
20
12.406034137529
30
0
41
1
10
121.700185291689
20
12.4256838386496
30
0
41
1
10
121.713366588313
20
12.4326787738766
30
0
41
1
10
121.739491725079
20
12.4474735420391
30
0
41
1
10
121.75244709991
20
12.4552823745602
30
0
41
1
10
121.79076486921
20
12.4796787771122
30
0
41
1
10
121.815658702357
20
12.4972680187407
30
0
41
1
10
121.864350742553
20
12.534771087711
30
0
41
1
10
121.888100280247
20
12.5546603762117
30
0
41
1
10
121.934128412058
20
12.5961733513624
30
0
41
1
10
121.956483938419
20
12.6178614829178
30
0
41
1
10
121.999849859029
20
12.6629373786123
30
0
41
1
10
122.02075940019
20
12.6862187948731
30
0
41
1
10
122.061057804176
20
12.7342449325328
30
0
41
1
10
122.080343978154
20
12.7588672971592
30
0
41
1
10
122.117167815123
20
12.8093482620252
30
0
41
1
10
122.134694607653
20
12.8351999028913
30
0
41
1
10
122.167627643247
20
12.8878121977425
30
0
41
1
10
122.18309908225
20
12.9146780265629
30
0
41
1
10
122.211557825598
20
12.9691189474583
30
0
41
1
10
122.224583046037
20
12.9967492181498
30
0
41
1
10
122.247762034805
20
13.0527854205478
30
0
41
1
10
122.257852268166
20
13.0810136202415
30
0
41
1
10
122.270265810549
20
13.1237969350332
30
0
41
1
10
122.273950691309
20
13.1381561694839
30
0
41
1
10
122.280226013244
20
13.1668591894629
30
0
41
1
10
122.282823234481
20
13.1812177250891
30
0
41
1
10
122.286761685508
20
13.2099647016873
30
0
41
1
10
122.288096833542
20
13.2243250596034
30
0
41
1
10
122.289253403535
20
13.2528190356312
30
0
41
1
10
122.289077843593
20
13.2670231846543
30
0
41
1
10
122.28688969763
20
13.295043931988
30
0
41
1
10
122.284891358509
20
13.3087498615454
30
0
41
1
10
122.278720994991
20
13.3354457574451
30
0
41
1
10
122.274555013084
20
13.3484377281947
30
0
41
1
10
122.268992691678
20
13.3609757784165
30
0
0
SPLINE
5
13F
100
AcDbEntity
8
1
62
256
6
ByLayer
370
18
48
1
60
0
100
AcDbSpline
70
4
71
3
72
8
73
4
40
0
40
0
40
0
40
0
40
1
40
1
40
1
40
1
41
1
10
122.268992691678
20
13.3609757784165
30
0
41
1
10
122.26628276862
20
13.3670842264754
30
0
41
1
10
122.26357294599
20
13.3731924481588
30
0
41
1
10
122.260863221471
20
13.3793004486903
30
0
0
SPLINE
5
140
100
AcDbEntity
8
1
62
256
6
ByLayer
370
18
48
1
60
0
100
AcDbSpline
70
4
71
3
72
35
73
31
40
0
40
0
40
0
40
0
40
0.125000000000047
40
0.125000000000047
40
0.250000000000095
40
0.250000000000095
40
0.375000000000142
40
0.375000000000142
40
0.437500000000146
40
0.437500000000146
40
0.500000000000149
40
0.500000000000149
40
0.625000000000112
40
0.625000000000112
40
0.687500000000064
40
0.687500000000064
40
0.71875000000004
40
0.71875000000004
40
0.750000000000016
40
0.750000000000016
40
0.81249999999997
40
0.81249999999997
40
0.843749999999988
40
0.843749999999988
40
0.875000000000006
40
0.906250000000024
40
0.906250000000024
40
0.937500000000042
40
0.937500000000042
40
1
40
1
40
1
40
1
41
1
10
120.944370829574
20
11.7983860879708
30
0
41
1
10
120.950695036869
20
11.8342524498292
30
0
41
1
10
120.958436091232
20
11.869946753066
30
0
41
1
10
120.976732130971
20
11.9404608444068
30
0
41
1
10
120.987279762026
20
11.9752887356528
30
0
41
1
10
121.011463160907
20
12.0439943655707
30
0
41
1
10
121.025062973108
20
12.0777661680633
30
0
41
1
10
121.04799792833
20
12.1270788315421
30
0
41
1
10
121.056073158598
20
12.1433050185334
30
0
41
1
10
121.073197280432
20
12.1752763708994
30
0
41
1
10
121.082247805344
20
12.1910204961776
30
0
41
1
10
121.110893157054
20
12.2370744784626
30
0
41
1
10
121.132086240431
20
12.2664502590903
30
0
41
1
10
121.167623686292
20
12.3064960206554
30
0
41
1
10
121.180168996717
20
12.3192379042606
30
0
41
1
10
121.199971360806
20
12.3368465795254
30
0
41
1
10
121.20673712377
20
12.3424673011756
30
0
41
1
10
121.220641105924
20
12.3531422839721
30
0
41
1
10
121.227805152085
20
12.3582117897684
30
0
41
1
10
121.249656016599
20
12.3722580899426
30
0
41
1
10
121.264735000224
20
12.3801293676092
30
0
41
1
10
121.288298859579
20
12.3891026397009
30
0
41
1
10
121.296373116957
20
12.3916296377038
30
0
41
1
10
121.312505851099
20
12.3954960506511
30
0
41
1
10
121.328631002489
20
12.398197943347
30
0
41
1
10
121.344732283621
20
12.3984769152933
30
0
41
1
10
121.360817621163
20
12.3974749326979
30
0
41
1
10
121.36877412646
20
12.3963280768507
30
0
41
1
10
121.391842684074
20
12.3911314721393
30
0
41
1
10
121.406390564873
20
12.385327008592
30
0
41
1
10
121.420192599161
20
12.3774282143646
30
0
0
SPLINE
5
141
100
AcDbEntity
8
1
62
256
6
ByLayer
370
18
48
1
60
0
100
AcDbSpline
70
4
71
3
72
8
73
4
40
0
40
0
40
0
40
0
40
1
40
1
40
1
40
1
41
1
10
121.420192599161
20
12.3774282143646
30
0
41
1
10
121.426678344165
20
12.3758202998111
30
0
41
1
10
121.433164323998
20
12.3742123270401
30
0
41
1
10
121.439650544205
20
12.3726042946763
30
0
0
SPLINE
5
142
100
AcDbEntity
8
1
62
256
6
ByLayer
370
18
48
1
60
0
100
AcDbSpline
70
4
71
3
72
52
73
48
40
0
40
0
40
0
40
0
40
0.0156249999999788
40
0.0156249999999788
40
0.0312499999999577
40
0.0312499999999577
40
0.0624999999999183
40
0.0624999999999183
40
0.0937499999998788
40
0.0937499999998788
40
0.124999999999839
40
0.124999999999839
40
0.18749999999976
40
0.18749999999976
40
0.218749999999742
40
0.218749999999742
40
0.249999999999724
40
0.249999999999724
40
0.312499999999734
40
0.312499999999734
40
0.374999999999743
40
0.374999999999743
40
0.437499999999753
40
0.437499999999753
40
0.499999999999763
40
0.499999999999763
40
0.562499999999773
40
0.562499999999773
40
0.624999999999783
40
0.624999999999783
40
0.687499999999792
40
0.687499999999792
40
0.749999999999802
40
0.749999999999802
40
0.812499999999812
40
0.812499999999812
40
0.843749999999843
40
0.843749999999843
40
0.874999999999875
40
0.874999999999875
40
0.906249999999906
40
0.906249999999906
40
0.937499999999937
40
0.937499999999937
40
0.968749999999969
40
0.968749999999969
40
1
40
1
40
1
40
1
41
1
10
123.49341022532
20
13.8066273149749
30
0
41
1
10
123.4953093764
20
13.8000372948391
30
0
41
1
10
123.497561720828
20
13.7935526240024
30
0
41
1
10
123.502699905713
20
13.7807711245502
30
0
41
1
10
123.505593543095
20
13.7744627316178
30
0
41
1
10
123.515025381781
20
13.7560026434047
30
0
41
1
10
123.52233060122
20
13.7442413190307
30
0
41
1
10
123.53855757372
20
13.7215720091044
30
0
41
1
10
123.547482974868
20
13.7106659915544
30
0
41
1
10
123.566711093698
20
13.6895657854397
30
0
41
1
10
123.576984949891
20
13.6794116828197
30
0
41
1
10
123.609176330242
20
13.6502394756799
30
0
41
1
10
123.632651789479
20
13.6323135370313
30
0
41
1
10
123.669645832564
20
13.6075373770725
30
0
41
1
10
123.682294272479
20
13.5996195069556
30
0
41
1
10
123.708169485935
20
13.5843918589194
30
0
41
1
10
123.721409820687
20
13.5770765914611
30
0
41
1
10
123.761696609708
20
13.5560906311067
30
0
41
1
10
123.789376256365
20
13.5433265600186
30
0
41
1
10
123.846200886912
20
13.5199095507315
30
0
41
1
10
123.875300284863
20
13.5092864920109
30
0
41
1
10
123.934265641836
20
13.490181448149
30
0
41
1
10
123.964225877904
20
13.4816650601837
30
0
41
1
10
124.024945708979
20
13.4666470191236
30
0
41
1
10
124.055562777477
20
13.460179533427
30
0
41
1
10
124.117303834729
20
13.4492931606731
30
0
41
1
10
124.148270514986
20
13.4449020263796
30
0
41
1
10
124.210400231452
20
13.4382521305329
30
0
41
1
10
124.241551805437
20
13.435999303388
30
0
41
1
10
124.303581907126
20
13.4337846053649
30
0
41
1
10
124.33458411688
20
13.4338188605655
30
0
41
1
10
124.395960709055
20
13.4363933263145
30
0
41
1
10
124.426401835606
20
13.4389282898703
30
0
41
1
10
124.486520104799
20
13.4468727979617
30
0
41
1
10
124.516011559517
20
13.4522484993879
30
0
41
1
10
124.559269768176
20
13.4628897137294
30
0
41
1
10
124.573547670369
20
13.4668781306068
30
0
41
1
10
124.601542875804
20
13.4757950523832
30
0
41
1
10
124.615276343036
20
13.4807250606263
30
0
41
1
10
124.642141180566
20
13.4916877502843
30
0
41
1
10
124.655245189345
20
13.4977116571268
30
0
41
1
10
124.680499981437
20
13.5109570261459
30
0
41
1
10
124.692713355359
20
13.5182111400273
30
0
41
1
10
124.715885961401
20
13.5341165036854
30
0
41
1
10
124.72675647502
20
13.5427000809082
30
0
41
1
10
124.746790617287
20
13.5613917204151
30
0
41
1
10
124.755959003048
20
13.5714955519524
30
0
41
1
10
124.764036112351
20
13.5825816887053
30
0
0
SPLINE
5
143
100
AcDbEntity
8
1
62
256
6
ByLayer
370
18
48
1
60
0
100
AcDbSpline
70
4
71
3
72
8
73
4
40
0
40
0
40
0
40
0
40
1
40
1
40
1
40
1
41
1
10
124.764036112351
20
13.5825816887053
30
0
41
1
10
124.767971222019
20
13.5879827749454
30
0
41
1
10
124.771906185853
20
13.5933836610242
30
0
41
1
10
124.77584100722
20
13.5987843515607
30
0
0
SPLINE
5
144
100
AcDbEntity
8
1
62
256
6
ByLayer
370
18
48
1
60
0
100
AcDbSpline
70
4
71
3
72
35
73
31
40
0
40
0
40
0
40
0
40
0.125000000000077
40
0.125000000000077
40
0.250000000000154
40
0.250000000000154
40
0.375000000000231
40
0.375000000000231
40
0.500000000000307
40
0.500000000000307
40
0.562500000000346
40
0.562500000000346
40
0.625000000000385
40
0.625000000000385
40
0.687500000000424
40
0.687500000000424
40
0.718750000000443
40
0.718750000000443
40
0.750000000000462
40
0.750000000000462
40
0.812500000000411
40
0.812500000000411
40
0.843750000000343
40
0.843750000000343
40
0.875000000000275
40
0.906250000000208
40
0.906250000000208
40
0.93750000000014
40
0.93750000000014
40
1
40
1
40
1
40
1
41
1
10
125.512542734061
20
13.4610646862151
30
0
41
1
10
125.484644283996
20
13.4844742653749
30
0
41
1
10
125.455806907861
20
13.5068152901018
30
0
41
1
10
125.396423597512
20
13.5491030675144
30
0
41
1
10
125.365956993314
20
13.5690005205851
30
0
41
1
10
125.303324716625
20
13.606055810089
30
0
41
1
10
125.271144969893
20
13.6232194130818
30
0
41
1
10
125.205266741846
20
13.6540107009396
30
0
41
1
10
125.171553418714
20
13.6676576104328
30
0
41
1
10
125.11999125389
20
13.6845152161079
30
0
41
1
10
125.102663860809
20
13.6895204332373
30
0
41
1
10
125.067682708773
20
13.6980689323281
30
0
41
1
10
125.050070668095
20
13.7015975434902
30
0
41
1
10
125.014946633059
20
13.7067884032952
30
0
41
1
10
124.99738686506
20
13.7084671293502
30
0
41
1
10
124.971063528351
20
13.7092482595705
30
0
41
1
10
124.962291854669
20
13.7092173635485
30
0
41
1
10
124.944757175107
20
13.7084799279362
30
0
41
1
10
124.935985332952
20
13.7077684296145
30
0
41
1
10
124.910176490029
20
13.7045143006262
30
0
41
1
10
124.893488458225
20
13.7008673268149
30
0
41
1
10
124.869479547247
20
13.6925515984357
30
0
41
1
10
124.861667371038
20
13.6892969059413
30
0
41
1
10
124.846886984086
20
13.6819357095851
30
0
41
1
10
124.832834697425
20
13.6736866374152
30
0
41
1
10
124.820314328376
20
13.6635820823887
30
0
41
1
10
124.808613149361
20
13.6524905085817
30
0
41
1
10
124.803209743682
20
13.646467619388
30
0
41
1
10
124.788796686335
20
13.6275947649006
30
0
41
1
10
124.781353044968
20
13.6137512508657
30
0
41
1
10
124.77584100722
20
13.5987843515607
30
0
0
SPLINE
5
145
100
AcDbEntity
8
1
62
256
6
ByLayer
370
18
48
1
60
0
100
AcDbSpline
70
4
71
3
72
35
73
31
40
0
40
0
40
0
40
0
40
0.124999999999896
40
0.124999999999896
40
0.249999999999793
40
0.249999999999793
40
0.37499999999969
40
0.37499999999969
40
0.437499999999638
40
0.437499999999638
40
0.499999999999587
40
0.499999999999587
40
0.624999999999577
40
0.624999999999577
40
0.687499999999572
40
0.687499999999572
40
0.718749999999613
40
0.718749999999613
40
0.749999999999655
40
0.749999999999655
40
0.812499999999735
40
0.812499999999735
40
0.843749999999775
40
0.843749999999775
40
0.874999999999815
40
0.906249999999855
40
0.906249999999855
40
0.937499999999895
40
0.937499999999895
40
1
40
1
40
1
40
1
41
1
10
122.748482813681
20
13.9484430264729
30
0
41
1
10
122.78270609784
20
13.9608992832254
30
0
41
1
10
122.817488798395
20
13.9720424851134
30
0
41
1
10
122.887703812689
20
13.9914546955819
30
0
41
1
10
122.923139466796
20
13.9997341247614
30
0
41
1
10
122.994731987129
20
14.0131435019396
30
0
41
1
10
123.03077913212
20
14.0182516203326
30
0
41
1
10
123.084952629031
20
14.0230456982156
30
0
41
1
10
123.103042534307
20
14.0241654371569
30
0
41
1
10
123.139292598566
20
14.0253211888142
30
0
41
1
10
123.157452673473
20
14.0253552669621
30
0
41
1
10
123.211659267932
20
14.0235746558236
30
0
41
1
10
123.2476959819
20
14.019908797549
30
0
41
1
10
123.30014535166
20
14.0091553474297
30
0
41
1
10
123.317452801767
20
14.0046617317063
30
0
41
1
10
123.342603543918
20
13.9963167189821
30
0
41
1
10
123.350854113136
20
13.993267757205
30
0
41
1
10
123.3670509105
20
13.9865640468434
30
0
41
1
10
123.375023254385
20
13.9828945537724
30
0
41
1
10
123.398113139422
20
13.9709943000963
30
0
41
1
10
123.412469357654
20
13.9618711560464
30
0
41
1
10
123.432022368918
20
13.9459508912796
30
0
41
1
10
123.438247942073
20
13.9402218782754
30
0
41
1
10
123.449662720978
20
13.9281837271495
30
0
41
1
10
123.460065204385
20
13.9155698827541
30
0
41
1
10
123.468357441744
20
13.9017652502334
30
0
41
1
10
123.475532368133
20
13.8873339479958
30
0
41
1
10
123.478517414484
20
13.8798699843597
30
0
41
1
10
123.485551301597
20
13.8572937250817
30
0
41
1
10
123.487798429109
20
13.841792658965
30
0
41
1
10
123.487858889793
20
13.8258903495332
30
0
0
SPLINE
5
146
100
AcDbEntity
8
1
62
256
6
ByLayer
370
18
48
1
60
0
100
AcDbSpline
70
4
71
3
72
8
73
4
40
0
40
0
40
0
40
0
40
1
40
1
40
1
40
1
41
1
10
123.487858889793
20
13.8258903495332
30
0
41
1
10
123.489709267445
20
13.8194695723209
30
0
41
1
10
123.491559712093
20
13.8130485626321
30
0
41
1
10
123.493410225319
20
13.8066273149756
30
0
0
SPLINE
5
147
100
AcDbEntity
8
1
62
256
6
ByLayer
370
18
48
1
60
0
100
AcDbSpline
70
4
71
3
72
39
73
35
40
0
40
0
40
0
40
0
40
0.124999999999987
40
0.124999999999987
40
0.249999999999974
40
0.249999999999974
40
0.374999999999961
40
0.374999999999961
40
0.437499999999955
40
0.437499999999955
40
0.499999999999948
40
0.499999999999948
40
0.562499999999941
40
0.562499999999941
40
0.624999999999935
40
0.624999999999935
40
0.687499999999928
40
0.687499999999928
40
0.718749999999926
40
0.718749999999926
40
0.749999999999923
40
0.749999999999923
40
0.812499999999996
40
0.812499999999996
40
0.843749999999997
40
0.843749999999997
40
0.874999999999997
40
0.874999999999997
40
0.906249999999998
40
0.906249999999998
40
0.937499999999999
40
0.968749999999999
40
0.968749999999999
40
1
40
1
40
1
40
1
41
1
10
124.668378686225
20
8.67357246895321
30
0
41
1
10
124.634150502525
20
8.66111442891335
30
0
41
1
10
124.599402113467
20
8.64998228449218
30
0
41
1
10
124.529206896872
20
8.63057326330951
30
0
41
1
10
124.493691769382
20
8.62227604787756
30
0
41
1
10
124.422182211199
20
8.60888151843068
30
0
41
1
10
124.386112271295
20
8.60376641885924
30
0
41
1
10
124.331889611878
20
8.59896814416467
30
0
41
1
10
124.313802359994
20
8.59784968711554
30
0
41
1
10
124.277601308867
20
8.59669518164327
30
0
41
1
10
124.259462878976
20
8.59666008129471
30
0
41
1
10
124.223356780681
20
8.59784286586853
30
0
41
1
10
124.20537485944
20
8.59905740192485
30
0
41
1
10
124.16958714409
20
8.6029711293387
30
0
41
1
10
124.151871859836
20
8.60566310483037
30
0
41
1
10
124.117123288027
20
8.61276608866882
30
0
41
1
10
124.100054848556
20
8.61717661394297
30
0
41
1
10
124.07504440388
20
8.62542042519658
30
0
41
1
10
124.0668069396
20
8.62844137697942
30
0
41
1
10
124.050564936677
20
8.63511691027088
30
0
41
1
10
124.042573089381
20
8.6387706249721
30
0
41
1
10
124.019439780126
20
8.65061182900214
30
0
41
1
10
124.004991448675
20
8.65971872389019
30
0
41
1
10
123.985228387138
20
8.67571809951698
30
0
41
1
10
123.979000031216
20
8.68142390178582
30
0
41
1
10
123.96757896849
20
8.69339541661424
30
0
41
1
10
123.962347429183
20
8.69969106708331
30
0
41
1
10
123.952907990509
20
8.71293984931793
30
0
41
1
10
123.948672695412
20
8.71995245880601
30
0
41
1
10
123.941464321109
20
8.73436994460582
30
0
41
1
10
123.935520020974
20
8.74911983848284
30
0
41
1
10
123.931986492107
20
8.76449890185023
30
0
41
1
10
123.929621740435
20
8.78018185550906
30
0
41
1
10
123.929032920574
20
8.78815291834027
30
0
41
1
10
123.929002610113
20
8.79612514589289
30
0
0
SPLINE
5
148
100
AcDbEntity
8
1
62
256
6
ByLayer
370
18
48
1
60
0
100
AcDbSpline
70
4
71
3
72
8
73
4
40
0
40
0
40
0
40
0
40
1
40
1
40
1
40
1
41
1
10
122.652825387556
20
9.03943380672075
30
0
41
1
10
122.648890277888
20
9.03403272048072
30
0
41
1
10
122.644955314053
20
9.02863183440189
30
0
41
1
10
122.641020492686
20
9.02323114386533
30
0
0
SPLINE
5
149
100
AcDbEntity
8
1
62
256
6
ByLayer
370
18
48
1
60
0
100
AcDbSpline
70
4
71
3
72
35
73
31
40
0
40
0
40
0
40
0
40
0.125000000000032
40
0.125000000000032
40
0.250000000000064
40
0.250000000000064
40
0.375000000000097
40
0.375000000000097
40
0.500000000000129
40
0.500000000000129
40
0.562500000000145
40
0.562500000000145
40
0.62500000000016
40
0.62500000000016
40
0.687500000000176
40
0.687500000000176
40
0.718750000000184
40
0.718750000000184
40
0.750000000000192
40
0.750000000000192
40
0.812500000000207
40
0.812500000000207
40
0.843750000000172
40
0.843750000000172
40
0.875000000000136
40
0.906250000000101
40
0.906250000000101
40
0.937500000000066
40
0.937500000000066
40
1
40
1
40
1
40
1
41
1
10
121.904318765846
20
9.16095080921099
30
0
41
1
10
121.932217215911
20
9.1375412300512
30
0
41
1
10
121.961054592046
20
9.11520020532427
30
0
41
1
10
122.020437902394
20
9.07291242791169
30
0
41
1
10
122.050904506592
20
9.05301497484092
30
0
41
1
10
122.113536783282
20
9.01595968533712
30
0
41
1
10
122.145716530014
20
8.99879608234426
30
0
41
1
10
122.211594758061
20
8.96800479448646
30
0
41
1
10
122.245308081193
20
8.9543578849933
30
0
41
1
10
122.296870246017
20
8.93750027931813
30
0
41
1
10
122.314197639098
20
8.93249506218879
30
0
41
1
10
122.349178791134
20
8.92394656309796
30
0
41
1
10
122.366790831811
20
8.92041795193583
30
0
41
1
10
122.401914866847
20
8.91522709213086
30
0
41
1
10
122.419474634847
20
8.9135483660759
30
0
41
1
10
122.445797971555
20
8.91276723585557
30
0
41
1
10
122.454569645237
20
8.91279813187762
30
0
41
1
10
122.472104324799
20
8.91353556748987
30
0
41
1
10
122.480876166955
20
8.91424706581154
30
0
41
1
10
122.506685009877
20
8.91750119479988
30
0
41
1
10
122.523373041682
20
8.92114816861121
30
0
41
1
10
122.54738195266
20
8.9294638969904
30
0
41
1
10
122.555194128868
20
8.93271858948478
30
0
41
1
10
122.569974515821
20
8.94007978584099
30
0
41
1
10
122.584026802482
20
8.94832885801085
30
0
41
1
10
122.596547171531
20
8.9584334130374
30
0
41
1
10
122.608248350546
20
8.96952498684436
30
0
41
1
10
122.613651756224
20
8.97554787603804
30
0
41
1
10
122.628064813571
20
8.99442073052546
30
0
41
1
10
122.635508454938
20
9.00826424456037
30
0
41
1
10
122.641020492686
20
9.02323114386533
30
0
0
SPLINE
5
14A
100
AcDbEntity
8
1
62
256
6
ByLayer
370
18
48
1
60
0
100
AcDbSpline
70
4
71
3
72
8
73
4
40
0
40
0
40
0
40
0
40
1
40
1
40
1
40
1
41
1
10
123.923451274587
20
8.8153881804505
30
0
41
1
10
123.925301787814
20
8.80896693279394
30
0
41
1
10
123.927152232462
20
8.80254592310519
30
0
41
1
10
123.929002610113
20
8.79612514589289
30
0
0
SPLINE
5
14B
100
AcDbEntity
8
1
62
256
6
ByLayer
370
18
48
1
60
0
100
AcDbSpline
70
4
71
3
72
50
73
46
40
0
40
0
40
0
40
0
40
0.0312499999999977
40
0.0312499999999977
40
0.0468749999999946
40
0.0468749999999946
40
0.0624999999999916
40
0.0624999999999916
40
0.124999999999975
40
0.124999999999975
40
0.156249999999989
40
0.156249999999989
40
0.187500000000004
40
0.187500000000004
40
0.249999999999983
40
0.249999999999983
40
0.281249999999999
40
0.281249999999999
40
0.312500000000016
40
0.312500000000016
40
0.374999999999995
40
0.374999999999995
40
0.499999999999954
40
0.499999999999954
40
0.56249999999996
40
0.56249999999996
40
0.624999999999966
40
0.624999999999966
40
0.687499999999972
40
0.687499999999972
40
0.749999999999978
40
0.749999999999978
40
0.812499999999985
40
0.812499999999985
40
0.843749999999987
40
0.843749999999987
40
0.87499999999999
40
0.87499999999999
40
0.906249999999992
40
0.906249999999992
40
0.937499999999995
40
0.937499999999995
40
0.968749999999997
40
0.968749999999997
40
1
40
1
40
1
40
1
41
1
10
122.652825387556
20
9.03943380672075
30
0
41
1
10
122.660947992121
20
9.05058238743433
30
0
41
1
10
122.670192789968
20
9.06076161478043
30
0
41
1
10
122.685382631285
20
9.07489700304154
30
0
41
1
10
122.690668671284
20
9.07941792175149
30
0
41
1
10
122.701647356971
20
9.08811345934376
30
0
41
1
10
122.707356903498
20
9.09229857052148
30
0
41
1
10
122.736539724077
20
9.11222619809305
30
0
41
1
10
122.761980095967
20
9.12517791859318
30
0
41
1
10
122.802349134747
20
9.14157663557208
30
0
41
1
10
122.816228293113
20
9.14653454884342
30
0
41
1
10
122.844298921739
20
9.15542506738097
30
0
41
1
10
122.858522613657
20
9.15937392507885
30
0
41
1
10
122.901696470404
20
9.16993506859967
30
0
41
1
10
122.931145146833
20
9.17527427528168
30
0
41
1
10
122.97619071356
20
9.18118841312989
30
0
41
1
10
122.991386374012
20
9.1828095504855
30
0
41
1
10
123.02190255475
20
9.1853746703656
30
0
41
1
10
123.037174175474
20
9.18631634620235
30
0
41
1
10
123.083030252161
20
9.18820402862829
30
0
41
1
10
123.113655892126
20
9.18821852444341
30
0
41
1
10
123.205704432915
20
9.18492884885751
30
0
41
1
10
123.267298828141
20
9.17835002007638
30
0
41
1
10
123.360066892753
20
9.16208237868449
30
0
41
1
10
123.390737542802
20
9.15563130980001
30
0
41
1
10
123.451514162495
20
9.14065533439768
30
0
41
1
10
123.481620817062
20
9.13212594666098
30
0
41
1
10
123.540790171341
20
9.11300214475546
30
0
41
1
10
123.569972117312
20
9.10236879185814
30
0
41
1
10
123.626890339707
20
9.07895450204546
30
0
41
1
10
123.654685993983
20
9.06615810570972
30
0
41
1
10
123.708584171046
20
9.03811399321199
30
0
41
1
10
123.734517080647
20
9.02296459764236
30
0
41
1
10
123.771610783434
20
8.99814881677318
30
0
41
1
10
123.783691277579
20
8.9895095011679
30
0
41
1
10
123.807003435936
20
8.97153645635859
30
0
41
1
10
123.818249027523
20
8.96219637122564
30
0
41
1
10
123.839795075323
20
8.9426841272516
30
0
41
1
10
123.850074046663
20
8.93252834533655
30
0
41
1
10
123.86932249428
20
8.91141611323729
30
0
41
1
10
123.878339640727
20
8.90040791997058
30
0
41
1
10
123.894715889059
20
8.87750122058063
30
0
41
1
10
123.902012986266
20
8.86569883691851
30
0
41
1
10
123.914475221798
20
8.84124269511719
30
0
41
1
10
123.919646320519
20
8.82859130271808
30
0
41
1
10
123.923451274587
20
8.81538818045047
30
0
0
LINE
5
7A
100
AcDbEntity
8
1
62
256
6
ByLayer
370
18
48
1
60
0
100
AcDbLine
10
155.248246
20
21.726384
30
0
11
150.549783
21
20.016283
31
0
39
0
210
0
220
0
230
1
0
LINE
5
7B
100
AcDbEntity
8
80
62
256
6
ByLayer
370
18
48
1
60
0
100
AcDbLine
10
0
20
0
30
0
11
-5
21
0
31
0
39
0
210
0
220
0
230
1
0
LINE
5
7C
100
AcDbEntity
8
1
62
256
6
ByLayer
370
18
48
1
60
0
100
AcDbLine
10
0
20
-19.98925
30
0
11
93.535506
21
-19.98925
31
0
39
0
210
0
220
0
230
1
0
LINE
5
7D
100
AcDbEntity
8
1
62
256
6
ByLayer
370
18
48
1
60
0
100
AcDbLine
10
98.534433
20
-20.25
30
0
11
105.945542
21
-20.25
31
0
39
0
210
0
220
0
230
1
0
LINE
5
7E
100
AcDbEntity
8
1
62
256
6
ByLayer
370
18
48
1
60
0
100
AcDbLine
10
97.66229
20
19.73925
30
0
11
96.2285
21
19.73925
31
0
39
0
210
0
220
0
230
1
0
LINE
5
7F
100
AcDbEntity
8
1
62
256
6
ByLayer
370
18
48
1
60
0
100
AcDbLine
10
94.196944
20
-19.73925
30
0
11
97.66229
21
-19.73925
31
0
39
0
210
0
220
0
230
1
0
LINE
5
80
100
AcDbEntity
8
SK1
62
256
6
ByLayer
370
18
48
1
60
0
100
AcDbLine
10
-92
20
-19.98925
30
0
11
0
21
-19.98925
31
0
39
0
210
0
220
0
230
1
0
LINE
5
82
100
AcDbEntity
8
SK1
62
256
6
ByLayer
370
18
48
1
60
0
100
AcDbLine
10
-94
20
-17.98925
30
0
11
-92
21
-19.98925
31
0
39
0
210
0
220
0
230
1
0
LINE
5
83
100
AcDbEntity
8
1
62
256
6
ByLayer
370
18
48
1
60
0
100
AcDbLine
10
0
20
-19.98925
30
0
11
0
21
-7.571005
31
0
39
0
210
0
220
0
230
1
0
LINE
5
84
100
AcDbEntity
8
1
62
256
6
ByLayer
370
18
48
1
60
0
100
AcDbLine
10
0
20
17.51075
30
0
11
0
21
7.571005
31
0
39
0
210
0
220
0
230
1
0
LINE
5
85
100
AcDbEntity
8
1
62
256
6
ByLayer
370
18
48
1
60
0
100
AcDbLine
10
0
20
7.571005
30
0
11
93.535506
21
7.571005
31
0
39
0
210
0
220
0
230
1
0
LINE
5
86
100
AcDbEntity
8
1
62
256
6
ByLayer
370
18
48
1
60
0
100
AcDbLine
10
0
20
7.571005
30
0
11
0
21
-7.571005
31
0
39
0
210
0
220
0
230
1
0
LINE
5
87
100
AcDbEntity
8
1
62
256
6
ByLayer
370
18
48
1
60
0
100
AcDbLine
10
151.454961
20
16.966977
30
0
11
149.326556
21
16.1923
31
0
39
0
210
0
220
0
230
1
0
LINE
5
88
100
AcDbEntity
8
1
62
256
6
ByLayer
370
18
48
1
60
0
100
AcDbLine
10
151.454961
20
16.966977
30
0
11
151.429176
21
17.03743
31
0
39
0
210
0
220
0
230
1
0
LINE
5
89
100
AcDbEntity
8
1
62
256
6
ByLayer
370
18
48
1
60
0
100
AcDbLine
10
154.743352
20
18.163853
30
0
11
151.454961
21
16.966977
31
0
39
0
210
0
220
0
230
1
0
LINE
5
8A
100
AcDbEntity
8
1
62
256
6
ByLayer
370
18
48
1
60
0
100
AcDbLine
10
149.283133
20
22.934025
30
0
11
147.154728
21
22.159349
31
0
39
0
210
0
220
0
230
1
0
LINE
5
8B
100
AcDbEntity
8
1
62
256
6
ByLayer
370
18
48
1
60
0
100
AcDbLine
10
152.57145
20
24.130874
30
0
11
149.283133
21
22.934025
31
0
39
0
210
0
220
0
230
1
0
LINE
5
8C
100
AcDbEntity
8
1
62
256
6
ByLayer
370
18
48
1
60
0
100
AcDbLine
10
149.308667
20
22.86348
30
0
11
149.283133
21
22.934025
31
0
39
0
210
0
220
0
230
1
0
LINE
5
8D
100
AcDbEntity
8
1
62
256
6
ByLayer
370
18
48
1
60
0
100
AcDbLine
10
146.279449
20
15.083244
30
0
11
149.326525
21
16.192289
31
0
39
0
210
0
220
0
230
1
0
LINE
5
8E
100
AcDbEntity
8
1
62
256
6
ByLayer
370
18
48
1
60
0
100
AcDbLine
10
144.107621
20
21.050292
30
0
11
147.154697
21
22.159337
31
0
39
0
210
0
220
0
230
1
0
LINE
5
8F
100
AcDbEntity
8
1
62
256
6
ByLayer
370
18
48
1
60
0
100
AcDbLine
10
148.468347
20
19.967363
30
0
11
148.279827
21
19.98822
31
0
39
0
210
0
220
0
230
1
0
LINE
5
90
100
AcDbEntity
8
1
62
256
6
ByLayer
370
18
48
1
60
0
100
AcDbLine
10
148.279827
20
19.98822
30
0
11
147.154697
21
22.159337
31
0
39
0
210
0
220
0
230
1
0
LINE
5
91
100
AcDbEntity
8
1
62
256
6
ByLayer
370
18
48
1
60
0
100
AcDbLine
10
149.326525
20
16.192289
30
0
11
148.792857
21
18.578681
31
0
39
0
210
0
220
0
230
1
0
LINE
5
92
100
AcDbEntity
8
1
62
256
6
ByLayer
370
18
48
1
60
0
100
AcDbLine
10
148.792857
20
18.578681
30
0
11
148.923865
21
18.715837
31
0
39
0
210
0
220
0
230
1
0
LINE
5
93
100
AcDbEntity
8
1
62
256
6
ByLayer
370
18
48
1
60
0
100
AcDbLine
10
148.943917
20
18.873136
30
0
11
148.584817
21
19.859754
31
0
39
0
210
0
220
0
230
1
0
LINE
5
94
100
AcDbEntity
8
1
62
256
6
ByLayer
370
18
48
1
60
0
100
AcDbLine
10
136.074426
20
11.36892
30
0
11
146.279449
21
15.083244
31
0
39
0
210
0
220
0
230
1
0
LINE
5
95
100
AcDbEntity
8
1
62
256
6
ByLayer
370
18
48
1
60
0
100
AcDbLine
10
144.107621
20
21.050292
30
0
11
146.279449
21
15.083244
31
0
39
0
210
0
220
0
230
1
0
LINE
5
96
100
AcDbEntity
8
1
62
256
6
ByLayer
370
18
48
1
60
0
100
AcDbLine
10
143.210547
20
20.723784
30
0
11
144.107621
21
21.050292
31
0
39
0
210
0
220
0
230
1
0
LINE
5
97
100
AcDbEntity
8
1
62
256
6
ByLayer
370
18
48
1
60
0
100
AcDbLine
10
132.910985
20
20.060403
30
0
11
139.448326
21
20.060403
31
0
39
0
210
0
220
0
230
1
0
LINE
5
98
100
AcDbEntity
8
1
62
256
6
ByLayer
370
18
48
1
60
0
100
AcDbLine
10
116.555384
20
-7.605682
30
0
11
112.164202
21
-12.838889
31
0
39
0
210
0
220
0
230
1
0
LINE
5
99
100
AcDbEntity
8
1
62
256
6
ByLayer
370
18
48
1
60
0
100
AcDbLine
10
106.485752
20
20.060403
30
0
11
100.189839
21
20.060403
31
0
39
0
210
0
220
0
230
1
0
LINE
5
9A
100
AcDbEntity
8
1
62
256
6
ByLayer
370
18
48
1
60
0
100
AcDbLine
10
116.555384
20
-7.605682
30
0
11
129.00061
21
7.225961
31
0
39
0
210
0
220
0
230
1
0
LINE
5
9B
100
AcDbEntity
8
1
62
256
6
ByLayer
370
18
48
1
60
0
100
AcDbLine
10
133.664877
20
10.491916
30
0
11
136.074426
21
11.36892
31
0
39
0
210
0
220
0
230
1
0
LINE
5
9C
100
AcDbEntity
8
1
62
256
6
ByLayer
370
18
48
1
60
0
100
AcDbLine
10
106.485752
20
20.060403
30
0
11
132.910985
21
20.060403
31
0
39
0
210
0
220
0
230
1
0
LINE
5
9D
100
AcDbEntity
8
1
62
256
6
ByLayer
370
18
48
1
60
0
100
AcDbLine
10
106.485752
20
20.060403
30
0
11
116.555384
21
-7.605682
31
0
39
0
210
0
220
0
230
1
0
LINE
5
9E
100
AcDbEntity
8
1
62
256
6
ByLayer
370
18
48
1
60
0
100
AcDbLine
10
132.910985
20
20.060403
30
0
11
136.074426
21
11.36892
31
0
39
0
210
0
220
0
230
1
0
LINE
5
9F
100
AcDbEntity
8
1
62
256
6
ByLayer
370
18
48
1
60
0
100
AcDbLine
10
110.017516
20
-15.39721
30
0
11
112.164202
21
-12.838889
31
0
39
0
210
0
220
0
230
1
0
LINE
5
A0
100
AcDbEntity
8
1
62
256
6
ByLayer
370
18
48
1
60
0
100
AcDbLine
10
99.305852
20
20.060403
30
0
11
100.189839
21
20.060403
31
0
39
0
210
0
220
0
230
1
0
LINE
5
A1
100
AcDbEntity
8
1
62
256
6
ByLayer
370
18
48
1
60
0
100
AcDbLine
10
112.164202
20
-12.838889
30
0
11
100.189839
21
20.060403
31
0
39
0
210
0
220
0
230
1
0
LINE
5
A2
100
AcDbEntity
8
1
62
256
6
ByLayer
370
13
48
1
60
0
100
AcDbLine
10
101.406424
20
8.26157
30
0
11
98.380593
21
16.574974
31
0
39
0
210
0
220
0
230
1
0
LINE
5
A3
100
AcDbEntity
8
1
62
256
6
ByLayer
370
18
48
1
60
0
100
AcDbLine
10
109.131393
20
-16.45325
30
0
11
110.017516
21
-15.39721
31
0
39
0
210
0
220
0
230
1
0
LINE
5
A4
100
AcDbEntity
8
1
62
256
6
ByLayer
370
13
48
1
60
0
100
AcDbLine
10
110.017516
20
-15.39721
30
0
11
102.921883
21
4.097882
31
0
39
0
210
0
220
0
230
1
0
LINE
5
A5
100
AcDbEntity
8
1
62
256
6
ByLayer
370
18
48
1
60
0
100
AcDbLine
10
93.535506
20
-19.98925
30
0
11
93.535506
21
-7.571005
31
0
39
0
210
0
220
0
230
1
0
LINE
5
A6
100
AcDbEntity
8
1
62
256
6
ByLayer
370
18
48
1
60
0
100
AcDbLine
10
105.945542
20
-20.25
30
0
11
109.131393
21
-16.45325
31
0
39
0
210
0
220
0
230
1
0
LINE
5
A7
100
AcDbEntity
8
1
62
256
6
ByLayer
370
18
48
1
60
0
100
AcDbLine
10
98.534433
20
-20.25
30
0
11
98.534433
21
-8.234835
31
0
39
0
210
0
220
0
230
1
0
LINE
5
A8
100
AcDbEntity
8
1
62
256
6
ByLayer
370
13
48
1
60
0
100
AcDbLine
10
98.628216
20
20.060403
30
0
11
98.628216
21
17.100735
31
0
39
0
210
0
220
0
230
1
0
LINE
5
A9
100
AcDbEntity
8
1
62
256
6
ByLayer
370
18
48
1
60
0
100
AcDbLine
10
93.535506
20
17.51075
30
0
11
0
21
17.51075
31
0
39
0
210
0
220
0
230
1
0
LINE
5
AA
100
AcDbEntity
8
1
62
256
6
ByLayer
370
18
48
1
60
0
100
AcDbLine
10
93.535506
20
17.51075
30
0
11
93.535506
21
7.571005
31
0
39
0
210
0
220
0
230
1
0
LINE
5
AB
100
AcDbEntity
8
1
62
256
6
ByLayer
370
18
48
1
60
0
100
AcDbLine
10
93.535506
20
-7.571005
30
0
11
0
21
-7.571005
31
0
39
0
210
0
220
0
230
1
0
LINE
5
AC
100
AcDbEntity
8
1
62
256
6
ByLayer
370
18
48
1
60
0
100
AcDbLine
10
101.985443
20
-8.234835
30
0
11
98.534433
21
-8.234835
31
0
39
0
210
0
220
0
230
1
0
LINE
5
AD
100
AcDbEntity
8
1
62
256
6
ByLayer
370
13
48
1
60
0
100
AcDbLine
10
99.854627
20
8.473757
30
0
11
97.253972
21
15.618998
31
0
39
0
210
0
220
0
230
1
0
LINE
5
AE
100
AcDbEntity
8
1
62
256
6
ByLayer
370
18
48
1
60
0
100
AcDbLine
10
101.985443
20
-8.234835
30
0
11
96.482676
21
6.883894
31
0
39
0
210
0
220
0
230
1
0
LINE
5
AF
100
AcDbEntity
8
1
62
256
6
ByLayer
370
13
48
1
60
0
100
AcDbLine
10
108.856866
20
-16.259692
30
0
11
101.834906
21
3.032985
31
0
39
0
210
0
220
0
230
1
0
LINE
5
B0
100
AcDbEntity
8
1
62
256
6
ByLayer
370
13
48
1
60
0
100
AcDbLine
10
94.196944
20
-19.73925
30
0
11
94.196944
21
-6.883894
31
0
39
0
210
0
220
0
230
1
0
LINE
5
B1
100
AcDbEntity
8
1
62
256
6
ByLayer
370
18
48
1
60
0
100
AcDbLine
10
94.196944
20
17.707694
30
0
11
96.2285
21
19.73925
31
0
39
0
210
0
220
0
230
1
0
LINE
5
B2
100
AcDbEntity
8
1
62
256
6
ByLayer
370
13
48
1
60
0
100
AcDbLine
10
94.196944
20
17.707694
30
0
11
94.196944
21
6.883894
31
0
39
0
210
0
220
0
230
1
0
LINE
5
B3
100
AcDbEntity
8
1
62
256
6
ByLayer
370
18
48
1
60
0
100
AcDbLine
10
96.482676
20
6.883894
30
0
11
94.196944
21
6.883894
31
0
39
0
210
0
220
0
230
1
0
LINE
5
B4
100
AcDbEntity
8
1
62
256
6
ByLayer
370
13
48
1
60
0
100
AcDbLine
10
97.66229
20
19.73925
30
0
11
97.66229
21
16.027355
31
0
39
0
210
0
220
0
230
1
0
LINE
5
B5
100
AcDbEntity
8
1
62
256
6
ByLayer
370
13
48
1
60
0
100
AcDbLine
10
97.66229
20
-6.883894
30
0
11
97.66229
21
-19.73925
31
0
39
0
210
0
220
0
230
1
0
LINE
5
B6
100
AcDbEntity
8
1
62
256
6
ByLayer
370
18
48
1
60
0
100
AcDbLine
10
94.196944
20
-6.883894
30
0
11
97.66229
21
-6.883894
31
0
39
0
210
0
220
0
230
1
0
LINE
5
B7
100
AcDbEntity
8
1
62
256
6
ByLayer
370
18
48
1
60
0
100
AcDbLine
10
151.755016
20
23.753903
30
0
11
152.434637
21
24.001265
31
0
39
0
210
0
220
0
230
1
0
LINE
5
B8
100
AcDbEntity
8
1
62
256
6
ByLayer
370
18
48
1
60
0
100
AcDbLine
10
153.875541
20
17.927809
30
0
11
154.555162
21
18.175171
31
0
39
0
210
0
220
0
230
1
0
LINE
5
B9
100
AcDbEntity
8
1
62
256
6
ByLayer
370
13
48
1
60
0
100
AcDbLine
10
153.875541
20
17.927809
30
0
11
151.755016
21
23.753903
31
0
39
0
210
0
220
0
230
1
0
LINE
5
BA
100
AcDbEntity
8
1
62
256
6
ByLayer
370
13
48
1
60
0
100
AcDbLine
10
151.141439
20
19.9443
30
0
11
148.856683
21
19.112717
31
0
39
0
210
0
220
0
230
1
0
LINE
5
BB
100
AcDbEntity
8
1
62
256
6
ByLayer
370
13
48
1
60
0
100
AcDbLine
10
150.956748
20
20.451734
30
0
11
148.671992
21
19.620151
31
0
39
0
210
0
220
0
230
1
0
LINE
5
BC
100
AcDbEntity
8
1
62
256
6
ByLayer
370
13
48
1
60
0
100
AcDbLine
10
150.879549
20
20.626613
30
0
11
148.60671
21
19.799367
31
0
39
0
210
0
220
0
230
1
0
LINE
5
BD
100
AcDbEntity
8
1
62
256
6
ByLayer
370
13
48
1
60
0
100
AcDbLine
10
151.194711
20
19.760713
30
0
11
148.921872
21
18.933467
31
0
39
0
210
0
220
0
230
1
0
LINE
5
BE
100
AcDbEntity
8
1
62
256
6
ByLayer
370
13
48
1
60
0
100
AcDbLine
10
151.027363
20
19.46888
30
0
11
148.905432
21
18.69656
31
0
39
0
210
0
220
0
230
1
0
LINE
5
BF
100
AcDbEntity
8
1
62
256
6
ByLayer
370
13
48
1
60
0
100
AcDbLine
10
150.563766
20
20.7426
30
0
11
148.441836
21
19.970281
31
0
39
0
210
0
220
0
230
1
0
LINE
5
C0
100
AcDbEntity
8
1
62
256
6
ByLayer
370
13
48
1
60
0
100
AcDbLine
10
148.81921
20
18.606276
30
0
11
150.833149
21
19.33929
31
0
39
0
210
0
220
0
230
1
0
LINE
5
C1
100
AcDbEntity
8
1
62
256
6
ByLayer
370
13
48
1
60
0
100
AcDbLine
10
148.317753
20
19.98402
30
0
11
150.331692
21
20.717034
31
0
39
0
210
0
220
0
230
1
0
LINE
5
C2
100
AcDbEntity
8
1
62
256
6
ByLayer
370
13
48
1
60
0
100
AcDbLine
10
148.795805
20
18.564981
30
0
11
150.789203
21
19.290518
31
0
39
0
210
0
220
0
230
1
0
LINE
5
C3
100
AcDbEntity
8
1
62
256
6
ByLayer
370
13
48
1
60
0
100
AcDbLine
10
148.273279
20
20.000609
30
0
11
150.266677
21
20.726147
31
0
39
0
210
0
220
0
230
1
0
LINE
5
C4
100
AcDbEntity
8
1
62
256
6
ByLayer
370
13
48
1
60
0
100
AcDbLine
10
150.72419
20
19.169182
30
0
11
148.816075
21
18.474685
31
0
39
0
210
0
220
0
230
1
0
LINE
5
C5
100
AcDbEntity
8
1
62
256
6
ByLayer
370
13
48
1
60
0
100
AcDbLine
10
150.138881
20
20.777306
30
0
11
148.230766
21
20.082809
31
0
39
0
210
0
220
0
230
1
0
LINE
5
C6
100
AcDbEntity
8
1
62
256
6
ByLayer
370
13
48
1
60
0
100
AcDbLine
10
150.097259
20
20.809267
30
0
11
148.210158
21
20.122419
31
0
39
0
210
0
220
0
230
1
0
LINE
5
C7
100
AcDbEntity
8
1
62
256
6
ByLayer
370
13
48
1
60
0
100
AcDbLine
10
150.71285
20
19.117945
30
0
11
148.825749
21
18.431096
31
0
39
0
210
0
220
0
230
1
0
LINE
5
C8
100
AcDbEntity
8
1
62
256
6
ByLayer
370
18
48
1
60
0
100
AcDbLine
10
149.309983
20
16.266082
30
0
11
151.015695
21
16.88691
31
0
39
0
210
0
220
0
230
1
0
LINE
5
C9
100
AcDbEntity
8
1
62
256
6
ByLayer
370
13
48
1
60
0
100
AcDbLine
10
150.916081
20
17.160596
30
0
11
149.245847
21
16.552681
31
0
39
0
210
0
220
0
230
1
0
LINE
5
CA
100
AcDbEntity
8
1
62
256
6
ByLayer
370
13
48
1
60
0
100
AcDbLine
10
150.912181
20
17.177656
30
0
11
149.24195
21
16.569742
31
0
39
0
210
0
220
0
230
1
0
LINE
5
CB
100
AcDbEntity
8
1
62
256
6
ByLayer
370
13
48
1
60
0
100
AcDbLine
10
149.002762
20
22.423742
30
0
11
147.332531
21
21.815828
31
0
39
0
210
0
220
0
230
1
0
LINE
5
CC
100
AcDbEntity
8
1
62
256
6
ByLayer
370
18
48
1
60
0
100
AcDbLine
10
147.189458
20
22.092176
30
0
11
148.89517
21
22.713004
31
0
39
0
210
0
220
0
230
1
0
LINE
5
CD
100
AcDbEntity
8
1
62
256
6
ByLayer
370
13
48
1
60
0
100
AcDbLine
10
148.994784
20
22.439318
30
0
11
147.32455
21
21.831402
31
0
39
0
210
0
220
0
230
1
0
LINE
5
CE
100
AcDbEntity
8
1
62
256
6
ByLayer
370
18
48
1
60
0
100
AcDbLine
10
151.015695
20
16.88691
30
0
11
152.797571
21
17.53546
31
0
39
0
210
0
220
0
230
1
0
LINE
5
CF
100
AcDbEntity
8
1
62
256
6
ByLayer
370
13
48
1
60
0
100
AcDbLine
10
152.797571
20
17.53546
30
0
11
150.677046
21
23.361554
31
0
39
0
210
0
220
0
230
1
0
LINE
5
D0
100
AcDbEntity
8
1
62
256
6
ByLayer
370
18
48
1
60
0
100
AcDbLine
10
148.89517
20
22.713004
30
0
11
150.677046
21
23.361554
31
0
39
0
210
0
220
0
230
1
0
LINE
5
D1
100
AcDbEntity
8
1
62
256
6
ByLayer
370
18
48
1
60
0
100
AcDbLine
10
148.994784
20
22.439318
30
0
11
148.89517
21
22.713004
31
0
39
0
210
0
220
0
230
1
0
LINE
5
D2
100
AcDbEntity
8
1
62
256
6
ByLayer
370
18
48
1
60
0
100
AcDbLine
10
149.002762
20
22.423742
30
0
11
150.097259
21
20.809267
31
0
39
0
210
0
220
0
230
1
0
LINE
5
D3
100
AcDbEntity
8
1
62
256
6
ByLayer
370
18
48
1
60
0
100
AcDbLine
10
150.138881
20
20.777306
30
0
11
150.266677
21
20.726148
31
0
39
0
210
0
220
0
230
1
0
LINE
5
D4
100
AcDbEntity
8
1
62
256
6
ByLayer
370
18
48
1
60
0
100
AcDbLine
10
150.956748
20
20.451734
30
0
11
151.049094
21
20.198017
31
0
39
0
210
0
220
0
230
1
0
LINE
5
D5
100
AcDbEntity
8
1
62
256
6
ByLayer
370
18
48
1
60
0
100
AcDbLine
10
151.141439
20
19.9443
30
0
11
151.049094
21
20.198017
31
0
39
0
210
0
220
0
230
1
0
LINE
5
D6
100
AcDbEntity
8
1
62
256
6
ByLayer
370
18
48
1
60
0
100
AcDbLine
10
150.72419
20
19.169182
30
0
11
150.789203
21
19.290518
31
0
39
0
210
0
220
0
230
1
0
LINE
5
D7
100
AcDbEntity
8
1
62
256
6
ByLayer
370
18
48
1
60
0
100
AcDbLine
10
150.912181
20
17.177656
30
0
11
150.71285
21
19.117945
31
0
39
0
210
0
220
0
230
1
0
LINE
5
D8
100
AcDbEntity
8
1
62
256
6
ByLayer
370
18
48
1
60
0
100
AcDbLine
10
150.916081
20
17.160596
30
0
11
151.015695
21
16.88691
31
0
39
0
210
0
220
0
230
1
0
LINE
5
D9
100
AcDbEntity
8
SK1
62
256
6
ByLayer
370
18
48
1
60
0
100
AcDbLine
10
0
20
-19.98925
30
0
11
0
21
-7.571005
31
0
39
0
210
0
220
0
230
1
0
LINE
5
DA
100
AcDbEntity
8
SK1
62
256
6
ByLayer
370
18
48
1
60
0
100
AcDbLine
10
-94
20
-17.98925
30
0
11
-94
21
17.51075
31
0
39
0
210
0
220
0
230
1
0
LINE
5
DB
100
AcDbEntity
8
SK1
62
256
6
ByLayer
370
18
48
1
60
0
100
AcDbLine
10
-92
20
-19.98925
30
0
11
-92
21
-7.571005
31
0
39
0
210
0
220
0
230
1
0
LINE
5
DC
100
AcDbEntity
8
SK1
62
256
6
ByLayer
370
18
48
1
60
0
100
AcDbLine
10
0
20
7.571005
30
0
11
0
21
-7.571005
31
0
39
0
210
0
220
0
230
1
0
LINE
5
DD
100
AcDbEntity
8
SK1
62
256
6
ByLayer
370
18
48
1
60
0
100
AcDbLine
10
0
20
-7.571005
30
0
11
-92
21
-7.571005
31
0
39
0
210
0
220
0
230
1
0
LINE
5
DE
100
AcDbEntity
8
SK1
62
256
6
ByLayer
370
18
48
1
60
0
100
AcDbLine
10
0
20
17.51075
30
0
11
0
21
7.571005
31
0
39
0
210
0
220
0
230
1
0
LINE
5
DF
100
AcDbEntity
8
SK1
62
256
6
ByLayer
370
18
48
1
60
0
100
AcDbLine
10
0
20
17.51075
30
0
11
-92
21
17.51075
31
0
39
0
210
0
220
0
230
1
0
LINE
5
E0
100
AcDbEntity
8
SK1
62
256
6
ByLayer
370
18
48
1
60
0
100
AcDbLine
10
-92
20
7.571005
30
0
11
-92
21
17.51075
31
0
39
0
210
0
220
0
230
1
0
LINE
5
E1
100
AcDbEntity
8
SK1
62
256
6
ByLayer
370
18
48
1
60
0
100
AcDbLine
10
-92
20
7.571005
30
0
11
0
21
7.571005
31
0
39
0
210
0
220
0
230
1
0
LINE
5
E2
100
AcDbEntity
8
81
62
256
6
ByLayer
370
18
48
1
60
0
100
AcDbLine
10
160
20
26
30
0
11
164.698463
21
27.710101
31
0
39
0
210
0
220
0
230
1
0
LINE
5
E3
100
AcDbEntity
8
2
62
256
6
ByLayer
370
13
48
1
60
0
100
AcDbLine
10
166.190225
20
28.253058
30
0
11
197.240978
21
39.554608
31
0
39
0
210
0
220
0
230
1
0
LINE
5
E5
100
AcDbEntity
8
2
62
256
6
ByLayer
370
13
48
1
60
0
100
AcDbLine
10
161.5875
20
26
30
0
11
199.631021
21
26
31
0
39
0
210
0
220
0
230
1
0
LINE
5
E6
100
AcDbEntity
8
1
62
256
6
ByLayer
370
18
48
1
60
1
100
AcDbLine
10
195.361593
20
38.870567
30
0
11
196.918467
21
35.702216
31
0
39
0
210
0
220
0
230
1
0
LINE
5
E7
100
AcDbEntity
8
1
62
256
6
ByLayer
370
18
48
1
60
1
100
AcDbLine
10
196.918467
20
35.702216
30
0
11
196.045389
21
35.407223
31
0
39
0
210
0
220
0
230
1
0
LINE
5
E8
100
AcDbEntity
8
1
62
256
6
ByLayer
370
18
48
1
60
1
100
AcDbLine
10
196.045389
20
35.407223
30
0
11
195.361593
21
38.870567
31
0
39
0
210
0
220
0
230
1
0
LINE
5
E9
100
AcDbEntity
8
1
62
256
6
ByLayer
370
18
48
1
60
1
100
AcDbLine
10
197.631021
20
26
30
0
11
197.089045
21
29.488348
31
0
39
0
210
0
220
0
230
1
0
LINE
5
EA
100
AcDbEntity
8
1
62
256
6
ByLayer
370
18
48
1
60
1
100
AcDbLine
10
197.089045
20
29.488348
30
0
11
198.010364
21
29.509762
31
0
39
0
210
0
220
0
230
1
0
LINE
5
EB
100
AcDbEntity
8
1
62
256
6
ByLayer
370
18
48
1
60
1
100
AcDbLine
10
198.010364
20
29.509762
30
0
11
197.631021
21
26
31
0
39
0
210
0
220
0
230
1
0
LINE
5
14F
100
AcDbEntity
8
1
62
256
6
ByLayer
370
18
48
1
60
1
100
AcDbLine
10
195.361593
20
38.870567
30
0
11
196.918467
21
35.702216
31
0
39
0
210
0
220
0
230
1
0
LINE
5
150
100
AcDbEntity
8
1
62
256
6
ByLayer
370
18
48
1
60
1
100
AcDbLine
10
196.918467
20
35.702216
30
0
11
196.045389
21
35.407223
31
0
39
0
210
0
220
0
230
1
0
LINE
5
151
100
AcDbEntity
8
1
62
256
6
ByLayer
370
18
48
1
60
1
100
AcDbLine
10
196.045389
20
35.407223
30
0
11
195.361593
21
38.870567
31
0
39
0
210
0
220
0
230
1
0
LINE
5
153
100
AcDbEntity
8
1
62
256
6
ByLayer
370
18
48
1
60
1
100
AcDbLine
10
197.631021
20
26
30
0
11
197.089045
21
29.488348
31
0
39
0
210
0
220
0
230
1
0
LINE
5
154
100
AcDbEntity
8
1
62
256
6
ByLayer
370
18
48
1
60
1
100
AcDbLine
10
197.089045
20
29.488348
30
0
11
198.010364
21
29.509762
31
0
39
0
210
0
220
0
230
1
0
LINE
5
155
100
AcDbEntity
8
1
62
256
6
ByLayer
370
18
48
1
60
1
100
AcDbLine
10
198.010364
20
29.509762
30
0
11
197.631021
21
26
31
0
39
0
210
0
220
0
230
1
0
MTEXT
5
14C
100
AcDbEntity
8
2
62
256
6
ByLayer
370
18
48
1
60
0
100
AcDbMText
10
198.411554
20
31.792151
30
0
210
0
220
0
230
1
1
\W0.8531;20%%d
40
3.5
41
0
44
1.084337
50
273.630825167426
71
7
72
5
7
iso_b_vert
0
MTEXT
5
157
100
AcDbEntity
8
SK6
62
256
6
ByLayer
370
18
48
1
60
0
100
AcDbMText
10
0.534732
20
-50.487316
30
0
210
0
220
0
230
1
1
\W0.7992;C2T-CF40-RX20L25GB
40
3.5
41
0
44
1.084337
50
0
71
7
72
5
7
iso_b_vert
0
HATCH
5
152
100
AcDbEntity
8
2
62
256
6
ByLayer
370
13
48
1
60
0
100
AcDbHatch
10
0
20
0
30
0
210
0
220
0
230
1
2
ANSI31
70
0
71
0
91
1
92
5
93
3
72
1
10
195.361592916017
20
38.8705672576679
11
196.918467019102
21
35.7022155038763
72
1
10
196.918467019102
20
35.7022155038763
11
196.045388695089
21
35.4072225106238
72
1
10
196.045388695089
20
35.4072225106238
11
195.361592916017
21
38.8705672576679
97
0
75
0
76
1
52
0
41
0.0062
77
0
78
1
53
45
43
0
44
0
45
-0.0139193969876572
46
0.0139193969876572
79
0
47
0
98
1
10
0
20
0
0
HATCH
5
156
100
AcDbEntity
8
2
62
256
6
ByLayer
370
13
48
1
60
0
100
AcDbHatch
10
0
20
0
30
0
210
0
220
0
230
1
2
ANSI31
70
0
71
0
91
1
92
5
93
3
72
1
10
197.631021180567
20
25.9999999999994
11
197.089045440162
21
29.4883480482054
72
1
10
197.089045440162
20
29.4883480482054
11
198.010364087144
21
29.5097624511611
72
1
10
198.010364087144
20
29.5097624511611
11
197.631021180567
21
25.9999999999994
97
0
75
0
76
1
52
0
41
0.0062
77
0
78
1
53
45
43
0
44
0
45
-0.0139193969876572
46
0.0139193969876572
79
0
47
0
98
1
10
0
20
0
0
DIMENSION
5
15A
100
AcDbEntity
8
SK2
62
256
6
ByLayer
370
18
48
1
60
0
100
AcDbDimension
2
_U0
10
160
20
-26.75
30
0
11
33
21
-26.75
31
0
70
32
71
1
72
1
41
1
210
0
220
0
230
1
3
Standard
100
AcDbAlignedDimension
13
-94
23
0
33
0
14
160
24
26
34
0
50
0
100
AcDbRotatedDimension
1001
ACAD
1000
DSTYLE
1002
{
1070
   371
1070
    13
1070
   372
1070
    13
1070
   170
1070
     0
1070
   144
1040
1.0
1070
   277
1070
     2
1070
   284
1070
     8
1070
   278
1070
    46
1070
   146
1040
1.0
1070
   345
1005
16
1070
   347
1005
16
1070
   346
1005
16
1070
   344
1005
0
1070
   343
1005
0
1070
   172
1070
     1
1070
    76
1070
     0
1070
    75
1070
     0
1070
   282
1070
     0
1070
   281
1070
     0
1070
    71
1070
     0
1070
    74
1070
     0
1070
   279
1070
     0
1070
   173
1070
     1
1070
   340
1005
14D
1070
   271
1070
     1
1070
   272
1070
     2
1070
    77
1070
     1
1070
    73
1070
     1
1070
   171
1070
     3
1070
   274
1070
     4
1070
   177
1070
     2
1070
   176
1070
     2
1070
   178
1070
     2
1070
    78
1070
     8
1070
    48
1040
-0.1
1070
    41
1040
3.5
1070
   147
1040
1.75
1070
    42
1040
1.5875
1070
    44
1040
2.0
1070
   140
1040
3.5
1002
}
1001
ACAD_DSTYLE_DIM_LINETYPE
1070
   380
1005
16
1001
ACAD_DSTYLE_DIM_EXT1_LINETYPE
1070
   381
1005
16
1001
ACAD_DSTYLE_DIM_EXT2_LINETYPE
1070
   382
1005
16
0
DIMENSION
5
174
100
AcDbEntity
8
SK2
62
256
6
ByLayer
370
18
48
1
60
0
100
AcDbDimension
2
_U1
10
160
20
48.25
30
0
11
80
21
48.25
31
0
70
32
71
1
72
1
41
1
210
0
220
0
230
1
3
Standard
100
AcDbAlignedDimension
13
0
23
0
33
0
14
160
24
26
34
0
50
0
100
AcDbRotatedDimension
1001
ACAD
1000
DSTYLE
1002
{
1070
   371
1070
    13
1070
   372
1070
    13
1070
   170
1070
     0
1070
   144
1040
1.0
1070
   277
1070
     2
1070
   284
1070
     8
1070
   278
1070
    46
1070
   146
1040
1.0
1070
   345
1005
16
1070
   347
1005
16
1070
   346
1005
16
1070
   344
1005
0
1070
   343
1005
0
1070
   172
1070
     1
1070
    76
1070
     0
1070
    75
1070
     0
1070
   282
1070
     0
1070
   281
1070
     0
1070
    71
1070
     0
1070
    74
1070
     0
1070
   279
1070
     0
1070
   173
1070
     1
1070
   340
1005
14D
1070
   271
1070
     1
1070
   272
1070
     2
1070
    77
1070
     1
1070
    73
1070
     1
1070
   171
1070
     3
1070
   274
1070
     4
1070
   177
1070
     2
1070
   176
1070
     2
1070
   178
1070
     2
1070
    78
1070
     8
1070
    48
1040
-0.1
1070
    41
1040
3.5
1070
   147
1040
1.75
1070
    42
1040
1.5875
1070
    44
1040
2.0
1070
   140
1040
3.5
1002
}
1001
ACAD_DSTYLE_DIM_LINETYPE
1070
   380
1005
16
1001
ACAD_DSTYLE_DIM_EXT1_LINETYPE
1070
   381
1005
16
1001
ACAD_DSTYLE_DIM_EXT2_LINETYPE
1070
   382
1005
16
0
DIMENSION
5
18C
100
AcDbEntity
8
SK2
62
256
6
ByLayer
370
18
48
1
60
0
100
AcDbDimension
2
_U2
10
-105.6
20
-20
30
0
11
-105.6
21
0
31
0
70
32
71
1
72
1
41
1
210
0
220
0
230
1
3
Standard
100
AcDbAlignedDimension
13
-94
23
20
33
0
14
-94
24
-20
34
0
50
90
100
AcDbRotatedDimension
1001
ACAD
1000
DSTYLE
1002
{
1070
   371
1070
    13
1070
   372
1070
    13
1070
   170
1070
     0
1070
   144
1040
1.0
1070
   277
1070
     2
1070
   284
1070
     8
1070
   278
1070
    46
1070
   146
1040
1.0
1070
   345
1005
16
1070
   347
1005
16
1070
   346
1005
16
1070
   344
1005
0
1070
   343
1005
0
1070
   172
1070
     1
1070
    76
1070
     0
1070
    75
1070
     0
1070
   282
1070
     0
1070
   281
1070
     0
1070
    71
1070
     0
1070
    74
1070
     0
1070
   279
1070
     0
1070
   173
1070
     1
1070
   340
1005
14D
1070
   271
1070
     2
1070
   272
1070
     2
1070
    77
1070
     1
1070
    73
1070
     0
1070
   171
1070
     3
1070
   274
1070
     4
1070
   177
1070
     2
1070
   176
1070
     2
1070
   178
1070
     2
1070
    78
1070
     8
1070
    48
1040
-0.1
1070
    41
1040
3.5
1070
   147
1040
1.75
1070
    42
1040
1.5875
1070
    44
1040
2.0
1070
   140
1040
3.5
1002
}
1001
ACAD_DSTYLE_DIM_LINETYPE
1070
   380
1005
16
1001
ACAD_DSTYLE_DIM_EXT1_LINETYPE
1070
   381
1005
16
1001
ACAD_DSTYLE_DIM_EXT2_LINETYPE
1070
   382
1005
16
0
ENDSEC
0
SECTION
2
OBJECTS
0
DICTIONARY
5
213
330
0
100
AcDbDictionary
280
0
281
1
3
ACAD_GROUP
350
214
3
ACAD_MLINESTYLE
350
215
0
DICTIONARY
5
214
330
0
100
AcDbDictionary
280
0
281
1
0
DICTIONARY
5
215
330
0
100
AcDbDictionary
280
0
281
1
3
Standard
350
18
0
MLINESTYLE
5
18
330
215
100
AcDbMlineStyle
2
Standard
70
0
3

62
256
51
90
52
90
71
2
49
-0.5
62
256
6
ByLayer
49
0.5
62
256
6
ByLayer
0
RASTERVARIABLES
5
202
330

100
AcDbRasterVariables
90
0
70
1
71
1
72
1
0
ENDSEC
0
EOF
