0
SECTION
2
HEADER
9
$ACADVER
1
AC1015
9
$DWGCODEPAGE
3
ANSI_1252
9
$HANDSEED
5
23c
9
$ANGBASE
50
0
9
$ANGDIR
70
0
9
$ATTMODE
70
1
9
$AUNITS
70
0
9
$AUPREC
70
0
9
$CECOLOR
62
256
9
$CELTSCALE
40
1
9
$CELTYPE
6
ByLayer
9
$CELWEIGHT
370
18
9
$CLAYER
8
0
9
$CMLJUST
70
0
9
$CMLSCALE
40
1
9
$CMLSTYLE
2
Standard
9
$DIMSTYLE
2
Standard
9
$TEXTSIZE
40
0.2
9
$TEXTSTYLE
7
Standard
9
$LUNITS
70
2
9
$LUPREC
70
4
9
$EXTNAMES
290
1
9
$INSUNITS
70
4
9
$LTSCALE
40
1
9
$LWDISPLAY
290
1
9
$PDMODE
70
0
9
$PDSIZE
40
0
9
$PLINEGEN
70
0
0
ENDSEC
0
SECTION
2
CLASSES
0
CLASS
1
RASTERVARIABLES
2
AcDbRasterVariables
3
ISM
90
0
280
0
281
0
0
ENDSEC
0
SECTION
2
TABLES
0
TABLE
2
VPORT
5
232
100
AcDbSymbolTable
0
VPORT
5
1
100
AcDbSymbolTableRecord
100
AcDbViewportTableRecord
2
*Active
70
0
10
0
20
0
11
1
21
1
12
-1
22
1
13
0
23
0
14
0.5
24
0.5
15
10
25
10
16
0
26
0
36
1
17
0
27
0
37
0
0
ENDTAB
0
TABLE
2
LTYPE
5
233
100
AcDbSymbolTable
0
LTYPE
5
14
100
AcDbSymbolTableRecord
100
AcDbLinetypeTableRecord
70
0
2
ByBlock
3

72
65
73
0
40
0
0
LTYPE
5
15
100
AcDbSymbolTableRecord
100
AcDbLinetypeTableRecord
70
0
2
ByLayer
3

72
65
73
0
40
0
0
LTYPE
5
16
100
AcDbSymbolTableRecord
100
AcDbLinetypeTableRecord
70
0
2
Continuous
3
Solid line
72
65
73
0
40
0
0
LTYPE
5
6E
100
AcDbSymbolTableRecord
100
AcDbLinetypeTableRecord
70
0
2
CENTER
3
____ _ ____ _ ____ _ ____
72
65
73
4
40
47.5
49
22
74
0
49
-8.5
74
0
49
8.5
74
0
49
-8.5
74
0
0
LTYPE
5
6F
100
AcDbSymbolTableRecord
100
AcDbLinetypeTableRecord
70
0
2
DASHED
3
__ __ __ __ __ __ __ __ __
72
65
73
2
40
25.72
49
12.86
74
0
49
-12.86
74
0
0
ENDTAB
0
TABLE
2
LAYER
5
234
100
AcDbSymbolTable
0
LAYER
5
10
100
AcDbSymbolTableRecord
100
AcDbLayerTableRecord
2
0
70
0
62
7
6
Continuous
290
1
370
-3
390
0
0
LAYER
5
71
100
AcDbSymbolTableRecord
100
AcDbLayerTableRecord
2
2
70
0
62
7
6
Continuous
290
1
370
-3
390
0
0
LAYER
5
98
100
AcDbSymbolTableRecord
100
AcDbLayerTableRecord
2
81
70
0
62
-3
6
Continuous
290
1
370
-3
390
0
0
LAYER
5
9A
100
AcDbSymbolTableRecord
100
AcDbLayerTableRecord
2
80
70
0
62
-6
6
Continuous
290
1
370
-3
390
0
0
LAYER
5
9C
100
AcDbSymbolTableRecord
100
AcDbLayerTableRecord
2
1
70
0
62
4
6
Continuous
290
1
370
-3
390
0
0
LAYER
5
A3
100
AcDbSymbolTableRecord
100
AcDbLayerTableRecord
2
4
70
0
62
-2
6
CENTER
290
1
370
-3
390
0
0
LAYER
5
177
100
AcDbSymbolTableRecord
100
AcDbLayerTableRecord
2
Defpoints
70
0
62
7
6
Continuous
290
0
370
-3
390
0
0
LAYER
5
21e
100
AcDbSymbolTableRecord
100
AcDbLayerTableRecord
2
SK4
70
0
62
2
6
CENTER
290
1
370
-3
390
0
0
LAYER
5
21f
100
AcDbSymbolTableRecord
100
AcDbLayerTableRecord
2
SK1
70
0
62
4
6
Continuous
290
1
370
-3
390
0
0
LAYER
5
220
100
AcDbSymbolTableRecord
100
AcDbLayerTableRecord
2
SK2
70
0
62
7
6
Continuous
290
1
370
-3
390
0
0
LAYER
5
221
100
AcDbSymbolTableRecord
100
AcDbLayerTableRecord
2
SK6
70
0
62
5
6
Continuous
290
1
370
-3
390
0
0
ENDTAB
0
TABLE
2
STYLE
5
235
100
AcDbSymbolTable
0
STYLE
5
11
100
AcDbSymbolTableRecord
100
AcDbTextStyleTableRecord
2
Standard
3
txt
70
0
71
0
40
0
41
1
42
0
50
0
0
STYLE
5
15C
100
AcDbSymbolTableRecord
100
AcDbTextStyleTableRecord
2
iso_b_vert
3
simplex.shx
70
0
71
0
40
0
41
1
42
0
50
0
0
STYLE
5
15D
100
AcDbSymbolTableRecord
100
AcDbTextStyleTableRecord
2
DWGDirectTextStyle
3
simplex
70
0
71
0
40
0
41
1
42
0
50
0
0
ENDTAB
0
TABLE
2
DIMSTYLE
5
236
100
AcDbSymbolTable
100
AcDbDimStyleTable
0
DIMSTYLE
105
27
100
AcDbSymbolTableRecord
100
AcDbDimStyleTableRecord
2
Standard
70
0
3
<>
41
0.18
42
0.0625
44
0.18
140
0.18
147
0.09
73
0
74
0
77
1
271
2
275
0
278
52
280
0
340
11
0
ENDTAB
0
TABLE
2
VIEW
5
237
100
AcDbSymbolTable
0
ENDTAB
0
TABLE
2
UCS
5
238
100
AcDbSymbolTable
0
ENDTAB
0
TABLE
2
APPID
5
239
100
AcDbSymbolTable
0
APPID
5
12
100
AcDbSymbolTableRecord
100
AcDbRegAppTableRecord
2
ACAD
70
0
0
APPID
5
173
100
AcDbSymbolTableRecord
100
AcDbRegAppTableRecord
2
ACAD_DSTYLE_DIMBREAK
70
0
0
APPID
5
1DD
100
AcDbSymbolTableRecord
100
AcDbRegAppTableRecord
2
ACAD_DSTYLE_DIM_LINETYPE
70
0
0
APPID
5
1DE
100
AcDbSymbolTableRecord
100
AcDbRegAppTableRecord
2
ACAD_DSTYLE_DIM_EXT1_LINETYPE
70
0
0
APPID
5
1DF
100
AcDbSymbolTableRecord
100
AcDbRegAppTableRecord
2
ACAD_DSTYLE_DIM_EXT2_LINETYPE
70
0
0
APPID
5
21A
100
AcDbSymbolTableRecord
100
AcDbRegAppTableRecord
2
ACAD_MLEADERVER
70
0
0
ENDTAB
0
TABLE
2
BLOCK_RECORD
5
23a
100
AcDbSymbolTable
0
BLOCK_RECORD
5
1F
100
AcDbSymbolTableRecord
100
AcDbBlockTableRecord
2
*Model_Space
340
0
70
0
0
BLOCK_RECORD
5
1B
100
AcDbSymbolTableRecord
100
AcDbBlockTableRecord
2
*Paper_Space
340
0
70
0
0
BLOCK_RECORD
5
23
100
AcDbSymbolTableRecord
100
AcDbBlockTableRecord
2
*Paper_Space0
340
0
70
0
0
BLOCK_RECORD
5
178
100
AcDbSymbolTableRecord
100
AcDbBlockTableRecord
2
*D1
340
0
70
0
0
BLOCK_RECORD
5
184
100
AcDbSymbolTableRecord
100
AcDbBlockTableRecord
2
_U0
340
0
70
0
0
BLOCK_RECORD
5
191
100
AcDbSymbolTableRecord
100
AcDbBlockTableRecord
2
*D3
340
0
70
0
0
BLOCK_RECORD
5
19D
100
AcDbSymbolTableRecord
100
AcDbBlockTableRecord
2
_U1
340
0
70
0
0
BLOCK_RECORD
5
1AA
100
AcDbSymbolTableRecord
100
AcDbBlockTableRecord
2
*D5
340
0
70
0
0
BLOCK_RECORD
5
1B6
100
AcDbSymbolTableRecord
100
AcDbBlockTableRecord
2
_U2
340
0
70
0
0
ENDTAB
0
ENDSEC
0
SECTION
2
BLOCKS
0
BLOCK
5
20
100
AcDbEntity
8
0
100
AcDbBlockBegin
2
*Model_Space
70
0
10
0
20
0
30
0
3
*Model_Space
0
ENDBLK
5
21
100
AcDbEntity
8
0
100
AcDbBlockEnd
0
BLOCK
5
1C
100
AcDbEntity
8
0
100
AcDbBlockBegin
2
*Paper_Space
70
0
10
0
20
0
30
0
3
*Paper_Space
0
ENDBLK
5
1D
100
AcDbEntity
8
0
100
AcDbBlockEnd
0
BLOCK
5
24
100
AcDbEntity
8
0
100
AcDbBlockBegin
2
*Paper_Space0
70
0
10
0
20
0
30
0
3
*Paper_Space0
0
ENDBLK
5
25
100
AcDbEntity
8
0
100
AcDbBlockEnd
0
BLOCK
5
179
100
AcDbEntity
8
0
100
AcDbBlockBegin
2
*D1
70
1
10
0
20
0
30
0
3
*D1
0
LINE
5
17B
100
AcDbEntity
8
0
62
256
6
ByLayer
370
-2
48
1
60
0
100
AcDbLine
10
285
20
14.2875
30
0
11
285
21
-31.625
31
0
39
0
210
0
220
0
230
1
0
LINE
5
17C
100
AcDbEntity
8
0
62
256
6
ByLayer
370
-2
48
1
60
0
100
AcDbLine
10
95.25
20
-17.4625
30
0
11
95.25
21
-31.625
31
0
39
0
210
0
220
0
230
1
0
LINE
5
17D
100
AcDbEntity
8
0
62
256
6
ByLayer
370
-2
48
1
60
0
100
AcDbLine
10
281.5
20
-29.625
30
0
11
98.75
21
-29.625
31
0
39
0
210
0
220
0
230
1
0
SOLID
5
17E
100
AcDbEntity
8
0
62
256
6
ByLayer
370
-1
48
1
60
0
100
AcDbTrace
10
281.5
20
-30.208333
30
0
11
281.5
21
-29.041667
31
0
12
285
22
-29.625
32
0
13
285
23
-29.625
33
0
39
0
210
0
220
0
230
1
0
SOLID
5
17F
100
AcDbEntity
8
0
62
256
6
ByLayer
370
-1
48
1
60
0
100
AcDbTrace
10
98.75
20
-29.041667
30
0
11
98.75
21
-30.208333
31
0
12
95.25
22
-29.625
32
0
13
95.25
23
-29.625
33
0
39
0
210
0
220
0
230
1
0
MTEXT
5
180
100
AcDbEntity
8
0
62
256
6
ByLayer
370
18
48
1
60
0
100
AcDbMText
10
190.125
20
-22.625
30
0
210
0
220
0
230
1
1
\A1;190
40
3.5
41
0
44
1
50
0
71
5
72
5
7
iso_b_vert
0
POINT
5
181
100
AcDbEntity
8
Defpoints
62
0
6
ByLayer
370
-1
48
1
60
0
100
AcDbPoint
10
285
20
15.875
30
0
39
0
210
0
220
0
230
1
50
360
0
POINT
5
182
100
AcDbEntity
8
Defpoints
62
0
6
ByLayer
370
-1
48
1
60
0
100
AcDbPoint
10
95.25
20
-15.875
30
0
39
0
210
0
220
0
230
1
50
360
0
POINT
5
183
100
AcDbEntity
8
Defpoints
62
0
6
ByLayer
370
-1
48
1
60
0
100
AcDbPoint
10
95.25
20
-29.625
30
0
39
0
210
0
220
0
230
1
50
360
0
ENDBLK
5
17A
100
AcDbEntity
8
0
100
AcDbBlockEnd
0
BLOCK
5
18C
100
AcDbEntity
8
0
100
AcDbBlockBegin
2
_U0
70
0
10
0
20
0
30
0
3
_U0
0
MTEXT
5
185
100
AcDbEntity
8
SK2
62
256
6
ByLayer
370
18
48
1
60
0
100
AcDbMText
10
181.648734
20
-28.592366
30
0
210
0
220
0
230
1
1
\W0.7621;OHN
40
3.5
41
0
44
1.084337
50
0
71
7
72
5
7
iso_b_vert
0
MTEXT
5
186
100
AcDbEntity
8
SK2
62
256
6
ByLayer
370
18
48
1
60
0
100
AcDbMText
10
193.050733
20
-28.592366
30
0
210
0
220
0
230
1
1
\W0.6217;190
40
3.5
41
0
44
1.084337
50
0
71
7
72
5
7
iso_b_vert
0
LINE
5
187
100
AcDbEntity
8
SK2
62
256
6
ByLayer
370
13
48
1
60
0
100
AcDbLine
10
285
20
14.2875
30
0
11
285
21
-31.625
31
0
39
0
210
0
220
0
230
1
0
LINE
5
188
100
AcDbEntity
8
SK2
62
256
6
ByLayer
370
13
48
1
60
0
100
AcDbLine
10
95.25
20
-17.4625
30
0
11
95.25
21
-31.625
31
0
39
0
210
0
220
0
230
1
0
LINE
5
189
100
AcDbEntity
8
SK2
62
256
6
ByLayer
370
13
48
1
60
0
100
AcDbLine
10
285
20
-29.625
30
0
11
95.25
21
-29.625
31
0
39
0
210
0
220
0
230
1
0
SOLID
5
18A
100
AcDbEntity
8
SK2
62
256
6
ByLayer
370
18
48
1
60
0
100
AcDbTrace
10
285
20
-29.625
30
0
11
281.500002
21
-30.085784
31
0
12
281.499998
22
-29.164216
32
0
13
281.499998
23
-29.164216
33
0
39
0
210
0
220
0
230
1
0
SOLID
5
18B
100
AcDbEntity
8
SK2
62
256
6
ByLayer
370
18
48
1
60
0
100
AcDbTrace
10
95.25
20
-29.625
30
0
11
98.749998
21
-29.164216
31
0
12
98.750002
22
-30.085784
32
0
13
98.750002
23
-30.085784
33
0
39
0
210
0
220
0
230
1
0
ENDBLK
5
18D
100
AcDbEntity
8
0
100
AcDbBlockEnd
0
BLOCK
5
192
100
AcDbEntity
8
0
100
AcDbBlockBegin
2
*D3
70
1
10
0
20
0
30
0
3
*D3
0
LINE
5
194
100
AcDbEntity
8
0
62
256
6
ByLayer
370
-2
48
1
60
0
100
AcDbLine
10
285
20
14.2875
30
0
11
285
21
-41.625
31
0
39
0
210
0
220
0
230
1
0
LINE
5
195
100
AcDbEntity
8
0
62
256
6
ByLayer
370
-2
48
1
60
0
100
AcDbLine
10
0
20
-17.4625
30
0
11
0
21
-41.625
31
0
39
0
210
0
220
0
230
1
0
LINE
5
196
100
AcDbEntity
8
0
62
256
6
ByLayer
370
-2
48
1
60
0
100
AcDbLine
10
281.5
20
-39.625
30
0
11
3.5
21
-39.625
31
0
39
0
210
0
220
0
230
1
0
SOLID
5
197
100
AcDbEntity
8
0
62
256
6
ByLayer
370
-1
48
1
60
0
100
AcDbTrace
10
281.5
20
-40.208333
30
0
11
281.5
21
-39.041667
31
0
12
285
22
-39.625
32
0
13
285
23
-39.625
33
0
39
0
210
0
220
0
230
1
0
SOLID
5
198
100
AcDbEntity
8
0
62
256
6
ByLayer
370
-1
48
1
60
0
100
AcDbTrace
10
3.5
20
-39.041667
30
0
11
3.5
21
-40.208333
31
0
12
0
22
-39.625
32
0
13
0
23
-39.625
33
0
39
0
210
0
220
0
230
1
0
MTEXT
5
199
100
AcDbEntity
8
0
62
256
6
ByLayer
370
18
48
1
60
0
100
AcDbMText
10
142.5
20
-32.625
30
0
210
0
220
0
230
1
1
\A1;285
40
3.5
41
0
44
1
50
0
71
5
72
5
7
iso_b_vert
0
POINT
5
19A
100
AcDbEntity
8
Defpoints
62
0
6
ByLayer
370
-1
48
1
60
0
100
AcDbPoint
10
285
20
15.875
30
0
39
0
210
0
220
0
230
1
50
360
0
POINT
5
19B
100
AcDbEntity
8
Defpoints
62
0
6
ByLayer
370
-1
48
1
60
0
100
AcDbPoint
10
0
20
-15.875
30
0
39
0
210
0
220
0
230
1
50
360
0
POINT
5
19C
100
AcDbEntity
8
Defpoints
62
0
6
ByLayer
370
-1
48
1
60
0
100
AcDbPoint
10
0
20
-39.625
30
0
39
0
210
0
220
0
230
1
50
360
0
ENDBLK
5
193
100
AcDbEntity
8
0
100
AcDbBlockEnd
0
BLOCK
5
1A5
100
AcDbEntity
8
0
100
AcDbBlockBegin
2
_U1
70
0
10
0
20
0
30
0
3
_U1
0
MTEXT
5
19E
100
AcDbEntity
8
SK2
62
256
6
ByLayer
370
18
48
1
60
0
100
AcDbMText
10
133.379068
20
-38.592366
30
0
210
0
220
0
230
1
1
\W0.8176;OHX
40
3.5
41
0
44
1.084337
50
0
71
7
72
5
7
iso_b_vert
0
MTEXT
5
19F
100
AcDbEntity
8
SK2
62
256
6
ByLayer
370
18
48
1
60
0
100
AcDbMText
10
145.195534
20
-38.592366
30
0
210
0
220
0
230
1
1
\W0.7138;285
40
3.5
41
0
44
1.084337
50
0
71
7
72
5
7
iso_b_vert
0
LINE
5
1A0
100
AcDbEntity
8
SK2
62
256
6
ByLayer
370
13
48
1
60
0
100
AcDbLine
10
285
20
14.2875
30
0
11
285
21
-41.625
31
0
39
0
210
0
220
0
230
1
0
LINE
5
1A1
100
AcDbEntity
8
SK2
62
256
6
ByLayer
370
13
48
1
60
0
100
AcDbLine
10
0
20
-17.4625
30
0
11
0
21
-41.625
31
0
39
0
210
0
220
0
230
1
0
LINE
5
1A2
100
AcDbEntity
8
SK2
62
256
6
ByLayer
370
13
48
1
60
0
100
AcDbLine
10
285
20
-39.625
30
0
11
0
21
-39.625
31
0
39
0
210
0
220
0
230
1
0
SOLID
5
1A3
100
AcDbEntity
8
SK2
62
256
6
ByLayer
370
18
48
1
60
0
100
AcDbTrace
10
285
20
-39.625
30
0
11
281.500002
21
-40.085784
31
0
12
281.499998
22
-39.164216
32
0
13
281.499998
23
-39.164216
33
0
39
0
210
0
220
0
230
1
0
SOLID
5
1A4
100
AcDbEntity
8
SK2
62
256
6
ByLayer
370
18
48
1
60
0
100
AcDbTrace
10
0
20
-39.625
30
0
11
3.499998
21
-39.164216
31
0
12
3.500002
22
-40.085784
32
0
13
3.500002
23
-40.085784
33
0
39
0
210
0
220
0
230
1
0
ENDBLK
5
1A6
100
AcDbEntity
8
0
100
AcDbBlockEnd
0
BLOCK
5
1AB
100
AcDbEntity
8
0
100
AcDbBlockBegin
2
*D5
70
1
10
0
20
0
30
0
3
*D5
0
LINE
5
1AD
100
AcDbEntity
8
0
62
256
6
ByLayer
370
-2
48
1
60
0
100
AcDbLine
10
-127
20
7.993061
30
0
11
-127
21
28.125
31
0
39
0
210
0
220
0
230
1
0
LINE
5
1AE
100
AcDbEntity
8
0
62
256
6
ByLayer
370
-2
48
1
60
0
100
AcDbLine
10
285
20
7.993061
30
0
11
285
21
28.125
31
0
39
0
210
0
220
0
230
1
0
LINE
5
1AF
100
AcDbEntity
8
0
62
256
6
ByLayer
370
-2
48
1
60
0
100
AcDbLine
10
-123.5
20
26.125
30
0
11
281.5
21
26.125
31
0
39
0
210
0
220
0
230
1
0
SOLID
5
1B0
100
AcDbEntity
8
0
62
256
6
ByLayer
370
-1
48
1
60
0
100
AcDbTrace
10
-123.5
20
26.708333
30
0
11
-123.5
21
25.541667
31
0
12
-127
22
26.125
32
0
13
-127
23
26.125
33
0
39
0
210
0
220
0
230
1
0
SOLID
5
1B1
100
AcDbEntity
8
0
62
256
6
ByLayer
370
-1
48
1
60
0
100
AcDbTrace
10
281.5
20
25.541667
30
0
11
281.5
21
26.708333
31
0
12
285
22
26.125
32
0
13
285
23
26.125
33
0
39
0
210
0
220
0
230
1
0
MTEXT
5
1B2
100
AcDbEntity
8
0
62
256
6
ByLayer
370
18
48
1
60
0
100
AcDbMText
10
79
20
33.125
30
0
210
0
220
0
230
1
1
\A1;412
40
3.5
41
0
44
1
50
0
71
5
72
5
7
iso_b_vert
0
POINT
5
1B3
100
AcDbEntity
8
Defpoints
62
0
6
ByLayer
370
-1
48
1
60
0
100
AcDbPoint
10
-127
20
6.405561
30
0
39
0
210
0
220
0
230
1
50
360
0
POINT
5
1B4
100
AcDbEntity
8
Defpoints
62
0
6
ByLayer
370
-1
48
1
60
0
100
AcDbPoint
10
285
20
6.405561
30
0
39
0
210
0
220
0
230
1
50
360
0
POINT
5
1B5
100
AcDbEntity
8
Defpoints
62
0
6
ByLayer
370
-1
48
1
60
0
100
AcDbPoint
10
285
20
26.125
30
0
39
0
210
0
220
0
230
1
50
360
0
ENDBLK
5
1AC
100
AcDbEntity
8
0
100
AcDbBlockEnd
0
BLOCK
5
1BD
100
AcDbEntity
8
0
100
AcDbBlockBegin
2
_U2
70
0
10
0
20
0
30
0
3
_U2
0
MTEXT
5
1B7
100
AcDbEntity
8
SK2
62
256
6
ByLayer
370
18
48
1
60
0
100
AcDbMText
10
76.040467
20
27.157634
30
0
210
0
220
0
230
1
1
\W0.6620;412
40
3.5
41
0
44
1.084337
50
0
71
7
72
5
7
iso_b_vert
0
LINE
5
1B8
100
AcDbEntity
8
SK2
62
256
6
ByLayer
370
13
48
1
60
0
100
AcDbLine
10
-127
20
7.993061
30
0
11
-127
21
28.125
31
0
39
0
210
0
220
0
230
1
0
LINE
5
1B9
100
AcDbEntity
8
SK2
62
256
6
ByLayer
370
13
48
1
60
0
100
AcDbLine
10
285
20
7.993061
30
0
11
285
21
28.125
31
0
39
0
210
0
220
0
230
1
0
LINE
5
1BA
100
AcDbEntity
8
SK2
62
256
6
ByLayer
370
13
48
1
60
0
100
AcDbLine
10
-127
20
26.125
30
0
11
285
21
26.125
31
0
39
0
210
0
220
0
230
1
0
SOLID
5
1BB
100
AcDbEntity
8
SK2
62
256
6
ByLayer
370
18
48
1
60
0
100
AcDbTrace
10
-127
20
26.125
30
0
11
-123.500002
21
26.585784
31
0
12
-123.499998
22
25.664216
32
0
13
-123.499998
23
25.664216
33
0
39
0
210
0
220
0
230
1
0
SOLID
5
1BC
100
AcDbEntity
8
SK2
62
256
6
ByLayer
370
18
48
1
60
0
100
AcDbTrace
10
285
20
26.125
30
0
11
281.500002
21
25.664216
31
0
12
281.499998
22
26.585784
32
0
13
281.499998
23
26.585784
33
0
39
0
210
0
220
0
230
1
0
ENDBLK
5
1BE
100
AcDbEntity
8
0
100
AcDbBlockEnd
0
ENDSEC
0
SECTION
2
ENTITIES
0
ARC
5
116
100
AcDbEntity
8
1
62
256
6
ByLayer
370
18
48
1
60
0
100
AcDbCircle
39
0
10
283.4
20
-15.475
30
0
40
0.4
210
0
220
0
230
1
100
AcDbArc
50
180
51
270
0
ARC
5
117
100
AcDbEntity
8
1
62
256
6
ByLayer
370
18
48
1
60
0
100
AcDbCircle
39
0
10
283.4
20
15.475
30
0
40
0.4
210
0
220
0
230
1
100
AcDbArc
50
90
51
180
0
ARC
5
118
100
AcDbEntity
8
1
62
256
6
ByLayer
370
18
48
1
60
0
100
AcDbCircle
39
0
10
289.8
20
-10.478175
30
0
40
0.2
210
0
220
0
230
1
100
AcDbArc
50
0
51
90
0
ARC
5
119
100
AcDbEntity
8
1
62
256
6
ByLayer
370
18
48
1
60
0
100
AcDbCircle
39
0
10
289.8
20
-5.078175
30
0
40
0.2
210
0
220
0
230
1
100
AcDbArc
50
270
51
0
0
ARC
5
11A
100
AcDbEntity
8
1
62
256
6
ByLayer
370
18
48
1
60
0
100
AcDbCircle
39
0
10
289.8
20
5.078175
30
0
40
0.2
210
0
220
0
230
1
100
AcDbArc
50
0
51
90
0
ARC
5
11B
100
AcDbEntity
8
1
62
256
6
ByLayer
370
18
48
1
60
0
100
AcDbCircle
39
0
10
289.8
20
10.478175
30
0
40
0.2
210
0
220
0
230
1
100
AcDbArc
50
270
51
0
0
POINT
5
70
100
AcDbEntity
8
2
62
256
6
ByLayer
370
18
48
1
60
0
100
AcDbPoint
10
255
20
9
30
0
39
0
210
0
220
0
230
1
50
360
0
POINT
5
72
100
AcDbEntity
8
2
62
256
6
ByLayer
370
18
48
1
60
0
100
AcDbPoint
10
266.25
20
0
30
0
39
0
210
0
220
0
230
1
50
360
0
POINT
5
73
100
AcDbEntity
8
2
62
256
6
ByLayer
370
18
48
1
60
0
100
AcDbPoint
10
290
20
7.778175
30
0
39
0
210
0
220
0
230
1
50
360
0
POINT
5
74
100
AcDbEntity
8
2
62
256
6
ByLayer
370
18
48
1
60
0
100
AcDbPoint
10
286
20
7.778175
30
0
39
0
210
0
220
0
230
1
50
360
0
POINT
5
75
100
AcDbEntity
8
2
62
256
6
ByLayer
370
18
48
1
60
0
100
AcDbPoint
10
184
20
9
30
0
39
0
210
0
220
0
230
1
50
360
0
POINT
5
76
100
AcDbEntity
8
2
62
256
6
ByLayer
370
18
48
1
60
0
100
AcDbPoint
10
282.37476
20
0
30
0
39
0
210
0
220
0
230
1
50
360
0
POINT
5
77
100
AcDbEntity
8
2
62
256
6
ByLayer
370
18
48
1
60
0
100
AcDbPoint
10
273
20
0
30
0
39
0
210
0
220
0
230
1
50
360
0
POINT
5
78
100
AcDbEntity
8
2
62
256
6
ByLayer
370
18
48
1
60
0
100
AcDbPoint
10
218.5
20
0
30
0
39
0
210
0
220
0
230
1
50
360
0
POINT
5
79
100
AcDbEntity
8
2
62
256
6
ByLayer
370
18
48
1
60
0
100
AcDbPoint
10
164
20
0
30
0
39
0
210
0
220
0
230
1
50
360
0
POINT
5
7A
100
AcDbEntity
8
2
62
256
6
ByLayer
370
18
48
1
60
0
100
AcDbPoint
10
286
20
7.778175
30
0
39
0
210
0
220
0
230
1
50
360
0
POINT
5
7B
100
AcDbEntity
8
2
62
256
6
ByLayer
370
18
48
1
60
0
100
AcDbPoint
10
172.75
20
0
30
0
39
0
210
0
220
0
230
1
50
360
0
POINT
5
7C
100
AcDbEntity
8
2
62
256
6
ByLayer
370
18
48
1
60
0
100
AcDbPoint
10
273
20
0
30
0
39
0
210
0
220
0
230
1
50
360
0
POINT
5
7D
100
AcDbEntity
8
2
62
256
6
ByLayer
370
18
48
1
60
0
100
AcDbPoint
10
290
20
7.778175
30
0
39
0
210
0
220
0
230
1
50
360
0
POINT
5
7E
100
AcDbEntity
8
2
62
256
6
ByLayer
370
18
48
1
60
0
100
AcDbPoint
10
269.5
20
0
30
0
39
0
210
0
220
0
230
1
50
360
0
POINT
5
7F
100
AcDbEntity
8
2
62
256
6
ByLayer
370
18
48
1
60
0
100
AcDbPoint
10
283
20
0
30
0
39
0
210
0
220
0
230
1
50
360
0
POINT
5
80
100
AcDbEntity
8
2
62
256
6
ByLayer
370
18
48
1
60
0
100
AcDbPoint
10
269.5
20
0
30
0
39
0
210
0
220
0
230
1
50
360
0
POINT
5
81
100
AcDbEntity
8
2
62
256
6
ByLayer
370
18
48
1
60
0
100
AcDbPoint
10
283
20
0
30
0
39
0
210
0
220
0
230
1
50
360
0
POINT
5
82
100
AcDbEntity
8
2
62
256
6
ByLayer
370
18
48
1
60
0
100
AcDbPoint
10
273
20
0
30
0
39
0
210
0
220
0
230
1
50
360
0
POINT
5
83
100
AcDbEntity
8
2
62
256
6
ByLayer
370
50
48
1
60
0
100
AcDbPoint
10
270
20
0
30
0
39
0
210
0
220
0
230
1
50
360
0
POINT
5
84
100
AcDbEntity
8
2
62
256
6
ByLayer
370
18
48
1
60
0
100
AcDbPoint
10
261
20
0
30
0
39
0
210
0
220
0
230
1
50
360
0
POINT
5
85
100
AcDbEntity
8
2
62
256
6
ByLayer
370
18
48
1
60
0
100
AcDbPoint
10
282.37476
20
0
30
0
39
0
210
0
220
0
230
1
50
360
0
POINT
5
86
100
AcDbEntity
8
2
62
256
6
ByLayer
370
50
48
1
60
0
100
AcDbPoint
10
292
20
0
30
0
39
0
210
0
220
0
230
1
50
360
0
POINT
5
87
100
AcDbEntity
8
2
62
256
6
ByLayer
370
18
48
1
60
0
100
AcDbPoint
10
286
20
-7.778175
30
0
39
0
210
0
220
0
230
1
50
360
0
POINT
5
88
100
AcDbEntity
8
2
62
256
6
ByLayer
370
18
48
1
60
0
100
AcDbPoint
10
165.05
20
0
30
0
39
0
210
0
220
0
230
1
50
360
0
POINT
5
89
100
AcDbEntity
8
2
62
256
6
ByLayer
370
18
48
1
60
0
100
AcDbPoint
10
169
20
0
30
0
39
0
210
0
220
0
230
1
50
360
0
POINT
5
8A
100
AcDbEntity
8
2
62
256
6
ByLayer
370
18
48
1
60
0
100
AcDbPoint
10
160.6
20
0
30
0
39
0
210
0
220
0
230
1
50
360
0
POINT
5
8B
100
AcDbEntity
8
2
62
256
6
ByLayer
370
18
48
1
60
0
100
AcDbPoint
10
160.6
20
0
30
0
39
0
210
0
220
0
230
1
50
360
0
POINT
5
8C
100
AcDbEntity
8
2
62
256
6
ByLayer
370
18
48
1
60
0
100
AcDbPoint
10
164.8
20
0
30
0
39
0
210
0
220
0
230
1
50
360
0
POINT
5
8D
100
AcDbEntity
8
2
62
256
6
ByLayer
370
18
48
1
60
0
100
AcDbPoint
10
169.5
20
0
30
0
39
0
210
0
220
0
230
1
50
360
0
POINT
5
8E
100
AcDbEntity
8
2
62
256
6
ByLayer
370
18
48
1
60
0
100
AcDbPoint
10
219.5
20
0
30
0
39
0
210
0
220
0
230
1
50
360
0
POINT
5
8F
100
AcDbEntity
8
2
62
256
6
ByLayer
370
18
48
1
60
0
100
AcDbPoint
10
169.5
20
0
30
0
39
0
210
0
220
0
230
1
50
360
0
POINT
5
90
100
AcDbEntity
8
2
62
256
6
ByLayer
370
18
48
1
60
0
100
AcDbPoint
10
266.25
20
0
30
0
39
0
210
0
220
0
230
1
50
360
0
POINT
5
91
100
AcDbEntity
8
2
62
256
6
ByLayer
370
18
48
1
60
0
100
AcDbPoint
10
172.75
20
0
30
0
39
0
210
0
220
0
230
1
50
360
0
POINT
5
92
100
AcDbEntity
8
2
62
256
6
ByLayer
370
18
48
1
60
0
100
AcDbPoint
10
255
20
9
30
0
39
0
210
0
220
0
230
1
50
360
0
POINT
5
93
100
AcDbEntity
8
2
62
256
6
ByLayer
370
18
48
1
60
0
100
AcDbPoint
10
184
20
9
30
0
39
0
210
0
220
0
230
1
50
360
0
POINT
5
94
100
AcDbEntity
8
2
62
256
6
ByLayer
370
18
48
1
60
0
100
AcDbPoint
10
169.5
20
0
30
0
39
0
210
0
220
0
230
1
50
360
0
POINT
5
95
100
AcDbEntity
8
2
62
256
6
ByLayer
370
18
48
1
60
0
100
AcDbPoint
10
269.5
20
0
30
0
39
0
210
0
220
0
230
1
50
360
0
POINT
5
96
100
AcDbEntity
8
2
62
256
6
ByLayer
370
18
48
1
60
0
100
AcDbPoint
10
269.5
20
0
30
0
39
0
210
0
220
0
230
1
50
360
0
POINT
5
97
100
AcDbEntity
8
81
62
256
6
ByLayer
370
18
48
1
60
0
100
AcDbPoint
10
285
20
0
30
0
39
0
210
0
220
0
230
1
50
360
0
POINT
5
99
100
AcDbEntity
8
80
62
256
6
ByLayer
370
18
48
1
60
0
100
AcDbPoint
10
0
20
0
30
0
39
0
210
0
220
0
230
1
50
360
0
POINT
5
9B
100
AcDbEntity
8
1
62
256
6
ByLayer
370
18
48
1
60
1
100
AcDbPoint
10
285
20
15.875
30
0
39
0
210
0
220
0
230
1
50
360
0
POINT
5
9D
100
AcDbEntity
8
1
62
256
6
ByLayer
370
18
48
1
60
1
100
AcDbPoint
10
95.25
20
-15.875
30
0
39
0
210
0
220
0
230
1
50
360
0
POINT
5
9E
100
AcDbEntity
8
1
62
256
6
ByLayer
370
18
48
1
60
1
100
AcDbPoint
10
285
20
15.875
30
0
39
0
210
0
220
0
230
1
50
360
0
POINT
5
9F
100
AcDbEntity
8
1
62
256
6
ByLayer
370
18
48
1
60
1
100
AcDbPoint
10
0
20
-15.875
30
0
39
0
210
0
220
0
230
1
50
360
0
POINT
5
A0
100
AcDbEntity
8
1
62
256
6
ByLayer
370
18
48
1
60
1
100
AcDbPoint
10
-127
20
6.405561
30
0
39
0
210
0
220
0
230
1
50
360
0
POINT
5
A1
100
AcDbEntity
8
1
62
256
6
ByLayer
370
18
48
1
60
1
100
AcDbPoint
10
285
20
6.405561
30
0
39
0
210
0
220
0
230
1
50
360
0
SPLINE
5
11C
100
AcDbEntity
8
1
62
256
6
ByLayer
370
18
48
1
60
0
100
AcDbSpline
70
4
71
3
72
36
73
32
40
0
40
0
40
0
40
0
40
0.122035612499638
40
0.122035612499638
40
0.195199311457989
40
0.195199311457989
40
0.231781160937169
40
0.231781160937169
40
0.26836301041635
40
0.26836301041635
40
0.341526709374718
40
0.341526709374718
40
0.378108558853902
40
0.378108558853902
40
0.414690408333086
40
0.414690408333086
40
0.487854107291454
40
0.487854107291454
40
0.524435956770638
40
0.524435956770638
40
0.561017806249822
40
0.561017806249822
40
0.634181505208191
40
0.634181505208191
40
0.707345204166559
40
0.707345204166559
40
0.780508903124921
40
0.780508903124921
40
0.853672602083283
40
0.853672602083283
40
1
40
1
40
1
40
1
41
1
10
284.607669637935
20
-15.5914611994871
30
0
41
1
10
284.598262347175
20
-15.6009550511311
30
0
41
1
10
284.589540126289
20
-15.6097658957024
30
0
41
1
10
284.576976644013
20
-15.6224654597939
30
0
41
1
10
284.572676386704
20
-15.6268143799584
30
0
41
1
10
284.566946242107
20
-15.6326111896646
30
0
41
1
10
284.565154909061
20
-15.6344237048782
30
0
41
1
10
284.561829597008
20
-15.6377888178357
30
0
41
1
10
284.560292382381
20
-15.6393446922303
30
0
41
1
10
284.556174960262
20
-15.6435125705874
30
0
41
1
10
284.554057495271
20
-15.6456566565697
30
0
41
1
10
284.551906147985
20
-15.6478352113852
30
0
41
1
10
284.55135900524
20
-15.6483893194815
30
0
41
1
10
284.550642850165
20
-15.6491146039348
30
0
41
1
10
284.55047117912
20
-15.6492884721358
30
0
41
1
10
284.550501767327
20
-15.6492574930081
30
0
41
1
10
284.551246731204
20
-15.6485029593775
30
0
41
1
10
284.55345134394
20
-15.6462704782762
30
0
41
1
10
284.554368893717
20
-15.6453413791039
30
0
41
1
10
284.556511279087
20
-15.6431722755055
30
0
41
1
10
284.557740145399
20
-15.6419281894759
30
0
41
1
10
284.5618697437
20
-15.6377480363991
30
0
41
1
10
284.565225921132
20
-15.6343514694664
30
0
41
1
10
284.572961123947
20
-15.6265263891384
30
0
41
1
10
284.577262308037
20
-15.6221766324258
30
0
41
1
10
284.586594869352
20
-15.6127431271576
30
0
41
1
10
284.591627397181
20
-15.6076582111829
30
0
41
1
10
284.602350709483
20
-15.5968290428842
30
0
41
1
10
284.607961866034
20
-15.5911652276625
30
0
41
1
10
284.625301331398
20
-15.5736728727094
30
0
41
1
10
284.637588136647
20
-15.5612904057654
30
0
41
1
10
284.650480947162
20
-15.5483138743517
30
0
0
SPLINE
5
11D
100
AcDbEntity
8
1
62
256
6
ByLayer
370
18
48
1
60
0
100
AcDbSpline
70
4
71
3
72
8
73
4
40
0
40
0
40
0
40
0
40
1
40
1
40
1
40
1
41
1
10
284.650480947162
20
-15.5483138743517
30
0
41
1
10
284.876001090753
20
-15.3213292906331
30
0
41
1
10
285.100790144465
20
-15.0933837089886
30
0
41
1
10
285.324759526419
20
-14.8643606909278
30
0
0
SPLINE
5
11E
100
AcDbEntity
8
1
62
256
6
ByLayer
370
18
48
1
60
0
100
AcDbSpline
70
4
71
3
72
8
73
4
40
0
40
0
40
0
40
0
40
1
40
1
40
1
40
1
41
1
10
285.324759526419
20
-14.8454275367872
30
0
41
1
10
285.100551573487
20
-15.0619074716055
30
0
41
1
10
284.875771559452
20
-15.2775926728203
30
0
41
1
10
284.650480947162
20
-15.4925685274466
30
0
0
SPLINE
5
11F
100
AcDbEntity
8
1
62
256
6
ByLayer
370
18
48
1
60
0
100
AcDbSpline
70
4
71
3
72
40
73
36
40
0
40
0
40
0
40
0
40
0.0624999999999999
40
0.0624999999999999
40
0.125
40
0.125
40
0.1875
40
0.1875
40
0.249999999999999
40
0.249999999999999
40
0.312499999999999
40
0.312499999999999
40
0.34375
40
0.34375
40
0.375000000000001
40
0.375000000000001
40
0.437499999999999
40
0.437499999999999
40
0.499999999999997
40
0.499999999999997
40
0.531249999999996
40
0.531249999999996
40
0.562499999999995
40
0.562499999999995
40
0.624999999999995
40
0.624999999999995
40
0.687499999999996
40
0.687499999999996
40
0.749999999999997
40
0.749999999999997
40
0.812499999999998
40
0.812499999999998
40
0.874999999999999
40
0.874999999999999
40
1
40
1
40
1
40
1
41
1
10
284.650480947162
20
-15.4925685274466
30
0
41
1
10
284.643824748839
20
-15.4989199768412
30
0
41
1
10
284.637291879632
20
-15.5051091491982
30
0
41
1
10
284.6245013281
20
-15.5171232539091
30
0
41
1
10
284.618273362368
20
-15.5229198088939
30
0
41
1
10
284.606351289461
20
-15.5338928813389
30
0
41
1
10
284.600633008237
20
-15.5390922955413
30
0
41
1
10
284.589752945295
20
-15.5488298849577
30
0
41
1
10
284.584551960913
20
-15.5534015241965
30
0
41
1
10
284.575054864585
20
-15.5615418877164
30
0
41
1
10
284.570757441295
20
-15.5651138727128
30
0
41
1
10
284.565082111262
20
-15.5696179538631
30
0
41
1
10
284.563311796155
20
-15.5709817653276
30
0
41
1
10
284.560104320401
20
-15.5733588917917
30
0
41
1
10
284.558664038415
20
-15.5743751954401
30
0
41
1
10
284.554843422915
20
-15.5768963845956
30
0
41
1
10
284.552955347308
20
-15.5778779409135
30
0
41
1
10
284.550651513262
20
-15.5783020652501
30
0
41
1
10
284.550266574665
20
-15.5777438943185
30
0
41
1
10
284.550753623192
20
-15.5758368426869
30
0
41
1
10
284.551094269711
20
-15.5750219785402
30
0
41
1
10
284.552127339579
20
-15.5730387018159
30
0
41
1
10
284.552825322446
20
-15.571861961384
30
0
41
1
10
284.555403417858
20
-15.5678679190393
30
0
41
1
10
284.557747957548
20
-15.5646092502012
30
0
41
1
10
284.563511127861
20
-15.5570699710171
30
0
41
1
10
284.566962008369
20
-15.5527510093381
30
0
41
1
10
284.574692665941
20
-15.5433663058318
30
0
41
1
10
284.578949081509
20
-15.5383263655533
30
0
41
1
10
284.588127319266
20
-15.5276568264762
30
0
41
1
10
284.593050049563
20
-15.5220264170087
30
0
41
1
10
284.603498064586
20
-15.5102335012356
30
0
41
1
10
284.608970800441
20
-15.5041307406246
30
0
41
1
10
284.625881745024
20
-15.4854609883051
30
0
41
1
10
284.637874454147
20
-15.4724603927704
30
0
41
1
10
284.650480947162
20
-15.4589924992894
30
0
0
SPLINE
5
120
100
AcDbEntity
8
1
62
256
6
ByLayer
370
18
48
1
60
0
100
AcDbSpline
70
4
71
3
72
8
73
4
40
0
40
0
40
0
40
0
40
1
40
1
40
1
40
1
41
1
10
284.650480947162
20
-15.4589924992894
30
0
41
1
10
284.876300003536
20
-15.2177432483211
30
0
41
1
10
285.101101228039
20
-14.9752364721521
30
0
41
1
10
285.324759526419
20
-14.7313176175792
30
0
0
SPLINE
5
121
100
AcDbEntity
8
1
62
256
6
ByLayer
370
18
48
1
60
0
100
AcDbSpline
70
4
71
3
72
8
73
4
40
0
40
0
40
0
40
0
40
1
40
1
40
1
40
1
41
1
10
285.324759526419
20
-14.6739299013591
30
0
41
1
10
285.100366304594
20
-14.8798776311317
30
0
41
1
10
284.875593141359
20
-15.0852710609528
30
0
41
1
10
284.650480947162
20
-15.2901698754428
30
0
0
SPLINE
5
122
100
AcDbEntity
8
1
62
256
6
ByLayer
370
18
48
1
60
0
100
AcDbSpline
70
4
71
3
72
39
73
35
40
0
40
0
40
0
40
0
40
0.0624999999999946
40
0.0624999999999946
40
0.124999999999989
40
0.124999999999989
40
0.187499999999984
40
0.218749999999981
40
0.218749999999981
40
0.249999999999977
40
0.249999999999977
40
0.312499999999974
40
0.312499999999974
40
0.343749999999975
40
0.343749999999975
40
0.374999999999976
40
0.374999999999976
40
0.437499999999977
40
0.437499999999977
40
0.499999999999979
40
0.499999999999979
40
0.562499999999981
40
0.562499999999981
40
0.624999999999982
40
0.624999999999982
40
0.687499999999984
40
0.687499999999984
40
0.749999999999985
40
0.749999999999985
40
0.812499999999987
40
0.812499999999987
40
0.874999999999989
40
0.874999999999989
40
1
40
1
40
1
40
1
41
1
10
284.650480947162
20
-15.2901698754428
30
0
41
1
10
284.643642222987
20
-15.2963945336899
30
0
41
1
10
284.636926011079
20
-15.3024077221731
30
0
41
1
10
284.623770014776
20
-15.3139544442405
30
0
41
1
10
284.61729774108
20
-15.3195144442679
30
0
41
1
10
284.604954484736
20
-15.3298353138165
30
0
41
1
10
284.596110982906
20
-15.3370114528637
30
0
41
1
10
284.587979167719
20
-15.3432127436749
30
0
41
1
10
284.582733001996
20
-15.3471066005149
30
0
41
1
10
284.580192369491
20
-15.3489364645466
30
0
41
1
10
284.572997343766
20
-15.3539328766841
30
0
41
1
10
284.568719357875
20
-15.3566462135086
30
0
41
1
10
284.563173902124
20
-15.3596750721427
30
0
41
1
10
284.561464995097
20
-15.3605120591206
30
0
41
1
10
284.558426910618
20
-15.3617835025287
30
0
41
1
10
284.557089028631
20
-15.3622236713608
30
0
41
1
10
284.553616999518
20
-15.3629588315101
30
0
41
1
10
284.552016870813
20
-15.3626654019735
30
0
41
1
10
284.550338111577
20
-15.3604793198477
30
0
41
1
10
284.550271550947
20
-15.3586254719448
30
0
41
1
10
284.551519972535
20
-15.35355609409
30
0
41
1
10
284.552860972089
20
-15.3502983241218
30
0
41
1
10
284.55669902949
20
-15.3427767239641
30
0
41
1
10
284.559188983748
20
-15.3385072848497
30
0
41
1
10
284.565150520241
20
-15.3290943287892
30
0
41
1
10
284.568651079833
20
-15.3239124582658
30
0
41
1
10
284.576345969628
20
-15.3130329323254
30
0
41
1
10
284.580548692689
20
-15.3073183941816
30
0
41
1
10
284.589565510147
20
-15.2954177629431
30
0
41
1
10
284.594380315029
20
-15.2892311191763
30
0
41
1
10
284.604566819971
20
-15.2764297744095
30
0
41
1
10
284.609909549282
20
-15.2698525047705
30
0
41
1
10
284.626420003145
20
-15.2498769456111
30
0
41
1
10
284.638139154426
20
-15.2361434089768
30
0
41
1
10
284.650480947162
20
-15.2220509081666
30
0
0
SPLINE
5
123
100
AcDbEntity
8
1
62
256
6
ByLayer
370
18
48
1
60
0
100
AcDbSpline
70
4
71
3
72
8
73
4
40
0
40
0
40
0
40
0
40
1
40
1
40
1
40
1
41
1
10
284.650480947162
20
-15.2220509081666
30
0
41
1
10
284.876696937425
20
-14.9637457255696
30
0
41
1
10
285.101514956523
20
-14.703829124614
30
0
41
1
10
285.324759526419
20
-14.442098834657
30
0
0
SPLINE
5
124
100
AcDbEntity
8
1
62
256
6
ByLayer
370
18
48
1
60
0
100
AcDbSpline
70
4
71
3
72
8
73
4
40
0
40
0
40
0
40
0
40
1
40
1
40
1
40
1
41
1
10
285.324759526419
20
-14.3443967719106
30
0
41
1
10
285.100222163115
20
-14.5416548922592
30
0
41
1
10
284.875454263316
20
-14.7385621746018
30
0
41
1
10
284.650480947162
20
-14.9351568475918
30
0
0
SPLINE
5
125
100
AcDbEntity
8
1
62
256
6
ByLayer
370
18
48
1
60
0
100
AcDbSpline
70
4
71
3
72
35
73
31
40
0
40
0
40
0
40
0
40
0.124999999999996
40
0.124999999999996
40
0.187499999999995
40
0.187499999999995
40
0.249999999999995
40
0.249999999999995
40
0.312499999999995
40
0.312499999999995
40
0.374999999999994
40
0.374999999999994
40
0.406249999999994
40
0.406249999999994
40
0.437499999999993
40
0.468749999999993
40
0.468749999999993
40
0.499999999999992
40
0.499999999999992
40
0.562499999999992
40
0.562499999999992
40
0.624999999999992
40
0.624999999999992
40
0.749999999999995
40
0.749999999999995
40
0.812499999999996
40
0.812499999999996
40
0.874999999999998
40
0.874999999999998
40
1
40
1
40
1
40
1
41
1
10
284.650480947162
20
-14.9351568475918
30
0
41
1
10
284.636302522651
20
-14.9475467735521
30
0
41
1
10
284.622413848473
20
-14.9590056238523
30
0
41
1
10
284.603289167572
20
-14.973403668357
30
0
41
1
10
284.597171267094
20
-14.9777621864661
30
0
41
1
10
284.585559792541
20
-14.98540287615
30
0
41
1
10
284.58020654445
20
-14.9885897521673
30
0
41
1
10
284.570603429299
20
-14.9934909538864
30
0
41
1
10
284.566307507221
20
-14.9952141008572
30
0
41
1
10
284.559277344022
20
-14.9969015590035
30
0
41
1
10
284.556492569701
20
-14.996901731482
30
0
41
1
10
284.55343875487
20
-14.9956006006816
30
0
41
1
10
284.552615162101
20
-14.9949472598496
30
0
41
1
10
284.551375037606
20
-14.9932504325495
30
0
41
1
10
284.550527887742
20
-14.9911589296443
30
0
41
1
10
284.550421504324
20
-14.9883226520463
30
0
41
1
10
284.550670521422
20
-14.9851287300321
30
0
41
1
10
284.550975659375
20
-14.9833464383486
30
0
41
1
10
284.552372263222
20
-14.9776035836529
30
0
41
1
10
284.55393963159
20
-14.9732218164509
30
0
41
1
10
284.558142314441
20
-14.9635290100564
30
0
41
1
10
284.56080305185
20
-14.9581749917614
30
0
41
1
10
284.57002703344
20
-14.9412164909585
30
0
41
1
10
284.577769184892
20
-14.9287641335976
30
0
41
1
10
284.591195476705
20
-14.9087849043224
30
0
41
1
10
284.595957372821
20
-14.9019389248506
30
0
41
1
10
284.605849826494
20
-14.8881125803112
30
0
41
1
10
284.611000753017
20
-14.881102065323
30
0
41
1
10
284.627006930813
20
-14.8598090253414
30
0
41
1
10
284.638409727852
20
-14.8452677593389
30
0
41
1
10
284.650480947162
20
-14.8304153215122
30
0
0
SPLINE
5
126
100
AcDbEntity
8
1
62
256
6
ByLayer
370
18
48
1
60
0
100
AcDbSpline
70
4
71
3
72
8
73
4
40
0
40
0
40
0
40
0
40
1
40
1
40
1
40
1
41
1
10
284.650480947162
20
-14.8304153215122
30
0
41
1
10
284.877238226736
20
-14.5514129846225
30
0
41
1
10
285.102080121807
20
-14.2703688976799
30
0
41
1
10
285.324759526419
20
-13.9870196521632
30
0
0
SPLINE
5
127
100
AcDbEntity
8
1
62
256
6
ByLayer
370
18
48
1
60
0
100
AcDbSpline
70
4
71
3
72
8
73
4
40
0
40
0
40
0
40
0
40
1
40
1
40
1
40
1
41
1
10
285.324759526419
20
-13.8455486980473
30
0
41
1
10
285.1001123279
20
-14.0359624353467
30
0
41
1
10
284.875348460448
20
-14.226192384475
30
0
41
1
10
284.650480947162
20
-14.4162590606731
30
0
0
SPLINE
5
128
100
AcDbEntity
8
1
62
256
6
ByLayer
370
18
48
1
60
0
100
AcDbSpline
70
4
71
3
72
40
73
36
40
0
40
0
40
0
40
0
40
0.0624999999999977
40
0.0624999999999977
40
0.124999999999995
40
0.124999999999995
40
0.156249999999993
40
0.156249999999993
40
0.18749999999999
40
0.18749999999999
40
0.249999999999985
40
0.249999999999985
40
0.31249999999998
40
0.31249999999998
40
0.343749999999977
40
0.343749999999977
40
0.374999999999975
40
0.374999999999975
40
0.437499999999972
40
0.437499999999972
40
0.468749999999972
40
0.468749999999972
40
0.499999999999972
40
0.499999999999972
40
0.562499999999977
40
0.562499999999977
40
0.624999999999983
40
0.624999999999983
40
0.687499999999988
40
0.687499999999988
40
0.749999999999993
40
0.749999999999993
40
0.874999999999997
40
0.874999999999997
40
1
40
1
40
1
40
1
41
1
10
284.650480947162
20
-14.4162590606731
30
0
41
1
10
284.643104298224
20
-14.4224940882438
30
0
41
1
10
284.635771436613
20
-14.4284369046773
30
0
41
1
10
284.621492330795
20
-14.4394012265336
30
0
41
1
10
284.614576527394
20
-14.444403047254
30
0
41
1
10
284.604594898881
20
-14.4510603216591
30
0
41
1
10
284.601333364441
20
-14.4531377759158
30
0
41
1
10
284.594956728133
20
-14.4569760332192
30
0
41
1
10
284.591840088414
20
-14.458735896618
30
0
41
1
10
284.582937917134
20
-14.4633795464227
30
0
41
1
10
284.577525983142
20
-14.4656773359147
30
0
41
1
10
284.567890629157
20
-14.4684511202571
30
0
41
1
10
284.563817265228
20
-14.4688734156259
30
0
41
1
10
284.558910189923
20
-14.4680723967417
30
0
41
1
10
284.557468808296
20
-14.4675673142486
30
0
41
1
10
284.554977709934
20
-14.4660764161237
30
0
41
1
10
284.553935209076
20
-14.4650893222044
30
0
41
1
10
284.551452437147
20
-14.4615169935417
30
0
41
1
10
284.550615942315
20
-14.4583072425302
30
0
41
1
10
284.550435936409
20
-14.4524022853727
30
0
41
1
10
284.550558537541
20
-14.4502480564528
30
0
41
1
10
284.551130166037
20
-14.4456884970672
30
0
41
1
10
284.55157831313
20
-14.4432731425602
30
0
41
1
10
284.553360150572
20
-14.4356613938727
30
0
41
1
10
284.55512841551
20
-14.4301016398263
30
0
41
1
10
284.559657200512
20
-14.4181513245879
30
0
41
1
10
284.562405807886
20
-14.4118018664636
30
0
41
1
10
284.568619725461
20
-14.3986847612271
30
0
41
1
10
284.572098299655
20
-14.3918838654861
30
0
41
1
10
284.579700162977
20
-14.3778619207942
30
0
41
1
10
284.583843550409
20
-14.3706082784261
30
0
41
1
10
284.597012239094
20
-14.3485142294189
30
0
41
1
10
284.606693212945
20
-14.3334515630536
30
0
41
1
10
284.627510176637
20
-14.3027949611119
30
0
41
1
10
284.638651489249
20
-14.2871990333909
30
0
41
1
10
284.650480947162
20
-14.2713560451092
30
0
0
SPLINE
5
129
100
AcDbEntity
8
1
62
256
6
ByLayer
370
18
48
1
60
0
100
AcDbSpline
70
4
71
3
72
8
73
4
40
0
40
0
40
0
40
0
40
1
40
1
40
1
40
1
41
1
10
284.650480947162
20
-14.2713560451092
30
0
41
1
10
284.878002972007
20
-13.9666397343587
30
0
41
1
10
285.102880102657
20
-13.6593450378129
30
0
41
1
10
285.324759526419
20
-13.3491280145933
30
0
0
SPLINE
5
12A
100
AcDbEntity
8
1
62
256
6
ByLayer
370
18
48
1
60
0
100
AcDbSpline
70
4
71
3
72
8
73
4
40
0
40
0
40
0
40
0
40
1
40
1
40
1
40
1
41
1
10
285.324759526419
20
-13.158142678585
30
0
41
1
10
285.100035623554
20
-13.3437818147054
30
0
41
1
10
284.87527465126
20
-13.5293611300288
30
0
41
1
10
284.650480947162
20
-13.7148875513695
30
0
0
SPLINE
5
12B
100
AcDbEntity
8
1
62
256
6
ByLayer
370
18
48
1
60
0
100
AcDbSpline
70
4
71
3
72
39
73
35
40
0
40
0
40
0
40
0
40
0.0624999999999944
40
0.0624999999999944
40
0.124999999999989
40
0.124999999999989
40
0.156249999999988
40
0.156249999999988
40
0.187499999999987
40
0.218749999999986
40
0.218749999999986
40
0.249999999999985
40
0.249999999999985
40
0.312499999999983
40
0.312499999999983
40
0.343749999999985
40
0.343749999999985
40
0.374999999999986
40
0.374999999999986
40
0.437499999999989
40
0.437499999999989
40
0.499999999999992
40
0.499999999999992
40
0.562499999999995
40
0.562499999999995
40
0.624999999999998
40
0.624999999999998
40
0.687500000000001
40
0.687500000000001
40
0.750000000000004
40
0.750000000000004
40
0.875000000000002
40
0.875000000000002
40
1
40
1
40
1
40
1
41
1
10
284.650480947162
20
-13.7148875513695
30
0
41
1
10
284.642745835049
20
-13.7212714831379
30
0
41
1
10
284.635015749358
20
-13.7272791437369
30
0
41
1
10
284.620008571985
20
-13.7380412264738
30
0
41
1
10
284.612723928358
20
-13.7428095789739
30
0
41
1
10
284.602197480775
20
-13.7488358304763
30
0
41
1
10
284.598734835513
20
-13.7506649186383
30
0
41
1
10
284.592088755372
20
-13.7538311127497
30
0
41
1
10
284.58572172019
20
-13.7565107028205
30
0
41
1
10
284.57994020434
20
-13.7581670101176
30
0
41
1
10
284.574472486959
20
-13.7592735917707
30
0
41
1
10
284.57190884154
20
-13.7595445691099
30
0
41
1
10
284.564933360512
20
-13.7594968055848
30
0
41
1
10
284.561145580565
20
-13.7583437099649
30
0
41
1
10
284.556707968269
20
-13.7549899669043
30
0
41
1
10
284.555447072422
20
-13.7536008675125
30
0
41
1
10
284.553384786397
20
-13.7503906291738
30
0
41
1
10
284.552572397843
20
-13.7485620289771
30
0
41
1
10
284.550731111279
20
-13.7424662900202
30
0
41
1
10
284.550303053198
20
-13.7375355313065
30
0
41
1
10
284.5507927282
20
-13.7266363435784
30
0
41
1
10
284.551691359675
20
-13.7206608289399
30
0
41
1
10
284.554542154002
20
-13.7078597042821
30
0
41
1
10
284.556512441976
20
-13.7009894119646
30
0
41
1
10
284.561279415671
20
-13.6867643421296
30
0
41
1
10
284.564070865405
20
-13.6794093389152
30
0
41
1
10
284.570336222583
20
-13.6642931780035
30
0
41
1
10
284.573811144721
20
-13.6565314274483
30
0
41
1
10
284.581367080292
20
-13.6406472497523
30
0
41
1
10
284.585443365082
20
-13.6325393982522
30
0
41
1
10
284.598279694508
20
-13.6081335473157
30
0
41
1
10
284.607703887187
20
-13.5916165968366
30
0
41
1
10
284.628008049073
20
-13.5581739427267
30
0
41
1
10
284.638891659154
20
-13.5412471886963
30
0
41
1
10
284.650480947162
20
-13.5241261501069
30
0
0
SPLINE
5
12C
100
AcDbEntity
8
1
62
256
6
ByLayer
370
18
48
1
60
0
100
AcDbSpline
70
4
71
3
72
8
73
4
40
0
40
0
40
0
40
0
40
1
40
1
40
1
40
1
41
1
10
284.650480947162
20
-13.5241261501069
30
0
41
1
10
284.879136900982
20
-13.1863290907548
30
0
41
1
10
285.104068659537
20
-12.8452612190796
30
0
41
1
10
285.324759526419
20
-12.5004687412113
30
0
0
SPLINE
5
12D
100
AcDbEntity
8
1
62
256
6
ByLayer
370
18
48
1
60
0
100
AcDbSpline
70
4
71
3
72
8
73
4
40
0
40
0
40
0
40
0
40
1
40
1
40
1
40
1
41
1
10
285.324759526419
20
-12.2504783069887
30
0
41
1
10
285.100000365157
20
-12.4340141890893
30
0
41
1
10
284.875240823032
20
-12.6175494493145
30
0
41
1
10
284.650480947162
20
-12.8010841645925
30
0
0
SPLINE
5
12E
100
AcDbEntity
8
1
62
256
6
ByLayer
370
18
48
1
60
0
100
AcDbSpline
70
4
71
3
72
38
73
34
40
0
40
0
40
0
40
0
40
0.0624999999999981
40
0.0624999999999981
40
0.0937499999999991
40
0.0937499999999991
40
0.125
40
0.125
40
0.187500000000001
40
0.187500000000001
40
0.250000000000002
40
0.250000000000002
40
0.281250000000004
40
0.281250000000004
40
0.312500000000005
40
0.312500000000005
40
0.375000000000003
40
0.375000000000003
40
0.437500000000002
40
0.437500000000002
40
0.5
40
0.5
40
0.562499999999998
40
0.562499999999998
40
0.624999999999996
40
0.624999999999996
40
0.687499999999994
40
0.687499999999994
40
0.749999999999992
40
0.749999999999992
40
0.874999999999996
40
0.874999999999996
40
1
40
1
40
1
40
1
41
1
10
284.650480947162
20
-12.8010841645925
30
0
41
1
10
284.642254769821
20
-12.8078015073135
30
0
41
1
10
284.634022997574
20
-12.8139815682507
30
0
41
1
10
284.622024347187
20
-12.8219782036226
30
0
41
1
10
284.618070470135
20
-12.8244413098381
30
0
41
1
10
284.610266392061
20
-12.8289067197177
30
0
41
1
10
284.606390093812
20
-12.8309205403407
30
0
41
1
10
284.595154151806
20
-12.8360578572942
30
0
41
1
10
284.588222224254
20
-12.8382831663987
30
0
41
1
10
284.575650300151
20
-12.8399456777732
30
0
41
1
10
284.570338689547
20
-12.8393341054442
30
0
41
1
10
284.563750621826
20
-12.8363997812444
30
0
41
1
10
284.561773127065
20
-12.83506848144
30
0
41
1
10
284.558361695512
20
-12.8318301704457
30
0
41
1
10
284.556915943627
20
-12.8299254043442
30
0
41
1
10
284.553269572862
20
-12.8234501833424
30
0
41
1
10
284.551756836978
20
-12.8180471620938
30
0
41
1
10
284.550302561437
20
-12.8060838941008
30
0
41
1
10
284.550326073786
20
-12.7995040688386
30
0
41
1
10
284.551516546283
20
-12.7854288155449
30
0
41
1
10
284.552687641569
20
-12.7779301448286
30
0
41
1
10
284.555988452499
20
-12.7621622869432
30
0
41
1
10
284.558105272065
20
-12.7539682079276
30
0
41
1
10
284.563056189954
20
-12.7372401547631
30
0
41
1
10
284.565897619284
20
-12.7286767016533
30
0
41
1
10
284.572208303093
20
-12.7112068682812
30
0
41
1
10
284.57569309354
20
-12.702265936415
30
0
41
1
10
284.583134827379
20
-12.6842964905588
30
0
41
1
10
284.587092915393
20
-12.675259551548
30
0
41
1
10
284.599594481642
20
-12.6480108693722
30
0
41
1
10
284.608758738078
20
-12.629662606667
30
0
41
1
10
284.628534527462
20
-12.5926517999846
30
0
41
1
10
284.63914834483
20
-12.5739887413695
30
0
41
1
10
284.650480947162
20
-12.5551731522004
30
0
0
SPLINE
5
12F
100
AcDbEntity
8
1
62
256
6
ByLayer
370
18
48
1
60
0
100
AcDbSpline
70
4
71
3
72
8
73
4
40
0
40
0
40
0
40
0
40
1
40
1
40
1
40
1
41
1
10
284.650480947162
20
-12.5551731522004
30
0
41
1
10
284.880939074424
20
-12.1725421098039
30
0
41
1
10
285.105961619054
20
-11.7857024167779
30
0
41
1
10
285.324759526419
20
-11.3940431256863
30
0
0
SPLINE
5
130
100
AcDbEntity
8
1
62
256
6
ByLayer
370
18
48
1
60
0
100
AcDbSpline
70
4
71
3
72
8
73
4
40
0
40
0
40
0
40
0
40
1
40
1
40
1
40
1
41
1
10
285.324759526419
20
-11.0685011970908
30
0
41
1
10
285.100039688933
20
-11.2540182637708
30
0
41
1
10
284.875278263296
20
-11.4394681755103
30
0
41
1
10
284.650480947162
20
-11.6248600435124
30
0
0
SPLINE
5
131
100
AcDbEntity
8
1
62
256
6
ByLayer
370
18
48
1
60
0
100
AcDbSpline
70
4
71
3
72
42
73
38
40
0
40
0
40
0
40
0
40
0.0312499999999984
40
0.0312499999999984
40
0.062499999999997
40
0.062499999999997
40
0.0937499999999957
40
0.0937499999999957
40
0.124999999999994
40
0.124999999999994
40
0.156249999999993
40
0.156249999999993
40
0.187499999999991
40
0.187499999999991
40
0.249999999999987
40
0.249999999999987
40
0.281249999999983
40
0.281249999999983
40
0.31249999999998
40
0.31249999999998
40
0.343749999999976
40
0.343749999999976
40
0.374999999999972
40
0.374999999999972
40
0.437499999999977
40
0.437499999999977
40
0.499999999999982
40
0.499999999999982
40
0.562499999999987
40
0.562499999999987
40
0.624999999999992
40
0.624999999999992
40
0.749999999999994
40
0.749999999999994
40
0.874999999999997
40
0.874999999999997
40
1
40
1
40
1
40
1
41
1
10
284.650480947162
20
-11.624860043513
30
0
41
1
10
284.646074525325
20
-11.6284940494234
30
0
41
1
10
284.641662883611
20
-11.631934174226
30
0
41
1
10
284.632827437589
20
-11.6383611964529
30
0
41
1
10
284.628382844566
20
-11.6413611163496
30
0
41
1
10
284.619576505526
20
-11.6467519238975
30
0
41
1
10
284.615247527492
20
-11.6491249580937
30
0
41
1
10
284.606757241438
20
-11.6531408298828
30
0
41
1
10
284.602560805781
20
-11.6547934024325
30
0
41
1
10
284.59454784653
20
-11.6571917746056
30
0
41
1
10
284.590749009416
20
-11.6579394011148
30
0
41
1
10
284.583577122024
20
-11.6585063530397
30
0
41
1
10
284.580179994003
20
-11.6583199869811
30
0
41
1
10
284.570825194146
20
-11.6563291978917
30
0
41
1
10
284.565882402116
20
-11.6531908342844
30
0
41
1
10
284.560036276896
20
-11.646275372304
30
0
41
1
10
284.558365656545
20
-11.6436044344858
30
0
41
1
10
284.555575607336
20
-11.6377632018632
30
0
41
1
10
284.554441472909
20
-11.6345760071051
30
0
41
1
10
284.552618964849
20
-11.6277447036371
30
0
41
1
10
284.551929474331
20
-11.6240796831515
30
0
41
1
10
284.550957652969
20
-11.6164871691738
30
0
41
1
10
284.550670744266
20
-11.6125533173552
30
0
41
1
10
284.550305764422
20
-11.6004077885316
30
0
41
1
10
284.550718130718
20
-11.5918557442675
30
0
41
1
10
284.552533243758
20
-11.5740598150067
30
0
41
1
10
284.553939616291
20
-11.5648134674852
30
0
41
1
10
284.557573055502
20
-11.5457443652965
30
0
41
1
10
284.55979903589
20
-11.5359463486961
30
0
41
1
10
284.564872774992
20
-11.5161601355325
30
0
41
1
10
284.567728522475
20
-11.5061327736604
30
0
41
1
10
284.577119364504
20
-11.4757024077316
30
0
41
1
10
284.58450834062
20
-11.4548641550948
30
0
41
1
10
284.600828867775
20
-11.4131111173111
30
0
41
1
10
284.609776289356
20
-11.3921368068804
30
0
41
1
10
284.629073334288
20
-11.3500166955417
30
0
41
1
10
284.639424506048
20
-11.3288706936778
30
0
41
1
10
284.650480947162
20
-11.3076415595588
30
0
0
SPLINE
5
132
100
AcDbEntity
8
1
62
256
6
ByLayer
370
18
48
1
60
0
100
AcDbSpline
70
4
71
3
72
8
73
4
40
0
40
0
40
0
40
0
40
1
40
1
40
1
40
1
41
1
10
284.650480947162
20
-11.3076415595588
30
0
41
1
10
284.884131235778
20
-10.8590167929561
30
0
41
1
10
285.109321752657
20
-10.4048138402296
30
0
41
1
10
285.324759526419
20
-9.94418014468761
30
0
0
SPLINE
5
133
100
AcDbEntity
8
1
62
256
6
ByLayer
370
18
48
1
60
0
100
AcDbSpline
70
4
71
3
72
8
73
4
40
0
40
0
40
0
40
0
40
1
40
1
40
1
40
1
41
1
10
285.324759526419
20
-9.5104794174637
30
0
41
1
10
285.100279781297
20
-9.70571635217703
30
0
41
1
10
284.875504696391
20
-9.90049895287632
30
0
41
1
10
284.650480947162
20
-10.0948990224529
30
0
0
SPLINE
5
134
100
AcDbEntity
8
1
62
256
6
ByLayer
370
18
48
1
60
0
100
AcDbSpline
70
4
71
3
72
37
73
33
40
0
40
0
40
0
40
0
40
0.031250000000004
40
0.031250000000004
40
0.0625000000000081
40
0.0625000000000081
40
0.0937500000000121
40
0.0937500000000121
40
0.125000000000016
40
0.125000000000016
40
0.15625000000002
40
0.15625000000002
40
0.187500000000024
40
0.187500000000024
40
0.250000000000032
40
0.250000000000032
40
0.281250000000036
40
0.281250000000036
40
0.312500000000039
40
0.312500000000039
40
0.375000000000042
40
0.375000000000042
40
0.500000000000046
40
0.500000000000046
40
0.562500000000043
40
0.562500000000043
40
0.62500000000004
40
0.62500000000004
40
0.750000000000026
40
0.750000000000026
40
0.875000000000013
40
1
40
1
40
1
40
1
41
1
10
284.650480947162
20
-10.0948990224547
30
0
41
1
10
284.645592111779
20
-10.0991225319367
30
0
41
1
10
284.640660577913
20
-10.1030623930002
30
0
41
1
10
284.630690682245
20
-10.1102306362295
30
0
41
1
10
284.625627973702
20
-10.1134670436221
30
0
41
1
10
284.615691566211
20
-10.118839150203
30
0
41
1
10
284.610760100173
20
-10.1210111657376
30
0
41
1
10
284.601154248889
20
-10.1240418591821
30
0
41
1
10
284.596593248772
20
-10.1248683270988
30
0
41
1
10
284.587974986474
20
-10.1250828591086
30
0
41
1
10
284.58389430403
20
-10.1244434263637
30
0
41
1
10
284.576627132379
20
-10.121813152444
30
0
41
1
10
284.573383835546
20
-10.1198353804361
30
0
41
1
10
284.564691544231
20
-10.1121342006278
30
0
41
1
10
284.560618209477
20
-10.1050490001549
30
0
41
1
10
284.556112122243
20
-10.0926044771813
30
0
41
1
10
284.554886151804
20
-10.0881241572992
30
0
41
1
10
284.552934358117
20
-10.0788095392279
30
0
41
1
10
284.552200374837
20
-10.0739570985648
30
0
41
1
10
284.550589890179
20
-10.0589205058891
30
0
41
1
10
284.550304395867
20
-10.0482263281388
30
0
41
1
10
284.551125123266
20
-10.0154409692474
30
0
41
1
10
284.55383060518
20
-9.9924349342061
30
0
41
1
10
284.559862692662
20
-9.95685329893934
30
0
41
1
10
284.56222598142
20
-9.94477464581749
30
0
41
1
10
284.56747320521
20
-9.92060811861509
30
0
41
1
10
284.570362131967
20
-9.90848566373225
30
0
41
1
10
284.579708544012
20
-9.87201642183317
30
0
41
1
10
284.586838167051
20
-9.84756871830285
30
0
41
1
10
284.602573828023
20
-9.79844867641856
30
0
41
1
10
284.61979396939
20
-9.74910292710359
30
0
41
1
10
284.639774571958
20
-9.69934083729007
30
0
41
1
10
284.650480947162
20
-9.67435488273978
30
0
0
SPLINE
5
135
100
AcDbEntity
8
1
62
256
6
ByLayer
370
18
48
1
60
0
100
AcDbSpline
70
4
71
3
72
8
73
4
40
0
40
0
40
0
40
0
40
1
40
1
40
1
40
1
41
1
10
284.650480947162
20
-9.67435488273978
30
0
41
1
10
284.89100570236
20
-9.11303132669258
30
0
41
1
10
285.116573030394
20
-8.54383861601573
30
0
41
1
10
285.324759526419
20
-7.96550178896467
30
0
0
SPLINE
5
136
100
AcDbEntity
8
1
62
256
6
ByLayer
370
18
48
1
60
0
100
AcDbSpline
70
4
71
3
72
8
73
4
40
0
40
0
40
0
40
0
40
1
40
1
40
1
40
1
41
1
10
285.324759526419
20
-7.34075736896412
30
0
41
1
10
285.101412076415
20
-7.56607559671662
30
0
41
1
10
284.87655017156
20
-7.78936248367799
30
0
41
1
10
284.650480947162
20
-8.01102999094334
30
0
0
SPLINE
5
137
100
AcDbEntity
8
1
62
256
6
ByLayer
370
18
48
1
60
0
100
AcDbSpline
70
4
71
3
72
42
73
38
40
0
40
0
40
0
40
0
40
0.0312500000000014
40
0.0312500000000014
40
0.0468750000000019
40
0.0468750000000019
40
0.0625000000000023
40
0.0625000000000023
40
0.0781250000000029
40
0.0781250000000029
40
0.0937500000000033
40
0.0937500000000033
40
0.109375000000004
40
0.109375000000004
40
0.125000000000004
40
0.125000000000004
40
0.140625000000005
40
0.140625000000005
40
0.156250000000005
40
0.156250000000005
40
0.187500000000006
40
0.187500000000006
40
0.218750000000007
40
0.218750000000007
40
0.250000000000008
40
0.250000000000008
40
0.312500000000004
40
0.312500000000004
40
0.375000000000001
40
0.375000000000001
40
0.5
40
0.5
40
0.624999999999999
40
0.624999999999999
40
0.749999999999998
40
0.749999999999998
40
1
40
1
40
1
40
1
41
1
10
284.650480947163
20
-8.01102999094601
30
0
41
1
10
284.644781716456
20
-8.01661825386643
30
0
41
1
10
284.638950708155
20
-8.02172461987652
30
0
41
1
10
284.629919022019
20
-8.02833767373343
30
0
41
1
10
284.626841491124
20
-8.03037464307823
30
0
41
1
10
284.620715472091
20
-8.03392055379641
30
0
41
1
10
284.617657084884
20
-8.03543949319618
30
0
41
1
10
284.611551030171
20
-8.03788736482522
30
0
41
1
10
284.608486304252
20
-8.03881448205263
30
0
41
1
10
284.602584921446
20
-8.03994486474863
30
0
41
1
10
284.599724310765
20
-8.04016120146593
30
0
41
1
10
284.594187907673
20
-8.03987680689261
30
0
41
1
10
284.591494149306
20
-8.03936414868491
30
0
41
1
10
284.586484957149
20
-8.03767806360494
30
0
41
1
10
284.584145531581
20
-8.03650911510471
30
0
41
1
10
284.579758673547
20
-8.03359388069248
30
0
41
1
10
284.577700891947
20
-8.03183267856144
30
0
41
1
10
284.573944692356
20
-8.02790344926663
30
0
41
1
10
284.57223258259
20
-8.02573081032995
30
0
41
1
10
284.567502850684
20
-8.01870211500628
30
0
41
1
10
284.564876270856
20
-8.01331032348071
30
0
41
1
10
284.560456470546
20
-8.00168693944815
30
0
41
1
10
284.558672863714
20
-7.99549508807578
30
0
41
1
10
284.5557164184
20
-7.982563244299
30
0
41
1
10
284.554548922826
20
-7.97582152433708
30
0
41
1
10
284.551786829262
20
-7.95524949836846
30
0
41
1
10
284.550891615199
20
-7.94097253328206
30
0
41
1
10
284.550293581162
20
-7.91169822100335
30
0
41
1
10
284.550604950969
20
-7.8966694555775
30
0
41
1
10
284.552865631633
20
-7.85092390234789
30
0
41
1
10
284.556089838546
20
-7.81981861952968
30
0
41
1
10
284.564680533171
20
-7.75681818220417
30
0
41
1
10
284.570086268835
20
-7.7248896467496
30
0
41
1
10
284.582433399474
20
-7.66110115743692
30
0
41
1
10
284.589394816775
20
-7.62913897734114
30
0
41
1
10
284.612266509014
20
-7.5330730466471
30
0
41
1
10
284.63010909448
20
-7.46879260291459
30
0
41
1
10
284.650480947162
20
-7.40429113115641
30
0
0
SPLINE
5
138
100
AcDbEntity
8
1
62
256
6
ByLayer
370
18
48
1
60
0
100
AcDbSpline
70
4
71
3
72
8
73
4
40
0
40
0
40
0
40
0
40
1
40
1
40
1
40
1
41
1
10
284.650480947162
20
-7.40429113115644
30
0
41
1
10
284.915082845896
20
-6.56650714728141
30
0
41
1
10
285.142017638328
20
-5.71547151733836
30
0
41
1
10
285.324759526419
20
-4.84888840354162
30
0
0
SPLINE
5
139
100
AcDbEntity
8
1
62
256
6
ByLayer
370
18
48
1
60
0
100
AcDbSpline
70
4
71
3
72
10
73
6
40
0
40
0
40
0
40
0
40
0.5
40
0.5
40
1
40
1
40
1
40
1
41
1
10
285.324759526419
20
-3.58109183769437
30
0
41
1
10
285.220440994029
20
-3.77159005612825
30
0
41
1
10
285.111537497524
20
-3.95835316013242
30
0
41
1
10
284.88627716124
20
-4.32580754525901
30
0
41
1
10
284.769915870059
20
-4.50649520007357
30
0
41
1
10
284.650480947162
20
-4.68467893863223
30
0
0
SPLINE
5
13A
100
AcDbEntity
8
1
62
256
6
ByLayer
370
18
48
1
60
0
100
AcDbSpline
70
4
71
3
72
44
73
40
40
0
40
0
40
0
40
0
40
0.0156249999999983
40
0.0156249999999983
40
0.0312499999999968
40
0.0312499999999968
40
0.0390624999999959
40
0.0390624999999959
40
0.046874999999995
40
0.046874999999995
40
0.0546874999999941
40
0.0546874999999941
40
0.0624999999999932
40
0.0624999999999932
40
0.0781249999999946
40
0.0781249999999946
40
0.093749999999996
40
0.093749999999996
40
0.109374999999997
40
0.109374999999997
40
0.124999999999999
40
0.124999999999999
40
0.156249999999998
40
0.156249999999998
40
0.187499999999998
40
0.187499999999998
40
0.249999999999999
40
0.249999999999999
40
0.312499999999999
40
0.312499999999999
40
0.375
40
0.375
40
0.5
40
0.5
40
0.625
40
0.625
40
0.75
40
0.75
40
1
40
1
40
1
40
1
41
1
10
284.650480947162
20
-4.68467893863223
30
0
41
1
10
284.646382308247
20
-4.690793656062
30
0
41
1
10
284.642076170955
20
-4.69661542819364
30
0
41
1
10
284.632882683622
20
-4.7071807049505
30
0
41
1
10
284.627900674051
20
-4.71201898762888
30
0
41
1
10
284.620048912293
20
-4.71741640094749
30
0
41
1
10
284.617340610945
20
-4.71891976680868
30
0
41
1
10
284.611854926178
20
-4.72104879785158
30
0
41
1
10
284.60913940452
20
-4.72165437044862
30
0
41
1
10
284.603768957253
20
-4.72184634117122
30
0
41
1
10
284.601142454754
20
-4.72141144427758
30
0
41
1
10
284.596290750135
20
-4.71963999450108
30
0
41
1
10
284.594005756044
20
-4.71829846477581
30
0
41
1
10
284.587614028732
20
-4.71320262273369
30
0
41
1
10
284.584088184483
20
-4.70852765773122
30
0
41
1
10
284.578044974997
20
-4.69809576728105
30
0
41
1
10
284.575537145488
20
-4.69235973954895
30
0
41
1
10
284.571121055967
20
-4.68027716521951
30
0
41
1
10
284.569218552535
20
-4.67390407974838
30
0
41
1
10
284.565882396739
20
-4.66094919091682
30
0
41
1
10
284.564439835625
20
-4.65433691340937
30
0
41
1
10
284.560587708737
20
-4.63421342212629
30
0
41
1
10
284.558644869222
20
-4.62042072731751
30
0
41
1
10
284.555503852675
20
-4.59237763055791
30
0
41
1
10
284.554315102322
20
-4.57810472606624
30
0
41
1
10
284.551554608281
20
-4.53511975739309
30
0
41
1
10
284.550755128507
20
-4.50612543350752
30
0
41
1
10
284.550323317851
20
-4.44773514112896
30
0
41
1
10
284.550711133478
20
-4.41833314139907
30
0
41
1
10
284.55229668469
20
-4.35923434016127
30
0
41
1
10
284.553501154096
20
-4.32951282609864
30
0
41
1
10
284.558005573374
20
-4.24027924354405
30
0
41
1
10
284.562179765929
20
-4.18062544913062
30
0
41
1
10
284.571973544978
20
-4.06106944287879
30
0
41
1
10
284.577608497186
20
-4.00116585087707
30
0
41
1
10
284.589920758855
20
-3.88114673379846
30
0
41
1
10
284.596602716568
20
-3.82103078941097
30
0
41
1
10
284.617863609614
20
-3.64039653272874
30
0
41
1
10
284.633608511553
20
-3.5197719493442
30
0
41
1
10
284.650480947162
20
-3.39910457512727
30
0
0
SPLINE
5
13B
100
AcDbEntity
8
1
62
256
6
ByLayer
370
18
48
1
60
0
100
AcDbSpline
70
4
71
3
72
11
73
7
40
0
40
0
40
0
40
0
40
0.25
40
0.5
40
0.75
40
1
40
1
40
1
40
1
41
1
10
284.650480947162
20
-3.39910457512727
30
0
41
1
10
284.729694810125
20
-2.83258714593939
30
0
41
1
10
284.849001006398
20
-1.69955228756362
30
0
41
1
10
284.908852166088
20
0
30
0
41
1
10
284.849001642386
20
1.69955228756362
30
0
41
1
10
284.729694810125
20
2.83258714593939
30
0
41
1
10
284.650480947162
20
3.39910457512727
30
0
0
SPLINE
5
13C
100
AcDbEntity
8
1
62
256
6
ByLayer
370
18
48
1
60
0
100
AcDbSpline
70
4
71
3
72
46
73
42
40
0
40
0
40
0
40
0
40
0.249999999999999
40
0.249999999999999
40
0.374999999999998
40
0.374999999999998
40
0.499999999999998
40
0.499999999999998
40
0.562499999999998
40
0.562499999999998
40
0.624999999999998
40
0.624999999999998
40
0.687499999999998
40
0.687499999999998
40
0.749999999999998
40
0.749999999999998
40
0.812499999999998
40
0.812499999999998
40
0.843749999999998
40
0.843749999999998
40
0.874999999999998
40
0.874999999999998
40
0.906249999999998
40
0.906249999999998
40
0.921874999999999
40
0.921874999999999
40
0.9296875
40
0.9296875
40
0.9375
40
0.9375
40
0.9453125
40
0.9453125
40
0.953125
40
0.953125
40
0.960937500000001
40
0.960937500000001
40
0.968750000000001
40
0.968750000000001
40
0.984375
40
0.984375
40
1
40
1
40
1
40
1
41
1
10
284.650480947162
20
3.39910457512727
30
0
41
1
10
284.633622165898
20
3.51967429693423
30
0
41
1
10
284.617912784072
20
3.64002863431333
30
0
41
1
10
284.596695535138
20
3.8202174560704
30
0
41
1
10
284.590021268449
20
3.88022307534425
30
0
41
1
10
284.577710921038
20
4.00011224540694
30
0
41
1
10
284.572070099693
20
4.05999593729356
30
0
41
1
10
284.564707264067
20
4.149720184703
30
0
41
1
10
284.562437822266
20
4.17961133208479
30
0
41
1
10
284.558359669018
20
4.2393570064923
30
0
41
1
10
284.556550170364
20
4.2692209767693
30
0
41
1
10
284.553537661744
20
4.3286827140401
30
0
41
1
10
284.552330951688
20
4.35830525509667
30
0
41
1
10
284.550730512121
20
4.41727422458106
30
0
41
1
10
284.550331585255
20
4.44662209975391
30
0
41
1
10
284.550730465953
20
4.50493497497632
30
0
41
1
10
284.551508339693
20
4.53390552308625
30
0
41
1
10
284.554222440595
20
4.57689335988988
30
0
41
1
10
284.555388696997
20
4.59114361825385
30
0
41
1
10
284.558510585187
20
4.61941198656041
30
0
41
1
10
284.560447665325
20
4.63332245163144
30
0
41
1
10
284.565548394146
20
4.66027786684333
30
0
41
1
10
284.568666367705
20
4.67337005423761
30
0
41
1
10
284.575271636336
20
4.69172062694497
30
0
41
1
10
284.577802320358
20
4.69758799422129
30
0
41
1
10
284.582301030769
20
4.70548145859811
30
0
41
1
10
284.583922683601
20
4.70796932449088
30
0
41
1
10
284.587504373377
20
4.71254883276268
30
0
41
1
10
284.589455150519
20
4.71462064691482
30
0
41
1
10
284.593669971071
20
4.71807370988765
30
0
41
1
10
284.595974085143
20
4.71948281617287
30
0
41
1
10
284.600902184538
20
4.72136083493288
30
0
41
1
10
284.603479220993
20
4.72181977584177
30
0
41
1
10
284.608878627873
20
4.72169703591851
30
0
41
1
10
284.611670416491
20
4.72109782452296
30
0
41
1
10
284.617124799157
20
4.71902450978004
30
0
41
1
10
284.619854748791
20
4.71753559337466
30
0
41
1
10
284.627837470927
20
4.71208981336082
30
0
41
1
10
284.6328413111
20
4.70722804783341
30
0
41
1
10
284.642114445338
20
4.69657164566513
30
0
41
1
10
284.646400999608
20
4.69076577061318
30
0
41
1
10
284.650480947162
20
4.68467893863223
30
0
0
SPLINE
5
13D
100
AcDbEntity
8
1
62
256
6
ByLayer
370
18
48
1
60
0
100
AcDbSpline
70
4
71
3
72
10
73
6
40
0
40
0
40
0
40
0
40
0.5
40
0.5
40
1
40
1
40
1
40
1
41
1
10
284.650480947162
20
4.68467893863223
30
0
41
1
10
284.769915870059
20
4.50649520007357
30
0
41
1
10
284.88627716124
20
4.32580754525904
30
0
41
1
10
285.111537497524
20
3.95835316013245
30
0
41
1
10
285.220440994028
20
3.7715900561283
30
0
41
1
10
285.324759526419
20
3.58109183769443
30
0
0
SPLINE
5
13E
100
AcDbEntity
8
1
62
256
6
ByLayer
370
18
48
1
60
0
100
AcDbSpline
70
4
71
3
72
8
73
4
40
0
40
0
40
0
40
0
40
1
40
1
40
1
40
1
41
1
10
285.324759526419
20
4.84888840354162
30
0
41
1
10
285.142017638328
20
5.71547151733836
30
0
41
1
10
284.915082845896
20
6.56650714728141
30
0
41
1
10
284.650480947162
20
7.40429113115644
30
0
0
SPLINE
5
13F
100
AcDbEntity
8
1
62
256
6
ByLayer
370
18
48
1
60
0
100
AcDbSpline
70
4
71
3
72
40
73
36
40
0
40
0
40
0
40
0
40
0.125
40
0.125
40
0.249999999999999
40
0.249999999999999
40
0.374999999999999
40
0.374999999999999
40
0.499999999999998
40
0.499999999999998
40
0.562499999999996
40
0.562499999999996
40
0.624999999999995
40
0.624999999999995
40
0.687499999999993
40
0.687499999999993
40
0.749999999999991
40
0.749999999999991
40
0.781249999999992
40
0.781249999999992
40
0.812499999999993
40
0.812499999999993
40
0.828124999999996
40
0.828124999999996
40
0.843749999999999
40
0.843749999999999
40
0.874999999999999
40
0.874999999999999
40
0.906249999999999
40
0.906249999999999
40
0.937499999999999
40
0.937499999999999
40
0.96875
40
0.96875
40
1
40
1
40
1
40
1
41
1
10
284.650480947162
20
7.40429113115641
30
0
41
1
10
284.640287680124
20
7.43656510919033
30
0
41
1
10
284.630715305132
20
7.46888230302383
30
0
41
1
10
284.612885331389
20
7.53318730791779
30
0
41
1
10
284.604610560981
20
7.56522774636963
30
0
41
1
10
284.589411082784
20
7.62907255518215
30
0
41
1
10
284.582484081303
20
7.66087724436576
30
0
41
1
10
284.570209138234
20
7.72421748184831
30
0
41
1
10
284.564852952187
20
7.75575414573163
30
0
41
1
10
284.558397240574
20
7.8028025677404
30
0
41
1
10
284.556511136846
20
7.81844224828913
30
0
41
1
10
284.553402897358
20
7.84961726134634
30
0
41
1
10
284.552186151038
20
7.86511112093129
30
0
41
1
10
284.550640926933
20
7.89553429170471
30
0
41
1
10
284.550304092067
20
7.91050672401769
30
0
41
1
10
284.550835545454
20
7.93980132558289
30
0
41
1
10
284.551690014487
20
7.95413062130734
30
0
41
1
10
284.554397020406
20
7.97486799064015
30
0
41
1
10
284.55554851826
20
7.98167640080055
30
0
41
1
10
284.558455819851
20
7.99467933892134
30
0
41
1
10
284.560210849815
20
8.00090143854953
30
0
41
1
10
284.563466735675
20
8.00966042105534
30
0
41
1
10
284.564656805311
20
8.01248358511705
30
0
41
1
10
284.567292965891
20
8.01789479624142
30
0
41
1
10
284.568745126672
20
8.02048925669601
30
0
41
1
10
284.573478920825
20
8.02768405685796
30
0
41
1
10
284.577146278644
20
8.03176069635973
30
0
41
1
10
284.585978602873
20
8.03781622208436
30
0
41
1
10
284.590966992874
20
8.03964411905341
30
0
41
1
10
284.602217160541
20
8.0403522821893
30
0
41
1
10
284.608175318024
20
8.03920797907639
30
0
41
1
10
284.620541001466
20
8.03431476257006
30
0
41
1
10
284.626648167846
20
8.03071058623533
30
0
41
1
10
284.63875673915
20
8.02188786062212
30
0
41
1
10
284.644732850747
20
8.01666616812693
30
0
41
1
10
284.650480947163
20
8.01102999094553
30
0
0
SPLINE
5
140
100
AcDbEntity
8
1
62
256
6
ByLayer
370
18
48
1
60
0
100
AcDbSpline
70
4
71
3
72
8
73
4
40
0
40
0
40
0
40
0
40
1
40
1
40
1
40
1
41
1
10
284.650480947162
20
8.01102999094334
30
0
41
1
10
284.87655017156
20
7.78936248367799
30
0
41
1
10
285.101412076415
20
7.56607559671662
30
0
41
1
10
285.324759526419
20
7.34075736896412
30
0
0
SPLINE
5
141
100
AcDbEntity
8
1
62
256
6
ByLayer
370
18
48
1
60
0
100
AcDbSpline
70
4
71
3
72
8
73
4
40
0
40
0
40
0
40
0
40
1
40
1
40
1
40
1
41
1
10
285.324759526419
20
7.96550178896467
30
0
41
1
10
285.116573030394
20
8.54383861601573
30
0
41
1
10
284.89100570236
20
9.11303132669258
30
0
41
1
10
284.650480947162
20
9.67435488273978
30
0
0
SPLINE
5
142
100
AcDbEntity
8
1
62
256
6
ByLayer
370
18
48
1
60
0
100
AcDbSpline
70
4
71
3
72
43
73
39
40
0
40
0
40
0
40
0
40
0.124999999999986
40
0.249999999999971
40
0.249999999999971
40
0.374999999999957
40
0.374999999999957
40
0.437499999999953
40
0.437499999999953
40
0.49999999999995
40
0.49999999999995
40
0.562499999999946
40
0.562499999999946
40
0.624999999999942
40
0.624999999999942
40
0.687499999999938
40
0.687499999999938
40
0.718749999999942
40
0.718749999999942
40
0.749999999999946
40
0.749999999999946
40
0.781249999999949
40
0.781249999999949
40
0.812499999999953
40
0.812499999999953
40
0.843749999999956
40
0.843749999999956
40
0.87499999999996
40
0.87499999999996
40
0.890624999999965
40
0.890624999999965
40
0.906249999999971
40
0.906249999999971
40
0.93749999999998
40
0.93749999999998
40
0.96874999999999
40
0.96874999999999
40
1
40
1
40
1
40
1
41
1
10
284.650480947162
20
9.67435488273978
30
0
41
1
10
284.639770765879
20
9.69934971970994
30
0
41
1
10
284.619755774253
20
9.74919359517074
30
0
41
1
10
284.602471350142
20
9.79874278345869
30
0
41
1
10
284.586666575595
20
9.84813058992455
30
0
41
1
10
284.57949984055
20
9.87274417010403
30
0
41
1
10
284.570109082444
20
9.90951886542007
30
0
41
1
10
284.56721739983
20
9.92171908408281
30
0
41
1
10
284.562017993996
20
9.94580596216309
30
0
41
1
10
284.559703114204
20
9.95771803681464
30
0
41
1
10
284.555743011404
20
9.98123587526962
30
0
41
1
10
284.554096425307
20
9.99284222851196
30
0
41
1
10
284.551635897452
20
10.0156778047127
30
0
41
1
10
284.550818147553
20
10.0269220487789
30
0
41
1
10
284.550309406911
20
10.0488507881047
30
0
41
1
10
284.550618491147
20
10.059377411896
30
0
41
1
10
284.552244874523
20
10.0742723578136
30
0
41
1
10
284.5529826076
20
10.0790868122439
30
0
41
1
10
284.55494271377
20
10.0883444873467
30
0
41
1
10
284.556175008315
20
10.0928137458767
30
0
41
1
10
284.55920463057
20
10.1011076760425
30
0
41
1
10
284.560998289349
20
10.1049391114601
30
0
41
1
10
284.565273292953
20
10.1118269313132
30
0
41
1
10
284.567777103859
20
10.1149049251632
30
0
41
1
10
284.57356758644
20
10.1199587337035
30
0
41
1
10
284.576816253506
20
10.1219123364597
30
0
41
1
10
284.584131822115
20
10.1244968104372
30
0
41
1
10
284.588200559384
20
10.1251009441959
30
0
41
1
10
284.594657205597
20
10.1249037331412
30
0
41
1
10
284.596879298603
20
10.124658842803
30
0
41
1
10
284.601462648405
20
10.1238127758367
30
0
41
1
10
284.603838666426
20
10.123205629816
30
0
41
1
10
284.611000388548
20
10.12091199863
30
0
41
1
10
284.615853946919
20
10.1187586641338
30
0
41
1
10
284.625691635028
20
10.1134251504932
30
0
41
1
10
284.630712506111
20
10.1102159900095
30
0
41
1
10
284.640678156526
20
10.1030487051365
30
0
41
1
10
284.645602717193
20
10.0991133698228
30
0
41
1
10
284.650480947162
20
10.094899022454
30
0
0
SPLINE
5
143
100
AcDbEntity
8
1
62
256
6
ByLayer
370
18
48
1
60
0
100
AcDbSpline
70
4
71
3
72
8
73
4
40
0
40
0
40
0
40
0
40
1
40
1
40
1
40
1
41
1
10
284.650480947162
20
10.0948990224529
30
0
41
1
10
284.875504696391
20
9.90049895287632
30
0
41
1
10
285.100279781297
20
9.70571635217703
30
0
41
1
10
285.324759526419
20
9.5104794174637
30
0
0
SPLINE
5
144
100
AcDbEntity
8
1
62
256
6
ByLayer
370
18
48
1
60
0
100
AcDbSpline
70
4
71
3
72
8
73
4
40
0
40
0
40
0
40
0
40
1
40
1
40
1
40
1
41
1
10
285.324759526419
20
9.94418014468761
30
0
41
1
10
285.109321752657
20
10.4048138402296
30
0
41
1
10
284.884131235778
20
10.8590167929561
30
0
41
1
10
284.650480947162
20
11.3076415595588
30
0
0
SPLINE
5
145
100
AcDbEntity
8
1
62
256
6
ByLayer
370
18
48
1
60
0
100
AcDbSpline
70
4
71
3
72
41
73
37
40
0
40
0
40
0
40
0
40
0.125000000000004
40
0.125000000000004
40
0.250000000000007
40
0.250000000000007
40
0.375000000000011
40
0.375000000000011
40
0.437500000000013
40
0.437500000000013
40
0.500000000000015
40
0.500000000000015
40
0.562500000000017
40
0.562500000000017
40
0.625000000000019
40
0.625000000000019
40
0.656250000000017
40
0.656250000000017
40
0.687500000000015
40
0.718750000000013
40
0.718750000000013
40
0.750000000000011
40
0.750000000000011
40
0.78125000000001
40
0.78125000000001
40
0.812500000000008
40
0.812500000000008
40
0.843750000000006
40
0.843750000000006
40
0.875000000000004
40
0.875000000000004
40
0.9375
40
0.9375
40
0.96875
40
0.96875
40
1
40
1
40
1
40
1
41
1
10
284.650480947162
20
11.3076415595588
30
0
41
1
10
284.639406704692
20
11.328904873516
30
0
41
1
10
284.6290149766
20
11.3501327275011
30
0
41
1
10
284.609610134007
20
11.3925109567796
30
0
41
1
10
284.600568876303
20
11.4137388482418
30
0
41
1
10
284.584289476404
20
11.4554626029006
30
0
41
1
10
284.5770177446
20
11.4760120197825
30
0
41
1
10
284.567689449101
20
11.5062693710766
30
0
41
1
10
284.564845545933
20
11.516259908499
30
0
41
1
10
284.559782305466
20
11.5360180617713
30
0
41
1
10
284.557554037169
20
11.5458304545282
30
0
41
1
10
284.553918821684
20
11.5649364764583
30
0
41
1
10
284.552510262326
20
11.5742158603311
30
0
41
1
10
284.550699929449
20
11.5921050535508
30
0
41
1
10
284.550293994005
20
11.6007175545133
30
0
41
1
10
284.550694540039
20
11.6129693929375
30
0
41
1
10
284.551000845894
20
11.6169502678048
30
0
41
1
10
284.552002202944
20
11.6245065621501
30
0
41
1
10
284.553391055304
20
11.6316899827223
30
0
41
1
10
284.555675280745
20
11.6380145231859
30
0
41
1
10
284.558494356137
20
11.6438276170276
30
0
41
1
10
284.560183279982
20
11.6464843496015
30
0
41
1
10
284.564099252622
20
11.6510435100923
30
0
41
1
10
284.566332379294
20
11.6529662449846
30
0
41
1
10
284.57142544765
20
11.6560011429239
30
0
41
1
10
284.574297061969
20
11.6571029459639
30
0
41
1
10
284.580489091802
20
11.6583469052068
30
0
41
1
10
284.583832613098
20
11.6585072879607
30
0
41
1
10
284.591021250651
20
11.6578951347416
30
0
41
1
10
284.594914277662
20
11.6571037536882
30
0
41
1
10
284.60688978809
20
11.6534513754816
30
0
41
1
10
284.615306460288
20
11.6493729215825
30
0
41
1
10
284.62844389083
20
11.6413201519204
30
0
41
1
10
284.632882290008
20
11.6383227405028
30
0
41
1
10
284.641691152944
20
11.6319121526
30
0
41
1
10
284.646088912057
20
11.6284821845883
30
0
41
1
10
284.650480947162
20
11.6248600435129
30
0
0
SPLINE
5
146
100
AcDbEntity
8
1
62
256
6
ByLayer
370
18
48
1
60
0
100
AcDbSpline
70
4
71
3
72
8
73
4
40
0
40
0
40
0
40
0
40
1
40
1
40
1
40
1
41
1
10
284.650480947162
20
11.6248600435124
30
0
41
1
10
284.875278263296
20
11.4394681755103
30
0
41
1
10
285.100039688933
20
11.2540182637708
30
0
41
1
10
285.324759526419
20
11.0685011970908
30
0
0
SPLINE
5
147
100
AcDbEntity
8
1
62
256
6
ByLayer
370
18
48
1
60
0
100
AcDbSpline
70
4
71
3
72
8
73
4
40
0
40
0
40
0
40
0
40
1
40
1
40
1
40
1
41
1
10
285.324759526419
20
11.3940431256863
30
0
41
1
10
285.105961619054
20
11.7857024167779
30
0
41
1
10
284.880939074424
20
12.1725421098039
30
0
41
1
10
284.650480947162
20
12.5551731522004
30
0
0
SPLINE
5
148
100
AcDbEntity
8
1
62
256
6
ByLayer
370
18
48
1
60
0
100
AcDbSpline
70
4
71
3
72
34
73
30
40
0
40
0
40
0
40
0
40
0.125
40
0.125
40
0.25
40
0.25
40
0.375
40
0.375
40
0.5
40
0.5
40
0.5625
40
0.5625
40
0.625
40
0.625
40
0.6875
40
0.6875
40
0.75
40
0.75
40
0.781249999999999
40
0.781249999999999
40
0.812499999999999
40
0.812499999999999
40
0.874999999999997
40
0.874999999999997
40
0.906249999999997
40
0.906249999999997
40
0.937499999999996
40
0.937499999999996
40
1
40
1
40
1
40
1
41
1
10
284.650480947162
20
12.5551731522004
30
0
41
1
10
284.639123927362
20
12.5740292818417
30
0
41
1
10
284.628439270443
20
12.5928141227513
30
0
41
1
10
284.608464654169
20
12.6302292574873
30
0
41
1
10
284.599162055837
20
12.6488988956099
30
0
41
1
10
284.582514462653
20
12.6852961708136
30
0
41
1
10
284.57511186229
20
12.7031149086293
30
0
41
1
10
284.562623036281
20
12.737797390642
30
0
41
1
10
284.557504463794
20
12.7548030541215
30
0
41
1
10
284.552639849119
20
12.778219191567
30
0
41
1
10
284.551476882694
20
12.7857050152767
30
0
41
1
10
284.550312095403
20
12.7998710314919
30
0
41
1
10
284.550321713102
20
12.8065833924973
30
0
41
1
10
284.551853311447
20
12.8184713102293
30
0
41
1
10
284.553358515098
20
12.8237088874153
30
0
41
1
10
284.558326381476
20
12.8323233291917
30
0
41
1
10
284.561723473872
20
12.8355517307
30
0
41
1
10
284.568372854913
20
12.8384291027132
30
0
41
1
10
284.570864504682
20
12.8390561554929
30
0
41
1
10
284.57622331238
20
12.8395887747932
30
0
41
1
10
284.579107962177
20
12.8395053437481
30
0
41
1
10
284.588366084099
20
12.8382281131691
30
0
41
1
10
284.595456935882
20
12.8359379088828
30
0
41
1
10
284.606574735725
20
12.8308264465233
30
0
41
1
10
284.610378199123
20
12.8288461881553
30
0
41
1
10
284.618162062294
20
12.8243853673468
30
0
41
1
10
284.622164707964
20
12.8218892118457
30
0
41
1
10
284.634224647378
20
12.8138377911191
30
0
41
1
10
284.642328167487
20
12.8077415721505
30
0
41
1
10
284.650480947162
20
12.8010841645928
30
0
0
SPLINE
5
149
100
AcDbEntity
8
1
62
256
6
ByLayer
370
18
48
1
60
0
100
AcDbSpline
70
4
71
3
72
8
73
4
40
0
40
0
40
0
40
0
40
1
40
1
40
1
40
1
41
1
10
284.650480947162
20
12.8010841645925
30
0
41
1
10
284.875240823032
20
12.6175494493145
30
0
41
1
10
285.100000365157
20
12.4340141890893
30
0
41
1
10
285.324759526419
20
12.2504783069887
30
0
0
SPLINE
5
14A
100
AcDbEntity
8
1
62
256
6
ByLayer
370
18
48
1
60
0
100
AcDbSpline
70
4
71
3
72
8
73
4
40
0
40
0
40
0
40
0
40
1
40
1
40
1
40
1
41
1
10
285.324759526419
20
12.5004687412113
30
0
41
1
10
285.104068659537
20
12.8452612190796
30
0
41
1
10
284.879136900982
20
13.1863290907548
30
0
41
1
10
284.650480947162
20
13.5241261501069
30
0
0
SPLINE
5
14B
100
AcDbEntity
8
1
62
256
6
ByLayer
370
18
48
1
60
0
100
AcDbSpline
70
4
71
3
72
35
73
31
40
0
40
0
40
0
40
0
40
0.125000000000009
40
0.125000000000009
40
0.250000000000019
40
0.250000000000019
40
0.375000000000028
40
0.375000000000028
40
0.500000000000038
40
0.500000000000038
40
0.562500000000037
40
0.562500000000037
40
0.625000000000037
40
0.625000000000037
40
0.656250000000037
40
0.656250000000037
40
0.687500000000037
40
0.718750000000037
40
0.718750000000037
40
0.750000000000037
40
0.750000000000037
40
0.812500000000032
40
0.812500000000032
40
0.843750000000029
40
0.843750000000029
40
0.875000000000026
40
0.875000000000026
40
0.937500000000013
40
0.937500000000013
40
1
40
1
40
1
40
1
41
1
10
284.650480947162
20
13.5241261501069
30
0
41
1
10
284.638858639622
20
13.5412959689726
30
0
41
1
10
284.627880037477
20
13.5583672792965
30
0
41
1
10
284.607305455144
20
13.592290810471
30
0
41
1
10
284.597863794909
20
13.6088867789539
30
0
41
1
10
284.580887891057
20
13.6412398522734
30
0
41
1
10
284.573341159957
20
13.6570034428825
30
0
41
1
10
284.560765908866
20
13.6874238776576
30
0
41
1
10
284.555914552173
20
13.7016330388669
30
0
41
1
10
284.551665365058
20
13.7208101940034
30
0
41
1
10
284.550764430261
20
13.7268837973194
30
0
41
1
10
284.550311879852
20
13.7377376102619
30
0
41
1
10
284.550742394554
20
13.7425560750014
30
0
41
1
10
284.552609194675
20
13.7486567241824
30
0
41
1
10
284.553443903026
20
13.7505080598551
30
0
41
1
10
284.555532069809
20
13.7537059459658
30
0
41
1
10
284.558039297395
20
13.7564190608231
30
0
41
1
10
284.56143278467
20
13.7581090180436
30
0
41
1
10
284.565305117674
20
13.7592472971065
30
0
41
1
10
284.567457684514
20
13.7595298981713
30
0
41
1
10
284.574448778942
20
13.7595281650158
30
0
41
1
10
284.579854662374
20
13.7584116886303
30
0
41
1
10
284.58905350254
20
13.7551125154836
30
0
41
1
10
284.592271516137
20
13.7537496155991
30
0
41
1
10
284.598876150913
20
13.750591745413
30
0
41
1
10
284.602279502296
20
13.7487908225087
30
0
41
1
10
284.612766368983
20
13.7427813276213
30
0
41
1
10
284.620192977215
20
13.7379161526127
30
0
41
1
10
284.635186350384
20
13.7271494604607
30
0
41
1
10
284.642789854766
20
13.7212351528474
30
0
41
1
10
284.650480947162
20
13.7148875513697
30
0
0
SPLINE
5
14C
100
AcDbEntity
8
1
62
256
6
ByLayer
370
18
48
1
60
0
100
AcDbSpline
70
4
71
3
72
8
73
4
40
0
40
0
40
0
40
0
40
1
40
1
40
1
40
1
41
1
10
284.650480947162
20
13.7148875513695
30
0
41
1
10
284.87527465126
20
13.5293611300288
30
0
41
1
10
285.100035623554
20
13.3437818147054
30
0
41
1
10
285.324759526419
20
13.158142678585
30
0
0
SPLINE
5
14D
100
AcDbEntity
8
1
62
256
6
ByLayer
370
18
48
1
60
0
100
AcDbSpline
70
4
71
3
72
8
73
4
40
0
40
0
40
0
40
0
40
1
40
1
40
1
40
1
41
1
10
285.324759526419
20
13.3491280145933
30
0
41
1
10
285.102880102657
20
13.6593450378129
30
0
41
1
10
284.878002972007
20
13.9666397343587
30
0
41
1
10
284.650480947162
20
14.2713560451092
30
0
0
SPLINE
5
14E
100
AcDbEntity
8
1
62
256
6
ByLayer
370
18
48
1
60
0
100
AcDbSpline
70
4
71
3
72
41
73
37
40
0
40
0
40
0
40
0
40
0.062500000000006
40
0.062500000000006
40
0.125000000000012
40
0.125000000000012
40
0.250000000000033
40
0.250000000000033
40
0.312500000000039
40
0.312500000000039
40
0.375000000000045
40
0.375000000000045
40
0.43750000000005
40
0.46875000000005
40
0.46875000000005
40
0.50000000000005
40
0.50000000000005
40
0.562500000000046
40
0.562500000000046
40
0.625000000000042
40
0.625000000000042
40
0.687500000000038
40
0.687500000000038
40
0.750000000000033
40
0.750000000000033
40
0.781250000000029
40
0.781250000000029
40
0.812500000000025
40
0.812500000000025
40
0.875000000000017
40
0.875000000000017
40
0.906250000000015
40
0.906250000000015
40
0.937500000000012
40
0.937500000000012
40
1
40
1
40
1
40
1
41
1
10
284.650480947162
20
14.2713560451092
30
0
41
1
10
284.644541763467
20
14.2793102910581
30
0
41
1
10
284.638756839539
20
14.2872294433618
30
0
41
1
10
284.627506774317
20
14.302993946517
30
0
41
1
10
284.622036841691
20
14.3108474250056
30
0
41
1
10
284.606303670805
20
14.3340419064661
30
0
41
1
10
284.596648437231
20
14.3491012776329
30
0
41
1
10
284.583633254484
20
14.3709733054272
30
0
41
1
10
284.579541653131
20
14.3781434271876
30
0
41
1
10
284.571931370335
20
14.3922031191396
30
0
41
1
10
284.56843089975
20
14.3990639033674
30
0
41
1
10
284.562253628208
20
14.4121436619726
30
0
41
1
10
284.558207911073
20
14.4215257021623
30
0
41
1
10
284.555200721481
20
14.4301516009078
30
0
41
1
10
284.55345518968
20
14.4357135774884
30
0
41
1
10
284.552710442821
20
14.4384087911518
30
0
41
1
10
284.550942245299
20
14.4460502422384
30
0
41
1
10
284.550366329962
20
14.4505927249285
30
0
41
1
10
284.550633108058
20
14.4583821261451
30
0
41
1
10
284.551503033045
20
14.4616464130955
30
0
41
1
10
284.554855359467
20
14.4663541704527
30
0
41
1
10
284.557331074051
20
14.467842689463
30
0
41
1
10
284.564017307023
20
14.4688769046288
30
0
41
1
10
284.568091472035
20
14.468406789569
30
0
41
1
10
284.575219147711
20
14.4663343824128
30
0
41
1
10
284.577765374082
20
14.4654144454736
30
0
41
1
10
284.583195178748
20
14.4631216378037
30
0
41
1
10
284.586076510252
20
14.4617472419401
30
0
41
1
10
284.594973748989
20
14.4570910832187
30
0
41
1
10
284.601313509255
20
14.4532519906584
30
0
41
1
10
284.611346272036
20
14.446555877988
30
0
41
1
10
284.614793791829
20
14.4441549227082
30
0
41
1
10
284.621753592838
20
14.4391294491519
30
0
41
1
10
284.625269774212
20
14.436503308928
30
0
41
1
10
284.635916030169
20
14.428320421818
30
0
41
1
10
284.643143199087
20
14.4224612077377
30
0
41
1
10
284.650480947162
20
14.4162590606732
30
0
0
SPLINE
5
14F
100
AcDbEntity
8
1
62
256
6
ByLayer
370
18
48
1
60
0
100
AcDbSpline
70
4
71
3
72
8
73
4
40
0
40
0
40
0
40
0
40
1
40
1
40
1
40
1
41
1
10
284.650480947162
20
14.4162590606731
30
0
41
1
10
284.875348460448
20
14.226192384475
30
0
41
1
10
285.1001123279
20
14.0359624353467
30
0
41
1
10
285.324759526419
20
13.8455486980473
30
0
0
SPLINE
5
150
100
AcDbEntity
8
1
62
256
6
ByLayer
370
18
48
1
60
0
100
AcDbSpline
70
4
71
3
72
8
73
4
40
0
40
0
40
0
40
0
40
1
40
1
40
1
40
1
41
1
10
285.324759526419
20
13.9870196521632
30
0
41
1
10
285.102080121807
20
14.2703688976799
30
0
41
1
10
284.877238226736
20
14.5514129846225
30
0
41
1
10
284.650480947162
20
14.8304153215122
30
0
0
SPLINE
5
151
100
AcDbEntity
8
1
62
256
6
ByLayer
370
18
48
1
60
0
100
AcDbSpline
70
4
71
3
72
39
73
35
40
0
40
0
40
0
40
0
40
0.124999999999994
40
0.124999999999994
40
0.187499999999993
40
0.187499999999993
40
0.249999999999992
40
0.249999999999992
40
0.312499999999991
40
0.312499999999991
40
0.37499999999999
40
0.37499999999999
40
0.437499999999989
40
0.437499999999989
40
0.499999999999988
40
0.499999999999988
40
0.562499999999987
40
0.562499999999987
40
0.593749999999989
40
0.593749999999989
40
0.624999999999991
40
0.656249999999993
40
0.656249999999993
40
0.687499999999995
40
0.687499999999995
40
0.749999999999999
40
0.749999999999999
40
0.78125
40
0.78125
40
0.812500000000001
40
0.812500000000001
40
0.875000000000002
40
0.875000000000002
40
1
40
1
40
1
40
1
41
1
10
284.650480947162
20
14.8304153215122
30
0
41
1
10
284.638373424806
20
14.8453124266352
30
0
41
1
10
284.626879692995
20
14.8599680744844
30
0
41
1
10
284.610679568091
20
14.8815346298468
30
0
41
1
10
284.60547954152
20
14.8886211864292
30
0
41
1
10
284.595604467179
20
14.9024417752081
30
0
41
1
10
284.590914494101
20
14.9091953839262
30
0
41
1
10
284.58208146125
20
14.9223552101119
30
0
41
1
10
284.577937788705
20
14.9287618173775
30
0
41
1
10
284.570285250187
20
14.9411707644362
30
0
41
1
10
284.56677140083
20
14.9471873255049
30
0
41
1
10
284.560678781527
20
14.9584189402445
30
0
41
1
10
284.558073230203
20
14.9636743992607
30
0
41
1
10
284.553893832727
20
14.9733417740623
30
0
41
1
10
284.552312937964
20
14.9777886164393
30
0
41
1
10
284.550489509687
20
14.9854070182942
30
0
41
1
10
284.550231560541
20
14.9885939889239
30
0
41
1
10
284.550980242484
20
14.9922954153538
30
0
41
1
10
284.551422775318
20
14.9933439528546
30
0
41
1
10
284.552686525779
20
14.9950138851346
30
0
41
1
10
284.5543306151
20
14.9962719112234
30
0
41
1
10
284.556748694073
20
14.996692750813
30
0
41
1
10
284.559567576045
20
14.9966806584242
30
0
41
1
10
284.561183605443
20
14.9964540484123
30
0
41
1
10
284.566506436117
20
14.9951447688914
30
0
41
1
10
284.570717710927
20
14.9934413493005
30
0
41
1
10
284.577958305296
20
14.9897326464974
30
0
41
1
10
284.580537151557
20
14.9882959102673
30
0
41
1
10
284.585880111042
20
14.9851164812354
30
0
41
1
10
284.588655360764
20
14.9833688613558
30
0
41
1
10
284.597265745629
20
14.9776938429172
30
0
41
1
10
284.603383833781
20
14.973336881757
30
0
41
1
10
284.622740472732
20
14.9587505765204
30
0
41
1
10
284.636379623364
20
14.9474793984978
30
0
41
1
10
284.650480947162
20
14.9351568475918
30
0
0
SPLINE
5
152
100
AcDbEntity
8
1
62
256
6
ByLayer
370
18
48
1
60
0
100
AcDbSpline
70
4
71
3
72
8
73
4
40
0
40
0
40
0
40
0
40
1
40
1
40
1
40
1
41
1
10
284.650480947162
20
14.9351568475918
30
0
41
1
10
284.875454263316
20
14.7385621746018
30
0
41
1
10
285.100222163115
20
14.5416548922592
30
0
41
1
10
285.324759526419
20
14.3443967719106
30
0
0
SPLINE
5
153
100
AcDbEntity
8
1
62
256
6
ByLayer
370
18
48
1
60
0
100
AcDbSpline
70
4
71
3
72
8
73
4
40
0
40
0
40
0
40
0
40
1
40
1
40
1
40
1
41
1
10
285.324759526419
20
14.442098834657
30
0
41
1
10
285.101514956523
20
14.703829124614
30
0
41
1
10
284.876696937425
20
14.9637457255696
30
0
41
1
10
284.650480947162
20
15.2220509081666
30
0
0
SPLINE
5
154
100
AcDbEntity
8
1
62
256
6
ByLayer
370
18
48
1
60
0
100
AcDbSpline
70
4
71
3
72
37
73
33
40
0
40
0
40
0
40
0
40
0.0625000000000021
40
0.0625000000000021
40
0.125000000000004
40
0.125000000000004
40
0.250000000000001
40
0.250000000000001
40
0.312499999999999
40
0.312499999999999
40
0.374999999999996
40
0.374999999999996
40
0.437499999999994
40
0.437499999999994
40
0.499999999999991
40
0.499999999999991
40
0.562499999999989
40
0.562499999999989
40
0.624999999999987
40
0.624999999999987
40
0.656249999999985
40
0.656249999999985
40
0.687499999999984
40
0.718749999999983
40
0.718749999999983
40
0.749999999999982
40
0.749999999999982
40
0.812499999999986
40
0.812499999999986
40
0.87499999999999
40
0.87499999999999
40
1
40
1
40
1
40
1
41
1
10
284.650480947162
20
15.2220509081666
30
0
41
1
10
284.644294333432
20
15.2291151054733
30
0
41
1
10
284.638254285596
20
15.2361013691703
30
0
41
1
10
284.626485187195
20
15.2499071715835
30
0
41
1
10
284.620736080959
20
15.2567510942086
30
0
41
1
10
284.604171835447
20
15.2767999145133
30
0
41
1
10
284.594038658074
20
15.2895121613163
30
0
41
1
10
284.580511471499
20
15.3073684373042
30
0
41
1
10
284.576261489572
20
15.3131487300515
30
0
41
1
10
284.568550606069
20
15.3240582484626
30
0
41
1
10
284.565111393543
20
15.329154061503
30
0
41
1
10
284.559174019191
20
15.3385329781322
30
0
41
1
10
284.556673297191
20
15.3428191151775
30
0
41
1
10
284.552811676532
20
15.3504031254542
30
0
41
1
10
284.551504626515
20
15.3535966360271
30
0
41
1
10
284.550267848023
20
15.3586626166866
30
0
41
1
10
284.550356237082
20
15.3605373474097
30
0
41
1
10
284.552049103844
20
15.3626719024938
30
0
41
1
10
284.553634168403
20
15.3629642507981
30
0
41
1
10
284.557155738882
20
15.3622048718746
30
0
41
1
10
284.55852616919
20
15.3617473104946
30
0
41
1
10
284.561577133251
20
15.3604593963509
30
0
41
1
10
284.564951313696
20
15.3587975304611
30
0
41
1
10
284.568938345093
20
15.3564276254196
30
0
41
1
10
284.573221150482
20
15.3537165266539
30
0
41
1
10
284.575523372988
20
15.3521811350283
30
0
41
1
10
284.582746229745
20
15.3471579900946
30
0
41
1
10
284.587979356439
20
15.3432613857029
30
0
41
1
10
284.599154252662
20
15.3345430038489
30
0
41
1
10
284.605140004151
20
15.3296835354693
30
0
41
1
10
284.623741159003
20
15.3141198856106
30
0
41
1
10
284.636843765495
20
15.3025825408983
30
0
41
1
10
284.650480947162
20
15.2901698754428
30
0
0
SPLINE
5
155
100
AcDbEntity
8
1
62
256
6
ByLayer
370
18
48
1
60
0
100
AcDbSpline
70
4
71
3
72
8
73
4
40
0
40
0
40
0
40
0
40
1
40
1
40
1
40
1
41
1
10
284.650480947162
20
15.2901698754428
30
0
41
1
10
284.875593141359
20
15.0852710609528
30
0
41
1
10
285.100366304594
20
14.8798776311317
30
0
41
1
10
285.324759526419
20
14.6739299013591
30
0
0
SPLINE
5
156
100
AcDbEntity
8
1
62
256
6
ByLayer
370
18
48
1
60
0
100
AcDbSpline
70
4
71
3
72
8
73
4
40
0
40
0
40
0
40
0
40
1
40
1
40
1
40
1
41
1
10
285.324759526419
20
14.7313176175792
30
0
41
1
10
285.101101228039
20
14.9752364721521
30
0
41
1
10
284.876300003536
20
15.2177432483211
30
0
41
1
10
284.650480947162
20
15.4589924992894
30
0
0
SPLINE
5
157
100
AcDbEntity
8
1
62
256
6
ByLayer
370
18
48
1
60
0
100
AcDbSpline
70
4
71
3
72
36
73
32
40
0
40
0
40
0
40
0
40
0.125000000000005
40
0.125000000000005
40
0.187500000000005
40
0.187500000000005
40
0.250000000000005
40
0.250000000000005
40
0.312500000000004
40
0.312500000000004
40
0.375000000000004
40
0.375000000000004
40
0.437500000000003
40
0.437500000000003
40
0.500000000000003
40
0.500000000000003
40
0.562500000000003
40
0.562500000000003
40
0.593750000000003
40
0.593750000000003
40
0.625000000000003
40
0.625000000000003
40
0.687500000000002
40
0.687500000000002
40
0.750000000000001
40
0.750000000000001
40
0.812500000000001
40
0.812500000000001
40
0.875
40
0.875
40
1
40
1
40
1
40
1
41
1
10
284.650480947162
20
15.4589924992894
30
0
41
1
10
284.637779184345
20
15.4725621723487
30
0
41
1
10
284.625682351265
20
15.4856785147983
30
0
41
1
10
284.608796513398
20
15.5043244886974
30
0
41
1
10
284.60336854529
20
15.5103787087688
30
0
41
1
10
284.592969496432
20
15.5221183431418
30
0
41
1
10
284.587974869903
20
15.5278317856412
30
0
41
1
10
284.578761815747
20
15.5385464040318
30
0
41
1
10
284.574516901229
20
15.543576562035
30
0
41
1
10
284.566849576797
20
15.5528907308131
30
0
41
1
10
284.563406643093
20
15.557201264394
30
0
41
1
10
284.557609631908
20
15.5647958271572
30
0
41
1
10
284.555281508536
20
15.5680434298933
30
0
41
1
10
284.551900875466
20
15.5733082427221
30
0
41
1
10
284.550860656782
20
15.575319043906
30
0
41
1
10
284.550276828273
20
15.5778099072433
30
0
41
1
10
284.55070742994
20
15.578325175467
30
0
41
1
10
284.552496708887
20
15.5779435126656
30
0
41
1
10
284.553284202495
20
15.5776209079293
30
0
41
1
10
284.555192138946
20
15.5766149883931
30
0
41
1
10
284.556316008362
20
15.5759312254574
30
0
41
1
10
284.560171459293
20
15.5733655109416
30
0
41
1
10
284.56338438504
20
15.5709717738392
30
0
41
1
10
284.571028690427
20
15.5648917328051
30
0
41
1
10
284.57538384051
20
15.5612647435856
30
0
41
1
10
284.584863528357
20
15.5531292924516
30
0
41
1
10
284.59001082287
20
15.5486023360621
30
0
41
1
10
284.601035252391
20
15.5387288385982
30
0
41
1
10
284.606805271365
20
15.5334780207422
30
0
41
1
10
284.624631639548
20
15.5170613432585
30
0
41
1
10
284.637255927245
20
15.5051880499832
30
0
41
1
10
284.650480947162
20
15.4925685274466
30
0
0
SPLINE
5
158
100
AcDbEntity
8
1
62
256
6
ByLayer
370
18
48
1
60
0
100
AcDbSpline
70
4
71
3
72
8
73
4
40
0
40
0
40
0
40
0
40
1
40
1
40
1
40
1
41
1
10
284.650480947162
20
15.4925685274466
30
0
41
1
10
284.875771559452
20
15.2775926728203
30
0
41
1
10
285.100551573487
20
15.0619074716055
30
0
41
1
10
285.324759526419
20
14.8454275367872
30
0
0
SPLINE
5
159
100
AcDbEntity
8
1
62
256
6
ByLayer
370
18
48
1
60
0
100
AcDbSpline
70
4
71
3
72
8
73
4
40
0
40
0
40
0
40
0
40
1
40
1
40
1
40
1
41
1
10
285.324759526419
20
14.8643606909278
30
0
41
1
10
285.100790144465
20
15.0933837089886
30
0
41
1
10
284.876001090753
20
15.3213292906331
30
0
41
1
10
284.650480947162
20
15.5483138743517
30
0
0
SPLINE
5
15A
100
AcDbEntity
8
1
62
256
6
ByLayer
370
18
48
1
60
0
100
AcDbSpline
70
4
71
3
72
24
73
20
40
0
40
0
40
0
40
0
40
0.125345543168227
40
0.125345543168227
40
0.250691086336454
40
0.250691086336454
40
0.50138217267291
40
0.50138217267291
40
0.626727715841127
40
0.626727715841127
40
0.689400487425244
40
0.689400487425244
40
0.752073259009362
40
0.752073259009362
40
0.877418802177608
40
0.877418802177608
40
0.940091573761731
40
0.940091573761731
40
1
40
1
40
1
40
1
41
1
10
284.650480947162
20
15.5483138743517
30
0
41
1
10
284.64399689804
20
15.5548400283672
30
0
41
1
10
284.637644982441
20
15.5612371970031
30
0
41
1
10
284.625230622589
20
15.5737471498231
30
0
41
1
10
284.619166433218
20
15.5798617325442
30
0
41
1
10
284.601769130335
20
15.5974128454555
30
0
41
1
10
284.59110360217
20
15.608185484975
30
0
41
1
10
284.576976644013
20
15.6224654597939
30
0
41
1
10
284.572676386704
20
15.6268143799584
30
0
41
1
10
284.566946242107
20
15.6326111896646
30
0
41
1
10
284.565154909061
20
15.6344237048782
30
0
41
1
10
284.561829597008
20
15.6377888178357
30
0
41
1
10
284.560292382381
20
15.6393446922303
30
0
41
1
10
284.556174960262
20
15.6435125705874
30
0
41
1
10
284.554057495271
20
15.6456566565697
30
0
41
1
10
284.551906147985
20
15.6478352113852
30
0
41
1
10
284.55135900524
20
15.6483893194815
30
0
41
1
10
284.550658644105
20
15.6490986086577
30
0
41
1
10
284.550486685765
20
15.6492727670627
30
0
41
1
10
284.550481087863
20
15.6492784367411
30
0
0
LINE
5
A2
100
AcDbEntity
8
4
62
256
6
ByLayer
370
18
48
0.05
60
0
100
AcDbLine
10
0
20
0
30
0
11
285
21
0
31
0
39
0
210
0
220
0
230
1
0
LINE
5
A4
100
AcDbEntity
8
80
62
256
6
ByLayer
370
18
48
1
60
0
100
AcDbLine
10
0
20
0
30
0
11
-5
21
0
31
0
39
0
210
0
220
0
230
1
0
LINE
5
A5
100
AcDbEntity
8
SK4
62
256
6
ByLayer
370
18
48
0.05
60
0
100
AcDbLine
10
-132
20
0
30
0
11
290
21
0
31
0
39
0
210
0
220
0
230
1
0
LINE
5
A7
100
AcDbEntity
8
81
62
256
6
ByLayer
370
18
48
1
60
0
100
AcDbLine
10
285
20
0
30
0
11
290
21
0
31
0
39
0
210
0
220
0
230
1
0
LINE
5
A8
100
AcDbEntity
8
1
62
256
6
ByLayer
370
18
48
1
60
0
100
AcDbLine
10
289.8
20
-5.278175
30
0
11
289.8
21
-10.278175
31
0
39
0
210
0
220
0
230
1
0
LINE
5
A9
100
AcDbEntity
8
1
62
256
6
ByLayer
370
13
48
1
60
0
100
AcDbLine
10
285.324732
20
-9.833175
30
0
11
289.8
21
-9.833175
31
0
39
0
210
0
220
0
230
1
0
LINE
5
AA
100
AcDbEntity
8
1
62
256
6
ByLayer
370
13
48
1
60
0
100
AcDbLine
10
285.324732
20
-5.723175
30
0
11
289.8
21
-5.723175
31
0
39
0
210
0
220
0
230
1
0
LINE
5
AB
100
AcDbEntity
8
1
62
256
6
ByLayer
370
18
48
1
60
0
100
AcDbLine
10
289.8
20
10.278175
30
0
11
289.8
21
5.278175
31
0
39
0
210
0
220
0
230
1
0
LINE
5
AC
100
AcDbEntity
8
1
62
256
6
ByLayer
370
13
48
1
60
0
100
AcDbLine
10
285.324732
20
5.723175
30
0
11
289.8
21
5.723175
31
0
39
0
210
0
220
0
230
1
0
LINE
5
AD
100
AcDbEntity
8
1
62
256
6
ByLayer
370
13
48
1
60
0
100
AcDbLine
10
285.324732
20
9.833175
30
0
11
289.8
21
9.833175
31
0
39
0
210
0
220
0
230
1
0
LINE
5
AE
100
AcDbEntity
8
1
62
256
6
ByLayer
370
18
48
1
60
0
100
AcDbLine
10
0
20
15.875
30
0
11
0
21
-15.875
31
0
39
0
210
0
220
0
230
1
0
LINE
5
AF
100
AcDbEntity
8
1
62
256
6
ByLayer
370
18
48
1
60
0
100
AcDbLine
10
283
20
15.875
30
0
11
283
21
-15.875
31
0
39
0
210
0
220
0
230
1
0
LINE
5
B0
100
AcDbEntity
8
1
62
256
6
ByLayer
370
18
48
1
60
0
100
AcDbLine
10
285.32476
20
14.731291
30
0
11
285.32476
21
14.845428
31
0
39
0
210
0
220
0
230
1
0
LINE
5
B1
100
AcDbEntity
8
1
62
256
6
ByLayer
370
18
48
1
60
0
100
AcDbLine
10
285.32476
20
-14.845428
30
0
11
285.32476
21
-14.731291
31
0
39
0
210
0
220
0
230
1
0
LINE
5
B2
100
AcDbEntity
8
1
62
256
6
ByLayer
370
13
48
1
60
0
100
AcDbLine
10
284.650481
20
-15.492569
30
0
11
284.650481
21
-15.458981
31
0
39
0
210
0
220
0
230
1
0
LINE
5
B3
100
AcDbEntity
8
1
62
256
6
ByLayer
370
13
48
1
60
0
100
AcDbLine
10
284.650481
20
15.458981
30
0
11
284.650481
21
15.492569
31
0
39
0
210
0
220
0
230
1
0
LINE
5
B4
100
AcDbEntity
8
1
62
256
6
ByLayer
370
18
48
1
60
0
100
AcDbLine
10
285.32476
20
-14.67393
30
0
11
285.32476
21
-14.441992
31
0
39
0
210
0
220
0
230
1
0
LINE
5
B5
100
AcDbEntity
8
1
62
256
6
ByLayer
370
18
48
1
60
0
100
AcDbLine
10
285.32476
20
14.441992
30
0
11
285.32476
21
14.67393
31
0
39
0
210
0
220
0
230
1
0
LINE
5
B6
100
AcDbEntity
8
1
62
256
6
ByLayer
370
13
48
1
60
0
100
AcDbLine
10
284.650481
20
15.221974
30
0
11
284.650481
21
15.29017
31
0
39
0
210
0
220
0
230
1
0
LINE
5
B7
100
AcDbEntity
8
1
62
256
6
ByLayer
370
13
48
1
60
0
100
AcDbLine
10
284.650481
20
-15.29017
30
0
11
284.650481
21
-15.221974
31
0
39
0
210
0
220
0
230
1
0
LINE
5
B8
100
AcDbEntity
8
1
62
256
6
ByLayer
370
18
48
1
60
0
100
AcDbLine
10
285.32476
20
13.986992
30
0
11
285.32476
21
14.344397
31
0
39
0
210
0
220
0
230
1
0
LINE
5
B9
100
AcDbEntity
8
1
62
256
6
ByLayer
370
18
48
1
60
0
100
AcDbLine
10
285.32476
20
-14.344397
30
0
11
285.32476
21
-13.986992
31
0
39
0
210
0
220
0
230
1
0
LINE
5
BA
100
AcDbEntity
8
1
62
256
6
ByLayer
370
13
48
1
60
0
100
AcDbLine
10
284.650481
20
-14.935157
30
0
11
284.650481
21
-14.830351
31
0
39
0
210
0
220
0
230
1
0
LINE
5
BB
100
AcDbEntity
8
1
62
256
6
ByLayer
370
13
48
1
60
0
100
AcDbLine
10
284.650481
20
14.830351
30
0
11
284.650481
21
14.935157
31
0
39
0
210
0
220
0
230
1
0
LINE
5
BC
100
AcDbEntity
8
1
62
256
6
ByLayer
370
18
48
1
60
0
100
AcDbLine
10
285.32476
20
13.349093
30
0
11
285.32476
21
13.845549
31
0
39
0
210
0
220
0
230
1
0
LINE
5
BD
100
AcDbEntity
8
1
62
256
6
ByLayer
370
18
48
1
60
0
100
AcDbLine
10
285.32476
20
-13.845549
30
0
11
285.32476
21
-13.349093
31
0
39
0
210
0
220
0
230
1
0
LINE
5
BE
100
AcDbEntity
8
1
62
256
6
ByLayer
370
13
48
1
60
0
100
AcDbLine
10
284.650481
20
-14.416259
30
0
11
284.650481
21
-14.271278
31
0
39
0
210
0
220
0
230
1
0
LINE
5
BF
100
AcDbEntity
8
1
62
256
6
ByLayer
370
13
48
1
60
0
100
AcDbLine
10
284.650481
20
14.271278
30
0
11
284.650481
21
14.416259
31
0
39
0
210
0
220
0
230
1
0
LINE
5
C0
100
AcDbEntity
8
1
62
256
6
ByLayer
370
18
48
1
60
0
100
AcDbLine
10
285.32476
20
12.500456
30
0
11
285.32476
21
13.158143
31
0
39
0
210
0
220
0
230
1
0
LINE
5
C1
100
AcDbEntity
8
1
62
256
6
ByLayer
370
18
48
1
60
0
100
AcDbLine
10
285.32476
20
-13.158143
30
0
11
285.32476
21
-12.500456
31
0
39
0
210
0
220
0
230
1
0
LINE
5
C2
100
AcDbEntity
8
1
62
256
6
ByLayer
370
13
48
1
60
0
100
AcDbLine
10
284.650481
20
13.524107
30
0
11
284.650481
21
13.714888
31
0
39
0
210
0
220
0
230
1
0
LINE
5
C3
100
AcDbEntity
8
1
62
256
6
ByLayer
370
13
48
1
60
0
100
AcDbLine
10
284.650481
20
-13.714888
30
0
11
284.650481
21
-13.524107
31
0
39
0
210
0
220
0
230
1
0
LINE
5
C4
100
AcDbEntity
8
1
62
256
6
ByLayer
370
18
48
1
60
0
100
AcDbLine
10
285.32476
20
-12.250478
30
0
11
285.32476
21
-11.394065
31
0
39
0
210
0
220
0
230
1
0
LINE
5
C5
100
AcDbEntity
8
1
62
256
6
ByLayer
370
18
48
1
60
0
100
AcDbLine
10
285.32476
20
11.394065
30
0
11
285.32476
21
12.250478
31
0
39
0
210
0
220
0
230
1
0
LINE
5
C6
100
AcDbEntity
8
1
62
256
6
ByLayer
370
13
48
1
60
0
100
AcDbLine
10
284.650481
20
-12.801084
30
0
11
284.650481
21
-12.555173
31
0
39
0
210
0
220
0
230
1
0
LINE
5
C7
100
AcDbEntity
8
1
62
256
6
ByLayer
370
13
48
1
60
0
100
AcDbLine
10
284.650481
20
12.555173
30
0
11
284.650481
21
12.801084
31
0
39
0
210
0
220
0
230
1
0
LINE
5
C8
100
AcDbEntity
8
1
62
256
6
ByLayer
370
18
48
1
60
0
100
AcDbLine
10
285.32476
20
9.944196
30
0
11
285.32476
21
11.068501
31
0
39
0
210
0
220
0
230
1
0
LINE
5
C9
100
AcDbEntity
8
1
62
256
6
ByLayer
370
18
48
1
60
0
100
AcDbLine
10
285.32476
20
-11.068501
30
0
11
285.32476
21
-9.944196
31
0
39
0
210
0
220
0
230
1
0
LINE
5
CA
100
AcDbEntity
8
1
62
256
6
ByLayer
370
13
48
1
60
0
100
AcDbLine
10
284.650481
20
-11.62486
30
0
11
284.650481
21
-11.307356
31
0
39
0
210
0
220
0
230
1
0
LINE
5
CB
100
AcDbEntity
8
1
62
256
6
ByLayer
370
13
48
1
60
0
100
AcDbLine
10
284.650481
20
11.307356
30
0
11
284.650481
21
11.62486
31
0
39
0
210
0
220
0
230
1
0
LINE
5
CC
100
AcDbEntity
8
1
62
256
6
ByLayer
370
18
48
1
60
0
100
AcDbLine
10
285.32476
20
-9.510479
30
0
11
285.32476
21
-7.965324
31
0
39
0
210
0
220
0
230
1
0
LINE
5
CD
100
AcDbEntity
8
1
62
256
6
ByLayer
370
18
48
1
60
0
100
AcDbLine
10
285.32476
20
7.965324
30
0
11
285.32476
21
9.510479
31
0
39
0
210
0
220
0
230
1
0
LINE
5
CE
100
AcDbEntity
8
1
62
256
6
ByLayer
370
13
48
1
60
0
100
AcDbLine
10
284.650481
20
-10.094899
30
0
11
284.650481
21
-9.674068
31
0
39
0
210
0
220
0
230
1
0
LINE
5
CF
100
AcDbEntity
8
1
62
256
6
ByLayer
370
13
48
1
60
0
100
AcDbLine
10
284.650481
20
9.674068
30
0
11
284.650481
21
10.094899
31
0
39
0
210
0
220
0
230
1
0
LINE
5
D0
100
AcDbEntity
8
1
62
256
6
ByLayer
370
18
48
1
60
0
100
AcDbLine
10
285.32476
20
-7.340757
30
0
11
285.32476
21
-4.8488
31
0
39
0
210
0
220
0
230
1
0
LINE
5
D1
100
AcDbEntity
8
1
62
256
6
ByLayer
370
18
48
1
60
0
100
AcDbLine
10
285.32476
20
4.8488
30
0
11
285.32476
21
7.340757
31
0
39
0
210
0
220
0
230
1
0
LINE
5
D2
100
AcDbEntity
8
1
62
256
6
ByLayer
370
13
48
1
60
0
100
AcDbLine
10
284.650481
20
-8.01103
30
0
11
284.650481
21
-7.404194
31
0
39
0
210
0
220
0
230
1
0
LINE
5
D3
100
AcDbEntity
8
1
62
256
6
ByLayer
370
13
48
1
60
0
100
AcDbLine
10
284.650481
20
7.404194
30
0
11
284.650481
21
8.01103
31
0
39
0
210
0
220
0
230
1
0
LINE
5
D4
100
AcDbEntity
8
1
62
256
6
ByLayer
370
18
48
1
60
0
100
AcDbLine
10
285.32476
20
-3.581092
30
0
11
285.32476
21
3.581092
31
0
39
0
210
0
220
0
230
1
0
LINE
5
D5
100
AcDbEntity
8
1
62
256
6
ByLayer
370
13
48
1
60
0
100
AcDbLine
10
284.650481
20
-4.684679
30
0
11
284.650481
21
-3.399027
31
0
39
0
210
0
220
0
230
1
0
LINE
5
D6
100
AcDbEntity
8
1
62
256
6
ByLayer
370
13
48
1
60
0
100
AcDbLine
10
284.650481
20
3.399027
30
0
11
284.650481
21
4.684679
31
0
39
0
210
0
220
0
230
1
0
LINE
5
D7
100
AcDbEntity
8
1
62
256
6
ByLayer
370
13
48
1
60
0
100
AcDbLine
10
283.4
20
15.875
30
0
11
283.4
21
-15.875
31
0
39
0
210
0
220
0
230
1
0
LINE
5
D8
100
AcDbEntity
8
1
62
256
6
ByLayer
370
18
48
1
60
0
100
AcDbLine
10
284.32476
20
-15.875
30
0
11
284.32476
21
15.875
31
0
39
0
210
0
220
0
230
1
0
LINE
5
D9
100
AcDbEntity
8
1
62
256
6
ByLayer
370
18
48
1
60
0
100
AcDbLine
10
285.32476
20
-14.845428
30
0
11
285.32476
21
-14.864361
31
0
39
0
210
0
220
0
230
1
0
LINE
5
DA
100
AcDbEntity
8
1
62
256
6
ByLayer
370
18
48
1
60
0
100
AcDbLine
10
285.32476
20
-14.67393
30
0
11
285.32476
21
-14.731318
31
0
39
0
210
0
220
0
230
1
0
LINE
5
DB
100
AcDbEntity
8
1
62
256
6
ByLayer
370
18
48
1
60
0
100
AcDbLine
10
285.32476
20
-14.344397
30
0
11
285.32476
21
-14.442099
31
0
39
0
210
0
220
0
230
1
0
LINE
5
DC
100
AcDbEntity
8
1
62
256
6
ByLayer
370
18
48
1
60
0
100
AcDbLine
10
285.32476
20
-13.845549
30
0
11
285.32476
21
-13.98702
31
0
39
0
210
0
220
0
230
1
0
LINE
5
DD
100
AcDbEntity
8
1
62
256
6
ByLayer
370
18
48
1
60
0
100
AcDbLine
10
285.32476
20
-13.158143
30
0
11
285.32476
21
-13.349128
31
0
39
0
210
0
220
0
230
1
0
LINE
5
DE
100
AcDbEntity
8
1
62
256
6
ByLayer
370
18
48
1
60
0
100
AcDbLine
10
285.32476
20
-12.250478
30
0
11
285.32476
21
-12.500469
31
0
39
0
210
0
220
0
230
1
0
LINE
5
DF
100
AcDbEntity
8
1
62
256
6
ByLayer
370
18
48
1
60
0
100
AcDbLine
10
285.32476
20
-11.068501
30
0
11
285.32476
21
-11.394043
31
0
39
0
210
0
220
0
230
1
0
LINE
5
E0
100
AcDbEntity
8
1
62
256
6
ByLayer
370
18
48
1
60
0
100
AcDbLine
10
285.32476
20
-9.510479
30
0
11
285.32476
21
-9.94418
31
0
39
0
210
0
220
0
230
1
0
LINE
5
E1
100
AcDbEntity
8
1
62
256
6
ByLayer
370
18
48
1
60
0
100
AcDbLine
10
285.32476
20
-7.340757
30
0
11
285.32476
21
-7.965502
31
0
39
0
210
0
220
0
230
1
0
LINE
5
E2
100
AcDbEntity
8
1
62
256
6
ByLayer
370
18
48
1
60
0
100
AcDbLine
10
285.32476
20
-3.581092
30
0
11
285.32476
21
-4.848888
31
0
39
0
210
0
220
0
230
1
0
LINE
5
E3
100
AcDbEntity
8
1
62
256
6
ByLayer
370
18
48
1
60
0
100
AcDbLine
10
285.32476
20
4.848888
30
0
11
285.32476
21
3.581092
31
0
39
0
210
0
220
0
230
1
0
LINE
5
E4
100
AcDbEntity
8
1
62
256
6
ByLayer
370
18
48
1
60
0
100
AcDbLine
10
285.32476
20
7.965502
30
0
11
285.32476
21
7.340757
31
0
39
0
210
0
220
0
230
1
0
LINE
5
E5
100
AcDbEntity
8
1
62
256
6
ByLayer
370
18
48
1
60
0
100
AcDbLine
10
285.32476
20
9.94418
30
0
11
285.32476
21
9.510479
31
0
39
0
210
0
220
0
230
1
0
LINE
5
E6
100
AcDbEntity
8
1
62
256
6
ByLayer
370
18
48
1
60
0
100
AcDbLine
10
285.32476
20
11.394043
30
0
11
285.32476
21
11.068501
31
0
39
0
210
0
220
0
230
1
0
LINE
5
E7
100
AcDbEntity
8
1
62
256
6
ByLayer
370
18
48
1
60
0
100
AcDbLine
10
285.32476
20
12.500469
30
0
11
285.32476
21
12.250478
31
0
39
0
210
0
220
0
230
1
0
LINE
5
E8
100
AcDbEntity
8
1
62
256
6
ByLayer
370
18
48
1
60
0
100
AcDbLine
10
285.32476
20
13.349128
30
0
11
285.32476
21
13.158143
31
0
39
0
210
0
220
0
230
1
0
LINE
5
E9
100
AcDbEntity
8
1
62
256
6
ByLayer
370
18
48
1
60
0
100
AcDbLine
10
285.32476
20
13.98702
30
0
11
285.32476
21
13.845549
31
0
39
0
210
0
220
0
230
1
0
LINE
5
EA
100
AcDbEntity
8
1
62
256
6
ByLayer
370
18
48
1
60
0
100
AcDbLine
10
285.32476
20
14.442099
30
0
11
285.32476
21
14.344397
31
0
39
0
210
0
220
0
230
1
0
LINE
5
EB
100
AcDbEntity
8
1
62
256
6
ByLayer
370
18
48
1
60
0
100
AcDbLine
10
285.32476
20
14.731318
30
0
11
285.32476
21
14.67393
31
0
39
0
210
0
220
0
230
1
0
LINE
5
EC
100
AcDbEntity
8
1
62
256
6
ByLayer
370
18
48
1
60
0
100
AcDbLine
10
285.32476
20
14.864361
30
0
11
285.32476
21
14.845428
31
0
39
0
210
0
220
0
230
1
0
LINE
5
ED
100
AcDbEntity
8
1
62
256
6
ByLayer
370
13
48
1
60
0
100
AcDbLine
10
289.8
20
-10.278175
30
0
11
289.8
21
-5.278175
31
0
39
0
210
0
220
0
230
1
0
LINE
5
EE
100
AcDbEntity
8
1
62
256
6
ByLayer
370
18
48
1
60
0
100
AcDbLine
10
290
20
-12.028175
30
0
11
290
21
-3.528175
31
0
39
0
210
0
220
0
230
1
0
LINE
5
EF
100
AcDbEntity
8
1
62
256
6
ByLayer
370
13
48
1
60
0
100
AcDbLine
10
289.8
20
10.278175
30
0
11
289.8
21
5.278175
31
0
39
0
210
0
220
0
230
1
0
LINE
5
F0
100
AcDbEntity
8
1
62
256
6
ByLayer
370
18
48
1
60
0
100
AcDbLine
10
290
20
12.028175
30
0
11
290
21
3.528175
31
0
39
0
210
0
220
0
230
1
0
LINE
5
F1
100
AcDbEntity
8
1
62
256
6
ByLayer
370
18
48
1
60
0
100
AcDbLine
10
0
20
-15.875
30
0
11
283
21
-15.875
31
0
39
0
210
0
220
0
230
1
0
LINE
5
F2
100
AcDbEntity
8
1
62
256
6
ByLayer
370
18
48
1
60
0
100
AcDbLine
10
283
20
15.875
30
0
11
0
21
15.875
31
0
39
0
210
0
220
0
230
1
0
LINE
5
F3
100
AcDbEntity
8
SK1
62
256
6
ByLayer
370
18
48
1
60
0
100
AcDbLine
10
0
20
15.86425
30
0
11
-126
21
15.86425
31
0
39
0
210
0
220
0
230
1
0
LINE
5
F5
100
AcDbEntity
8
SK1
62
256
6
ByLayer
370
18
48
1
60
0
100
AcDbLine
10
-126
20
-15.86425
30
0
11
0
21
-15.86425
31
0
39
0
210
0
220
0
230
1
0
LINE
5
F6
100
AcDbEntity
8
1
62
256
6
ByLayer
370
18
48
1
60
0
100
AcDbLine
10
284.32476
20
15.875
30
0
11
283.4
21
15.875
31
0
39
0
210
0
220
0
230
1
0
LINE
5
F7
100
AcDbEntity
8
1
62
256
6
ByLayer
370
18
48
1
60
0
100
AcDbLine
10
283.4
20
-15.875
30
0
11
284.32476
21
-15.875
31
0
39
0
210
0
220
0
230
1
0
LINE
5
F8
100
AcDbEntity
8
1
62
256
6
ByLayer
370
18
48
1
60
0
100
AcDbLine
10
284.552119
20
15.647641
30
0
11
284.32476
21
15.875
31
0
39
0
210
0
220
0
230
1
0
LINE
5
F9
100
AcDbEntity
8
1
62
256
6
ByLayer
370
18
48
1
60
0
100
AcDbLine
10
284.32476
20
-15.875
30
0
11
284.552119
21
-15.647641
31
0
39
0
210
0
220
0
230
1
0
LINE
5
FA
100
AcDbEntity
8
1
62
256
6
ByLayer
370
18
48
1
60
0
100
AcDbLine
10
285.324813
20
-10.278175
30
0
11
289.8
21
-10.278175
31
0
39
0
210
0
220
0
230
1
0
LINE
5
FB
100
AcDbEntity
8
1
62
256
6
ByLayer
370
18
48
1
60
0
100
AcDbLine
10
289.8
20
-5.278175
30
0
11
285.324813
21
-5.278175
31
0
39
0
210
0
220
0
230
1
0
LINE
5
FC
100
AcDbEntity
8
1
62
256
6
ByLayer
370
18
48
1
60
0
100
AcDbLine
10
290
20
-12.028175
30
0
11
294.5
21
-12.028175
31
0
39
0
210
0
220
0
230
1
0
LINE
5
FD
100
AcDbEntity
8
1
62
256
6
ByLayer
370
18
48
1
60
0
100
AcDbLine
10
294.5
20
-3.528175
30
0
11
290
21
-3.528175
31
0
39
0
210
0
220
0
230
1
0
LINE
5
FE
100
AcDbEntity
8
1
62
256
6
ByLayer
370
18
48
1
60
0
100
AcDbLine
10
285.324813
20
5.278175
30
0
11
289.8
21
5.278175
31
0
39
0
210
0
220
0
230
1
0
LINE
5
FF
100
AcDbEntity
8
1
62
256
6
ByLayer
370
18
48
1
60
0
100
AcDbLine
10
289.8
20
10.278175
30
0
11
285.324813
21
10.278175
31
0
39
0
210
0
220
0
230
1
0
LINE
5
100
100
AcDbEntity
8
1
62
256
6
ByLayer
370
18
48
1
60
0
100
AcDbLine
10
290
20
3.528175
30
0
11
294.5
21
3.528175
31
0
39
0
210
0
220
0
230
1
0
LINE
5
101
100
AcDbEntity
8
1
62
256
6
ByLayer
370
18
48
1
60
0
100
AcDbLine
10
294.5
20
12.028175
30
0
11
290
21
12.028175
31
0
39
0
210
0
220
0
230
1
0
LINE
5
102
100
AcDbEntity
8
1
62
256
6
ByLayer
370
13
48
0.05
60
0
100
AcDbLine
10
-132.5
20
0
30
0
11
289.5
21
0
31
0
39
0
210
0
220
0
230
1
0
LINE
5
103
100
AcDbEntity
8
SK2
62
256
6
ByLayer
370
18
48
1
60
0
100
AcDbLine
10
-137.25
20
15.86425
30
0
11
-137.25
21
-21.193247
31
0
39
0
210
0
220
0
230
1
0
LINE
5
105
100
AcDbEntity
8
SK2
62
256
6
ByLayer
370
18
48
1
60
0
100
AcDbLine
10
-127.5875
20
15.86425
30
0
11
-139.25
21
15.86425
31
0
39
0
210
0
220
0
230
1
0
LINE
5
106
100
AcDbEntity
8
SK2
62
256
6
ByLayer
370
18
48
1
60
0
100
AcDbLine
10
-127.5875
20
-15.86425
30
0
11
-139.25
21
-15.86425
31
0
39
0
210
0
220
0
230
1
0
LINE
5
107
100
AcDbEntity
8
1
62
256
6
ByLayer
370
18
48
1
60
1
100
AcDbLine
10
-137.25
20
15.86425
30
0
11
-136.789216
21
12.364252
31
0
39
0
210
0
220
0
230
1
0
LINE
5
108
100
AcDbEntity
8
1
62
256
6
ByLayer
370
18
48
1
60
1
100
AcDbLine
10
-136.789216
20
12.364252
30
0
11
-137.710784
21
12.364248
31
0
39
0
210
0
220
0
230
1
0
LINE
5
109
100
AcDbEntity
8
1
62
256
6
ByLayer
370
18
48
1
60
1
100
AcDbLine
10
-137.710784
20
12.364248
30
0
11
-137.25
21
15.86425
31
0
39
0
210
0
220
0
230
1
0
LINE
5
10A
100
AcDbEntity
8
1
62
256
6
ByLayer
370
18
48
1
60
1
100
AcDbLine
10
-137.25
20
-15.86425
30
0
11
-137.710784
21
-12.364252
31
0
39
0
210
0
220
0
230
1
0
LINE
5
10B
100
AcDbEntity
8
1
62
256
6
ByLayer
370
18
48
1
60
1
100
AcDbLine
10
-137.710784
20
-12.364252
30
0
11
-136.789216
21
-12.364248
31
0
39
0
210
0
220
0
230
1
0
LINE
5
10C
100
AcDbEntity
8
1
62
256
6
ByLayer
370
18
48
1
60
1
100
AcDbLine
10
-136.789216
20
-12.364248
30
0
11
-137.25
21
-15.86425
31
0
39
0
210
0
220
0
230
1
0
LINE
5
10D
100
AcDbEntity
8
SK2
62
256
6
ByLayer
370
13
48
1
60
0
100
AcDbLine
10
308.123796
20
-15.875
30
0
11
308.123796
21
15.875
31
0
39
0
210
0
220
0
230
1
0
LINE
5
10E
100
AcDbEntity
8
SK2
62
256
6
ByLayer
370
13
48
1
60
0
100
AcDbLine
10
285.91226
20
15.875
30
0
11
310.123796
21
15.875
31
0
39
0
210
0
220
0
230
1
0
LINE
5
10F
100
AcDbEntity
8
SK2
62
256
6
ByLayer
370
13
48
1
60
0
100
AcDbLine
10
285.91226
20
-15.875
30
0
11
310.123796
21
-15.875
31
0
39
0
210
0
220
0
230
1
0
LINE
5
110
100
AcDbEntity
8
1
62
256
6
ByLayer
370
18
48
1
60
1
100
AcDbLine
10
308.123796
20
15.875
30
0
11
308.58458
21
12.375002
31
0
39
0
210
0
220
0
230
1
0
LINE
5
111
100
AcDbEntity
8
1
62
256
6
ByLayer
370
18
48
1
60
1
100
AcDbLine
10
308.58458
20
12.375002
30
0
11
307.663012
21
12.374998
31
0
39
0
210
0
220
0
230
1
0
LINE
5
112
100
AcDbEntity
8
1
62
256
6
ByLayer
370
18
48
1
60
1
100
AcDbLine
10
307.663012
20
12.374998
30
0
11
308.123796
21
15.875
31
0
39
0
210
0
220
0
230
1
0
LINE
5
113
100
AcDbEntity
8
1
62
256
6
ByLayer
370
18
48
1
60
1
100
AcDbLine
10
308.123796
20
-15.875
30
0
11
307.663012
21
-12.375002
31
0
39
0
210
0
220
0
230
1
0
LINE
5
114
100
AcDbEntity
8
1
62
256
6
ByLayer
370
18
48
1
60
1
100
AcDbLine
10
307.663012
20
-12.375002
30
0
11
308.58458
21
-12.374998
31
0
39
0
210
0
220
0
230
1
0
LINE
5
115
100
AcDbEntity
8
1
62
256
6
ByLayer
370
18
48
1
60
1
100
AcDbLine
10
308.58458
20
-12.374998
30
0
11
308.123796
21
-15.875
31
0
39
0
210
0
220
0
230
1
0
LINE
5
15F
100
AcDbEntity
8
1
62
256
6
ByLayer
370
18
48
1
60
1
100
AcDbLine
10
-137.25
20
15.86425
30
0
11
-136.789216
21
12.364252
31
0
39
0
210
0
220
0
230
1
0
LINE
5
160
100
AcDbEntity
8
1
62
256
6
ByLayer
370
18
48
1
60
1
100
AcDbLine
10
-136.789216
20
12.364252
30
0
11
-137.710784
21
12.364248
31
0
39
0
210
0
220
0
230
1
0
LINE
5
161
100
AcDbEntity
8
1
62
256
6
ByLayer
370
18
48
1
60
1
100
AcDbLine
10
-137.710784
20
12.364248
30
0
11
-137.25
21
15.86425
31
0
39
0
210
0
220
0
230
1
0
LINE
5
163
100
AcDbEntity
8
1
62
256
6
ByLayer
370
18
48
1
60
1
100
AcDbLine
10
-137.25
20
-15.86425
30
0
11
-137.710784
21
-12.364252
31
0
39
0
210
0
220
0
230
1
0
LINE
5
164
100
AcDbEntity
8
1
62
256
6
ByLayer
370
18
48
1
60
1
100
AcDbLine
10
-137.710784
20
-12.364252
30
0
11
-136.789216
21
-12.364248
31
0
39
0
210
0
220
0
230
1
0
LINE
5
165
100
AcDbEntity
8
1
62
256
6
ByLayer
370
18
48
1
60
1
100
AcDbLine
10
-136.789216
20
-12.364248
30
0
11
-137.25
21
-15.86425
31
0
39
0
210
0
220
0
230
1
0
LINE
5
169
100
AcDbEntity
8
1
62
256
6
ByLayer
370
18
48
1
60
1
100
AcDbLine
10
308.123796
20
15.875
30
0
11
308.58458
21
12.375002
31
0
39
0
210
0
220
0
230
1
0
LINE
5
16A
100
AcDbEntity
8
1
62
256
6
ByLayer
370
18
48
1
60
1
100
AcDbLine
10
308.58458
20
12.375002
30
0
11
307.663012
21
12.374998
31
0
39
0
210
0
220
0
230
1
0
LINE
5
16B
100
AcDbEntity
8
1
62
256
6
ByLayer
370
18
48
1
60
1
100
AcDbLine
10
307.663012
20
12.374998
30
0
11
308.123796
21
15.875
31
0
39
0
210
0
220
0
230
1
0
LINE
5
16D
100
AcDbEntity
8
1
62
256
6
ByLayer
370
18
48
1
60
1
100
AcDbLine
10
308.123796
20
-15.875
30
0
11
307.663012
21
-12.375002
31
0
39
0
210
0
220
0
230
1
0
LINE
5
16E
100
AcDbEntity
8
1
62
256
6
ByLayer
370
18
48
1
60
1
100
AcDbLine
10
307.663012
20
-12.375002
30
0
11
308.58458
21
-12.374998
31
0
39
0
210
0
220
0
230
1
0
LINE
5
16F
100
AcDbEntity
8
1
62
256
6
ByLayer
370
18
48
1
60
1
100
AcDbLine
10
308.58458
20
-12.374998
30
0
11
308.123796
21
-15.875
31
0
39
0
210
0
220
0
230
1
0
MTEXT
5
15B
100
AcDbEntity
8
SK2
62
256
6
ByLayer
370
18
48
1
60
0
100
AcDbMText
10
-138.814634
20
-19.258403
30
0
210
0
220
0
230
1
1
%%c
40
3.5
41
0
44
1.084337
50
90
71
7
72
5
7
iso_b_vert
0
MTEXT
5
15E
100
AcDbEntity
8
SK2
62
256
6
ByLayer
370
18
48
1
60
0
100
AcDbMText
10
-138.814634
20
-12.285747
30
0
210
0
220
0
230
1
1
\W0.6864;31.75
40
3.5
41
0
44
1.084337
50
90
71
7
72
5
7
iso_b_vert
0
MTEXT
5
167
100
AcDbEntity
8
SK2
62
256
6
ByLayer
370
18
48
1
60
0
100
AcDbMText
10
306.559162
20
-4.530622
30
0
210
0
220
0
230
1
1
%%c
40
3.5
41
0
44
1.084337
50
90
71
7
72
5
7
iso_b_vert
0
MTEXT
5
168
100
AcDbEntity
8
SK2
62
256
6
ByLayer
370
18
48
1
60
0
100
AcDbMText
10
306.559162
20
2.442034
30
0
210
0
220
0
230
1
1
\W0.6740;32
40
3.5
41
0
44
1.084337
50
90
71
7
72
5
7
iso_b_vert
0
MTEXT
5
171
100
AcDbEntity
8
SK6
62
256
6
ByLayer
370
18
48
1
60
0
100
AcDbMText
10
60.353735
20
-52.092366
30
0
210
0
220
0
230
1
1
\W0.7809;HT30D-CYA20 412-32
40
3.5
41
0
44
1.084337
50
0
71
7
72
5
7
iso_b_vert
0
HATCH
5
162
100
AcDbEntity
8
SK2
62
256
6
ByLayer
370
13
48
1
60
0
100
AcDbHatch
10
0
20
0
30
0
210
0
220
0
230
1
2
ANSI31
70
0
71
0
91
1
92
5
93
3
72
1
10
-137.25
20
15.86425
11
-136.789216258447
21
12.3642516925532
72
1
10
-136.789216258447
20
12.3642516925532
11
-137.710783741553
21
12.3642483074468
72
1
10
-137.710783741553
20
12.3642483074468
11
-137.25
21
15.86425
97
0
75
0
76
1
52
0
41
0.0062
77
0
78
1
53
45
43
0
44
0
45
-0.0139193969876572
46
0.0139193969876572
79
0
47
0
98
1
10
0
20
0
0
HATCH
5
166
100
AcDbEntity
8
SK2
62
256
6
ByLayer
370
13
48
1
60
0
100
AcDbHatch
10
0
20
0
30
0
210
0
220
0
230
1
2
ANSI31
70
0
71
0
91
1
92
5
93
3
72
1
10
-137.25
20
-15.86425
11
-137.710783741553
21
-12.3642516925532
72
1
10
-137.710783741553
20
-12.3642516925532
11
-136.789216258447
21
-12.3642483074468
72
1
10
-136.789216258447
20
-12.3642483074468
11
-137.25
21
-15.86425
97
0
75
0
76
1
52
0
41
0.0062
77
0
78
1
53
45
43
0
44
0
45
-0.0139193969876572
46
0.0139193969876572
79
0
47
0
98
1
10
0
20
0
0
HATCH
5
16C
100
AcDbEntity
8
SK2
62
256
6
ByLayer
370
13
48
1
60
0
100
AcDbHatch
10
0
20
0
30
0
210
0
220
0
230
1
2
ANSI31
70
0
71
0
91
1
92
5
93
3
72
1
10
308.123795950574
20
15.875
11
308.584579692127
21
12.3750016925532
72
1
10
308.584579692127
20
12.3750016925532
11
307.663012209021
21
12.3749983074468
72
1
10
307.663012209021
20
12.3749983074468
11
308.123795950574
21
15.875
97
0
75
0
76
1
52
0
41
0.0062
77
0
78
1
53
45
43
0
44
0
45
-0.0139193969876572
46
0.0139193969876572
79
0
47
0
98
1
10
0
20
0
0
HATCH
5
170
100
AcDbEntity
8
SK2
62
256
6
ByLayer
370
13
48
1
60
0
100
AcDbHatch
10
0
20
0
30
0
210
0
220
0
230
1
2
ANSI31
70
0
71
0
91
1
92
5
93
3
72
1
10
308.123795950574
20
-15.875
11
307.663012209021
21
-12.3750016925532
72
1
10
307.663012209021
20
-12.3750016925532
11
308.584579692127
21
-12.3749983074468
72
1
10
308.584579692127
20
-12.3749983074468
11
308.123795950574
21
-15.875
97
0
75
0
76
1
52
0
41
0.0062
77
0
78
1
53
45
43
0
44
0
45
-0.0139193969876572
46
0.0139193969876572
79
0
47
0
98
1
10
0
20
0
0
DIMENSION
5
174
100
AcDbEntity
8
SK2
62
256
6
ByLayer
370
18
48
1
60
0
100
AcDbDimension
2
_U0
10
95.25
20
-29.625
30
0
11
190.125
21
-29.625
31
0
70
32
71
1
72
1
41
1
210
0
220
0
230
1
3
Standard
100
AcDbAlignedDimension
13
285
23
15.875
33
0
14
95.25
24
-15.875
34
0
50
0
100
AcDbRotatedDimension
1001
ACAD
1000
DSTYLE
1002
{
1070
   371
1070
    13
1070
   372
1070
    13
1070
   170
1070
     0
1070
   144
1040
1.0
1070
   277
1070
     2
1070
   284
1070
     8
1070
   278
1070
    46
1070
   146
1040
1.0
1070
   345
1005
16
1070
   347
1005
16
1070
   346
1005
16
1070
   344
1005
0
1070
   343
1005
0
1070
   172
1070
     1
1070
    76
1070
     0
1070
    75
1070
     0
1070
   282
1070
     0
1070
   281
1070
     0
1070
    71
1070
     0
1070
    74
1070
     0
1070
   279
1070
     0
1070
   173
1070
     1
1070
   340
1005
15C
1070
   271
1070
     0
1070
   272
1070
     2
1070
    77
1070
     1
1070
    73
1070
     1
1070
   171
1070
     3
1070
   274
1070
     4
1070
   177
1070
     2
1070
   176
1070
     2
1070
   178
1070
     2
1070
    78
1070
     8
1070
    48
1040
-0.1
1070
    41
1040
3.5
1070
   147
1040
1.75
1070
    42
1040
1.5875
1070
    44
1040
2.0
1070
   140
1040
3.5
1002
}
1001
ACAD_DSTYLE_DIM_LINETYPE
1070
   380
1005
16
1001
ACAD_DSTYLE_DIM_EXT1_LINETYPE
1070
   381
1005
16
1001
ACAD_DSTYLE_DIM_EXT2_LINETYPE
1070
   382
1005
16
0
DIMENSION
5
18E
100
AcDbEntity
8
SK2
62
256
6
ByLayer
370
18
48
1
60
0
100
AcDbDimension
2
_U1
10
0
20
-39.625
30
0
11
142.5
21
-39.625
31
0
70
32
71
1
72
1
41
1
210
0
220
0
230
1
3
Standard
100
AcDbAlignedDimension
13
285
23
15.875
33
0
14
0
24
-15.875
34
0
50
0
100
AcDbRotatedDimension
1001
ACAD
1000
DSTYLE
1002
{
1070
   371
1070
    13
1070
   372
1070
    13
1070
   170
1070
     0
1070
   144
1040
1.0
1070
   277
1070
     2
1070
   284
1070
     8
1070
   278
1070
    46
1070
   146
1040
1.0
1070
   345
1005
16
1070
   347
1005
16
1070
   346
1005
16
1070
   344
1005
0
1070
   343
1005
0
1070
   172
1070
     1
1070
    76
1070
     0
1070
    75
1070
     0
1070
   282
1070
     0
1070
   281
1070
     0
1070
    71
1070
     0
1070
    74
1070
     0
1070
   279
1070
     0
1070
   173
1070
     1
1070
   340
1005
15C
1070
   271
1070
     2
1070
   272
1070
     2
1070
    77
1070
     1
1070
    73
1070
     1
1070
   171
1070
     3
1070
   274
1070
     4
1070
   177
1070
     2
1070
   176
1070
     2
1070
   178
1070
     2
1070
    78
1070
     8
1070
    48
1040
-0.1
1070
    41
1040
3.5
1070
   147
1040
1.75
1070
    42
1040
1.5875
1070
    44
1040
2.0
1070
   140
1040
3.5
1002
}
1001
ACAD_DSTYLE_DIM_LINETYPE
1070
   380
1005
16
1001
ACAD_DSTYLE_DIM_EXT1_LINETYPE
1070
   381
1005
16
1001
ACAD_DSTYLE_DIM_EXT2_LINETYPE
1070
   382
1005
16
0
DIMENSION
5
1A7
100
AcDbEntity
8
SK2
62
256
6
ByLayer
370
18
48
1
60
0
100
AcDbDimension
2
_U2
10
285
20
26.125
30
0
11
79
21
26.125
31
0
70
32
71
1
72
1
41
1
210
0
220
0
230
1
3
Standard
100
AcDbAlignedDimension
13
-127
23
6.405561
33
0
14
285
24
6.405561
34
0
50
0
100
AcDbRotatedDimension
1001
ACAD
1000
DSTYLE
1002
{
1070
   371
1070
    13
1070
   372
1070
    13
1070
   170
1070
     0
1070
   144
1040
1.0
1070
   277
1070
     2
1070
   284
1070
     8
1070
   278
1070
    46
1070
   146
1040
1.0
1070
   345
1005
16
1070
   347
1005
16
1070
   346
1005
16
1070
   344
1005
0
1070
   343
1005
0
1070
   172
1070
     1
1070
    76
1070
     0
1070
    75
1070
     0
1070
   282
1070
     0
1070
   281
1070
     0
1070
    71
1070
     0
1070
    74
1070
     0
1070
   279
1070
     0
1070
   173
1070
     1
1070
   340
1005
15C
1070
   271
1070
     2
1070
   272
1070
     2
1070
    77
1070
     1
1070
    73
1070
     1
1070
   171
1070
     3
1070
   274
1070
     4
1070
   177
1070
     2
1070
   176
1070
     2
1070
   178
1070
     2
1070
    78
1070
     8
1070
    48
1040
-0.1
1070
    41
1040
3.5
1070
   147
1040
1.75
1070
    42
1040
1.5875
1070
    44
1040
2.0
1070
   140
1040
3.5
1002
}
1001
ACAD_DSTYLE_DIM_LINETYPE
1070
   380
1005
16
1001
ACAD_DSTYLE_DIM_EXT1_LINETYPE
1070
   381
1005
16
1001
ACAD_DSTYLE_DIM_EXT2_LINETYPE
1070
   382
1005
16
0
ENDSEC
0
SECTION
2
OBJECTS
0
DICTIONARY
5
22f
330
0
100
AcDbDictionary
280
0
281
1
3
ACAD_GROUP
350
230
3
ACAD_MLINESTYLE
350
231
0
DICTIONARY
5
230
330
0
100
AcDbDictionary
280
0
281
1
0
DICTIONARY
5
231
330
0
100
AcDbDictionary
280
0
281
1
3
Standard
350
18
0
MLINESTYLE
5
18
330
231
100
AcDbMlineStyle
2
Standard
70
0
3

62
256
51
90
52
90
71
2
49
-0.5
62
256
6
ByLayer
49
0.5
62
256
6
ByLayer
0
RASTERVARIABLES
5
21d
330

100
AcDbRasterVariables
90
0
70
1
71
1
72
1
0
ENDSEC
0
EOF
