0
SECTION
2
HEADER
9
$ACADVER
1
AC1015
9
$DWGCODEPAGE
3
ANSI_1252
9
$HANDSEED
5
2a0
9
$ANGBASE
50
0
9
$ANGDIR
70
0
9
$ATTMODE
70
1
9
$AUNITS
70
0
9
$AUPREC
70
0
9
$CECOLOR
62
256
9
$CELTSCALE
40
1
9
$CELTYPE
6
ByLayer
9
$CELWEIGHT
370
18
9
$CLAYER
8
0
9
$CMLJUST
70
0
9
$CMLSCALE
40
1
9
$CMLSTYLE
2
Standard
9
$DIMSTYLE
2
Standard
9
$TEXTSIZE
40
0.2
9
$TEXTSTYLE
7
Standard
9
$LUNITS
70
2
9
$LUPREC
70
4
9
$EXTNAMES
290
1
9
$INSUNITS
70
4
9
$LTSCALE
40
1
9
$LWDISPLAY
290
1
9
$PDMODE
70
0
9
$PDSIZE
40
0
9
$PLINEGEN
70
0
0
ENDSEC
0
SECTION
2
CLASSES
0
CLASS
1
RASTERVARIABLES
2
AcDbRasterVariables
3
ISM
90
0
280
0
281
0
0
ENDSEC
0
SECTION
2
TABLES
0
TABLE
2
VPORT
5
296
100
AcDbSymbolTable
0
VPORT
5
1
100
AcDbSymbolTableRecord
100
AcDbViewportTableRecord
2
*Active
70
0
10
0
20
0
11
1
21
1
12
-1
22
1
13
0
23
0
14
0.5
24
0.5
15
10
25
10
16
0
26
0
36
1
17
0
27
0
37
0
0
ENDTAB
0
TABLE
2
LTYPE
5
297
100
AcDbSymbolTable
0
LTYPE
5
14
100
AcDbSymbolTableRecord
100
AcDbLinetypeTableRecord
70
0
2
ByBlock
3

72
65
73
0
40
0
0
LTYPE
5
15
100
AcDbSymbolTableRecord
100
AcDbLinetypeTableRecord
70
0
2
ByLayer
3

72
65
73
0
40
0
0
LTYPE
5
16
100
AcDbSymbolTableRecord
100
AcDbLinetypeTableRecord
70
0
2
Continuous
3
Solid line
72
65
73
0
40
0
0
LTYPE
5
6E
100
AcDbSymbolTableRecord
100
AcDbLinetypeTableRecord
70
0
2
CENTER
3
____ _ ____ _ ____ _ ____
72
65
73
4
40
47.5
49
22
74
0
49
-8.5
74
0
49
8.5
74
0
49
-8.5
74
0
0
LTYPE
5
6F
100
AcDbSymbolTableRecord
100
AcDbLinetypeTableRecord
70
0
2
DASHED
3
__ __ __ __ __ __ __ __ __
72
65
73
2
40
25.72
49
12.86
74
0
49
-12.86
74
0
0
ENDTAB
0
TABLE
2
LAYER
5
298
100
AcDbSymbolTable
0
LAYER
5
10
100
AcDbSymbolTableRecord
100
AcDbLayerTableRecord
2
0
70
0
62
7
6
Continuous
290
1
370
-3
390
0
0
LAYER
5
71
100
AcDbSymbolTableRecord
100
AcDbLayerTableRecord
2
2
70
0
62
7
6
Continuous
290
1
370
-3
390
0
0
LAYER
5
99
100
AcDbSymbolTableRecord
100
AcDbLayerTableRecord
2
80
70
0
62
-6
6
Continuous
290
1
370
-3
390
0
0
LAYER
5
9B
100
AcDbSymbolTableRecord
100
AcDbLayerTableRecord
2
81
70
0
62
-3
6
Continuous
290
1
370
-3
390
0
0
LAYER
5
9E
100
AcDbSymbolTableRecord
100
AcDbLayerTableRecord
2
1
70
0
62
4
6
Continuous
290
1
370
-3
390
0
0
LAYER
5
AA
100
AcDbSymbolTableRecord
100
AcDbLayerTableRecord
2
4
70
0
62
-2
6
CENTER
290
1
370
-3
390
0
0
LAYER
5
1C1
100
AcDbSymbolTableRecord
100
AcDbLayerTableRecord
2
Defpoints
70
0
62
7
6
Continuous
290
0
370
-3
390
0
0
LAYER
5
282
100
AcDbSymbolTableRecord
100
AcDbLayerTableRecord
2
SK4
70
0
62
2
6
CENTER
290
1
370
-3
390
0
0
LAYER
5
283
100
AcDbSymbolTableRecord
100
AcDbLayerTableRecord
2
SK1
70
0
62
4
6
Continuous
290
1
370
-3
390
0
0
LAYER
5
284
100
AcDbSymbolTableRecord
100
AcDbLayerTableRecord
2
SK2
70
0
62
7
6
Continuous
290
1
370
-3
390
0
0
LAYER
5
285
100
AcDbSymbolTableRecord
100
AcDbLayerTableRecord
2
SK6
70
0
62
5
6
Continuous
290
1
370
-3
390
0
0
ENDTAB
0
TABLE
2
STYLE
5
299
100
AcDbSymbolTable
0
STYLE
5
11
100
AcDbSymbolTableRecord
100
AcDbTextStyleTableRecord
2
Standard
3
txt
70
0
71
0
40
0
41
1
42
0
50
0
0
STYLE
5
1A6
100
AcDbSymbolTableRecord
100
AcDbTextStyleTableRecord
2
iso_b_vert
3
simplex.shx
70
0
71
0
40
0
41
1
42
0
50
0
0
STYLE
5
1A7
100
AcDbSymbolTableRecord
100
AcDbTextStyleTableRecord
2
DWGDirectTextStyle
3
simplex
70
0
71
0
40
0
41
1
42
0
50
0
0
ENDTAB
0
TABLE
2
DIMSTYLE
5
29a
100
AcDbSymbolTable
100
AcDbDimStyleTable
0
DIMSTYLE
105
27
100
AcDbSymbolTableRecord
100
AcDbDimStyleTableRecord
2
Standard
70
0
3
<>
41
0.18
42
0.0625
44
0.18
140
0.18
147
0.09
73
0
74
0
77
1
271
2
275
0
278
52
280
0
340
11
0
ENDTAB
0
TABLE
2
VIEW
5
29b
100
AcDbSymbolTable
0
ENDTAB
0
TABLE
2
UCS
5
29c
100
AcDbSymbolTable
0
ENDTAB
0
TABLE
2
APPID
5
29d
100
AcDbSymbolTable
0
APPID
5
12
100
AcDbSymbolTableRecord
100
AcDbRegAppTableRecord
2
ACAD
70
0
0
APPID
5
1BD
100
AcDbSymbolTableRecord
100
AcDbRegAppTableRecord
2
ACAD_DSTYLE_DIMBREAK
70
0
0
APPID
5
241
100
AcDbSymbolTableRecord
100
AcDbRegAppTableRecord
2
ACAD_DSTYLE_DIM_LINETYPE
70
0
0
APPID
5
242
100
AcDbSymbolTableRecord
100
AcDbRegAppTableRecord
2
ACAD_DSTYLE_DIM_EXT1_LINETYPE
70
0
0
APPID
5
243
100
AcDbSymbolTableRecord
100
AcDbRegAppTableRecord
2
ACAD_DSTYLE_DIM_EXT2_LINETYPE
70
0
0
APPID
5
27E
100
AcDbSymbolTableRecord
100
AcDbRegAppTableRecord
2
ACAD_MLEADERVER
70
0
0
ENDTAB
0
TABLE
2
BLOCK_RECORD
5
29e
100
AcDbSymbolTable
0
BLOCK_RECORD
5
1F
100
AcDbSymbolTableRecord
100
AcDbBlockTableRecord
2
*Model_Space
340
0
70
0
0
BLOCK_RECORD
5
1B
100
AcDbSymbolTableRecord
100
AcDbBlockTableRecord
2
*Paper_Space
340
0
70
0
0
BLOCK_RECORD
5
23
100
AcDbSymbolTableRecord
100
AcDbBlockTableRecord
2
*Paper_Space0
340
0
70
0
0
BLOCK_RECORD
5
1C2
100
AcDbSymbolTableRecord
100
AcDbBlockTableRecord
2
*D1
340
0
70
0
0
BLOCK_RECORD
5
1D0
100
AcDbSymbolTableRecord
100
AcDbBlockTableRecord
2
_U0
340
0
70
0
0
BLOCK_RECORD
5
1DC
100
AcDbSymbolTableRecord
100
AcDbBlockTableRecord
2
*D3
340
0
70
0
0
BLOCK_RECORD
5
1E8
100
AcDbSymbolTableRecord
100
AcDbBlockTableRecord
2
_U1
340
0
70
0
0
BLOCK_RECORD
5
1F5
100
AcDbSymbolTableRecord
100
AcDbBlockTableRecord
2
*D5
340
0
70
0
0
BLOCK_RECORD
5
201
100
AcDbSymbolTableRecord
100
AcDbBlockTableRecord
2
_U2
340
0
70
0
0
BLOCK_RECORD
5
20E
100
AcDbSymbolTableRecord
100
AcDbBlockTableRecord
2
*D7
340
0
70
0
0
BLOCK_RECORD
5
21A
100
AcDbSymbolTableRecord
100
AcDbBlockTableRecord
2
_U3
340
0
70
0
0
ENDTAB
0
ENDSEC
0
SECTION
2
BLOCKS
0
BLOCK
5
20
100
AcDbEntity
8
0
100
AcDbBlockBegin
2
*Model_Space
70
0
10
0
20
0
30
0
3
*Model_Space
0
ENDBLK
5
21
100
AcDbEntity
8
0
100
AcDbBlockEnd
0
BLOCK
5
1C
100
AcDbEntity
8
0
100
AcDbBlockBegin
2
*Paper_Space
70
0
10
0
20
0
30
0
3
*Paper_Space
0
ENDBLK
5
1D
100
AcDbEntity
8
0
100
AcDbBlockEnd
0
BLOCK
5
24
100
AcDbEntity
8
0
100
AcDbBlockBegin
2
*Paper_Space0
70
0
10
0
20
0
30
0
3
*Paper_Space0
0
ENDBLK
5
25
100
AcDbEntity
8
0
100
AcDbBlockEnd
0
BLOCK
5
1C3
100
AcDbEntity
8
0
100
AcDbBlockBegin
2
*D1
70
1
10
0
20
0
30
0
3
*D1
0
LINE
5
1C5
100
AcDbEntity
8
0
62
256
6
ByLayer
370
-2
48
1
60
0
100
AcDbLine
10
414.5875
20
0
30
0
11
439.123181
21
0
31
0
39
0
210
0
220
0
230
1
0
LINE
5
1C6
100
AcDbEntity
8
0
62
256
6
ByLayer
370
-2
48
1
60
0
100
AcDbLine
10
414.5875
20
11.75
30
0
11
439.123181
21
11.75
31
0
39
0
210
0
220
0
230
1
0
LINE
5
1C7
100
AcDbEntity
8
0
62
256
6
ByLayer
370
-2
48
1
60
0
100
AcDbLine
10
437.123181
20
11.75
30
0
11
437.123181
21
42.75
31
0
39
0
210
0
220
0
230
1
0
LINE
5
1C8
100
AcDbEntity
8
0
62
256
6
ByLayer
370
-2
48
1
60
0
100
AcDbLine
10
437.123181
20
-3.5
30
0
11
437.123181
21
-7
31
0
39
0
210
0
220
0
230
1
0
LINE
5
1C9
100
AcDbEntity
8
0
62
256
6
ByLayer
370
-2
48
1
60
0
100
AcDbLine
10
437.123181
20
15.25
30
0
11
437.123181
21
18.75
31
0
39
0
210
0
220
0
230
1
0
SOLID
5
1CA
100
AcDbEntity
8
0
62
256
6
ByLayer
370
-1
48
1
60
0
100
AcDbTrace
10
437.706514
20
-3.5
30
0
11
436.539847
21
-3.5
31
0
12
437.123181
22
0
32
0
13
437.123181
23
0
33
0
39
0
210
0
220
0
230
1
0
SOLID
5
1CB
100
AcDbEntity
8
0
62
256
6
ByLayer
370
-1
48
1
60
0
100
AcDbTrace
10
436.539847
20
15.25
30
0
11
437.706514
21
15.25
31
0
12
437.123181
22
11.75
32
0
13
437.123181
23
11.75
33
0
39
0
210
0
220
0
230
1
0
MTEXT
5
1CC
100
AcDbEntity
8
0
62
256
6
ByLayer
370
18
48
1
60
0
100
AcDbMText
10
430.123181
20
30.75
30
0
210
0
220
0
230
1
1
\A1;11.75
40
3.5
41
0
44
1
50
90
71
5
72
5
7
iso_b_vert
0
POINT
5
1CD
100
AcDbEntity
8
Defpoints
62
0
6
ByLayer
370
-1
48
1
60
0
100
AcDbPoint
10
413
20
0
30
0
39
0
210
0
220
0
230
1
50
360
0
POINT
5
1CE
100
AcDbEntity
8
Defpoints
62
0
6
ByLayer
370
-1
48
1
60
0
100
AcDbPoint
10
413
20
11.75
30
0
39
0
210
0
220
0
230
1
50
360
0
POINT
5
1CF
100
AcDbEntity
8
Defpoints
62
0
6
ByLayer
370
-1
48
1
60
0
100
AcDbPoint
10
437.123181
20
11.75
30
0
39
0
210
0
220
0
230
1
50
360
0
ENDBLK
5
1C4
100
AcDbEntity
8
0
100
AcDbBlockEnd
0
BLOCK
5
1D7
100
AcDbEntity
8
0
100
AcDbBlockBegin
2
_U0
70
0
10
0
20
0
30
0
3
_U0
0
MTEXT
5
1D1
100
AcDbEntity
8
SK2
62
256
6
ByLayer
370
18
48
1
60
0
100
AcDbMText
10
436.433547
20
16.9075
30
0
210
0
220
0
230
1
1
\W0.6261;11.75
40
3.5
41
0
44
1.084337
50
90
71
7
72
5
7
iso_b_vert
0
LINE
5
1D2
100
AcDbEntity
8
SK2
62
256
6
ByLayer
370
13
48
1
60
0
100
AcDbLine
10
414.5875
20
0
30
0
11
439.123181
21
0
31
0
39
0
210
0
220
0
230
1
0
LINE
5
1D3
100
AcDbEntity
8
SK2
62
256
6
ByLayer
370
13
48
1
60
0
100
AcDbLine
10
414.5875
20
11.75
30
0
11
439.123181
21
11.75
31
0
39
0
210
0
220
0
230
1
0
LINE
5
1D4
100
AcDbEntity
8
SK2
62
256
6
ByLayer
370
13
48
1
60
0
100
AcDbLine
10
437.123181
20
0
30
0
11
437.123181
21
25.830131
31
0
39
0
210
0
220
0
230
1
0
SOLID
5
1D5
100
AcDbEntity
8
SK2
62
256
6
ByLayer
370
18
48
1
60
0
100
AcDbTrace
10
437.123181
20
0
30
0
11
436.662397
21
3.499998
31
0
12
437.583964
22
3.500002
32
0
13
437.583964
23
3.500002
33
0
39
0
210
0
220
0
230
1
0
SOLID
5
1D6
100
AcDbEntity
8
SK2
62
256
6
ByLayer
370
18
48
1
60
0
100
AcDbTrace
10
437.123181
20
11.75
30
0
11
437.583964
21
8.250002
31
0
12
436.662397
22
8.249998
32
0
13
436.662397
23
8.249998
33
0
39
0
210
0
220
0
230
1
0
ENDBLK
5
1D8
100
AcDbEntity
8
0
100
AcDbBlockEnd
0
BLOCK
5
1DD
100
AcDbEntity
8
0
100
AcDbBlockBegin
2
*D3
70
1
10
0
20
0
30
0
3
*D3
0
LINE
5
1DF
100
AcDbEntity
8
0
62
256
6
ByLayer
370
-2
48
1
60
0
100
AcDbLine
10
413
20
30.1625
30
0
11
413
21
-47.5
31
0
39
0
210
0
220
0
230
1
0
LINE
5
1E0
100
AcDbEntity
8
0
62
256
6
ByLayer
370
-2
48
1
60
0
100
AcDbLine
10
190.5
20
-33.3375
30
0
11
190.5
21
-47.5
31
0
39
0
210
0
220
0
230
1
0
LINE
5
1E1
100
AcDbEntity
8
0
62
256
6
ByLayer
370
-2
48
1
60
0
100
AcDbLine
10
409.5
20
-45.5
30
0
11
194
21
-45.5
31
0
39
0
210
0
220
0
230
1
0
SOLID
5
1E2
100
AcDbEntity
8
0
62
256
6
ByLayer
370
-1
48
1
60
0
100
AcDbTrace
10
409.5
20
-46.083333
30
0
11
409.5
21
-44.916667
31
0
12
413
22
-45.5
32
0
13
413
23
-45.5
33
0
39
0
210
0
220
0
230
1
0
SOLID
5
1E3
100
AcDbEntity
8
0
62
256
6
ByLayer
370
-1
48
1
60
0
100
AcDbTrace
10
194
20
-44.916667
30
0
11
194
21
-46.083333
31
0
12
190.5
22
-45.5
32
0
13
190.5
23
-45.5
33
0
39
0
210
0
220
0
230
1
0
MTEXT
5
1E4
100
AcDbEntity
8
0
62
256
6
ByLayer
370
18
48
1
60
0
100
AcDbMText
10
301.75
20
-38.5
30
0
210
0
220
0
230
1
1
\A1;223
40
3.5
41
0
44
1
50
0
71
5
72
5
7
iso_b_vert
0
POINT
5
1E5
100
AcDbEntity
8
Defpoints
62
0
6
ByLayer
370
-1
48
1
60
0
100
AcDbPoint
10
413
20
31.75
30
0
39
0
210
0
220
0
230
1
50
360
0
POINT
5
1E6
100
AcDbEntity
8
Defpoints
62
0
6
ByLayer
370
-1
48
1
60
0
100
AcDbPoint
10
190.5
20
-31.75
30
0
39
0
210
0
220
0
230
1
50
360
0
POINT
5
1E7
100
AcDbEntity
8
Defpoints
62
0
6
ByLayer
370
-1
48
1
60
0
100
AcDbPoint
10
190.5
20
-45.5
30
0
39
0
210
0
220
0
230
1
50
360
0
ENDBLK
5
1DE
100
AcDbEntity
8
0
100
AcDbBlockEnd
0
BLOCK
5
1F0
100
AcDbEntity
8
0
100
AcDbBlockBegin
2
_U1
70
0
10
0
20
0
30
0
3
_U1
0
MTEXT
5
1E9
100
AcDbEntity
8
SK2
62
256
6
ByLayer
370
18
48
1
60
0
100
AcDbMText
10
292.836301
20
-44.467366
30
0
210
0
220
0
230
1
1
\W0.7621;OHN
40
3.5
41
0
44
1.084337
50
0
71
7
72
5
7
iso_b_vert
0
MTEXT
5
1EA
100
AcDbEntity
8
SK2
62
256
6
ByLayer
370
18
48
1
60
0
100
AcDbMText
10
304.2383
20
-44.467366
30
0
210
0
220
0
230
1
1
\W0.7138;222
40
3.5
41
0
44
1.084337
50
0
71
7
72
5
7
iso_b_vert
0
LINE
5
1EB
100
AcDbEntity
8
SK2
62
256
6
ByLayer
370
13
48
1
60
0
100
AcDbLine
10
413
20
30.1625
30
0
11
413
21
-47.5
31
0
39
0
210
0
220
0
230
1
0
LINE
5
1EC
100
AcDbEntity
8
SK2
62
256
6
ByLayer
370
13
48
1
60
0
100
AcDbLine
10
190.5
20
-33.3375
30
0
11
190.5
21
-47.5
31
0
39
0
210
0
220
0
230
1
0
LINE
5
1ED
100
AcDbEntity
8
SK2
62
256
6
ByLayer
370
13
48
1
60
0
100
AcDbLine
10
413
20
-45.5
30
0
11
190.5
21
-45.5
31
0
39
0
210
0
220
0
230
1
0
SOLID
5
1EE
100
AcDbEntity
8
SK2
62
256
6
ByLayer
370
18
48
1
60
0
100
AcDbTrace
10
413
20
-45.5
30
0
11
409.500002
21
-45.960784
31
0
12
409.499998
22
-45.039216
32
0
13
409.499998
23
-45.039216
33
0
39
0
210
0
220
0
230
1
0
SOLID
5
1EF
100
AcDbEntity
8
SK2
62
256
6
ByLayer
370
18
48
1
60
0
100
AcDbTrace
10
190.5
20
-45.5
30
0
11
193.999998
21
-45.039216
31
0
12
194.000002
22
-45.960784
32
0
13
194.000002
23
-45.960784
33
0
39
0
210
0
220
0
230
1
0
ENDBLK
5
1F1
100
AcDbEntity
8
0
100
AcDbBlockEnd
0
BLOCK
5
1F6
100
AcDbEntity
8
0
100
AcDbBlockBegin
2
*D5
70
1
10
0
20
0
30
0
3
*D5
0
LINE
5
1F8
100
AcDbEntity
8
0
62
256
6
ByLayer
370
-2
48
1
60
0
100
AcDbLine
10
413
20
30.1625
30
0
11
413
21
-57.5
31
0
39
0
210
0
220
0
230
1
0
LINE
5
1F9
100
AcDbEntity
8
0
62
256
6
ByLayer
370
-2
48
1
60
0
100
AcDbLine
10
0
20
-33.3375
30
0
11
0
21
-57.5
31
0
39
0
210
0
220
0
230
1
0
LINE
5
1FA
100
AcDbEntity
8
0
62
256
6
ByLayer
370
-2
48
1
60
0
100
AcDbLine
10
409.5
20
-55.5
30
0
11
3.5
21
-55.5
31
0
39
0
210
0
220
0
230
1
0
SOLID
5
1FB
100
AcDbEntity
8
0
62
256
6
ByLayer
370
-1
48
1
60
0
100
AcDbTrace
10
409.5
20
-56.083333
30
0
11
409.5
21
-54.916667
31
0
12
413
22
-55.5
32
0
13
413
23
-55.5
33
0
39
0
210
0
220
0
230
1
0
SOLID
5
1FC
100
AcDbEntity
8
0
62
256
6
ByLayer
370
-1
48
1
60
0
100
AcDbTrace
10
3.5
20
-54.916667
30
0
11
3.5
21
-56.083333
31
0
12
0
22
-55.5
32
0
13
0
23
-55.5
33
0
39
0
210
0
220
0
230
1
0
MTEXT
5
1FD
100
AcDbEntity
8
0
62
256
6
ByLayer
370
18
48
1
60
0
100
AcDbMText
10
206.5
20
-48.5
30
0
210
0
220
0
230
1
1
\A1;413
40
3.5
41
0
44
1
50
0
71
5
72
5
7
iso_b_vert
0
POINT
5
1FE
100
AcDbEntity
8
Defpoints
62
0
6
ByLayer
370
-1
48
1
60
0
100
AcDbPoint
10
413
20
31.75
30
0
39
0
210
0
220
0
230
1
50
360
0
POINT
5
1FF
100
AcDbEntity
8
Defpoints
62
0
6
ByLayer
370
-1
48
1
60
0
100
AcDbPoint
10
0
20
-31.75
30
0
39
0
210
0
220
0
230
1
50
360
0
POINT
5
200
100
AcDbEntity
8
Defpoints
62
0
6
ByLayer
370
-1
48
1
60
0
100
AcDbPoint
10
0
20
-55.5
30
0
39
0
210
0
220
0
230
1
50
360
0
ENDBLK
5
1F7
100
AcDbEntity
8
0
100
AcDbBlockEnd
0
BLOCK
5
209
100
AcDbEntity
8
0
100
AcDbBlockBegin
2
_U2
70
0
10
0
20
0
30
0
3
_U2
0
MTEXT
5
202
100
AcDbEntity
8
SK2
62
256
6
ByLayer
370
18
48
1
60
0
100
AcDbMText
10
197.632234
20
-54.467366
30
0
210
0
220
0
230
1
1
\W0.8176;OHX
40
3.5
41
0
44
1.084337
50
0
71
7
72
5
7
iso_b_vert
0
MTEXT
5
203
100
AcDbEntity
8
SK2
62
256
6
ByLayer
370
18
48
1
60
0
100
AcDbMText
10
209.4487
20
-54.467366
30
0
210
0
220
0
230
1
1
\W0.6620;413
40
3.5
41
0
44
1.084337
50
0
71
7
72
5
7
iso_b_vert
0
LINE
5
204
100
AcDbEntity
8
SK2
62
256
6
ByLayer
370
13
48
1
60
0
100
AcDbLine
10
413
20
30.1625
30
0
11
413
21
-57.5
31
0
39
0
210
0
220
0
230
1
0
LINE
5
205
100
AcDbEntity
8
SK2
62
256
6
ByLayer
370
13
48
1
60
0
100
AcDbLine
10
0
20
-33.3375
30
0
11
0
21
-57.5
31
0
39
0
210
0
220
0
230
1
0
LINE
5
206
100
AcDbEntity
8
SK2
62
256
6
ByLayer
370
13
48
1
60
0
100
AcDbLine
10
413
20
-55.5
30
0
11
0
21
-55.5
31
0
39
0
210
0
220
0
230
1
0
SOLID
5
207
100
AcDbEntity
8
SK2
62
256
6
ByLayer
370
18
48
1
60
0
100
AcDbTrace
10
413
20
-55.5
30
0
11
409.500002
21
-55.960784
31
0
12
409.499998
22
-55.039216
32
0
13
409.499998
23
-55.039216
33
0
39
0
210
0
220
0
230
1
0
SOLID
5
208
100
AcDbEntity
8
SK2
62
256
6
ByLayer
370
18
48
1
60
0
100
AcDbTrace
10
0
20
-55.5
30
0
11
3.499998
21
-55.039216
31
0
12
3.500002
22
-55.960784
32
0
13
3.500002
23
-55.960784
33
0
39
0
210
0
220
0
230
1
0
ENDBLK
5
20A
100
AcDbEntity
8
0
100
AcDbBlockEnd
0
BLOCK
5
20F
100
AcDbEntity
8
0
100
AcDbBlockBegin
2
*D7
70
1
10
0
20
0
30
0
3
*D7
0
LINE
5
211
100
AcDbEntity
8
0
62
256
6
ByLayer
370
-2
48
1
60
0
100
AcDbLine
10
-254
20
-11.7125
30
0
11
-254
21
44
31
0
39
0
210
0
220
0
230
1
0
LINE
5
212
100
AcDbEntity
8
0
62
256
6
ByLayer
370
-2
48
1
60
0
100
AcDbLine
10
413
20
-11.7125
30
0
11
413
21
44
31
0
39
0
210
0
220
0
230
1
0
LINE
5
213
100
AcDbEntity
8
0
62
256
6
ByLayer
370
-2
48
1
60
0
100
AcDbLine
10
-250.5
20
42
30
0
11
409.5
21
42
31
0
39
0
210
0
220
0
230
1
0
SOLID
5
214
100
AcDbEntity
8
0
62
256
6
ByLayer
370
-1
48
1
60
0
100
AcDbTrace
10
-250.5
20
42.583333
30
0
11
-250.5
21
41.416667
31
0
12
-254
22
42
32
0
13
-254
23
42
33
0
39
0
210
0
220
0
230
1
0
SOLID
5
215
100
AcDbEntity
8
0
62
256
6
ByLayer
370
-1
48
1
60
0
100
AcDbTrace
10
409.5
20
41.416667
30
0
11
409.5
21
42.583333
31
0
12
413
22
42
32
0
13
413
23
42
33
0
39
0
210
0
220
0
230
1
0
MTEXT
5
216
100
AcDbEntity
8
0
62
256
6
ByLayer
370
18
48
1
60
0
100
AcDbMText
10
79.5
20
49
30
0
210
0
220
0
230
1
1
\A1;667
40
3.5
41
0
44
1
50
0
71
5
72
5
7
iso_b_vert
0
POINT
5
217
100
AcDbEntity
8
Defpoints
62
0
6
ByLayer
370
-1
48
1
60
0
100
AcDbPoint
10
-254
20
-13.3
30
0
39
0
210
0
220
0
230
1
50
360
0
POINT
5
218
100
AcDbEntity
8
Defpoints
62
0
6
ByLayer
370
-1
48
1
60
0
100
AcDbPoint
10
413
20
-13.3
30
0
39
0
210
0
220
0
230
1
50
360
0
POINT
5
219
100
AcDbEntity
8
Defpoints
62
0
6
ByLayer
370
-1
48
1
60
0
100
AcDbPoint
10
413
20
42
30
0
39
0
210
0
220
0
230
1
50
360
0
ENDBLK
5
210
100
AcDbEntity
8
0
100
AcDbBlockEnd
0
BLOCK
5
221
100
AcDbEntity
8
0
100
AcDbBlockBegin
2
_U3
70
0
10
0
20
0
30
0
3
_U3
0
MTEXT
5
21B
100
AcDbEntity
8
SK2
62
256
6
ByLayer
370
18
48
1
60
0
100
AcDbMText
10
76.287301
20
43.032634
30
0
210
0
220
0
230
1
1
\W0.7138;667
40
3.5
41
0
44
1.084337
50
0
71
7
72
5
7
iso_b_vert
0
LINE
5
21C
100
AcDbEntity
8
SK2
62
256
6
ByLayer
370
13
48
1
60
0
100
AcDbLine
10
-254
20
-11.7125
30
0
11
-254
21
44
31
0
39
0
210
0
220
0
230
1
0
LINE
5
21D
100
AcDbEntity
8
SK2
62
256
6
ByLayer
370
13
48
1
60
0
100
AcDbLine
10
413
20
-11.7125
30
0
11
413
21
44
31
0
39
0
210
0
220
0
230
1
0
LINE
5
21E
100
AcDbEntity
8
SK2
62
256
6
ByLayer
370
13
48
1
60
0
100
AcDbLine
10
-254
20
42
30
0
11
413
21
42
31
0
39
0
210
0
220
0
230
1
0
SOLID
5
21F
100
AcDbEntity
8
SK2
62
256
6
ByLayer
370
18
48
1
60
0
100
AcDbTrace
10
-254
20
42
30
0
11
-250.500002
21
42.460784
31
0
12
-250.499998
22
41.539216
32
0
13
-250.499998
23
41.539216
33
0
39
0
210
0
220
0
230
1
0
SOLID
5
220
100
AcDbEntity
8
SK2
62
256
6
ByLayer
370
18
48
1
60
0
100
AcDbTrace
10
413
20
42
30
0
11
409.500002
21
41.539216
31
0
12
409.499998
22
42.460784
32
0
13
409.499998
23
42.460784
33
0
39
0
210
0
220
0
230
1
0
ENDBLK
5
222
100
AcDbEntity
8
0
100
AcDbBlockEnd
0
ENDSEC
0
SECTION
2
ENTITIES
0
ARC
5
141
100
AcDbEntity
8
1
62
256
6
ByLayer
370
18
48
1
60
0
100
AcDbCircle
39
0
10
417.8
20
-1.349495
30
0
40
0.2
210
0
220
0
230
1
100
AcDbArc
50
0
51
90
0
ARC
5
142
100
AcDbEntity
8
1
62
256
6
ByLayer
370
18
48
1
60
0
100
AcDbCircle
39
0
10
417.8
20
5.050505
30
0
40
0.2
210
0
220
0
230
1
100
AcDbArc
50
270
51
0
0
ARC
5
143
100
AcDbEntity
8
1
62
256
6
ByLayer
370
18
48
1
60
0
100
AcDbCircle
39
0
10
423.4
20
-2.549495
30
0
40
0.6
210
0
220
0
230
1
100
AcDbArc
50
270
51
0
0
ARC
5
144
100
AcDbEntity
8
1
62
256
6
ByLayer
370
18
48
1
60
0
100
AcDbCircle
39
0
10
423.4
20
6.250505
30
0
40
0.6
210
0
220
0
230
1
100
AcDbArc
50
0
51
90
0
ARC
5
145
100
AcDbEntity
8
1
62
256
6
ByLayer
370
18
48
1
60
0
100
AcDbCircle
39
0
10
411.5
20
-8.75
30
0
40
0.5
210
0
220
0
230
1
100
AcDbArc
50
90
51
180
0
ARC
5
146
100
AcDbEntity
8
1
62
256
6
ByLayer
370
18
48
1
60
0
100
AcDbCircle
39
0
10
409.4
20
-31.35
30
0
40
0.4
210
0
220
0
230
1
100
AcDbArc
50
180
51
270
0
ARC
5
147
100
AcDbEntity
8
1
62
256
6
ByLayer
370
18
48
1
60
0
100
AcDbCircle
39
0
10
409.4
20
31.35
30
0
40
0.4
210
0
220
0
230
1
100
AcDbArc
50
90
51
180
0
ARC
5
148
100
AcDbEntity
8
1
62
256
6
ByLayer
370
18
48
1
60
0
100
AcDbCircle
39
0
10
417.8
20
18.449495
30
0
40
0.2
210
0
220
0
230
1
100
AcDbArc
50
0
51
90
0
ARC
5
149
100
AcDbEntity
8
1
62
256
6
ByLayer
370
18
48
1
60
0
100
AcDbCircle
39
0
10
417.8
20
24.849495
30
0
40
0.2
210
0
220
0
230
1
100
AcDbArc
50
270
51
0
0
ARC
5
14A
100
AcDbEntity
8
1
62
256
6
ByLayer
370
18
48
1
60
0
100
AcDbCircle
39
0
10
423.4
20
17.249495
30
0
40
0.6
210
0
220
0
230
1
100
AcDbArc
50
270
51
0
0
ARC
5
14B
100
AcDbEntity
8
1
62
256
6
ByLayer
370
18
48
1
60
0
100
AcDbCircle
39
0
10
423.4
20
26.049495
30
0
40
0.6
210
0
220
0
230
1
100
AcDbArc
50
0
51
90
0
ELLIPSE
5
14C
100
AcDbEntity
8
1
62
256
6
ByLayer
370
13
48
1
60
0
100
AcDbEllipse
10
411.5
20
30.888298
30
0
11
0.5
21
0
31
0
210
0
220
0
230
1
40
0.933576
41
-2.61275654925367
42
-1.5707963267949
0
POINT
5
70
100
AcDbEntity
8
2
62
256
6
ByLayer
370
18
48
1
60
0
100
AcDbPoint
10
418
20
21.649495
30
0
39
0
210
0
220
0
230
1
50
360
0
POINT
5
72
100
AcDbEntity
8
2
62
256
6
ByLayer
370
18
48
1
60
0
100
AcDbPoint
10
414
20
21.649495
30
0
39
0
210
0
220
0
230
1
50
360
0
POINT
5
73
100
AcDbEntity
8
2
62
256
6
ByLayer
370
18
48
1
60
0
100
AcDbPoint
10
372.5
20
21
30
0
39
0
210
0
220
0
230
1
50
360
0
POINT
5
74
100
AcDbEntity
8
2
62
256
6
ByLayer
370
18
48
1
60
0
100
AcDbPoint
10
322.5
20
21
30
0
39
0
210
0
220
0
230
1
50
360
0
POINT
5
75
100
AcDbEntity
8
2
62
256
6
ByLayer
370
18
48
1
60
0
100
AcDbPoint
10
398
20
0
30
0
39
0
210
0
220
0
230
1
50
360
0
POINT
5
76
100
AcDbEntity
8
2
62
256
6
ByLayer
370
18
48
1
60
0
100
AcDbPoint
10
391.5
20
0
30
0
39
0
210
0
220
0
230
1
50
360
0
POINT
5
77
100
AcDbEntity
8
2
62
256
6
ByLayer
370
18
48
1
60
0
100
AcDbPoint
10
418
20
21.649495
30
0
39
0
210
0
220
0
230
1
50
360
0
POINT
5
78
100
AcDbEntity
8
2
62
256
6
ByLayer
370
18
48
1
60
0
100
AcDbPoint
10
414
20
1.850505
30
0
39
0
210
0
220
0
230
1
50
360
0
POINT
5
79
100
AcDbEntity
8
2
62
256
6
ByLayer
370
18
48
1
60
0
100
AcDbPoint
10
410.37476
20
11.75
30
0
39
0
210
0
220
0
230
1
50
360
0
POINT
5
7A
100
AcDbEntity
8
2
62
256
6
ByLayer
370
18
48
1
60
0
100
AcDbPoint
10
299
20
0
30
0
39
0
210
0
220
0
230
1
50
360
0
POINT
5
7B
100
AcDbEntity
8
2
62
256
6
ByLayer
370
18
48
1
60
0
100
AcDbPoint
10
398
20
0
30
0
39
0
210
0
220
0
230
1
50
360
0
POINT
5
7C
100
AcDbEntity
8
2
62
256
6
ByLayer
370
18
48
1
60
0
100
AcDbPoint
10
348.5
20
0
30
0
39
0
210
0
220
0
230
1
50
360
0
POINT
5
7D
100
AcDbEntity
8
2
62
256
6
ByLayer
370
18
48
1
60
0
100
AcDbPoint
10
409
20
0
30
0
39
0
210
0
220
0
230
1
50
360
0
POINT
5
7E
100
AcDbEntity
8
2
62
256
6
ByLayer
370
18
48
1
60
0
100
AcDbPoint
10
382
20
0
30
0
39
0
210
0
220
0
230
1
50
360
0
POINT
5
7F
100
AcDbEntity
8
2
62
256
6
ByLayer
370
18
48
1
60
0
100
AcDbPoint
10
410.37476
20
11.75
30
0
39
0
210
0
220
0
230
1
50
360
0
POINT
5
80
100
AcDbEntity
8
2
62
256
6
ByLayer
370
18
48
1
60
0
100
AcDbPoint
10
413
20
11.75
30
0
39
0
210
0
220
0
230
1
50
360
0
POINT
5
81
100
AcDbEntity
8
2
62
256
6
ByLayer
370
50
48
1
60
0
100
AcDbPoint
10
392
20
0
30
0
39
0
210
0
220
0
230
1
50
360
0
POINT
5
82
100
AcDbEntity
8
2
62
256
6
ByLayer
370
18
48
1
60
0
100
AcDbPoint
10
398
20
0
30
0
39
0
210
0
220
0
230
1
50
360
0
POINT
5
83
100
AcDbEntity
8
2
62
256
6
ByLayer
370
18
48
1
60
0
100
AcDbPoint
10
413
20
11.75
30
0
39
0
210
0
220
0
230
1
50
360
0
POINT
5
84
100
AcDbEntity
8
2
62
256
6
ByLayer
370
18
48
1
60
0
100
AcDbPoint
10
409
20
0
30
0
39
0
210
0
220
0
230
1
50
360
0
POINT
5
85
100
AcDbEntity
8
2
62
256
6
ByLayer
370
18
48
1
60
0
100
AcDbPoint
10
405.5
20
0
30
0
39
0
210
0
220
0
230
1
50
360
0
POINT
5
86
100
AcDbEntity
8
2
62
256
6
ByLayer
370
18
48
1
60
0
100
AcDbPoint
10
391.5
20
0
30
0
39
0
210
0
220
0
230
1
50
360
0
POINT
5
87
100
AcDbEntity
8
2
62
256
6
ByLayer
370
50
48
1
60
0
100
AcDbPoint
10
418
20
0
30
0
39
0
210
0
220
0
230
1
50
360
0
POINT
5
88
100
AcDbEntity
8
2
62
256
6
ByLayer
370
18
48
1
60
0
100
AcDbPoint
10
291.9
20
0
30
0
39
0
210
0
220
0
230
1
50
360
0
POINT
5
89
100
AcDbEntity
8
2
62
256
6
ByLayer
370
18
48
1
60
0
100
AcDbPoint
10
303.5
20
0
30
0
39
0
210
0
220
0
230
1
50
360
0
POINT
5
8A
100
AcDbEntity
8
2
62
256
6
ByLayer
370
18
48
1
60
0
100
AcDbPoint
10
297.7
20
0
30
0
39
0
210
0
220
0
230
1
50
360
0
POINT
5
8B
100
AcDbEntity
8
2
62
256
6
ByLayer
370
18
48
1
60
0
100
AcDbPoint
10
303
20
0
30
0
39
0
210
0
220
0
230
1
50
360
0
POINT
5
8C
100
AcDbEntity
8
2
62
256
6
ByLayer
370
18
48
1
60
0
100
AcDbPoint
10
297.45
20
0
30
0
39
0
210
0
220
0
230
1
50
360
0
POINT
5
8D
100
AcDbEntity
8
2
62
256
6
ByLayer
370
18
48
1
60
0
100
AcDbPoint
10
291.9
20
0
30
0
39
0
210
0
220
0
230
1
50
360
0
POINT
5
8E
100
AcDbEntity
8
2
62
256
6
ByLayer
370
18
48
1
60
0
100
AcDbPoint
10
303.5
20
0
30
0
39
0
210
0
220
0
230
1
50
360
0
POINT
5
8F
100
AcDbEntity
8
2
62
256
6
ByLayer
370
18
48
1
60
0
100
AcDbPoint
10
391.5
20
0
30
0
39
0
210
0
220
0
230
1
50
360
0
POINT
5
90
100
AcDbEntity
8
2
62
256
6
ByLayer
370
18
48
1
60
0
100
AcDbPoint
10
309
20
0
30
0
39
0
210
0
220
0
230
1
50
360
0
POINT
5
91
100
AcDbEntity
8
2
62
256
6
ByLayer
370
18
48
1
60
0
100
AcDbPoint
10
386
20
0
30
0
39
0
210
0
220
0
230
1
50
360
0
POINT
5
92
100
AcDbEntity
8
2
62
256
6
ByLayer
370
18
48
1
60
0
100
AcDbPoint
10
322.5
20
21
30
0
39
0
210
0
220
0
230
1
50
360
0
POINT
5
93
100
AcDbEntity
8
2
62
256
6
ByLayer
370
18
48
1
60
0
100
AcDbPoint
10
391.5
20
0
30
0
39
0
210
0
220
0
230
1
50
360
0
POINT
5
94
100
AcDbEntity
8
2
62
256
6
ByLayer
370
18
48
1
60
0
100
AcDbPoint
10
303.5
20
0
30
0
39
0
210
0
220
0
230
1
50
360
0
POINT
5
95
100
AcDbEntity
8
2
62
256
6
ByLayer
370
18
48
1
60
0
100
AcDbPoint
10
347.5
20
0
30
0
39
0
210
0
220
0
230
1
50
360
0
POINT
5
96
100
AcDbEntity
8
2
62
256
6
ByLayer
370
18
48
1
60
0
100
AcDbPoint
10
372.5
20
21
30
0
39
0
210
0
220
0
230
1
50
360
0
POINT
5
97
100
AcDbEntity
8
2
62
256
6
ByLayer
370
18
48
1
60
0
100
AcDbPoint
10
414
20
21.649495
30
0
39
0
210
0
220
0
230
1
50
360
0
POINT
5
98
100
AcDbEntity
8
80
62
256
6
ByLayer
370
18
48
1
60
0
100
AcDbPoint
10
0
20
0
30
0
39
0
210
0
220
0
230
1
50
360
0
POINT
5
9A
100
AcDbEntity
8
81
62
256
6
ByLayer
370
18
48
1
60
0
100
AcDbPoint
10
413
20
11.75
30
0
39
0
210
0
220
0
230
1
50
360
0
POINT
5
9C
100
AcDbEntity
8
2
62
256
6
ByLayer
370
18
48
1
60
0
100
AcDbPoint
10
405.5
20
27.138
30
0
39
0
210
0
220
0
230
1
50
360
0
POINT
5
9D
100
AcDbEntity
8
1
62
256
6
ByLayer
370
18
48
1
60
1
100
AcDbPoint
10
413
20
0
30
0
39
0
210
0
220
0
230
1
50
360
0
POINT
5
9F
100
AcDbEntity
8
1
62
256
6
ByLayer
370
18
48
1
60
1
100
AcDbPoint
10
413
20
11.75
30
0
39
0
210
0
220
0
230
1
50
360
0
POINT
5
A0
100
AcDbEntity
8
1
62
256
6
ByLayer
370
18
48
1
60
1
100
AcDbPoint
10
413
20
31.75
30
0
39
0
210
0
220
0
230
1
50
360
0
POINT
5
A1
100
AcDbEntity
8
1
62
256
6
ByLayer
370
18
48
1
60
1
100
AcDbPoint
10
190.5
20
-31.75
30
0
39
0
210
0
220
0
230
1
50
360
0
POINT
5
A2
100
AcDbEntity
8
1
62
256
6
ByLayer
370
18
48
1
60
1
100
AcDbPoint
10
413
20
31.75
30
0
39
0
210
0
220
0
230
1
50
360
0
POINT
5
A3
100
AcDbEntity
8
1
62
256
6
ByLayer
370
18
48
1
60
1
100
AcDbPoint
10
0
20
-31.75
30
0
39
0
210
0
220
0
230
1
50
360
0
POINT
5
A4
100
AcDbEntity
8
1
62
256
6
ByLayer
370
18
48
1
60
1
100
AcDbPoint
10
-254
20
-13.3
30
0
39
0
210
0
220
0
230
1
50
360
0
POINT
5
A5
100
AcDbEntity
8
1
62
256
6
ByLayer
370
18
48
1
60
1
100
AcDbPoint
10
413
20
-13.3
30
0
39
0
210
0
220
0
230
1
50
360
0
SPLINE
5
14D
100
AcDbEntity
8
1
62
256
6
ByLayer
370
18
48
1
60
0
100
AcDbSpline
70
4
71
3
72
81
73
77
40
0
40
0
40
0
40
0
40
0.0104973830430634
40
0.0208472155836227
40
0.0311602903288905
40
0.041436770076391
40
0.0516768142966154
40
0.0618805791865599
40
0.0720482177213546
40
0.0821798797053294
40
0.0922757118212035
40
0.102335857678268
40
0.11236045785932
40
0.122349649966422
40
0.132303568665518
40
0.142222345729941
40
0.152106110082893
40
0.161954987838751
40
0.171769102343541
40
0.181548574214292
40
0.191292379804958
40
0.200998038657912
40
0.210665601654576
40
0.220295220068081
40
0.22988704203275
40
0.239441212593814
40
0.248957873756282
40
0.258437164532762
40
0.267879220989341
40
0.277284176291288
40
0.286652160747191
40
0.295983301852145
40
0.305277724329934
40
0.314535550174214
40
0.323756898688744
40
0.332941886526677
40
0.342090627728951
40
0.351203233761791
40
0.360279813553353
40
0.369320473529534
40
0.378325317648964
40
0.387294447437211
40
0.396227962020214
40
0.405125958156952
40
0.413988530271402
40
0.422815770483764
40
0.431607768641
40
0.440364612346689
40
0.449086386990226
40
0.457773175775366
40
0.466425059748144
40
0.475042117824178
40
0.483624426815365
40
0.492172061455978
40
0.500685094428322
40
0.529585552446011
40
0.557996264958236
40
0.585919444504668
40
0.613356999148295
40
0.640284380004585
40
0.666674702314784
40
0.692531781115775
40
0.717859132384723
40
0.742659955293941
40
0.766937149328347
40
0.790693330353454
40
0.813930845725869
40
0.836651788529749
40
0.858858011015439
40
0.880551137310486
40
0.901732575468381
40
0.922403528916728
40
0.942565007364178
40
0.962217837224449
40
0.981362671616231
40
1
40
1
40
1
40
1
41
1
10
411
20
31.75
30
0
41
1
10
411.000725990119
20
31.7499766064083
30
0
41
1
10
411.002167765889
20
31.7499301480437
30
0
41
1
10
411.004322267663
20
31.7495570950762
30
0
41
1
10
411.006460129578
20
31.7489684027487
30
0
41
1
10
411.008588298154
20
31.7481436041135
30
0
41
1
10
411.010706061141
20
31.7470909434856
30
0
41
1
10
411.012812728882
20
31.745811340217
30
0
41
1
10
411.014907625033
20
31.7443076406209
30
0
41
1
10
411.016990088366
20
31.742582152524
30
0
41
1
10
411.019059471665
20
31.740637302783
30
0
41
1
10
411.021115141416
20
31.7384754624487
30
0
41
1
10
411.023156477294
20
31.7360989937702
30
0
41
1
10
411.025182871738
20
31.7335102380692
30
0
41
1
10
411.027193729509
20
31.7307115193708
30
0
41
1
10
411.029188467278
20
31.7277051438307
30
0
41
1
10
411.031166513227
20
31.7244934002786
30
0
41
1
10
411.033127306629
20
31.7210785604656
30
0
41
1
10
411.035070297583
20
31.7174628793647
30
0
41
1
10
411.036994871335
20
31.7136487439521
30
0
41
1
10
411.038900257309
20
31.7096389177783
30
0
41
1
10
411.040785704532
20
31.7054362760223
30
0
41
1
10
411.042650548571
20
31.7010436087506
30
0
41
1
10
411.044494309032
20
31.6964633265838
30
0
41
1
10
411.046316521708
20
31.6916978050673
30
0
41
1
10
411.048116732093
20
31.6867493998934
30
0
41
1
10
411.049894494903
20
31.6816204472925
30
0
41
1
10
411.051649373784
20
31.67631326439
30
0
41
1
10
411.053380941027
20
31.6708301495537
30
0
41
1
10
411.055088777249
20
31.6651733827487
30
0
41
1
10
411.05677247112
20
31.659345225878
30
0
41
1
10
411.05843161908
20
31.6533479231216
30
0
41
1
10
411.060065825074
20
31.6471837012697
30
0
41
1
10
411.061674700292
20
31.6408547700511
30
0
41
1
10
411.063257862918
20
31.6343633224566
30
0
41
1
10
411.064814937885
20
31.6277115350578
30
0
41
1
10
411.066345556639
20
31.6209015683211
30
0
41
1
10
411.067849356914
20
31.6139355669174
30
0
41
1
10
411.069325982506
20
31.6068156600265
30
0
41
1
10
411.070775083061
20
31.5995439616379
30
0
41
1
10
411.072196313867
20
31.5921225708464
30
0
41
1
10
411.073589335651
20
31.584553572144
30
0
41
1
10
411.074953814385
20
31.5768390357078
30
0
41
1
10
411.076289421092
20
31.5689810176825
30
0
41
1
10
411.077595831669
20
31.5609815604598
30
0
41
1
10
411.078872726703
20
31.5528426929542
30
0
41
1
10
411.080119791299
20
31.5445664308737
30
0
41
1
10
411.08133671491
20
31.536154776987
30
0
41
1
10
411.082523191184
20
31.5276097213883
30
0
41
1
10
411.083678917778
20
31.5189332417531
30
0
41
1
10
411.084803596281
20
31.5101273036103
30
0
41
1
10
411.085896931799
20
31.5011938605348
30
0
41
1
10
411.086958633782
20
31.4921348546201
30
0
41
1
10
411.087988412295
20
31.4829522158947
30
0
41
1
10
411.08978368788
20
31.4662078025845
30
0
41
1
10
411.092192630279
20
31.4413291704395
30
0
41
1
10
411.094965146639
20
31.4073361760368
30
0
41
1
10
411.097330215718
20
31.3722108101992
30
0
41
1
10
411.099280835471
20
31.3360534454914
30
0
41
1
10
411.100811438197
20
31.298977537085
30
0
41
1
10
411.101918834584
20
31.2610978681656
30
0
41
1
10
411.102601041004
20
31.2225173208293
30
0
41
1
10
411.10285758451
20
31.1833219901453
30
0
41
1
10
411.102688609477
20
31.1435957439749
30
0
41
1
10
411.102094938219
20
31.1034202874604
30
0
41
1
10
411.101078043494
20
31.0628752638272
30
0
41
1
10
411.099640054151
20
31.0220383343848
30
0
41
1
10
411.097783746219
20
30.9809852351798
30
0
41
1
10
411.095512588325
20
30.9397898923297
30
0
41
1
10
411.092830618596
20
30.8985242834772
30
0
41
1
10
411.089742948761
20
30.8572591781012
30
0
41
1
10
411.086254031038
20
30.8160616770595
30
0
41
1
10
411.082373995629
20
30.7750042342836
30
0
41
1
10
411.078095994202
20
30.7341323644914
30
0
41
1
10
411.0734777094
20
30.6935807146697
30
0
41
1
10
411.070012094584
20
30.6662646084254
30
0
41
1
10
411.068302562978
20
30.6527900160559
30
0
0
SPLINE
5
14E
100
AcDbEntity
8
1
62
256
6
ByLayer
370
13
48
1
60
0
100
AcDbSpline
70
4
71
1
72
4
73
2
40
0
40
0
40
1
40
1
41
1
10
410.636605125957
20
30.9039586743277
30
0
41
1
10
411.068302562978
20
30.6527900160559
30
0
0
SPLINE
5
14F
100
AcDbEntity
8
1
62
256
6
ByLayer
370
18
48
1
60
0
100
AcDbSpline
70
4
71
3
72
36
73
32
40
0
40
0
40
0
40
0
40
0.122294168918965
40
0.122294168918965
40
0.195436321509047
40
0.195436321509047
40
0.23200739780409
40
0.23200739780409
40
0.268578474099133
40
0.268578474099133
40
0.34172062668922
40
0.34172062668922
40
0.378291702984264
40
0.378291702984264
40
0.414862779279307
40
0.414862779279307
40
0.488004931869394
40
0.488004931869394
40
0.524576008164437
40
0.524576008164437
40
0.56114708445948
40
0.56114708445948
40
0.634289237049566
40
0.634289237049566
40
0.707431389639653
40
0.707431389639653
40
0.780573542229739
40
0.780573542229739
40
0.853715694819825
40
0.853715694819825
40
1
40
1
40
1
40
1
41
1
10
412.607729614588
20
-7.96653231841844
30
0
41
1
10
412.598295176105
20
-7.97603531402717
30
0
41
1
10
412.589548040495
20
-7.98485269375976
30
0
41
1
10
412.576962978984
20
-7.99754554778974
30
0
41
1
10
412.572665768936
20
-8.00188121991948
30
0
41
1
10
412.566937041454
20
-8.00766266878873
30
0
41
1
10
412.565146159727
20
-8.00947030348334
30
0
41
1
10
412.561821741835
20
-8.01282620129848
30
0
41
1
10
412.560285385348
20
-8.01437731324626
30
0
41
1
10
412.556170769704
20
-8.01853182457756
30
0
41
1
10
412.554054662599
20
-8.02066898424641
30
0
41
1
10
412.551904777519
20
-8.02284038556547
30
0
41
1
10
412.551358069514
20
-8.02339260144771
30
0
41
1
10
412.550642684802
20
-8.02411520325683
30
0
41
1
10
412.550471174801
20
-8.02428845045677
30
0
41
1
10
412.550501778366
20
-8.02425753736367
30
0
41
1
10
412.551246131199
20
-8.02350561707175
30
0
41
1
10
412.553449587003
20
-8.02128011911998
30
0
41
1
10
412.554366440456
20
-8.02035413314633
30
0
41
1
10
412.556507437831
20
-8.01819200728931
30
0
41
1
10
412.557735591993
20
-8.01695181711028
30
0
41
1
10
412.561863192775
20
-8.01278423519858
30
0
41
1
10
412.565218581561
20
-8.00939689923172
30
0
41
1
10
412.572951716672
20
-8.00159268784734
30
0
41
1
10
412.577252302461
20
-7.99725369068454
30
0
41
1
10
412.586584704884
20
-7.98784146922713
30
0
41
1
10
412.591617667416
20
-7.98276708578817
30
0
41
1
10
412.602342916789
20
-7.97195815563543
30
0
41
1
10
412.607954623723
20
-7.96630483568805
30
0
41
1
10
412.625296915117
20
-7.9488417531482
30
0
41
1
10
412.637586054382
20
-7.93647708464545
30
0
41
1
10
412.650480947162
20
-7.92351614771059
30
0
0
SPLINE
5
150
100
AcDbEntity
8
1
62
256
6
ByLayer
370
18
48
1
60
0
100
AcDbSpline
70
4
71
3
72
8
73
4
40
0
40
0
40
0
40
0
40
1
40
1
40
1
40
1
41
1
10
412.650480947162
20
-7.92351614771059
30
0
41
1
10
412.875830405166
20
-7.69701251069972
30
0
41
1
10
413.100607863251
20
-7.46975466987089
30
0
41
1
10
413.324759526419
20
-7.24167169445599
30
0
0
SPLINE
5
151
100
AcDbEntity
8
1
62
256
6
ByLayer
370
18
48
1
60
0
100
AcDbSpline
70
4
71
3
72
8
73
4
40
0
40
0
40
0
40
0
40
1
40
1
40
1
40
1
41
1
10
413.324759526419
20
-7.22685679321
30
0
41
1
10
413.100458994954
20
-7.44503327622812
30
0
41
1
10
412.875685997487
20
-7.66255891076685
30
0
41
1
10
412.650480947162
20
-7.87948936820573
30
0
0
SPLINE
5
152
100
AcDbEntity
8
1
62
256
6
ByLayer
370
18
48
1
60
0
100
AcDbSpline
70
4
71
3
72
36
73
32
40
0
40
0
40
0
40
0
40
0.0625000000000001
40
0.0625000000000001
40
0.125
40
0.125
40
0.1875
40
0.1875
40
0.25
40
0.25
40
0.3125
40
0.3125
40
0.375
40
0.375
40
0.4375
40
0.4375
40
0.5
40
0.5
40
0.5625
40
0.5625
40
0.625
40
0.625
40
0.6875
40
0.6875
40
0.75
40
0.75
40
0.812500000000001
40
0.812500000000001
40
0.875000000000001
40
0.875000000000001
40
1
40
1
40
1
40
1
41
1
10
412.650480947162
20
-7.87948936820573
30
0
41
1
10
412.643862084188
20
-7.88586503771444
30
0
41
1
10
412.637368158041
20
-7.89208549393919
30
0
41
1
10
412.624658212001
20
-7.90417951440287
30
0
41
1
10
412.618465781099
20
-7.91003024657368
30
0
41
1
10
412.606614451507
20
-7.92113177605006
30
0
41
1
10
412.600930365741
20
-7.9264066912076
30
0
41
1
10
412.590113554064
20
-7.93632465815205
30
0
41
1
10
412.584944456052
20
-7.94100002973397
30
0
41
1
10
412.575462300344
20
-7.94941575654178
30
0
41
1
10
412.571165979258
20
-7.95314262332732
30
0
41
1
10
412.563582231134
20
-7.95950259963303
30
0
41
1
10
412.560295493777
20
-7.96213143841493
30
0
41
1
10
412.555115656292
20
-7.96594958104214
30
0
41
1
10
412.55318093426
20
-7.96717517338055
30
0
41
1
10
412.550745513604
20
-7.96812863957416
30
0
41
1
10
412.550291079598
20
-7.96783638379492
30
0
41
1
10
412.550812662286
20
-7.96581840714754
30
0
41
1
10
412.551796471514
20
-7.96407934212152
30
0
41
1
10
412.555138387984
20
-7.95923886666969
30
0
41
1
10
412.557446708715
20
-7.95620514956011
30
0
41
1
10
412.563158317433
20
-7.94908462041684
30
0
41
1
10
412.566592406128
20
-7.94496234484353
30
0
41
1
10
412.57432482138
20
-7.93591712910319
30
0
41
1
10
412.578590882069
20
-7.93102998219098
30
0
41
1
10
412.587802061849
20
-7.92063807328691
30
0
41
1
10
412.592748132286
20
-7.91513244064811
30
0
41
1
10
412.60325464834
20
-7.90356394564418
30
0
41
1
10
412.608756349684
20
-7.89756608451057
30
0
41
1
10
412.625757992912
20
-7.8791819152151
30
0
41
1
10
412.63781344554
20
-7.86633815056899
30
0
41
1
10
412.650480947162
20
-7.85300034106922
30
0
0
SPLINE
5
153
100
AcDbEntity
8
1
62
256
6
ByLayer
370
18
48
1
60
0
100
AcDbSpline
70
4
71
3
72
8
73
4
40
0
40
0
40
0
40
0
40
1
40
1
40
1
40
1
41
1
10
412.650480947162
20
-7.85300034106922
30
0
41
1
10
412.876008003165
20
-7.61553939573849
30
0
41
1
10
413.100791090601
20
-7.37714334966518
30
0
41
1
10
413.324759526419
20
-7.13772336069121
30
0
0
SPLINE
5
154
100
AcDbEntity
8
1
62
256
6
ByLayer
370
18
48
1
60
0
100
AcDbSpline
70
4
71
3
72
8
73
4
40
0
40
0
40
0
40
0
40
1
40
1
40
1
40
1
41
1
10
413.324759526419
20
-7.09299853393827
30
0
41
1
10
413.10033706691
20
-7.30252988602155
30
0
41
1
10
412.875567648883
20
-7.51156385841358
30
0
41
1
10
412.650480947162
20
-7.7201429912256
30
0
0
SPLINE
5
155
100
AcDbEntity
8
1
62
256
6
ByLayer
370
18
48
1
60
0
100
AcDbSpline
70
4
71
3
72
38
73
34
40
0
40
0
40
0
40
0
40
0.0625000000000014
40
0.0625000000000014
40
0.125000000000003
40
0.125000000000003
40
0.187500000000004
40
0.187500000000004
40
0.250000000000006
40
0.250000000000006
40
0.312500000000007
40
0.312500000000007
40
0.375000000000008
40
0.375000000000008
40
0.43750000000001
40
0.43750000000001
40
0.500000000000011
40
0.500000000000011
40
0.531250000000012
40
0.531250000000012
40
0.562500000000013
40
0.562500000000013
40
0.625000000000011
40
0.625000000000011
40
0.68750000000001
40
0.68750000000001
40
0.750000000000008
40
0.750000000000008
40
0.812500000000007
40
0.812500000000007
40
0.875000000000005
40
0.875000000000005
40
1
40
1
40
1
40
1
41
1
10
412.650480947162
20
-7.7201429912256
30
0
41
1
10
412.643726881464
20
-7.72640172244127
30
0
41
1
10
412.637098160743
20
-7.73246759842618
30
0
41
1
10
412.624121587645
20
-7.74416536458574
30
0
41
1
10
412.617742143976
20
-7.74982427039237
30
0
41
1
10
412.605562970484
20
-7.76041364087877
30
0
41
1
10
412.599742695575
20
-7.76536379996395
30
0
41
1
10
412.588714807944
20
-7.77447763543444
30
0
41
1
10
412.583471678807
20
-7.77866871468689
30
0
41
1
10
412.573894168183
20
-7.78596728090332
30
0
41
1
10
412.569604727196
20
-7.78904307630035
30
0
41
1
10
412.562140118258
20
-7.79391162876186
30
0
41
1
10
412.558968752714
20
-7.79569252125896
30
0
41
1
10
412.55412676766
20
-7.79768938933267
30
0
41
1
10
412.552408786091
20
-7.7979394606952
30
0
41
1
10
412.550449968655
20
-7.79686494800944
30
0
41
1
10
412.550243871428
20
-7.79555320166253
30
0
41
1
10
412.550991933076
20
-7.79254591030212
30
0
41
1
10
412.551417710024
20
-7.7913688368418
30
0
41
1
10
412.55261285119
20
-7.78867451681327
30
0
41
1
10
412.553385026571
20
-7.78715395741011
30
0
41
1
10
412.556141299637
20
-7.78220317401144
30
0
41
1
10
412.558572250333
20
-7.77836011374427
30
0
41
1
10
412.56445428438
20
-7.76974187542243
30
0
41
1
10
412.567937837454
20
-7.76492531016356
30
0
41
1
10
412.575648799551
20
-7.75468923349132
30
0
41
1
10
412.579874304902
20
-7.74926807007421
30
0
41
1
10
412.588959245089
20
-7.73790759078616
30
0
41
1
10
412.593819464948
20
-7.73196763019104
30
0
41
1
10
412.604115964568
20
-7.71961815491846
30
0
41
1
10
412.609513235996
20
-7.71325617343916
30
0
41
1
10
412.6261921918
20
-7.69387850617306
30
0
41
1
10
412.638027080279
20
-7.68048819086056
30
0
41
1
10
412.650480947162
20
-7.66669403193265
30
0
0
SPLINE
5
156
100
AcDbEntity
8
1
62
256
6
ByLayer
370
18
48
1
60
0
100
AcDbSpline
70
4
71
3
72
8
73
4
40
0
40
0
40
0
40
0
40
1
40
1
40
1
40
1
41
1
10
412.650480947162
20
-7.66669403193265
30
0
41
1
10
412.876228917632
20
-7.41665093997483
30
0
41
1
10
413.101019214676
20
-7.16546545317652
30
0
41
1
10
413.324759526419
20
-6.91302745403328
30
0
0
SPLINE
5
157
100
AcDbEntity
8
1
62
256
6
ByLayer
370
18
48
1
60
0
100
AcDbSpline
70
4
71
3
72
8
73
4
40
0
40
0
40
0
40
0
40
1
40
1
40
1
40
1
41
1
10
413.324759526419
20
-6.83752521854376
30
0
41
1
10
413.100236859786
20
-7.03957038042915
30
0
41
1
10
412.875470342809
20
-7.2412532251729
30
0
41
1
10
412.650480947162
20
-7.44260491285752
30
0
0
SPLINE
5
158
100
AcDbEntity
8
1
62
256
6
ByLayer
370
18
48
1
60
0
100
AcDbSpline
70
4
71
3
72
39
73
35
40
0
40
0
40
0
40
0
40
0.0625000000000038
40
0.0625000000000038
40
0.125000000000007
40
0.125000000000007
40
0.187500000000011
40
0.187500000000011
40
0.250000000000015
40
0.250000000000015
40
0.312500000000018
40
0.312500000000018
40
0.34375000000002
40
0.34375000000002
40
0.375000000000021
40
0.406250000000023
40
0.406250000000023
40
0.437500000000024
40
0.437500000000024
40
0.500000000000022
40
0.500000000000022
40
0.56250000000002
40
0.56250000000002
40
0.625000000000017
40
0.625000000000017
40
0.687500000000015
40
0.687500000000015
40
0.750000000000012
40
0.750000000000012
40
0.81250000000001
40
0.81250000000001
40
0.875000000000008
40
0.875000000000008
40
1
40
1
40
1
40
1
41
1
10
412.650480947162
20
-7.44260491285752
30
0
41
1
10
412.643561481926
20
-7.44879740917133
30
0
41
1
10
412.636760597053
20
-7.45475945602931
30
0
41
1
10
412.623428732479
20
-7.46615687320474
30
0
41
1
10
412.616868043973
20
-7.47161492234301
30
0
41
1
10
412.604372494835
20
-7.48165711743741
30
0
41
1
10
412.598405523108
20
-7.4862705084991
30
0
41
1
10
412.587120780066
20
-7.4945513660951
30
0
41
1
10
412.581757911793
20
-7.49824522226095
30
0
41
1
10
412.572161291116
20
-7.50426188299707
30
0
41
1
10
412.567898801765
20
-7.5066113207269
30
0
41
1
10
412.562409953693
20
-7.50901971110915
30
0
41
1
10
412.560740249761
20
-7.50963014183219
30
0
41
1
10
412.557792033825
20
-7.51043826005662
30
0
41
1
10
412.555212841065
20
-7.510843929945
30
0
41
1
10
412.553367705005
20
-7.51044824980823
30
0
41
1
10
412.551893890274
20
-7.50964684781201
30
0
41
1
10
412.551341802858
20
-7.50903712749243
30
0
41
1
10
412.550274927363
20
-7.50664302764744
30
0
41
1
10
412.550326458123
20
-7.50430287060351
30
0
41
1
10
412.551787967949
20
-7.49829597919154
30
0
41
1
10
412.553220516284
20
-7.49459649567137
30
0
41
1
10
412.557185296634
20
-7.48629105924238
30
0
41
1
10
412.559719213955
20
-7.4816610587576
30
0
41
1
10
412.565737405588
20
-7.47157887828689
30
0
41
1
10
412.569244994022
20
-7.46609568532239
30
0
41
1
10
412.576918114054
20
-7.45468295418044
30
0
41
1
10
412.581098727559
20
-7.44872551352557
30
0
41
1
10
412.590054837743
20
-7.43637742361341
30
0
41
1
10
412.594830979835
20
-7.42998630294136
30
0
41
1
10
412.604926584524
20
-7.41680948261137
30
0
41
1
10
412.61022432905
20
-7.4100533921706
30
0
41
1
10
412.626598565669
20
-7.38957880338478
30
0
41
1
10
412.638226288089
20
-7.37555695530392
30
0
41
1
10
412.650480947162
20
-7.36121115699939
30
0
0
SPLINE
5
159
100
AcDbEntity
8
1
62
256
6
ByLayer
370
18
48
1
60
0
100
AcDbSpline
70
4
71
3
72
8
73
4
40
0
40
0
40
0
40
0
40
1
40
1
40
1
40
1
41
1
10
412.650480947162
20
-7.36121115699939
30
0
41
1
10
412.876507770667
20
-7.0966150387261
30
0
41
1
10
413.101307459449
20
-6.83063653668887
30
0
41
1
10
413.324759526419
20
-6.56313992055976
30
0
0
SPLINE
5
15A
100
AcDbEntity
8
1
62
256
6
ByLayer
370
18
48
1
60
0
100
AcDbSpline
70
4
71
3
72
8
73
4
40
0
40
0
40
0
40
0
40
1
40
1
40
1
40
1
41
1
10
413.324759526419
20
-6.4553177327395
30
0
41
1
10
413.100154848045
20
-6.65099561220677
30
0
41
1
10
412.875390693943
20
-6.84642895894723
30
0
41
1
10
412.650480947162
20
-7.04163906058523
30
0
0
SPLINE
5
15B
100
AcDbEntity
8
1
62
256
6
ByLayer
370
18
48
1
60
0
100
AcDbSpline
70
4
71
3
72
32
73
28
40
0
40
0
40
0
40
0
40
0.124999999999996
40
0.124999999999996
40
0.187499999999997
40
0.187499999999997
40
0.249999999999997
40
0.249999999999997
40
0.312499999999998
40
0.312499999999998
40
0.374999999999999
40
0.374999999999999
40
0.4375
40
0.4375
40
0.5
40
0.5
40
0.562500000000001
40
0.562500000000001
40
0.625000000000002
40
0.625000000000002
40
0.750000000000003
40
0.750000000000003
40
0.812500000000004
40
0.812500000000004
40
0.875000000000004
40
0.875000000000004
40
1
40
1
40
1
40
1
41
1
10
412.650480947162
20
-7.04163906058523
30
0
41
1
10
412.636218452344
20
-7.0540181731086
30
0
41
1
10
412.622240264368
20
-7.06541731520463
30
0
41
1
10
412.602992291188
20
-7.07961530428076
30
0
41
1
10
412.596826112669
20
-7.0838945401531
30
0
41
1
10
412.585150324815
20
-7.09130944123348
30
0
41
1
10
412.579802545074
20
-7.09434192832924
30
0
41
1
10
412.570193548697
20
-7.09890585163839
30
0
41
1
10
412.565917359672
20
-7.10042533678563
30
0
41
1
10
412.5589614839
20
-7.10167539867427
30
0
41
1
10
412.556219248358
20
-7.10144369332568
30
0
41
1
10
412.552246458667
20
-7.099215664621
30
0
41
1
10
412.551085390741
20
-7.097251677175
30
0
41
1
10
412.550241537348
20
-7.09186141945361
30
0
41
1
10
412.550569080283
20
-7.08838297276696
30
0
41
1
10
412.552511726574
20
-7.08033441718436
30
0
41
1
10
412.554109567751
20
-7.07577081875542
30
0
41
1
10
412.558360917358
20
-7.06573420419278
30
0
41
1
10
412.56103952816
20
-7.06021890291851
30
0
41
1
10
412.570274220005
20
-7.04285792318427
30
0
41
1
10
412.578003306719
20
-7.0301749967735
30
0
41
1
10
412.591401058081
20
-7.00988184293715
30
0
41
1
10
412.59613953536
20
-7.00295527660575
30
0
41
1
10
412.605993559771
20
-6.98896416601866
30
0
41
1
10
412.611125160039
20
-6.98187560879262
30
0
41
1
10
412.627074672477
20
-6.96035906210022
30
0
41
1
10
412.638441494712
20
-6.94568280905236
30
0
41
1
10
412.650480947162
20
-6.93070599964432
30
0
0
SPLINE
5
15C
100
AcDbEntity
8
1
62
256
6
ByLayer
370
18
48
1
60
0
100
AcDbSpline
70
4
71
3
72
8
73
4
40
0
40
0
40
0
40
0
40
1
40
1
40
1
40
1
41
1
10
412.650480947162
20
-6.93070599964432
30
0
41
1
10
412.876866272618
20
-6.64908772121976
30
0
41
1
10
413.101678442285
20
-6.36580555548483
30
0
41
1
10
413.324759526419
20
-6.0806924641193
30
0
0
SPLINE
5
15D
100
AcDbEntity
8
1
62
256
6
ByLayer
370
18
48
1
60
0
100
AcDbSpline
70
4
71
3
72
8
73
4
40
0
40
0
40
0
40
0
40
1
40
1
40
1
40
1
41
1
10
413.324759526419
20
-5.93816253176118
30
0
41
1
10
413.100089025132
20
-6.1286205059024
30
0
41
1
10
412.875326782245
20
-6.31893402132556
30
0
41
1
10
412.650480947162
20
-6.5091159102949
30
0
0
SPLINE
5
15E
100
AcDbEntity
8
1
62
256
6
ByLayer
370
18
48
1
60
0
100
AcDbSpline
70
4
71
3
72
41
73
37
40
0
40
0
40
0
40
0
40
0.0624999999999941
40
0.0624999999999941
40
0.124999999999988
40
0.124999999999988
40
0.156249999999986
40
0.156249999999986
40
0.187499999999983
40
0.187499999999983
40
0.249999999999977
40
0.249999999999977
40
0.281249999999976
40
0.281249999999976
40
0.312499999999975
40
0.343749999999974
40
0.343749999999974
40
0.374999999999973
40
0.374999999999973
40
0.437499999999968
40
0.437499999999968
40
0.468749999999969
40
0.468749999999969
40
0.49999999999997
40
0.49999999999997
40
0.562499999999973
40
0.562499999999973
40
0.624999999999977
40
0.624999999999977
40
0.687499999999981
40
0.687499999999981
40
0.749999999999985
40
0.749999999999985
40
0.874999999999992
40
0.874999999999992
40
1
40
1
40
1
40
1
41
1
10
412.650480947162
20
-6.5091159102949
30
0
41
1
10
412.64312067197
20
-6.5153414694156
30
0
41
1
10
412.635804695088
20
-6.52127735885227
30
0
41
1
10
412.621558337367
20
-6.53223636023472
30
0
41
1
10
412.614658110685
20
-6.5372398905796
30
0
41
1
10
412.604698216193
20
-6.54390870638139
30
0
41
1
10
412.601443651369
20
-6.54599151951948
30
0
41
1
10
412.595080260982
20
-6.54984422411519
30
0
41
1
10
412.591968194619
20
-6.55161422204668
30
0
41
1
10
412.583076629914
20
-6.55629453677466
30
0
41
1
10
412.577668862641
20
-6.5586246746206
30
0
41
1
10
412.570442806861
20
-6.56076958635947
30
0
41
1
10
412.568202442333
20
-6.56124983167399
30
0
41
1
10
412.564140466581
20
-6.56172491144275
30
0
41
1
10
412.560469603166
20
-6.56172328666247
30
0
41
1
10
412.557572696077
20
-6.56077697094406
30
0
41
1
10
412.555065784551
20
-6.55935396384405
30
0
41
1
10
412.554012412702
20
-6.55840103005454
30
0
41
1
10
412.551498718449
20
-6.55493182516665
30
0
41
1
10
412.550641696582
20
-6.5517928744913
30
0
41
1
10
412.550431296051
20
-6.54599719885306
30
0
41
1
10
412.550543891767
20
-6.54387711956713
30
0
41
1
10
412.551097439142
20
-6.53938356069506
30
0
41
1
10
412.55153724686
20
-6.53700083368454
30
0
41
1
10
412.553295887259
20
-6.52948610445031
30
0
41
1
10
412.555051097323
20
-6.52398989737566
30
0
41
1
10
412.559557801758
20
-6.51216508268919
30
0
41
1
10
412.562301249488
20
-6.50586842562103
30
0
41
1
10
412.568507240897
20
-6.49285911980735
30
0
41
1
10
412.571983861287
20
-6.48611093369692
30
0
41
1
10
412.579584891849
20
-6.47219257178654
30
0
41
1
10
412.583728003622
20
-6.46499226193851
30
0
41
1
10
412.59691541842
20
-6.44302844745215
30
0
41
1
10
412.606613261902
20
-6.42804922558236
30
0
41
1
10
412.627467863825
20
-6.3975539976571
30
0
41
1
10
412.638630045339
20
-6.38203595639521
30
0
41
1
10
412.650480947162
20
-6.36626786628187
30
0
0
SPLINE
5
15F
100
AcDbEntity
8
1
62
256
6
ByLayer
370
18
48
1
60
0
100
AcDbSpline
70
4
71
3
72
8
73
4
40
0
40
0
40
0
40
0
40
1
40
1
40
1
40
1
41
1
10
412.650480947162
20
-6.36626786628187
30
0
41
1
10
412.877337890168
20
-6.06442579774131
30
0
41
1
10
413.102167049584
20
-5.76058417609937
30
0
41
1
10
413.324759526419
20
-5.45453701062598
30
0
0
SPLINE
5
160
100
AcDbEntity
8
1
62
256
6
ByLayer
370
18
48
1
60
0
100
AcDbSpline
70
4
71
3
72
8
73
4
40
0
40
0
40
0
40
0
40
1
40
1
40
1
40
1
41
1
10
413.324759526419
20
-5.27376555730251
30
0
41
1
10
413.100039125586
20
-5.46026872787758
30
0
41
1
10
412.87527835498
20
-5.64670705634092
30
0
41
1
10
412.650480947162
20
-5.83308644885346
30
0
0
SPLINE
5
161
100
AcDbEntity
8
1
62
256
6
ByLayer
370
18
48
1
60
0
100
AcDbSpline
70
4
71
3
72
39
73
35
40
0
40
0
40
0
40
0
40
0.0625000000000149
40
0.0625000000000149
40
0.12500000000003
40
0.12500000000003
40
0.187500000000045
40
0.187500000000045
40
0.218750000000047
40
0.218750000000047
40
0.25000000000005
40
0.25000000000005
40
0.312500000000055
40
0.312500000000055
40
0.343750000000057
40
0.343750000000057
40
0.375000000000059
40
0.406250000000061
40
0.406250000000061
40
0.437500000000063
40
0.437500000000063
40
0.500000000000057
40
0.500000000000057
40
0.56250000000005
40
0.56250000000005
40
0.625000000000043
40
0.625000000000043
40
0.687500000000036
40
0.687500000000036
40
0.750000000000029
40
0.750000000000029
40
0.875000000000015
40
0.875000000000015
40
1
40
1
40
1
40
1
41
1
10
412.650480947162
20
-5.83308644885346
30
0
41
1
10
412.642848465984
20
-5.83941453430191
30
0
41
1
10
412.635230044314
20
-5.84539066175
30
0
41
1
10
412.620434193986
20
-5.85617795991254
30
0
41
1
10
412.613255140464
20
-5.86099748452483
30
0
41
1
10
412.599425158374
20
-5.86924599158874
30
0
41
1
10
412.592745263725
20
-5.87267227840965
30
0
41
1
10
412.583692680945
20
-5.87629981682892
30
0
41
1
10
412.580816760607
20
-5.8772697003244
30
0
41
1
10
412.575367399923
20
-5.87869737898711
30
0
41
1
10
412.572783455345
20
-5.87915279821033
30
0
41
1
10
412.565725370173
20
-5.87968303013906
30
0
41
1
10
412.561864611699
20
-5.87895634321637
30
0
41
1
10
412.557292459269
20
-5.87630232283914
30
0
41
1
10
412.555968736541
20
-5.87514531139868
30
0
41
1
10
412.553784251942
20
-5.87238725098723
30
0
41
1
10
412.552040779151
20
-5.86918091878431
30
0
41
1
10
412.551098579189
20
-5.86515893160964
30
0
41
1
10
412.550528264205
20
-5.86075786637713
30
0
41
1
10
412.550430700683
20
-5.85835688135012
30
0
41
1
10
412.550654051541
20
-5.85076523529523
30
0
41
1
10
412.551475794025
20
-5.8451597496354
30
0
41
1
10
412.554198267888
20
-5.83307378544748
30
0
41
1
10
412.556114381686
20
-5.82655576543829
30
0
41
1
10
412.560823333971
20
-5.8129298211241
30
0
41
1
10
412.563597798464
20
-5.8058628914157
30
0
41
1
10
412.569844713144
20
-5.79130661080421
30
0
41
1
10
412.573318283136
20
-5.7838165910066
30
0
41
1
10
412.580882685559
20
-5.76846307267346
30
0
41
1
10
412.584984596991
20
-5.76058295596772
30
0
41
1
10
412.597909096523
20
-5.73684300276636
30
0
41
1
10
412.60740422431
20
-5.72075182661223
30
0
41
1
10
412.627855969026
20
-5.68813389250067
30
0
41
1
10
412.638816630046
20
-5.67160590352921
30
0
41
1
10
412.650480947162
20
-5.65487133421578
30
0
0
SPLINE
5
162
100
AcDbEntity
8
1
62
256
6
ByLayer
370
18
48
1
60
0
100
AcDbSpline
70
4
71
3
72
8
73
4
40
0
40
0
40
0
40
0
40
1
40
1
40
1
40
1
41
1
10
412.650480947162
20
-5.65487133421578
30
0
41
1
10
412.87797677687
20
-5.32848748397726
30
0
41
1
10
413.10282976625
20
-4.99969542669066
30
0
41
1
10
413.324759526419
20
-4.66823966660252
30
0
0
SPLINE
5
163
100
AcDbEntity
8
1
62
256
6
ByLayer
370
18
48
1
60
0
100
AcDbSpline
70
4
71
3
72
8
73
4
40
0
40
0
40
0
40
0
40
1
40
1
40
1
40
1
41
1
10
413.324759526419
20
-4.44401413331479
30
0
41
1
10
413.100007511727
20
-4.62808164940662
30
0
41
1
10
412.875247737629
20
-4.81213653340302
30
0
41
1
10
412.650480947162
20
-4.99617999157198
30
0
0
SPLINE
5
164
100
AcDbEntity
8
1
62
256
6
ByLayer
370
18
48
1
60
0
100
AcDbSpline
70
4
71
3
72
39
73
35
40
0
40
0
40
0
40
0
40
0.062500000000001
40
0.062500000000001
40
0.125000000000002
40
0.125000000000002
40
0.156249999999999
40
0.156249999999999
40
0.187499999999995
40
0.187499999999995
40
0.218749999999992
40
0.218749999999992
40
0.249999999999988
40
0.281249999999985
40
0.281249999999985
40
0.312499999999981
40
0.312499999999981
40
0.374999999999974
40
0.374999999999974
40
0.406249999999971
40
0.406249999999971
40
0.437499999999969
40
0.437499999999969
40
0.499999999999972
40
0.499999999999972
40
0.562499999999975
40
0.562499999999975
40
0.624999999999979
40
0.624999999999979
40
0.749999999999986
40
0.749999999999986
40
0.874999999999993
40
0.874999999999993
40
1
40
1
40
1
40
1
41
1
10
412.650480947162
20
-4.99617999157198
30
0
41
1
10
412.642517355019
20
-5.0027007370719
30
0
41
1
10
412.63453440989
20
-5.00878159165063
30
0
41
1
10
412.619042460543
20
-5.01946231516712
30
0
41
1
10
412.611511726718
20
-5.02408959518203
30
0
41
1
10
412.600621370502
20
-5.02968068062546
30
0
41
1
10
412.597061556649
20
-5.03131246213718
30
0
41
1
10
412.590290341915
20
-5.03398567944652
30
0
41
1
10
412.587053841966
20
-5.03504091900891
30
0
41
1
10
412.58089623758
20
-5.03655511880726
30
0
41
1
10
412.577954952722
20
-5.03701454672404
30
0
41
1
10
412.572512587958
20
-5.03728427632893
30
0
41
1
10
412.567547431315
20
-5.03691345563783
30
0
41
1
10
412.56348717482
20
-5.03532586277714
30
0
41
1
10
412.559865561372
20
-5.03314737202629
30
0
41
1
10
412.558264729514
20
-5.03174880183218
30
0
41
1
10
412.554196953589
20
-5.02679176938062
30
0
41
1
10
412.552440567205
20
-5.0225079257529
30
0
41
1
10
412.550959029724
20
-5.01489635645561
30
0
41
1
10
412.550660070545
20
-5.01214610672554
30
0
41
1
10
412.550422720308
20
-5.00638207547308
30
0
41
1
10
412.550481076442
20
-5.00336117180615
30
0
41
1
10
412.551119474506
20
-4.99393435785436
30
0
41
1
10
412.552159177103
20
-4.98716718747636
30
0
41
1
10
412.555239798449
20
-4.97284376907106
30
0
41
1
10
412.557290439547
20
-4.96527469724032
30
0
41
1
10
412.562146245543
20
-4.94978534924877
30
0
41
1
10
412.564959968858
20
-4.94182339839057
30
0
41
1
10
412.574383518436
20
-4.91738351676605
30
0
41
1
10
412.582020418222
20
-4.90026269122404
30
0
41
1
10
412.598905986321
20
-4.86584943637183
30
0
41
1
10
412.608200334979
20
-4.84843529348399
30
0
41
1
10
412.628249215424
20
-4.81325479016806
30
0
41
1
10
412.639006636006
20
-4.79548771526874
30
0
41
1
10
412.650480947162
20
-4.77755066300921
30
0
0
SPLINE
5
165
100
AcDbEntity
8
1
62
256
6
ByLayer
370
18
48
1
60
0
100
AcDbSpline
70
4
71
3
72
8
73
4
40
0
40
0
40
0
40
0
40
1
40
1
40
1
40
1
41
1
10
412.650480947162
20
-4.77755066300921
30
0
41
1
10
412.878876276632
20
-4.4205149416585
30
0
41
1
10
413.103764009202
20
-4.06055984951604
30
0
41
1
10
413.324759526419
20
-3.69736526887351
30
0
0
SPLINE
5
166
100
AcDbEntity
8
1
62
256
6
ByLayer
370
18
48
1
60
0
100
AcDbSpline
70
4
71
3
72
8
73
4
40
0
40
0
40
0
40
0
40
1
40
1
40
1
40
1
41
1
10
413.324759526419
20
-3.42180258736585
30
0
41
1
10
413.10000187134
20
-3.60544727349571
30
0
41
1
10
412.875242279349
20
-3.78908879894846
30
0
41
1
10
412.650480947162
20
-3.97272748451729
30
0
0
SPLINE
5
167
100
AcDbEntity
8
1
62
256
6
ByLayer
370
18
48
1
60
0
100
AcDbSpline
70
4
71
3
72
38
73
34
40
0
40
0
40
0
40
0
40
0.0624999999999871
40
0.0624999999999871
40
0.0937499999999832
40
0.0937499999999832
40
0.124999999999979
40
0.124999999999979
40
0.187499999999976
40
0.187499999999976
40
0.249999999999972
40
0.249999999999972
40
0.281249999999974
40
0.281249999999974
40
0.312499999999976
40
0.312499999999976
40
0.374999999999979
40
0.374999999999979
40
0.437499999999981
40
0.437499999999981
40
0.499999999999984
40
0.499999999999984
40
0.562499999999987
40
0.562499999999987
40
0.624999999999989
40
0.624999999999989
40
0.687499999999992
40
0.687499999999992
40
0.749999999999995
40
0.749999999999995
40
0.874999999999997
40
0.874999999999997
40
1
40
1
40
1
40
1
41
1
10
412.650480947162
20
-3.97272748451729
30
0
41
1
10
412.642084189611
20
-3.97958795960272
30
0
41
1
10
412.633635577278
20
-3.98587307783458
30
0
41
1
10
412.621331349082
20
-3.99385427794306
30
0
41
1
10
412.617278610407
20
-3.99628415462024
30
0
41
1
10
412.609284196945
20
-4.00061672255669
30
0
41
1
10
412.605312533919
20
-4.00253096411251
30
0
41
1
10
412.59384949108
20
-4.00724042347377
30
0
41
1
10
412.586793021272
20
-4.00902617700712
30
0
41
1
10
412.574217814694
20
-4.00947418594671
30
0
41
1
10
412.568995280752
20
-4.00813911091188
30
0
41
1
10
412.562595860953
20
-4.00402834981685
30
0
41
1
10
412.560701051961
20
-4.00229118754964
30
0
41
1
10
412.557471003325
20
-3.99826785950165
30
0
41
1
10
412.556116901746
20
-3.9959736675126
30
0
41
1
10
412.552741344183
20
-3.98834591417068
30
0
41
1
10
412.551412871276
20
-3.98221371650544
30
0
41
1
10
412.550260898918
20
-3.96896225515889
30
0
41
1
10
412.550404629695
20
-3.96178511454554
30
0
41
1
10
412.551786707427
20
-3.94658868130136
30
0
41
1
10
412.55302900844
20
-3.93856640108873
30
0
41
1
10
412.556428844899
20
-3.92181535036866
30
0
41
1
10
412.558575785074
20
-3.91315319947307
30
0
41
1
10
412.563557184201
20
-3.89553843947527
30
0
41
1
10
412.566399025426
20
-3.88655452303158
30
0
41
1
10
412.5726862554
20
-3.86828257420939
30
0
41
1
10
412.576143791446
20
-3.85896563047709
30
0
41
1
10
412.58354639268
20
-3.84020084556562
30
0
41
1
10
412.587481021919
20
-3.83077547210371
30
0
41
1
10
412.599905559109
20
-3.80238513745371
30
0
41
1
10
412.609009839549
20
-3.7833070438349
30
0
41
1
10
412.628661740995
20
-3.74488800433443
30
0
41
1
10
412.639211392285
20
-3.72554667574656
30
0
41
1
10
412.650480947162
20
-3.70607698208266
30
0
0
SPLINE
5
168
100
AcDbEntity
8
1
62
256
6
ByLayer
370
18
48
1
60
0
100
AcDbSpline
70
4
71
3
72
8
73
4
40
0
40
0
40
0
40
0
40
1
40
1
40
1
40
1
41
1
10
412.650480947162
20
-3.70607698208266
30
0
41
1
10
412.880211532645
20
-3.30918605128045
30
0
41
1
10
413.105152654041
20
-2.90871232422035
30
0
41
1
10
413.324759526419
20
-2.50424827025262
30
0
0
SPLINE
5
169
100
AcDbEntity
8
1
62
256
6
ByLayer
370
18
48
1
60
0
100
AcDbSpline
70
4
71
3
72
8
73
4
40
0
40
0
40
0
40
0
40
1
40
1
40
1
40
1
41
1
10
413.324759526419
20
-2.16477968744027
30
0
41
1
10
413.10004293855
20
-2.35099187452857
30
0
41
1
10
412.87528177088
20
-2.53713229076112
30
0
41
1
10
412.650480947162
20
-2.72320886309137
30
0
0
SPLINE
5
16A
100
AcDbEntity
8
1
62
256
6
ByLayer
370
18
48
1
60
0
100
AcDbSpline
70
4
71
3
72
34
73
30
40
0
40
0
40
0
40
0
40
0.0624999999999877
40
0.0624999999999877
40
0.0937499999999852
40
0.0937499999999852
40
0.124999999999983
40
0.124999999999983
40
0.18749999999998
40
0.18749999999998
40
0.249999999999976
40
0.249999999999976
40
0.281249999999975
40
0.281249999999975
40
0.312499999999973
40
0.312499999999973
40
0.374999999999977
40
0.374999999999977
40
0.437499999999981
40
0.437499999999981
40
0.499999999999985
40
0.499999999999985
40
0.624999999999988
40
0.624999999999988
40
0.749999999999992
40
0.749999999999992
40
0.874999999999996
40
0.874999999999996
40
1
40
1
40
1
40
1
41
1
10
412.650480947162
20
-2.72320886309228
30
0
41
1
10
412.641610746045
20
-2.73055108093837
30
0
41
1
10
412.632717594853
20
-2.73709742601386
30
0
41
1
10
412.619328414583
20
-2.74520539498968
30
0
41
1
10
412.614948765932
20
-2.74756171194718
30
0
41
1
10
412.606376490095
20
-2.75149614590856
30
0
41
1
10
412.602156895126
20
-2.75308185095662
30
0
41
1
10
412.590005767027
20
-2.75643292619623
30
0
41
1
10
412.582819857639
20
-2.75675740049002
30
0
41
1
10
412.570335823892
20
-2.75344855594545
30
0
41
1
10
412.565449926247
20
-2.74992936230836
30
0
41
1
10
412.559738856258
20
-2.74254380095675
30
0
41
1
10
412.558096977763
20
-2.73970101832054
30
0
41
1
10
412.555363676398
20
-2.73351861218566
30
0
41
1
10
412.554261456695
20
-2.73017426130406
30
0
41
1
10
412.551618606382
20
-2.71950406988526
30
0
41
1
10
412.55074024509
20
-2.71148862180922
30
0
41
1
10
412.550322100162
20
-2.6946421416497
30
0
41
1
10
412.550767880496
20
-2.68576934561122
30
0
41
1
10
412.552650600946
20
-2.66733960157637
30
0
41
1
10
412.554097560382
20
-2.65774830411703
30
0
41
1
10
412.559624326733
20
-2.62836229806959
30
0
41
1
10
412.564840271179
20
-2.60804580031567
30
0
41
1
10
412.577466630171
20
-2.56641517318911
30
0
41
1
10
412.584781622077
20
-2.54544451247415
30
0
41
1
10
412.600983403359
20
-2.50325825027181
30
0
41
1
10
412.609876729726
20
-2.48204169530152
30
0
41
1
10
412.629096511696
20
-2.43938762024362
30
0
41
1
10
412.639424130324
20
-2.41794990812167
30
0
41
1
10
412.650480947162
20
-2.39640238483958
30
0
0
SPLINE
5
16B
100
AcDbEntity
8
1
62
256
6
ByLayer
370
18
48
1
60
0
100
AcDbSpline
70
4
71
3
72
8
73
4
40
0
40
0
40
0
40
0
40
1
40
1
40
1
40
1
41
1
10
412.650480947162
20
-2.39640238483958
30
0
41
1
10
412.882352997816
20
-1.94453016127875
30
0
41
1
10
413.107382666912
20
-1.48816651619705
30
0
41
1
10
413.324759526419
20
-1.02677947489116
30
0
0
SPLINE
5
16C
100
AcDbEntity
8
1
62
256
6
ByLayer
370
18
48
1
60
0
100
AcDbSpline
70
4
71
3
72
8
73
4
40
0
40
0
40
0
40
0
40
1
40
1
40
1
40
1
41
1
10
413.324759526419
20
-0.601461198983714
30
0
41
1
10
413.100191536751
20
-0.795357817350578
30
0
41
1
10
412.875423713527
20
-0.988945107458221
30
0
41
1
10
412.650480947162
20
-1.18226159791618
30
0
0
SPLINE
5
16D
100
AcDbEntity
8
1
62
256
6
ByLayer
370
18
48
1
60
0
100
AcDbSpline
70
4
71
3
72
39
73
35
40
0
40
0
40
0
40
0
40
0.0312500000000003
40
0.0312500000000003
40
0.0625000000000008
40
0.0625000000000008
40
0.0937500000000011
40
0.0937500000000011
40
0.125000000000001
40
0.125000000000001
40
0.156250000000002
40
0.156250000000002
40
0.187500000000002
40
0.187500000000002
40
0.218750000000003
40
0.218750000000003
40
0.250000000000003
40
0.250000000000003
40
0.281250000000003
40
0.281250000000003
40
0.312500000000004
40
0.312500000000004
40
0.375000000000004
40
0.375000000000004
40
0.5
40
0.5
40
0.5625
40
0.5625
40
0.625000000000001
40
0.625000000000001
40
0.750000000000001
40
0.750000000000001
40
0.875
40
1
40
1
40
1
40
1
41
1
10
412.650480947162
20
-1.182261597918
30
0
41
1
10
412.645659559597
20
-1.18640511290346
30
0
41
1
10
412.640801078904
20
-1.19027527253354
30
0
41
1
10
412.630992180374
20
-1.19733665601501
30
0
41
1
10
412.626006027204
20
-1.20054470916693
30
0
41
1
10
412.616213206618
20
-1.20591984138929
30
0
41
1
10
412.611384546088
20
-1.20810902100658
30
0
41
1
10
412.601890289183
20
-1.21128445215328
30
0
41
1
10
412.597355810905
20
-1.21222048374523
30
0
41
1
10
412.588820720175
20
-1.21271895541383
30
0
41
1
10
412.584759371
20
-1.21226588251534
30
0
41
1
10
412.577453125654
20
-1.21002560259382
30
0
41
1
10
412.574191909539
20
-1.2082620751234
30
0
41
1
10
412.568356163976
20
-1.20360470918979
30
0
41
1
10
412.565807208947
20
-1.20071591730056
30
0
41
1
10
412.561457307646
20
-1.19421632214494
30
0
41
1
10
412.559626662753
20
-1.19058162684405
30
0
41
1
10
412.556523269337
20
-1.1826866584442
30
0
41
1
10
412.555247510152
20
-1.17840352998718
30
0
41
1
10
412.55319751331
20
-1.16944341403291
30
0
41
1
10
412.552418485904
20
-1.16476360894916
30
0
41
1
10
412.550682498191
20
-1.15023434939485
30
0
41
1
10
412.550325735068
20
-1.13985561336847
30
0
41
1
10
412.550966789172
20
-1.10799228261726
30
0
41
1
10
412.553590221519
20
-1.08558668761202
30
0
41
1
10
412.559524476594
20
-1.05090260273039
30
0
41
1
10
412.561860927053
20
-1.03911380618899
30
0
41
1
10
412.567088729835
20
-1.01542058685061
30
0
41
1
10
412.569973709317
20
-1.00353553285834
30
0
41
1
10
412.579321527427
20
-0.967780986887703
30
0
41
1
10
412.58646953122
20
-0.943813091053698
30
0
41
1
10
412.602267862415
20
-0.895659477933748
30
0
41
1
10
412.619577003328
20
-0.847286933120699
30
0
41
1
10
412.639694160572
20
-0.798510646184695
30
0
41
1
10
412.650480947162
20
-0.77402032861346
30
0
0
SPLINE
5
16E
100
AcDbEntity
8
1
62
256
6
ByLayer
370
18
48
1
60
0
100
AcDbSpline
70
4
71
3
72
8
73
4
40
0
40
0
40
0
40
0
40
1
40
1
40
1
40
1
41
1
10
412.650480947162
20
-0.77402032861346
30
0
41
1
10
412.886241901321
20
-0.238748717342219
30
0
41
1
10
413.111437539985
20
0.3023714782654
30
0
41
1
10
413.324759526419
20
0.850064507071579
30
0
0
SPLINE
5
16F
100
AcDbEntity
8
1
62
256
6
ByLayer
370
18
48
1
60
0
100
AcDbSpline
70
4
71
3
72
8
73
4
40
0
40
0
40
0
40
0
40
1
40
1
40
1
40
1
41
1
10
413.324759526419
20
1.40610838465523
30
0
41
1
10
413.100672937923
20
1.19383740809286
30
0
41
1
10
412.875878259424
20
0.982570611467622
30
0
41
1
10
412.650480947162
20
0.772158441696831
30
0
0
SPLINE
5
170
100
AcDbEntity
8
1
62
256
6
ByLayer
370
18
48
1
60
0
100
AcDbSpline
70
4
71
3
72
39
73
35
40
0
40
0
40
0
40
0
40
0.0312500000000011
40
0.0312500000000011
40
0.0625000000000023
40
0.0625000000000023
40
0.078125000000003
40
0.078125000000003
40
0.0937500000000037
40
0.0937500000000037
40
0.125000000000005
40
0.125000000000005
40
0.156250000000006
40
0.156250000000006
40
0.187500000000007
40
0.187500000000007
40
0.218750000000008
40
0.218750000000008
40
0.25000000000001
40
0.25000000000001
40
0.281250000000011
40
0.281250000000011
40
0.312500000000012
40
0.312500000000012
40
0.375000000000015
40
0.375000000000015
40
0.500000000000012
40
0.500000000000012
40
0.625000000000009
40
0.625000000000009
40
0.750000000000006
40
0.750000000000006
40
0.875000000000003
40
1
40
1
40
1
40
1
41
1
10
412.650480947162
20
0.772158441695069
30
0
41
1
10
412.645070573186
20
0.767107766883669
30
0
41
1
10
412.639513106979
20
0.762420771162681
30
0
41
1
10
412.62822522535
20
0.754240200486265
30
0
41
1
10
412.622572736455
20
0.750796685828107
30
0
41
1
10
412.614077225303
20
0.746908118961585
30
0
41
1
10
412.611222335286
20
0.745823116404722
30
0
41
1
10
412.605677702528
20
0.744203219120038
30
0
41
1
10
412.602973531995
20
0.743658548373901
30
0
41
1
10
412.595073068045
20
0.742850977478099
30
0
41
1
10
412.590031566255
20
0.743467510966582
30
0
41
1
10
412.581193349521
20
0.746778997478941
30
0
41
1
10
412.577280359417
20
0.749456858875249
30
0
41
1
10
412.570434037439
20
0.756387041092921
30
0
41
1
10
412.567567506173
20
0.76054453976451
30
0
41
1
10
412.562642849809
20
0.769868816366454
30
0
41
1
10
412.560603852079
20
0.77502350680885
30
0
41
1
10
412.557229405652
20
0.785802247766242
30
0
41
1
10
412.555875895449
20
0.791466340271484
30
0
41
1
10
412.553672457203
20
0.80321098298424
30
0
41
1
10
412.552823959493
20
0.809292695741703
30
0
41
1
10
412.551532822405
20
0.821793320072231
30
0
41
1
10
412.551090778585
20
0.828230813472942
30
0
41
1
10
412.550280304693
20
0.847742176638292
30
0
41
1
10
412.550409275107
20
0.861066373726089
30
0
41
1
10
412.552194406003
20
0.901708623728837
30
0
41
1
10
412.555225580056
20
0.92968566977919
30
0
41
1
10
412.56364088965
20
0.986792734526944
30
0
41
1
10
412.568989094997
20
1.0155154688274
30
0
41
1
10
412.581324248186
20
1.07310827821374
30
0
41
1
10
412.588324868774
20
1.10200082661868
30
0
41
1
10
412.603732419277
20
1.15995159280544
30
0
41
1
10
412.620551977068
20
1.21806858133243
30
0
41
1
10
412.640038964387
20
1.27649820019298
30
0
41
1
10
412.650480947162
20
1.30579251693774
30
0
0
SPLINE
5
171
100
AcDbEntity
8
1
62
256
6
ByLayer
370
18
48
1
60
0
100
AcDbSpline
70
4
71
3
72
8
73
4
40
0
40
0
40
0
40
0
40
1
40
1
40
1
40
1
41
1
10
412.650480947162
20
1.30579251693774
30
0
41
1
10
412.895186418447
20
1.99229811068864
30
0
41
1
10
413.120774732857
20
2.68704559565634
30
0
41
1
10
413.324759526419
20
3.391106906414
30
0
0
SPLINE
5
172
100
AcDbEntity
8
1
62
256
6
ByLayer
370
18
48
1
60
0
100
AcDbSpline
70
4
71
3
72
8
73
4
40
0
40
0
40
0
40
0
40
1
40
1
40
1
40
1
41
1
10
413.324759526419
20
4.20456470771899
30
0
41
1
10
413.102856207575
20
3.94187060693349
30
0
41
1
10
412.87789393872
20
3.68271052174703
30
0
41
1
10
412.650480947162
20
3.42638176503277
30
0
0
SPLINE
5
173
100
AcDbEntity
8
1
62
256
6
ByLayer
370
18
48
1
60
0
100
AcDbSpline
70
4
71
3
72
38
73
34
40
0
40
0
40
0
40
0
40
0.031250000000007
40
0.031250000000007
40
0.0468750000000105
40
0.0468750000000105
40
0.0625000000000142
40
0.0625000000000142
40
0.0781250000000178
40
0.0781250000000178
40
0.0937500000000214
40
0.0937500000000214
40
0.109375000000025
40
0.109375000000025
40
0.125000000000029
40
0.125000000000029
40
0.156250000000028
40
0.156250000000028
40
0.187500000000027
40
0.187500000000027
40
0.250000000000026
40
0.250000000000026
40
0.312500000000025
40
0.312500000000025
40
0.375000000000024
40
0.375000000000024
40
0.50000000000002
40
0.50000000000002
40
0.625000000000015
40
0.625000000000015
40
0.75000000000001
40
0.75000000000001
40
1
40
1
40
1
40
1
41
1
10
412.650480947163
20
3.42638176502948
30
0
41
1
10
412.643984522043
20
3.41905931364801
30
0
41
1
10
412.637087099728
20
3.41231875587789
30
0
41
1
10
412.626354747428
20
3.40431929894339
30
0
41
1
10
412.622672786078
20
3.40198024808029
30
0
41
1
10
412.615227174174
20
3.39830359301879
30
0
41
1
10
412.611531397854
20
3.39699544836816
30
0
41
1
10
412.604203715131
20
3.39563392473019
30
0
41
1
10
412.600638398742
20
3.39561065532053
30
0
41
1
10
412.593959541195
20
3.39685932334777
30
0
41
1
10
412.590782123263
20
3.39815201330703
30
0
41
1
10
412.58507026222
20
3.4017179267301
30
0
41
1
10
412.582488099225
20
3.40398866350597
30
0
41
1
10
412.577753050436
20
3.40929668580236
30
0
41
1
10
412.575612489275
20
3.41232946069277
30
0
41
1
10
412.569849274635
20
3.42207971328747
30
0
41
1
10
412.566789889396
20
3.42956456217814
30
0
41
1
10
412.561775920044
20
3.44522279655121
30
0
41
1
10
412.559797491318
20
3.45345737470882
30
0
41
1
10
412.554893629213
20
3.47895805759015
30
0
41
1
10
412.552983754743
20
3.49711581875528
30
0
41
1
10
412.550722421526
20
3.53361208320371
30
0
41
1
10
412.550369579247
20
3.55210014155142
30
0
41
1
10
412.550648562
20
3.58938773594883
30
0
41
1
10
412.551290415845
20
3.60819022626737
30
0
41
1
10
412.5543116466
20
3.6649523649873
30
0
41
1
10
412.557768451239
20
3.70326129889264
30
0
41
1
10
412.566574464435
20
3.78052082889997
30
0
41
1
10
412.571943356467
20
3.81947722862333
30
0
41
1
10
412.584191791777
20
3.89791859569266
30
0
41
1
10
412.591049423945
20
3.93722891010407
30
0
41
1
10
412.613451439318
20
4.05514039385747
30
0
41
1
10
412.630794068013
20
4.13384383757239
30
0
41
1
10
412.650480947162
20
4.21263609031763
30
0
0
SPLINE
5
174
100
AcDbEntity
8
1
62
256
6
ByLayer
370
18
48
1
60
0
100
AcDbSpline
70
4
71
3
72
8
73
4
40
0
40
0
40
0
40
0
40
1
40
1
40
1
40
1
41
1
10
412.650480947162
20
4.21263609031757
30
0
41
1
10
412.936650314553
20
5.35796384660375
30
0
41
1
10
413.164101740032
20
6.51844481811247
30
0
41
1
10
413.324759526419
20
7.69616308295463
30
0
0
SPLINE
5
175
100
AcDbEntity
8
1
62
256
6
ByLayer
370
18
48
1
60
0
100
AcDbSpline
70
4
71
3
72
10
73
6
40
0
40
0
40
0
40
0
40
0.5
40
0.5
40
1
40
1
40
1
40
1
41
1
10
413.324759526419
20
10.2101643756556
30
0
41
1
10
413.253343637493
20
9.83605222486221
30
0
41
1
10
413.158489259995
20
9.47177884438065
30
0
41
1
10
412.930986544702
20
8.7590968476228
30
0
41
1
10
412.79833441894
20
8.41068982142127
30
0
41
1
10
412.650480947162
20
8.06866386161909
30
0
0
SPLINE
5
176
100
AcDbEntity
8
1
62
256
6
ByLayer
370
18
48
1
60
0
100
AcDbSpline
70
4
71
3
72
57
73
53
40
0
40
0
40
0
40
0
40
0.125000000000003
40
0.125000000000003
40
0.250000000000006
40
0.375000000000009
40
0.375000000000009
40
0.500000000000013
40
0.500000000000013
40
0.625000000000016
40
0.625000000000016
40
0.687500000000017
40
0.687500000000017
40
0.750000000000019
40
0.750000000000019
40
0.812500000000021
40
0.812500000000021
40
0.875000000000022
40
0.875000000000022
40
0.906250000000023
40
0.906250000000023
40
0.921875000000023
40
0.921875000000023
40
0.937500000000024
40
0.937500000000024
40
0.945312500000024
40
0.945312500000024
40
0.953125000000024
40
0.953125000000024
40
0.960937500000024
40
0.960937500000024
40
0.964843750000023
40
0.964843750000023
40
0.968750000000022
40
0.968750000000022
40
0.972656250000022
40
0.972656250000022
40
0.976562500000021
40
0.976562500000021
40
0.97851562500002
40
0.97851562500002
40
0.980468750000018
40
0.980468750000018
40
0.982421875000017
40
0.982421875000017
40
0.984375000000015
40
0.984375000000015
40
0.988281250000012
40
0.988281250000012
40
0.992187500000008
40
0.992187500000008
40
1
40
1
40
1
40
1
41
1
10
412.650480947162
20
11.544477580999
30
0
41
1
10
412.649474914009
20
11.3925728230798
30
0
41
1
10
412.647352403027
20
11.2406819335624
30
0
41
1
10
412.641079448038
20
10.9369289576873
30
0
41
1
10
412.632780577668
20
10.6332047955109
30
0
41
1
10
412.621220285853
20
10.3295424345782
30
0
41
1
10
412.608599227804
20
10.0259140378548
30
0
41
1
10
412.601754923346
20
9.87411680115963
30
0
41
1
10
412.587790157286
20
9.57056059262811
30
0
41
1
10
412.580656945612
20
9.41880154760946
30
0
41
1
10
412.570656270951
20
9.19119674680292
30
0
41
1
10
412.567443146172
20
9.11533413035335
30
0
41
1
10
412.561508805657
20
8.96362161662358
30
0
41
1
10
412.558783648494
20
8.88774767313919
30
0
41
1
10
412.554227791731
20
8.7363980776488
30
0
41
1
10
412.552384521753
20
8.6608820826853
30
0
41
1
10
412.550304819929
20
8.51030544061052
30
0
41
1
10
412.550017507499
20
8.43523525994857
30
0
41
1
10
412.552116127572
20
8.32321938097101
30
0
41
1
10
412.553241725102
20
8.28597982306565
30
0
41
1
10
412.556066196098
20
8.23036217479194
30
0
41
1
10
412.557199844787
20
8.21186376712734
30
0
41
1
10
412.560032561576
20
8.17498249382146
30
0
41
1
10
412.561724621638
20
8.15659831536362
30
0
41
1
10
412.564962866512
20
8.12916042457891
30
0
41
1
10
412.566160648091
20
8.12003783743336
30
0
41
1
10
412.568892543204
20
8.10185807402092
30
0
41
1
10
412.570429233635
20
8.09277298098755
30
0
41
1
10
412.574003223349
20
8.0748296105026
30
0
41
1
10
412.576022559128
20
8.06601943191163
30
0
41
1
10
412.579665375541
20
8.05322695536699
30
0
41
1
10
412.580983473112
20
8.04903429871069
30
0
41
1
10
412.583925806698
20
8.04085903674451
30
0
41
1
10
412.585555704597
20
8.03686312506596
30
0
41
1
10
412.589214864266
20
8.02940680909933
30
0
41
1
10
412.591242911041
20
8.02591802146429
30
0
41
1
10
412.596024190781
20
8.01981277473993
30
0
41
1
10
412.598791925149
20
8.01720744962415
30
0
41
1
10
412.603585192062
20
8.01497186906528
30
0
41
1
10
412.605238544653
20
8.01453095266271
30
0
41
1
10
412.608667422955
20
8.01431709371343
30
0
41
1
10
412.61045752744
20
8.01455966997361
30
0
41
1
10
412.613936585578
20
8.01566676014744
30
0
41
1
10
412.615671884936
20
8.01653771797322
30
0
41
1
10
412.61899339339
20
8.01871155502164
30
0
41
1
10
412.620581409003
20
8.02000587963528
30
0
41
1
10
412.625186557665
20
8.02434154931984
30
0
41
1
10
412.628021131566
20
8.02780990187074
30
0
41
1
10
412.633249794904
20
8.03514751172548
30
0
41
1
10
412.635679061346
20
8.03906668056158
30
0
41
1
10
412.642616772462
20
8.05129666549925
30
0
41
1
10
412.646685962344
20
8.05988501247151
30
0
41
1
10
412.650480947162
20
8.06866386161909
30
0
0
SPLINE
5
177
100
AcDbEntity
8
1
62
256
6
ByLayer
370
18
48
1
60
0
100
AcDbSpline
70
4
71
3
72
8
73
4
40
0
40
0
40
0
40
0
40
1
40
1
40
1
40
1
41
1
10
412.650480947162
20
11.544477580999
30
0
41
1
10
412.651388368233
20
11.6814925269996
30
0
41
1
10
412.651388368233
20
11.8185074730004
30
0
41
1
10
412.650480947162
20
11.955522419001
30
0
0
SPLINE
5
178
100
AcDbEntity
8
1
62
256
6
ByLayer
370
18
48
1
60
0
100
AcDbSpline
70
4
71
3
72
59
73
55
40
0
40
0
40
0
40
0
40
0.124999999999997
40
0.124999999999997
40
0.249999999999994
40
0.374999999999992
40
0.374999999999992
40
0.499999999999989
40
0.499999999999989
40
0.624999999999986
40
0.624999999999986
40
0.687499999999985
40
0.687499999999985
40
0.749999999999984
40
0.749999999999984
40
0.812499999999984
40
0.812499999999984
40
0.843749999999983
40
0.843749999999983
40
0.874999999999982
40
0.874999999999982
40
0.906249999999982
40
0.906249999999982
40
0.921874999999982
40
0.921874999999982
40
0.937499999999982
40
0.937499999999982
40
0.945312499999981
40
0.945312499999981
40
0.95312499999998
40
0.95312499999998
40
0.96093749999998
40
0.96093749999998
40
0.964843749999979
40
0.964843749999979
40
0.968749999999979
40
0.968749999999979
40
0.972656249999979
40
0.972656249999979
40
0.976562499999978
40
0.976562499999978
40
0.978515624999979
40
0.978515624999979
40
0.98046874999998
40
0.98046874999998
40
0.982421874999981
40
0.982421874999981
40
0.984374999999982
40
0.984374999999982
40
0.988281249999986
40
0.988281249999986
40
0.99218749999999
40
0.99218749999999
40
1
40
1
40
1
40
1
41
1
10
412.650480947162
20
11.955522419001
30
0
41
1
10
412.649474529164
20
12.1074852861184
30
0
41
1
10
412.647350571744
20
12.2594620343186
30
0
41
1
10
412.641070593963
20
12.5634443933806
30
0
41
1
10
412.632760419544
20
12.8674556232822
30
0
41
1
10
412.621178756172
20
13.171528864121
30
0
41
1
10
412.608531759673
20
13.4756362295771
30
0
41
1
10
412.601672191193
20
13.6277069546612
30
0
41
1
10
412.587676377915
20
13.9318869200884
30
0
41
1
10
412.580530180473
20
14.0839457376473
30
0
41
1
10
412.570536139854
20
14.3116080984842
30
0
41
1
10
412.567328862803
20
14.3874390773333
30
0
41
1
10
412.561413484972
20
14.5389690857478
30
0
41
1
10
412.558701689912
20
14.6146683981297
30
0
41
1
10
412.554167978853
20
14.7659053359233
30
0
41
1
10
412.552334555853
20
14.8414438407013
30
0
41
1
10
412.550799054594
20
14.9545885463252
30
0
41
1
10
412.550492739193
20
14.9922760369101
30
0
41
1
10
412.550469812772
20
15.0675825427867
30
0
41
1
10
412.550750183483
20
15.1052388665527
30
0
41
1
10
412.552208755407
20
15.1802326217143
30
0
41
1
10
412.553373181026
20
15.2175729768556
30
0
41
1
10
412.556275212278
20
15.2731989072047
30
0
41
1
10
412.557437968645
20
15.2916759343079
30
0
41
1
10
412.560336644401
20
15.3284457108356
30
0
41
1
10
412.562065629678
20
15.3467405299606
30
0
41
1
10
412.565365531574
20
15.3739620454231
30
0
41
1
10
412.566584913132
20
15.3829985979262
30
0
41
1
10
412.569361551694
20
15.4009675743079
30
0
41
1
10
412.570921073671
20
15.4099191615229
30
0
41
1
10
412.574516938715
20
15.4274537645173
30
0
41
1
10
412.576547962152
20
15.4360599634294
30
0
41
1
10
412.58021552862
20
15.4485438125883
30
0
41
1
10
412.581543102687
20
15.4526331396191
30
0
41
1
10
412.584510409302
20
15.4605987392374
30
0
41
1
10
412.586161611328
20
15.4645039643821
30
0
41
1
10
412.589888240219
20
15.4717777673949
30
0
41
1
10
412.591955510826
20
15.4751627485116
30
0
41
1
10
412.59684579735
20
15.4810016203025
30
0
41
1
10
412.599637337106
20
15.483383717607
30
0
41
1
10
412.604411839463
20
15.4852706160983
30
0
41
1
10
412.606061767277
20
15.4856019586466
30
0
41
1
10
412.609492008734
20
15.4856009926042
30
0
41
1
10
412.611227428267
20
15.4852622784862
30
0
41
1
10
412.61463552521
20
15.4840069946704
30
0
41
1
10
412.616332222931
20
15.4830796461143
30
0
41
1
10
412.61955483406
20
15.4808482353879
30
0
41
1
10
412.621102908113
20
15.4795383311095
30
0
41
1
10
412.62560527577
20
15.4751733572552
30
0
41
1
10
412.628363216431
20
15.4717476448435
30
0
41
1
10
412.633516183583
20
15.4644363213692
30
0
41
1
10
412.635914818984
20
15.4605362614837
30
0
41
1
10
412.642693644436
20
15.448528392883
30
0
41
1
10
412.646722359183
20
15.4400307915785
30
0
41
1
10
412.650480947162
20
15.4313361383825
30
0
0
SPLINE
5
179
100
AcDbEntity
8
1
62
256
6
ByLayer
370
18
48
1
60
0
100
AcDbSpline
70
4
71
3
72
10
73
6
40
0
40
0
40
0
40
0
40
0.5
40
0.5
40
1
40
1
40
1
40
1
41
1
10
412.650480947161
20
15.4313361383822
30
0
41
1
10
412.798334418939
20
15.0893101785827
30
0
41
1
10
412.9309865447
20
14.7409031523839
30
0
41
1
10
413.158489259991
20
14.0282211556317
30
0
41
1
10
413.253343637489
20
13.6639477751531
30
0
41
1
10
413.324759526416
20
13.2898356243629
30
0
0
SPLINE
5
17A
100
AcDbEntity
8
1
62
256
6
ByLayer
370
18
48
1
60
0
100
AcDbSpline
70
4
71
3
72
8
73
4
40
0
40
0
40
0
40
0
40
1
40
1
40
1
40
1
41
1
10
413.324759526419
20
15.8038369170454
30
0
41
1
10
413.164101740032
20
16.9815551818875
30
0
41
1
10
412.936650314553
20
18.1420361533963
30
0
41
1
10
412.650480947162
20
19.2873639096824
30
0
0
SPLINE
5
17B
100
AcDbEntity
8
1
62
256
6
ByLayer
370
18
48
1
60
0
100
AcDbSpline
70
4
71
3
72
42
73
38
40
0
40
0
40
0
40
0
40
0.250000000000012
40
0.250000000000012
40
0.375000000000018
40
0.375000000000018
40
0.500000000000024
40
0.500000000000024
40
0.62500000000003
40
0.62500000000003
40
0.687500000000028
40
0.687500000000028
40
0.750000000000026
40
0.750000000000026
40
0.781250000000023
40
0.781250000000023
40
0.81250000000002
40
0.81250000000002
40
0.843750000000017
40
0.843750000000017
40
0.859375000000015
40
0.859375000000015
40
0.875000000000014
40
0.875000000000014
40
0.890625000000012
40
0.890625000000012
40
0.90625000000001
40
0.90625000000001
40
0.921875000000009
40
0.921875000000009
40
0.937500000000007
40
0.937500000000007
40
0.953125000000005
40
0.953125000000005
40
0.968750000000003
40
0.968750000000003
40
1
40
1
40
1
40
1
41
1
10
412.650480947162
20
19.2873639096824
30
0
41
1
10
412.63076897837
20
19.3662565780124
30
0
41
1
10
412.61346059995
20
19.4448483875495
30
0
41
1
10
412.591140780514
20
19.5622718609814
30
0
41
1
10
412.584320719395
20
19.6013346156643
30
0
41
1
10
412.572124668301
20
19.6792847102226
30
0
41
1
10
412.566742521326
20
19.7181725752515
30
0
41
1
10
412.557864378318
20
19.795734165457
30
0
41
1
10
412.55434285781
20
19.8344400879741
30
0
41
1
10
412.551271377319
20
19.8921780618732
30
0
41
1
10
412.550630005146
20
19.9112308644058
30
0
41
1
10
412.550377159459
20
19.9488263852385
30
0
41
1
10
412.550757044976
20
19.9673731419214
30
0
41
1
10
412.552486535079
20
19.9946298400157
30
0
41
1
10
412.553258656099
20
20.0036204028768
30
0
41
1
10
412.555324288495
20
20.0213507168489
30
0
41
1
10
412.556619146011
20
20.0301132325764
30
0
41
1
10
412.559941779673
20
20.0471873027509
30
0
41
1
10
412.56194845637
20
20.0554174754392
30
0
41
1
10
412.565733288872
20
20.067079095543
30
0
41
1
10
412.567125496084
20
20.0708510908144
30
0
41
1
10
412.570248978874
20
20.0780968735361
30
0
41
1
10
412.571992418155
20
20.0815905985706
30
0
41
1
10
412.575857623531
20
20.0880349923355
30
0
41
1
10
412.577978928924
20
20.0909948006531
30
0
41
1
10
412.582717557109
20
20.0962264145773
30
0
41
1
10
412.58536880188
20
20.0985166992717
30
0
41
1
10
412.591140283969
20
20.1020175053935
30
0
41
1
10
412.594278886941
20
20.1032465409801
30
0
41
1
10
412.601038610781
20
20.104412808648
30
0
41
1
10
412.604547324229
20
20.1043357984657
30
0
41
1
10
412.611812347963
20
20.1029157629835
30
0
41
1
10
412.615579957294
20
20.1015498926707
30
0
41
1
10
412.622949675614
20
20.0978528590455
30
0
41
1
10
412.626634528599
20
20.0954932373683
30
0
41
1
10
412.637401170667
20
20.0874023255912
30
0
41
1
10
412.644079218297
20
20.0808339493794
30
0
41
1
10
412.650480947162
20
20.0736182349672
30
0
0
SPLINE
5
17C
100
AcDbEntity
8
1
62
256
6
ByLayer
370
18
48
1
60
0
100
AcDbSpline
70
4
71
3
72
8
73
4
40
0
40
0
40
0
40
0
40
1
40
1
40
1
40
1
41
1
10
412.650480947162
20
20.0736182349672
30
0
41
1
10
412.877893938717
20
19.8172894782562
30
0
41
1
10
413.10285620757
20
19.5581293930729
30
0
41
1
10
413.324759526411
20
19.2954352922907
30
0
0
SPLINE
5
17D
100
AcDbEntity
8
1
62
256
6
ByLayer
370
18
48
1
60
0
100
AcDbSpline
70
4
71
3
72
8
73
4
40
0
40
0
40
0
40
0
40
1
40
1
40
1
40
1
41
1
10
413.324759526419
20
20.108893093586
30
0
41
1
10
413.120774732857
20
20.8129544043437
30
0
41
1
10
412.895186418447
20
21.5077018893114
30
0
41
1
10
412.650480947162
20
22.1942074830623
30
0
0
SPLINE
5
17E
100
AcDbEntity
8
1
62
256
6
ByLayer
370
18
48
1
60
0
100
AcDbSpline
70
4
71
3
72
40
73
36
40
0
40
0
40
0
40
0
40
0.125000000000003
40
0.125000000000003
40
0.250000000000006
40
0.250000000000006
40
0.375000000000009
40
0.375000000000009
40
0.500000000000013
40
0.500000000000013
40
0.562500000000005
40
0.562500000000005
40
0.624999999999998
40
0.624999999999998
40
0.68749999999999
40
0.68749999999999
40
0.749999999999983
40
0.749999999999983
40
0.781249999999984
40
0.781249999999984
40
0.812499999999985
40
0.812499999999985
40
0.843749999999985
40
0.843749999999985
40
0.874999999999986
40
0.874999999999986
40
0.906249999999987
40
0.906249999999987
40
0.921874999999987
40
0.921874999999987
40
0.937499999999988
40
0.937499999999988
40
0.968749999999994
40
0.968749999999994
40
1
40
1
40
1
40
1
41
1
10
412.650480947162
20
22.1942074830623
30
0
41
1
10
412.640025010737
20
22.2235409458827
30
0
41
1
10
412.630210989746
20
22.2529673076446
30
0
41
1
10
412.611958545041
20
22.3116002322846
30
0
41
1
10
412.603523410692
20
22.340786552845
30
0
41
1
10
412.588102337403
20
22.3988854928165
30
0
41
1
10
412.581113785878
20
22.4277985452119
30
0
41
1
10
412.5688291768
20
22.4853093306323
30
0
41
1
10
412.56352332279
20
22.5139086554242
30
0
41
1
10
412.557268698593
20
22.5564991466696
30
0
41
1
10
412.555468305322
20
22.5706822963954
30
0
41
1
10
412.55261922337
20
22.5986113407325
30
0
41
1
10
412.551563972929
20
22.6123801284274
30
0
41
1
10
412.550399909879
20
22.6394214732842
30
0
41
1
10
412.550285829804
20
22.6526966836893
30
0
41
1
10
412.55138586223
20
22.6785585052098
30
0
41
1
10
412.552608640832
20
22.691233130269
30
0
41
1
10
412.555948456209
20
22.7088608230583
30
0
41
1
10
412.557314290988
20
22.7145185412801
30
0
41
1
10
412.560709973981
20
22.725262942649
30
0
41
1
10
412.562757184409
20
22.7303881681514
30
0
41
1
10
412.567691285185
20
22.739647309684
30
0
41
1
10
412.570555797839
20
22.743760395917
30
0
41
1
10
412.577358112121
20
22.7505969404051
30
0
41
1
10
412.581328265331
20
22.7532995526687
30
0
41
1
10
412.590209516905
20
22.7565701580048
30
0
41
1
10
412.595238130169
20
22.7571547338828
30
0
41
1
10
412.603144568995
20
22.7563121242097
30
0
41
1
10
412.605853809948
20
22.7557558877143
30
0
41
1
10
412.611415566325
20
22.7541091466676
30
0
41
1
10
412.614249175209
20
22.7530206655203
30
0
41
1
10
412.622685087213
20
22.7491362853478
30
0
41
1
10
412.628307688267
20
22.7457046891457
30
0
41
1
10
412.639550729521
20
22.7375472607251
30
0
41
1
10
412.645089621271
20
22.73287445141
30
0
41
1
10
412.650480947162
20
22.7278415583049
30
0
0
SPLINE
5
17F
100
AcDbEntity
8
1
62
256
6
ByLayer
370
18
48
1
60
0
100
AcDbSpline
70
4
71
3
72
8
73
4
40
0
40
0
40
0
40
0
40
1
40
1
40
1
40
1
41
1
10
412.650480947162
20
22.7278415583032
30
0
41
1
10
412.875878259424
20
22.5174293885324
30
0
41
1
10
413.100672937923
20
22.3061625919071
30
0
41
1
10
413.324759526419
20
22.0938916153448
30
0
0
SPLINE
5
180
100
AcDbEntity
8
1
62
256
6
ByLayer
370
18
48
1
60
0
100
AcDbSpline
70
4
71
3
72
8
73
4
40
0
40
0
40
0
40
0
40
1
40
1
40
1
40
1
41
1
10
413.324759526419
20
22.6499354929284
30
0
41
1
10
413.111437539985
20
23.1976285217346
30
0
41
1
10
412.886241901321
20
23.7387487173422
30
0
41
1
10
412.650480947162
20
24.2740203286135
30
0
0
SPLINE
5
181
100
AcDbEntity
8
1
62
256
6
ByLayer
370
18
48
1
60
0
100
AcDbSpline
70
4
71
3
72
40
73
36
40
0
40
0
40
0
40
0
40
0.124999999999992
40
0.124999999999992
40
0.249999999999984
40
0.249999999999984
40
0.374999999999976
40
0.374999999999976
40
0.499999999999968
40
0.499999999999968
40
0.562499999999968
40
0.562499999999968
40
0.624999999999969
40
0.624999999999969
40
0.687499999999969
40
0.687499999999969
40
0.718749999999972
40
0.718749999999972
40
0.749999999999975
40
0.749999999999975
40
0.781249999999978
40
0.781249999999978
40
0.812499999999981
40
0.812499999999981
40
0.843749999999984
40
0.843749999999984
40
0.874999999999988
40
0.874999999999988
40
0.906249999999991
40
0.906249999999991
40
0.937499999999994
40
0.937499999999994
40
0.968749999999997
40
0.968749999999997
40
1
40
1
40
1
40
1
41
1
10
412.650480947162
20
24.2740203286135
30
0
41
1
10
412.639690471916
20
24.2985190209094
30
0
41
1
10
412.629613916005
20
24.3229486554888
30
0
41
1
10
412.610849297584
20
24.371668938142
30
0
41
1
10
412.602160592807
20
24.3959596622956
30
0
41
1
10
412.586289625029
20
24.4443887125299
30
0
41
1
10
412.579096154492
20
24.4685525224916
30
0
41
1
10
412.566584682111
20
24.5165924147565
30
0
41
1
10
412.561339273704
20
24.5401565661243
30
0
41
1
10
412.555481361028
20
24.5746060554301
30
0
41
1
10
412.553867302615
20
24.5859382479917
30
0
41
1
10
412.551487852271
20
24.6082271487095
30
0
41
1
10
412.550718615151
20
24.6192396521953
30
0
41
1
10
412.550336211257
20
24.6404892822468
30
0
41
1
10
412.550714779598
20
24.6506787514834
30
0
41
1
10
412.552465551096
20
24.665065565048
30
0
41
1
10
412.553248182532
20
24.6697101977658
30
0
41
1
10
412.555309097648
20
24.6786248501684
30
0
41
1
10
412.556593904736
20
24.6829010995047
30
0
41
1
10
412.559717301251
20
24.6907756166953
30
0
41
1
10
412.561559358519
20
24.6944002494743
30
0
41
1
10
412.565937706079
20
24.7008777423328
30
0
41
1
10
412.568504767017
20
24.7037519025183
30
0
41
1
10
412.574349248947
20
24.7083575070419
30
0
41
1
10
412.577621102576
20
24.7101034727104
30
0
41
1
10
412.584977180313
20
24.7123048822337
30
0
41
1
10
412.589008029016
20
24.7127276846837
30
0
41
1
10
412.597554413792
20
24.712188306639
30
0
41
1
10
412.602165047508
20
24.7112103113994
30
0
41
1
10
412.61156352127
20
24.7080305278136
30
0
41
1
10
412.616343834585
20
24.7058532438612
30
0
41
1
10
412.626039774226
20
24.7005209964753
30
0
41
1
10
412.630992916634
20
24.697336362705
30
0
41
1
10
412.640809613647
20
24.6902688914594
30
0
41
1
10
412.64566607499
20
24.6863995135537
30
0
41
1
10
412.650480947162
20
24.6822615979172
30
0
0
SPLINE
5
182
100
AcDbEntity
8
1
62
256
6
ByLayer
370
18
48
1
60
0
100
AcDbSpline
70
4
71
3
72
8
73
4
40
0
40
0
40
0
40
0
40
1
40
1
40
1
40
1
41
1
10
412.650480947162
20
24.6822615979162
30
0
41
1
10
412.875423713527
20
24.4889451074582
30
0
41
1
10
413.100191536751
20
24.2953578173506
30
0
41
1
10
413.324759526419
20
24.1014611989837
30
0
0
SPLINE
5
183
100
AcDbEntity
8
1
62
256
6
ByLayer
370
18
48
1
60
0
100
AcDbSpline
70
4
71
3
72
8
73
4
40
0
40
0
40
0
40
0
40
1
40
1
40
1
40
1
41
1
10
413.324759526419
20
24.5267794748912
30
0
41
1
10
413.107382666912
20
24.9881665161971
30
0
41
1
10
412.882352997816
20
25.4445301612787
30
0
41
1
10
412.650480947162
20
25.8964023848396
30
0
0
SPLINE
5
184
100
AcDbEntity
8
1
62
256
6
ByLayer
370
18
48
1
60
0
100
AcDbSpline
70
4
71
3
72
40
73
36
40
0
40
0
40
0
40
0
40
0.124999999999993
40
0.124999999999993
40
0.249999999999987
40
0.249999999999987
40
0.37499999999998
40
0.37499999999998
40
0.437499999999974
40
0.437499999999974
40
0.499999999999969
40
0.499999999999969
40
0.562499999999963
40
0.562499999999963
40
0.624999999999958
40
0.624999999999958
40
0.687499999999952
40
0.687499999999952
40
0.718749999999957
40
0.718749999999957
40
0.749999999999963
40
0.749999999999963
40
0.781249999999968
40
0.781249999999968
40
0.812499999999974
40
0.812499999999974
40
0.843749999999979
40
0.843749999999979
40
0.874999999999985
40
0.874999999999985
40
0.937499999999994
40
0.937499999999994
40
0.968749999999997
40
0.968749999999997
40
1
40
1
40
1
40
1
41
1
10
412.650480947162
20
25.8964023848396
30
0
41
1
10
412.639414958228
20
25.9179677827019
30
0
41
1
10
412.629040809079
20
25.9394982781842
30
0
41
1
10
412.609683150239
20
25.9824844320556
30
0
41
1
10
412.600665700982
20
26.0040304822579
30
0
41
1
10
412.584409180772
20
26.0464716606384
30
0
41
1
10
412.577153956557
20
26.0673783954801
30
0
41
1
10
412.56784509696
20
26.098174082471
30
0
41
1
10
412.565006721944
20
26.108344472771
30
0
41
1
10
412.55994833633
20
26.1284644888773
30
0
41
1
10
412.557723039423
20
26.1384367390243
30
0
41
1
10
412.554054354314
20
26.15801378138
30
0
41
1
10
412.552625671844
20
26.1675304795215
30
0
41
1
10
412.550759790623
20
26.1859026326873
30
0
41
1
10
412.550318779816
20
26.1947605718962
30
0
41
1
10
412.550749497916
20
26.2116056545879
30
0
41
1
10
412.551636822927
20
26.2196104377068
30
0
41
1
10
412.554281873644
20
26.2302400051828
30
0
41
1
10
412.555383473851
20
26.2335703154142
30
0
41
1
10
412.55811068237
20
26.2397250071963
30
0
41
1
10
412.559751087798
20
26.2425672484108
30
0
41
1
10
412.5635955558
20
26.2475235357781
30
0
41
1
10
412.565792502249
20
26.2496397405528
30
0
41
1
10
412.570810054821
20
26.2530524418847
30
0
41
1
10
412.573662929114
20
26.2543510856065
30
0
41
1
10
412.579852338378
20
26.255948937453
30
0
41
1
10
412.583198210382
20
26.2562662734115
30
0
41
1
10
412.59039654148
20
26.2559318013037
30
0
41
1
10
412.594295692839
20
26.2552651393165
30
0
41
1
10
412.606418497699
20
26.2518746224376
30
0
41
1
10
412.61493133613
20
26.2478669254721
30
0
41
1
10
412.628201605806
20
26.2398327177079
30
0
41
1
10
412.632697891774
20
26.2368155998196
30
0
41
1
10
412.641605111238
20
26.2303478822293
30
0
41
1
10
412.646047713553
20
26.226878426667
30
0
41
1
10
412.650480947162
20
26.2232088630919
30
0
0
SPLINE
5
185
100
AcDbEntity
8
1
62
256
6
ByLayer
370
18
48
1
60
0
100
AcDbSpline
70
4
71
3
72
8
73
4
40
0
40
0
40
0
40
0
40
1
40
1
40
1
40
1
41
1
10
412.650480947162
20
26.2232088630914
30
0
41
1
10
412.87528177088
20
26.0371322907611
30
0
41
1
10
413.10004293855
20
25.8509918745286
30
0
41
1
10
413.324759526419
20
25.6647796874403
30
0
0
SPLINE
5
186
100
AcDbEntity
8
1
62
256
6
ByLayer
370
18
48
1
60
0
100
AcDbSpline
70
4
71
3
72
8
73
4
40
0
40
0
40
0
40
0
40
1
40
1
40
1
40
1
41
1
10
413.324759526419
20
26.0042482702526
30
0
41
1
10
413.105152654041
20
26.4087123242204
30
0
41
1
10
412.880211532645
20
26.8091860512804
30
0
41
1
10
412.650480947162
20
27.2060769820827
30
0
0
SPLINE
5
187
100
AcDbEntity
8
1
62
256
6
ByLayer
370
18
48
1
60
0
100
AcDbSpline
70
4
71
3
72
39
73
35
40
0
40
0
40
0
40
0
40
0.124999999999991
40
0.124999999999991
40
0.249999999999982
40
0.249999999999982
40
0.374999999999973
40
0.374999999999973
40
0.437499999999976
40
0.437499999999976
40
0.499999999999979
40
0.499999999999979
40
0.562499999999981
40
0.562499999999981
40
0.593749999999983
40
0.593749999999983
40
0.624999999999984
40
0.624999999999984
40
0.687499999999987
40
0.687499999999987
40
0.718749999999988
40
0.718749999999988
40
0.749999999999989
40
0.749999999999989
40
0.781249999999991
40
0.781249999999991
40
0.812499999999992
40
0.843749999999993
40
0.843749999999993
40
0.874999999999995
40
0.874999999999995
40
0.937499999999997
40
0.937499999999997
40
1
40
1
40
1
40
1
41
1
10
412.650480947162
20
27.2060769820827
30
0
41
1
10
412.639193035731
20
27.2255783891984
30
0
41
1
10
412.628590160519
20
27.2450150973001
30
0
41
1
10
412.608789608101
20
27.2837506274622
30
0
41
1
10
412.59955440175
20
27.303139477002
30
0
41
1
10
412.582996045851
20
27.3410738569027
30
0
41
1
10
412.575636447461
20
27.3596683647398
30
0
41
1
10
412.566297083473
20
27.3868716168552
30
0
41
1
10
412.563469944102
20
27.395823579614
30
0
41
1
10
412.558498129876
20
27.4134519327067
30
0
41
1
10
412.556355985995
20
27.4221338879737
30
0
41
1
10
412.552992495483
20
27.4387880728007
30
0
41
1
10
412.551755667217
20
27.4468054930674
30
0
41
1
10
412.550731607718
20
27.4582552465153
30
0
41
1
10
412.550529643809
20
27.4619751829311
30
0
41
1
10
412.550447718715
20
27.469192264216
30
0
41
1
10
412.550569803588
20
27.4727031448462
30
0
41
1
10
412.551489172924
20
27.4826767960533
30
0
41
1
10
412.552823866437
20
27.4886266380581
30
0
41
1
10
412.556235634613
20
27.4961914297908
30
0
41
1
10
412.557622786118
20
27.4984972729629
30
0
41
1
10
412.560888621489
20
27.5024800239255
30
0
41
1
10
412.562763444322
20
27.5041622265617
30
0
41
1
10
412.567039967856
20
27.5068546457306
30
0
41
1
10
412.569461523802
20
27.5078691446226
30
0
41
1
10
412.574799687778
20
27.5091280609591
30
0
41
1
10
412.580568003688
20
27.5096147416129
30
0
41
1
10
412.587174135165
20
27.5086005535335
30
0
41
1
10
412.594197904459
20
27.5068396148944
30
0
41
1
10
412.597925489672
20
27.505576485668
30
0
41
1
10
412.609307892352
20
27.5008672481533
30
0
41
1
10
412.617324482498
20
27.4964633141779
30
0
41
1
10
412.63384879861
20
27.4857246214997
30
0
41
1
10
412.642150093394
20
27.4795341136678
30
0
41
1
10
412.650480947162
20
27.4727274845176
30
0
0
SPLINE
5
188
100
AcDbEntity
8
1
62
256
6
ByLayer
370
18
48
1
60
0
100
AcDbSpline
70
4
71
3
72
8
73
4
40
0
40
0
40
0
40
0
40
1
40
1
40
1
40
1
41
1
10
412.650480947162
20
27.4727274845173
30
0
41
1
10
412.875242279349
20
27.2890887989485
30
0
41
1
10
413.10000187134
20
27.1054472734957
30
0
41
1
10
413.324759526419
20
26.9218025873658
30
0
0
SPLINE
5
189
100
AcDbEntity
8
1
62
256
6
ByLayer
370
18
48
1
60
0
100
AcDbSpline
70
4
71
3
72
8
73
4
40
0
40
0
40
0
40
0
40
1
40
1
40
1
40
1
41
1
10
413.324759526419
20
27.1973652688735
30
0
41
1
10
413.103764009202
20
27.560559849516
30
0
41
1
10
412.878876276632
20
27.9205149416585
30
0
41
1
10
412.650480947162
20
28.2775506630092
30
0
0
SPLINE
5
18A
100
AcDbEntity
8
1
62
256
6
ByLayer
370
18
48
1
60
0
100
AcDbSpline
70
4
71
3
72
41
73
37
40
0
40
0
40
0
40
0
40
0.125000000000006
40
0.125000000000006
40
0.187500000000003
40
0.187500000000003
40
0.250000000000001
40
0.250000000000001
40
0.374999999999991
40
0.374999999999991
40
0.43749999999999
40
0.43749999999999
40
0.499999999999989
40
0.499999999999989
40
0.562499999999987
40
0.562499999999987
40
0.624999999999986
40
0.624999999999986
40
0.656249999999985
40
0.656249999999985
40
0.687499999999985
40
0.687499999999985
40
0.718749999999984
40
0.718749999999984
40
0.749999999999983
40
0.749999999999983
40
0.81249999999999
40
0.81249999999999
40
0.843749999999993
40
0.843749999999993
40
0.874999999999995
40
0.906249999999997
40
0.906249999999997
40
0.937499999999999
40
0.937499999999999
40
1
40
1
40
1
40
1
41
1
10
412.650480947162
20
28.2775506630092
30
0
41
1
10
412.638981804677
20
28.2955265324871
30
0
41
1
10
412.62814548197
20
28.3134206151345
30
0
41
1
10
412.612939206481
20
28.3401281849026
30
0
41
1
10
412.608042788563
20
28.3490169496372
30
0
41
1
10
412.598721928768
20
28.3665648982947
30
0
41
1
10
412.594284643272
20
28.3752457634574
30
0
41
1
10
412.581686936374
20
28.4009896479143
30
0
41
1
10
412.574223281786
20
28.4177610781085
30
0
41
1
10
412.564837577099
20
28.4421604462441
30
0
41
1
10
412.562006278076
20
28.4501981661704
30
0
41
1
10
412.557184605238
20
28.4656477088207
30
0
41
1
10
412.555179368067
20
28.4730904973063
30
0
41
1
10
412.552137250522
20
28.4873043165413
30
0
41
1
10
412.551097322754
20
28.4940774273189
30
0
41
1
10
412.550263647968
20
28.5067617390192
30
0
41
1
10
412.550482593648
20
28.5125191878594
30
0
41
1
10
412.551971457481
20
28.5200613230136
30
0
41
1
10
412.552662227263
20
28.5223934928277
30
0
41
1
10
412.554488589318
20
28.526642572205
30
0
41
1
10
412.555629696968
20
28.5285582671374
30
0
41
1
10
412.558347744801
20
28.531828174281
30
0
41
1
10
412.559929168047
20
28.5331969176479
30
0
41
1
10
412.563569638857
20
28.5353637195283
30
0
41
1
10
412.565645521329
20
28.5361647789785
30
0
41
1
10
412.572537810431
20
28.5376065271336
30
0
41
1
10
412.57792665398
20
28.5372966647606
30
0
41
1
10
412.587151619285
20
28.5350110816938
30
0
41
1
10
412.590446302725
20
28.5339313072075
30
0
41
1
10
412.597241521147
20
28.5312338486901
30
0
41
1
10
412.604247829044
20
28.5280072079684
30
0
41
1
10
412.61163322165
20
28.5238322488324
30
0
41
1
10
412.619193271317
20
28.5192211157922
30
0
41
1
10
412.623071327699
20
28.5166886267638
30
0
41
1
10
412.634714931172
20
28.5086489532194
30
0
41
1
10
412.642563586242
20
28.5026628820393
30
0
41
1
10
412.650480947162
20
28.4961799915721
30
0
0
SPLINE
5
18B
100
AcDbEntity
8
1
62
256
6
ByLayer
370
18
48
1
60
0
100
AcDbSpline
70
4
71
3
72
8
73
4
40
0
40
0
40
0
40
0
40
1
40
1
40
1
40
1
41
1
10
412.650480947162
20
28.496179991572
30
0
41
1
10
412.875247737629
20
28.312136533403
30
0
41
1
10
413.100007511727
20
28.1280816494066
30
0
41
1
10
413.324759526419
20
27.9440141333148
30
0
0
SPLINE
5
18C
100
AcDbEntity
8
1
62
256
6
ByLayer
370
18
48
1
60
0
100
AcDbSpline
70
4
71
3
72
8
73
4
40
0
40
0
40
0
40
0
40
1
40
1
40
1
40
1
41
1
10
413.324759526419
20
28.1682396666025
30
0
41
1
10
413.10282976625
20
28.4996954266907
30
0
41
1
10
412.87797677687
20
28.8284874839773
30
0
41
1
10
412.650480947162
20
29.1548713342158
30
0
0
SPLINE
5
18D
100
AcDbEntity
8
1
62
256
6
ByLayer
370
18
48
1
60
0
100
AcDbSpline
70
4
71
3
72
34
73
30
40
0
40
0
40
0
40
0
40
0.124999999999985
40
0.124999999999985
40
0.249999999999971
40
0.249999999999971
40
0.312499999999966
40
0.312499999999966
40
0.374999999999962
40
0.374999999999962
40
0.499999999999966
40
0.499999999999966
40
0.562499999999964
40
0.562499999999964
40
0.624999999999961
40
0.624999999999961
40
0.687499999999959
40
0.687499999999959
40
0.71874999999996
40
0.71874999999996
40
0.749999999999961
40
0.749999999999961
40
0.812499999999971
40
0.812499999999971
40
0.87499999999998
40
0.87499999999998
40
0.93749999999999
40
0.93749999999999
40
1
40
1
40
1
40
1
41
1
10
412.650480947162
20
29.1548713342158
30
0
41
1
10
412.638779782576
20
29.1716587678787
30
0
41
1
10
412.627693116502
20
29.1883758860407
30
0
41
1
10
412.607002473869
20
29.2214107933081
30
0
41
1
10
412.597504579954
20
29.2375524832557
30
0
41
1
10
412.584701626499
20
29.2611204626936
30
0
41
1
10
412.580676613219
20
29.2688681596811
30
0
41
1
10
412.57317678391
20
29.284117596638
30
0
41
1
10
412.569687169971
20
29.2916532144368
30
0
41
1
10
412.560306547286
20
29.3135746306862
30
0
41
1
10
412.555515793997
20
29.3271559030129
30
0
41
1
10
412.551444442405
20
29.345334081104
30
0
41
1
10
412.550629414815
20
29.3510158296479
30
0
41
1
10
412.550369704541
20
29.3610410235758
30
0
41
1
10
412.550906911697
20
29.3654408318442
30
0
41
1
10
412.553649785601
20
29.3727119306337
30
0
41
1
10
412.555833495619
20
29.375479638909
30
0
41
1
10
412.560418657478
20
29.3781044544242
30
0
41
1
10
412.562180578905
20
29.3787302685931
30
0
41
1
10
412.56612484049
20
29.3794299988261
30
0
41
1
10
412.568286199411
20
29.3795043011147
30
0
41
1
10
412.575316333567
20
29.3789333978028
30
0
41
1
10
412.580743615077
20
29.3774928474924
30
0
41
1
10
412.592956646791
20
29.3725760263927
30
0
41
1
10
412.599500450861
20
29.369204439914
30
0
41
1
10
412.613308831924
20
29.3609620758323
30
0
41
1
10
412.620630234375
20
29.356041751766
30
0
41
1
10
412.635395579301
20
29.3452630873198
30
0
41
1
10
412.642891402848
20
29.3393789353748
30
0
41
1
10
412.650480947162
20
29.3330864488536
30
0
0
SPLINE
5
18E
100
AcDbEntity
8
1
62
256
6
ByLayer
370
18
48
1
60
0
100
AcDbSpline
70
4
71
3
72
8
73
4
40
0
40
0
40
0
40
0
40
1
40
1
40
1
40
1
41
1
10
412.650480947162
20
29.3330864488535
30
0
41
1
10
412.87527835498
20
29.1467070563409
30
0
41
1
10
413.100039125586
20
28.9602687278776
30
0
41
1
10
413.324759526419
20
28.7737655573025
30
0
0
SPLINE
5
18F
100
AcDbEntity
8
1
62
256
6
ByLayer
370
18
48
1
60
0
100
AcDbSpline
70
4
71
3
72
8
73
4
40
0
40
0
40
0
40
0
40
1
40
1
40
1
40
1
41
1
10
413.324759526419
20
28.954537010626
30
0
41
1
10
413.102167049584
20
29.2605841760994
30
0
41
1
10
412.877337890168
20
29.5644257977413
30
0
41
1
10
412.650480947162
20
29.8662678662819
30
0
0
SPLINE
5
190
100
AcDbEntity
8
1
62
256
6
ByLayer
370
18
48
1
60
0
100
AcDbSpline
70
4
71
3
72
41
73
37
40
0
40
0
40
0
40
0
40
0.0625000000000013
40
0.0625000000000013
40
0.125000000000003
40
0.125000000000003
40
0.250000000000004
40
0.250000000000004
40
0.3125
40
0.3125
40
0.374999999999995
40
0.374999999999995
40
0.437499999999991
40
0.468749999999989
40
0.468749999999989
40
0.499999999999987
40
0.499999999999987
40
0.562499999999988
40
0.562499999999988
40
0.624999999999989
40
0.624999999999989
40
0.687499999999991
40
0.687499999999991
40
0.749999999999992
40
0.749999999999992
40
0.781249999999991
40
0.781249999999991
40
0.812499999999991
40
0.812499999999991
40
0.874999999999995
40
0.874999999999995
40
0.906249999999996
40
0.906249999999996
40
0.937499999999997
40
0.937499999999997
40
1
40
1
40
1
40
1
41
1
10
412.650480947162
20
29.8662678662819
30
0
41
1
10
412.644530707472
20
29.8741848937819
30
0
41
1
10
412.638734660478
20
29.8820661881963
30
0
41
1
10
412.627462614209
20
29.8977537676446
30
0
41
1
10
412.621983627572
20
29.9055655854397
30
0
41
1
10
412.606226071217
20
29.9286319055696
30
0
41
1
10
412.59655639816
20
29.9436038516693
30
0
41
1
10
412.583525644729
20
29.9653410699518
30
0
41
1
10
412.579429881241
20
29.9724656317339
30
0
41
1
10
412.571814377828
20
29.9864325284526
30
0
41
1
10
412.568318980523
20
29.9932345542673
30
0
41
1
10
412.562151731737
20
30.0062021368569
30
0
41
1
10
412.558116055743
20
30.0154991328199
30
0
41
1
10
412.555124307769
20
30.0240375850843
30
0
41
1
10
412.553390593519
20
30.0295405045769
30
0
41
1
10
412.552653442229
20
30.0322028365412
30
0
41
1
10
412.550910298472
20
30.0397406107663
30
0
41
1
10
412.550352356246
20
30.0442147484467
30
0
41
1
10
412.550659068286
20
30.0518677379402
30
0
41
1
10
412.551551382702
20
30.0550594781882
30
0
41
1
10
412.554942046485
20
30.0596266601921
30
0
41
1
10
412.55744201508
20
30.06105029367
30
0
41
1
10
412.564147905172
20
30.0619608702219
30
0
41
1
10
412.568227742826
20
30.0614399048529
30
0
41
1
10
412.575359496822
20
30.0593034854225
30
0
41
1
10
412.577906330663
20
30.0583642815716
30
0
41
1
10
412.583336023074
20
30.0560366334107
30
0
41
1
10
412.58621229645
20
30.0546487760991
30
0
41
1
10
412.595094710497
20
30.0499585110497
30
0
41
1
10
412.601422754011
20
30.0461049586613
30
0
41
1
10
412.611436330013
20
30.0393955044817
30
0
41
1
10
412.614876803774
20
30.0369917365593
30
0
41
1
10
412.62181975771
20
30.0319650556374
30
0
41
1
10
412.625327553303
20
30.0293394829975
30
0
41
1
10
412.635948792471
20
30.021161122513
30
0
41
1
10
412.643159471795
20
30.0153086512668
30
0
41
1
10
412.650480947162
20
30.0091159102949
30
0
0
SPLINE
5
191
100
AcDbEntity
8
1
62
256
6
ByLayer
370
18
48
1
60
0
100
AcDbSpline
70
4
71
3
72
8
73
4
40
0
40
0
40
0
40
0
40
1
40
1
40
1
40
1
41
1
10
412.650480947162
20
30.0091159102949
30
0
41
1
10
412.875326782245
20
29.8189340213256
30
0
41
1
10
413.100089025132
20
29.6286205059024
30
0
41
1
10
413.324759526419
20
29.4381625317612
30
0
0
SPLINE
5
192
100
AcDbEntity
8
1
62
256
6
ByLayer
370
18
48
1
60
0
100
AcDbSpline
70
4
71
3
72
8
73
4
40
0
40
0
40
0
40
0
40
1
40
1
40
1
40
1
41
1
10
413.324759526419
20
29.5806924641193
30
0
41
1
10
413.101678442285
20
29.8658055554848
30
0
41
1
10
412.876866272618
20
30.1490877212198
30
0
41
1
10
412.650480947162
20
30.4307059996443
30
0
0
SPLINE
5
193
100
AcDbEntity
8
1
62
256
6
ByLayer
370
18
48
1
60
0
100
AcDbSpline
70
4
71
3
72
38
73
34
40
0
40
0
40
0
40
0
40
0.0624999999999956
40
0.0624999999999956
40
0.124999999999991
40
0.124999999999991
40
0.249999999999999
40
0.249999999999999
40
0.3125
40
0.3125
40
0.375000000000002
40
0.375000000000002
40
0.437500000000004
40
0.437500000000004
40
0.500000000000005
40
0.500000000000005
40
0.562500000000007
40
0.562500000000007
40
0.625000000000008
40
0.625000000000008
40
0.68750000000001
40
0.68750000000001
40
0.750000000000012
40
0.750000000000012
40
0.781250000000013
40
0.781250000000013
40
0.812500000000014
40
0.812500000000014
40
0.87500000000001
40
0.87500000000001
40
0.937500000000005
40
0.937500000000005
40
1
40
1
40
1
40
1
41
1
10
412.650480947162
20
30.4307059996443
30
0
41
1
10
412.644435066045
20
30.4382269404489
30
0
41
1
10
412.638541009106
20
30.4456954835845
30
0
41
1
10
412.627070710279
20
30.4605219541045
30
0
41
1
10
412.621478397149
20
30.4679019338334
30
0
41
1
10
412.605382543492
20
30.4896367381104
30
0
41
1
10
412.59552307329
20
30.5036213176681
30
0
41
1
10
412.582291758194
20
30.5236882743325
30
0
41
1
10
412.5781434099
20
30.5302241905302
30
0
41
1
10
412.570463431254
20
30.542935050527
30
0
41
1
10
412.566983467967
20
30.5490266725007
30
0
41
1
10
412.560894095359
20
30.5605111646514
30
0
41
1
10
412.558273629461
20
30.5659211153961
30
0
41
1
10
412.554041861199
20
30.5759505318496
30
0
41
1
10
412.552432376484
20
30.5805864249236
30
0
41
1
10
412.550538980103
20
30.5885889334807
30
0
41
1
10
412.550233118891
20
30.5920039082263
30
0
41
1
10
412.551141496283
20
30.5974028832892
30
0
41
1
10
412.552342069686
20
30.5993113044687
30
0
41
1
10
412.556322566543
20
30.6014574493095
30
0
41
1
10
412.559156903261
20
30.6016693992415
30
0
41
1
10
412.566155193741
20
30.6003516061792
30
0
41
1
10
412.570327284129
20
30.5988516643691
30
0
41
1
10
412.57754044284
20
30.595411474338
30
0
41
1
10
412.580121827421
20
30.5940551043984
30
0
41
1
10
412.585487525657
20
30.5910134790065
30
0
41
1
10
412.588275661537
20
30.5893280740423
30
0
41
1
10
412.596927885113
20
30.5838227337176
30
0
41
1
10
412.603078037699
20
30.5795564416253
30
0
41
1
10
412.616050433374
20
30.5699786606838
30
0
41
1
10
412.622764082909
20
30.5647458022603
30
0
41
1
10
412.636420273296
20
30.5536638171371
30
0
41
1
10
412.64338911966
20
30.5477944023938
30
0
41
1
10
412.650480947162
20
30.5416390605853
30
0
0
SPLINE
5
194
100
AcDbEntity
8
1
62
256
6
ByLayer
370
18
48
1
60
0
100
AcDbSpline
70
4
71
3
72
8
73
4
40
0
40
0
40
0
40
0
40
1
40
1
40
1
40
1
41
1
10
412.650480947162
20
30.5416390605852
30
0
41
1
10
412.875390693943
20
30.3464289589472
30
0
41
1
10
413.100154848045
20
30.1509956122068
30
0
41
1
10
413.324759526419
20
29.9553177327395
30
0
0
SPLINE
5
195
100
AcDbEntity
8
1
62
256
6
ByLayer
370
18
48
1
60
0
100
AcDbSpline
70
4
71
3
72
8
73
4
40
0
40
0
40
0
40
0
40
1
40
1
40
1
40
1
41
1
10
413.324759526419
20
30.0631399205598
30
0
41
1
10
413.101307459449
20
30.3306365366889
30
0
41
1
10
412.876507770667
20
30.5966150387261
30
0
41
1
10
412.650480947162
20
30.8612111569994
30
0
0
SPLINE
5
196
100
AcDbEntity
8
1
62
256
6
ByLayer
370
18
48
1
60
0
100
AcDbSpline
70
4
71
3
72
37
73
33
40
0
40
0
40
0
40
0
40
0.125000000000001
40
0.125000000000001
40
0.250000000000003
40
0.250000000000003
40
0.312500000000009
40
0.312500000000009
40
0.375000000000016
40
0.375000000000016
40
0.437500000000023
40
0.437500000000023
40
0.468750000000022
40
0.468750000000022
40
0.500000000000021
40
0.53125000000002
40
0.53125000000002
40
0.562500000000019
40
0.562500000000019
40
0.625000000000016
40
0.625000000000016
40
0.656250000000015
40
0.656250000000015
40
0.687500000000014
40
0.687500000000014
40
0.750000000000014
40
0.750000000000014
40
0.812500000000013
40
0.812500000000013
40
0.875000000000012
40
0.875000000000012
40
1
40
1
40
1
40
1
41
1
10
412.650480947162
20
30.8612111569994
30
0
41
1
10
412.638202144537
20
30.8755852187202
30
0
41
1
10
412.626485867576
20
30.8897144945021
30
0
41
1
10
412.604552320067
20
30.9171510631429
30
0
41
1
10
412.594502099815
20
30.9302445976579
30
0
41
1
10
412.581082092083
20
30.9487490698133
30
0
41
1
10
412.57688735265
20
30.95472606789
30
0
41
1
10
412.569160111633
20
30.9662246159392
30
0
41
1
10
412.565703840037
20
30.9716334116342
30
0
41
1
10
412.559712993625
20
30.9816731893742
30
0
41
1
10
412.557175330865
20
30.986307773251
30
0
41
1
10
412.554189582967
20
30.9925686008373
30
0
41
1
10
412.55333114082
20
30.9945439196842
30
0
41
1
10
412.551945089713
20
30.9981706791234
30
0
41
1
10
412.55088030604
20
31.0014915212535
30
0
41
1
10
412.550493173189
20
31.0041672783632
30
0
41
1
10
412.550469840073
20
31.0064968771615
30
0
41
1
10
412.55064329357
20
31.0074911476068
30
0
41
1
10
412.551729677775
20
31.0098627622591
30
0
41
1
10
412.553197894126
20
31.0106567256918
30
0
41
1
10
412.556546564706
20
31.0106368151033
30
0
41
1
10
412.557864176504
20
31.0104245190905
30
0
41
1
10
412.560849626481
20
31.0095937482398
30
0
41
1
10
412.562509311231
20
31.0089798099646
30
0
41
1
10
412.567961306
20
31.006576233022
30
0
41
1
10
412.572230449554
20
31.004223815366
30
0
41
1
10
412.581924074944
20
30.9981356233894
30
0
41
1
10
412.587203153222
20
30.9944931606373
30
0
41
1
10
412.598484907468
20
30.9862099822945
30
0
41
1
10
412.604518790299
20
30.981543271623
30
0
41
1
10
412.623400016941
20
30.9663577993823
30
0
41
1
10
412.636681697516
20
30.9549543935825
30
0
41
1
10
412.650480947162
20
30.9426049128575
30
0
0
SPLINE
5
197
100
AcDbEntity
8
1
62
256
6
ByLayer
370
18
48
1
60
0
100
AcDbSpline
70
4
71
3
72
8
73
4
40
0
40
0
40
0
40
0
40
1
40
1
40
1
40
1
41
1
10
412.650480947162
20
30.9426049128575
30
0
41
1
10
412.875470342809
20
30.7412532251729
30
0
41
1
10
413.100236859786
20
30.5395703804292
30
0
41
1
10
413.324759526419
20
30.3375252185438
30
0
0
SPLINE
5
198
100
AcDbEntity
8
1
62
256
6
ByLayer
370
18
48
1
60
0
100
AcDbSpline
70
4
71
3
72
8
73
4
40
0
40
0
40
0
40
0
40
1
40
1
40
1
40
1
41
1
10
413.324759526419
20
30.4130274540333
30
0
41
1
10
413.101019214676
20
30.6654654531765
30
0
41
1
10
412.876228917632
20
30.9166509399748
30
0
41
1
10
412.650480947162
20
31.1666940319327
30
0
0
SPLINE
5
199
100
AcDbEntity
8
1
62
256
6
ByLayer
370
18
48
1
60
0
100
AcDbSpline
70
4
71
3
72
37
73
33
40
0
40
0
40
0
40
0
40
0.0625000000000083
40
0.0625000000000083
40
0.125000000000017
40
0.125000000000017
40
0.250000000000019
40
0.250000000000019
40
0.312500000000031
40
0.312500000000031
40
0.375000000000044
40
0.406250000000048
40
0.406250000000048
40
0.437500000000053
40
0.437500000000053
40
0.50000000000005
40
0.50000000000005
40
0.531250000000048
40
0.531250000000048
40
0.562500000000047
40
0.562500000000047
40
0.625000000000043
40
0.625000000000043
40
0.68750000000004
40
0.68750000000004
40
0.750000000000037
40
0.750000000000037
40
0.812500000000034
40
0.812500000000034
40
0.875000000000031
40
0.875000000000031
40
1
40
1
40
1
40
1
41
1
10
412.650480947162
20
31.1666940319327
30
0
41
1
10
412.644233516261
20
31.1736138148036
30
0
41
1
10
412.638128791671
20
31.180447242132
30
0
41
1
10
412.626224587922
20
31.1939282469415
30
0
41
1
10
412.620408632679
20
31.2005953398456
30
0
41
1
10
412.60369694473
20
31.2200187730249
30
0
41
1
10
412.593459438986
20
31.2322776869191
30
0
41
1
10
412.579801977808
20
31.249359790977
30
0
41
1
10
412.575513158026
20
31.2548653228669
30
0
41
1
10
412.56782727776
20
31.265076174795
30
0
41
1
10
412.562698992221
20
31.2721718288959
30
0
41
1
10
412.55866279162
20
31.2783005792956
30
0
41
1
10
412.556240243351
20
31.2821488241232
30
0
41
1
10
412.555161120897
20
31.2839584350359
30
0
41
1
10
412.552417952635
20
31.2889021635936
30
0
41
1
10
412.551221826354
20
31.2915884195284
30
0
41
1
10
412.550485616375
20
31.2945985953608
30
0
41
1
10
412.55041909126
20
31.2954340249258
30
0
41
1
10
412.550661814729
20
31.2967128369886
30
0
41
1
10
412.550968230583
20
31.2971605417463
30
0
41
1
10
412.552439131489
20
31.2979324593434
30
0
41
1
10
412.554154903999
20
31.2976875862862
30
0
41
1
10
412.559095757758
20
31.295630029289
30
0
41
1
10
412.562230525272
20
31.2938567909989
30
0
41
1
10
412.569682176899
20
31.2889883407314
30
0
41
1
10
412.574051131848
20
31.285851615375
30
0
41
1
10
412.583612877603
20
31.278557039509
30
0
41
1
10
412.58879748384
20
31.2744110022476
30
0
41
1
10
412.599860114334
20
31.2652650369474
30
0
41
1
10
412.605784818522
20
31.260223577669
30
0
41
1
10
412.624098620595
20
31.2442917137734
30
0
41
1
10
412.637015243457
20
31.2326211375579
30
0
41
1
10
412.650480947162
20
31.2201429912256
30
0
0
SPLINE
5
19A
100
AcDbEntity
8
1
62
256
6
ByLayer
370
18
48
1
60
0
100
AcDbSpline
70
4
71
3
72
8
73
4
40
0
40
0
40
0
40
0
40
1
40
1
40
1
40
1
41
1
10
412.650480947162
20
31.2201429912256
30
0
41
1
10
412.875567648883
20
31.0115638584136
30
0
41
1
10
413.10033706691
20
30.8025298860215
30
0
41
1
10
413.324759526419
20
30.5929985339383
30
0
0
SPLINE
5
19B
100
AcDbEntity
8
1
62
256
6
ByLayer
370
18
48
1
60
0
100
AcDbSpline
70
4
71
3
72
8
73
4
40
0
40
0
40
0
40
0
40
1
40
1
40
1
40
1
41
1
10
413.324759526419
20
30.6377233606912
30
0
41
1
10
413.100791090601
20
30.8771433496652
30
0
41
1
10
412.876008003165
20
31.1155393957385
30
0
41
1
10
412.650480947162
20
31.3530003410692
30
0
0
SPLINE
5
19C
100
AcDbEntity
8
1
62
256
6
ByLayer
370
18
48
1
60
0
100
AcDbSpline
70
4
71
3
72
37
73
33
40
0
40
0
40
0
40
0
40
0.124999999999995
40
0.124999999999995
40
0.187499999999994
40
0.187499999999994
40
0.249999999999993
40
0.249999999999993
40
0.312499999999991
40
0.343749999999991
40
0.343749999999991
40
0.37499999999999
40
0.37499999999999
40
0.437499999999987
40
0.437499999999987
40
0.46874999999999
40
0.46874999999999
40
0.499999999999994
40
0.499999999999994
40
0.562499999999994
40
0.562499999999994
40
0.624999999999995
40
0.624999999999995
40
0.687499999999996
40
0.687499999999996
40
0.749999999999997
40
0.749999999999997
40
0.812499999999998
40
0.812499999999998
40
0.874999999999998
40
0.874999999999998
40
1
40
1
40
1
40
1
41
1
10
412.650480947162
20
31.3530003410692
30
0
41
1
10
412.637713524711
20
31.3664433587645
30
0
41
1
10
412.625555134205
20
31.3793990848537
30
0
41
1
10
412.608569850311
20
31.3977688699773
30
0
41
1
10
412.603108564082
20
31.4037238617308
30
0
41
1
10
412.592645038061
20
31.4152469120385
30
0
41
1
10
412.587628553198
20
31.4208318448452
30
0
41
1
10
412.578394061833
20
31.4312540907382
30
0
41
1
10
412.572016535815
20
31.4385648297593
30
0
41
1
10
412.566579562048
20
31.4450058114148
30
0
41
1
10
412.563185659207
20
31.4490862291318
30
0
41
1
10
412.561600856608
20
31.4510238889255
30
0
41
1
10
412.557303071354
20
31.4563893319181
30
0
41
1
10
412.555014755975
20
31.4594065301894
30
0
41
1
10
412.552553203198
20
31.462989484205
30
0
41
1
10
412.551893247071
20
31.4640301161126
30
0
41
1
10
412.550941407315
20
31.4657401602286
30
0
41
1
10
412.550646743412
20
31.466412469459
30
0
41
1
10
412.550307456757
20
31.4678803359909
30
0
41
1
10
412.550804218982
20
31.4681301453526
30
0
41
1
10
412.553323180194
20
31.4670929258188
30
0
41
1
10
412.555303382755
20
31.4658212919829
30
0
41
1
10
412.560517793468
20
31.4619566589441
30
0
41
1
10
412.56375683022
20
31.459360874101
30
0
41
1
10
412.571431586465
20
31.4529148992649
30
0
41
1
10
412.575773222109
20
31.4491432590721
30
0
41
1
10
412.585223568068
20
31.4407486294537
30
0
41
1
10
412.59034747327
20
31.4361125346104
30
0
41
1
10
412.601310018783
20
31.4260560925488
30
0
41
1
10
412.607046357809
20
31.420729424597
30
0
41
1
10
412.624771194315
20
31.4041190568011
30
0
41
1
10
412.637325338164
20
31.3921616074541
30
0
41
1
10
412.650480947162
20
31.3794893682057
30
0
0
SPLINE
5
19D
100
AcDbEntity
8
1
62
256
6
ByLayer
370
18
48
1
60
0
100
AcDbSpline
70
4
71
3
72
8
73
4
40
0
40
0
40
0
40
0
40
1
40
1
40
1
40
1
41
1
10
412.650480947162
20
31.3794893682057
30
0
41
1
10
412.875685997487
20
31.1625589107669
30
0
41
1
10
413.100458994954
20
30.9450332762281
30
0
41
1
10
413.324759526419
20
30.72685679321
30
0
0
SPLINE
5
19E
100
AcDbEntity
8
1
62
256
6
ByLayer
370
18
48
1
60
0
100
AcDbSpline
70
4
71
3
72
8
73
4
40
0
40
0
40
0
40
0
40
1
40
1
40
1
40
1
41
1
10
413.324759526419
20
30.741671694456
30
0
41
1
10
413.100607863251
20
30.9697546698709
30
0
41
1
10
412.875830405166
20
31.1970125106997
30
0
41
1
10
412.650480947162
20
31.4235161477106
30
0
0
SPLINE
5
19F
100
AcDbEntity
8
1
62
256
6
ByLayer
370
18
48
1
60
0
100
AcDbSpline
70
4
71
3
72
24
73
20
40
0
40
0
40
0
40
0
40
0.125028419153247
40
0.125028419153247
40
0.250056838306493
40
0.250056838306493
40
0.500113676612987
40
0.500113676612987
40
0.625142095766212
40
0.625142095766212
40
0.687656305342825
40
0.687656305342825
40
0.750170514919437
40
0.750170514919437
40
0.875198934072662
40
0.875198934072662
40
0.937713143649275
40
0.937713143649275
40
1
40
1
40
1
40
1
41
1
10
412.650480947162
20
31.4235161477106
30
0
41
1
10
412.643995528497
20
31.4300347829365
30
0
41
1
10
412.637641930968
20
31.4364240983025
30
0
41
1
10
412.625223781212
20
31.4489177330083
30
0
41
1
10
412.619159362558
20
31.4550219490506
30
0
41
1
10
412.601760540395
20
31.4725422830358
30
0
41
1
10
412.591092877904
20
31.4832946246385
30
0
41
1
10
412.576962978984
20
31.4975455477897
30
0
41
1
10
412.572665768936
20
31.5018812199195
30
0
41
1
10
412.566937041454
20
31.5076626687888
30
0
41
1
10
412.565146159727
20
31.5094703034833
30
0
41
1
10
412.561821741835
20
31.5128262012985
30
0
41
1
10
412.560285385348
20
31.5143773132463
30
0
41
1
10
412.556170769704
20
31.5185318245776
30
0
41
1
10
412.554054662599
20
31.5206689842464
30
0
41
1
10
412.551904777519
20
31.5228403855655
30
0
41
1
10
412.551358069514
20
31.5233926014477
30
0
41
1
10
412.550643985667
20
31.5241138892687
30
0
41
1
10
412.550472424768
20
31.5242871878301
30
0
41
1
10
412.5504812719
20
31.5242782512345
30
0
0
SPLINE
5
1A0
100
AcDbEntity
8
1
62
256
6
ByLayer
370
13
48
1
60
0
100
AcDbSpline
70
4
71
3
72
29
73
25
40
0
40
0
40
0
40
0
40
0.0312499999999998
40
0.0312499999999998
40
0.0624999999999997
40
0.124999999999999
40
0.124999999999999
40
0.249999999999999
40
0.249999999999999
40
0.312499999999999
40
0.312499999999999
40
0.374999999999999
40
0.374999999999999
40
0.499999999999999
40
0.499999999999999
40
0.562499999999999
40
0.562499999999999
40
0.625
40
0.625
40
0.75
40
0.75
40
0.875
40
0.875
40
1
40
1
40
1
40
1
41
1
10
411
20
31.75
30
0
41
1
10
411.007350867935
20
31.75
30
0
41
1
10
411.014730350365
20
31.7495644263573
30
0
41
1
10
411.029459910092
20
31.7478198009549
30
0
41
1
10
411.051535124438
20
31.7438941346192
30
0
41
1
10
411.073508841792
20
31.7360450050206
30
0
41
1
10
411.117201575138
20
31.7151140335052
30
0
41
1
10
411.146000039383
20
31.6941729214329
30
0
41
1
10
411.188119649957
20
31.6523255781071
30
0
41
1
10
411.201982246133
20
31.6366361491617
30
0
41
1
10
411.229264252994
20
31.6017709747576
30
0
41
1
10
411.242679611679
20
31.5825992391683
30
0
41
1
10
411.282074266703
20
31.51992252501
30
0
41
1
10
411.307221282643
20
31.4712417416449
30
0
41
1
10
411.342643135881
20
31.3878636256679
30
0
41
1
10
411.354066191923
20
31.3583439851581
30
0
41
1
10
411.376022145796
20
31.2958391766834
30
0
41
1
10
411.386559179266
20
31.2628398604564
30
0
41
1
10
411.416599837234
20
31.1587161841799
30
0
41
1
10
411.434523469383
20
31.082558999033
30
0
41
1
10
411.464873693178
20
30.916805833959
30
0
41
1
10
411.477312278263
20
30.8272101155004
30
0
41
1
10
411.494860536022
20
30.634523475736
30
0
41
1
10
411.5
20
30.5314333213183
30
0
41
1
10
411.5
20
30.4215101193565
30
0
0
SPLINE
5
1A1
100
AcDbEntity
8
1
62
256
6
ByLayer
370
18
48
1
60
0
100
AcDbSpline
70
4
71
3
72
53
73
49
40
0
40
0
40
0
40
0
40
0.0249111835318327
40
0.0496822581840238
40
0.0743131793631686
40
0.0988039007977447
40
0.123154374574013
40
0.147364551172012
40
0.171434379501513
40
0.195363806938038
40
0.219152779358807
40
0.24280124117874
40
0.26630913538638
40
0.289676403579839
40
0.312902986002632
40
0.335988821579568
40
0.358933847952444
40
0.381738001515811
40
0.404401217452554
40
0.426923429769479
40
0.449304571332738
40
0.471544573903212
40
0.493643368171766
40
0.515600883794383
40
0.537417049427214
40
0.559091792761478
40
0.580625040558257
40
0.602016718683133
40
0.623266752140711
40
0.644375065108986
40
0.665341580973569
40
0.686166222361763
40
0.706848911176466
40
0.727389568629951
40
0.747788115277457
40
0.768044471050619
40
0.788158555290749
40
0.808130286781934
40
0.827959583783957
40
0.84764636406508
40
0.867190544934616
40
0.886592043275357
40
0.90585077557582
40
0.924966657962319
40
0.943939606230871
40
0.962769535878948
40
0.981456362137027
40
1
40
1
40
1
40
1
41
1
10
411.068302562978
20
30.6527900160559
30
0
41
1
10
411.067293661165
20
30.6451257091756
30
0
41
1
10
411.065281531942
20
30.6298402020561
30
0
41
1
10
411.062338494911
20
30.6066841301066
30
0
41
1
10
411.059461444633
20
30.5834478765487
30
0
41
1
10
411.056655089545
20
30.5601146433674
30
0
41
1
10
411.053918172617
20
30.5366941120514
30
0
41
1
10
411.051251004627
20
30.5131888988488
30
0
41
1
10
411.048653463029
20
30.4896034666779
30
0
41
1
10
411.046125523776
20
30.4659417578244
30
0
41
1
10
411.043667120265
20
30.4422078229586
30
0
41
1
10
411.04127818102
20
30.4184056542126
30
0
41
1
10
411.038958619902
20
30.394539229671
30
0
41
1
10
411.036708338931
20
30.3706125017019
30
0
41
1
10
411.034527227753
20
30.3466294001966
30
0
41
1
10
411.032415164008
20
30.3225938318426
30
0
41
1
10
411.030372013453
20
30.2985096804451
30
0
41
1
10
411.028397630152
20
30.2743808069623
30
0
41
1
10
411.02649185665
20
30.2502110496115
30
0
41
1
10
411.024654524151
20
30.2260042239492
30
0
41
1
10
411.022885452697
20
30.2017641229531
30
0
41
1
10
411.021184451345
20
30.1774945170972
30
0
41
1
10
411.019551318348
20
30.1531991544227
30
0
41
1
10
411.01798584133
20
30.1288817606046
30
0
41
1
10
411.016487797468
20
30.1045460390143
30
0
41
1
10
411.015056953671
20
30.0801956707768
30
0
41
1
10
411.013693066759
20
30.0558343148248
30
0
41
1
10
411.012395883642
20
30.0314656079484
30
0
41
1
10
411.011165141498
20
30.0070931648401
30
0
41
1
10
411.010000567954
20
29.9827205781371
30
0
41
1
10
411.008901881267
20
29.9583514184587
30
0
41
1
10
411.007868790497
20
29.9339892344408
30
0
41
1
10
411.006900995691
20
29.9096375527662
30
0
41
1
10
411.005998188059
20
29.8852998781911
30
0
41
1
10
411.005160050152
20
29.8609796935715
30
0
41
1
10
411.004386256042
20
29.836680459873
30
0
41
1
10
411.003676471486
20
29.8124056162265
30
0
41
1
10
411.003030354167
20
29.7881585797994
30
0
41
1
10
411.002447553611
20
29.7639427463324
30
0
41
1
10
411.001927712328
20
29.739761488207
30
0
41
1
10
411.00147046244
20
29.7156181616148
30
0
41
1
10
411.001075438924
20
29.6915160801113
30
0
41
1
10
411.000742231563
20
29.6674586122438
30
0
41
1
10
411.000470563099
20
29.6434488212155
30
0
41
1
10
411.00025963256
20
29.6194907947062
30
0
41
1
10
411.000110539339
20
29.5955847375197
30
0
41
1
10
411.00001733944
20
29.5717450790737
30
0
41
1
10
411.000005764975
20
29.5558094905461
30
0
41
1
10
411
20
29.5478723404256
30
0
0
SPLINE
5
1A2
100
AcDbEntity
8
1
62
256
6
ByLayer
370
18
48
1
60
0
100
AcDbSpline
70
4
71
3
72
37
73
33
40
0
40
0
40
0
40
0
40
0.0236453115588606
40
0.0474329732130683
40
0.0713631303869217
40
0.0954359259222706
40
0.119651500136754
40
0.144009990880551
40
0.168511533591569
40
0.193156261349255
40
0.217944304926826
40
0.242875792842283
40
0.267950851408018
40
0.293169604779079
40
0.318532175000243
40
0.344038682051846
40
0.369689243894372
40
0.395483976512012
40
0.421422993954955
40
0.4475064083807
40
0.473734330094292
40
0.500106867587503
40
0.547688639454921
40
0.595803950742022
40
0.644453384237706
40
0.693637503742821
40
0.743356854867274
40
0.793611965786855
40
0.844403347961942
40
0.895731496820427
40
0.947596892406904
40
1
40
1
40
1
40
1
41
1
10
410.5
20
30.0206382978723
30
0
41
1
10
410.500020338954
20
30.0287941905325
30
0
41
1
10
410.500061139307
20
30.0451550761616
30
0
41
1
10
410.500362234172
20
30.0695538306768
30
0
41
1
10
410.500838594136
20
30.093937975486
30
0
41
1
10
410.501507742519
20
30.1182887138709
30
0
41
1
10
410.502364941877
20
30.1426070009725
30
0
41
1
10
410.50341147302
20
30.1668884235185
30
0
41
1
10
410.50464698978
20
30.1911299910741
30
0
41
1
10
410.506071585808
20
30.2153283000949
30
0
41
1
10
410.507685235865
20
30.2394800302192
30
0
41
1
10
410.509487946845
20
30.2635818101029
30
0
41
1
10
410.51147971696
20
30.2876302536763
30
0
41
1
10
410.513660546762
20
30.3116219503369
30
0
41
1
10
410.516030436192
20
30.335553467596
30
0
41
1
10
410.518589385274
20
30.3594213503562
30
0
41
1
10
410.521337394313
20
30.38322212112
30
0
41
1
10
410.524274462396
20
30.4069522798795
30
0
41
1
10
410.527400593239
20
30.4306083043504
30
0
41
1
10
410.530715773115
20
30.4541866491557
30
0
41
1
10
410.534220053942
20
30.4776837489011
30
0
41
1
10
410.538896524451
20
30.5073293483673
30
0
41
1
10
410.544958098302
20
30.5429864037528
30
0
41
1
10
410.55266474041
20
30.5844374598898
30
0
41
1
10
410.560989374857
20
30.625618715265
30
0
41
1
10
410.569932152302
20
30.6665055307199
30
0
41
1
10
410.579492841279
20
30.7070734469759
30
0
41
1
10
410.58967223651
20
30.7472959287722
30
0
41
1
10
410.600467356066
20
30.7871528625149
30
0
41
1
10
410.611889506512
20
30.8265983521195
30
0
41
1
10
410.62389583278
20
30.8656828117219
30
0
41
1
10
410.632354155059
20
30.8911562646476
30
0
41
1
10
410.636605125957
20
30.9039586743277
30
0
0
SPLINE
5
1A3
100
AcDbEntity
8
1
62
256
6
ByLayer
370
18
48
1
60
0
100
AcDbSpline
70
4
71
3
72
38
73
34
40
0
40
0
40
0
40
0
40
0.01185329998764
40
0.0238523479086364
40
0.0359971682684363
40
0.0482877847003956
40
0.0607242200065124
40
0.0733064961958544
40
0.0860346345207675
40
0.0989086555110694
40
0.111928579006327
40
0.125094424186365
40
0.184673980051751
40
0.249979112508225
40
0.36659720739855
40
0.499575035914213
40
0.555302934102306
40
0.615557630211845
40
0.680339193189988
40
0.749647673990839
40
0.762737613639989
40
0.776855541768672
40
0.792001458576851
40
0.808175364173792
40
0.825377258596249
40
0.843607141821555
40
0.862865013777203
40
0.883150874347997
40
0.904464723381496
40
0.926806560692181
40
0.950176386064731
40
0.974574199256584
40
1
40
1
40
1
40
1
41
1
10
410.636605125957
20
30.9039586743277
30
0
41
1
10
410.638830974524
20
30.9105809224563
30
0
41
1
10
410.643310040648
20
30.9239068457404
30
0
41
1
10
410.649907248086
20
30.9437217228822
30
0
41
1
10
410.656468446974
20
30.9635542562929
30
0
41
1
10
410.662981538636
20
30.9833740372379
30
0
41
1
10
410.669449822631
20
31.0031777807985
30
0
41
1
10
410.675872400095
20
31.0229546536836
30
0
41
1
10
410.682249508471
20
31.0426957334609
30
0
41
1
10
410.688581108976
20
31.0623914252177
30
0
41
1
10
410.694867110578
20
31.0820321785092
30
0
41
1
10
410.708418458831
20
31.1245398133805
30
0
41
1
10
410.729130043142
20
31.1901940224108
30
0
41
1
10
410.762930055341
20
31.2966900193262
30
0
41
1
10
410.803123677433
20
31.4196160393685
30
0
41
1
10
410.838543604743
20
31.517469736633
30
0
41
1
10
410.865897542948
20
31.5840364410364
30
0
41
1
10
410.885186205621
20
31.6264611227388
30
0
41
1
10
410.905403190102
20
31.6652136420874
30
0
41
1
10
410.920374741329
20
31.6889830603638
30
0
41
1
10
410.930070827351
20
31.702319368954
30
0
41
1
10
410.934305580104
20
31.7078455139893
30
0
41
1
10
410.938831856917
20
31.7133975841439
30
0
41
1
10
410.943649086845
20
31.7188961514603
30
0
41
1
10
410.948757423258
20
31.7242563624681
30
0
41
1
10
410.954156808621
20
31.7293879815762
30
0
41
1
10
410.959847249273
20
31.7341952507959
30
0
41
1
10
410.965828738227
20
31.7385774485556
30
0
41
1
10
410.972101260099
20
31.7424266479402
30
0
41
1
10
410.978664858391
20
31.7456367349473
30
0
41
1
10
410.985519339282
20
31.7480673312414
30
0
41
1
10
410.992665460226
20
31.7496877906365
30
0
41
1
10
410.997521754188
20
31.7498945085074
30
0
41
1
10
411
20
31.75
30
0
0
SPLINE
5
1A4
100
AcDbEntity
8
1
62
256
6
ByLayer
370
18
48
1
60
0
100
AcDbSpline
70
4
71
1
72
4
73
2
40
0
40
0
40
1
40
1
41
1
10
410.5
20
30.0206382978723
30
0
41
1
10
411
20
29.5478723404255
30
0
0
LINE
5
A6
100
AcDbEntity
8
SK4
62
256
6
ByLayer
370
18
48
0.05
60
0
100
AcDbLine
10
-259
20
0
30
0
11
409
21
0
31
0
39
0
210
0
220
0
230
1
0
LINE
5
A8
100
AcDbEntity
8
81
62
256
6
ByLayer
370
18
48
1
60
0
100
AcDbLine
10
413
20
11.75
30
0
11
418
21
11.75
31
0
39
0
210
0
220
0
230
1
0
LINE
5
A9
100
AcDbEntity
8
4
62
256
6
ByLayer
370
18
48
0.05
60
0
100
AcDbLine
10
409
20
11.75
30
0
11
413
21
11.75
31
0
39
0
210
0
220
0
230
1
0
LINE
5
AB
100
AcDbEntity
8
80
62
256
6
ByLayer
370
18
48
1
60
0
100
AcDbLine
10
0
20
0
30
0
11
-5
21
0
31
0
39
0
210
0
220
0
230
1
0
LINE
5
AC
100
AcDbEntity
8
1
62
256
6
ByLayer
370
18
48
1
60
0
100
AcDbLine
10
407.232051
20
27.138
30
0
11
406.366025
21
27.138
31
0
39
0
210
0
220
0
230
1
0
LINE
5
AD
100
AcDbEntity
8
1
62
256
6
ByLayer
370
18
48
1
60
0
100
AcDbLine
10
404.633975
20
27.138
30
0
11
406.366025
21
27.138
31
0
39
0
210
0
220
0
230
1
0
LINE
5
AE
100
AcDbEntity
8
1
62
256
6
ByLayer
370
18
48
1
60
0
100
AcDbLine
10
406.366025
20
27.138
30
0
11
407.232051
21
27.138
31
0
39
0
210
0
220
0
230
1
0
LINE
5
AF
100
AcDbEntity
8
1
62
256
6
ByLayer
370
18
48
1
60
0
100
AcDbLine
10
406.366025
20
27.138
30
0
11
404.633975
21
27.138
31
0
39
0
210
0
220
0
230
1
0
LINE
5
B0
100
AcDbEntity
8
1
62
256
6
ByLayer
370
18
48
1
60
0
100
AcDbLine
10
405.45
20
27.138
30
0
11
405.55
21
27.138
31
0
39
0
210
0
220
0
230
1
0
LINE
5
B1
100
AcDbEntity
8
1
62
256
6
ByLayer
370
18
48
1
60
0
100
AcDbLine
10
404.633975
20
27.138
30
0
11
403.767949
21
27.138
31
0
39
0
210
0
220
0
230
1
0
LINE
5
B2
100
AcDbEntity
8
1
62
256
6
ByLayer
370
18
48
1
60
0
100
AcDbLine
10
403.767949
20
27.138
30
0
11
404.633975
21
27.138
31
0
39
0
210
0
220
0
230
1
0
LINE
5
B3
100
AcDbEntity
8
1
62
256
6
ByLayer
370
18
48
1
60
0
100
AcDbLine
10
417.8
20
4.850505
30
0
11
417.8
21
-1.149495
31
0
39
0
210
0
220
0
230
1
0
LINE
5
B4
100
AcDbEntity
8
1
62
256
6
ByLayer
370
13
48
1
60
0
100
AcDbLine
10
413.324503
20
-0.594995
30
0
11
417.8
21
-0.594995
31
0
39
0
210
0
220
0
230
1
0
LINE
5
B5
100
AcDbEntity
8
1
62
256
6
ByLayer
370
13
48
1
60
0
100
AcDbLine
10
413.324503
20
4.296005
30
0
11
417.8
21
4.296005
31
0
39
0
210
0
220
0
230
1
0
LINE
5
B6
100
AcDbEntity
8
1
62
256
6
ByLayer
370
18
48
1
60
0
100
AcDbLine
10
417.8
20
24.649495
30
0
11
417.8
21
18.649495
31
0
39
0
210
0
220
0
230
1
0
LINE
5
B7
100
AcDbEntity
8
1
62
256
6
ByLayer
370
13
48
1
60
0
100
AcDbLine
10
413.324503
20
19.203995
30
0
11
417.8
21
19.203995
31
0
39
0
210
0
220
0
230
1
0
LINE
5
B8
100
AcDbEntity
8
1
62
256
6
ByLayer
370
13
48
1
60
0
100
AcDbLine
10
413.324503
20
24.094995
30
0
11
417.8
21
24.094995
31
0
39
0
210
0
220
0
230
1
0
LINE
5
B9
100
AcDbEntity
8
1
62
256
6
ByLayer
370
18
48
1
60
0
100
AcDbLine
10
409
20
31.75
30
0
11
409
21
-31.75
31
0
39
0
210
0
220
0
230
1
0
LINE
5
BA
100
AcDbEntity
8
1
62
256
6
ByLayer
370
18
48
1
60
0
100
AcDbLine
10
0
20
31.75
30
0
11
0
21
-31.75
31
0
39
0
210
0
220
0
230
1
0
LINE
5
BB
100
AcDbEntity
8
SK1
62
256
6
ByLayer
370
18
48
1
60
0
100
AcDbLine
10
-254
20
-29.7375
30
0
11
-254
21
29.7375
31
0
39
0
210
0
220
0
230
1
0
LINE
5
BD
100
AcDbEntity
8
SK1
62
256
6
ByLayer
370
18
48
1
60
0
100
AcDbLine
10
-252
20
-31.7375
30
0
11
-252
21
31.7375
31
0
39
0
210
0
220
0
230
1
0
LINE
5
BE
100
AcDbEntity
8
1
62
256
6
ByLayer
370
13
48
1
60
0
100
AcDbLine
10
417.8
20
-1.149495
30
0
11
417.8
21
4.850505
31
0
39
0
210
0
220
0
230
1
0
LINE
5
BF
100
AcDbEntity
8
1
62
256
6
ByLayer
370
18
48
1
60
0
100
AcDbLine
10
418
20
-3.149495
30
0
11
418
21
6.850505
31
0
39
0
210
0
220
0
230
1
0
LINE
5
C0
100
AcDbEntity
8
1
62
256
6
ByLayer
370
13
48
1
60
0
100
AcDbLine
10
423.4
20
-3.149495
30
0
11
423.4
21
6.850505
31
0
39
0
210
0
220
0
230
1
0
LINE
5
C1
100
AcDbEntity
8
1
62
256
6
ByLayer
370
18
48
1
60
0
100
AcDbLine
10
424
20
-2.549495
30
0
11
424
21
6.250505
31
0
39
0
210
0
220
0
230
1
0
LINE
5
C2
100
AcDbEntity
8
1
62
256
6
ByLayer
370
18
48
1
60
0
100
AcDbLine
10
413.32476
20
30.637542
30
0
11
413.32476
21
30.726857
31
0
39
0
210
0
220
0
230
1
0
LINE
5
C3
100
AcDbEntity
8
1
62
256
6
ByLayer
370
18
48
1
60
0
100
AcDbLine
10
413.32476
20
-7.226857
30
0
11
413.32476
21
-7.137542
31
0
39
0
210
0
220
0
230
1
0
LINE
5
C4
100
AcDbEntity
8
1
62
256
6
ByLayer
370
13
48
1
60
0
100
AcDbLine
10
412.650481
20
-7.879489
30
0
11
412.650481
21
-7.852807
31
0
39
0
210
0
220
0
230
1
0
LINE
5
C5
100
AcDbEntity
8
1
62
256
6
ByLayer
370
13
48
1
60
0
100
AcDbLine
10
412.650481
20
31.352807
30
0
11
412.650481
21
31.379489
31
0
39
0
210
0
220
0
230
1
0
LINE
5
C6
100
AcDbEntity
8
1
62
256
6
ByLayer
370
18
48
1
60
0
100
AcDbLine
10
413.32476
20
-7.092999
30
0
11
413.32476
21
-6.912842
31
0
39
0
210
0
220
0
230
1
0
LINE
5
C7
100
AcDbEntity
8
1
62
256
6
ByLayer
370
18
48
1
60
0
100
AcDbLine
10
413.32476
20
30.412842
30
0
11
413.32476
21
30.592999
31
0
39
0
210
0
220
0
230
1
0
LINE
5
C8
100
AcDbEntity
8
1
62
256
6
ByLayer
370
13
48
1
60
0
100
AcDbLine
10
412.650481
20
-7.720143
30
0
11
412.650481
21
-7.666627
31
0
39
0
210
0
220
0
230
1
0
LINE
5
C9
100
AcDbEntity
8
1
62
256
6
ByLayer
370
13
48
1
60
0
100
AcDbLine
10
412.650481
20
31.166627
30
0
11
412.650481
21
31.220143
31
0
39
0
210
0
220
0
230
1
0
LINE
5
CA
100
AcDbEntity
8
1
62
256
6
ByLayer
370
18
48
1
60
0
100
AcDbLine
10
413.32476
20
30.06313
30
0
11
413.32476
21
30.337525
31
0
39
0
210
0
220
0
230
1
0
LINE
5
CB
100
AcDbEntity
8
1
62
256
6
ByLayer
370
18
48
1
60
0
100
AcDbLine
10
413.32476
20
-6.837525
30
0
11
413.32476
21
-6.56313
31
0
39
0
210
0
220
0
230
1
0
LINE
5
CC
100
AcDbEntity
8
1
62
256
6
ByLayer
370
13
48
1
60
0
100
AcDbLine
10
412.650481
20
30.861162
30
0
11
412.650481
21
30.942605
31
0
39
0
210
0
220
0
230
1
0
LINE
5
CD
100
AcDbEntity
8
1
62
256
6
ByLayer
370
13
48
1
60
0
100
AcDbLine
10
412.650481
20
-7.442605
30
0
11
412.650481
21
-7.361162
31
0
39
0
210
0
220
0
230
1
0
LINE
5
CE
100
AcDbEntity
8
1
62
256
6
ByLayer
370
18
48
1
60
0
100
AcDbLine
10
413.32476
20
-6.455318
30
0
11
413.32476
21
-6.080489
31
0
39
0
210
0
220
0
230
1
0
LINE
5
CF
100
AcDbEntity
8
1
62
256
6
ByLayer
370
18
48
1
60
0
100
AcDbLine
10
413.32476
20
29.580489
30
0
11
413.32476
21
29.955318
31
0
39
0
210
0
220
0
230
1
0
LINE
5
D0
100
AcDbEntity
8
1
62
256
6
ByLayer
370
13
48
1
60
0
100
AcDbLine
10
412.650481
20
-7.041639
30
0
11
412.650481
21
-6.930651
31
0
39
0
210
0
220
0
230
1
0
LINE
5
D1
100
AcDbEntity
8
1
62
256
6
ByLayer
370
13
48
1
60
0
100
AcDbLine
10
412.650481
20
30.430651
30
0
11
412.650481
21
30.541639
31
0
39
0
210
0
220
0
230
1
0
LINE
5
D2
100
AcDbEntity
8
1
62
256
6
ByLayer
370
18
48
1
60
0
100
AcDbLine
10
413.32476
20
-5.938163
30
0
11
413.32476
21
-5.454449
31
0
39
0
210
0
220
0
230
1
0
LINE
5
D3
100
AcDbEntity
8
1
62
256
6
ByLayer
370
18
48
1
60
0
100
AcDbLine
10
413.32476
20
28.954449
30
0
11
413.32476
21
29.438163
31
0
39
0
210
0
220
0
230
1
0
LINE
5
D4
100
AcDbEntity
8
1
62
256
6
ByLayer
370
13
48
1
60
0
100
AcDbLine
10
412.650481
20
-6.509116
30
0
11
412.650481
21
-6.366188
31
0
39
0
210
0
220
0
230
1
0
LINE
5
D5
100
AcDbEntity
8
1
62
256
6
ByLayer
370
13
48
1
60
0
100
AcDbLine
10
412.650481
20
29.866188
30
0
11
412.650481
21
30.009116
31
0
39
0
210
0
220
0
230
1
0
LINE
5
D6
100
AcDbEntity
8
1
62
256
6
ByLayer
370
18
48
1
60
0
100
AcDbLine
10
413.32476
20
28.168191
30
0
11
413.32476
21
28.773766
31
0
39
0
210
0
220
0
230
1
0
LINE
5
D7
100
AcDbEntity
8
1
62
256
6
ByLayer
370
18
48
1
60
0
100
AcDbLine
10
413.32476
20
-5.273766
30
0
11
413.32476
21
-4.668191
31
0
39
0
210
0
220
0
230
1
0
LINE
5
D8
100
AcDbEntity
8
1
62
256
6
ByLayer
370
13
48
1
60
0
100
AcDbLine
10
412.650481
20
-5.833086
30
0
11
412.650481
21
-5.654844
31
0
39
0
210
0
220
0
230
1
0
LINE
5
D9
100
AcDbEntity
8
1
62
256
6
ByLayer
370
13
48
1
60
0
100
AcDbLine
10
412.650481
20
29.154844
30
0
11
412.650481
21
29.333086
31
0
39
0
210
0
220
0
230
1
0
LINE
5
DA
100
AcDbEntity
8
1
62
256
6
ByLayer
370
18
48
1
60
0
100
AcDbLine
10
413.32476
20
27.197336
30
0
11
413.32476
21
27.944014
31
0
39
0
210
0
220
0
230
1
0
LINE
5
DB
100
AcDbEntity
8
1
62
256
6
ByLayer
370
18
48
1
60
0
100
AcDbLine
10
413.32476
20
-4.444014
30
0
11
413.32476
21
-3.697336
31
0
39
0
210
0
220
0
230
1
0
LINE
5
DC
100
AcDbEntity
8
1
62
256
6
ByLayer
370
13
48
1
60
0
100
AcDbLine
10
412.650481
20
28.277523
30
0
11
412.650481
21
28.49618
31
0
39
0
210
0
220
0
230
1
0
LINE
5
DD
100
AcDbEntity
8
1
62
256
6
ByLayer
370
13
48
1
60
0
100
AcDbLine
10
412.650481
20
-4.99618
30
0
11
412.650481
21
-4.777523
31
0
39
0
210
0
220
0
230
1
0
LINE
5
DE
100
AcDbEntity
8
1
62
256
6
ByLayer
370
18
48
1
60
0
100
AcDbLine
10
413.32476
20
-3.421803
30
0
11
413.32476
21
-2.504246
31
0
39
0
210
0
220
0
230
1
0
LINE
5
DF
100
AcDbEntity
8
1
62
256
6
ByLayer
370
18
48
1
60
0
100
AcDbLine
10
413.32476
20
26.004246
30
0
11
413.32476
21
26.921803
31
0
39
0
210
0
220
0
230
1
0
LINE
5
E0
100
AcDbEntity
8
1
62
256
6
ByLayer
370
13
48
1
60
0
100
AcDbLine
10
412.650481
20
-3.972727
30
0
11
412.650481
21
-3.706027
31
0
39
0
210
0
220
0
230
1
0
LINE
5
E1
100
AcDbEntity
8
1
62
256
6
ByLayer
370
13
48
1
60
0
100
AcDbLine
10
412.650481
20
27.206027
30
0
11
412.650481
21
27.472727
31
0
39
0
210
0
220
0
230
1
0
LINE
5
E2
100
AcDbEntity
8
1
62
256
6
ByLayer
370
18
48
1
60
0
100
AcDbLine
10
413.32476
20
24.526776
30
0
11
413.32476
21
25.66478
31
0
39
0
210
0
220
0
230
1
0
LINE
5
E3
100
AcDbEntity
8
1
62
256
6
ByLayer
370
18
48
1
60
0
100
AcDbLine
10
413.32476
20
-2.16478
30
0
11
413.32476
21
-1.026776
31
0
39
0
210
0
220
0
230
1
0
LINE
5
E4
100
AcDbEntity
8
1
62
256
6
ByLayer
370
13
48
1
60
0
100
AcDbLine
10
412.650481
20
-2.723209
30
0
11
412.650481
21
-2.396205
31
0
39
0
210
0
220
0
230
1
0
LINE
5
E5
100
AcDbEntity
8
1
62
256
6
ByLayer
370
13
48
1
60
0
100
AcDbLine
10
412.650481
20
25.896205
30
0
11
412.650481
21
26.223209
31
0
39
0
210
0
220
0
230
1
0
LINE
5
E6
100
AcDbEntity
8
1
62
256
6
ByLayer
370
18
48
1
60
0
100
AcDbLine
10
413.32476
20
-0.601461
30
0
11
413.32476
21
0.850221
31
0
39
0
210
0
220
0
230
1
0
LINE
5
E7
100
AcDbEntity
8
1
62
256
6
ByLayer
370
18
48
1
60
0
100
AcDbLine
10
413.32476
20
22.649779
30
0
11
413.32476
21
24.101461
31
0
39
0
210
0
220
0
230
1
0
LINE
5
E8
100
AcDbEntity
8
1
62
256
6
ByLayer
370
13
48
1
60
0
100
AcDbLine
10
412.650481
20
-1.182262
30
0
11
412.650481
21
-0.773683
31
0
39
0
210
0
220
0
230
1
0
LINE
5
E9
100
AcDbEntity
8
1
62
256
6
ByLayer
370
13
48
1
60
0
100
AcDbLine
10
412.650481
20
24.273683
30
0
11
412.650481
21
24.682262
31
0
39
0
210
0
220
0
230
1
0
LINE
5
EA
100
AcDbEntity
8
1
62
256
6
ByLayer
370
18
48
1
60
0
100
AcDbLine
10
413.32476
20
1.406108
30
0
11
413.32476
21
3.391166
31
0
39
0
210
0
220
0
230
1
0
LINE
5
EB
100
AcDbEntity
8
1
62
256
6
ByLayer
370
18
48
1
60
0
100
AcDbLine
10
413.32476
20
20.108834
30
0
11
413.32476
21
22.093892
31
0
39
0
210
0
220
0
230
1
0
LINE
5
EC
100
AcDbEntity
8
1
62
256
6
ByLayer
370
13
48
1
60
0
100
AcDbLine
10
412.650481
20
0.772158
30
0
11
412.650481
21
1.305956
31
0
39
0
210
0
220
0
230
1
0
LINE
5
ED
100
AcDbEntity
8
1
62
256
6
ByLayer
370
13
48
1
60
0
100
AcDbLine
10
412.650481
20
22.194044
30
0
11
412.650481
21
22.727842
31
0
39
0
210
0
220
0
230
1
0
LINE
5
EE
100
AcDbEntity
8
1
62
256
6
ByLayer
370
18
48
1
60
0
100
AcDbLine
10
413.32476
20
4.204565
30
0
11
413.32476
21
7.696215
31
0
39
0
210
0
220
0
230
1
0
LINE
5
EF
100
AcDbEntity
8
1
62
256
6
ByLayer
370
18
48
1
60
0
100
AcDbLine
10
413.32476
20
15.803785
30
0
11
413.32476
21
19.295435
31
0
39
0
210
0
220
0
230
1
0
LINE
5
F0
100
AcDbEntity
8
1
62
256
6
ByLayer
370
13
48
1
60
0
100
AcDbLine
10
412.650481
20
3.426382
30
0
11
412.650481
21
4.212704
31
0
39
0
210
0
220
0
230
1
0
LINE
5
F1
100
AcDbEntity
8
1
62
256
6
ByLayer
370
13
48
1
60
0
100
AcDbLine
10
412.650481
20
19.287296
30
0
11
412.650481
21
20.073618
31
0
39
0
210
0
220
0
230
1
0
LINE
5
F2
100
AcDbEntity
8
1
62
256
6
ByLayer
370
18
48
1
60
0
100
AcDbLine
10
413.32476
20
10.210164
30
0
11
413.32476
21
13.289836
31
0
39
0
210
0
220
0
230
1
0
LINE
5
F3
100
AcDbEntity
8
1
62
256
6
ByLayer
370
13
48
1
60
0
100
AcDbLine
10
412.650481
20
8.068664
30
0
11
412.650481
21
11.540509
31
0
39
0
210
0
220
0
230
1
0
LINE
5
F4
100
AcDbEntity
8
1
62
256
6
ByLayer
370
13
48
1
60
0
100
AcDbLine
10
412.650481
20
11.959491
30
0
11
412.650481
21
15.431336
31
0
39
0
210
0
220
0
230
1
0
LINE
5
F5
100
AcDbEntity
8
1
62
256
6
ByLayer
370
18
48
1
60
0
100
AcDbLine
10
413.32476
20
-7.226857
30
0
11
413.32476
21
-7.241672
31
0
39
0
210
0
220
0
230
1
0
LINE
5
F6
100
AcDbEntity
8
1
62
256
6
ByLayer
370
18
48
1
60
0
100
AcDbLine
10
413.32476
20
-7.092999
30
0
11
413.32476
21
-7.137723
31
0
39
0
210
0
220
0
230
1
0
LINE
5
F7
100
AcDbEntity
8
1
62
256
6
ByLayer
370
18
48
1
60
0
100
AcDbLine
10
413.32476
20
-6.837525
30
0
11
413.32476
21
-6.913027
31
0
39
0
210
0
220
0
230
1
0
LINE
5
F8
100
AcDbEntity
8
1
62
256
6
ByLayer
370
18
48
1
60
0
100
AcDbLine
10
413.32476
20
-6.455318
30
0
11
413.32476
21
-6.56314
31
0
39
0
210
0
220
0
230
1
0
LINE
5
F9
100
AcDbEntity
8
1
62
256
6
ByLayer
370
18
48
1
60
0
100
AcDbLine
10
413.32476
20
-5.938163
30
0
11
413.32476
21
-6.080692
31
0
39
0
210
0
220
0
230
1
0
LINE
5
FA
100
AcDbEntity
8
1
62
256
6
ByLayer
370
18
48
1
60
0
100
AcDbLine
10
413.32476
20
-5.273766
30
0
11
413.32476
21
-5.454537
31
0
39
0
210
0
220
0
230
1
0
LINE
5
FB
100
AcDbEntity
8
1
62
256
6
ByLayer
370
18
48
1
60
0
100
AcDbLine
10
413.32476
20
-4.444014
30
0
11
413.32476
21
-4.66824
31
0
39
0
210
0
220
0
230
1
0
LINE
5
FC
100
AcDbEntity
8
1
62
256
6
ByLayer
370
18
48
1
60
0
100
AcDbLine
10
413.32476
20
-3.421803
30
0
11
413.32476
21
-3.697365
31
0
39
0
210
0
220
0
230
1
0
LINE
5
FD
100
AcDbEntity
8
1
62
256
6
ByLayer
370
18
48
1
60
0
100
AcDbLine
10
413.32476
20
-2.16478
30
0
11
413.32476
21
-2.504248
31
0
39
0
210
0
220
0
230
1
0
LINE
5
FE
100
AcDbEntity
8
1
62
256
6
ByLayer
370
18
48
1
60
0
100
AcDbLine
10
413.32476
20
-0.601461
30
0
11
413.32476
21
-1.026779
31
0
39
0
210
0
220
0
230
1
0
LINE
5
FF
100
AcDbEntity
8
1
62
256
6
ByLayer
370
18
48
1
60
0
100
AcDbLine
10
413.32476
20
1.406108
30
0
11
413.32476
21
0.850065
31
0
39
0
210
0
220
0
230
1
0
LINE
5
100
100
AcDbEntity
8
1
62
256
6
ByLayer
370
18
48
1
60
0
100
AcDbLine
10
413.32476
20
4.204565
30
0
11
413.32476
21
3.391107
31
0
39
0
210
0
220
0
230
1
0
LINE
5
101
100
AcDbEntity
8
1
62
256
6
ByLayer
370
18
48
1
60
0
100
AcDbLine
10
413.32476
20
10.210164
30
0
11
413.32476
21
7.696163
31
0
39
0
210
0
220
0
230
1
0
LINE
5
102
100
AcDbEntity
8
1
62
256
6
ByLayer
370
18
48
1
60
0
100
AcDbLine
10
413.32476
20
15.803837
30
0
11
413.32476
21
13.289836
31
0
39
0
210
0
220
0
230
1
0
LINE
5
103
100
AcDbEntity
8
1
62
256
6
ByLayer
370
18
48
1
60
0
100
AcDbLine
10
413.32476
20
20.108893
30
0
11
413.32476
21
19.295435
31
0
39
0
210
0
220
0
230
1
0
LINE
5
104
100
AcDbEntity
8
1
62
256
6
ByLayer
370
18
48
1
60
0
100
AcDbLine
10
413.32476
20
22.649935
30
0
11
413.32476
21
22.093892
31
0
39
0
210
0
220
0
230
1
0
LINE
5
105
100
AcDbEntity
8
1
62
256
6
ByLayer
370
18
48
1
60
0
100
AcDbLine
10
413.32476
20
24.526779
30
0
11
413.32476
21
24.101461
31
0
39
0
210
0
220
0
230
1
0
LINE
5
106
100
AcDbEntity
8
1
62
256
6
ByLayer
370
18
48
1
60
0
100
AcDbLine
10
413.32476
20
26.004248
30
0
11
413.32476
21
25.66478
31
0
39
0
210
0
220
0
230
1
0
LINE
5
107
100
AcDbEntity
8
1
62
256
6
ByLayer
370
18
48
1
60
0
100
AcDbLine
10
413.32476
20
27.197365
30
0
11
413.32476
21
26.921803
31
0
39
0
210
0
220
0
230
1
0
LINE
5
108
100
AcDbEntity
8
1
62
256
6
ByLayer
370
18
48
1
60
0
100
AcDbLine
10
413.32476
20
28.16824
30
0
11
413.32476
21
27.944014
31
0
39
0
210
0
220
0
230
1
0
LINE
5
109
100
AcDbEntity
8
1
62
256
6
ByLayer
370
18
48
1
60
0
100
AcDbLine
10
413.32476
20
28.954537
30
0
11
413.32476
21
28.773766
31
0
39
0
210
0
220
0
230
1
0
LINE
5
10A
100
AcDbEntity
8
1
62
256
6
ByLayer
370
18
48
1
60
0
100
AcDbLine
10
413.32476
20
29.580692
30
0
11
413.32476
21
29.438163
31
0
39
0
210
0
220
0
230
1
0
LINE
5
10B
100
AcDbEntity
8
1
62
256
6
ByLayer
370
18
48
1
60
0
100
AcDbLine
10
413.32476
20
30.06314
30
0
11
413.32476
21
29.955318
31
0
39
0
210
0
220
0
230
1
0
LINE
5
10C
100
AcDbEntity
8
1
62
256
6
ByLayer
370
18
48
1
60
0
100
AcDbLine
10
413.32476
20
30.413027
30
0
11
413.32476
21
30.337525
31
0
39
0
210
0
220
0
230
1
0
LINE
5
10D
100
AcDbEntity
8
1
62
256
6
ByLayer
370
18
48
1
60
0
100
AcDbLine
10
413.32476
20
30.637723
30
0
11
413.32476
21
30.592999
31
0
39
0
210
0
220
0
230
1
0
LINE
5
10E
100
AcDbEntity
8
1
62
256
6
ByLayer
370
18
48
1
60
0
100
AcDbLine
10
413.32476
20
30.741672
30
0
11
413.32476
21
30.726857
31
0
39
0
210
0
220
0
230
1
0
LINE
5
10F
100
AcDbEntity
8
1
62
256
6
ByLayer
370
18
48
1
60
0
100
AcDbLine
10
412.32476
20
-8.25
30
0
11
412.32476
21
31.75
31
0
39
0
210
0
220
0
230
1
0
LINE
5
110
100
AcDbEntity
8
1
62
256
6
ByLayer
370
13
48
1
60
0
100
AcDbLine
10
411.5
20
-8.25
30
0
11
411.5
21
30.42151
31
0
39
0
210
0
220
0
230
1
0
LINE
5
111
100
AcDbEntity
8
1
62
256
6
ByLayer
370
13
48
1
60
0
100
AcDbLine
10
409.4
20
31.75
30
0
11
409.4
21
-31.75
31
0
39
0
210
0
220
0
230
1
0
LINE
5
112
100
AcDbEntity
8
1
62
256
6
ByLayer
370
18
48
1
60
0
100
AcDbLine
10
411
20
-31.25
30
0
11
411
21
29.547872
31
0
39
0
210
0
220
0
230
1
0
LINE
5
113
100
AcDbEntity
8
1
62
256
6
ByLayer
370
18
48
1
60
0
100
AcDbLine
10
410.5
20
-31.75
30
0
11
410.5
21
30.020638
31
0
39
0
210
0
220
0
230
1
0
LINE
5
114
100
AcDbEntity
8
1
62
256
6
ByLayer
370
13
48
1
60
0
100
AcDbLine
10
417.8
20
24.649495
30
0
11
417.8
21
18.649495
31
0
39
0
210
0
220
0
230
1
0
LINE
5
115
100
AcDbEntity
8
1
62
256
6
ByLayer
370
18
48
1
60
0
100
AcDbLine
10
418
20
26.649495
30
0
11
418
21
16.649495
31
0
39
0
210
0
220
0
230
1
0
LINE
5
116
100
AcDbEntity
8
1
62
256
6
ByLayer
370
13
48
1
60
0
100
AcDbLine
10
423.4
20
26.649495
30
0
11
423.4
21
16.649495
31
0
39
0
210
0
220
0
230
1
0
LINE
5
117
100
AcDbEntity
8
1
62
256
6
ByLayer
370
18
48
1
60
0
100
AcDbLine
10
424
20
26.049495
30
0
11
424
21
17.249495
31
0
39
0
210
0
220
0
230
1
0
LINE
5
118
100
AcDbEntity
8
1
62
256
6
ByLayer
370
18
48
1
60
0
100
AcDbLine
10
0
20
-31.75
30
0
11
409
21
-31.75
31
0
39
0
210
0
220
0
230
1
0
LINE
5
119
100
AcDbEntity
8
1
62
256
6
ByLayer
370
18
48
1
60
0
100
AcDbLine
10
409
20
31.75
30
0
11
0
21
31.75
31
0
39
0
210
0
220
0
230
1
0
LINE
5
11A
100
AcDbEntity
8
SK1
62
256
6
ByLayer
370
18
48
1
60
0
100
AcDbLine
10
0
20
31.7375
30
0
11
-252
21
31.7375
31
0
39
0
210
0
220
0
230
1
0
LINE
5
11B
100
AcDbEntity
8
SK1
62
256
6
ByLayer
370
18
48
1
60
0
100
AcDbLine
10
-252
20
-31.7375
30
0
11
0
21
-31.7375
31
0
39
0
210
0
220
0
230
1
0
LINE
5
11C
100
AcDbEntity
8
SK1
62
256
6
ByLayer
370
18
48
1
60
0
100
AcDbLine
10
-254
20
-29.7375
30
0
11
-252
21
-31.7375
31
0
39
0
210
0
220
0
230
1
0
LINE
5
11D
100
AcDbEntity
8
SK1
62
256
6
ByLayer
370
18
48
1
60
0
100
AcDbLine
10
-252
20
31.7375
30
0
11
-254
21
29.7375
31
0
39
0
210
0
220
0
230
1
0
LINE
5
11E
100
AcDbEntity
8
1
62
256
6
ByLayer
370
18
48
1
60
0
100
AcDbLine
10
413.324609
20
-1.149495
30
0
11
417.8
21
-1.149495
31
0
39
0
210
0
220
0
230
1
0
LINE
5
11F
100
AcDbEntity
8
1
62
256
6
ByLayer
370
18
48
1
60
0
100
AcDbLine
10
417.8
20
4.850505
30
0
11
413.324609
21
4.850505
31
0
39
0
210
0
220
0
230
1
0
LINE
5
120
100
AcDbEntity
8
1
62
256
6
ByLayer
370
18
48
1
60
0
100
AcDbLine
10
418
20
-3.149495
30
0
11
423.4
21
-3.149495
31
0
39
0
210
0
220
0
230
1
0
LINE
5
121
100
AcDbEntity
8
1
62
256
6
ByLayer
370
18
48
1
60
0
100
AcDbLine
10
423.4
20
6.850505
30
0
11
418
21
6.850505
31
0
39
0
210
0
220
0
230
1
0
LINE
5
122
100
AcDbEntity
8
1
62
256
6
ByLayer
370
18
48
1
60
0
100
AcDbLine
10
412.552123
20
31.522637
30
0
11
412.32476
21
31.75
31
0
39
0
210
0
220
0
230
1
0
LINE
5
123
100
AcDbEntity
8
1
62
256
6
ByLayer
370
18
48
1
60
0
100
AcDbLine
10
412.32476
20
-8.25
30
0
11
412.552123
21
-8.022637
31
0
39
0
210
0
220
0
230
1
0
LINE
5
124
100
AcDbEntity
8
1
62
256
6
ByLayer
370
18
48
1
60
0
100
AcDbLine
10
411.5
20
-8.25
30
0
11
412.32476
21
-8.25
31
0
39
0
210
0
220
0
230
1
0
LINE
5
125
100
AcDbEntity
8
1
62
256
6
ByLayer
370
18
48
1
60
0
100
AcDbLine
10
412.32476
20
31.75
30
0
11
411
21
31.75
31
0
39
0
210
0
220
0
230
1
0
LINE
5
126
100
AcDbEntity
8
1
62
256
6
ByLayer
370
18
48
1
60
0
100
AcDbLine
10
411.02
20
31.75
30
0
11
409.4
21
31.75
31
0
39
0
210
0
220
0
230
1
0
LINE
5
127
100
AcDbEntity
8
1
62
256
6
ByLayer
370
18
48
1
60
0
100
AcDbLine
10
409.4
20
-31.75
30
0
11
410.5
21
-31.75
31
0
39
0
210
0
220
0
230
1
0
LINE
5
128
100
AcDbEntity
8
1
62
256
6
ByLayer
370
18
48
1
60
0
100
AcDbLine
10
410.5
20
-31.75
30
0
11
411
21
-31.25
31
0
39
0
210
0
220
0
230
1
0
LINE
5
129
100
AcDbEntity
8
1
62
256
6
ByLayer
370
18
48
1
60
0
100
AcDbLine
10
413.324609
20
18.649495
30
0
11
417.8
21
18.649495
31
0
39
0
210
0
220
0
230
1
0
LINE
5
12A
100
AcDbEntity
8
1
62
256
6
ByLayer
370
18
48
1
60
0
100
AcDbLine
10
417.8
20
24.649495
30
0
11
413.324609
21
24.649495
31
0
39
0
210
0
220
0
230
1
0
LINE
5
12B
100
AcDbEntity
8
1
62
256
6
ByLayer
370
18
48
1
60
0
100
AcDbLine
10
418
20
16.649495
30
0
11
423.4
21
16.649495
31
0
39
0
210
0
220
0
230
1
0
LINE
5
12C
100
AcDbEntity
8
1
62
256
6
ByLayer
370
18
48
1
60
0
100
AcDbLine
10
423.4
20
26.649495
30
0
11
418
21
26.649495
31
0
39
0
210
0
220
0
230
1
0
LINE
5
12D
100
AcDbEntity
8
1
62
256
6
ByLayer
370
13
48
0.05
60
0
100
AcDbLine
10
-258.5
20
0
30
0
11
415.5
21
0
31
0
39
0
210
0
220
0
230
1
0
LINE
5
12E
100
AcDbEntity
8
SK2
62
256
6
ByLayer
370
18
48
1
60
0
100
AcDbLine
10
-264.25
20
-31.7375
30
0
11
-264.25
21
31.7375
31
0
39
0
210
0
220
0
230
1
0
LINE
5
130
100
AcDbEntity
8
SK2
62
256
6
ByLayer
370
18
48
1
60
0
100
AcDbLine
10
-253.5875
20
31.7375
30
0
11
-266.25
21
31.7375
31
0
39
0
210
0
220
0
230
1
0
LINE
5
131
100
AcDbEntity
8
SK2
62
256
6
ByLayer
370
18
48
1
60
0
100
AcDbLine
10
-253.5875
20
-31.7375
30
0
11
-266.25
21
-31.7375
31
0
39
0
210
0
220
0
230
1
0
LINE
5
132
100
AcDbEntity
8
1
62
256
6
ByLayer
370
18
48
1
60
1
100
AcDbLine
10
-264.25
20
31.7375
30
0
11
-263.789216
21
28.237502
31
0
39
0
210
0
220
0
230
1
0
LINE
5
133
100
AcDbEntity
8
1
62
256
6
ByLayer
370
18
48
1
60
1
100
AcDbLine
10
-263.789216
20
28.237502
30
0
11
-264.710784
21
28.237498
31
0
39
0
210
0
220
0
230
1
0
LINE
5
134
100
AcDbEntity
8
1
62
256
6
ByLayer
370
18
48
1
60
1
100
AcDbLine
10
-264.710784
20
28.237498
30
0
11
-264.25
21
31.7375
31
0
39
0
210
0
220
0
230
1
0
LINE
5
135
100
AcDbEntity
8
1
62
256
6
ByLayer
370
18
48
1
60
1
100
AcDbLine
10
-264.25
20
-31.7375
30
0
11
-264.710784
21
-28.237502
31
0
39
0
210
0
220
0
230
1
0
LINE
5
136
100
AcDbEntity
8
1
62
256
6
ByLayer
370
18
48
1
60
1
100
AcDbLine
10
-264.710784
20
-28.237502
30
0
11
-263.789216
21
-28.237498
31
0
39
0
210
0
220
0
230
1
0
LINE
5
137
100
AcDbEntity
8
1
62
256
6
ByLayer
370
18
48
1
60
1
100
AcDbLine
10
-263.789216
20
-28.237498
30
0
11
-264.25
21
-31.7375
31
0
39
0
210
0
220
0
230
1
0
LINE
5
138
100
AcDbEntity
8
SK2
62
256
6
ByLayer
370
13
48
1
60
0
100
AcDbLine
10
447.123181
20
-8.25
30
0
11
447.123181
21
38.699199
31
0
39
0
210
0
220
0
230
1
0
LINE
5
139
100
AcDbEntity
8
SK2
62
256
6
ByLayer
370
13
48
1
60
0
100
AcDbLine
10
413.91226
20
-8.25
30
0
11
449.123181
21
-8.25
31
0
39
0
210
0
220
0
230
1
0
LINE
5
13A
100
AcDbEntity
8
SK2
62
256
6
ByLayer
370
13
48
1
60
0
100
AcDbLine
10
413.91226
20
31.75
30
0
11
449.123181
21
31.75
31
0
39
0
210
0
220
0
230
1
0
LINE
5
13B
100
AcDbEntity
8
1
62
256
6
ByLayer
370
18
48
1
60
1
100
AcDbLine
10
447.123181
20
-8.25
30
0
11
446.662397
21
-4.750002
31
0
39
0
210
0
220
0
230
1
0
LINE
5
13C
100
AcDbEntity
8
1
62
256
6
ByLayer
370
18
48
1
60
1
100
AcDbLine
10
446.662397
20
-4.750002
30
0
11
447.583964
21
-4.749998
31
0
39
0
210
0
220
0
230
1
0
LINE
5
13D
100
AcDbEntity
8
1
62
256
6
ByLayer
370
18
48
1
60
1
100
AcDbLine
10
447.583964
20
-4.749998
30
0
11
447.123181
21
-8.25
31
0
39
0
210
0
220
0
230
1
0
LINE
5
13E
100
AcDbEntity
8
1
62
256
6
ByLayer
370
18
48
1
60
1
100
AcDbLine
10
447.123181
20
31.75
30
0
11
447.583964
21
28.250002
31
0
39
0
210
0
220
0
230
1
0
LINE
5
13F
100
AcDbEntity
8
1
62
256
6
ByLayer
370
18
48
1
60
1
100
AcDbLine
10
447.583964
20
28.250002
30
0
11
446.662397
21
28.249998
31
0
39
0
210
0
220
0
230
1
0
LINE
5
140
100
AcDbEntity
8
1
62
256
6
ByLayer
370
18
48
1
60
1
100
AcDbLine
10
446.662397
20
28.249998
30
0
11
447.123181
21
31.75
31
0
39
0
210
0
220
0
230
1
0
LINE
5
1A9
100
AcDbEntity
8
1
62
256
6
ByLayer
370
18
48
1
60
1
100
AcDbLine
10
-264.25
20
31.7375
30
0
11
-263.789216
21
28.237502
31
0
39
0
210
0
220
0
230
1
0
LINE
5
1AA
100
AcDbEntity
8
1
62
256
6
ByLayer
370
18
48
1
60
1
100
AcDbLine
10
-263.789216
20
28.237502
30
0
11
-264.710784
21
28.237498
31
0
39
0
210
0
220
0
230
1
0
LINE
5
1AB
100
AcDbEntity
8
1
62
256
6
ByLayer
370
18
48
1
60
1
100
AcDbLine
10
-264.710784
20
28.237498
30
0
11
-264.25
21
31.7375
31
0
39
0
210
0
220
0
230
1
0
LINE
5
1AD
100
AcDbEntity
8
1
62
256
6
ByLayer
370
18
48
1
60
1
100
AcDbLine
10
-264.25
20
-31.7375
30
0
11
-264.710784
21
-28.237502
31
0
39
0
210
0
220
0
230
1
0
LINE
5
1AE
100
AcDbEntity
8
1
62
256
6
ByLayer
370
18
48
1
60
1
100
AcDbLine
10
-264.710784
20
-28.237502
30
0
11
-263.789216
21
-28.237498
31
0
39
0
210
0
220
0
230
1
0
LINE
5
1AF
100
AcDbEntity
8
1
62
256
6
ByLayer
370
18
48
1
60
1
100
AcDbLine
10
-263.789216
20
-28.237498
30
0
11
-264.25
21
-31.7375
31
0
39
0
210
0
220
0
230
1
0
LINE
5
1B3
100
AcDbEntity
8
1
62
256
6
ByLayer
370
18
48
1
60
1
100
AcDbLine
10
447.123181
20
-8.25
30
0
11
446.662397
21
-4.750002
31
0
39
0
210
0
220
0
230
1
0
LINE
5
1B4
100
AcDbEntity
8
1
62
256
6
ByLayer
370
18
48
1
60
1
100
AcDbLine
10
446.662397
20
-4.750002
30
0
11
447.583964
21
-4.749998
31
0
39
0
210
0
220
0
230
1
0
LINE
5
1B5
100
AcDbEntity
8
1
62
256
6
ByLayer
370
18
48
1
60
1
100
AcDbLine
10
447.583964
20
-4.749998
30
0
11
447.123181
21
-8.25
31
0
39
0
210
0
220
0
230
1
0
LINE
5
1B7
100
AcDbEntity
8
1
62
256
6
ByLayer
370
18
48
1
60
1
100
AcDbLine
10
447.123181
20
31.75
30
0
11
447.583964
21
28.250002
31
0
39
0
210
0
220
0
230
1
0
LINE
5
1B8
100
AcDbEntity
8
1
62
256
6
ByLayer
370
18
48
1
60
1
100
AcDbLine
10
447.583964
20
28.250002
30
0
11
446.662397
21
28.249998
31
0
39
0
210
0
220
0
230
1
0
LINE
5
1B9
100
AcDbEntity
8
1
62
256
6
ByLayer
370
18
48
1
60
1
100
AcDbLine
10
446.662397
20
28.249998
30
0
11
447.123181
21
31.75
31
0
39
0
210
0
220
0
230
1
0
MTEXT
5
1A5
100
AcDbEntity
8
SK2
62
256
6
ByLayer
370
18
48
1
60
0
100
AcDbMText
10
-265.814634
20
-6.547355
30
0
210
0
220
0
230
1
1
%%c
40
3.5
41
0
44
1.084337
50
90
71
7
72
5
7
iso_b_vert
0
MTEXT
5
1A8
100
AcDbEntity
8
SK2
62
256
6
ByLayer
370
18
48
1
60
0
100
AcDbMText
10
-265.814634
20
0.425301
30
0
210
0
220
0
230
1
1
\W0.7346;63.5
40
3.5
41
0
44
1.084337
50
90
71
7
72
5
7
iso_b_vert
0
MTEXT
5
1B1
100
AcDbEntity
8
SK2
62
256
6
ByLayer
370
18
48
1
60
0
100
AcDbMText
10
445.558547
20
27.334577
30
0
210
0
220
0
230
1
1
%%c
40
3.5
41
0
44
1.084337
50
90
71
7
72
5
7
iso_b_vert
0
MTEXT
5
1B2
100
AcDbEntity
8
SK2
62
256
6
ByLayer
370
18
48
1
60
0
100
AcDbMText
10
445.558547
20
34.307233
30
0
210
0
220
0
230
1
1
\W0.7361;40
40
3.5
41
0
44
1.084337
50
90
71
7
72
5
7
iso_b_vert
0
MTEXT
5
1BB
100
AcDbEntity
8
SK6
62
256
6
ByLayer
370
18
48
1
60
0
100
AcDbMText
10
60.731727
20
-67.967366
30
0
210
0
220
0
230
1
1
\W0.8015;HT30D-CYA40 667-40
40
3.5
41
0
44
1.084337
50
0
71
7
72
5
7
iso_b_vert
0
HATCH
5
1AC
100
AcDbEntity
8
SK2
62
256
6
ByLayer
370
13
48
1
60
0
100
AcDbHatch
10
0
20
0
30
0
210
0
220
0
230
1
2
ANSI31
70
0
71
0
91
1
92
5
93
3
72
1
10
-264.25
20
31.7375
11
-263.789216258447
21
28.2375016925532
72
1
10
-263.789216258447
20
28.2375016925532
11
-264.710783741553
21
28.2374983074468
72
1
10
-264.710783741553
20
28.2374983074468
11
-264.25
21
31.7375
97
0
75
0
76
1
52
0
41
0.0062
77
0
78
1
53
45
43
0
44
0
45
-0.0139193969876572
46
0.0139193969876572
79
0
47
0
98
1
10
0
20
0
0
HATCH
5
1B0
100
AcDbEntity
8
SK2
62
256
6
ByLayer
370
13
48
1
60
0
100
AcDbHatch
10
0
20
0
30
0
210
0
220
0
230
1
2
ANSI31
70
0
71
0
91
1
92
5
93
3
72
1
10
-264.25
20
-31.7375
11
-264.710783741553
21
-28.2375016925532
72
1
10
-264.710783741553
20
-28.2375016925532
11
-263.789216258447
21
-28.2374983074468
72
1
10
-263.789216258447
20
-28.2374983074468
11
-264.25
21
-31.7375
97
0
75
0
76
1
52
0
41
0.0062
77
0
78
1
53
45
43
0
44
0
45
-0.0139193969876572
46
0.0139193969876572
79
0
47
0
98
1
10
0
20
0
0
HATCH
5
1B6
100
AcDbEntity
8
SK2
62
256
6
ByLayer
370
13
48
1
60
0
100
AcDbHatch
10
0
20
0
30
0
210
0
220
0
230
1
2
ANSI31
70
0
71
0
91
1
92
5
93
3
72
1
10
447.123180566759
20
-8.25
11
446.662396825206
21
-4.75000169255321
72
1
10
446.662396825206
20
-4.75000169255321
11
447.583964308312
21
-4.74999830744679
72
1
10
447.583964308312
20
-4.74999830744679
11
447.123180566759
21
-8.25
97
0
75
0
76
1
52
0
41
0.0062
77
0
78
1
53
45
43
0
44
0
45
-0.0139193969876572
46
0.0139193969876572
79
0
47
0
98
1
10
0
20
0
0
HATCH
5
1BA
100
AcDbEntity
8
SK2
62
256
6
ByLayer
370
13
48
1
60
0
100
AcDbHatch
10
0
20
0
30
0
210
0
220
0
230
1
2
ANSI31
70
0
71
0
91
1
92
5
93
3
72
1
10
447.123180566759
20
31.75
11
447.583964308312
21
28.2500016925532
72
1
10
447.583964308312
20
28.2500016925532
11
446.662396825206
21
28.2499983074468
72
1
10
446.662396825206
20
28.2499983074468
11
447.123180566759
21
31.75
97
0
75
0
76
1
52
0
41
0.0062
77
0
78
1
53
45
43
0
44
0
45
-0.0139193969876572
46
0.0139193969876572
79
0
47
0
98
1
10
0
20
0
0
DIMENSION
5
1BE
100
AcDbEntity
8
SK2
62
256
6
ByLayer
370
18
48
1
60
0
100
AcDbDimension
2
_U0
10
437.123181
20
11.75
30
0
11
437.123181
21
30.75
31
0
70
32
71
1
72
1
41
1
210
0
220
0
230
1
3
Standard
100
AcDbAlignedDimension
13
413
23
0
33
0
14
413
24
11.75
34
0
50
90
100
AcDbRotatedDimension
1001
ACAD
1000
DSTYLE
1002
{
1070
   371
1070
    13
1070
   372
1070
    13
1070
   170
1070
     0
1070
   144
1040
1.0
1070
   277
1070
     2
1070
   284
1070
     8
1070
   278
1070
    46
1070
   146
1040
1.0
1070
   345
1005
16
1070
   347
1005
16
1070
   346
1005
16
1070
   344
1005
0
1070
   343
1005
0
1070
   172
1070
     1
1070
    76
1070
     0
1070
    75
1070
     0
1070
   282
1070
     0
1070
   281
1070
     0
1070
    71
1070
     0
1070
    74
1070
     0
1070
   279
1070
     0
1070
   173
1070
     1
1070
   340
1005
1A6
1070
   271
1070
     3
1070
   272
1070
     2
1070
    77
1070
     1
1070
    73
1070
     0
1070
   171
1070
     3
1070
   274
1070
     4
1070
   177
1070
     2
1070
   176
1070
     2
1070
   178
1070
     2
1070
    78
1070
     8
1070
    48
1040
-0.1
1070
    41
1040
3.5
1070
   147
1040
1.75
1070
    42
1040
1.5875
1070
    44
1040
2.0
1070
   140
1040
3.5
1002
}
1001
ACAD_DSTYLE_DIM_LINETYPE
1070
   380
1005
16
1001
ACAD_DSTYLE_DIM_EXT1_LINETYPE
1070
   381
1005
16
1001
ACAD_DSTYLE_DIM_EXT2_LINETYPE
1070
   382
1005
16
0
DIMENSION
5
1D9
100
AcDbEntity
8
SK2
62
256
6
ByLayer
370
18
48
1
60
0
100
AcDbDimension
2
_U1
10
190.5
20
-45.5
30
0
11
301.75
21
-45.5
31
0
70
32
71
1
72
1
41
1
210
0
220
0
230
1
3
Standard
100
AcDbAlignedDimension
13
413
23
31.75
33
0
14
190.5
24
-31.75
34
0
50
0
100
AcDbRotatedDimension
1001
ACAD
1000
DSTYLE
1002
{
1070
   371
1070
    13
1070
   372
1070
    13
1070
   170
1070
     0
1070
   144
1040
1.0
1070
   277
1070
     2
1070
   284
1070
     8
1070
   278
1070
    46
1070
   146
1040
1.0
1070
   345
1005
16
1070
   347
1005
16
1070
   346
1005
16
1070
   344
1005
0
1070
   343
1005
0
1070
   172
1070
     1
1070
    76
1070
     0
1070
    75
1070
     0
1070
   282
1070
     0
1070
   281
1070
     0
1070
    71
1070
     0
1070
    74
1070
     0
1070
   279
1070
     0
1070
   173
1070
     1
1070
   340
1005
1A6
1070
   271
1070
     0
1070
   272
1070
     2
1070
    77
1070
     1
1070
    73
1070
     1
1070
   171
1070
     3
1070
   274
1070
     4
1070
   177
1070
     2
1070
   176
1070
     2
1070
   178
1070
     2
1070
    78
1070
     8
1070
    48
1040
-0.1
1070
    41
1040
3.5
1070
   147
1040
1.75
1070
    42
1040
1.5875
1070
    44
1040
2.0
1070
   140
1040
3.5
1002
}
1001
ACAD_DSTYLE_DIM_LINETYPE
1070
   380
1005
16
1001
ACAD_DSTYLE_DIM_EXT1_LINETYPE
1070
   381
1005
16
1001
ACAD_DSTYLE_DIM_EXT2_LINETYPE
1070
   382
1005
16
0
DIMENSION
5
1F2
100
AcDbEntity
8
SK2
62
256
6
ByLayer
370
18
48
1
60
0
100
AcDbDimension
2
_U2
10
0
20
-55.5
30
0
11
206.5
21
-55.5
31
0
70
32
71
1
72
1
41
1
210
0
220
0
230
1
3
Standard
100
AcDbAlignedDimension
13
413
23
31.75
33
0
14
0
24
-31.75
34
0
50
0
100
AcDbRotatedDimension
1001
ACAD
1000
DSTYLE
1002
{
1070
   371
1070
    13
1070
   372
1070
    13
1070
   170
1070
     0
1070
   144
1040
1.0
1070
   277
1070
     2
1070
   284
1070
     8
1070
   278
1070
    46
1070
   146
1040
1.0
1070
   345
1005
16
1070
   347
1005
16
1070
   346
1005
16
1070
   344
1005
0
1070
   343
1005
0
1070
   172
1070
     1
1070
    76
1070
     0
1070
    75
1070
     0
1070
   282
1070
     0
1070
   281
1070
     0
1070
    71
1070
     0
1070
    74
1070
     0
1070
   279
1070
     0
1070
   173
1070
     1
1070
   340
1005
1A6
1070
   271
1070
     2
1070
   272
1070
     2
1070
    77
1070
     1
1070
    73
1070
     1
1070
   171
1070
     3
1070
   274
1070
     4
1070
   177
1070
     2
1070
   176
1070
     2
1070
   178
1070
     2
1070
    78
1070
     8
1070
    48
1040
-0.1
1070
    41
1040
3.5
1070
   147
1040
1.75
1070
    42
1040
1.5875
1070
    44
1040
2.0
1070
   140
1040
3.5
1002
}
1001
ACAD_DSTYLE_DIM_LINETYPE
1070
   380
1005
16
1001
ACAD_DSTYLE_DIM_EXT1_LINETYPE
1070
   381
1005
16
1001
ACAD_DSTYLE_DIM_EXT2_LINETYPE
1070
   382
1005
16
0
DIMENSION
5
20B
100
AcDbEntity
8
SK2
62
256
6
ByLayer
370
18
48
1
60
0
100
AcDbDimension
2
_U3
10
413
20
42
30
0
11
79.5
21
42
31
0
70
32
71
1
72
1
41
1
210
0
220
0
230
1
3
Standard
100
AcDbAlignedDimension
13
-254
23
-13.3
33
0
14
413
24
-13.3
34
0
50
0
100
AcDbRotatedDimension
1001
ACAD
1000
DSTYLE
1002
{
1070
   371
1070
    13
1070
   372
1070
    13
1070
   170
1070
     0
1070
   144
1040
1.0
1070
   277
1070
     2
1070
   284
1070
     8
1070
   278
1070
    46
1070
   146
1040
1.0
1070
   345
1005
16
1070
   347
1005
16
1070
   346
1005
16
1070
   344
1005
0
1070
   343
1005
0
1070
   172
1070
     1
1070
    76
1070
     0
1070
    75
1070
     0
1070
   282
1070
     0
1070
   281
1070
     0
1070
    71
1070
     0
1070
    74
1070
     0
1070
   279
1070
     0
1070
   173
1070
     1
1070
   340
1005
1A6
1070
   271
1070
     2
1070
   272
1070
     2
1070
    77
1070
     1
1070
    73
1070
     1
1070
   171
1070
     3
1070
   274
1070
     4
1070
   177
1070
     2
1070
   176
1070
     2
1070
   178
1070
     2
1070
    78
1070
     8
1070
    48
1040
-0.1
1070
    41
1040
3.5
1070
   147
1040
1.75
1070
    42
1040
1.5875
1070
    44
1040
2.0
1070
   140
1040
3.5
1002
}
1001
ACAD_DSTYLE_DIM_LINETYPE
1070
   380
1005
16
1001
ACAD_DSTYLE_DIM_EXT1_LINETYPE
1070
   381
1005
16
1001
ACAD_DSTYLE_DIM_EXT2_LINETYPE
1070
   382
1005
16
0
ENDSEC
0
SECTION
2
OBJECTS
0
DICTIONARY
5
293
330
0
100
AcDbDictionary
280
0
281
1
3
ACAD_GROUP
350
294
3
ACAD_MLINESTYLE
350
295
0
DICTIONARY
5
294
330
0
100
AcDbDictionary
280
0
281
1
0
DICTIONARY
5
295
330
0
100
AcDbDictionary
280
0
281
1
3
Standard
350
18
0
MLINESTYLE
5
18
330
295
100
AcDbMlineStyle
2
Standard
70
0
3

62
256
51
90
52
90
71
2
49
-0.5
62
256
6
ByLayer
49
0.5
62
256
6
ByLayer
0
RASTERVARIABLES
5
281
330

100
AcDbRasterVariables
90
0
70
1
71
1
72
1
0
ENDSEC
0
EOF
