0
SECTION
2
HEADER
9
$ACADVER
1
AC1015
9
$DWGCODEPAGE
3
ANSI_1252
9
$HANDSEED
5
269
9
$ANGBASE
50
0
9
$ANGDIR
70
0
9
$ATTMODE
70
1
9
$AUNITS
70
0
9
$AUPREC
70
0
9
$CECOLOR
62
256
9
$CELTSCALE
40
1
9
$CELTYPE
6
ByLayer
9
$CELWEIGHT
370
18
9
$CLAYER
8
0
9
$CMLJUST
70
0
9
$CMLSCALE
40
1
9
$CMLSTYLE
2
Standard
9
$DIMSTYLE
2
Standard
9
$TEXTSIZE
40
0.2
9
$TEXTSTYLE
7
Standard
9
$LUNITS
70
2
9
$LUPREC
70
4
9
$EXTNAMES
290
1
9
$INSUNITS
70
4
9
$LTSCALE
40
1
9
$LWDISPLAY
290
1
9
$PDMODE
70
0
9
$PDSIZE
40
0
9
$PLINEGEN
70
0
0
ENDSEC
0
SECTION
2
CLASSES
0
CLASS
1
RASTERVARIABLES
2
AcDbRasterVariables
3
ISM
90
0
280
0
281
0
0
ENDSEC
0
SECTION
2
TABLES
0
TABLE
2
VPORT
5
25f
100
AcDbSymbolTable
0
VPORT
5
1
100
AcDbSymbolTableRecord
100
AcDbViewportTableRecord
2
*Active
70
0
10
0
20
0
11
1
21
1
12
-1
22
1
13
0
23
0
14
0.5
24
0.5
15
10
25
10
16
0
26
0
36
1
17
0
27
0
37
0
0
ENDTAB
0
TABLE
2
LTYPE
5
260
100
AcDbSymbolTable
0
LTYPE
5
14
100
AcDbSymbolTableRecord
100
AcDbLinetypeTableRecord
70
0
2
ByBlock
3

72
65
73
0
40
0
0
LTYPE
5
15
100
AcDbSymbolTableRecord
100
AcDbLinetypeTableRecord
70
0
2
ByLayer
3

72
65
73
0
40
0
0
LTYPE
5
16
100
AcDbSymbolTableRecord
100
AcDbLinetypeTableRecord
70
0
2
Continuous
3
Solid line
72
65
73
0
40
0
0
LTYPE
5
6E
100
AcDbSymbolTableRecord
100
AcDbLinetypeTableRecord
70
0
2
CENTER
3
____ _ ____ _ ____ _ ____
72
65
73
4
40
47.5
49
22
74
0
49
-8.5
74
0
49
8.5
74
0
49
-8.5
74
0
0
LTYPE
5
6F
100
AcDbSymbolTableRecord
100
AcDbLinetypeTableRecord
70
0
2
DASHED
3
__ __ __ __ __ __ __ __ __
72
65
73
2
40
25.72
49
12.86
74
0
49
-12.86
74
0
0
ENDTAB
0
TABLE
2
LAYER
5
261
100
AcDbSymbolTable
0
LAYER
5
10
100
AcDbSymbolTableRecord
100
AcDbLayerTableRecord
2
0
70
0
62
7
6
Continuous
290
1
370
-3
390
0
0
LAYER
5
71
100
AcDbSymbolTableRecord
100
AcDbLayerTableRecord
2
2
70
0
62
7
6
Continuous
290
1
370
-3
390
0
0
LAYER
5
95
100
AcDbSymbolTableRecord
100
AcDbLayerTableRecord
2
80
70
0
62
-6
6
Continuous
290
1
370
-3
390
0
0
LAYER
5
97
100
AcDbSymbolTableRecord
100
AcDbLayerTableRecord
2
81
70
0
62
-3
6
Continuous
290
1
370
-3
390
0
0
LAYER
5
99
100
AcDbSymbolTableRecord
100
AcDbLayerTableRecord
2
1
70
0
62
4
6
Continuous
290
1
370
-3
390
0
0
LAYER
5
A0
100
AcDbSymbolTableRecord
100
AcDbLayerTableRecord
2
4
70
0
62
-2
6
CENTER
290
1
370
-3
390
0
0
LAYER
5
1A4
100
AcDbSymbolTableRecord
100
AcDbLayerTableRecord
2
Defpoints
70
0
62
7
6
Continuous
290
0
370
-3
390
0
0
LAYER
5
24b
100
AcDbSymbolTableRecord
100
AcDbLayerTableRecord
2
SK4
70
0
62
2
6
CENTER
290
1
370
-3
390
0
0
LAYER
5
24c
100
AcDbSymbolTableRecord
100
AcDbLayerTableRecord
2
SK1
70
0
62
4
6
Continuous
290
1
370
-3
390
0
0
LAYER
5
24d
100
AcDbSymbolTableRecord
100
AcDbLayerTableRecord
2
SK2
70
0
62
7
6
Continuous
290
1
370
-3
390
0
0
LAYER
5
24e
100
AcDbSymbolTableRecord
100
AcDbLayerTableRecord
2
SK6
70
0
62
5
6
Continuous
290
1
370
-3
390
0
0
ENDTAB
0
TABLE
2
STYLE
5
262
100
AcDbSymbolTable
0
STYLE
5
11
100
AcDbSymbolTableRecord
100
AcDbTextStyleTableRecord
2
Standard
3
txt
70
0
71
0
40
0
41
1
42
0
50
0
0
STYLE
5
189
100
AcDbSymbolTableRecord
100
AcDbTextStyleTableRecord
2
iso_b_vert
3
simplex.shx
70
0
71
0
40
0
41
1
42
0
50
0
0
STYLE
5
18A
100
AcDbSymbolTableRecord
100
AcDbTextStyleTableRecord
2
DWGDirectTextStyle
3
simplex
70
0
71
0
40
0
41
1
42
0
50
0
0
ENDTAB
0
TABLE
2
DIMSTYLE
5
263
100
AcDbSymbolTable
100
AcDbDimStyleTable
0
DIMSTYLE
105
27
100
AcDbSymbolTableRecord
100
AcDbDimStyleTableRecord
2
Standard
70
0
3
<>
41
0.18
42
0.0625
44
0.18
140
0.18
147
0.09
73
0
74
0
77
1
271
2
275
0
278
52
280
0
340
11
0
ENDTAB
0
TABLE
2
VIEW
5
264
100
AcDbSymbolTable
0
ENDTAB
0
TABLE
2
UCS
5
265
100
AcDbSymbolTable
0
ENDTAB
0
TABLE
2
APPID
5
266
100
AcDbSymbolTable
0
APPID
5
12
100
AcDbSymbolTableRecord
100
AcDbRegAppTableRecord
2
ACAD
70
0
0
APPID
5
1A0
100
AcDbSymbolTableRecord
100
AcDbRegAppTableRecord
2
ACAD_DSTYLE_DIMBREAK
70
0
0
APPID
5
20A
100
AcDbSymbolTableRecord
100
AcDbRegAppTableRecord
2
ACAD_DSTYLE_DIM_LINETYPE
70
0
0
APPID
5
20B
100
AcDbSymbolTableRecord
100
AcDbRegAppTableRecord
2
ACAD_DSTYLE_DIM_EXT1_LINETYPE
70
0
0
APPID
5
20C
100
AcDbSymbolTableRecord
100
AcDbRegAppTableRecord
2
ACAD_DSTYLE_DIM_EXT2_LINETYPE
70
0
0
APPID
5
247
100
AcDbSymbolTableRecord
100
AcDbRegAppTableRecord
2
ACAD_MLEADERVER
70
0
0
ENDTAB
0
TABLE
2
BLOCK_RECORD
5
267
100
AcDbSymbolTable
0
BLOCK_RECORD
5
1F
100
AcDbSymbolTableRecord
100
AcDbBlockTableRecord
2
*Model_Space
340
0
70
0
0
BLOCK_RECORD
5
1B
100
AcDbSymbolTableRecord
100
AcDbBlockTableRecord
2
*Paper_Space
340
0
70
0
0
BLOCK_RECORD
5
23
100
AcDbSymbolTableRecord
100
AcDbBlockTableRecord
2
*Paper_Space0
340
0
70
0
0
BLOCK_RECORD
5
1A5
100
AcDbSymbolTableRecord
100
AcDbBlockTableRecord
2
*D1
340
0
70
0
0
BLOCK_RECORD
5
1B1
100
AcDbSymbolTableRecord
100
AcDbBlockTableRecord
2
_U0
340
0
70
0
0
BLOCK_RECORD
5
1BE
100
AcDbSymbolTableRecord
100
AcDbBlockTableRecord
2
*D3
340
0
70
0
0
BLOCK_RECORD
5
1CA
100
AcDbSymbolTableRecord
100
AcDbBlockTableRecord
2
_U1
340
0
70
0
0
BLOCK_RECORD
5
1D7
100
AcDbSymbolTableRecord
100
AcDbBlockTableRecord
2
*D5
340
0
70
0
0
BLOCK_RECORD
5
1E3
100
AcDbSymbolTableRecord
100
AcDbBlockTableRecord
2
_U2
340
0
70
0
0
ENDTAB
0
ENDSEC
0
SECTION
2
BLOCKS
0
BLOCK
5
20
100
AcDbEntity
8
0
100
AcDbBlockBegin
2
*Model_Space
70
0
10
0
20
0
30
0
3
*Model_Space
0
ENDBLK
5
21
100
AcDbEntity
8
0
100
AcDbBlockEnd
0
BLOCK
5
1C
100
AcDbEntity
8
0
100
AcDbBlockBegin
2
*Paper_Space
70
0
10
0
20
0
30
0
3
*Paper_Space
0
ENDBLK
5
1D
100
AcDbEntity
8
0
100
AcDbBlockEnd
0
BLOCK
5
24
100
AcDbEntity
8
0
100
AcDbBlockBegin
2
*Paper_Space0
70
0
10
0
20
0
30
0
3
*Paper_Space0
0
ENDBLK
5
25
100
AcDbEntity
8
0
100
AcDbBlockEnd
0
BLOCK
5
1A6
100
AcDbEntity
8
0
100
AcDbBlockBegin
2
*D1
70
1
10
0
20
0
30
0
3
*D1
0
LINE
5
1A8
100
AcDbEntity
8
0
62
256
6
ByLayer
370
-2
48
1
60
0
100
AcDbLine
10
368
20
18.4125
30
0
11
368
21
-35.75
31
0
39
0
210
0
220
0
230
1
0
LINE
5
1A9
100
AcDbEntity
8
0
62
256
6
ByLayer
370
-2
48
1
60
0
100
AcDbLine
10
120
20
-21.5875
30
0
11
120
21
-35.75
31
0
39
0
210
0
220
0
230
1
0
LINE
5
1AA
100
AcDbEntity
8
0
62
256
6
ByLayer
370
-2
48
1
60
0
100
AcDbLine
10
364.5
20
-33.75
30
0
11
123.5
21
-33.75
31
0
39
0
210
0
220
0
230
1
0
SOLID
5
1AB
100
AcDbEntity
8
0
62
256
6
ByLayer
370
-1
48
1
60
0
100
AcDbTrace
10
364.5
20
-34.333333
30
0
11
364.5
21
-33.166667
31
0
12
368
22
-33.75
32
0
13
368
23
-33.75
33
0
39
0
210
0
220
0
230
1
0
SOLID
5
1AC
100
AcDbEntity
8
0
62
256
6
ByLayer
370
-1
48
1
60
0
100
AcDbTrace
10
123.5
20
-33.166667
30
0
11
123.5
21
-34.333333
31
0
12
120
22
-33.75
32
0
13
120
23
-33.75
33
0
39
0
210
0
220
0
230
1
0
MTEXT
5
1AD
100
AcDbEntity
8
0
62
256
6
ByLayer
370
18
48
1
60
0
100
AcDbMText
10
244
20
-26.75
30
0
210
0
220
0
230
1
1
\A1;248
40
3.5
41
0
44
1
50
0
71
5
72
5
7
iso_b_vert
0
POINT
5
1AE
100
AcDbEntity
8
Defpoints
62
0
6
ByLayer
370
-1
48
1
60
0
100
AcDbPoint
10
368
20
20
30
0
39
0
210
0
220
0
230
1
50
360
0
POINT
5
1AF
100
AcDbEntity
8
Defpoints
62
0
6
ByLayer
370
-1
48
1
60
0
100
AcDbPoint
10
120
20
-20
30
0
39
0
210
0
220
0
230
1
50
360
0
POINT
5
1B0
100
AcDbEntity
8
Defpoints
62
0
6
ByLayer
370
-1
48
1
60
0
100
AcDbPoint
10
120
20
-33.75
30
0
39
0
210
0
220
0
230
1
50
360
0
ENDBLK
5
1A7
100
AcDbEntity
8
0
100
AcDbBlockEnd
0
BLOCK
5
1B9
100
AcDbEntity
8
0
100
AcDbBlockBegin
2
_U0
70
0
10
0
20
0
30
0
3
_U0
0
MTEXT
5
1B2
100
AcDbEntity
8
SK2
62
256
6
ByLayer
370
18
48
1
60
0
100
AcDbMText
10
234.902034
20
-32.717366
30
0
210
0
220
0
230
1
1
\W0.7621;OHN
40
3.5
41
0
44
1.084337
50
0
71
7
72
5
7
iso_b_vert
0
MTEXT
5
1B3
100
AcDbEntity
8
SK2
62
256
6
ByLayer
370
18
48
1
60
0
100
AcDbMText
10
246.304033
20
-32.717366
30
0
210
0
220
0
230
1
1
\W0.7541;248
40
3.5
41
0
44
1.084337
50
0
71
7
72
5
7
iso_b_vert
0
LINE
5
1B4
100
AcDbEntity
8
SK2
62
256
6
ByLayer
370
13
48
1
60
0
100
AcDbLine
10
368
20
18.4125
30
0
11
368
21
-35.75
31
0
39
0
210
0
220
0
230
1
0
LINE
5
1B5
100
AcDbEntity
8
SK2
62
256
6
ByLayer
370
13
48
1
60
0
100
AcDbLine
10
120
20
-21.5875
30
0
11
120
21
-35.75
31
0
39
0
210
0
220
0
230
1
0
LINE
5
1B6
100
AcDbEntity
8
SK2
62
256
6
ByLayer
370
13
48
1
60
0
100
AcDbLine
10
368
20
-33.75
30
0
11
120
21
-33.75
31
0
39
0
210
0
220
0
230
1
0
SOLID
5
1B7
100
AcDbEntity
8
SK2
62
256
6
ByLayer
370
18
48
1
60
0
100
AcDbTrace
10
368
20
-33.75
30
0
11
364.500002
21
-34.210784
31
0
12
364.499998
22
-33.289216
32
0
13
364.499998
23
-33.289216
33
0
39
0
210
0
220
0
230
1
0
SOLID
5
1B8
100
AcDbEntity
8
SK2
62
256
6
ByLayer
370
18
48
1
60
0
100
AcDbTrace
10
120
20
-33.75
30
0
11
123.499998
21
-33.289216
31
0
12
123.500002
22
-34.210784
32
0
13
123.500002
23
-34.210784
33
0
39
0
210
0
220
0
230
1
0
ENDBLK
5
1BA
100
AcDbEntity
8
0
100
AcDbBlockEnd
0
BLOCK
5
1BF
100
AcDbEntity
8
0
100
AcDbBlockBegin
2
*D3
70
1
10
0
20
0
30
0
3
*D3
0
LINE
5
1C1
100
AcDbEntity
8
0
62
256
6
ByLayer
370
-2
48
1
60
0
100
AcDbLine
10
368
20
18.4125
30
0
11
368
21
-45.75
31
0
39
0
210
0
220
0
230
1
0
LINE
5
1C2
100
AcDbEntity
8
0
62
256
6
ByLayer
370
-2
48
1
60
0
100
AcDbLine
10
0
20
-21.5875
30
0
11
0
21
-45.75
31
0
39
0
210
0
220
0
230
1
0
LINE
5
1C3
100
AcDbEntity
8
0
62
256
6
ByLayer
370
-2
48
1
60
0
100
AcDbLine
10
364.5
20
-43.75
30
0
11
3.5
21
-43.75
31
0
39
0
210
0
220
0
230
1
0
SOLID
5
1C4
100
AcDbEntity
8
0
62
256
6
ByLayer
370
-1
48
1
60
0
100
AcDbTrace
10
364.5
20
-44.333333
30
0
11
364.5
21
-43.166667
31
0
12
368
22
-43.75
32
0
13
368
23
-43.75
33
0
39
0
210
0
220
0
230
1
0
SOLID
5
1C5
100
AcDbEntity
8
0
62
256
6
ByLayer
370
-1
48
1
60
0
100
AcDbTrace
10
3.5
20
-43.166667
30
0
11
3.5
21
-44.333333
31
0
12
0
22
-43.75
32
0
13
0
23
-43.75
33
0
39
0
210
0
220
0
230
1
0
MTEXT
5
1C6
100
AcDbEntity
8
0
62
256
6
ByLayer
370
18
48
1
60
0
100
AcDbMText
10
184
20
-36.75
30
0
210
0
220
0
230
1
1
\A1;368
40
3.5
41
0
44
1
50
0
71
5
72
5
7
iso_b_vert
0
POINT
5
1C7
100
AcDbEntity
8
Defpoints
62
0
6
ByLayer
370
-1
48
1
60
0
100
AcDbPoint
10
368
20
20
30
0
39
0
210
0
220
0
230
1
50
360
0
POINT
5
1C8
100
AcDbEntity
8
Defpoints
62
0
6
ByLayer
370
-1
48
1
60
0
100
AcDbPoint
10
0
20
-20
30
0
39
0
210
0
220
0
230
1
50
360
0
POINT
5
1C9
100
AcDbEntity
8
Defpoints
62
0
6
ByLayer
370
-1
48
1
60
0
100
AcDbPoint
10
0
20
-43.75
30
0
39
0
210
0
220
0
230
1
50
360
0
ENDBLK
5
1C0
100
AcDbEntity
8
0
100
AcDbBlockEnd
0
BLOCK
5
1D2
100
AcDbEntity
8
0
100
AcDbBlockBegin
2
_U1
70
0
10
0
20
0
30
0
3
_U1
0
MTEXT
5
1CB
100
AcDbEntity
8
SK2
62
256
6
ByLayer
370
18
48
1
60
0
100
AcDbMText
10
174.879068
20
-42.717366
30
0
210
0
220
0
230
1
1
\W0.8176;OHX
40
3.5
41
0
44
1.084337
50
0
71
7
72
5
7
iso_b_vert
0
MTEXT
5
1CC
100
AcDbEntity
8
SK2
62
256
6
ByLayer
370
18
48
1
60
0
100
AcDbMText
10
186.695534
20
-42.717366
30
0
210
0
220
0
230
1
1
\W0.7138;368
40
3.5
41
0
44
1.084337
50
0
71
7
72
5
7
iso_b_vert
0
LINE
5
1CD
100
AcDbEntity
8
SK2
62
256
6
ByLayer
370
13
48
1
60
0
100
AcDbLine
10
368
20
18.4125
30
0
11
368
21
-45.75
31
0
39
0
210
0
220
0
230
1
0
LINE
5
1CE
100
AcDbEntity
8
SK2
62
256
6
ByLayer
370
13
48
1
60
0
100
AcDbLine
10
0
20
-21.5875
30
0
11
0
21
-45.75
31
0
39
0
210
0
220
0
230
1
0
LINE
5
1CF
100
AcDbEntity
8
SK2
62
256
6
ByLayer
370
13
48
1
60
0
100
AcDbLine
10
368
20
-43.75
30
0
11
0
21
-43.75
31
0
39
0
210
0
220
0
230
1
0
SOLID
5
1D0
100
AcDbEntity
8
SK2
62
256
6
ByLayer
370
18
48
1
60
0
100
AcDbTrace
10
368
20
-43.75
30
0
11
364.500002
21
-44.210784
31
0
12
364.499998
22
-43.289216
32
0
13
364.499998
23
-43.289216
33
0
39
0
210
0
220
0
230
1
0
SOLID
5
1D1
100
AcDbEntity
8
SK2
62
256
6
ByLayer
370
18
48
1
60
0
100
AcDbTrace
10
0
20
-43.75
30
0
11
3.499998
21
-43.289216
31
0
12
3.500002
22
-44.210784
32
0
13
3.500002
23
-44.210784
33
0
39
0
210
0
220
0
230
1
0
ENDBLK
5
1D3
100
AcDbEntity
8
0
100
AcDbBlockEnd
0
BLOCK
5
1D8
100
AcDbEntity
8
0
100
AcDbBlockBegin
2
*D5
70
1
10
0
20
0
30
0
3
*D5
0
LINE
5
1DA
100
AcDbEntity
8
0
62
256
6
ByLayer
370
-2
48
1
60
0
100
AcDbLine
10
-160
20
-8.9625
30
0
11
-160
21
32.25
31
0
39
0
210
0
220
0
230
1
0
LINE
5
1DB
100
AcDbEntity
8
0
62
256
6
ByLayer
370
-2
48
1
60
0
100
AcDbLine
10
368
20
-8.9625
30
0
11
368
21
32.25
31
0
39
0
210
0
220
0
230
1
0
LINE
5
1DC
100
AcDbEntity
8
0
62
256
6
ByLayer
370
-2
48
1
60
0
100
AcDbLine
10
-156.5
20
30.25
30
0
11
364.5
21
30.25
31
0
39
0
210
0
220
0
230
1
0
SOLID
5
1DD
100
AcDbEntity
8
0
62
256
6
ByLayer
370
-1
48
1
60
0
100
AcDbTrace
10
-156.5
20
30.833333
30
0
11
-156.5
21
29.666667
31
0
12
-160
22
30.25
32
0
13
-160
23
30.25
33
0
39
0
210
0
220
0
230
1
0
SOLID
5
1DE
100
AcDbEntity
8
0
62
256
6
ByLayer
370
-1
48
1
60
0
100
AcDbTrace
10
364.5
20
29.666667
30
0
11
364.5
21
30.833333
31
0
12
368
22
30.25
32
0
13
368
23
30.25
33
0
39
0
210
0
220
0
230
1
0
MTEXT
5
1DF
100
AcDbEntity
8
0
62
256
6
ByLayer
370
18
48
1
60
0
100
AcDbMText
10
104
20
37.25
30
0
210
0
220
0
230
1
1
\A1;528
40
3.5
41
0
44
1
50
0
71
5
72
5
7
iso_b_vert
0
POINT
5
1E0
100
AcDbEntity
8
Defpoints
62
0
6
ByLayer
370
-1
48
1
60
0
100
AcDbPoint
10
-160
20
-10.55
30
0
39
0
210
0
220
0
230
1
50
360
0
POINT
5
1E1
100
AcDbEntity
8
Defpoints
62
0
6
ByLayer
370
-1
48
1
60
0
100
AcDbPoint
10
368
20
-10.55
30
0
39
0
210
0
220
0
230
1
50
360
0
POINT
5
1E2
100
AcDbEntity
8
Defpoints
62
0
6
ByLayer
370
-1
48
1
60
0
100
AcDbPoint
10
368
20
30.25
30
0
39
0
210
0
220
0
230
1
50
360
0
ENDBLK
5
1D9
100
AcDbEntity
8
0
100
AcDbBlockEnd
0
BLOCK
5
1EA
100
AcDbEntity
8
0
100
AcDbBlockBegin
2
_U2
70
0
10
0
20
0
30
0
3
_U2
0
MTEXT
5
1E4
100
AcDbEntity
8
SK2
62
256
6
ByLayer
370
18
48
1
60
0
100
AcDbMText
10
100.787301
20
31.282634
30
0
210
0
220
0
230
1
1
\W0.7138;528
40
3.5
41
0
44
1.084337
50
0
71
7
72
5
7
iso_b_vert
0
LINE
5
1E5
100
AcDbEntity
8
SK2
62
256
6
ByLayer
370
13
48
1
60
0
100
AcDbLine
10
-160
20
-8.9625
30
0
11
-160
21
32.25
31
0
39
0
210
0
220
0
230
1
0
LINE
5
1E6
100
AcDbEntity
8
SK2
62
256
6
ByLayer
370
13
48
1
60
0
100
AcDbLine
10
368
20
-8.9625
30
0
11
368
21
32.25
31
0
39
0
210
0
220
0
230
1
0
LINE
5
1E7
100
AcDbEntity
8
SK2
62
256
6
ByLayer
370
13
48
1
60
0
100
AcDbLine
10
-160
20
30.25
30
0
11
368
21
30.25
31
0
39
0
210
0
220
0
230
1
0
SOLID
5
1E8
100
AcDbEntity
8
SK2
62
256
6
ByLayer
370
18
48
1
60
0
100
AcDbTrace
10
-160
20
30.25
30
0
11
-156.500002
21
30.710784
31
0
12
-156.499998
22
29.789216
32
0
13
-156.499998
23
29.789216
33
0
39
0
210
0
220
0
230
1
0
SOLID
5
1E9
100
AcDbEntity
8
SK2
62
256
6
ByLayer
370
18
48
1
60
0
100
AcDbTrace
10
368
20
30.25
30
0
11
364.500002
21
29.789216
31
0
12
364.499998
22
30.710784
32
0
13
364.499998
23
30.710784
33
0
39
0
210
0
220
0
230
1
0
ENDBLK
5
1EB
100
AcDbEntity
8
0
100
AcDbBlockEnd
0
ENDSEC
0
SECTION
2
ENTITIES
0
ARC
5
12D
100
AcDbEntity
8
1
62
256
6
ByLayer
370
18
48
1
60
0
100
AcDbCircle
39
0
10
372.8
20
-13.099495
30
0
40
0.2
210
0
220
0
230
1
100
AcDbArc
50
0
51
90
0
ARC
5
12E
100
AcDbEntity
8
1
62
256
6
ByLayer
370
18
48
1
60
0
100
AcDbCircle
39
0
10
372.8
20
-6.699495
30
0
40
0.2
210
0
220
0
230
1
100
AcDbArc
50
270
51
0
0
ARC
5
12F
100
AcDbEntity
8
1
62
256
6
ByLayer
370
18
48
1
60
0
100
AcDbCircle
39
0
10
378.4
20
-14.299495
30
0
40
0.6
210
0
220
0
230
1
100
AcDbArc
50
270
51
0
0
ARC
5
130
100
AcDbEntity
8
1
62
256
6
ByLayer
370
18
48
1
60
0
100
AcDbCircle
39
0
10
378.4
20
-5.499495
30
0
40
0.6
210
0
220
0
230
1
100
AcDbArc
50
0
51
90
0
ARC
5
131
100
AcDbEntity
8
1
62
256
6
ByLayer
370
18
48
1
60
0
100
AcDbCircle
39
0
10
366.4
20
-19.6
30
0
40
0.4
210
0
220
0
230
1
100
AcDbArc
50
180
51
270
0
ARC
5
132
100
AcDbEntity
8
1
62
256
6
ByLayer
370
18
48
1
60
0
100
AcDbCircle
39
0
10
366.4
20
19.6
30
0
40
0.4
210
0
220
0
230
1
100
AcDbArc
50
90
51
180
0
ARC
5
133
100
AcDbEntity
8
1
62
256
6
ByLayer
370
18
48
1
60
0
100
AcDbCircle
39
0
10
372.8
20
6.699495
30
0
40
0.2
210
0
220
0
230
1
100
AcDbArc
50
0
51
90
0
ARC
5
134
100
AcDbEntity
8
1
62
256
6
ByLayer
370
18
48
1
60
0
100
AcDbCircle
39
0
10
372.8
20
13.099495
30
0
40
0.2
210
0
220
0
230
1
100
AcDbArc
50
270
51
0
0
ARC
5
135
100
AcDbEntity
8
1
62
256
6
ByLayer
370
18
48
1
60
0
100
AcDbCircle
39
0
10
378.4
20
5.499495
30
0
40
0.6
210
0
220
0
230
1
100
AcDbArc
50
270
51
0
0
ARC
5
136
100
AcDbEntity
8
1
62
256
6
ByLayer
370
18
48
1
60
0
100
AcDbCircle
39
0
10
378.4
20
14.299495
30
0
40
0.6
210
0
220
0
230
1
100
AcDbArc
50
0
51
90
0
POINT
5
70
100
AcDbEntity
8
2
62
256
6
ByLayer
370
18
48
1
60
0
100
AcDbPoint
10
373
20
9.899495
30
0
39
0
210
0
220
0
230
1
50
360
0
POINT
5
72
100
AcDbEntity
8
2
62
256
6
ByLayer
370
18
48
1
60
0
100
AcDbPoint
10
369
20
9.899495
30
0
39
0
210
0
220
0
230
1
50
360
0
POINT
5
73
100
AcDbEntity
8
2
62
256
6
ByLayer
370
18
48
1
60
0
100
AcDbPoint
10
365.37476
20
0
30
0
39
0
210
0
220
0
230
1
50
360
0
POINT
5
74
100
AcDbEntity
8
2
62
256
6
ByLayer
370
18
48
1
60
0
100
AcDbPoint
10
247.45
20
0
30
0
39
0
210
0
220
0
230
1
50
360
0
POINT
5
75
100
AcDbEntity
8
2
62
256
6
ByLayer
370
18
48
1
60
0
100
AcDbPoint
10
369
20
-9.899495
30
0
39
0
210
0
220
0
230
1
50
360
0
POINT
5
76
100
AcDbEntity
8
2
62
256
6
ByLayer
370
18
48
1
60
0
100
AcDbPoint
10
240.2
20
0
30
0
39
0
210
0
220
0
230
1
50
360
0
POINT
5
77
100
AcDbEntity
8
2
62
256
6
ByLayer
370
18
48
1
60
0
100
AcDbPoint
10
347.75
20
0
30
0
39
0
210
0
220
0
230
1
50
360
0
POINT
5
78
100
AcDbEntity
8
2
62
256
6
ByLayer
370
18
48
1
60
0
100
AcDbPoint
10
366
20
0
30
0
39
0
210
0
220
0
230
1
50
360
0
POINT
5
79
100
AcDbEntity
8
2
62
256
6
ByLayer
370
18
48
1
60
0
100
AcDbPoint
10
351.5
20
0
30
0
39
0
210
0
220
0
230
1
50
360
0
POINT
5
7A
100
AcDbEntity
8
2
62
256
6
ByLayer
370
18
48
1
60
0
100
AcDbPoint
10
366
20
0
30
0
39
0
210
0
220
0
230
1
50
360
0
POINT
5
7B
100
AcDbEntity
8
2
62
256
6
ByLayer
370
18
48
1
60
0
100
AcDbPoint
10
356
20
0
30
0
39
0
210
0
220
0
230
1
50
360
0
POINT
5
7C
100
AcDbEntity
8
2
62
256
6
ByLayer
370
50
48
1
60
0
100
AcDbPoint
10
352
20
0
30
0
39
0
210
0
220
0
230
1
50
360
0
POINT
5
7D
100
AcDbEntity
8
2
62
256
6
ByLayer
370
18
48
1
60
0
100
AcDbPoint
10
342
20
0
30
0
39
0
210
0
220
0
230
1
50
360
0
POINT
5
7E
100
AcDbEntity
8
2
62
256
6
ByLayer
370
18
48
1
60
0
100
AcDbPoint
10
365.37476
20
0
30
0
39
0
210
0
220
0
230
1
50
360
0
POINT
5
7F
100
AcDbEntity
8
2
62
256
6
ByLayer
370
50
48
1
60
0
100
AcDbPoint
10
375
20
0
30
0
39
0
210
0
220
0
230
1
50
360
0
POINT
5
80
100
AcDbEntity
8
2
62
256
6
ByLayer
370
18
48
1
60
0
100
AcDbPoint
10
340.55
20
0
30
0
39
0
210
0
220
0
230
1
50
360
0
POINT
5
81
100
AcDbEntity
8
2
62
256
6
ByLayer
370
18
48
1
60
0
100
AcDbPoint
10
236.5
20
0
30
0
39
0
210
0
220
0
230
1
50
360
0
POINT
5
82
100
AcDbEntity
8
2
62
256
6
ByLayer
370
18
48
1
60
0
100
AcDbPoint
10
340.55
20
0
30
0
39
0
210
0
220
0
230
1
50
360
0
POINT
5
83
100
AcDbEntity
8
2
62
256
6
ByLayer
370
18
48
1
60
0
100
AcDbPoint
10
247.45
20
0
30
0
39
0
210
0
220
0
230
1
50
360
0
POINT
5
84
100
AcDbEntity
8
2
62
256
6
ByLayer
370
18
48
1
60
0
100
AcDbPoint
10
347.75
20
0
30
0
39
0
210
0
220
0
230
1
50
360
0
POINT
5
85
100
AcDbEntity
8
2
62
256
6
ByLayer
370
18
48
1
60
0
100
AcDbPoint
10
240.2
20
0
30
0
39
0
210
0
220
0
230
1
50
360
0
POINT
5
86
100
AcDbEntity
8
2
62
256
6
ByLayer
370
18
48
1
60
0
100
AcDbPoint
10
351.5
20
0
30
0
39
0
210
0
220
0
230
1
50
360
0
POINT
5
87
100
AcDbEntity
8
2
62
256
6
ByLayer
370
18
48
1
60
0
100
AcDbPoint
10
351.5
20
0
30
0
39
0
210
0
220
0
230
1
50
360
0
POINT
5
88
100
AcDbEntity
8
2
62
256
6
ByLayer
370
18
48
1
60
0
100
AcDbPoint
10
373
20
9.899495
30
0
39
0
210
0
220
0
230
1
50
360
0
POINT
5
89
100
AcDbEntity
8
2
62
256
6
ByLayer
370
18
48
1
60
0
100
AcDbPoint
10
356
20
0
30
0
39
0
210
0
220
0
230
1
50
360
0
POINT
5
8A
100
AcDbEntity
8
2
62
256
6
ByLayer
370
18
48
1
60
0
100
AcDbPoint
10
369
20
9.899495
30
0
39
0
210
0
220
0
230
1
50
360
0
POINT
5
8B
100
AcDbEntity
8
2
62
256
6
ByLayer
370
18
48
1
60
0
100
AcDbPoint
10
230
20
0
30
0
39
0
210
0
220
0
230
1
50
360
0
POINT
5
8C
100
AcDbEntity
8
2
62
256
6
ByLayer
370
18
48
1
60
0
100
AcDbPoint
10
293
20
0
30
0
39
0
210
0
220
0
230
1
50
360
0
POINT
5
8D
100
AcDbEntity
8
2
62
256
6
ByLayer
370
18
48
1
60
0
100
AcDbPoint
10
356
20
0
30
0
39
0
210
0
220
0
230
1
50
360
0
POINT
5
8E
100
AcDbEntity
8
2
62
256
6
ByLayer
370
18
48
1
60
0
100
AcDbPoint
10
231.8
20
0
30
0
39
0
210
0
220
0
230
1
50
360
0
POINT
5
8F
100
AcDbEntity
8
2
62
256
6
ByLayer
370
18
48
1
60
0
100
AcDbPoint
10
236.5
20
0
30
0
39
0
210
0
220
0
230
1
50
360
0
POINT
5
90
100
AcDbEntity
8
2
62
256
6
ByLayer
370
18
48
1
60
0
100
AcDbPoint
10
227.6
20
-10
30
0
39
0
210
0
220
0
230
1
50
360
0
POINT
5
91
100
AcDbEntity
8
2
62
256
6
ByLayer
370
18
48
1
60
0
100
AcDbPoint
10
227.6
20
0
30
0
39
0
210
0
220
0
230
1
50
360
0
POINT
5
92
100
AcDbEntity
8
2
62
256
6
ByLayer
370
18
48
1
60
0
100
AcDbPoint
10
236
20
0
30
0
39
0
210
0
220
0
230
1
50
360
0
POINT
5
93
100
AcDbEntity
8
2
62
256
6
ByLayer
370
18
48
1
60
0
100
AcDbPoint
10
232.05
20
0
30
0
39
0
210
0
220
0
230
1
50
360
0
POINT
5
94
100
AcDbEntity
8
80
62
256
6
ByLayer
370
18
48
1
60
0
100
AcDbPoint
10
0
20
0
30
0
39
0
210
0
220
0
230
1
50
360
0
POINT
5
96
100
AcDbEntity
8
81
62
256
6
ByLayer
370
18
48
1
60
0
100
AcDbPoint
10
368
20
0
30
0
39
0
210
0
220
0
230
1
50
360
0
POINT
5
98
100
AcDbEntity
8
1
62
256
6
ByLayer
370
18
48
1
60
1
100
AcDbPoint
10
368
20
20
30
0
39
0
210
0
220
0
230
1
50
360
0
POINT
5
9A
100
AcDbEntity
8
1
62
256
6
ByLayer
370
18
48
1
60
1
100
AcDbPoint
10
120
20
-20
30
0
39
0
210
0
220
0
230
1
50
360
0
POINT
5
9B
100
AcDbEntity
8
1
62
256
6
ByLayer
370
18
48
1
60
1
100
AcDbPoint
10
368
20
20
30
0
39
0
210
0
220
0
230
1
50
360
0
POINT
5
9C
100
AcDbEntity
8
1
62
256
6
ByLayer
370
18
48
1
60
1
100
AcDbPoint
10
0
20
-20
30
0
39
0
210
0
220
0
230
1
50
360
0
POINT
5
9D
100
AcDbEntity
8
1
62
256
6
ByLayer
370
18
48
1
60
1
100
AcDbPoint
10
-160
20
-10.55
30
0
39
0
210
0
220
0
230
1
50
360
0
POINT
5
9E
100
AcDbEntity
8
1
62
256
6
ByLayer
370
18
48
1
60
1
100
AcDbPoint
10
368
20
-10.55
30
0
39
0
210
0
220
0
230
1
50
360
0
SPLINE
5
137
100
AcDbEntity
8
1
62
256
6
ByLayer
370
18
48
1
60
0
100
AcDbSpline
70
2053
71
3
72
40
73
36
40
0
40
0
40
0
40
0
40
0.0625000000000056
40
0.0625000000000056
40
0.125000000000011
40
0.125000000000011
40
0.250000000000023
40
0.250000000000023
40
0.312500000000029
40
0.312500000000029
40
0.343750000000031
40
0.343750000000031
40
0.375000000000034
40
0.375000000000034
40
0.43750000000004
40
0.43750000000004
40
0.468750000000041
40
0.468750000000041
40
0.500000000000043
40
0.500000000000043
40
0.562500000000045
40
0.562500000000045
40
0.593750000000045
40
0.593750000000045
40
0.625000000000045
40
0.625000000000045
40
0.687500000000037
40
0.687500000000037
40
0.75000000000003
40
0.75000000000003
40
0.812500000000022
40
0.812500000000022
40
0.875000000000015
40
0.875000000000015
40
1
40
1
40
1
40
1
41
1
10
367.650480947162
20
-19.6735161477106
30
0
41
1
10
367.643995528497
20
-19.6800347829365
30
0
41
1
10
367.637641930968
20
-19.6864240983025
30
0
41
1
10
367.625223781212
20
-19.6989177330083
30
0
41
1
10
367.619159362558
20
-19.7050219490506
30
0
41
1
10
367.601760540395
20
-19.7225422830358
30
0
41
1
10
367.591092877904
20
-19.7332946246385
30
0
41
1
10
367.576962978984
20
-19.7475455477897
30
0
41
1
10
367.572665768936
20
-19.7518812199195
30
0
41
1
10
367.566937041454
20
-19.7576626687888
30
0
41
1
10
367.565146159727
20
-19.7594703034833
30
0
41
1
10
367.561821741835
20
-19.7628262012985
30
0
41
1
10
367.560285385348
20
-19.7643773132463
30
0
41
1
10
367.556170769704
20
-19.7685318245776
30
0
41
1
10
367.554054662599
20
-19.7706689842464
30
0
41
1
10
367.551904777518
20
-19.7728403855655
30
0
41
1
10
367.551358069514
20
-19.7733926014477
30
0
41
1
10
367.550642684802
20
-19.7741152032569
30
0
41
1
10
367.550471174801
20
-19.7742884504568
30
0
41
1
10
367.550501778366
20
-19.7742575373637
30
0
41
1
10
367.551246131199
20
-19.7735056170718
30
0
41
1
10
367.553449587003
20
-19.77128011912
30
0
41
1
10
367.554366440456
20
-19.7703541331463
30
0
41
1
10
367.556507437831
20
-19.7681920072893
30
0
41
1
10
367.557735591993
20
-19.7669518171103
30
0
41
1
10
367.561863192775
20
-19.7627842351986
30
0
41
1
10
367.565218581561
20
-19.7593968992317
30
0
41
1
10
367.572951716672
20
-19.7515926878474
30
0
41
1
10
367.577252302461
20
-19.7472536906845
30
0
41
1
10
367.586584704884
20
-19.7378414692271
30
0
41
1
10
367.591617667416
20
-19.7327670857881
30
0
41
1
10
367.602342916788
20
-19.7219581556354
30
0
41
1
10
367.607954623723
20
-19.716304835688
30
0
41
1
10
367.625296915117
20
-19.6988417531482
30
0
41
1
10
367.637586054382
20
-19.6864770846455
30
0
41
1
10
367.650480947162
20
-19.6735161477106
30
0
0
SPLINE
5
138
100
AcDbEntity
8
1
62
256
6
ByLayer
370
18
48
1
60
0
100
AcDbSpline
70
4
71
3
72
8
73
4
40
0
40
0
40
0
40
0
40
1
40
1
40
1
40
1
41
1
10
367.650480947162
20
-19.6735161477106
30
0
41
1
10
367.875830405165
20
-19.4470125106997
30
0
41
1
10
368.100607863251
20
-19.2197546698709
30
0
41
1
10
368.324759526419
20
-18.991671694456
30
0
0
SPLINE
5
139
100
AcDbEntity
8
1
62
256
6
ByLayer
370
18
48
1
60
0
100
AcDbSpline
70
4
71
3
72
8
73
4
40
0
40
0
40
0
40
0
40
1
40
1
40
1
40
1
41
1
10
368.324759526419
20
-18.97685679321
30
0
41
1
10
368.100458994954
20
-19.1950332762281
30
0
41
1
10
367.875685997486
20
-19.4125589107669
30
0
41
1
10
367.650480947162
20
-19.6294893682057
30
0
0
SPLINE
5
13A
100
AcDbEntity
8
1
62
256
6
ByLayer
370
18
48
1
60
0
100
AcDbSpline
70
4
71
3
72
36
73
32
40
0
40
0
40
0
40
0
40
0.0625000000000001
40
0.0625000000000001
40
0.125
40
0.125
40
0.1875
40
0.1875
40
0.25
40
0.25
40
0.3125
40
0.3125
40
0.375000000000001
40
0.375000000000001
40
0.437500000000001
40
0.437500000000001
40
0.500000000000001
40
0.500000000000001
40
0.562500000000001
40
0.562500000000001
40
0.625000000000001
40
0.625000000000001
40
0.687500000000001
40
0.687500000000001
40
0.750000000000001
40
0.750000000000001
40
0.812500000000001
40
0.812500000000001
40
0.875000000000001
40
0.875000000000001
40
1
40
1
40
1
40
1
41
1
10
367.650480947162
20
-19.6294893682057
30
0
41
1
10
367.643862084188
20
-19.6358650377145
30
0
41
1
10
367.637368158041
20
-19.6420854939392
30
0
41
1
10
367.624658212001
20
-19.6541795144029
30
0
41
1
10
367.618465781099
20
-19.6600302465737
30
0
41
1
10
367.606614451507
20
-19.6711317760501
30
0
41
1
10
367.600930365741
20
-19.6764066912076
30
0
41
1
10
367.590113554064
20
-19.6863246581521
30
0
41
1
10
367.584944456052
20
-19.691000029734
30
0
41
1
10
367.575462300344
20
-19.6994157565418
30
0
41
1
10
367.571165979257
20
-19.7031426233273
30
0
41
1
10
367.563582231134
20
-19.709502599633
30
0
41
1
10
367.560295493777
20
-19.712131438415
30
0
41
1
10
367.555115656292
20
-19.7159495810421
30
0
41
1
10
367.55318093426
20
-19.7171751733805
30
0
41
1
10
367.550745513604
20
-19.7181286395741
30
0
41
1
10
367.550291079597
20
-19.7178363837949
30
0
41
1
10
367.550812662286
20
-19.7158184071475
30
0
41
1
10
367.551796471514
20
-19.7140793421216
30
0
41
1
10
367.555138387984
20
-19.7092388666697
30
0
41
1
10
367.557446708715
20
-19.7062051495601
30
0
41
1
10
367.563158317433
20
-19.6990846204168
30
0
41
1
10
367.566592406128
20
-19.6949623448436
30
0
41
1
10
367.57432482138
20
-19.6859171291032
30
0
41
1
10
367.578590882068
20
-19.681029982191
30
0
41
1
10
367.587802061849
20
-19.6706380732869
30
0
41
1
10
367.592748132286
20
-19.6651324406481
30
0
41
1
10
367.60325464834
20
-19.6535639456442
30
0
41
1
10
367.608756349684
20
-19.6475660845106
30
0
41
1
10
367.625757992912
20
-19.6291819152151
30
0
41
1
10
367.63781344554
20
-19.616338150569
30
0
41
1
10
367.650480947162
20
-19.6030003410692
30
0
0
SPLINE
5
13B
100
AcDbEntity
8
1
62
256
6
ByLayer
370
18
48
1
60
0
100
AcDbSpline
70
4
71
3
72
8
73
4
40
0
40
0
40
0
40
0
40
1
40
1
40
1
40
1
41
1
10
367.650480947162
20
-19.6030003410692
30
0
41
1
10
367.876008003165
20
-19.3655393957385
30
0
41
1
10
368.100791090601
20
-19.1271433496652
30
0
41
1
10
368.324759526419
20
-18.8877233606912
30
0
0
SPLINE
5
13C
100
AcDbEntity
8
1
62
256
6
ByLayer
370
18
48
1
60
0
100
AcDbSpline
70
4
71
3
72
8
73
4
40
0
40
0
40
0
40
0
40
1
40
1
40
1
40
1
41
1
10
368.324759526419
20
-18.8429985339383
30
0
41
1
10
368.10033706691
20
-19.0525298860215
30
0
41
1
10
367.875567648883
20
-19.2615638584136
30
0
41
1
10
367.650480947162
20
-19.4701429912256
30
0
0
SPLINE
5
13D
100
AcDbEntity
8
1
62
256
6
ByLayer
370
18
48
1
60
0
100
AcDbSpline
70
4
71
3
72
38
73
34
40
0
40
0
40
0
40
0
40
0.062499999999999
40
0.062499999999999
40
0.124999999999998
40
0.124999999999998
40
0.187499999999997
40
0.187499999999997
40
0.249999999999996
40
0.249999999999996
40
0.312499999999995
40
0.312499999999995
40
0.374999999999994
40
0.374999999999994
40
0.437499999999993
40
0.437499999999993
40
0.499999999999992
40
0.499999999999992
40
0.53124999999999
40
0.53124999999999
40
0.562499999999988
40
0.562499999999988
40
0.624999999999992
40
0.624999999999992
40
0.687499999999995
40
0.687499999999995
40
0.749999999999998
40
0.749999999999998
40
0.812500000000002
40
0.812500000000002
40
0.875000000000005
40
0.875000000000005
40
1
40
1
40
1
40
1
41
1
10
367.650480947162
20
-19.4701429912256
30
0
41
1
10
367.643726881463
20
-19.4764017224413
30
0
41
1
10
367.637098160743
20
-19.4824675984262
30
0
41
1
10
367.624121587645
20
-19.4941653645857
30
0
41
1
10
367.617742143976
20
-19.4998242703924
30
0
41
1
10
367.605562970483
20
-19.5104136408787
30
0
41
1
10
367.599742695575
20
-19.5153637999639
30
0
41
1
10
367.588714807944
20
-19.5244776354345
30
0
41
1
10
367.583471678807
20
-19.5286687146869
30
0
41
1
10
367.573894168183
20
-19.5359672809033
30
0
41
1
10
367.569604727196
20
-19.5390430763004
30
0
41
1
10
367.562140118258
20
-19.5439116287619
30
0
41
1
10
367.558968752714
20
-19.5456925212589
30
0
41
1
10
367.55412676766
20
-19.5476893893327
30
0
41
1
10
367.552408786091
20
-19.5479394606952
30
0
41
1
10
367.550449968655
20
-19.5468649480094
30
0
41
1
10
367.550243871428
20
-19.5455532016625
30
0
41
1
10
367.550991933076
20
-19.5425459103021
30
0
41
1
10
367.551417710024
20
-19.5413688368418
30
0
41
1
10
367.552612851189
20
-19.5386745168132
30
0
41
1
10
367.553385026571
20
-19.5371539574101
30
0
41
1
10
367.556141299637
20
-19.5322031740114
30
0
41
1
10
367.558572250332
20
-19.5283601137443
30
0
41
1
10
367.56445428438
20
-19.5197418754224
30
0
41
1
10
367.567937837454
20
-19.5149253101636
30
0
41
1
10
367.575648799551
20
-19.5046892334913
30
0
41
1
10
367.579874304902
20
-19.4992680700742
30
0
41
1
10
367.588959245089
20
-19.4879075907862
30
0
41
1
10
367.593819464948
20
-19.481967630191
30
0
41
1
10
367.604115964568
20
-19.4696181549184
30
0
41
1
10
367.609513235996
20
-19.4632561734391
30
0
41
1
10
367.6261921918
20
-19.4438785061731
30
0
41
1
10
367.638027080278
20
-19.4304881908606
30
0
41
1
10
367.650480947162
20
-19.4166940319327
30
0
0
SPLINE
5
13E
100
AcDbEntity
8
1
62
256
6
ByLayer
370
18
48
1
60
0
100
AcDbSpline
70
4
71
3
72
8
73
4
40
0
40
0
40
0
40
0
40
1
40
1
40
1
40
1
41
1
10
367.650480947162
20
-19.4166940319327
30
0
41
1
10
367.876228917632
20
-19.1666509399749
30
0
41
1
10
368.101019214676
20
-18.9154654531765
30
0
41
1
10
368.324759526419
20
-18.6630274540333
30
0
0
SPLINE
5
13F
100
AcDbEntity
8
1
62
256
6
ByLayer
370
18
48
1
60
0
100
AcDbSpline
70
4
71
3
72
8
73
4
40
0
40
0
40
0
40
0
40
1
40
1
40
1
40
1
41
1
10
368.324759526419
20
-18.5875252185438
30
0
41
1
10
368.100236859786
20
-18.7895703804292
30
0
41
1
10
367.875470342809
20
-18.9912532251729
30
0
41
1
10
367.650480947162
20
-19.1926049128575
30
0
0
SPLINE
5
140
100
AcDbEntity
8
1
62
256
6
ByLayer
370
18
48
1
60
0
100
AcDbSpline
70
4
71
3
72
39
73
35
40
0
40
0
40
0
40
0
40
0.0625000000000013
40
0.0625000000000013
40
0.125000000000003
40
0.125000000000003
40
0.187500000000004
40
0.187500000000004
40
0.250000000000005
40
0.250000000000005
40
0.312500000000007
40
0.312500000000007
40
0.343750000000006
40
0.343750000000006
40
0.375000000000005
40
0.406250000000004
40
0.406250000000004
40
0.437500000000003
40
0.437500000000003
40
0.500000000000003
40
0.500000000000003
40
0.562500000000003
40
0.562500000000003
40
0.625000000000003
40
0.625000000000003
40
0.687500000000003
40
0.687500000000003
40
0.750000000000003
40
0.750000000000003
40
0.812500000000003
40
0.812500000000003
40
0.875000000000003
40
0.875000000000003
40
1
40
1
40
1
40
1
41
1
10
367.650480947162
20
-19.1926049128576
30
0
41
1
10
367.643561481925
20
-19.1987974091714
30
0
41
1
10
367.636760597053
20
-19.2047594560293
30
0
41
1
10
367.623428732479
20
-19.2161568732047
30
0
41
1
10
367.616868043973
20
-19.221614922343
30
0
41
1
10
367.604372494835
20
-19.2316571174374
30
0
41
1
10
367.598405523108
20
-19.2362705084991
30
0
41
1
10
367.587120780066
20
-19.2445513660951
30
0
41
1
10
367.581757911793
20
-19.248245222261
30
0
41
1
10
367.572161291116
20
-19.254261882997
30
0
41
1
10
367.567898801765
20
-19.2566113207269
30
0
41
1
10
367.562409953693
20
-19.2590197111092
30
0
41
1
10
367.56074024976
20
-19.2596301418322
30
0
41
1
10
367.557792033825
20
-19.2604382600566
30
0
41
1
10
367.555212841065
20
-19.260843929945
30
0
41
1
10
367.553367705005
20
-19.2604482498082
30
0
41
1
10
367.551893890274
20
-19.259646847812
30
0
41
1
10
367.551341802858
20
-19.2590371274925
30
0
41
1
10
367.550274927363
20
-19.2566430276474
30
0
41
1
10
367.550326458122
20
-19.2543028706035
30
0
41
1
10
367.551787967949
20
-19.2482959791915
30
0
41
1
10
367.553220516284
20
-19.2445964956714
30
0
41
1
10
367.557185296634
20
-19.2362910592424
30
0
41
1
10
367.559719213955
20
-19.2316610587576
30
0
41
1
10
367.565737405588
20
-19.2215788782869
30
0
41
1
10
367.569244994022
20
-19.2160956853224
30
0
41
1
10
367.576918114054
20
-19.2046829541805
30
0
41
1
10
367.581098727558
20
-19.1987255135256
30
0
41
1
10
367.590054837743
20
-19.1863774236134
30
0
41
1
10
367.594830979835
20
-19.1799863029414
30
0
41
1
10
367.604926584524
20
-19.1668094826114
30
0
41
1
10
367.61022432905
20
-19.1600533921706
30
0
41
1
10
367.626598565669
20
-19.1395788033848
30
0
41
1
10
367.638226288089
20
-19.1255569553039
30
0
41
1
10
367.650480947162
20
-19.1112111569994
30
0
0
SPLINE
5
141
100
AcDbEntity
8
1
62
256
6
ByLayer
370
18
48
1
60
0
100
AcDbSpline
70
4
71
3
72
8
73
4
40
0
40
0
40
0
40
0
40
1
40
1
40
1
40
1
41
1
10
367.650480947162
20
-19.1112111569994
30
0
41
1
10
367.876507770666
20
-18.8466150387261
30
0
41
1
10
368.101307459449
20
-18.5806365366888
30
0
41
1
10
368.324759526419
20
-18.3131399205598
30
0
0
SPLINE
5
142
100
AcDbEntity
8
1
62
256
6
ByLayer
370
18
48
1
60
0
100
AcDbSpline
70
4
71
3
72
8
73
4
40
0
40
0
40
0
40
0
40
1
40
1
40
1
40
1
41
1
10
368.324759526419
20
-18.2053177327395
30
0
41
1
10
368.100154848045
20
-18.4009956122068
30
0
41
1
10
367.875390693943
20
-18.5964289589472
30
0
41
1
10
367.650480947162
20
-18.7916390605853
30
0
0
SPLINE
5
143
100
AcDbEntity
8
1
62
256
6
ByLayer
370
18
48
1
60
0
100
AcDbSpline
70
4
71
3
72
32
73
28
40
0
40
0
40
0
40
0
40
0.12499999999999
40
0.12499999999999
40
0.187499999999989
40
0.187499999999989
40
0.249999999999988
40
0.249999999999988
40
0.312499999999987
40
0.312499999999987
40
0.374999999999986
40
0.374999999999986
40
0.437499999999985
40
0.437499999999985
40
0.499999999999984
40
0.499999999999984
40
0.562499999999983
40
0.562499999999983
40
0.624999999999982
40
0.624999999999982
40
0.749999999999984
40
0.749999999999984
40
0.812499999999985
40
0.812499999999985
40
0.874999999999985
40
0.874999999999985
40
1
40
1
40
1
40
1
41
1
10
367.650480947162
20
-18.7916390605853
30
0
41
1
10
367.636218452344
20
-18.8040181731086
30
0
41
1
10
367.622240264368
20
-18.8154173152047
30
0
41
1
10
367.602992291188
20
-18.8296153042808
30
0
41
1
10
367.596826112669
20
-18.8338945401531
30
0
41
1
10
367.585150324815
20
-18.8413094412335
30
0
41
1
10
367.579802545074
20
-18.8443419283292
30
0
41
1
10
367.570193548697
20
-18.8489058516384
30
0
41
1
10
367.565917359672
20
-18.8504253367856
30
0
41
1
10
367.5589614839
20
-18.8516753986743
30
0
41
1
10
367.556219248358
20
-18.8514436933257
30
0
41
1
10
367.552246458667
20
-18.849215664621
30
0
41
1
10
367.551085390741
20
-18.847251677175
30
0
41
1
10
367.550241537347
20
-18.8418614194536
30
0
41
1
10
367.550569080283
20
-18.838382972767
30
0
41
1
10
367.552511726574
20
-18.8303344171844
30
0
41
1
10
367.554109567751
20
-18.8257708187554
30
0
41
1
10
367.558360917358
20
-18.8157342041928
30
0
41
1
10
367.56103952816
20
-18.8102189029185
30
0
41
1
10
367.570274220005
20
-18.7928579231843
30
0
41
1
10
367.578003306719
20
-18.7801749967735
30
0
41
1
10
367.591401058081
20
-18.7598818429372
30
0
41
1
10
367.59613953536
20
-18.7529552766058
30
0
41
1
10
367.605993559771
20
-18.7389641660186
30
0
41
1
10
367.611125160039
20
-18.7318756087926
30
0
41
1
10
367.627074672477
20
-18.7103590621002
30
0
41
1
10
367.638441494712
20
-18.6956828090524
30
0
41
1
10
367.650480947162
20
-18.6807059996443
30
0
0
SPLINE
5
144
100
AcDbEntity
8
1
62
256
6
ByLayer
370
18
48
1
60
0
100
AcDbSpline
70
4
71
3
72
8
73
4
40
0
40
0
40
0
40
0
40
1
40
1
40
1
40
1
41
1
10
367.650480947162
20
-18.6807059996443
30
0
41
1
10
367.876866272618
20
-18.3990877212198
30
0
41
1
10
368.101678442285
20
-18.1158055554848
30
0
41
1
10
368.324759526419
20
-17.8306924641193
30
0
0
SPLINE
5
145
100
AcDbEntity
8
1
62
256
6
ByLayer
370
18
48
1
60
0
100
AcDbSpline
70
4
71
3
72
8
73
4
40
0
40
0
40
0
40
0
40
1
40
1
40
1
40
1
41
1
10
368.324759526419
20
-17.6881625317612
30
0
41
1
10
368.100089025132
20
-17.8786205059024
30
0
41
1
10
367.875326782244
20
-18.0689340213255
30
0
41
1
10
367.650480947162
20
-18.2591159102949
30
0
0
SPLINE
5
146
100
AcDbEntity
8
1
62
256
6
ByLayer
370
18
48
1
60
0
100
AcDbSpline
70
4
71
3
72
41
73
37
40
0
40
0
40
0
40
0
40
0.0625000000000003
40
0.0625000000000003
40
0.125000000000001
40
0.125000000000001
40
0.156249999999997
40
0.156249999999997
40
0.187499999999992
40
0.187499999999992
40
0.24999999999999
40
0.24999999999999
40
0.281249999999989
40
0.281249999999989
40
0.312499999999988
40
0.343749999999988
40
0.343749999999988
40
0.374999999999987
40
0.374999999999987
40
0.43749999999998
40
0.43749999999998
40
0.468749999999979
40
0.468749999999979
40
0.499999999999978
40
0.499999999999978
40
0.562499999999981
40
0.562499999999981
40
0.624999999999984
40
0.624999999999984
40
0.687499999999986
40
0.687499999999986
40
0.749999999999989
40
0.749999999999989
40
0.874999999999994
40
0.874999999999994
40
1
40
1
40
1
40
1
41
1
10
367.650480947162
20
-18.2591159102949
30
0
41
1
10
367.643120671969
20
-18.2653414694156
30
0
41
1
10
367.635804695087
20
-18.2712773588523
30
0
41
1
10
367.621558337367
20
-18.2822363602348
30
0
41
1
10
367.614658110684
20
-18.2872398905796
30
0
41
1
10
367.604698216193
20
-18.2939087063814
30
0
41
1
10
367.601443651369
20
-18.2959915195195
30
0
41
1
10
367.595080260982
20
-18.2998442241152
30
0
41
1
10
367.591968194618
20
-18.3016142220467
30
0
41
1
10
367.583076629913
20
-18.3062945367747
30
0
41
1
10
367.577668862641
20
-18.3086246746206
30
0
41
1
10
367.570442806861
20
-18.3107695863595
30
0
41
1
10
367.568202442333
20
-18.311249831674
30
0
41
1
10
367.564140466581
20
-18.3117249114427
30
0
41
1
10
367.560469603166
20
-18.3117232866625
30
0
41
1
10
367.557572696077
20
-18.3107769709441
30
0
41
1
10
367.555065784551
20
-18.3093539638441
30
0
41
1
10
367.554012412702
20
-18.3084010300545
30
0
41
1
10
367.551498718449
20
-18.3049318251667
30
0
41
1
10
367.550641696582
20
-18.3017928744913
30
0
41
1
10
367.550431296051
20
-18.2959971988531
30
0
41
1
10
367.550543891767
20
-18.2938771195671
30
0
41
1
10
367.551097439142
20
-18.2893835606951
30
0
41
1
10
367.55153724686
20
-18.2870008336845
30
0
41
1
10
367.553295887259
20
-18.2794861044503
30
0
41
1
10
367.555051097323
20
-18.2739898973757
30
0
41
1
10
367.559557801758
20
-18.2621650826892
30
0
41
1
10
367.562301249488
20
-18.2558684256211
30
0
41
1
10
367.568507240897
20
-18.2428591198074
30
0
41
1
10
367.571983861287
20
-18.2361109336969
30
0
41
1
10
367.579584891849
20
-18.2221925717865
30
0
41
1
10
367.583728003621
20
-18.2149922619385
30
0
41
1
10
367.59691541842
20
-18.1930284474522
30
0
41
1
10
367.606613261902
20
-18.1780492255824
30
0
41
1
10
367.627467863824
20
-18.1475539976571
30
0
41
1
10
367.638630045339
20
-18.1320359563952
30
0
41
1
10
367.650480947162
20
-18.1162678662819
30
0
0
SPLINE
5
147
100
AcDbEntity
8
1
62
256
6
ByLayer
370
18
48
1
60
0
100
AcDbSpline
70
4
71
3
72
8
73
4
40
0
40
0
40
0
40
0
40
1
40
1
40
1
40
1
41
1
10
367.650480947162
20
-18.1162678662819
30
0
41
1
10
367.877337890168
20
-17.8144257977413
30
0
41
1
10
368.102167049584
20
-17.5105841760994
30
0
41
1
10
368.324759526419
20
-17.204537010626
30
0
0
SPLINE
5
148
100
AcDbEntity
8
1
62
256
6
ByLayer
370
18
48
1
60
0
100
AcDbSpline
70
4
71
3
72
8
73
4
40
0
40
0
40
0
40
0
40
1
40
1
40
1
40
1
41
1
10
368.324759526419
20
-17.0237655573025
30
0
41
1
10
368.100039125586
20
-17.2102687278776
30
0
41
1
10
367.87527835498
20
-17.3967070563409
30
0
41
1
10
367.650480947162
20
-17.5830864488535
30
0
0
SPLINE
5
149
100
AcDbEntity
8
1
62
256
6
ByLayer
370
18
48
1
60
0
100
AcDbSpline
70
4
71
3
72
39
73
35
40
0
40
0
40
0
40
0
40
0.0625000000000221
40
0.0625000000000221
40
0.125000000000044
40
0.125000000000044
40
0.187500000000067
40
0.187500000000067
40
0.218750000000071
40
0.218750000000071
40
0.250000000000076
40
0.250000000000076
40
0.312500000000087
40
0.312500000000087
40
0.34375000000009
40
0.34375000000009
40
0.375000000000094
40
0.406250000000097
40
0.406250000000097
40
0.437500000000101
40
0.437500000000101
40
0.500000000000089
40
0.500000000000089
40
0.562500000000078
40
0.562500000000078
40
0.625000000000067
40
0.625000000000067
40
0.687500000000056
40
0.687500000000056
40
0.750000000000045
40
0.750000000000045
40
0.875000000000022
40
0.875000000000022
40
1
40
1
40
1
40
1
41
1
10
367.650480947162
20
-17.5830864488535
30
0
41
1
10
367.642848465984
20
-17.5894145343019
30
0
41
1
10
367.635230044314
20
-17.59539066175
30
0
41
1
10
367.620434193986
20
-17.6061779599126
30
0
41
1
10
367.613255140464
20
-17.6109974845249
30
0
41
1
10
367.599425158374
20
-17.6192459915887
30
0
41
1
10
367.592745263725
20
-17.6226722784096
30
0
41
1
10
367.583692680945
20
-17.6262998168289
30
0
41
1
10
367.580816760607
20
-17.6272697003244
30
0
41
1
10
367.575367399923
20
-17.6286973789871
30
0
41
1
10
367.572783455345
20
-17.6291527982103
30
0
41
1
10
367.565725370173
20
-17.6296830301391
30
0
41
1
10
367.561864611698
20
-17.6289563432163
30
0
41
1
10
367.557292459269
20
-17.6263023228391
30
0
41
1
10
367.55596873654
20
-17.6251453113987
30
0
41
1
10
367.553784251942
20
-17.6223872509873
30
0
41
1
10
367.5520409109
20
-17.6191807863444
30
0
41
1
10
367.551098579189
20
-17.6151589316096
30
0
41
1
10
367.550528264205
20
-17.6107578663772
30
0
41
1
10
367.550430700683
20
-17.6083568813501
30
0
41
1
10
367.550654051541
20
-17.6007652352952
30
0
41
1
10
367.551475794025
20
-17.5951597496354
30
0
41
1
10
367.554198267888
20
-17.5830737854475
30
0
41
1
10
367.556114381686
20
-17.5765557654383
30
0
41
1
10
367.560823333971
20
-17.5629298211241
30
0
41
1
10
367.563597798464
20
-17.5558628914157
30
0
41
1
10
367.569844713144
20
-17.5413066108042
30
0
41
1
10
367.573318283136
20
-17.5338165910066
30
0
41
1
10
367.580882685558
20
-17.5184630726735
30
0
41
1
10
367.584984596991
20
-17.5105829559677
30
0
41
1
10
367.597909096523
20
-17.4868430027664
30
0
41
1
10
367.60740422431
20
-17.4707518266123
30
0
41
1
10
367.627855969026
20
-17.4381338925007
30
0
41
1
10
367.638816630045
20
-17.4216059035292
30
0
41
1
10
367.650480947162
20
-17.4048713342158
30
0
0
SPLINE
5
14A
100
AcDbEntity
8
1
62
256
6
ByLayer
370
18
48
1
60
0
100
AcDbSpline
70
4
71
3
72
8
73
4
40
0
40
0
40
0
40
0
40
1
40
1
40
1
40
1
41
1
10
367.650480947162
20
-17.4048713342158
30
0
41
1
10
367.87797677687
20
-17.0784874839773
30
0
41
1
10
368.10282976625
20
-16.7496954266907
30
0
41
1
10
368.324759526419
20
-16.4182396666025
30
0
0
SPLINE
5
14B
100
AcDbEntity
8
1
62
256
6
ByLayer
370
18
48
1
60
0
100
AcDbSpline
70
4
71
3
72
8
73
4
40
0
40
0
40
0
40
0
40
1
40
1
40
1
40
1
41
1
10
368.324759526419
20
-16.1940141333148
30
0
41
1
10
368.100007511727
20
-16.3780816494066
30
0
41
1
10
367.875247737629
20
-16.562136533403
30
0
41
1
10
367.650480947162
20
-16.746179991572
30
0
0
SPLINE
5
14C
100
AcDbEntity
8
1
62
256
6
ByLayer
370
18
48
1
60
0
100
AcDbSpline
70
4
71
3
72
39
73
35
40
0
40
0
40
0
40
0
40
0.0625000000000069
40
0.0625000000000069
40
0.125000000000014
40
0.125000000000014
40
0.156250000000014
40
0.156250000000014
40
0.187500000000014
40
0.187500000000014
40
0.218750000000014
40
0.218750000000014
40
0.250000000000014
40
0.281250000000015
40
0.281250000000015
40
0.312500000000015
40
0.312500000000015
40
0.375000000000024
40
0.375000000000024
40
0.406250000000028
40
0.406250000000028
40
0.437500000000033
40
0.437500000000033
40
0.500000000000034
40
0.500000000000034
40
0.562500000000035
40
0.562500000000035
40
0.625000000000036
40
0.625000000000036
40
0.750000000000024
40
0.750000000000024
40
0.875000000000012
40
0.875000000000012
40
1
40
1
40
1
40
1
41
1
10
367.650480947162
20
-16.746179991572
30
0
41
1
10
367.642517355018
20
-16.7527007370719
30
0
41
1
10
367.63453440989
20
-16.7587815916506
30
0
41
1
10
367.619042460543
20
-16.7694623151672
30
0
41
1
10
367.611511726718
20
-16.7740895951821
30
0
41
1
10
367.600621370502
20
-16.7796806806255
30
0
41
1
10
367.597061556649
20
-16.7813124621372
30
0
41
1
10
367.590290341915
20
-16.7839856794465
30
0
41
1
10
367.587053841966
20
-16.7850409190089
30
0
41
1
10
367.58089623758
20
-16.7865551188073
30
0
41
1
10
367.577954952722
20
-16.787014546724
30
0
41
1
10
367.572512587958
20
-16.7872842763289
30
0
41
1
10
367.567547431314
20
-16.7869134556378
30
0
41
1
10
367.56348717482
20
-16.7853258627772
30
0
41
1
10
367.559865561372
20
-16.7831473720263
30
0
41
1
10
367.558264729514
20
-16.7817488018322
30
0
41
1
10
367.554196953588
20
-16.7767917693807
30
0
41
1
10
367.552440567205
20
-16.7725079257529
30
0
41
1
10
367.550959029724
20
-16.7648963564556
30
0
41
1
10
367.550660070545
20
-16.7621461067255
30
0
41
1
10
367.550422720308
20
-16.7563820754731
30
0
41
1
10
367.550481076441
20
-16.7533611718062
30
0
41
1
10
367.551119474506
20
-16.7439343578544
30
0
41
1
10
367.552159177103
20
-16.7371671874764
30
0
41
1
10
367.555239798449
20
-16.7228437690711
30
0
41
1
10
367.557290439547
20
-16.7152746972403
30
0
41
1
10
367.562146245543
20
-16.6997853492488
30
0
41
1
10
367.564959968858
20
-16.6918233983906
30
0
41
1
10
367.574383518436
20
-16.667383516766
30
0
41
1
10
367.582020418221
20
-16.650262691224
30
0
41
1
10
367.598905986321
20
-16.6158494363718
30
0
41
1
10
367.608200334979
20
-16.598435293484
30
0
41
1
10
367.628249215424
20
-16.5632547901681
30
0
41
1
10
367.639006636006
20
-16.5454877152687
30
0
41
1
10
367.650480947162
20
-16.5275506630092
30
0
0
SPLINE
5
14D
100
AcDbEntity
8
1
62
256
6
ByLayer
370
18
48
1
60
0
100
AcDbSpline
70
4
71
3
72
8
73
4
40
0
40
0
40
0
40
0
40
1
40
1
40
1
40
1
41
1
10
367.650480947162
20
-16.5275506630092
30
0
41
1
10
367.878876276632
20
-16.1705149416585
30
0
41
1
10
368.103764009202
20
-15.810559849516
30
0
41
1
10
368.324759526419
20
-15.4473652688735
30
0
0
SPLINE
5
14E
100
AcDbEntity
8
1
62
256
6
ByLayer
370
18
48
1
60
0
100
AcDbSpline
70
4
71
3
72
8
73
4
40
0
40
0
40
0
40
0
40
1
40
1
40
1
40
1
41
1
10
368.324759526419
20
-15.1718025873658
30
0
41
1
10
368.10000187134
20
-15.3554472734957
30
0
41
1
10
367.875242279349
20
-15.5390887989485
30
0
41
1
10
367.650480947162
20
-15.7227274845173
30
0
0
SPLINE
5
14F
100
AcDbEntity
8
1
62
256
6
ByLayer
370
18
48
1
60
0
100
AcDbSpline
70
4
71
3
72
38
73
34
40
0
40
0
40
0
40
0
40
0.0624999999999787
40
0.0624999999999787
40
0.0937499999999709
40
0.0937499999999709
40
0.124999999999963
40
0.124999999999963
40
0.18749999999995
40
0.18749999999995
40
0.249999999999936
40
0.249999999999936
40
0.281249999999931
40
0.281249999999931
40
0.312499999999926
40
0.312499999999926
40
0.374999999999924
40
0.374999999999924
40
0.437499999999923
40
0.437499999999923
40
0.499999999999921
40
0.499999999999921
40
0.562499999999919
40
0.562499999999919
40
0.624999999999918
40
0.624999999999918
40
0.68749999999993
40
0.68749999999993
40
0.749999999999943
40
0.749999999999943
40
0.874999999999971
40
0.874999999999971
40
1
40
1
40
1
40
1
41
1
10
367.650480947162
20
-15.7227274845173
30
0
41
1
10
367.642084189611
20
-15.7295879596027
30
0
41
1
10
367.633635577278
20
-15.7358730778346
30
0
41
1
10
367.621331349082
20
-15.7438542779431
30
0
41
1
10
367.617278610407
20
-15.7462841546202
30
0
41
1
10
367.609284196945
20
-15.7506167225567
30
0
41
1
10
367.605312533919
20
-15.7525309641125
30
0
41
1
10
367.59384949108
20
-15.7572404234738
30
0
41
1
10
367.586793021271
20
-15.7590261770071
30
0
41
1
10
367.574217814694
20
-15.7594741859467
30
0
41
1
10
367.568995280752
20
-15.7581391109119
30
0
41
1
10
367.562595860953
20
-15.7540283498169
30
0
41
1
10
367.560701051961
20
-15.7522911875497
30
0
41
1
10
367.557471003325
20
-15.7482678595017
30
0
41
1
10
367.556116901746
20
-15.7459736675126
30
0
41
1
10
367.552741344183
20
-15.7383459141707
30
0
41
1
10
367.551412871276
20
-15.7322137165055
30
0
41
1
10
367.550260898918
20
-15.7189622551589
30
0
41
1
10
367.550404629695
20
-15.7117851145455
30
0
41
1
10
367.551786707427
20
-15.6965886813014
30
0
41
1
10
367.55302900844
20
-15.6885664010888
30
0
41
1
10
367.556428844899
20
-15.6718153503687
30
0
41
1
10
367.558575785074
20
-15.6631531994731
30
0
41
1
10
367.563557184201
20
-15.6455384394753
30
0
41
1
10
367.566399025425
20
-15.6365545230316
30
0
41
1
10
367.5726862554
20
-15.6182825742094
30
0
41
1
10
367.576143791446
20
-15.6089656304771
30
0
41
1
10
367.58354639268
20
-15.5902008455657
30
0
41
1
10
367.587481021919
20
-15.5807754721037
30
0
41
1
10
367.599905559109
20
-15.5523851374537
30
0
41
1
10
367.609009839549
20
-15.5333070438349
30
0
41
1
10
367.628661740995
20
-15.4948880043344
30
0
41
1
10
367.639211392285
20
-15.4755466757466
30
0
41
1
10
367.650480947162
20
-15.4560769820827
30
0
0
SPLINE
5
150
100
AcDbEntity
8
1
62
256
6
ByLayer
370
18
48
1
60
0
100
AcDbSpline
70
4
71
3
72
8
73
4
40
0
40
0
40
0
40
0
40
1
40
1
40
1
40
1
41
1
10
367.650480947162
20
-15.4560769820827
30
0
41
1
10
367.880211532645
20
-15.0591860512804
30
0
41
1
10
368.105152654041
20
-14.6587123242203
30
0
41
1
10
368.324759526419
20
-14.2542482702526
30
0
0
SPLINE
5
151
100
AcDbEntity
8
1
62
256
6
ByLayer
370
18
48
1
60
0
100
AcDbSpline
70
4
71
3
72
8
73
4
40
0
40
0
40
0
40
0
40
1
40
1
40
1
40
1
41
1
10
368.324759526419
20
-13.9147796874403
30
0
41
1
10
368.10004293855
20
-14.1009918745286
30
0
41
1
10
367.87528177088
20
-14.2871322907612
30
0
41
1
10
367.650480947162
20
-14.4732088630914
30
0
0
SPLINE
5
152
100
AcDbEntity
8
1
62
256
6
ByLayer
370
18
48
1
60
0
100
AcDbSpline
70
4
71
3
72
34
73
30
40
0
40
0
40
0
40
0
40
0.0625000000000073
40
0.0625000000000073
40
0.0937500000000105
40
0.0937500000000105
40
0.125000000000014
40
0.125000000000014
40
0.187500000000021
40
0.187500000000021
40
0.250000000000028
40
0.250000000000028
40
0.281250000000033
40
0.281250000000033
40
0.312500000000038
40
0.312500000000038
40
0.375000000000037
40
0.375000000000037
40
0.437500000000035
40
0.437500000000035
40
0.500000000000034
40
0.500000000000034
40
0.625000000000025
40
0.625000000000025
40
0.750000000000017
40
0.750000000000017
40
0.875000000000008
40
0.875000000000008
40
1
40
1
40
1
40
1
41
1
10
367.650480947162
20
-14.4732088630923
30
0
41
1
10
367.641610746045
20
-14.4805510809384
30
0
41
1
10
367.632717594853
20
-14.4870974260139
30
0
41
1
10
367.619328414583
20
-14.4952053949897
30
0
41
1
10
367.614948765931
20
-14.4975617119472
30
0
41
1
10
367.606376490094
20
-14.5014961459086
30
0
41
1
10
367.602156895126
20
-14.5030818509566
30
0
41
1
10
367.590005767027
20
-14.5064329261962
30
0
41
1
10
367.582819857639
20
-14.50675740049
30
0
41
1
10
367.570335823892
20
-14.5034485559455
30
0
41
1
10
367.565449926247
20
-14.4999293623084
30
0
41
1
10
367.559738856258
20
-14.4925438009568
30
0
41
1
10
367.558096977763
20
-14.4897010183206
30
0
41
1
10
367.555363676397
20
-14.4835186121857
30
0
41
1
10
367.554261456695
20
-14.4801742613041
30
0
41
1
10
367.551618606382
20
-14.4695040698853
30
0
41
1
10
367.55074024509
20
-14.4614886218093
30
0
41
1
10
367.550322100162
20
-14.4446421416497
30
0
41
1
10
367.550767880496
20
-14.4357693456112
30
0
41
1
10
367.552650600946
20
-14.4173396015764
30
0
41
1
10
367.554097560382
20
-14.407748304117
30
0
41
1
10
367.559624326733
20
-14.3783622980696
30
0
41
1
10
367.564840271179
20
-14.3580458003157
30
0
41
1
10
367.57746663017
20
-14.3164151731891
30
0
41
1
10
367.584781622077
20
-14.2954445124742
30
0
41
1
10
367.600983403359
20
-14.2532582502718
30
0
41
1
10
367.609876729726
20
-14.2320416953016
30
0
41
1
10
367.629096511696
20
-14.1893876202436
30
0
41
1
10
367.639424130324
20
-14.1679499081217
30
0
41
1
10
367.650480947162
20
-14.1464023848396
30
0
0
SPLINE
5
153
100
AcDbEntity
8
1
62
256
6
ByLayer
370
18
48
1
60
0
100
AcDbSpline
70
4
71
3
72
8
73
4
40
0
40
0
40
0
40
0
40
1
40
1
40
1
40
1
41
1
10
367.650480947162
20
-14.1464023848396
30
0
41
1
10
367.882352997816
20
-13.6945301612787
30
0
41
1
10
368.107382666912
20
-13.2381665161971
30
0
41
1
10
368.324759526419
20
-12.7767794748912
30
0
0
SPLINE
5
154
100
AcDbEntity
8
1
62
256
6
ByLayer
370
18
48
1
60
0
100
AcDbSpline
70
4
71
3
72
8
73
4
40
0
40
0
40
0
40
0
40
1
40
1
40
1
40
1
41
1
10
368.324759526419
20
-12.3514611989837
30
0
41
1
10
368.100191536751
20
-12.5453578173506
30
0
41
1
10
367.875423713527
20
-12.7389451074582
30
0
41
1
10
367.650480947162
20
-12.9322615979162
30
0
0
SPLINE
5
155
100
AcDbEntity
8
1
62
256
6
ByLayer
370
18
48
1
60
0
100
AcDbSpline
70
4
71
3
72
39
73
35
40
0
40
0
40
0
40
0
40
0.0312499999999978
40
0.0312499999999978
40
0.0624999999999957
40
0.0624999999999957
40
0.0937499999999936
40
0.0937499999999936
40
0.124999999999992
40
0.124999999999992
40
0.156249999999989
40
0.156249999999989
40
0.187499999999987
40
0.187499999999987
40
0.218749999999985
40
0.218749999999985
40
0.249999999999983
40
0.249999999999983
40
0.281249999999981
40
0.281249999999981
40
0.312499999999979
40
0.312499999999979
40
0.37499999999998
40
0.37499999999998
40
0.499999999999977
40
0.499999999999977
40
0.562499999999977
40
0.562499999999977
40
0.624999999999977
40
0.624999999999977
40
0.749999999999985
40
0.749999999999985
40
0.874999999999992
40
1
40
1
40
1
40
1
41
1
10
367.650480947162
20
-12.932261597918
30
0
41
1
10
367.645659559596
20
-12.9364051129035
30
0
41
1
10
367.640801078904
20
-12.9402752725335
30
0
41
1
10
367.630992180374
20
-12.947336656015
30
0
41
1
10
367.626006027204
20
-12.9505447091669
30
0
41
1
10
367.616213206618
20
-12.9559198413893
30
0
41
1
10
367.611384546088
20
-12.9581090210066
30
0
41
1
10
367.601890289183
20
-12.9612844521533
30
0
41
1
10
367.597355810905
20
-12.9622204837452
30
0
41
1
10
367.588820720175
20
-12.9627189554139
30
0
41
1
10
367.584759371
20
-12.9622658825154
30
0
41
1
10
367.577453125654
20
-12.9600256025938
30
0
41
1
10
367.574191909539
20
-12.9582620751234
30
0
41
1
10
367.568356163976
20
-12.9536047091898
30
0
41
1
10
367.565807208947
20
-12.9507159173005
30
0
41
1
10
367.561457307646
20
-12.944216322145
30
0
41
1
10
367.559626662752
20
-12.9405816268441
30
0
41
1
10
367.556523269337
20
-12.9326866584442
30
0
41
1
10
367.555247510152
20
-12.9284035299872
30
0
41
1
10
367.55319751331
20
-12.9194434140329
30
0
41
1
10
367.552418485904
20
-12.9147636089492
30
0
41
1
10
367.550682498191
20
-12.9002343493949
30
0
41
1
10
367.550325735067
20
-12.8898556133685
30
0
41
1
10
367.550966789172
20
-12.8579922826173
30
0
41
1
10
367.553590221519
20
-12.835586687612
30
0
41
1
10
367.559524476594
20
-12.8009026027304
30
0
41
1
10
367.561860927053
20
-12.789113806189
30
0
41
1
10
367.567088729835
20
-12.7654205868506
30
0
41
1
10
367.569973709317
20
-12.7535355328583
30
0
41
1
10
367.579321527427
20
-12.7177809868877
30
0
41
1
10
367.58646953122
20
-12.6938130910537
30
0
41
1
10
367.602267862415
20
-12.6456594779337
30
0
41
1
10
367.619577003328
20
-12.5972869331207
30
0
41
1
10
367.639694160572
20
-12.5485106461847
30
0
41
1
10
367.650480947162
20
-12.5240203286135
30
0
0
SPLINE
5
156
100
AcDbEntity
8
1
62
256
6
ByLayer
370
18
48
1
60
0
100
AcDbSpline
70
4
71
3
72
8
73
4
40
0
40
0
40
0
40
0
40
1
40
1
40
1
40
1
41
1
10
367.650480947162
20
-12.5240203286135
30
0
41
1
10
367.886241901321
20
-11.9887487173422
30
0
41
1
10
368.111437539985
20
-11.4476285217346
30
0
41
1
10
368.324759526419
20
-10.8999354929284
30
0
0
SPLINE
5
157
100
AcDbEntity
8
1
62
256
6
ByLayer
370
18
48
1
60
0
100
AcDbSpline
70
4
71
3
72
8
73
4
40
0
40
0
40
0
40
0
40
1
40
1
40
1
40
1
41
1
10
368.324759526419
20
-10.3438916153448
30
0
41
1
10
368.100672937923
20
-10.5561625919072
30
0
41
1
10
367.875878259423
20
-10.7674293885324
30
0
41
1
10
367.650480947162
20
-10.9778415583032
30
0
0
SPLINE
5
158
100
AcDbEntity
8
1
62
256
6
ByLayer
370
18
48
1
60
0
100
AcDbSpline
70
4
71
3
72
39
73
35
40
0
40
0
40
0
40
0
40
0.0312499999999964
40
0.0312499999999964
40
0.0624999999999929
40
0.0624999999999929
40
0.0781249999999915
40
0.0781249999999915
40
0.0937499999999901
40
0.0937499999999901
40
0.124999999999986
40
0.124999999999986
40
0.156249999999982
40
0.156249999999982
40
0.187499999999979
40
0.187499999999979
40
0.218749999999975
40
0.218749999999975
40
0.249999999999971
40
0.249999999999971
40
0.281249999999967
40
0.281249999999967
40
0.312499999999963
40
0.312499999999963
40
0.374999999999963
40
0.374999999999963
40
0.499999999999971
40
0.499999999999971
40
0.624999999999978
40
0.624999999999978
40
0.749999999999985
40
0.749999999999985
40
0.874999999999993
40
1
40
1
40
1
40
1
41
1
10
367.650480947162
20
-10.977841558305
30
0
41
1
10
367.645070573186
20
-10.9828922331164
30
0
41
1
10
367.639513106979
20
-10.9875792288373
30
0
41
1
10
367.628225225349
20
-10.9957597995137
30
0
41
1
10
367.622572736455
20
-10.9992033141719
30
0
41
1
10
367.614077225303
20
-11.0030918810385
30
0
41
1
10
367.611222335286
20
-11.0041768835953
30
0
41
1
10
367.605677702528
20
-11.00579678088
30
0
41
1
10
367.602973531995
20
-11.0063414516262
30
0
41
1
10
367.595073068045
20
-11.007149022522
30
0
41
1
10
367.590031566255
20
-11.0065324890335
30
0
41
1
10
367.581193349521
20
-11.0032210025211
30
0
41
1
10
367.577280359417
20
-11.0005431411248
30
0
41
1
10
367.570434037439
20
-10.9936129589071
30
0
41
1
10
367.567567506173
20
-10.9894554602356
30
0
41
1
10
367.562642849808
20
-10.9801311836335
30
0
41
1
10
367.560603852079
20
-10.9749764931912
30
0
41
1
10
367.557229405652
20
-10.9641977522338
30
0
41
1
10
367.555875895449
20
-10.9585336597286
30
0
41
1
10
367.553672457203
20
-10.9467890170158
30
0
41
1
10
367.552823959493
20
-10.9407073042583
30
0
41
1
10
367.551532822405
20
-10.9282066799278
30
0
41
1
10
367.551090778585
20
-10.9217691865271
30
0
41
1
10
367.550280304693
20
-10.9022578233617
30
0
41
1
10
367.550409275107
20
-10.8889336262739
30
0
41
1
10
367.552194406003
20
-10.8482913762712
30
0
41
1
10
367.555225580055
20
-10.8203143302208
30
0
41
1
10
367.56364088965
20
-10.7632072654731
30
0
41
1
10
367.568989094997
20
-10.7344845311726
30
0
41
1
10
367.581324248186
20
-10.6768917217863
30
0
41
1
10
367.588324868774
20
-10.6479991733814
30
0
41
1
10
367.603732419277
20
-10.5900484071946
30
0
41
1
10
367.620551977068
20
-10.5319314186676
30
0
41
1
10
367.640038964387
20
-10.473501799807
30
0
41
1
10
367.650480947162
20
-10.4442074830623
30
0
0
SPLINE
5
159
100
AcDbEntity
8
1
62
256
6
ByLayer
370
18
48
1
60
0
100
AcDbSpline
70
4
71
3
72
8
73
4
40
0
40
0
40
0
40
0
40
1
40
1
40
1
40
1
41
1
10
367.650480947162
20
-10.4442074830622
30
0
41
1
10
367.895186418447
20
-9.75770188931136
30
0
41
1
10
368.120774732857
20
-9.0629544043436
30
0
41
1
10
368.324759526419
20
-8.35889309358595
30
0
0
SPLINE
5
15A
100
AcDbEntity
8
1
62
256
6
ByLayer
370
18
48
1
60
0
100
AcDbSpline
70
4
71
3
72
8
73
4
40
0
40
0
40
0
40
0
40
1
40
1
40
1
40
1
41
1
10
368.324759526419
20
-7.54543529228104
30
0
41
1
10
368.102856207575
20
-7.80812939306654
30
0
41
1
10
367.87789393872
20
-8.067289478253
30
0
41
1
10
367.650480947162
20
-8.32361823496723
30
0
0
SPLINE
5
15B
100
AcDbEntity
8
1
62
256
6
ByLayer
370
18
48
1
60
0
100
AcDbSpline
70
4
71
3
72
38
73
34
40
0
40
0
40
0
40
0
40
0.0312499999999982
40
0.0312499999999982
40
0.0468749999999971
40
0.0468749999999971
40
0.0624999999999961
40
0.0624999999999961
40
0.0781249999999951
40
0.0781249999999951
40
0.0937499999999941
40
0.0937499999999941
40
0.109374999999993
40
0.109374999999993
40
0.124999999999992
40
0.124999999999992
40
0.156249999999994
40
0.156249999999994
40
0.187499999999996
40
0.187499999999996
40
0.249999999999996
40
0.249999999999996
40
0.312499999999996
40
0.312499999999996
40
0.374999999999996
40
0.374999999999996
40
0.499999999999997
40
0.499999999999997
40
0.624999999999998
40
0.624999999999998
40
0.749999999999999
40
0.749999999999999
40
1
40
1
40
1
40
1
41
1
10
367.650480947163
20
-8.32361823497055
30
0
41
1
10
367.643984522043
20
-8.33094068635202
30
0
41
1
10
367.637087099727
20
-8.33768124412211
30
0
41
1
10
367.626354747428
20
-8.34568070105661
30
0
41
1
10
367.622672786077
20
-8.34801975191971
30
0
41
1
10
367.615227174174
20
-8.3516964069812
30
0
41
1
10
367.611531397854
20
-8.35300455163187
30
0
41
1
10
367.604203715131
20
-8.35436607526984
30
0
41
1
10
367.600638398742
20
-8.35438934467948
30
0
41
1
10
367.593959541195
20
-8.35314067665226
30
0
41
1
10
367.590782123263
20
-8.35184798669295
30
0
41
1
10
367.58507026222
20
-8.34828207326993
30
0
41
1
10
367.582488099225
20
-8.34601133649403
30
0
41
1
10
367.577753050436
20
-8.34070331419767
30
0
41
1
10
367.575612489275
20
-8.33767053930723
30
0
41
1
10
367.569849274635
20
-8.32792028671255
30
0
41
1
10
367.566789889395
20
-8.32043543782186
30
0
41
1
10
367.561775920044
20
-8.30477720344879
30
0
41
1
10
367.559797491318
20
-8.29654262529115
30
0
41
1
10
367.554893629213
20
-8.27104194240988
30
0
41
1
10
367.552983754743
20
-8.25288418124472
30
0
41
1
10
367.550722421526
20
-8.21638791679632
30
0
41
1
10
367.550369579247
20
-8.19789985844858
30
0
41
1
10
367.550648562
20
-8.16061226405117
30
0
41
1
10
367.551290415845
20
-8.14180977373266
30
0
41
1
10
367.5543116466
20
-8.08504763501273
30
0
41
1
10
367.557768451239
20
-8.04673870110739
30
0
41
1
10
367.566574464434
20
-7.96947917110006
30
0
41
1
10
367.571943356467
20
-7.93052277137673
30
0
41
1
10
367.584191791777
20
-7.85208140430734
30
0
41
1
10
367.591049423945
20
-7.81277108989599
30
0
41
1
10
367.613451439318
20
-7.69485960614256
30
0
41
1
10
367.630794068013
20
-7.61615616242761
30
0
41
1
10
367.650480947162
20
-7.5373639096824
30
0
0
SPLINE
5
15C
100
AcDbEntity
8
1
62
256
6
ByLayer
370
18
48
1
60
0
100
AcDbSpline
70
4
71
3
72
8
73
4
40
0
40
0
40
0
40
0
40
1
40
1
40
1
40
1
41
1
10
367.650480947162
20
-7.53736390968243
30
0
41
1
10
367.936650314553
20
-6.39203615339628
30
0
41
1
10
368.164101740032
20
-5.23155518188756
30
0
41
1
10
368.324759526419
20
-4.05383691704546
30
0
0
SPLINE
5
15D
100
AcDbEntity
8
1
62
256
6
ByLayer
370
18
48
1
60
0
100
AcDbSpline
70
4
71
3
72
10
73
6
40
0
40
0
40
0
40
0
40
0.5
40
0.5
40
1
40
1
40
1
40
1
41
1
10
368.324759526415
20
-1.53983562436483
30
0
41
1
10
368.253343637489
20
-1.91394777515447
30
0
41
1
10
368.158489259991
20
-2.27822115563251
30
0
41
1
10
367.9309865447
20
-2.99090315238357
30
0
41
1
10
367.798334418939
20
-3.33931017858191
30
0
41
1
10
367.650480947162
20
-3.68133613838094
30
0
0
SPLINE
5
15E
100
AcDbEntity
8
1
62
256
6
ByLayer
370
18
48
1
60
0
100
AcDbSpline
70
4
71
3
72
57
73
53
40
0
40
0
40
0
40
0
40
0.125
40
0.125
40
0.250000000000001
40
0.375000000000001
40
0.375000000000001
40
0.500000000000001
40
0.500000000000001
40
0.625000000000002
40
0.625000000000002
40
0.687500000000002
40
0.687500000000002
40
0.750000000000002
40
0.750000000000002
40
0.812500000000003
40
0.812500000000003
40
0.875000000000003
40
0.875000000000003
40
0.906250000000003
40
0.906250000000003
40
0.921875000000003
40
0.921875000000003
40
0.937500000000002
40
0.937500000000002
40
0.945312500000002
40
0.945312500000002
40
0.953125000000002
40
0.953125000000002
40
0.960937500000001
40
0.960937500000001
40
0.964843750000001
40
0.964843750000001
40
0.968750000000001
40
0.968750000000001
40
0.972656250000001
40
0.972656250000001
40
0.976562500000001
40
0.976562500000001
40
0.978515625000001
40
0.978515625000001
40
0.980468750000001
40
0.980468750000001
40
0.982421875000001
40
0.982421875000001
40
0.984375000000001
40
0.984375000000001
40
0.988281250000001
40
0.988281250000001
40
0.992187500000001
40
0.992187500000001
40
1
40
1
40
1
40
1
41
1
10
367.650480947162
20
-0.205522419001596
30
0
41
1
10
367.649474914009
20
-0.357427176920822
30
0
41
1
10
367.647352403027
20
-0.509318066438169
30
0
41
1
10
367.641079448038
20
-0.813071042313169
30
0
41
1
10
367.632780577668
20
-1.11679520448956
30
0
41
1
10
367.621220285853
20
-1.42045756542211
30
0
41
1
10
367.608599227804
20
-1.72408596214549
30
0
41
1
10
367.601754923345
20
-1.87588319884065
30
0
41
1
10
367.587790157286
20
-2.17943940737212
30
0
41
1
10
367.580656945611
20
-2.33119845239077
30
0
41
1
10
367.570656270951
20
-2.55880325319725
30
0
41
1
10
367.567443146172
20
-2.6346658696468
30
0
41
1
10
367.561508805656
20
-2.78637838337656
30
0
41
1
10
367.558783648494
20
-2.86225232686093
30
0
41
1
10
367.554227791731
20
-3.01360192235123
30
0
41
1
10
367.552384521753
20
-3.08911791731472
30
0
41
1
10
367.550304819929
20
-3.23969455938945
30
0
41
1
10
367.550017507499
20
-3.3147647400514
30
0
41
1
10
367.552116127572
20
-3.4267806190289
30
0
41
1
10
367.553241725102
20
-3.46402017693427
30
0
41
1
10
367.556066196098
20
-3.51963782520798
30
0
41
1
10
367.557199844787
20
-3.53813623287257
30
0
41
1
10
367.560032561575
20
-3.57501750617843
30
0
41
1
10
367.561724621638
20
-3.59340168463626
30
0
41
1
10
367.564962866512
20
-3.620839575421
30
0
41
1
10
367.566160648091
20
-3.62996216256659
30
0
41
1
10
367.568892543204
20
-3.64814192597896
30
0
41
1
10
367.570429233634
20
-3.6572270190124
30
0
41
1
10
367.574003223349
20
-3.67517038949734
30
0
41
1
10
367.576022559128
20
-3.68398056808826
30
0
41
1
10
367.579665375541
20
-3.69677304463292
30
0
41
1
10
367.580983473112
20
-3.70096570128922
30
0
41
1
10
367.583925806698
20
-3.70914096325541
30
0
41
1
10
367.585555704597
20
-3.71313687493395
30
0
41
1
10
367.589214864265
20
-3.72059319090061
30
0
41
1
10
367.591242911041
20
-3.72408197853565
30
0
41
1
10
367.596024190781
20
-3.73018722526004
30
0
41
1
10
367.598791925149
20
-3.73279255037582
30
0
41
1
10
367.603585192062
20
-3.73502813093475
30
0
41
1
10
367.605238544653
20
-3.73546904733732
30
0
41
1
10
367.608667422955
20
-3.73568290628665
30
0
41
1
10
367.61045752744
20
-3.73544033002645
30
0
41
1
10
367.613936585578
20
-3.73433323985265
30
0
41
1
10
367.615671884936
20
-3.73346228202686
30
0
41
1
10
367.61899339339
20
-3.73128844497848
30
0
41
1
10
367.620581409002
20
-3.72999412036481
30
0
41
1
10
367.625186557665
20
-3.72565845068027
30
0
41
1
10
367.628021131566
20
-3.72219009812935
30
0
41
1
10
367.633249794904
20
-3.7148524882746
30
0
41
1
10
367.635679061346
20
-3.71093331943854
30
0
41
1
10
367.642616772462
20
-3.69870333450086
30
0
41
1
10
367.646685962344
20
-3.69011498752855
30
0
41
1
10
367.650480947162
20
-3.68133613838094
30
0
0
SPLINE
5
15F
100
AcDbEntity
8
1
62
256
6
ByLayer
370
18
48
1
60
0
100
AcDbSpline
70
4
71
3
72
8
73
4
40
0
40
0
40
0
40
0
40
1
40
1
40
1
40
1
41
1
10
367.650480947162
20
-0.205522419001596
30
0
41
1
10
367.651388368233
20
-0.0685074730005226
30
0
41
1
10
367.651388368233
20
0.0685074730005226
30
0
41
1
10
367.650480947162
20
0.205522419001596
30
0
0
SPLINE
5
160
100
AcDbEntity
8
1
62
256
6
ByLayer
370
18
48
1
60
0
100
AcDbSpline
70
4
71
3
72
59
73
55
40
0
40
0
40
0
40
0
40
0.125000000000001
40
0.125000000000001
40
0.250000000000002
40
0.375000000000003
40
0.375000000000003
40
0.500000000000004
40
0.500000000000004
40
0.625000000000004
40
0.625000000000004
40
0.687500000000005
40
0.687500000000005
40
0.750000000000005
40
0.750000000000005
40
0.812500000000006
40
0.812500000000006
40
0.843750000000006
40
0.843750000000006
40
0.875000000000007
40
0.875000000000007
40
0.906250000000007
40
0.906250000000007
40
0.921875000000007
40
0.921875000000007
40
0.937500000000007
40
0.937500000000007
40
0.945312500000007
40
0.945312500000007
40
0.953125000000008
40
0.953125000000008
40
0.960937500000008
40
0.960937500000008
40
0.964843750000007
40
0.964843750000007
40
0.968750000000007
40
0.968750000000007
40
0.972656250000007
40
0.972656250000007
40
0.976562500000007
40
0.976562500000007
40
0.978515625000007
40
0.978515625000007
40
0.980468750000007
40
0.980468750000007
40
0.982421875000007
40
0.982421875000007
40
0.984375000000006
40
0.984375000000006
40
0.988281250000005
40
0.988281250000005
40
0.992187500000003
40
0.992187500000003
40
1
40
1
40
1
40
1
41
1
10
367.650480947162
20
0.205522419001596
30
0
41
1
10
367.649474529164
20
0.357485286119015
30
0
41
1
10
367.647350571744
20
0.509462034319199
30
0
41
1
10
367.641070593963
20
0.813444393381076
30
0
41
1
10
367.632760419544
20
1.11745562328272
30
0
41
1
10
367.621178756172
20
1.42152886412146
30
0
41
1
10
367.608531759673
20
1.72563622957747
30
0
41
1
10
367.601672191192
20
1.87770695466151
30
0
41
1
10
367.587676377915
20
2.18188692008872
30
0
41
1
10
367.580530180473
20
2.33394573764755
30
0
41
1
10
367.570536139854
20
2.56160809848447
30
0
41
1
10
367.567328862802
20
2.63743907733362
30
0
41
1
10
367.561413484972
20
2.78896908574799
30
0
41
1
10
367.558701689912
20
2.86466839812991
30
0
41
1
10
367.554167978853
20
3.01590533592352
30
0
41
1
10
367.552334555853
20
3.09144384070152
30
0
41
1
10
367.550799054593
20
3.20458854632537
30
0
41
1
10
367.550492739193
20
3.24227603691023
30
0
41
1
10
367.550469812771
20
3.31758254278682
30
0
41
1
10
367.550750183483
20
3.35523886655278
30
0
41
1
10
367.552208755407
20
3.43023262171437
30
0
41
1
10
367.553373181025
20
3.46757297685574
30
0
41
1
10
367.556275212278
20
3.52319890720483
30
0
41
1
10
367.557437968645
20
3.54167593430799
30
0
41
1
10
367.560336644401
20
3.57844571083567
30
0
41
1
10
367.562065629678
20
3.59674052996075
30
0
41
1
10
367.565365531574
20
3.62396204542316
30
0
41
1
10
367.566584913132
20
3.6329985979263
30
0
41
1
10
367.569361551694
20
3.650967574308
30
0
41
1
10
367.570921073671
20
3.65991916152291
30
0
41
1
10
367.574516938715
20
3.67745376451742
30
0
41
1
10
367.576547962152
20
3.68605996342944
30
0
41
1
10
367.58021552862
20
3.69854381258833
30
0
41
1
10
367.581543102687
20
3.70263313961911
30
0
41
1
10
367.584510409302
20
3.7105987392375
30
0
41
1
10
367.586161611328
20
3.71450396438215
30
0
41
1
10
367.589888240219
20
3.721777767395
30
0
41
1
10
367.591955510826
20
3.72516274851162
30
0
41
1
10
367.59684579735
20
3.73100162030258
30
0
41
1
10
367.599637337106
20
3.73338371760707
30
0
41
1
10
367.604411839463
20
3.73527061609835
30
0
41
1
10
367.606061767277
20
3.73560195864667
30
0
41
1
10
367.609492008734
20
3.7356009926043
30
0
41
1
10
367.611227428267
20
3.73526227848623
30
0
41
1
10
367.61463552521
20
3.73400699467049
30
0
41
1
10
367.616332222931
20
3.73307964611433
30
0
41
1
10
367.61955483406
20
3.73084823538792
30
0
41
1
10
367.621102908113
20
3.72953833110952
30
0
41
1
10
367.62560527577
20
3.7251733572553
30
0
41
1
10
367.628363216431
20
3.7217476448435
30
0
41
1
10
367.633516183583
20
3.71443632136925
30
0
41
1
10
367.635914818984
20
3.71053626148373
30
0
41
1
10
367.642693644436
20
3.69852839288299
30
0
41
1
10
367.646722359183
20
3.69003079157855
30
0
41
1
10
367.650480947162
20
3.68133613838253
30
0
0
SPLINE
5
161
100
AcDbEntity
8
1
62
256
6
ByLayer
370
18
48
1
60
0
100
AcDbSpline
70
4
71
3
72
10
73
6
40
0
40
0
40
0
40
0
40
0.5
40
0.5
40
1
40
1
40
1
40
1
41
1
10
367.650480947161
20
3.68133613838228
30
0
41
1
10
367.798334418938
20
3.33931017858296
30
0
41
1
10
367.9309865447
20
2.99090315238433
30
0
41
1
10
368.158489259991
20
2.27822115563262
30
0
41
1
10
368.253343637489
20
1.91394777515427
30
0
41
1
10
368.324759526415
20
1.53983562436429
30
0
0
SPLINE
5
162
100
AcDbEntity
8
1
62
256
6
ByLayer
370
18
48
1
60
0
100
AcDbSpline
70
4
71
3
72
8
73
4
40
0
40
0
40
0
40
0
40
1
40
1
40
1
40
1
41
1
10
368.324759526419
20
4.05383691704546
30
0
41
1
10
368.164101740032
20
5.23155518188756
30
0
41
1
10
367.936650314553
20
6.39203615339628
30
0
41
1
10
367.650480947162
20
7.53736390968243
30
0
0
SPLINE
5
163
100
AcDbEntity
8
1
62
256
6
ByLayer
370
18
48
1
60
0
100
AcDbSpline
70
4
71
3
72
42
73
38
40
0
40
0
40
0
40
0
40
0.250000000000005
40
0.250000000000005
40
0.375000000000007
40
0.375000000000007
40
0.500000000000009
40
0.500000000000009
40
0.625000000000012
40
0.625000000000012
40
0.687500000000013
40
0.687500000000013
40
0.750000000000014
40
0.750000000000014
40
0.781250000000012
40
0.781250000000012
40
0.81250000000001
40
0.81250000000001
40
0.843750000000008
40
0.843750000000008
40
0.859375000000007
40
0.859375000000007
40
0.875000000000006
40
0.875000000000006
40
0.890625000000006
40
0.890625000000006
40
0.906250000000005
40
0.906250000000005
40
0.921875000000004
40
0.921875000000004
40
0.937500000000003
40
0.937500000000003
40
0.953125000000002
40
0.953125000000002
40
0.968750000000001
40
0.968750000000001
40
1
40
1
40
1
40
1
41
1
10
367.650480947161
20
7.53736390968243
30
0
41
1
10
367.63076897837
20
7.61625657801241
30
0
41
1
10
367.61346059995
20
7.69484838754951
30
0
41
1
10
367.591140780514
20
7.81227186098147
30
0
41
1
10
367.584320719394
20
7.85133461566431
30
0
41
1
10
367.572124668301
20
7.92928471022262
30
0
41
1
10
367.566742521326
20
7.96817257525154
30
0
41
1
10
367.557864378318
20
8.04573416545696
30
0
41
1
10
367.55434285781
20
8.08444008797417
30
0
41
1
10
367.551271377319
20
8.14217806187321
30
0
41
1
10
367.550630005146
20
8.16123086440581
30
0
41
1
10
367.550377159459
20
8.19882638523856
30
0
41
1
10
367.550757044975
20
8.2173731419214
30
0
41
1
10
367.552486535079
20
8.2446298400157
30
0
41
1
10
367.553258656099
20
8.25362040287678
30
0
41
1
10
367.555324288495
20
8.2713507168489
30
0
41
1
10
367.556619146011
20
8.28011323257638
30
0
41
1
10
367.559941779673
20
8.29718730275093
30
0
41
1
10
367.56194845637
20
8.30541747543919
30
0
41
1
10
367.565733288872
20
8.31707909554299
30
0
41
1
10
367.567125496084
20
8.32085109081436
30
0
41
1
10
367.570248978874
20
8.32809687353614
30
0
41
1
10
367.571992418154
20
8.33159059857064
30
0
41
1
10
367.575857623531
20
8.33803499233548
30
0
41
1
10
367.577978928924
20
8.34099480065314
30
0
41
1
10
367.582717557109
20
8.34622641457733
30
0
41
1
10
367.58536880188
20
8.34851669927173
30
0
41
1
10
367.591140283969
20
8.35201750539355
30
0
41
1
10
367.594278886941
20
8.35324654098014
30
0
41
1
10
367.601038610781
20
8.35441280864802
30
0
41
1
10
367.604547324229
20
8.35433579846577
30
0
41
1
10
367.611812347963
20
8.35291576298349
30
0
41
1
10
367.615579957294
20
8.35154989267073
30
0
41
1
10
367.622949675614
20
8.34785285904556
30
0
41
1
10
367.626634528598
20
8.34549323736823
30
0
41
1
10
367.637401170667
20
8.33740232559123
30
0
41
1
10
367.644079218297
20
8.33083394937944
30
0
41
1
10
367.650480947162
20
8.32361823496723
30
0
0
SPLINE
5
164
100
AcDbEntity
8
1
62
256
6
ByLayer
370
18
48
1
60
0
100
AcDbSpline
70
4
71
3
72
8
73
4
40
0
40
0
40
0
40
0
40
1
40
1
40
1
40
1
41
1
10
367.650480947162
20
8.32361823496723
30
0
41
1
10
367.877893938717
20
8.06728947825624
30
0
41
1
10
368.102856207569
20
7.80812939307313
30
0
41
1
10
368.324759526411
20
7.54543529229105
30
0
0
SPLINE
5
165
100
AcDbEntity
8
1
62
256
6
ByLayer
370
18
48
1
60
0
100
AcDbSpline
70
4
71
3
72
8
73
4
40
0
40
0
40
0
40
0
40
1
40
1
40
1
40
1
41
1
10
368.324759526419
20
8.35889309358595
30
0
41
1
10
368.120774732857
20
9.0629544043436
30
0
41
1
10
367.895186418447
20
9.75770188931136
30
0
41
1
10
367.650480947162
20
10.4442074830622
30
0
0
SPLINE
5
166
100
AcDbEntity
8
1
62
256
6
ByLayer
370
18
48
1
60
0
100
AcDbSpline
70
4
71
3
72
40
73
36
40
0
40
0
40
0
40
0
40
0.124999999999999
40
0.124999999999999
40
0.249999999999999
40
0.249999999999999
40
0.374999999999998
40
0.374999999999998
40
0.499999999999998
40
0.499999999999998
40
0.5625
40
0.5625
40
0.625000000000003
40
0.625000000000003
40
0.687500000000006
40
0.687500000000006
40
0.750000000000008
40
0.750000000000008
40
0.781250000000005
40
0.781250000000005
40
0.812500000000002
40
0.812500000000002
40
0.843749999999999
40
0.843749999999999
40
0.874999999999996
40
0.874999999999996
40
0.906249999999992
40
0.906249999999992
40
0.921874999999991
40
0.921874999999991
40
0.937499999999989
40
0.937499999999989
40
0.968749999999995
40
0.968749999999995
40
1
40
1
40
1
40
1
41
1
10
367.650480947162
20
10.4442074830622
30
0
41
1
10
367.640025010736
20
10.4735409458827
30
0
41
1
10
367.630210989745
20
10.5029673076446
30
0
41
1
10
367.611958545041
20
10.5616002322845
30
0
41
1
10
367.603523410692
20
10.590786552845
30
0
41
1
10
367.588102337403
20
10.6488854928166
30
0
41
1
10
367.581113785878
20
10.6777985452119
30
0
41
1
10
367.5688291768
20
10.7353093306323
30
0
41
1
10
367.56352332279
20
10.7639086554242
30
0
41
1
10
367.557268698593
20
10.8064991466697
30
0
41
1
10
367.555468305322
20
10.8206822963954
30
0
41
1
10
367.552619223369
20
10.8486113407325
30
0
41
1
10
367.551563972929
20
10.8623801284274
30
0
41
1
10
367.550399909879
20
10.8894214732842
30
0
41
1
10
367.550285829804
20
10.9026966836893
30
0
41
1
10
367.55138586223
20
10.9285585052098
30
0
41
1
10
367.552608640832
20
10.9412331302691
30
0
41
1
10
367.555948456209
20
10.9588608230583
30
0
41
1
10
367.557314290988
20
10.9645185412802
30
0
41
1
10
367.560709973981
20
10.975262942649
30
0
41
1
10
367.562757184409
20
10.9803881681514
30
0
41
1
10
367.567691285185
20
10.989647309684
30
0
41
1
10
367.570555797839
20
10.993760395917
30
0
41
1
10
367.57735811212
20
11.0005969404051
30
0
41
1
10
367.581328265331
20
11.0032995526687
30
0
41
1
10
367.590209516905
20
11.0065701580049
30
0
41
1
10
367.595238130169
20
11.0071547338828
30
0
41
1
10
367.603144568994
20
11.0063121242097
30
0
41
1
10
367.605853809948
20
11.0057558877143
30
0
41
1
10
367.611415566325
20
11.0041091466677
30
0
41
1
10
367.614249175209
20
11.0030206655203
30
0
41
1
10
367.622685087213
20
10.9991362853478
30
0
41
1
10
367.628307688267
20
10.9957046891457
30
0
41
1
10
367.639550729521
20
10.9875472607252
30
0
41
1
10
367.645089621271
20
10.98287445141
30
0
41
1
10
367.650480947162
20
10.9778415583049
30
0
0
SPLINE
5
167
100
AcDbEntity
8
1
62
256
6
ByLayer
370
18
48
1
60
0
100
AcDbSpline
70
4
71
3
72
8
73
4
40
0
40
0
40
0
40
0
40
1
40
1
40
1
40
1
41
1
10
367.650480947162
20
10.9778415583032
30
0
41
1
10
367.875878259423
20
10.7674293885324
30
0
41
1
10
368.100672937923
20
10.5561625919072
30
0
41
1
10
368.324759526419
20
10.3438916153448
30
0
0
SPLINE
5
168
100
AcDbEntity
8
1
62
256
6
ByLayer
370
18
48
1
60
0
100
AcDbSpline
70
4
71
3
72
8
73
4
40
0
40
0
40
0
40
0
40
1
40
1
40
1
40
1
41
1
10
368.324759526419
20
10.8999354929284
30
0
41
1
10
368.111437539985
20
11.4476285217346
30
0
41
1
10
367.886241901321
20
11.9887487173422
30
0
41
1
10
367.650480947162
20
12.5240203286135
30
0
0
SPLINE
5
169
100
AcDbEntity
8
1
62
256
6
ByLayer
370
18
48
1
60
0
100
AcDbSpline
70
4
71
3
72
40
73
36
40
0
40
0
40
0
40
0
40
0.125000000000001
40
0.125000000000001
40
0.250000000000003
40
0.250000000000003
40
0.375000000000004
40
0.375000000000004
40
0.500000000000006
40
0.500000000000006
40
0.562500000000008
40
0.562500000000008
40
0.625000000000011
40
0.625000000000011
40
0.687500000000014
40
0.687500000000014
40
0.718750000000013
40
0.718750000000013
40
0.750000000000011
40
0.750000000000011
40
0.78125000000001
40
0.78125000000001
40
0.812500000000008
40
0.812500000000008
40
0.843750000000007
40
0.843750000000007
40
0.875000000000006
40
0.875000000000006
40
0.906250000000004
40
0.906250000000004
40
0.937500000000003
40
0.937500000000003
40
0.968750000000001
40
0.968750000000001
40
1
40
1
40
1
40
1
41
1
10
367.650480947162
20
12.5240203286135
30
0
41
1
10
367.639690471916
20
12.5485190209094
30
0
41
1
10
367.629613916005
20
12.5729486554888
30
0
41
1
10
367.610849297583
20
12.621668938142
30
0
41
1
10
367.602160592807
20
12.6459596622956
30
0
41
1
10
367.586289625029
20
12.6943887125299
30
0
41
1
10
367.579096154492
20
12.7185525224916
30
0
41
1
10
367.566584682111
20
12.7665924147566
30
0
41
1
10
367.561339273704
20
12.7901565661243
30
0
41
1
10
367.555481361028
20
12.8246060554301
30
0
41
1
10
367.553867302615
20
12.8359382479918
30
0
41
1
10
367.551487852271
20
12.8582271487095
30
0
41
1
10
367.550718615151
20
12.8692396521953
30
0
41
1
10
367.550336211257
20
12.8904892822468
30
0
41
1
10
367.550714779598
20
12.9006787514835
30
0
41
1
10
367.552465551096
20
12.915065565048
30
0
41
1
10
367.553248182532
20
12.9197101977658
30
0
41
1
10
367.555309097648
20
12.9286248501684
30
0
41
1
10
367.556593904736
20
12.9329010995046
30
0
41
1
10
367.559717301251
20
12.9407756166953
30
0
41
1
10
367.561559358519
20
12.9444002494743
30
0
41
1
10
367.565937706079
20
12.9508777423328
30
0
41
1
10
367.568504767017
20
12.9537519025183
30
0
41
1
10
367.574349248947
20
12.9583575070418
30
0
41
1
10
367.577621102576
20
12.9601034727104
30
0
41
1
10
367.584977180313
20
12.9623048822338
30
0
41
1
10
367.589008029016
20
12.9627276846837
30
0
41
1
10
367.597554413792
20
12.962188306639
30
0
41
1
10
367.602165047507
20
12.9612103113994
30
0
41
1
10
367.61156352127
20
12.9580305278136
30
0
41
1
10
367.616343834585
20
12.9558532438612
30
0
41
1
10
367.626039774226
20
12.9505209964753
30
0
41
1
10
367.630992916634
20
12.947336362705
30
0
41
1
10
367.640809613647
20
12.9402688914594
30
0
41
1
10
367.64566607499
20
12.9363995135537
30
0
41
1
10
367.650480947162
20
12.9322615979171
30
0
0
SPLINE
5
16A
100
AcDbEntity
8
1
62
256
6
ByLayer
370
18
48
1
60
0
100
AcDbSpline
70
4
71
3
72
8
73
4
40
0
40
0
40
0
40
0
40
1
40
1
40
1
40
1
41
1
10
367.650480947162
20
12.9322615979162
30
0
41
1
10
367.875423713527
20
12.7389451074582
30
0
41
1
10
368.100191536751
20
12.5453578173506
30
0
41
1
10
368.324759526419
20
12.3514611989837
30
0
0
SPLINE
5
16B
100
AcDbEntity
8
1
62
256
6
ByLayer
370
18
48
1
60
0
100
AcDbSpline
70
4
71
3
72
8
73
4
40
0
40
0
40
0
40
0
40
1
40
1
40
1
40
1
41
1
10
368.324759526419
20
12.7767794748912
30
0
41
1
10
368.107382666912
20
13.2381665161971
30
0
41
1
10
367.882352997816
20
13.6945301612787
30
0
41
1
10
367.650480947162
20
14.1464023848396
30
0
0
SPLINE
5
16C
100
AcDbEntity
8
1
62
256
6
ByLayer
370
18
48
1
60
0
100
AcDbSpline
70
4
71
3
72
40
73
36
40
0
40
0
40
0
40
0
40
0.124999999999996
40
0.124999999999996
40
0.249999999999993
40
0.249999999999993
40
0.374999999999989
40
0.374999999999989
40
0.437499999999989
40
0.437499999999989
40
0.49999999999999
40
0.49999999999999
40
0.56249999999999
40
0.56249999999999
40
0.62499999999999
40
0.62499999999999
40
0.687499999999991
40
0.687499999999991
40
0.718749999999992
40
0.718749999999992
40
0.749999999999993
40
0.749999999999993
40
0.781249999999994
40
0.781249999999994
40
0.812499999999996
40
0.812499999999996
40
0.843749999999997
40
0.843749999999997
40
0.874999999999998
40
0.874999999999998
40
0.937500000000002
40
0.937500000000002
40
0.968750000000001
40
0.968750000000001
40
1
40
1
40
1
40
1
41
1
10
367.650480947162
20
14.1464023848396
30
0
41
1
10
367.639414958228
20
14.1679677827019
30
0
41
1
10
367.629040809078
20
14.1894982781842
30
0
41
1
10
367.609683150239
20
14.2324844320556
30
0
41
1
10
367.600665700982
20
14.2540304822579
30
0
41
1
10
367.584409180772
20
14.2964716606384
30
0
41
1
10
367.577153956557
20
14.3173783954801
30
0
41
1
10
367.56784509696
20
14.348174082471
30
0
41
1
10
367.565006721943
20
14.358344472771
30
0
41
1
10
367.55994833633
20
14.3784644888773
30
0
41
1
10
367.557723039423
20
14.3884367390243
30
0
41
1
10
367.554054354314
20
14.40801378138
30
0
41
1
10
367.552625671844
20
14.4175304795216
30
0
41
1
10
367.550759790623
20
14.4359026326873
30
0
41
1
10
367.550318779816
20
14.4447605718962
30
0
41
1
10
367.550749497916
20
14.4616056545879
30
0
41
1
10
367.551636822927
20
14.4696104377068
30
0
41
1
10
367.554281873644
20
14.4802400051828
30
0
41
1
10
367.555383473851
20
14.4835703154141
30
0
41
1
10
367.55811068237
20
14.4897250071963
30
0
41
1
10
367.559751087798
20
14.4925672484108
30
0
41
1
10
367.5635955558
20
14.4975235357781
30
0
41
1
10
367.565792502249
20
14.4996397405528
30
0
41
1
10
367.570810054821
20
14.5030524418847
30
0
41
1
10
367.573662929114
20
14.5043510856066
30
0
41
1
10
367.579852338377
20
14.505948937453
30
0
41
1
10
367.583198210382
20
14.5062662734115
30
0
41
1
10
367.59039654148
20
14.5059318013038
30
0
41
1
10
367.594295692839
20
14.5052651393165
30
0
41
1
10
367.606418497699
20
14.5018746224377
30
0
41
1
10
367.61493133613
20
14.4978669254721
30
0
41
1
10
367.628201605806
20
14.4898327177079
30
0
41
1
10
367.632697891773
20
14.4868155998196
30
0
41
1
10
367.641605111237
20
14.4803478822293
30
0
41
1
10
367.646047713552
20
14.476878426667
30
0
41
1
10
367.650480947162
20
14.4732088630919
30
0
0
SPLINE
5
16D
100
AcDbEntity
8
1
62
256
6
ByLayer
370
18
48
1
60
0
100
AcDbSpline
70
4
71
3
72
8
73
4
40
0
40
0
40
0
40
0
40
1
40
1
40
1
40
1
41
1
10
367.650480947162
20
14.4732088630914
30
0
41
1
10
367.87528177088
20
14.2871322907612
30
0
41
1
10
368.10004293855
20
14.1009918745286
30
0
41
1
10
368.324759526419
20
13.9147796874403
30
0
0
SPLINE
5
16E
100
AcDbEntity
8
1
62
256
6
ByLayer
370
18
48
1
60
0
100
AcDbSpline
70
4
71
3
72
8
73
4
40
0
40
0
40
0
40
0
40
1
40
1
40
1
40
1
41
1
10
368.324759526419
20
14.2542482702526
30
0
41
1
10
368.105152654041
20
14.6587123242203
30
0
41
1
10
367.880211532645
20
15.0591860512804
30
0
41
1
10
367.650480947162
20
15.4560769820827
30
0
0
SPLINE
5
16F
100
AcDbEntity
8
1
62
256
6
ByLayer
370
18
48
1
60
0
100
AcDbSpline
70
4
71
3
72
39
73
35
40
0
40
0
40
0
40
0
40
0.125000000000001
40
0.125000000000001
40
0.250000000000002
40
0.250000000000002
40
0.375000000000003
40
0.375000000000003
40
0.437499999999997
40
0.437499999999997
40
0.49999999999999
40
0.49999999999999
40
0.562499999999984
40
0.562499999999984
40
0.59374999999998
40
0.59374999999998
40
0.624999999999977
40
0.624999999999977
40
0.687499999999981
40
0.687499999999981
40
0.718749999999983
40
0.718749999999983
40
0.749999999999985
40
0.749999999999985
40
0.781249999999987
40
0.781249999999987
40
0.812499999999989
40
0.843749999999991
40
0.843749999999991
40
0.874999999999992
40
0.874999999999992
40
0.937499999999996
40
0.937499999999996
40
1
40
1
40
1
40
1
41
1
10
367.650480947162
20
15.4560769820827
30
0
41
1
10
367.639193035731
20
15.4755783891984
30
0
41
1
10
367.628590160519
20
15.4950150973001
30
0
41
1
10
367.608789608101
20
15.5337506274621
30
0
41
1
10
367.59955440175
20
15.5531394770021
30
0
41
1
10
367.582996045851
20
15.5910738569026
30
0
41
1
10
367.575636447461
20
15.6096683647398
30
0
41
1
10
367.566297083473
20
15.6368716168552
30
0
41
1
10
367.563469944102
20
15.645823579614
30
0
41
1
10
367.558498129876
20
15.6634519327067
30
0
41
1
10
367.556355985995
20
15.6721338879737
30
0
41
1
10
367.552992495483
20
15.6887880728007
30
0
41
1
10
367.551755667217
20
15.6968054930674
30
0
41
1
10
367.550731607718
20
15.7082552465153
30
0
41
1
10
367.550529643809
20
15.7119751829311
30
0
41
1
10
367.550447718715
20
15.719192264216
30
0
41
1
10
367.550569803588
20
15.7227031448462
30
0
41
1
10
367.551489172924
20
15.7326767960533
30
0
41
1
10
367.552823866437
20
15.7386266380581
30
0
41
1
10
367.556235634613
20
15.7461914297908
30
0
41
1
10
367.557622786118
20
15.7484972729628
30
0
41
1
10
367.560888621489
20
15.7524800239255
30
0
41
1
10
367.562763444322
20
15.7541622265618
30
0
41
1
10
367.567039967856
20
15.7568546457306
30
0
41
1
10
367.569461523802
20
15.7578691446226
30
0
41
1
10
367.574799687778
20
15.7591280609591
30
0
41
1
10
367.580567979247
20
15.7596147878307
30
0
41
1
10
367.587174135165
20
15.7586005535335
30
0
41
1
10
367.594197904459
20
15.7568396148944
30
0
41
1
10
367.597925489672
20
15.7555764856679
30
0
41
1
10
367.609307892352
20
15.7508672481533
30
0
41
1
10
367.617324482498
20
15.7464633141779
30
0
41
1
10
367.63384879861
20
15.7357246214997
30
0
41
1
10
367.642150093394
20
15.7295341136678
30
0
41
1
10
367.650480947162
20
15.7227274845176
30
0
0
SPLINE
5
170
100
AcDbEntity
8
1
62
256
6
ByLayer
370
18
48
1
60
0
100
AcDbSpline
70
4
71
3
72
8
73
4
40
0
40
0
40
0
40
0
40
1
40
1
40
1
40
1
41
1
10
367.650480947162
20
15.7227274845173
30
0
41
1
10
367.875242279349
20
15.5390887989485
30
0
41
1
10
368.10000187134
20
15.3554472734957
30
0
41
1
10
368.324759526419
20
15.1718025873658
30
0
0
SPLINE
5
171
100
AcDbEntity
8
1
62
256
6
ByLayer
370
18
48
1
60
0
100
AcDbSpline
70
4
71
3
72
8
73
4
40
0
40
0
40
0
40
0
40
1
40
1
40
1
40
1
41
1
10
368.324759526419
20
15.4473652688735
30
0
41
1
10
368.103764009202
20
15.810559849516
30
0
41
1
10
367.878876276632
20
16.1705149416585
30
0
41
1
10
367.650480947162
20
16.5275506630092
30
0
0
SPLINE
5
172
100
AcDbEntity
8
1
62
256
6
ByLayer
370
18
48
1
60
0
100
AcDbSpline
70
4
71
3
72
41
73
37
40
0
40
0
40
0
40
0
40
0.125000000000008
40
0.125000000000008
40
0.18750000000001
40
0.18750000000001
40
0.250000000000012
40
0.250000000000012
40
0.374999999999996
40
0.374999999999996
40
0.437499999999991
40
0.437499999999991
40
0.499999999999986
40
0.499999999999986
40
0.562499999999982
40
0.562499999999982
40
0.624999999999977
40
0.624999999999977
40
0.656249999999974
40
0.656249999999974
40
0.687499999999972
40
0.687499999999972
40
0.71874999999997
40
0.71874999999997
40
0.749999999999967
40
0.749999999999967
40
0.81249999999997
40
0.81249999999997
40
0.843749999999973
40
0.843749999999973
40
0.874999999999975
40
0.906249999999977
40
0.906249999999977
40
0.93749999999998
40
0.93749999999998
40
1
40
1
40
1
40
1
41
1
10
367.650480947162
20
16.5275506630092
30
0
41
1
10
367.638981804677
20
16.5455265324872
30
0
41
1
10
367.62814548197
20
16.5634206151345
30
0
41
1
10
367.612939206481
20
16.5901281849026
30
0
41
1
10
367.608042788563
20
16.5990169496372
30
0
41
1
10
367.598721928767
20
16.6165648982947
30
0
41
1
10
367.594284643271
20
16.6252457634574
30
0
41
1
10
367.581686936374
20
16.6509896479144
30
0
41
1
10
367.574223281786
20
16.6677610781086
30
0
41
1
10
367.564837577099
20
16.6921604462441
30
0
41
1
10
367.562006278076
20
16.7001981661704
30
0
41
1
10
367.557184605238
20
16.7156477088207
30
0
41
1
10
367.555179368067
20
16.7230904973063
30
0
41
1
10
367.552137250522
20
16.7373043165413
30
0
41
1
10
367.551097322754
20
16.7440774273189
30
0
41
1
10
367.550263647968
20
16.7567617390192
30
0
41
1
10
367.550482593648
20
16.7625191878593
30
0
41
1
10
367.551971457481
20
16.7700613230136
30
0
41
1
10
367.552662227263
20
16.7723934928277
30
0
41
1
10
367.554488589318
20
16.7766425722051
30
0
41
1
10
367.555629696968
20
16.7785582671374
30
0
41
1
10
367.558347744801
20
16.781828174281
30
0
41
1
10
367.559929168047
20
16.7831969176479
30
0
41
1
10
367.563569638857
20
16.7853637195283
30
0
41
1
10
367.565645521329
20
16.7861647789785
30
0
41
1
10
367.572537810431
20
16.7876065271336
30
0
41
1
10
367.57792665398
20
16.7872966647606
30
0
41
1
10
367.587151619285
20
16.7850110816938
30
0
41
1
10
367.590446302725
20
16.7839313072075
30
0
41
1
10
367.597241521147
20
16.7812338486902
30
0
41
1
10
367.604247829043
20
16.7780072079684
30
0
41
1
10
367.61163322165
20
16.7738322488324
30
0
41
1
10
367.619193271317
20
16.7692211157922
30
0
41
1
10
367.623071327698
20
16.7666886267638
30
0
41
1
10
367.634714931172
20
16.7586489532194
30
0
41
1
10
367.642563586242
20
16.7526628820393
30
0
41
1
10
367.650480947162
20
16.7461799915722
30
0
0
SPLINE
5
173
100
AcDbEntity
8
1
62
256
6
ByLayer
370
18
48
1
60
0
100
AcDbSpline
70
4
71
3
72
8
73
4
40
0
40
0
40
0
40
0
40
1
40
1
40
1
40
1
41
1
10
367.650480947162
20
16.746179991572
30
0
41
1
10
367.875247737629
20
16.562136533403
30
0
41
1
10
368.100007511727
20
16.3780816494066
30
0
41
1
10
368.324759526419
20
16.1940141333148
30
0
0
SPLINE
5
174
100
AcDbEntity
8
1
62
256
6
ByLayer
370
18
48
1
60
0
100
AcDbSpline
70
4
71
3
72
8
73
4
40
0
40
0
40
0
40
0
40
1
40
1
40
1
40
1
41
1
10
368.324759526419
20
16.4182396666025
30
0
41
1
10
368.10282976625
20
16.7496954266907
30
0
41
1
10
367.87797677687
20
17.0784874839773
30
0
41
1
10
367.650480947162
20
17.4048713342158
30
0
0
SPLINE
5
175
100
AcDbEntity
8
1
62
256
6
ByLayer
370
18
48
1
60
0
100
AcDbSpline
70
4
71
3
72
34
73
30
40
0
40
0
40
0
40
0
40
0.124999999999979
40
0.124999999999979
40
0.249999999999959
40
0.249999999999959
40
0.312499999999951
40
0.312499999999951
40
0.374999999999943
40
0.374999999999943
40
0.499999999999941
40
0.499999999999941
40
0.562499999999942
40
0.562499999999942
40
0.624999999999943
40
0.624999999999943
40
0.687499999999944
40
0.687499999999944
40
0.718749999999946
40
0.718749999999946
40
0.749999999999948
40
0.749999999999948
40
0.812499999999961
40
0.812499999999961
40
0.874999999999974
40
0.874999999999974
40
0.937499999999987
40
0.937499999999987
40
1
40
1
40
1
40
1
41
1
10
367.650480947162
20
17.4048713342158
30
0
41
1
10
367.638779782576
20
17.4216587678787
30
0
41
1
10
367.627693116502
20
17.4383758860407
30
0
41
1
10
367.607002473869
20
17.4714107933081
30
0
41
1
10
367.597504579954
20
17.4875524832558
30
0
41
1
10
367.584701626499
20
17.5111204626936
30
0
41
1
10
367.580676613219
20
17.518868159681
30
0
41
1
10
367.57317678391
20
17.534117596638
30
0
41
1
10
367.569687169971
20
17.5416532144368
30
0
41
1
10
367.560306547285
20
17.5635746306862
30
0
41
1
10
367.555515793997
20
17.5771559030129
30
0
41
1
10
367.551444442405
20
17.595334081104
30
0
41
1
10
367.550629414815
20
17.6010158296479
30
0
41
1
10
367.550369704541
20
17.6110410235757
30
0
41
1
10
367.550906911697
20
17.6154408318442
30
0
41
1
10
367.553649785601
20
17.6227119306337
30
0
41
1
10
367.555833495619
20
17.625479638909
30
0
41
1
10
367.560418657478
20
17.6281044544242
30
0
41
1
10
367.562180578905
20
17.6287302685931
30
0
41
1
10
367.56612484049
20
17.6294299988261
30
0
41
1
10
367.568286199411
20
17.6295043011147
30
0
41
1
10
367.575316333567
20
17.6289333978027
30
0
41
1
10
367.580743615076
20
17.6274928474924
30
0
41
1
10
367.592956646791
20
17.6225760263927
30
0
41
1
10
367.59950045086
20
17.6192044399141
30
0
41
1
10
367.613308831924
20
17.6109620758324
30
0
41
1
10
367.620630234375
20
17.606041751766
30
0
41
1
10
367.635395579301
20
17.5952630873198
30
0
41
1
10
367.642891402848
20
17.5893789353748
30
0
41
1
10
367.650480947162
20
17.5830864488536
30
0
0
SPLINE
5
176
100
AcDbEntity
8
1
62
256
6
ByLayer
370
18
48
1
60
0
100
AcDbSpline
70
4
71
3
72
8
73
4
40
0
40
0
40
0
40
0
40
1
40
1
40
1
40
1
41
1
10
367.650480947162
20
17.5830864488535
30
0
41
1
10
367.87527835498
20
17.3967070563409
30
0
41
1
10
368.100039125586
20
17.2102687278776
30
0
41
1
10
368.324759526419
20
17.0237655573025
30
0
0
SPLINE
5
177
100
AcDbEntity
8
1
62
256
6
ByLayer
370
18
48
1
60
0
100
AcDbSpline
70
4
71
3
72
8
73
4
40
0
40
0
40
0
40
0
40
1
40
1
40
1
40
1
41
1
10
368.324759526419
20
17.204537010626
30
0
41
1
10
368.102167049584
20
17.5105841760994
30
0
41
1
10
367.877337890168
20
17.8144257977413
30
0
41
1
10
367.650480947162
20
18.1162678662819
30
0
0
SPLINE
5
178
100
AcDbEntity
8
1
62
256
6
ByLayer
370
18
48
1
60
0
100
AcDbSpline
70
4
71
3
72
41
73
37
40
0
40
0
40
0
40
0
40
0.0625000000000042
40
0.0625000000000042
40
0.125000000000008
40
0.125000000000008
40
0.250000000000017
40
0.250000000000017
40
0.312500000000021
40
0.312500000000021
40
0.375000000000025
40
0.375000000000025
40
0.437500000000029
40
0.468750000000031
40
0.468750000000031
40
0.500000000000033
40
0.500000000000033
40
0.562500000000033
40
0.562500000000033
40
0.625000000000032
40
0.625000000000032
40
0.687500000000031
40
0.687500000000031
40
0.750000000000031
40
0.750000000000031
40
0.781250000000031
40
0.781250000000031
40
0.81250000000003
40
0.81250000000003
40
0.875000000000024
40
0.875000000000024
40
0.906250000000018
40
0.906250000000018
40
0.937500000000012
40
0.937500000000012
40
1
40
1
40
1
40
1
41
1
10
367.650480947162
20
18.1162678662819
30
0
41
1
10
367.644530707472
20
18.1241848937819
30
0
41
1
10
367.638734660478
20
18.1320661881963
30
0
41
1
10
367.627462614209
20
18.1477537676446
30
0
41
1
10
367.621983627572
20
18.1555655854397
30
0
41
1
10
367.606226071217
20
18.1786319055696
30
0
41
1
10
367.59655639816
20
18.1936038516693
30
0
41
1
10
367.583525644729
20
18.2153410699518
30
0
41
1
10
367.579429881241
20
18.2224656317339
30
0
41
1
10
367.571814377828
20
18.2364325284526
30
0
41
1
10
367.568318980523
20
18.2432345542673
30
0
41
1
10
367.562151731737
20
18.2562021368569
30
0
41
1
10
367.558116055743
20
18.2654991328199
30
0
41
1
10
367.555124307769
20
18.2740375850842
30
0
41
1
10
367.553390593519
20
18.2795405045769
30
0
41
1
10
367.552653442229
20
18.2822028365412
30
0
41
1
10
367.550910298472
20
18.2897406107664
30
0
41
1
10
367.550352356246
20
18.2942147484468
30
0
41
1
10
367.550659068286
20
18.3018677379402
30
0
41
1
10
367.551551382701
20
18.3050594781882
30
0
41
1
10
367.554942046485
20
18.3096266601922
30
0
41
1
10
367.55744201508
20
18.31105029367
30
0
41
1
10
367.564147905172
20
18.3119608702219
30
0
41
1
10
367.568227742826
20
18.3114399048529
30
0
41
1
10
367.575359496822
20
18.3093034854225
30
0
41
1
10
367.577906330663
20
18.3083642815716
30
0
41
1
10
367.583336023074
20
18.3060366334107
30
0
41
1
10
367.586212296449
20
18.3046487760991
30
0
41
1
10
367.595094710497
20
18.2999585110496
30
0
41
1
10
367.601422754011
20
18.2961049586613
30
0
41
1
10
367.611436330013
20
18.2893955044817
30
0
41
1
10
367.614876803774
20
18.2869917365593
30
0
41
1
10
367.62181975771
20
18.2819650556374
30
0
41
1
10
367.625327553302
20
18.2793394829975
30
0
41
1
10
367.635948792471
20
18.271161122513
30
0
41
1
10
367.643159471795
20
18.2653086512668
30
0
41
1
10
367.650480947162
20
18.2591159102949
30
0
0
SPLINE
5
179
100
AcDbEntity
8
1
62
256
6
ByLayer
370
18
48
1
60
0
100
AcDbSpline
70
4
71
3
72
8
73
4
40
0
40
0
40
0
40
0
40
1
40
1
40
1
40
1
41
1
10
367.650480947162
20
18.2591159102949
30
0
41
1
10
367.875326782244
20
18.0689340213255
30
0
41
1
10
368.100089025132
20
17.8786205059024
30
0
41
1
10
368.324759526419
20
17.6881625317612
30
0
0
SPLINE
5
17A
100
AcDbEntity
8
1
62
256
6
ByLayer
370
18
48
1
60
0
100
AcDbSpline
70
4
71
3
72
8
73
4
40
0
40
0
40
0
40
0
40
1
40
1
40
1
40
1
41
1
10
368.324759526419
20
17.8306924641193
30
0
41
1
10
368.101678442285
20
18.1158055554848
30
0
41
1
10
367.876866272618
20
18.3990877212198
30
0
41
1
10
367.650480947162
20
18.6807059996443
30
0
0
SPLINE
5
17B
100
AcDbEntity
8
1
62
256
6
ByLayer
370
18
48
1
60
0
100
AcDbSpline
70
4
71
3
72
38
73
34
40
0
40
0
40
0
40
0
40
0.0625000000000028
40
0.0625000000000028
40
0.125000000000006
40
0.125000000000006
40
0.249999999999997
40
0.249999999999997
40
0.312499999999994
40
0.312499999999994
40
0.374999999999991
40
0.374999999999991
40
0.437499999999988
40
0.437499999999988
40
0.499999999999985
40
0.499999999999985
40
0.562499999999982
40
0.562499999999982
40
0.624999999999979
40
0.624999999999979
40
0.687499999999976
40
0.687499999999976
40
0.749999999999973
40
0.749999999999973
40
0.781249999999974
40
0.781249999999974
40
0.812499999999974
40
0.812499999999974
40
0.874999999999983
40
0.874999999999983
40
0.937499999999991
40
0.937499999999991
40
1
40
1
40
1
40
1
41
1
10
367.650480947162
20
18.6807059996443
30
0
41
1
10
367.644435066044
20
18.6882269404489
30
0
41
1
10
367.638541009106
20
18.6956954835845
30
0
41
1
10
367.627070710279
20
18.7105219541045
30
0
41
1
10
367.621478397149
20
18.7179019338335
30
0
41
1
10
367.605382543492
20
18.7396367381104
30
0
41
1
10
367.59552307329
20
18.7536213176681
30
0
41
1
10
367.582291758194
20
18.7736882743326
30
0
41
1
10
367.578143409899
20
18.7802241905302
30
0
41
1
10
367.570463431254
20
18.792935050527
30
0
41
1
10
367.566983467967
20
18.7990266725007
30
0
41
1
10
367.560894095359
20
18.8105111646514
30
0
41
1
10
367.558273629461
20
18.8159211153961
30
0
41
1
10
367.554041861199
20
18.8259505318496
30
0
41
1
10
367.552432376484
20
18.8305864249237
30
0
41
1
10
367.550538980103
20
18.8385889334807
30
0
41
1
10
367.550233118891
20
18.8420039082263
30
0
41
1
10
367.551141496283
20
18.8474028832892
30
0
41
1
10
367.552342069685
20
18.8493113044687
30
0
41
1
10
367.556322566542
20
18.8514574493095
30
0
41
1
10
367.559156903261
20
18.8516693992416
30
0
41
1
10
367.566155193741
20
18.8503516061792
30
0
41
1
10
367.570327284129
20
18.8488516643691
30
0
41
1
10
367.57754044284
20
18.845411474338
30
0
41
1
10
367.580121827421
20
18.8440551043985
30
0
41
1
10
367.585487525657
20
18.8410134790065
30
0
41
1
10
367.588275661537
20
18.8393280740423
30
0
41
1
10
367.596927885113
20
18.8338227337176
30
0
41
1
10
367.603078037699
20
18.8295564416253
30
0
41
1
10
367.616050433374
20
18.8199786606839
30
0
41
1
10
367.622764082909
20
18.8147458022603
30
0
41
1
10
367.636420273296
20
18.8036638171372
30
0
41
1
10
367.643389119659
20
18.7977944023938
30
0
41
1
10
367.650480947162
20
18.7916390605853
30
0
0
SPLINE
5
17C
100
AcDbEntity
8
1
62
256
6
ByLayer
370
18
48
1
60
0
100
AcDbSpline
70
4
71
3
72
8
73
4
40
0
40
0
40
0
40
0
40
1
40
1
40
1
40
1
41
1
10
367.650480947162
20
18.7916390605853
30
0
41
1
10
367.875390693943
20
18.5964289589472
30
0
41
1
10
368.100154848045
20
18.4009956122068
30
0
41
1
10
368.324759526419
20
18.2053177327395
30
0
0
SPLINE
5
17D
100
AcDbEntity
8
1
62
256
6
ByLayer
370
18
48
1
60
0
100
AcDbSpline
70
4
71
3
72
8
73
4
40
0
40
0
40
0
40
0
40
1
40
1
40
1
40
1
41
1
10
368.324759526419
20
18.3131399205598
30
0
41
1
10
368.101307459449
20
18.5806365366889
30
0
41
1
10
367.876507770666
20
18.8466150387261
30
0
41
1
10
367.650480947162
20
19.1112111569994
30
0
0
SPLINE
5
17E
100
AcDbEntity
8
1
62
256
6
ByLayer
370
18
48
1
60
0
100
AcDbSpline
70
4
71
3
72
37
73
33
40
0
40
0
40
0
40
0
40
0.125000000000002
40
0.125000000000002
40
0.250000000000005
40
0.250000000000005
40
0.312499999999999
40
0.312499999999999
40
0.374999999999994
40
0.374999999999994
40
0.437499999999988
40
0.437499999999988
40
0.46874999999999
40
0.46874999999999
40
0.499999999999992
40
0.531249999999993
40
0.531249999999993
40
0.562499999999995
40
0.562499999999995
40
0.624999999999998
40
0.624999999999998
40
0.656249999999997
40
0.656249999999997
40
0.687499999999996
40
0.687499999999996
40
0.749999999999994
40
0.749999999999994
40
0.812499999999992
40
0.812499999999992
40
0.87499999999999
40
0.87499999999999
40
1
40
1
40
1
40
1
41
1
10
367.650480947162
20
19.1112111569994
30
0
41
1
10
367.638202144537
20
19.1255852187202
30
0
41
1
10
367.626485867576
20
19.1397144945022
30
0
41
1
10
367.604552320067
20
19.1671510631429
30
0
41
1
10
367.594502099815
20
19.1802445976579
30
0
41
1
10
367.581082092083
20
19.1987490698133
30
0
41
1
10
367.57688735265
20
19.20472606789
30
0
41
1
10
367.569160111633
20
19.2162246159392
30
0
41
1
10
367.565703840037
20
19.2216334116342
30
0
41
1
10
367.559712993625
20
19.2316731893742
30
0
41
1
10
367.557175330865
20
19.2363077732511
30
0
41
1
10
367.554189582967
20
19.2425686008374
30
0
41
1
10
367.55333114082
20
19.2445439196842
30
0
41
1
10
367.551945089713
20
19.2481706791234
30
0
41
1
10
367.550880306039
20
19.2514915212535
30
0
41
1
10
367.550493173189
20
19.2541672783633
30
0
41
1
10
367.550469840073
20
19.2564968771615
30
0
41
1
10
367.55064329357
20
19.2574911476068
30
0
41
1
10
367.551729677775
20
19.2598627622591
30
0
41
1
10
367.553197894126
20
19.2606567256918
30
0
41
1
10
367.556546564706
20
19.2606368151033
30
0
41
1
10
367.557864176504
20
19.2604245190905
30
0
41
1
10
367.56084962648
20
19.2595937482398
30
0
41
1
10
367.562509311231
20
19.2589798099646
30
0
41
1
10
367.567961306
20
19.256576233022
30
0
41
1
10
367.572230449554
20
19.254223815366
30
0
41
1
10
367.581924074944
20
19.2481356233894
30
0
41
1
10
367.587203153222
20
19.2444931606372
30
0
41
1
10
367.598484907468
20
19.2362099822945
30
0
41
1
10
367.604518790299
20
19.231543271623
30
0
41
1
10
367.623400016941
20
19.2163577993823
30
0
41
1
10
367.636681697516
20
19.2049543935825
30
0
41
1
10
367.650480947162
20
19.1926049128576
30
0
0
SPLINE
5
17F
100
AcDbEntity
8
1
62
256
6
ByLayer
370
18
48
1
60
0
100
AcDbSpline
70
4
71
3
72
8
73
4
40
0
40
0
40
0
40
0
40
1
40
1
40
1
40
1
41
1
10
367.650480947162
20
19.1926049128575
30
0
41
1
10
367.875470342809
20
18.9912532251729
30
0
41
1
10
368.100236859786
20
18.7895703804292
30
0
41
1
10
368.324759526419
20
18.5875252185438
30
0
0
SPLINE
5
180
100
AcDbEntity
8
1
62
256
6
ByLayer
370
18
48
1
60
0
100
AcDbSpline
70
4
71
3
72
8
73
4
40
0
40
0
40
0
40
0
40
1
40
1
40
1
40
1
41
1
10
368.324759526419
20
18.6630274540333
30
0
41
1
10
368.101019214676
20
18.9154654531765
30
0
41
1
10
367.876228917632
20
19.1666509399749
30
0
41
1
10
367.650480947162
20
19.4166940319327
30
0
0
SPLINE
5
181
100
AcDbEntity
8
1
62
256
6
ByLayer
370
18
48
1
60
0
100
AcDbSpline
70
4
71
3
72
37
73
33
40
0
40
0
40
0
40
0
40
0.0625000000000039
40
0.0625000000000039
40
0.125000000000008
40
0.125000000000008
40
0.250000000000002
40
0.250000000000002
40
0.312499999999999
40
0.312499999999999
40
0.374999999999995
40
0.406249999999997
40
0.406249999999997
40
0.437499999999999
40
0.437499999999999
40
0.500000000000006
40
0.500000000000006
40
0.531250000000005
40
0.531250000000005
40
0.562500000000005
40
0.562500000000005
40
0.625000000000005
40
0.625000000000005
40
0.687500000000004
40
0.687500000000004
40
0.750000000000004
40
0.750000000000004
40
0.812500000000003
40
0.812500000000003
40
0.875000000000003
40
0.875000000000003
40
1
40
1
40
1
40
1
41
1
10
367.650480947162
20
19.4166940319327
30
0
41
1
10
367.644233516261
20
19.4236138148036
30
0
41
1
10
367.638128791671
20
19.430447242132
30
0
41
1
10
367.626224587922
20
19.4439282469415
30
0
41
1
10
367.620408632679
20
19.4505953398456
30
0
41
1
10
367.603696944729
20
19.4700187730249
30
0
41
1
10
367.593459438986
20
19.4822776869191
30
0
41
1
10
367.579801977808
20
19.499359790977
30
0
41
1
10
367.575513158026
20
19.5048653228669
30
0
41
1
10
367.567827277759
20
19.515076174795
30
0
41
1
10
367.562698992221
20
19.5221718288959
30
0
41
1
10
367.55866279162
20
19.5283005792956
30
0
41
1
10
367.556240243351
20
19.5321488241232
30
0
41
1
10
367.555161120897
20
19.5339584350359
30
0
41
1
10
367.552417952635
20
19.5389021635935
30
0
41
1
10
367.551221826353
20
19.5415884195284
30
0
41
1
10
367.550485616375
20
19.5445985953608
30
0
41
1
10
367.55041909126
20
19.5454340249258
30
0
41
1
10
367.550661814729
20
19.5467128369886
30
0
41
1
10
367.550968230583
20
19.5471605417463
30
0
41
1
10
367.552439131489
20
19.5479324593435
30
0
41
1
10
367.554154903999
20
19.5476875862862
30
0
41
1
10
367.559095757758
20
19.545630029289
30
0
41
1
10
367.562230525272
20
19.5438567909989
30
0
41
1
10
367.569682176899
20
19.5389883407314
30
0
41
1
10
367.574051131848
20
19.535851615375
30
0
41
1
10
367.583612877603
20
19.528557039509
30
0
41
1
10
367.58879748384
20
19.5244110022476
30
0
41
1
10
367.599860114334
20
19.5152650369474
30
0
41
1
10
367.605784818522
20
19.510223577669
30
0
41
1
10
367.624098620595
20
19.4942917137734
30
0
41
1
10
367.637015243456
20
19.482621137558
30
0
41
1
10
367.650480947162
20
19.4701429912256
30
0
0
SPLINE
5
182
100
AcDbEntity
8
1
62
256
6
ByLayer
370
18
48
1
60
0
100
AcDbSpline
70
4
71
3
72
8
73
4
40
0
40
0
40
0
40
0
40
1
40
1
40
1
40
1
41
1
10
367.650480947162
20
19.4701429912256
30
0
41
1
10
367.875567648883
20
19.2615638584136
30
0
41
1
10
368.10033706691
20
19.0525298860215
30
0
41
1
10
368.324759526419
20
18.8429985339383
30
0
0
SPLINE
5
183
100
AcDbEntity
8
1
62
256
6
ByLayer
370
18
48
1
60
0
100
AcDbSpline
70
4
71
3
72
8
73
4
40
0
40
0
40
0
40
0
40
1
40
1
40
1
40
1
41
1
10
368.324759526419
20
18.8877233606912
30
0
41
1
10
368.100791090601
20
19.1271433496652
30
0
41
1
10
367.876008003165
20
19.3655393957385
30
0
41
1
10
367.650480947162
20
19.6030003410692
30
0
0
SPLINE
5
184
100
AcDbEntity
8
1
62
256
6
ByLayer
370
18
48
1
60
0
100
AcDbSpline
70
4
71
3
72
37
73
33
40
0
40
0
40
0
40
0
40
0.125000000000021
40
0.125000000000021
40
0.187500000000025
40
0.187500000000025
40
0.250000000000029
40
0.250000000000029
40
0.312500000000033
40
0.343750000000035
40
0.343750000000035
40
0.375000000000037
40
0.375000000000037
40
0.437500000000032
40
0.437500000000032
40
0.46875000000003
40
0.46875000000003
40
0.500000000000027
40
0.500000000000027
40
0.562500000000022
40
0.562500000000022
40
0.625000000000017
40
0.625000000000017
40
0.687500000000012
40
0.687500000000012
40
0.750000000000007
40
0.750000000000007
40
0.812500000000002
40
0.812500000000002
40
0.874999999999998
40
0.874999999999998
40
1
40
1
40
1
40
1
41
1
10
367.650480947162
20
19.6030003410692
30
0
41
1
10
367.637713524711
20
19.6164433587645
30
0
41
1
10
367.625555134204
20
19.6293990848537
30
0
41
1
10
367.608569850311
20
19.6477688699773
30
0
41
1
10
367.603108564081
20
19.6537238617308
30
0
41
1
10
367.592645038061
20
19.6652469120385
30
0
41
1
10
367.587628553198
20
19.6708318448452
30
0
41
1
10
367.578394061833
20
19.6812540907382
30
0
41
1
10
367.572016535815
20
19.6885648297593
30
0
41
1
10
367.566579562048
20
19.6950058114147
30
0
41
1
10
367.563185659207
20
19.6990862291317
30
0
41
1
10
367.561600856608
20
19.7010238889255
30
0
41
1
10
367.557303071354
20
19.7063893319181
30
0
41
1
10
367.555014755975
20
19.7094065301893
30
0
41
1
10
367.552553203198
20
19.7129894842049
30
0
41
1
10
367.551893247071
20
19.7140301161126
30
0
41
1
10
367.550941407315
20
19.7157401602286
30
0
41
1
10
367.550646743411
20
19.7164124694591
30
0
41
1
10
367.550307456757
20
19.7178803359909
30
0
41
1
10
367.550804218981
20
19.7181301453526
30
0
41
1
10
367.553323180194
20
19.7170929258188
30
0
41
1
10
367.555303382755
20
19.7158212919829
30
0
41
1
10
367.560517793468
20
19.7119566589442
30
0
41
1
10
367.563756830219
20
19.7093608741009
30
0
41
1
10
367.571431586465
20
19.7029148992649
30
0
41
1
10
367.575773222109
20
19.699143259072
30
0
41
1
10
367.585223568068
20
19.6907486294537
30
0
41
1
10
367.59034747327
20
19.6861125346104
30
0
41
1
10
367.601310018783
20
19.6760560925488
30
0
41
1
10
367.607046357809
20
19.670729424597
30
0
41
1
10
367.624771194315
20
19.6541190568012
30
0
41
1
10
367.637325338164
20
19.642161607454
30
0
41
1
10
367.650480947162
20
19.6294893682057
30
0
0
SPLINE
5
185
100
AcDbEntity
8
1
62
256
6
ByLayer
370
18
48
1
60
0
100
AcDbSpline
70
4
71
3
72
8
73
4
40
0
40
0
40
0
40
0
40
1
40
1
40
1
40
1
41
1
10
367.650480947162
20
19.6294893682057
30
0
41
1
10
367.875685997486
20
19.4125589107669
30
0
41
1
10
368.100458994954
20
19.1950332762281
30
0
41
1
10
368.324759526419
20
18.97685679321
30
0
0
SPLINE
5
186
100
AcDbEntity
8
1
62
256
6
ByLayer
370
18
48
1
60
0
100
AcDbSpline
70
4
71
3
72
8
73
4
40
0
40
0
40
0
40
0
40
1
40
1
40
1
40
1
41
1
10
368.324759526419
20
18.991671694456
30
0
41
1
10
368.100607863251
20
19.2197546698709
30
0
41
1
10
367.875830405165
20
19.4470125106997
30
0
41
1
10
367.650480947162
20
19.6735161477106
30
0
0
SPLINE
5
187
100
AcDbEntity
8
1
62
256
6
ByLayer
370
18
48
1
60
0
100
AcDbSpline
70
4
71
3
72
24
73
20
40
0
40
0
40
0
40
0
40
0.125028418942553
40
0.125028418942553
40
0.250056837885105
40
0.250056837885105
40
0.50011367577021
40
0.50011367577021
40
0.625142094712762
40
0.625142094712762
40
0.687656304184038
40
0.687656304184038
40
0.750170513655314
40
0.750170513655314
40
0.875198932597865
40
0.875198932597865
40
0.937713142069137
40
0.937713142069137
40
1
40
1
40
1
40
1
41
1
10
367.650480947162
20
19.6735161477106
30
0
41
1
10
367.643995528497
20
19.6800347829365
30
0
41
1
10
367.637641930968
20
19.6864240983025
30
0
41
1
10
367.625223781212
20
19.6989177330083
30
0
41
1
10
367.619159362558
20
19.7050219490506
30
0
41
1
10
367.601760540395
20
19.7225422830358
30
0
41
1
10
367.591092877904
20
19.7332946246385
30
0
41
1
10
367.576962978984
20
19.7475455477897
30
0
41
1
10
367.572665768936
20
19.7518812199195
30
0
41
1
10
367.566937041454
20
19.7576626687888
30
0
41
1
10
367.565146159727
20
19.7594703034833
30
0
41
1
10
367.561821741835
20
19.7628262012985
30
0
41
1
10
367.560285385348
20
19.7643773132463
30
0
41
1
10
367.556170769704
20
19.7685318245776
30
0
41
1
10
367.554054662599
20
19.7706689842464
30
0
41
1
10
367.551904777518
20
19.7728403855655
30
0
41
1
10
367.551358069514
20
19.7733926014477
30
0
41
1
10
367.550643985657
20
19.7741138892785
30
0
41
1
10
367.550472424758
20
19.7742871878395
30
0
41
1
10
367.550481271901
20
19.7742782512338
30
0
0
LINE
5
9F
100
AcDbEntity
8
4
62
256
6
ByLayer
370
18
48
0.05
60
0
100
AcDbLine
10
0
20
0
30
0
11
368
21
0
31
0
39
0
210
0
220
0
230
1
0
LINE
5
A1
100
AcDbEntity
8
80
62
256
6
ByLayer
370
18
48
1
60
0
100
AcDbLine
10
0
20
0
30
0
11
-5
21
0
31
0
39
0
210
0
220
0
230
1
0
LINE
5
A2
100
AcDbEntity
8
SK4
62
256
6
ByLayer
370
18
48
0.05
60
0
100
AcDbLine
10
-165
20
0
30
0
11
373
21
0
31
0
39
0
210
0
220
0
230
1
0
LINE
5
A4
100
AcDbEntity
8
81
62
256
6
ByLayer
370
18
48
1
60
0
100
AcDbLine
10
368
20
0
30
0
11
373
21
0
31
0
39
0
210
0
220
0
230
1
0
LINE
5
A5
100
AcDbEntity
8
1
62
256
6
ByLayer
370
18
48
1
60
0
100
AcDbLine
10
372.8
20
-6.899495
30
0
11
372.8
21
-12.899495
31
0
39
0
210
0
220
0
230
1
0
LINE
5
A6
100
AcDbEntity
8
1
62
256
6
ByLayer
370
13
48
1
60
0
100
AcDbLine
10
368.324503
20
-12.344995
30
0
11
372.8
21
-12.344995
31
0
39
0
210
0
220
0
230
1
0
LINE
5
A7
100
AcDbEntity
8
1
62
256
6
ByLayer
370
13
48
1
60
0
100
AcDbLine
10
368.324503
20
-7.453995
30
0
11
372.8
21
-7.453995
31
0
39
0
210
0
220
0
230
1
0
LINE
5
A8
100
AcDbEntity
8
1
62
256
6
ByLayer
370
18
48
1
60
0
100
AcDbLine
10
372.8
20
12.899495
30
0
11
372.8
21
6.899495
31
0
39
0
210
0
220
0
230
1
0
LINE
5
A9
100
AcDbEntity
8
1
62
256
6
ByLayer
370
13
48
1
60
0
100
AcDbLine
10
368.324503
20
7.453995
30
0
11
372.8
21
7.453995
31
0
39
0
210
0
220
0
230
1
0
LINE
5
AA
100
AcDbEntity
8
1
62
256
6
ByLayer
370
13
48
1
60
0
100
AcDbLine
10
368.324503
20
12.344995
30
0
11
372.8
21
12.344995
31
0
39
0
210
0
220
0
230
1
0
LINE
5
AB
100
AcDbEntity
8
1
62
256
6
ByLayer
370
18
48
1
60
0
100
AcDbLine
10
366
20
20
30
0
11
366
21
-20
31
0
39
0
210
0
220
0
230
1
0
LINE
5
AC
100
AcDbEntity
8
1
62
256
6
ByLayer
370
18
48
1
60
0
100
AcDbLine
10
0
20
20
30
0
11
0
21
-20
31
0
39
0
210
0
220
0
230
1
0
LINE
5
AD
100
AcDbEntity
8
SK1
62
256
6
ByLayer
370
18
48
1
60
0
100
AcDbLine
10
-160
20
-18.98925
30
0
11
-160
21
18.98925
31
0
39
0
210
0
220
0
230
1
0
LINE
5
AF
100
AcDbEntity
8
SK1
62
256
6
ByLayer
370
18
48
1
60
0
100
AcDbLine
10
-159
20
-19.98925
30
0
11
-159
21
19.98925
31
0
39
0
210
0
220
0
230
1
0
LINE
5
B0
100
AcDbEntity
8
1
62
256
6
ByLayer
370
13
48
1
60
0
100
AcDbLine
10
372.8
20
-12.899495
30
0
11
372.8
21
-6.899495
31
0
39
0
210
0
220
0
230
1
0
LINE
5
B1
100
AcDbEntity
8
1
62
256
6
ByLayer
370
18
48
1
60
0
100
AcDbLine
10
373
20
-14.899495
30
0
11
373
21
-4.899495
31
0
39
0
210
0
220
0
230
1
0
LINE
5
B2
100
AcDbEntity
8
1
62
256
6
ByLayer
370
13
48
1
60
0
100
AcDbLine
10
378.4
20
-14.899495
30
0
11
378.4
21
-4.899495
31
0
39
0
210
0
220
0
230
1
0
LINE
5
B3
100
AcDbEntity
8
1
62
256
6
ByLayer
370
18
48
1
60
0
100
AcDbLine
10
379
20
-14.299495
30
0
11
379
21
-5.499495
31
0
39
0
210
0
220
0
230
1
0
LINE
5
B4
100
AcDbEntity
8
1
62
256
6
ByLayer
370
18
48
1
60
0
100
AcDbLine
10
368.32476
20
18.887542
30
0
11
368.32476
21
18.976857
31
0
39
0
210
0
220
0
230
1
0
LINE
5
B5
100
AcDbEntity
8
1
62
256
6
ByLayer
370
18
48
1
60
0
100
AcDbLine
10
368.32476
20
-18.976857
30
0
11
368.32476
21
-18.887542
31
0
39
0
210
0
220
0
230
1
0
LINE
5
B6
100
AcDbEntity
8
1
62
256
6
ByLayer
370
13
48
1
60
0
100
AcDbLine
10
367.650481
20
-19.629489
30
0
11
367.650481
21
-19.602807
31
0
39
0
210
0
220
0
230
1
0
LINE
5
B7
100
AcDbEntity
8
1
62
256
6
ByLayer
370
13
48
1
60
0
100
AcDbLine
10
367.650481
20
19.602807
30
0
11
367.650481
21
19.629489
31
0
39
0
210
0
220
0
230
1
0
LINE
5
B8
100
AcDbEntity
8
1
62
256
6
ByLayer
370
18
48
1
60
0
100
AcDbLine
10
368.32476
20
-18.842999
30
0
11
368.32476
21
-18.662842
31
0
39
0
210
0
220
0
230
1
0
LINE
5
B9
100
AcDbEntity
8
1
62
256
6
ByLayer
370
18
48
1
60
0
100
AcDbLine
10
368.32476
20
18.662842
30
0
11
368.32476
21
18.842999
31
0
39
0
210
0
220
0
230
1
0
LINE
5
BA
100
AcDbEntity
8
1
62
256
6
ByLayer
370
13
48
1
60
0
100
AcDbLine
10
367.650481
20
-19.470143
30
0
11
367.650481
21
-19.416627
31
0
39
0
210
0
220
0
230
1
0
LINE
5
BB
100
AcDbEntity
8
1
62
256
6
ByLayer
370
13
48
1
60
0
100
AcDbLine
10
367.650481
20
19.416627
30
0
11
367.650481
21
19.470143
31
0
39
0
210
0
220
0
230
1
0
LINE
5
BC
100
AcDbEntity
8
1
62
256
6
ByLayer
370
18
48
1
60
0
100
AcDbLine
10
368.32476
20
18.31313
30
0
11
368.32476
21
18.587525
31
0
39
0
210
0
220
0
230
1
0
LINE
5
BD
100
AcDbEntity
8
1
62
256
6
ByLayer
370
18
48
1
60
0
100
AcDbLine
10
368.32476
20
-18.587525
30
0
11
368.32476
21
-18.31313
31
0
39
0
210
0
220
0
230
1
0
LINE
5
BE
100
AcDbEntity
8
1
62
256
6
ByLayer
370
13
48
1
60
0
100
AcDbLine
10
367.650481
20
-19.192605
30
0
11
367.650481
21
-19.111162
31
0
39
0
210
0
220
0
230
1
0
LINE
5
BF
100
AcDbEntity
8
1
62
256
6
ByLayer
370
13
48
1
60
0
100
AcDbLine
10
367.650481
20
19.111162
30
0
11
367.650481
21
19.192605
31
0
39
0
210
0
220
0
230
1
0
LINE
5
C0
100
AcDbEntity
8
1
62
256
6
ByLayer
370
18
48
1
60
0
100
AcDbLine
10
368.32476
20
-18.205318
30
0
11
368.32476
21
-17.830489
31
0
39
0
210
0
220
0
230
1
0
LINE
5
C1
100
AcDbEntity
8
1
62
256
6
ByLayer
370
18
48
1
60
0
100
AcDbLine
10
368.32476
20
17.830489
30
0
11
368.32476
21
18.205318
31
0
39
0
210
0
220
0
230
1
0
LINE
5
C2
100
AcDbEntity
8
1
62
256
6
ByLayer
370
13
48
1
60
0
100
AcDbLine
10
367.650481
20
-18.791639
30
0
11
367.650481
21
-18.680651
31
0
39
0
210
0
220
0
230
1
0
LINE
5
C3
100
AcDbEntity
8
1
62
256
6
ByLayer
370
13
48
1
60
0
100
AcDbLine
10
367.650481
20
18.680651
30
0
11
367.650481
21
18.791639
31
0
39
0
210
0
220
0
230
1
0
LINE
5
C4
100
AcDbEntity
8
1
62
256
6
ByLayer
370
18
48
1
60
0
100
AcDbLine
10
368.32476
20
17.204449
30
0
11
368.32476
21
17.688163
31
0
39
0
210
0
220
0
230
1
0
LINE
5
C5
100
AcDbEntity
8
1
62
256
6
ByLayer
370
18
48
1
60
0
100
AcDbLine
10
368.32476
20
-17.688163
30
0
11
368.32476
21
-17.204449
31
0
39
0
210
0
220
0
230
1
0
LINE
5
C6
100
AcDbEntity
8
1
62
256
6
ByLayer
370
13
48
1
60
0
100
AcDbLine
10
367.650481
20
18.116188
30
0
11
367.650481
21
18.259116
31
0
39
0
210
0
220
0
230
1
0
LINE
5
C7
100
AcDbEntity
8
1
62
256
6
ByLayer
370
13
48
1
60
0
100
AcDbLine
10
367.650481
20
-18.259116
30
0
11
367.650481
21
-18.116188
31
0
39
0
210
0
220
0
230
1
0
LINE
5
C8
100
AcDbEntity
8
1
62
256
6
ByLayer
370
18
48
1
60
0
100
AcDbLine
10
368.32476
20
-17.023766
30
0
11
368.32476
21
-16.418191
31
0
39
0
210
0
220
0
230
1
0
LINE
5
C9
100
AcDbEntity
8
1
62
256
6
ByLayer
370
18
48
1
60
0
100
AcDbLine
10
368.32476
20
16.418191
30
0
11
368.32476
21
17.023766
31
0
39
0
210
0
220
0
230
1
0
LINE
5
CA
100
AcDbEntity
8
1
62
256
6
ByLayer
370
13
48
1
60
0
100
AcDbLine
10
367.650481
20
-17.583086
30
0
11
367.650481
21
-17.404844
31
0
39
0
210
0
220
0
230
1
0
LINE
5
CB
100
AcDbEntity
8
1
62
256
6
ByLayer
370
13
48
1
60
0
100
AcDbLine
10
367.650481
20
17.404844
30
0
11
367.650481
21
17.583086
31
0
39
0
210
0
220
0
230
1
0
LINE
5
CC
100
AcDbEntity
8
1
62
256
6
ByLayer
370
18
48
1
60
0
100
AcDbLine
10
368.32476
20
-16.194014
30
0
11
368.32476
21
-15.447336
31
0
39
0
210
0
220
0
230
1
0
LINE
5
CD
100
AcDbEntity
8
1
62
256
6
ByLayer
370
18
48
1
60
0
100
AcDbLine
10
368.32476
20
15.447336
30
0
11
368.32476
21
16.194014
31
0
39
0
210
0
220
0
230
1
0
LINE
5
CE
100
AcDbEntity
8
1
62
256
6
ByLayer
370
13
48
1
60
0
100
AcDbLine
10
367.650481
20
16.527523
30
0
11
367.650481
21
16.74618
31
0
39
0
210
0
220
0
230
1
0
LINE
5
CF
100
AcDbEntity
8
1
62
256
6
ByLayer
370
13
48
1
60
0
100
AcDbLine
10
367.650481
20
-16.74618
30
0
11
367.650481
21
-16.527523
31
0
39
0
210
0
220
0
230
1
0
LINE
5
D0
100
AcDbEntity
8
1
62
256
6
ByLayer
370
18
48
1
60
0
100
AcDbLine
10
368.32476
20
14.254246
30
0
11
368.32476
21
15.171803
31
0
39
0
210
0
220
0
230
1
0
LINE
5
D1
100
AcDbEntity
8
1
62
256
6
ByLayer
370
18
48
1
60
0
100
AcDbLine
10
368.32476
20
-15.171803
30
0
11
368.32476
21
-14.254246
31
0
39
0
210
0
220
0
230
1
0
LINE
5
D2
100
AcDbEntity
8
1
62
256
6
ByLayer
370
13
48
1
60
0
100
AcDbLine
10
367.650481
20
15.456027
30
0
11
367.650481
21
15.722727
31
0
39
0
210
0
220
0
230
1
0
LINE
5
D3
100
AcDbEntity
8
1
62
256
6
ByLayer
370
13
48
1
60
0
100
AcDbLine
10
367.650481
20
-15.722727
30
0
11
367.650481
21
-15.456027
31
0
39
0
210
0
220
0
230
1
0
LINE
5
D4
100
AcDbEntity
8
1
62
256
6
ByLayer
370
18
48
1
60
0
100
AcDbLine
10
368.32476
20
12.776776
30
0
11
368.32476
21
13.91478
31
0
39
0
210
0
220
0
230
1
0
LINE
5
D5
100
AcDbEntity
8
1
62
256
6
ByLayer
370
18
48
1
60
0
100
AcDbLine
10
368.32476
20
-13.91478
30
0
11
368.32476
21
-12.776776
31
0
39
0
210
0
220
0
230
1
0
LINE
5
D6
100
AcDbEntity
8
1
62
256
6
ByLayer
370
13
48
1
60
0
100
AcDbLine
10
367.650481
20
-14.473209
30
0
11
367.650481
21
-14.146205
31
0
39
0
210
0
220
0
230
1
0
LINE
5
D7
100
AcDbEntity
8
1
62
256
6
ByLayer
370
13
48
1
60
0
100
AcDbLine
10
367.650481
20
14.146205
30
0
11
367.650481
21
14.473209
31
0
39
0
210
0
220
0
230
1
0
LINE
5
D8
100
AcDbEntity
8
1
62
256
6
ByLayer
370
18
48
1
60
0
100
AcDbLine
10
368.32476
20
-12.351461
30
0
11
368.32476
21
-10.899779
31
0
39
0
210
0
220
0
230
1
0
LINE
5
D9
100
AcDbEntity
8
1
62
256
6
ByLayer
370
18
48
1
60
0
100
AcDbLine
10
368.32476
20
10.899779
30
0
11
368.32476
21
12.351461
31
0
39
0
210
0
220
0
230
1
0
LINE
5
DA
100
AcDbEntity
8
1
62
256
6
ByLayer
370
13
48
1
60
0
100
AcDbLine
10
367.650481
20
-12.932262
30
0
11
367.650481
21
-12.523683
31
0
39
0
210
0
220
0
230
1
0
LINE
5
DB
100
AcDbEntity
8
1
62
256
6
ByLayer
370
13
48
1
60
0
100
AcDbLine
10
367.650481
20
12.523683
30
0
11
367.650481
21
12.932262
31
0
39
0
210
0
220
0
230
1
0
LINE
5
DC
100
AcDbEntity
8
1
62
256
6
ByLayer
370
18
48
1
60
0
100
AcDbLine
10
368.32476
20
-10.343892
30
0
11
368.32476
21
-8.358834
31
0
39
0
210
0
220
0
230
1
0
LINE
5
DD
100
AcDbEntity
8
1
62
256
6
ByLayer
370
18
48
1
60
0
100
AcDbLine
10
368.32476
20
8.358834
30
0
11
368.32476
21
10.343892
31
0
39
0
210
0
220
0
230
1
0
LINE
5
DE
100
AcDbEntity
8
1
62
256
6
ByLayer
370
13
48
1
60
0
100
AcDbLine
10
367.650481
20
-10.977842
30
0
11
367.650481
21
-10.444044
31
0
39
0
210
0
220
0
230
1
0
LINE
5
DF
100
AcDbEntity
8
1
62
256
6
ByLayer
370
13
48
1
60
0
100
AcDbLine
10
367.650481
20
10.444044
30
0
11
367.650481
21
10.977842
31
0
39
0
210
0
220
0
230
1
0
LINE
5
E0
100
AcDbEntity
8
1
62
256
6
ByLayer
370
18
48
1
60
0
100
AcDbLine
10
368.32476
20
-7.545435
30
0
11
368.32476
21
-4.053785
31
0
39
0
210
0
220
0
230
1
0
LINE
5
E1
100
AcDbEntity
8
1
62
256
6
ByLayer
370
18
48
1
60
0
100
AcDbLine
10
368.32476
20
4.053785
30
0
11
368.32476
21
7.545435
31
0
39
0
210
0
220
0
230
1
0
LINE
5
E2
100
AcDbEntity
8
1
62
256
6
ByLayer
370
13
48
1
60
0
100
AcDbLine
10
367.650481
20
-8.323618
30
0
11
367.650481
21
-7.537296
31
0
39
0
210
0
220
0
230
1
0
LINE
5
E3
100
AcDbEntity
8
1
62
256
6
ByLayer
370
13
48
1
60
0
100
AcDbLine
10
367.650481
20
7.537296
30
0
11
367.650481
21
8.323618
31
0
39
0
210
0
220
0
230
1
0
LINE
5
E4
100
AcDbEntity
8
1
62
256
6
ByLayer
370
18
48
1
60
0
100
AcDbLine
10
368.32476
20
-1.539836
30
0
11
368.32476
21
1.539836
31
0
39
0
210
0
220
0
230
1
0
LINE
5
E5
100
AcDbEntity
8
1
62
256
6
ByLayer
370
13
48
1
60
0
100
AcDbLine
10
367.650481
20
-3.681336
30
0
11
367.650481
21
-0.209491
31
0
39
0
210
0
220
0
230
1
0
LINE
5
E6
100
AcDbEntity
8
1
62
256
6
ByLayer
370
13
48
1
60
0
100
AcDbLine
10
367.650481
20
0.209491
30
0
11
367.650481
21
3.681336
31
0
39
0
210
0
220
0
230
1
0
LINE
5
E7
100
AcDbEntity
8
1
62
256
6
ByLayer
370
18
48
1
60
0
100
AcDbLine
10
367.32476
20
-20
30
0
11
367.32476
21
20
31
0
39
0
210
0
220
0
230
1
0
LINE
5
E8
100
AcDbEntity
8
1
62
256
6
ByLayer
370
18
48
1
60
0
100
AcDbLine
10
368.32476
20
-18.976857
30
0
11
368.32476
21
-18.991672
31
0
39
0
210
0
220
0
230
1
0
LINE
5
E9
100
AcDbEntity
8
1
62
256
6
ByLayer
370
18
48
1
60
0
100
AcDbLine
10
368.32476
20
-18.842999
30
0
11
368.32476
21
-18.887723
31
0
39
0
210
0
220
0
230
1
0
LINE
5
EA
100
AcDbEntity
8
1
62
256
6
ByLayer
370
18
48
1
60
0
100
AcDbLine
10
368.32476
20
-18.587525
30
0
11
368.32476
21
-18.663027
31
0
39
0
210
0
220
0
230
1
0
LINE
5
EB
100
AcDbEntity
8
1
62
256
6
ByLayer
370
18
48
1
60
0
100
AcDbLine
10
368.32476
20
-18.205318
30
0
11
368.32476
21
-18.31314
31
0
39
0
210
0
220
0
230
1
0
LINE
5
EC
100
AcDbEntity
8
1
62
256
6
ByLayer
370
18
48
1
60
0
100
AcDbLine
10
368.32476
20
-17.688163
30
0
11
368.32476
21
-17.830692
31
0
39
0
210
0
220
0
230
1
0
LINE
5
ED
100
AcDbEntity
8
1
62
256
6
ByLayer
370
18
48
1
60
0
100
AcDbLine
10
368.32476
20
-17.023766
30
0
11
368.32476
21
-17.204537
31
0
39
0
210
0
220
0
230
1
0
LINE
5
EE
100
AcDbEntity
8
1
62
256
6
ByLayer
370
18
48
1
60
0
100
AcDbLine
10
368.32476
20
-16.194014
30
0
11
368.32476
21
-16.41824
31
0
39
0
210
0
220
0
230
1
0
LINE
5
EF
100
AcDbEntity
8
1
62
256
6
ByLayer
370
18
48
1
60
0
100
AcDbLine
10
368.32476
20
-15.171803
30
0
11
368.32476
21
-15.447365
31
0
39
0
210
0
220
0
230
1
0
LINE
5
F0
100
AcDbEntity
8
1
62
256
6
ByLayer
370
18
48
1
60
0
100
AcDbLine
10
368.32476
20
-13.91478
30
0
11
368.32476
21
-14.254248
31
0
39
0
210
0
220
0
230
1
0
LINE
5
F1
100
AcDbEntity
8
1
62
256
6
ByLayer
370
18
48
1
60
0
100
AcDbLine
10
368.32476
20
-12.351461
30
0
11
368.32476
21
-12.776779
31
0
39
0
210
0
220
0
230
1
0
LINE
5
F2
100
AcDbEntity
8
1
62
256
6
ByLayer
370
18
48
1
60
0
100
AcDbLine
10
368.32476
20
-10.343892
30
0
11
368.32476
21
-10.899935
31
0
39
0
210
0
220
0
230
1
0
LINE
5
F3
100
AcDbEntity
8
1
62
256
6
ByLayer
370
18
48
1
60
0
100
AcDbLine
10
368.32476
20
-7.545435
30
0
11
368.32476
21
-8.358893
31
0
39
0
210
0
220
0
230
1
0
LINE
5
F4
100
AcDbEntity
8
1
62
256
6
ByLayer
370
18
48
1
60
0
100
AcDbLine
10
368.32476
20
-1.539836
30
0
11
368.32476
21
-4.053837
31
0
39
0
210
0
220
0
230
1
0
LINE
5
F5
100
AcDbEntity
8
1
62
256
6
ByLayer
370
18
48
1
60
0
100
AcDbLine
10
368.32476
20
4.053837
30
0
11
368.32476
21
1.539836
31
0
39
0
210
0
220
0
230
1
0
LINE
5
F6
100
AcDbEntity
8
1
62
256
6
ByLayer
370
18
48
1
60
0
100
AcDbLine
10
368.32476
20
8.358893
30
0
11
368.32476
21
7.545435
31
0
39
0
210
0
220
0
230
1
0
LINE
5
F7
100
AcDbEntity
8
1
62
256
6
ByLayer
370
18
48
1
60
0
100
AcDbLine
10
368.32476
20
10.899935
30
0
11
368.32476
21
10.343892
31
0
39
0
210
0
220
0
230
1
0
LINE
5
F8
100
AcDbEntity
8
1
62
256
6
ByLayer
370
18
48
1
60
0
100
AcDbLine
10
368.32476
20
12.776779
30
0
11
368.32476
21
12.351461
31
0
39
0
210
0
220
0
230
1
0
LINE
5
F9
100
AcDbEntity
8
1
62
256
6
ByLayer
370
18
48
1
60
0
100
AcDbLine
10
368.32476
20
14.254248
30
0
11
368.32476
21
13.91478
31
0
39
0
210
0
220
0
230
1
0
LINE
5
FA
100
AcDbEntity
8
1
62
256
6
ByLayer
370
18
48
1
60
0
100
AcDbLine
10
368.32476
20
15.447365
30
0
11
368.32476
21
15.171803
31
0
39
0
210
0
220
0
230
1
0
LINE
5
FB
100
AcDbEntity
8
1
62
256
6
ByLayer
370
18
48
1
60
0
100
AcDbLine
10
368.32476
20
16.41824
30
0
11
368.32476
21
16.194014
31
0
39
0
210
0
220
0
230
1
0
LINE
5
FC
100
AcDbEntity
8
1
62
256
6
ByLayer
370
18
48
1
60
0
100
AcDbLine
10
368.32476
20
17.204537
30
0
11
368.32476
21
17.023766
31
0
39
0
210
0
220
0
230
1
0
LINE
5
FD
100
AcDbEntity
8
1
62
256
6
ByLayer
370
18
48
1
60
0
100
AcDbLine
10
368.32476
20
17.830692
30
0
11
368.32476
21
17.688163
31
0
39
0
210
0
220
0
230
1
0
LINE
5
FE
100
AcDbEntity
8
1
62
256
6
ByLayer
370
18
48
1
60
0
100
AcDbLine
10
368.32476
20
18.31314
30
0
11
368.32476
21
18.205318
31
0
39
0
210
0
220
0
230
1
0
LINE
5
FF
100
AcDbEntity
8
1
62
256
6
ByLayer
370
18
48
1
60
0
100
AcDbLine
10
368.32476
20
18.663027
30
0
11
368.32476
21
18.587525
31
0
39
0
210
0
220
0
230
1
0
LINE
5
100
100
AcDbEntity
8
1
62
256
6
ByLayer
370
18
48
1
60
0
100
AcDbLine
10
368.32476
20
18.887723
30
0
11
368.32476
21
18.842999
31
0
39
0
210
0
220
0
230
1
0
LINE
5
101
100
AcDbEntity
8
1
62
256
6
ByLayer
370
18
48
1
60
0
100
AcDbLine
10
368.32476
20
18.991672
30
0
11
368.32476
21
18.976857
31
0
39
0
210
0
220
0
230
1
0
LINE
5
102
100
AcDbEntity
8
1
62
256
6
ByLayer
370
13
48
1
60
0
100
AcDbLine
10
366.4
20
20
30
0
11
366.4
21
-20
31
0
39
0
210
0
220
0
230
1
0
LINE
5
103
100
AcDbEntity
8
1
62
256
6
ByLayer
370
13
48
1
60
0
100
AcDbLine
10
372.8
20
12.899495
30
0
11
372.8
21
6.899495
31
0
39
0
210
0
220
0
230
1
0
LINE
5
104
100
AcDbEntity
8
1
62
256
6
ByLayer
370
18
48
1
60
0
100
AcDbLine
10
373
20
14.899495
30
0
11
373
21
4.899495
31
0
39
0
210
0
220
0
230
1
0
LINE
5
105
100
AcDbEntity
8
1
62
256
6
ByLayer
370
13
48
1
60
0
100
AcDbLine
10
378.4
20
14.899495
30
0
11
378.4
21
4.899495
31
0
39
0
210
0
220
0
230
1
0
LINE
5
106
100
AcDbEntity
8
1
62
256
6
ByLayer
370
18
48
1
60
0
100
AcDbLine
10
379
20
14.299495
30
0
11
379
21
5.499495
31
0
39
0
210
0
220
0
230
1
0
LINE
5
107
100
AcDbEntity
8
1
62
256
6
ByLayer
370
18
48
1
60
0
100
AcDbLine
10
0
20
-20
30
0
11
366
21
-20
31
0
39
0
210
0
220
0
230
1
0
LINE
5
108
100
AcDbEntity
8
1
62
256
6
ByLayer
370
18
48
1
60
0
100
AcDbLine
10
366
20
20
30
0
11
0
21
20
31
0
39
0
210
0
220
0
230
1
0
LINE
5
109
100
AcDbEntity
8
SK1
62
256
6
ByLayer
370
18
48
1
60
0
100
AcDbLine
10
-160
20
-18.98925
30
0
11
-159
21
-19.98925
31
0
39
0
210
0
220
0
230
1
0
LINE
5
10A
100
AcDbEntity
8
SK1
62
256
6
ByLayer
370
18
48
1
60
0
100
AcDbLine
10
-159
20
19.98925
30
0
11
-160
21
18.98925
31
0
39
0
210
0
220
0
230
1
0
LINE
5
10B
100
AcDbEntity
8
SK1
62
256
6
ByLayer
370
18
48
1
60
0
100
AcDbLine
10
0
20
19.98925
30
0
11
-159
21
19.98925
31
0
39
0
210
0
220
0
230
1
0
LINE
5
10C
100
AcDbEntity
8
SK1
62
256
6
ByLayer
370
18
48
1
60
0
100
AcDbLine
10
-159
20
-19.98925
30
0
11
0
21
-19.98925
31
0
39
0
210
0
220
0
230
1
0
LINE
5
10D
100
AcDbEntity
8
1
62
256
6
ByLayer
370
18
48
1
60
0
100
AcDbLine
10
368.324609
20
-12.899495
30
0
11
372.8
21
-12.899495
31
0
39
0
210
0
220
0
230
1
0
LINE
5
10E
100
AcDbEntity
8
1
62
256
6
ByLayer
370
18
48
1
60
0
100
AcDbLine
10
372.8
20
-6.899495
30
0
11
368.324609
21
-6.899495
31
0
39
0
210
0
220
0
230
1
0
LINE
5
10F
100
AcDbEntity
8
1
62
256
6
ByLayer
370
18
48
1
60
0
100
AcDbLine
10
373
20
-14.899495
30
0
11
378.4
21
-14.899495
31
0
39
0
210
0
220
0
230
1
0
LINE
5
110
100
AcDbEntity
8
1
62
256
6
ByLayer
370
18
48
1
60
0
100
AcDbLine
10
378.4
20
-4.899495
30
0
11
373
21
-4.899495
31
0
39
0
210
0
220
0
230
1
0
LINE
5
111
100
AcDbEntity
8
1
62
256
6
ByLayer
370
18
48
1
60
0
100
AcDbLine
10
367.32476
20
20
30
0
11
366.4
21
20
31
0
39
0
210
0
220
0
230
1
0
LINE
5
112
100
AcDbEntity
8
1
62
256
6
ByLayer
370
18
48
1
60
0
100
AcDbLine
10
366.4
20
-20
30
0
11
367.32476
21
-20
31
0
39
0
210
0
220
0
230
1
0
LINE
5
113
100
AcDbEntity
8
1
62
256
6
ByLayer
370
18
48
1
60
0
100
AcDbLine
10
367.552123
20
19.772637
30
0
11
367.32476
21
20
31
0
39
0
210
0
220
0
230
1
0
LINE
5
114
100
AcDbEntity
8
1
62
256
6
ByLayer
370
18
48
1
60
0
100
AcDbLine
10
367.32476
20
-20
30
0
11
367.552123
21
-19.772637
31
0
39
0
210
0
220
0
230
1
0
LINE
5
115
100
AcDbEntity
8
1
62
256
6
ByLayer
370
18
48
1
60
0
100
AcDbLine
10
368.324609
20
6.899495
30
0
11
372.8
21
6.899495
31
0
39
0
210
0
220
0
230
1
0
LINE
5
116
100
AcDbEntity
8
1
62
256
6
ByLayer
370
18
48
1
60
0
100
AcDbLine
10
372.8
20
12.899495
30
0
11
368.324609
21
12.899495
31
0
39
0
210
0
220
0
230
1
0
LINE
5
117
100
AcDbEntity
8
1
62
256
6
ByLayer
370
18
48
1
60
0
100
AcDbLine
10
373
20
4.899495
30
0
11
378.4
21
4.899495
31
0
39
0
210
0
220
0
230
1
0
LINE
5
118
100
AcDbEntity
8
1
62
256
6
ByLayer
370
18
48
1
60
0
100
AcDbLine
10
378.4
20
14.899495
30
0
11
373
21
14.899495
31
0
39
0
210
0
220
0
230
1
0
LINE
5
119
100
AcDbEntity
8
1
62
256
6
ByLayer
370
13
48
0.05
60
0
100
AcDbLine
10
-165.5
20
0
30
0
11
372.5
21
0
31
0
39
0
210
0
220
0
230
1
0
LINE
5
11A
100
AcDbEntity
8
SK2
62
256
6
ByLayer
370
18
48
1
60
0
100
AcDbLine
10
-170.25
20
-19.98925
30
0
11
-170.25
21
19.98925
31
0
39
0
210
0
220
0
230
1
0
LINE
5
11C
100
AcDbEntity
8
SK2
62
256
6
ByLayer
370
18
48
1
60
0
100
AcDbLine
10
-160.5875
20
19.98925
30
0
11
-172.25
21
19.98925
31
0
39
0
210
0
220
0
230
1
0
LINE
5
11D
100
AcDbEntity
8
SK2
62
256
6
ByLayer
370
18
48
1
60
0
100
AcDbLine
10
-160.5875
20
-19.98925
30
0
11
-172.25
21
-19.98925
31
0
39
0
210
0
220
0
230
1
0
LINE
5
11E
100
AcDbEntity
8
1
62
256
6
ByLayer
370
18
48
1
60
1
100
AcDbLine
10
-170.25
20
19.98925
30
0
11
-169.789216
21
16.489252
31
0
39
0
210
0
220
0
230
1
0
LINE
5
11F
100
AcDbEntity
8
1
62
256
6
ByLayer
370
18
48
1
60
1
100
AcDbLine
10
-169.789216
20
16.489252
30
0
11
-170.710784
21
16.489248
31
0
39
0
210
0
220
0
230
1
0
LINE
5
120
100
AcDbEntity
8
1
62
256
6
ByLayer
370
18
48
1
60
1
100
AcDbLine
10
-170.710784
20
16.489248
30
0
11
-170.25
21
19.98925
31
0
39
0
210
0
220
0
230
1
0
LINE
5
121
100
AcDbEntity
8
1
62
256
6
ByLayer
370
18
48
1
60
1
100
AcDbLine
10
-170.25
20
-19.98925
30
0
11
-170.710784
21
-16.489252
31
0
39
0
210
0
220
0
230
1
0
LINE
5
122
100
AcDbEntity
8
1
62
256
6
ByLayer
370
18
48
1
60
1
100
AcDbLine
10
-170.710784
20
-16.489252
30
0
11
-169.789216
21
-16.489248
31
0
39
0
210
0
220
0
230
1
0
LINE
5
123
100
AcDbEntity
8
1
62
256
6
ByLayer
370
18
48
1
60
1
100
AcDbLine
10
-169.789216
20
-16.489248
30
0
11
-170.25
21
-19.98925
31
0
39
0
210
0
220
0
230
1
0
LINE
5
124
100
AcDbEntity
8
SK2
62
256
6
ByLayer
370
13
48
1
60
0
100
AcDbLine
10
392.123181
20
-20
30
0
11
392.123181
21
20
31
0
39
0
210
0
220
0
230
1
0
LINE
5
125
100
AcDbEntity
8
SK2
62
256
6
ByLayer
370
13
48
1
60
0
100
AcDbLine
10
368.91226
20
20
30
0
11
394.123181
21
20
31
0
39
0
210
0
220
0
230
1
0
LINE
5
126
100
AcDbEntity
8
SK2
62
256
6
ByLayer
370
13
48
1
60
0
100
AcDbLine
10
368.91226
20
-20
30
0
11
394.123181
21
-20
31
0
39
0
210
0
220
0
230
1
0
LINE
5
127
100
AcDbEntity
8
1
62
256
6
ByLayer
370
18
48
1
60
1
100
AcDbLine
10
392.123181
20
20
30
0
11
392.583964
21
16.500002
31
0
39
0
210
0
220
0
230
1
0
LINE
5
128
100
AcDbEntity
8
1
62
256
6
ByLayer
370
18
48
1
60
1
100
AcDbLine
10
392.583964
20
16.500002
30
0
11
391.662397
21
16.499998
31
0
39
0
210
0
220
0
230
1
0
LINE
5
129
100
AcDbEntity
8
1
62
256
6
ByLayer
370
18
48
1
60
1
100
AcDbLine
10
391.662397
20
16.499998
30
0
11
392.123181
21
20
31
0
39
0
210
0
220
0
230
1
0
LINE
5
12A
100
AcDbEntity
8
1
62
256
6
ByLayer
370
18
48
1
60
1
100
AcDbLine
10
392.123181
20
-20
30
0
11
391.662397
21
-16.500002
31
0
39
0
210
0
220
0
230
1
0
LINE
5
12B
100
AcDbEntity
8
1
62
256
6
ByLayer
370
18
48
1
60
1
100
AcDbLine
10
391.662397
20
-16.500002
30
0
11
392.583964
21
-16.499998
31
0
39
0
210
0
220
0
230
1
0
LINE
5
12C
100
AcDbEntity
8
1
62
256
6
ByLayer
370
18
48
1
60
1
100
AcDbLine
10
392.583964
20
-16.499998
30
0
11
392.123181
21
-20
31
0
39
0
210
0
220
0
230
1
0
LINE
5
18C
100
AcDbEntity
8
1
62
256
6
ByLayer
370
18
48
1
60
1
100
AcDbLine
10
-170.25
20
19.98925
30
0
11
-169.789216
21
16.489252
31
0
39
0
210
0
220
0
230
1
0
LINE
5
18D
100
AcDbEntity
8
1
62
256
6
ByLayer
370
18
48
1
60
1
100
AcDbLine
10
-169.789216
20
16.489252
30
0
11
-170.710784
21
16.489248
31
0
39
0
210
0
220
0
230
1
0
LINE
5
18E
100
AcDbEntity
8
1
62
256
6
ByLayer
370
18
48
1
60
1
100
AcDbLine
10
-170.710784
20
16.489248
30
0
11
-170.25
21
19.98925
31
0
39
0
210
0
220
0
230
1
0
LINE
5
190
100
AcDbEntity
8
1
62
256
6
ByLayer
370
18
48
1
60
1
100
AcDbLine
10
-170.25
20
-19.98925
30
0
11
-170.710784
21
-16.489252
31
0
39
0
210
0
220
0
230
1
0
LINE
5
191
100
AcDbEntity
8
1
62
256
6
ByLayer
370
18
48
1
60
1
100
AcDbLine
10
-170.710784
20
-16.489252
30
0
11
-169.789216
21
-16.489248
31
0
39
0
210
0
220
0
230
1
0
LINE
5
192
100
AcDbEntity
8
1
62
256
6
ByLayer
370
18
48
1
60
1
100
AcDbLine
10
-169.789216
20
-16.489248
30
0
11
-170.25
21
-19.98925
31
0
39
0
210
0
220
0
230
1
0
LINE
5
196
100
AcDbEntity
8
1
62
256
6
ByLayer
370
18
48
1
60
1
100
AcDbLine
10
392.123181
20
20
30
0
11
392.583964
21
16.500002
31
0
39
0
210
0
220
0
230
1
0
LINE
5
197
100
AcDbEntity
8
1
62
256
6
ByLayer
370
18
48
1
60
1
100
AcDbLine
10
392.583964
20
16.500002
30
0
11
391.662397
21
16.499998
31
0
39
0
210
0
220
0
230
1
0
LINE
5
198
100
AcDbEntity
8
1
62
256
6
ByLayer
370
18
48
1
60
1
100
AcDbLine
10
391.662397
20
16.499998
30
0
11
392.123181
21
20
31
0
39
0
210
0
220
0
230
1
0
LINE
5
19A
100
AcDbEntity
8
1
62
256
6
ByLayer
370
18
48
1
60
1
100
AcDbLine
10
392.123181
20
-20
30
0
11
391.662397
21
-16.500002
31
0
39
0
210
0
220
0
230
1
0
LINE
5
19B
100
AcDbEntity
8
1
62
256
6
ByLayer
370
18
48
1
60
1
100
AcDbLine
10
391.662397
20
-16.500002
30
0
11
392.583964
21
-16.499998
31
0
39
0
210
0
220
0
230
1
0
LINE
5
19C
100
AcDbEntity
8
1
62
256
6
ByLayer
370
18
48
1
60
1
100
AcDbLine
10
392.583964
20
-16.499998
30
0
11
392.123181
21
-20
31
0
39
0
210
0
220
0
230
1
0
MTEXT
5
188
100
AcDbEntity
8
SK2
62
256
6
ByLayer
370
18
48
1
60
0
100
AcDbMText
10
-171.814634
20
-4.714889
30
0
210
0
220
0
230
1
1
%%c
40
3.5
41
0
44
1.084337
50
90
71
7
72
5
7
iso_b_vert
0
MTEXT
5
18B
100
AcDbEntity
8
SK2
62
256
6
ByLayer
370
18
48
1
60
0
100
AcDbMText
10
-171.814634
20
2.257767
30
0
210
0
220
0
230
1
1
\W0.7361;40
40
3.5
41
0
44
1.084337
50
90
71
7
72
5
7
iso_b_vert
0
MTEXT
5
194
100
AcDbEntity
8
SK2
62
256
6
ByLayer
370
18
48
1
60
0
100
AcDbMText
10
390.558547
20
-4.714889
30
0
210
0
220
0
230
1
1
%%c
40
3.5
41
0
44
1.084337
50
90
71
7
72
5
7
iso_b_vert
0
MTEXT
5
195
100
AcDbEntity
8
SK2
62
256
6
ByLayer
370
18
48
1
60
0
100
AcDbMText
10
390.558547
20
2.257767
30
0
210
0
220
0
230
1
1
\W0.7361;40
40
3.5
41
0
44
1.084337
50
90
71
7
72
5
7
iso_b_vert
0
MTEXT
5
19E
100
AcDbEntity
8
SK6
62
256
6
ByLayer
370
18
48
1
60
0
100
AcDbMText
10
86.93096
20
-56.217366
30
0
210
0
220
0
230
1
1
\W0.7845;HT30D-CY40 528-40
40
3.5
41
0
44
1.084337
50
0
71
7
72
5
7
iso_b_vert
0
HATCH
5
18F
100
AcDbEntity
8
SK2
62
256
6
ByLayer
370
13
48
1
60
0
100
AcDbHatch
10
0
20
0
30
0
210
0
220
0
230
1
2
ANSI31
70
0
71
0
91
1
92
5
93
3
72
1
10
-170.25
20
19.98925
11
-169.789216258447
21
16.4892516925532
72
1
10
-169.789216258447
20
16.4892516925532
11
-170.710783741553
21
16.4892483074468
72
1
10
-170.710783741553
20
16.4892483074468
11
-170.25
21
19.98925
97
0
75
0
76
1
52
0
41
0.0062
77
0
78
1
53
45
43
0
44
0
45
-0.0139193969876572
46
0.0139193969876572
79
0
47
0
98
1
10
0
20
0
0
HATCH
5
193
100
AcDbEntity
8
SK2
62
256
6
ByLayer
370
13
48
1
60
0
100
AcDbHatch
10
0
20
0
30
0
210
0
220
0
230
1
2
ANSI31
70
0
71
0
91
1
92
5
93
3
72
1
10
-170.25
20
-19.98925
11
-170.710783741553
21
-16.4892516925532
72
1
10
-170.710783741553
20
-16.4892516925532
11
-169.789216258447
21
-16.4892483074468
72
1
10
-169.789216258447
20
-16.4892483074468
11
-170.25
21
-19.98925
97
0
75
0
76
1
52
0
41
0.0062
77
0
78
1
53
45
43
0
44
0
45
-0.0139193969876572
46
0.0139193969876572
79
0
47
0
98
1
10
0
20
0
0
HATCH
5
199
100
AcDbEntity
8
SK2
62
256
6
ByLayer
370
13
48
1
60
0
100
AcDbHatch
10
0
20
0
30
0
210
0
220
0
230
1
2
ANSI31
70
0
71
0
91
1
92
5
93
3
72
1
10
392.123180566759
20
20
11
392.583964308312
21
16.5000016925532
72
1
10
392.583964308312
20
16.5000016925532
11
391.662396825206
21
16.4999983074468
72
1
10
391.662396825206
20
16.4999983074468
11
392.123180566759
21
20
97
0
75
0
76
1
52
0
41
0.0062
77
0
78
1
53
45
43
0
44
0
45
-0.0139193969876572
46
0.0139193969876572
79
0
47
0
98
1
10
0
20
0
0
HATCH
5
19D
100
AcDbEntity
8
SK2
62
256
6
ByLayer
370
13
48
1
60
0
100
AcDbHatch
10
0
20
0
30
0
210
0
220
0
230
1
2
ANSI31
70
0
71
0
91
1
92
5
93
3
72
1
10
392.123180566759
20
-20
11
391.662396825206
21
-16.5000016925532
72
1
10
391.662396825206
20
-16.5000016925532
11
392.583964308312
21
-16.4999983074468
72
1
10
392.583964308312
20
-16.4999983074468
11
392.123180566759
21
-20
97
0
75
0
76
1
52
0
41
0.0062
77
0
78
1
53
45
43
0
44
0
45
-0.0139193969876572
46
0.0139193969876572
79
0
47
0
98
1
10
0
20
0
0
DIMENSION
5
1A1
100
AcDbEntity
8
SK2
62
256
6
ByLayer
370
18
48
1
60
0
100
AcDbDimension
2
_U0
10
120
20
-33.75
30
0
11
244
21
-33.75
31
0
70
32
71
1
72
1
41
1
210
0
220
0
230
1
3
Standard
100
AcDbAlignedDimension
13
368
23
20
33
0
14
120
24
-20
34
0
50
0
100
AcDbRotatedDimension
1001
ACAD
1000
DSTYLE
1002
{
1070
   371
1070
    13
1070
   372
1070
    13
1070
   170
1070
     0
1070
   144
1040
1.0
1070
   277
1070
     2
1070
   284
1070
     8
1070
   278
1070
    46
1070
   146
1040
1.0
1070
   345
1005
16
1070
   347
1005
16
1070
   346
1005
16
1070
   344
1005
0
1070
   343
1005
0
1070
   172
1070
     1
1070
    76
1070
     0
1070
    75
1070
     0
1070
   282
1070
     0
1070
   281
1070
     0
1070
    71
1070
     0
1070
    74
1070
     0
1070
   279
1070
     0
1070
   173
1070
     1
1070
   340
1005
189
1070
   271
1070
     0
1070
   272
1070
     2
1070
    77
1070
     1
1070
    73
1070
     1
1070
   171
1070
     3
1070
   274
1070
     4
1070
   177
1070
     2
1070
   176
1070
     2
1070
   178
1070
     2
1070
    78
1070
     8
1070
    48
1040
-0.1
1070
    41
1040
3.5
1070
   147
1040
1.75
1070
    42
1040
1.5875
1070
    44
1040
2.0
1070
   140
1040
3.5
1002
}
1001
ACAD_DSTYLE_DIM_LINETYPE
1070
   380
1005
16
1001
ACAD_DSTYLE_DIM_EXT1_LINETYPE
1070
   381
1005
16
1001
ACAD_DSTYLE_DIM_EXT2_LINETYPE
1070
   382
1005
16
0
DIMENSION
5
1BB
100
AcDbEntity
8
SK2
62
256
6
ByLayer
370
18
48
1
60
0
100
AcDbDimension
2
_U1
10
0
20
-43.75
30
0
11
184
21
-43.75
31
0
70
32
71
1
72
1
41
1
210
0
220
0
230
1
3
Standard
100
AcDbAlignedDimension
13
368
23
20
33
0
14
0
24
-20
34
0
50
0
100
AcDbRotatedDimension
1001
ACAD
1000
DSTYLE
1002
{
1070
   371
1070
    13
1070
   372
1070
    13
1070
   170
1070
     0
1070
   144
1040
1.0
1070
   277
1070
     2
1070
   284
1070
     8
1070
   278
1070
    46
1070
   146
1040
1.0
1070
   345
1005
16
1070
   347
1005
16
1070
   346
1005
16
1070
   344
1005
0
1070
   343
1005
0
1070
   172
1070
     1
1070
    76
1070
     0
1070
    75
1070
     0
1070
   282
1070
     0
1070
   281
1070
     0
1070
    71
1070
     0
1070
    74
1070
     0
1070
   279
1070
     0
1070
   173
1070
     1
1070
   340
1005
189
1070
   271
1070
     2
1070
   272
1070
     2
1070
    77
1070
     1
1070
    73
1070
     1
1070
   171
1070
     3
1070
   274
1070
     4
1070
   177
1070
     2
1070
   176
1070
     2
1070
   178
1070
     2
1070
    78
1070
     8
1070
    48
1040
-0.1
1070
    41
1040
3.5
1070
   147
1040
1.75
1070
    42
1040
1.5875
1070
    44
1040
2.0
1070
   140
1040
3.5
1002
}
1001
ACAD_DSTYLE_DIM_LINETYPE
1070
   380
1005
16
1001
ACAD_DSTYLE_DIM_EXT1_LINETYPE
1070
   381
1005
16
1001
ACAD_DSTYLE_DIM_EXT2_LINETYPE
1070
   382
1005
16
0
DIMENSION
5
1D4
100
AcDbEntity
8
SK2
62
256
6
ByLayer
370
18
48
1
60
0
100
AcDbDimension
2
_U2
10
368
20
30.25
30
0
11
104
21
30.25
31
0
70
32
71
1
72
1
41
1
210
0
220
0
230
1
3
Standard
100
AcDbAlignedDimension
13
-160
23
-10.55
33
0
14
368
24
-10.55
34
0
50
0
100
AcDbRotatedDimension
1001
ACAD
1000
DSTYLE
1002
{
1070
   371
1070
    13
1070
   372
1070
    13
1070
   170
1070
     0
1070
   144
1040
1.0
1070
   277
1070
     2
1070
   284
1070
     8
1070
   278
1070
    46
1070
   146
1040
1.0
1070
   345
1005
16
1070
   347
1005
16
1070
   346
1005
16
1070
   344
1005
0
1070
   343
1005
0
1070
   172
1070
     1
1070
    76
1070
     0
1070
    75
1070
     0
1070
   282
1070
     0
1070
   281
1070
     0
1070
    71
1070
     0
1070
    74
1070
     0
1070
   279
1070
     0
1070
   173
1070
     1
1070
   340
1005
189
1070
   271
1070
     2
1070
   272
1070
     2
1070
    77
1070
     1
1070
    73
1070
     1
1070
   171
1070
     3
1070
   274
1070
     4
1070
   177
1070
     2
1070
   176
1070
     2
1070
   178
1070
     2
1070
    78
1070
     8
1070
    48
1040
-0.1
1070
    41
1040
3.5
1070
   147
1040
1.75
1070
    42
1040
1.5875
1070
    44
1040
2.0
1070
   140
1040
3.5
1002
}
1001
ACAD_DSTYLE_DIM_LINETYPE
1070
   380
1005
16
1001
ACAD_DSTYLE_DIM_EXT1_LINETYPE
1070
   381
1005
16
1001
ACAD_DSTYLE_DIM_EXT2_LINETYPE
1070
   382
1005
16
0
ENDSEC
0
SECTION
2
OBJECTS
0
DICTIONARY
5
25c
330
0
100
AcDbDictionary
280
0
281
1
3
ACAD_GROUP
350
25d
3
ACAD_MLINESTYLE
350
25e
0
DICTIONARY
5
25d
330
0
100
AcDbDictionary
280
0
281
1
0
DICTIONARY
5
25e
330
0
100
AcDbDictionary
280
0
281
1
3
Standard
350
18
0
MLINESTYLE
5
18
330
25e
100
AcDbMlineStyle
2
Standard
70
0
3

62
256
51
90
52
90
71
2
49
-0.5
62
256
6
ByLayer
49
0.5
62
256
6
ByLayer
0
RASTERVARIABLES
5
24a
330

100
AcDbRasterVariables
90
0
70
1
71
1
72
1
0
ENDSEC
0
EOF
