0
SECTION
2
HEADER
9
$ACADVER
1
AC1015
9
$DWGCODEPAGE
3
ANSI_1252
9
$HANDSEED
5
2a0
9
$ANGBASE
50
0
9
$ANGDIR
70
0
9
$ATTMODE
70
1
9
$AUNITS
70
0
9
$AUPREC
70
0
9
$CECOLOR
62
256
9
$CELTSCALE
40
1
9
$CELTYPE
6
ByLayer
9
$CELWEIGHT
370
18
9
$CLAYER
8
0
9
$CMLJUST
70
0
9
$CMLSCALE
40
1
9
$CMLSTYLE
2
Standard
9
$DIMSTYLE
2
Standard
9
$TEXTSIZE
40
0.2
9
$TEXTSTYLE
7
Standard
9
$LUNITS
70
2
9
$LUPREC
70
4
9
$EXTNAMES
290
1
9
$INSUNITS
70
4
9
$LTSCALE
40
1
9
$LWDISPLAY
290
1
9
$PDMODE
70
0
9
$PDSIZE
40
0
9
$PLINEGEN
70
0
0
ENDSEC
0
SECTION
2
CLASSES
0
CLASS
1
RASTERVARIABLES
2
AcDbRasterVariables
3
ISM
90
0
280
0
281
0
0
ENDSEC
0
SECTION
2
TABLES
0
TABLE
2
VPORT
5
296
100
AcDbSymbolTable
0
VPORT
5
1
100
AcDbSymbolTableRecord
100
AcDbViewportTableRecord
2
*Active
70
0
10
0
20
0
11
1
21
1
12
-1
22
1
13
0
23
0
14
0.5
24
0.5
15
10
25
10
16
0
26
0
36
1
17
0
27
0
37
0
0
ENDTAB
0
TABLE
2
LTYPE
5
297
100
AcDbSymbolTable
0
LTYPE
5
14
100
AcDbSymbolTableRecord
100
AcDbLinetypeTableRecord
70
0
2
ByBlock
3

72
65
73
0
40
0
0
LTYPE
5
15
100
AcDbSymbolTableRecord
100
AcDbLinetypeTableRecord
70
0
2
ByLayer
3

72
65
73
0
40
0
0
LTYPE
5
16
100
AcDbSymbolTableRecord
100
AcDbLinetypeTableRecord
70
0
2
Continuous
3
Solid line
72
65
73
0
40
0
0
LTYPE
5
6E
100
AcDbSymbolTableRecord
100
AcDbLinetypeTableRecord
70
0
2
CENTER
3
____ _ ____ _ ____ _ ____
72
65
73
4
40
47.5
49
22
74
0
49
-8.5
74
0
49
8.5
74
0
49
-8.5
74
0
0
LTYPE
5
6F
100
AcDbSymbolTableRecord
100
AcDbLinetypeTableRecord
70
0
2
DASHED
3
__ __ __ __ __ __ __ __ __
72
65
73
2
40
25.72
49
12.86
74
0
49
-12.86
74
0
0
ENDTAB
0
TABLE
2
LAYER
5
298
100
AcDbSymbolTable
0
LAYER
5
10
100
AcDbSymbolTableRecord
100
AcDbLayerTableRecord
2
0
70
0
62
7
6
Continuous
290
1
370
-3
390
0
0
LAYER
5
71
100
AcDbSymbolTableRecord
100
AcDbLayerTableRecord
2
2
70
0
62
7
6
Continuous
290
1
370
-3
390
0
0
LAYER
5
99
100
AcDbSymbolTableRecord
100
AcDbLayerTableRecord
2
80
70
0
62
-6
6
Continuous
290
1
370
-3
390
0
0
LAYER
5
9B
100
AcDbSymbolTableRecord
100
AcDbLayerTableRecord
2
81
70
0
62
-3
6
Continuous
290
1
370
-3
390
0
0
LAYER
5
9E
100
AcDbSymbolTableRecord
100
AcDbLayerTableRecord
2
1
70
0
62
4
6
Continuous
290
1
370
-3
390
0
0
LAYER
5
AA
100
AcDbSymbolTableRecord
100
AcDbLayerTableRecord
2
4
70
0
62
-2
6
CENTER
290
1
370
-3
390
0
0
LAYER
5
1C1
100
AcDbSymbolTableRecord
100
AcDbLayerTableRecord
2
Defpoints
70
0
62
7
6
Continuous
290
0
370
-3
390
0
0
LAYER
5
282
100
AcDbSymbolTableRecord
100
AcDbLayerTableRecord
2
SK4
70
0
62
2
6
CENTER
290
1
370
-3
390
0
0
LAYER
5
283
100
AcDbSymbolTableRecord
100
AcDbLayerTableRecord
2
SK1
70
0
62
4
6
Continuous
290
1
370
-3
390
0
0
LAYER
5
284
100
AcDbSymbolTableRecord
100
AcDbLayerTableRecord
2
SK2
70
0
62
7
6
Continuous
290
1
370
-3
390
0
0
LAYER
5
285
100
AcDbSymbolTableRecord
100
AcDbLayerTableRecord
2
SK6
70
0
62
5
6
Continuous
290
1
370
-3
390
0
0
ENDTAB
0
TABLE
2
STYLE
5
299
100
AcDbSymbolTable
0
STYLE
5
11
100
AcDbSymbolTableRecord
100
AcDbTextStyleTableRecord
2
Standard
3
txt
70
0
71
0
40
0
41
1
42
0
50
0
0
STYLE
5
1A6
100
AcDbSymbolTableRecord
100
AcDbTextStyleTableRecord
2
iso_b_vert
3
simplex.shx
70
0
71
0
40
0
41
1
42
0
50
0
0
STYLE
5
1A7
100
AcDbSymbolTableRecord
100
AcDbTextStyleTableRecord
2
DWGDirectTextStyle
3
simplex
70
0
71
0
40
0
41
1
42
0
50
0
0
ENDTAB
0
TABLE
2
DIMSTYLE
5
29a
100
AcDbSymbolTable
100
AcDbDimStyleTable
0
DIMSTYLE
105
27
100
AcDbSymbolTableRecord
100
AcDbDimStyleTableRecord
2
Standard
70
0
3
<>
41
0.18
42
0.0625
44
0.18
140
0.18
147
0.09
73
0
74
0
77
1
271
2
275
0
278
52
280
0
340
11
0
ENDTAB
0
TABLE
2
VIEW
5
29b
100
AcDbSymbolTable
0
ENDTAB
0
TABLE
2
UCS
5
29c
100
AcDbSymbolTable
0
ENDTAB
0
TABLE
2
APPID
5
29d
100
AcDbSymbolTable
0
APPID
5
12
100
AcDbSymbolTableRecord
100
AcDbRegAppTableRecord
2
ACAD
70
0
0
APPID
5
1BD
100
AcDbSymbolTableRecord
100
AcDbRegAppTableRecord
2
ACAD_DSTYLE_DIMBREAK
70
0
0
APPID
5
241
100
AcDbSymbolTableRecord
100
AcDbRegAppTableRecord
2
ACAD_DSTYLE_DIM_LINETYPE
70
0
0
APPID
5
242
100
AcDbSymbolTableRecord
100
AcDbRegAppTableRecord
2
ACAD_DSTYLE_DIM_EXT1_LINETYPE
70
0
0
APPID
5
243
100
AcDbSymbolTableRecord
100
AcDbRegAppTableRecord
2
ACAD_DSTYLE_DIM_EXT2_LINETYPE
70
0
0
APPID
5
27E
100
AcDbSymbolTableRecord
100
AcDbRegAppTableRecord
2
ACAD_MLEADERVER
70
0
0
ENDTAB
0
TABLE
2
BLOCK_RECORD
5
29e
100
AcDbSymbolTable
0
BLOCK_RECORD
5
1F
100
AcDbSymbolTableRecord
100
AcDbBlockTableRecord
2
*Model_Space
340
0
70
0
0
BLOCK_RECORD
5
1B
100
AcDbSymbolTableRecord
100
AcDbBlockTableRecord
2
*Paper_Space
340
0
70
0
0
BLOCK_RECORD
5
23
100
AcDbSymbolTableRecord
100
AcDbBlockTableRecord
2
*Paper_Space0
340
0
70
0
0
BLOCK_RECORD
5
1C2
100
AcDbSymbolTableRecord
100
AcDbBlockTableRecord
2
*D1
340
0
70
0
0
BLOCK_RECORD
5
1D0
100
AcDbSymbolTableRecord
100
AcDbBlockTableRecord
2
_U0
340
0
70
0
0
BLOCK_RECORD
5
1DC
100
AcDbSymbolTableRecord
100
AcDbBlockTableRecord
2
*D3
340
0
70
0
0
BLOCK_RECORD
5
1E8
100
AcDbSymbolTableRecord
100
AcDbBlockTableRecord
2
_U1
340
0
70
0
0
BLOCK_RECORD
5
1F5
100
AcDbSymbolTableRecord
100
AcDbBlockTableRecord
2
*D5
340
0
70
0
0
BLOCK_RECORD
5
201
100
AcDbSymbolTableRecord
100
AcDbBlockTableRecord
2
_U2
340
0
70
0
0
BLOCK_RECORD
5
20E
100
AcDbSymbolTableRecord
100
AcDbBlockTableRecord
2
*D7
340
0
70
0
0
BLOCK_RECORD
5
21A
100
AcDbSymbolTableRecord
100
AcDbBlockTableRecord
2
_U3
340
0
70
0
0
ENDTAB
0
ENDSEC
0
SECTION
2
BLOCKS
0
BLOCK
5
20
100
AcDbEntity
8
0
100
AcDbBlockBegin
2
*Model_Space
70
0
10
0
20
0
30
0
3
*Model_Space
0
ENDBLK
5
21
100
AcDbEntity
8
0
100
AcDbBlockEnd
0
BLOCK
5
1C
100
AcDbEntity
8
0
100
AcDbBlockBegin
2
*Paper_Space
70
0
10
0
20
0
30
0
3
*Paper_Space
0
ENDBLK
5
1D
100
AcDbEntity
8
0
100
AcDbBlockEnd
0
BLOCK
5
24
100
AcDbEntity
8
0
100
AcDbBlockBegin
2
*Paper_Space0
70
0
10
0
20
0
30
0
3
*Paper_Space0
0
ENDBLK
5
25
100
AcDbEntity
8
0
100
AcDbBlockEnd
0
BLOCK
5
1C3
100
AcDbEntity
8
0
100
AcDbBlockBegin
2
*D1
70
1
10
0
20
0
30
0
3
*D1
0
LINE
5
1C5
100
AcDbEntity
8
0
62
256
6
ByLayer
370
-2
48
1
60
0
100
AcDbLine
10
569.5875
20
0
30
0
11
594.123181
21
0
31
0
39
0
210
0
220
0
230
1
0
LINE
5
1C6
100
AcDbEntity
8
0
62
256
6
ByLayer
370
-2
48
1
60
0
100
AcDbLine
10
569.5875
20
10
30
0
11
594.123181
21
10
31
0
39
0
210
0
220
0
230
1
0
LINE
5
1C7
100
AcDbEntity
8
0
62
256
6
ByLayer
370
-2
48
1
60
0
100
AcDbLine
10
592.123181
20
10
30
0
11
592.123181
21
32.666667
31
0
39
0
210
0
220
0
230
1
0
LINE
5
1C8
100
AcDbEntity
8
0
62
256
6
ByLayer
370
-2
48
1
60
0
100
AcDbLine
10
592.123181
20
-3.5
30
0
11
592.123181
21
-7
31
0
39
0
210
0
220
0
230
1
0
LINE
5
1C9
100
AcDbEntity
8
0
62
256
6
ByLayer
370
-2
48
1
60
0
100
AcDbLine
10
592.123181
20
13.5
30
0
11
592.123181
21
17
31
0
39
0
210
0
220
0
230
1
0
SOLID
5
1CA
100
AcDbEntity
8
0
62
256
6
ByLayer
370
-1
48
1
60
0
100
AcDbTrace
10
592.706514
20
-3.5
30
0
11
591.539847
21
-3.5
31
0
12
592.123181
22
0
32
0
13
592.123181
23
0
33
0
39
0
210
0
220
0
230
1
0
SOLID
5
1CB
100
AcDbEntity
8
0
62
256
6
ByLayer
370
-1
48
1
60
0
100
AcDbTrace
10
591.539847
20
13.5
30
0
11
592.706514
21
13.5
31
0
12
592.123181
22
10
32
0
13
592.123181
23
10
33
0
39
0
210
0
220
0
230
1
0
MTEXT
5
1CC
100
AcDbEntity
8
0
62
256
6
ByLayer
370
18
48
1
60
0
100
AcDbMText
10
585.123181
20
24.833333
30
0
210
0
220
0
230
1
1
\A1;10
40
3.5
41
0
44
1
50
90
71
5
72
5
7
iso_b_vert
0
POINT
5
1CD
100
AcDbEntity
8
Defpoints
62
0
6
ByLayer
370
-1
48
1
60
0
100
AcDbPoint
10
568
20
0
30
0
39
0
210
0
220
0
230
1
50
360
0
POINT
5
1CE
100
AcDbEntity
8
Defpoints
62
0
6
ByLayer
370
-1
48
1
60
0
100
AcDbPoint
10
568
20
10
30
0
39
0
210
0
220
0
230
1
50
360
0
POINT
5
1CF
100
AcDbEntity
8
Defpoints
62
0
6
ByLayer
370
-1
48
1
60
0
100
AcDbPoint
10
592.123181
20
10
30
0
39
0
210
0
220
0
230
1
50
360
0
ENDBLK
5
1C4
100
AcDbEntity
8
0
100
AcDbBlockEnd
0
BLOCK
5
1D7
100
AcDbEntity
8
0
100
AcDbBlockBegin
2
_U0
70
0
10
0
20
0
30
0
3
_U0
0
MTEXT
5
1D1
100
AcDbEntity
8
SK2
62
256
6
ByLayer
370
18
48
1
60
0
100
AcDbMText
10
591.433547
20
15.1575
30
0
210
0
220
0
230
1
1
\W0.5321;10
40
3.5
41
0
44
1.084337
50
90
71
7
72
5
7
iso_b_vert
0
LINE
5
1D2
100
AcDbEntity
8
SK2
62
256
6
ByLayer
370
13
48
1
60
0
100
AcDbLine
10
569.5875
20
0
30
0
11
594.123181
21
0
31
0
39
0
210
0
220
0
230
1
0
LINE
5
1D3
100
AcDbEntity
8
SK2
62
256
6
ByLayer
370
13
48
1
60
0
100
AcDbLine
10
569.5875
20
10
30
0
11
594.123181
21
10
31
0
39
0
210
0
220
0
230
1
0
LINE
5
1D4
100
AcDbEntity
8
SK2
62
256
6
ByLayer
370
13
48
1
60
0
100
AcDbLine
10
592.123181
20
0
30
0
11
592.123181
21
18.306066
31
0
39
0
210
0
220
0
230
1
0
SOLID
5
1D5
100
AcDbEntity
8
SK2
62
256
6
ByLayer
370
18
48
1
60
0
100
AcDbTrace
10
592.123181
20
0
30
0
11
591.662397
21
3.499998
31
0
12
592.583964
22
3.500002
32
0
13
592.583964
23
3.500002
33
0
39
0
210
0
220
0
230
1
0
SOLID
5
1D6
100
AcDbEntity
8
SK2
62
256
6
ByLayer
370
18
48
1
60
0
100
AcDbTrace
10
592.123181
20
10
30
0
11
592.583964
21
6.500002
31
0
12
591.662397
22
6.499998
32
0
13
591.662397
23
6.499998
33
0
39
0
210
0
220
0
230
1
0
ENDBLK
5
1D8
100
AcDbEntity
8
0
100
AcDbBlockEnd
0
BLOCK
5
1DD
100
AcDbEntity
8
0
100
AcDbBlockBegin
2
*D3
70
1
10
0
20
0
30
0
3
*D3
0
LINE
5
1DF
100
AcDbEntity
8
0
62
256
6
ByLayer
370
-2
48
1
60
0
100
AcDbLine
10
568
20
28.4125
30
0
11
568
21
-45.75
31
0
39
0
210
0
220
0
230
1
0
LINE
5
1E0
100
AcDbEntity
8
0
62
256
6
ByLayer
370
-2
48
1
60
0
100
AcDbLine
10
180
20
-31.5875
30
0
11
180
21
-45.75
31
0
39
0
210
0
220
0
230
1
0
LINE
5
1E1
100
AcDbEntity
8
0
62
256
6
ByLayer
370
-2
48
1
60
0
100
AcDbLine
10
564.5
20
-43.75
30
0
11
183.5
21
-43.75
31
0
39
0
210
0
220
0
230
1
0
SOLID
5
1E2
100
AcDbEntity
8
0
62
256
6
ByLayer
370
-1
48
1
60
0
100
AcDbTrace
10
564.5
20
-44.333333
30
0
11
564.5
21
-43.166667
31
0
12
568
22
-43.75
32
0
13
568
23
-43.75
33
0
39
0
210
0
220
0
230
1
0
SOLID
5
1E3
100
AcDbEntity
8
0
62
256
6
ByLayer
370
-1
48
1
60
0
100
AcDbTrace
10
183.5
20
-43.166667
30
0
11
183.5
21
-44.333333
31
0
12
180
22
-43.75
32
0
13
180
23
-43.75
33
0
39
0
210
0
220
0
230
1
0
MTEXT
5
1E4
100
AcDbEntity
8
0
62
256
6
ByLayer
370
18
48
1
60
0
100
AcDbMText
10
374
20
-36.75
30
0
210
0
220
0
230
1
1
\A1;388
40
3.5
41
0
44
1
50
0
71
5
72
5
7
iso_b_vert
0
POINT
5
1E5
100
AcDbEntity
8
Defpoints
62
0
6
ByLayer
370
-1
48
1
60
0
100
AcDbPoint
10
568
20
30
30
0
39
0
210
0
220
0
230
1
50
360
0
POINT
5
1E6
100
AcDbEntity
8
Defpoints
62
0
6
ByLayer
370
-1
48
1
60
0
100
AcDbPoint
10
180
20
-30
30
0
39
0
210
0
220
0
230
1
50
360
0
POINT
5
1E7
100
AcDbEntity
8
Defpoints
62
0
6
ByLayer
370
-1
48
1
60
0
100
AcDbPoint
10
180
20
-43.75
30
0
39
0
210
0
220
0
230
1
50
360
0
ENDBLK
5
1DE
100
AcDbEntity
8
0
100
AcDbBlockEnd
0
BLOCK
5
1F0
100
AcDbEntity
8
0
100
AcDbBlockBegin
2
_U1
70
0
10
0
20
0
30
0
3
_U1
0
MTEXT
5
1E9
100
AcDbEntity
8
SK2
62
256
6
ByLayer
370
18
48
1
60
0
100
AcDbMText
10
365.086301
20
-42.717366
30
0
210
0
220
0
230
1
1
\W0.7621;OHN
40
3.5
41
0
44
1.084337
50
0
71
7
72
5
7
iso_b_vert
0
MTEXT
5
1EA
100
AcDbEntity
8
SK2
62
256
6
ByLayer
370
18
48
1
60
0
100
AcDbMText
10
376.4883
20
-42.717366
30
0
210
0
220
0
230
1
1
\W0.7138;388
40
3.5
41
0
44
1.084337
50
0
71
7
72
5
7
iso_b_vert
0
LINE
5
1EB
100
AcDbEntity
8
SK2
62
256
6
ByLayer
370
13
48
1
60
0
100
AcDbLine
10
568
20
28.4125
30
0
11
568
21
-45.75
31
0
39
0
210
0
220
0
230
1
0
LINE
5
1EC
100
AcDbEntity
8
SK2
62
256
6
ByLayer
370
13
48
1
60
0
100
AcDbLine
10
180
20
-31.5875
30
0
11
180
21
-45.75
31
0
39
0
210
0
220
0
230
1
0
LINE
5
1ED
100
AcDbEntity
8
SK2
62
256
6
ByLayer
370
13
48
1
60
0
100
AcDbLine
10
568
20
-43.75
30
0
11
180
21
-43.75
31
0
39
0
210
0
220
0
230
1
0
SOLID
5
1EE
100
AcDbEntity
8
SK2
62
256
6
ByLayer
370
18
48
1
60
0
100
AcDbTrace
10
568
20
-43.75
30
0
11
564.500002
21
-44.210784
31
0
12
564.499998
22
-43.289216
32
0
13
564.499998
23
-43.289216
33
0
39
0
210
0
220
0
230
1
0
SOLID
5
1EF
100
AcDbEntity
8
SK2
62
256
6
ByLayer
370
18
48
1
60
0
100
AcDbTrace
10
180
20
-43.75
30
0
11
183.499998
21
-43.289216
31
0
12
183.500002
22
-44.210784
32
0
13
183.500002
23
-44.210784
33
0
39
0
210
0
220
0
230
1
0
ENDBLK
5
1F1
100
AcDbEntity
8
0
100
AcDbBlockEnd
0
BLOCK
5
1F6
100
AcDbEntity
8
0
100
AcDbBlockBegin
2
*D5
70
1
10
0
20
0
30
0
3
*D5
0
LINE
5
1F8
100
AcDbEntity
8
0
62
256
6
ByLayer
370
-2
48
1
60
0
100
AcDbLine
10
568
20
28.4125
30
0
11
568
21
-55.75
31
0
39
0
210
0
220
0
230
1
0
LINE
5
1F9
100
AcDbEntity
8
0
62
256
6
ByLayer
370
-2
48
1
60
0
100
AcDbLine
10
0
20
-31.5875
30
0
11
0
21
-55.75
31
0
39
0
210
0
220
0
230
1
0
LINE
5
1FA
100
AcDbEntity
8
0
62
256
6
ByLayer
370
-2
48
1
60
0
100
AcDbLine
10
564.5
20
-53.75
30
0
11
3.5
21
-53.75
31
0
39
0
210
0
220
0
230
1
0
SOLID
5
1FB
100
AcDbEntity
8
0
62
256
6
ByLayer
370
-1
48
1
60
0
100
AcDbTrace
10
564.5
20
-54.333333
30
0
11
564.5
21
-53.166667
31
0
12
568
22
-53.75
32
0
13
568
23
-53.75
33
0
39
0
210
0
220
0
230
1
0
SOLID
5
1FC
100
AcDbEntity
8
0
62
256
6
ByLayer
370
-1
48
1
60
0
100
AcDbTrace
10
3.5
20
-53.166667
30
0
11
3.5
21
-54.333333
31
0
12
0
22
-53.75
32
0
13
0
23
-53.75
33
0
39
0
210
0
220
0
230
1
0
MTEXT
5
1FD
100
AcDbEntity
8
0
62
256
6
ByLayer
370
18
48
1
60
0
100
AcDbMText
10
284
20
-46.75
30
0
210
0
220
0
230
1
1
\A1;568
40
3.5
41
0
44
1
50
0
71
5
72
5
7
iso_b_vert
0
POINT
5
1FE
100
AcDbEntity
8
Defpoints
62
0
6
ByLayer
370
-1
48
1
60
0
100
AcDbPoint
10
568
20
30
30
0
39
0
210
0
220
0
230
1
50
360
0
POINT
5
1FF
100
AcDbEntity
8
Defpoints
62
0
6
ByLayer
370
-1
48
1
60
0
100
AcDbPoint
10
0
20
-30
30
0
39
0
210
0
220
0
230
1
50
360
0
POINT
5
200
100
AcDbEntity
8
Defpoints
62
0
6
ByLayer
370
-1
48
1
60
0
100
AcDbPoint
10
0
20
-53.75
30
0
39
0
210
0
220
0
230
1
50
360
0
ENDBLK
5
1F7
100
AcDbEntity
8
0
100
AcDbBlockEnd
0
BLOCK
5
209
100
AcDbEntity
8
0
100
AcDbBlockBegin
2
_U2
70
0
10
0
20
0
30
0
3
_U2
0
MTEXT
5
202
100
AcDbEntity
8
SK2
62
256
6
ByLayer
370
18
48
1
60
0
100
AcDbMText
10
274.879068
20
-52.717366
30
0
210
0
220
0
230
1
1
\W0.8176;OHX
40
3.5
41
0
44
1.084337
50
0
71
7
72
5
7
iso_b_vert
0
MTEXT
5
203
100
AcDbEntity
8
SK2
62
256
6
ByLayer
370
18
48
1
60
0
100
AcDbMText
10
286.695534
20
-52.717366
30
0
210
0
220
0
230
1
1
\W0.7138;568
40
3.5
41
0
44
1.084337
50
0
71
7
72
5
7
iso_b_vert
0
LINE
5
204
100
AcDbEntity
8
SK2
62
256
6
ByLayer
370
13
48
1
60
0
100
AcDbLine
10
568
20
28.4125
30
0
11
568
21
-55.75
31
0
39
0
210
0
220
0
230
1
0
LINE
5
205
100
AcDbEntity
8
SK2
62
256
6
ByLayer
370
13
48
1
60
0
100
AcDbLine
10
0
20
-31.5875
30
0
11
0
21
-55.75
31
0
39
0
210
0
220
0
230
1
0
LINE
5
206
100
AcDbEntity
8
SK2
62
256
6
ByLayer
370
13
48
1
60
0
100
AcDbLine
10
568
20
-53.75
30
0
11
0
21
-53.75
31
0
39
0
210
0
220
0
230
1
0
SOLID
5
207
100
AcDbEntity
8
SK2
62
256
6
ByLayer
370
18
48
1
60
0
100
AcDbTrace
10
568
20
-53.75
30
0
11
564.500002
21
-54.210784
31
0
12
564.499998
22
-53.289216
32
0
13
564.499998
23
-53.289216
33
0
39
0
210
0
220
0
230
1
0
SOLID
5
208
100
AcDbEntity
8
SK2
62
256
6
ByLayer
370
18
48
1
60
0
100
AcDbTrace
10
0
20
-53.75
30
0
11
3.499998
21
-53.289216
31
0
12
3.500002
22
-54.210784
32
0
13
3.500002
23
-54.210784
33
0
39
0
210
0
220
0
230
1
0
ENDBLK
5
20A
100
AcDbEntity
8
0
100
AcDbBlockEnd
0
BLOCK
5
20F
100
AcDbEntity
8
0
100
AcDbBlockBegin
2
*D7
70
1
10
0
20
0
30
0
3
*D7
0
LINE
5
211
100
AcDbEntity
8
0
62
256
6
ByLayer
370
-2
48
1
60
0
100
AcDbLine
10
-240
20
-11.7125
30
0
11
-240
21
42.25
31
0
39
0
210
0
220
0
230
1
0
LINE
5
212
100
AcDbEntity
8
0
62
256
6
ByLayer
370
-2
48
1
60
0
100
AcDbLine
10
568
20
-11.7125
30
0
11
568
21
42.25
31
0
39
0
210
0
220
0
230
1
0
LINE
5
213
100
AcDbEntity
8
0
62
256
6
ByLayer
370
-2
48
1
60
0
100
AcDbLine
10
-236.5
20
40.25
30
0
11
564.5
21
40.25
31
0
39
0
210
0
220
0
230
1
0
SOLID
5
214
100
AcDbEntity
8
0
62
256
6
ByLayer
370
-1
48
1
60
0
100
AcDbTrace
10
-236.5
20
40.833333
30
0
11
-236.5
21
39.666667
31
0
12
-240
22
40.25
32
0
13
-240
23
40.25
33
0
39
0
210
0
220
0
230
1
0
SOLID
5
215
100
AcDbEntity
8
0
62
256
6
ByLayer
370
-1
48
1
60
0
100
AcDbTrace
10
564.5
20
39.666667
30
0
11
564.5
21
40.833333
31
0
12
568
22
40.25
32
0
13
568
23
40.25
33
0
39
0
210
0
220
0
230
1
0
MTEXT
5
216
100
AcDbEntity
8
0
62
256
6
ByLayer
370
18
48
1
60
0
100
AcDbMText
10
164
20
47.25
30
0
210
0
220
0
230
1
1
\A1;808
40
3.5
41
0
44
1
50
0
71
5
72
5
7
iso_b_vert
0
POINT
5
217
100
AcDbEntity
8
Defpoints
62
0
6
ByLayer
370
-1
48
1
60
0
100
AcDbPoint
10
-240
20
-13.3
30
0
39
0
210
0
220
0
230
1
50
360
0
POINT
5
218
100
AcDbEntity
8
Defpoints
62
0
6
ByLayer
370
-1
48
1
60
0
100
AcDbPoint
10
568
20
-13.3
30
0
39
0
210
0
220
0
230
1
50
360
0
POINT
5
219
100
AcDbEntity
8
Defpoints
62
0
6
ByLayer
370
-1
48
1
60
0
100
AcDbPoint
10
568
20
40.25
30
0
39
0
210
0
220
0
230
1
50
360
0
ENDBLK
5
210
100
AcDbEntity
8
0
100
AcDbBlockEnd
0
BLOCK
5
221
100
AcDbEntity
8
0
100
AcDbBlockBegin
2
_U3
70
0
10
0
20
0
30
0
3
_U3
0
MTEXT
5
21B
100
AcDbEntity
8
SK2
62
256
6
ByLayer
370
18
48
1
60
0
100
AcDbMText
10
160.787301
20
41.282634
30
0
210
0
220
0
230
1
1
\W0.7138;808
40
3.5
41
0
44
1.084337
50
0
71
7
72
5
7
iso_b_vert
0
LINE
5
21C
100
AcDbEntity
8
SK2
62
256
6
ByLayer
370
13
48
1
60
0
100
AcDbLine
10
-240
20
-11.7125
30
0
11
-240
21
42.25
31
0
39
0
210
0
220
0
230
1
0
LINE
5
21D
100
AcDbEntity
8
SK2
62
256
6
ByLayer
370
13
48
1
60
0
100
AcDbLine
10
568
20
-11.7125
30
0
11
568
21
42.25
31
0
39
0
210
0
220
0
230
1
0
LINE
5
21E
100
AcDbEntity
8
SK2
62
256
6
ByLayer
370
13
48
1
60
0
100
AcDbLine
10
-240
20
40.25
30
0
11
568
21
40.25
31
0
39
0
210
0
220
0
230
1
0
SOLID
5
21F
100
AcDbEntity
8
SK2
62
256
6
ByLayer
370
18
48
1
60
0
100
AcDbTrace
10
-240
20
40.25
30
0
11
-236.500002
21
40.710784
31
0
12
-236.499998
22
39.789216
32
0
13
-236.499998
23
39.789216
33
0
39
0
210
0
220
0
230
1
0
SOLID
5
220
100
AcDbEntity
8
SK2
62
256
6
ByLayer
370
18
48
1
60
0
100
AcDbTrace
10
568
20
40.25
30
0
11
564.500002
21
39.789216
31
0
12
564.499998
22
40.710784
32
0
13
564.499998
23
40.710784
33
0
39
0
210
0
220
0
230
1
0
ENDBLK
5
222
100
AcDbEntity
8
0
100
AcDbBlockEnd
0
ENDSEC
0
SECTION
2
ENTITIES
0
ARC
5
141
100
AcDbEntity
8
1
62
256
6
ByLayer
370
18
48
1
60
0
100
AcDbCircle
39
0
10
572.8
20
-3.099495
30
0
40
0.2
210
0
220
0
230
1
100
AcDbArc
50
0
51
90
0
ARC
5
142
100
AcDbEntity
8
1
62
256
6
ByLayer
370
18
48
1
60
0
100
AcDbCircle
39
0
10
572.8
20
3.300505
30
0
40
0.2
210
0
220
0
230
1
100
AcDbArc
50
270
51
0
0
ARC
5
143
100
AcDbEntity
8
1
62
256
6
ByLayer
370
18
48
1
60
0
100
AcDbCircle
39
0
10
578.4
20
-4.299495
30
0
40
0.6
210
0
220
0
230
1
100
AcDbArc
50
270
51
0
0
ARC
5
144
100
AcDbEntity
8
1
62
256
6
ByLayer
370
18
48
1
60
0
100
AcDbCircle
39
0
10
578.4
20
4.500505
30
0
40
0.6
210
0
220
0
230
1
100
AcDbArc
50
0
51
90
0
ARC
5
145
100
AcDbEntity
8
1
62
256
6
ByLayer
370
18
48
1
60
0
100
AcDbCircle
39
0
10
566.5
20
-10.5
30
0
40
0.5
210
0
220
0
230
1
100
AcDbArc
50
90
51
180
0
ARC
5
146
100
AcDbEntity
8
1
62
256
6
ByLayer
370
18
48
1
60
0
100
AcDbCircle
39
0
10
564.4
20
-29.6
30
0
40
0.4
210
0
220
0
230
1
100
AcDbArc
50
180
51
270
0
ARC
5
147
100
AcDbEntity
8
1
62
256
6
ByLayer
370
18
48
1
60
0
100
AcDbCircle
39
0
10
564.4
20
29.6
30
0
40
0.4
210
0
220
0
230
1
100
AcDbArc
50
90
51
180
0
ARC
5
148
100
AcDbEntity
8
1
62
256
6
ByLayer
370
18
48
1
60
0
100
AcDbCircle
39
0
10
572.8
20
16.699495
30
0
40
0.2
210
0
220
0
230
1
100
AcDbArc
50
0
51
90
0
ARC
5
149
100
AcDbEntity
8
1
62
256
6
ByLayer
370
18
48
1
60
0
100
AcDbCircle
39
0
10
572.8
20
23.099495
30
0
40
0.2
210
0
220
0
230
1
100
AcDbArc
50
270
51
0
0
ARC
5
14A
100
AcDbEntity
8
1
62
256
6
ByLayer
370
18
48
1
60
0
100
AcDbCircle
39
0
10
578.4
20
15.499495
30
0
40
0.6
210
0
220
0
230
1
100
AcDbArc
50
270
51
0
0
ARC
5
14B
100
AcDbEntity
8
1
62
256
6
ByLayer
370
18
48
1
60
0
100
AcDbCircle
39
0
10
578.4
20
24.299495
30
0
40
0.6
210
0
220
0
230
1
100
AcDbArc
50
0
51
90
0
ELLIPSE
5
14C
100
AcDbEntity
8
1
62
256
6
ByLayer
370
13
48
1
60
0
100
AcDbEllipse
10
566.5
20
28.9875
30
0
11
-0.5
21
6.12303176911189E-17
31
0
210
0
220
0
230
1
40
0.92622
41
0.528297440320077
42
1.5707963267949
0
POINT
5
70
100
AcDbEntity
8
2
62
256
6
ByLayer
370
18
48
1
60
0
100
AcDbPoint
10
573
20
19.899495
30
0
39
0
210
0
220
0
230
1
50
360
0
POINT
5
72
100
AcDbEntity
8
2
62
256
6
ByLayer
370
18
48
1
60
0
100
AcDbPoint
10
569
20
0.100505
30
0
39
0
210
0
220
0
230
1
50
360
0
POINT
5
73
100
AcDbEntity
8
2
62
256
6
ByLayer
370
18
48
1
60
0
100
AcDbPoint
10
569
20
19.899495
30
0
39
0
210
0
220
0
230
1
50
360
0
POINT
5
74
100
AcDbEntity
8
2
62
256
6
ByLayer
370
18
48
1
60
0
100
AcDbPoint
10
527.5
20
21
30
0
39
0
210
0
220
0
230
1
50
360
0
POINT
5
75
100
AcDbEntity
8
2
62
256
6
ByLayer
370
18
48
1
60
0
100
AcDbPoint
10
553
20
0
30
0
39
0
210
0
220
0
230
1
50
360
0
POINT
5
76
100
AcDbEntity
8
2
62
256
6
ByLayer
370
18
48
1
60
0
100
AcDbPoint
10
546.5
20
0
30
0
39
0
210
0
220
0
230
1
50
360
0
POINT
5
77
100
AcDbEntity
8
2
62
256
6
ByLayer
370
18
48
1
60
0
100
AcDbPoint
10
573
20
19.899495
30
0
39
0
210
0
220
0
230
1
50
360
0
POINT
5
78
100
AcDbEntity
8
2
62
256
6
ByLayer
370
18
48
1
60
0
100
AcDbPoint
10
565.37476
20
10
30
0
39
0
210
0
220
0
230
1
50
360
0
POINT
5
79
100
AcDbEntity
8
2
62
256
6
ByLayer
370
18
48
1
60
0
100
AcDbPoint
10
430
20
0
30
0
39
0
210
0
220
0
230
1
50
360
0
POINT
5
7A
100
AcDbEntity
8
2
62
256
6
ByLayer
370
18
48
1
60
0
100
AcDbPoint
10
553
20
0
30
0
39
0
210
0
220
0
230
1
50
360
0
POINT
5
7B
100
AcDbEntity
8
2
62
256
6
ByLayer
370
18
48
1
60
0
100
AcDbPoint
10
491.5
20
0
30
0
39
0
210
0
220
0
230
1
50
360
0
POINT
5
7C
100
AcDbEntity
8
2
62
256
6
ByLayer
370
18
48
1
60
0
100
AcDbPoint
10
564
20
0
30
0
39
0
210
0
220
0
230
1
50
360
0
POINT
5
7D
100
AcDbEntity
8
2
62
256
6
ByLayer
370
18
48
1
60
0
100
AcDbPoint
10
537
20
0
30
0
39
0
210
0
220
0
230
1
50
360
0
POINT
5
7E
100
AcDbEntity
8
2
62
256
6
ByLayer
370
18
48
1
60
0
100
AcDbPoint
10
565.37476
20
10
30
0
39
0
210
0
220
0
230
1
50
360
0
POINT
5
7F
100
AcDbEntity
8
2
62
256
6
ByLayer
370
18
48
1
60
0
100
AcDbPoint
10
568
20
10
30
0
39
0
210
0
220
0
230
1
50
360
0
POINT
5
80
100
AcDbEntity
8
2
62
256
6
ByLayer
370
50
48
1
60
0
100
AcDbPoint
10
547
20
0
30
0
39
0
210
0
220
0
230
1
50
360
0
POINT
5
81
100
AcDbEntity
8
2
62
256
6
ByLayer
370
18
48
1
60
0
100
AcDbPoint
10
553
20
0
30
0
39
0
210
0
220
0
230
1
50
360
0
POINT
5
82
100
AcDbEntity
8
2
62
256
6
ByLayer
370
18
48
1
60
0
100
AcDbPoint
10
568
20
10
30
0
39
0
210
0
220
0
230
1
50
360
0
POINT
5
83
100
AcDbEntity
8
2
62
256
6
ByLayer
370
18
48
1
60
0
100
AcDbPoint
10
564
20
0
30
0
39
0
210
0
220
0
230
1
50
360
0
POINT
5
84
100
AcDbEntity
8
2
62
256
6
ByLayer
370
18
48
1
60
0
100
AcDbPoint
10
560.5
20
0
30
0
39
0
210
0
220
0
230
1
50
360
0
POINT
5
85
100
AcDbEntity
8
2
62
256
6
ByLayer
370
18
48
1
60
0
100
AcDbPoint
10
546.5
20
0
30
0
39
0
210
0
220
0
230
1
50
360
0
POINT
5
86
100
AcDbEntity
8
2
62
256
6
ByLayer
370
50
48
1
60
0
100
AcDbPoint
10
573
20
0
30
0
39
0
210
0
220
0
230
1
50
360
0
POINT
5
87
100
AcDbEntity
8
2
62
256
6
ByLayer
370
18
48
1
60
0
100
AcDbPoint
10
423.2
20
0
30
0
39
0
210
0
220
0
230
1
50
360
0
POINT
5
88
100
AcDbEntity
8
2
62
256
6
ByLayer
370
18
48
1
60
0
100
AcDbPoint
10
428.85
20
0
30
0
39
0
210
0
220
0
230
1
50
360
0
POINT
5
89
100
AcDbEntity
8
2
62
256
6
ByLayer
370
18
48
1
60
0
100
AcDbPoint
10
434
20
0
30
0
39
0
210
0
220
0
230
1
50
360
0
POINT
5
8A
100
AcDbEntity
8
2
62
256
6
ByLayer
370
18
48
1
60
0
100
AcDbPoint
10
428.6
20
0
30
0
39
0
210
0
220
0
230
1
50
360
0
POINT
5
8B
100
AcDbEntity
8
2
62
256
6
ByLayer
370
18
48
1
60
0
100
AcDbPoint
10
434.5
20
0
30
0
39
0
210
0
220
0
230
1
50
360
0
POINT
5
8C
100
AcDbEntity
8
2
62
256
6
ByLayer
370
18
48
1
60
0
100
AcDbPoint
10
423.2
20
0
30
0
39
0
210
0
220
0
230
1
50
360
0
POINT
5
8D
100
AcDbEntity
8
2
62
256
6
ByLayer
370
18
48
1
60
0
100
AcDbPoint
10
569
20
19.899495
30
0
39
0
210
0
220
0
230
1
50
360
0
POINT
5
8E
100
AcDbEntity
8
2
62
256
6
ByLayer
370
18
48
1
60
0
100
AcDbPoint
10
453.5
20
21
30
0
39
0
210
0
220
0
230
1
50
360
0
POINT
5
8F
100
AcDbEntity
8
2
62
256
6
ByLayer
370
18
48
1
60
0
100
AcDbPoint
10
546.5
20
0
30
0
39
0
210
0
220
0
230
1
50
360
0
POINT
5
90
100
AcDbEntity
8
2
62
256
6
ByLayer
370
18
48
1
60
0
100
AcDbPoint
10
434.5
20
0
30
0
39
0
210
0
220
0
230
1
50
360
0
POINT
5
91
100
AcDbEntity
8
2
62
256
6
ByLayer
370
18
48
1
60
0
100
AcDbPoint
10
440
20
0
30
0
39
0
210
0
220
0
230
1
50
360
0
POINT
5
92
100
AcDbEntity
8
2
62
256
6
ByLayer
370
18
48
1
60
0
100
AcDbPoint
10
453.5
20
21
30
0
39
0
210
0
220
0
230
1
50
360
0
POINT
5
93
100
AcDbEntity
8
2
62
256
6
ByLayer
370
18
48
1
60
0
100
AcDbPoint
10
546.5
20
0
30
0
39
0
210
0
220
0
230
1
50
360
0
POINT
5
94
100
AcDbEntity
8
2
62
256
6
ByLayer
370
18
48
1
60
0
100
AcDbPoint
10
434.5
20
0
30
0
39
0
210
0
220
0
230
1
50
360
0
POINT
5
95
100
AcDbEntity
8
2
62
256
6
ByLayer
370
18
48
1
60
0
100
AcDbPoint
10
490.5
20
0
30
0
39
0
210
0
220
0
230
1
50
360
0
POINT
5
96
100
AcDbEntity
8
2
62
256
6
ByLayer
370
18
48
1
60
0
100
AcDbPoint
10
527.5
20
21
30
0
39
0
210
0
220
0
230
1
50
360
0
POINT
5
97
100
AcDbEntity
8
2
62
256
6
ByLayer
370
18
48
1
60
0
100
AcDbPoint
10
541
20
0
30
0
39
0
210
0
220
0
230
1
50
360
0
POINT
5
98
100
AcDbEntity
8
80
62
256
6
ByLayer
370
18
48
1
60
0
100
AcDbPoint
10
0
20
0
30
0
39
0
210
0
220
0
230
1
50
360
0
POINT
5
9A
100
AcDbEntity
8
81
62
256
6
ByLayer
370
18
48
1
60
0
100
AcDbPoint
10
568
20
10
30
0
39
0
210
0
220
0
230
1
50
360
0
POINT
5
9C
100
AcDbEntity
8
2
62
256
6
ByLayer
370
18
48
1
60
0
100
AcDbPoint
10
560.5
20
25.888
30
0
39
0
210
0
220
0
230
1
50
360
0
POINT
5
9D
100
AcDbEntity
8
1
62
256
6
ByLayer
370
18
48
1
60
1
100
AcDbPoint
10
568
20
0
30
0
39
0
210
0
220
0
230
1
50
360
0
POINT
5
9F
100
AcDbEntity
8
1
62
256
6
ByLayer
370
18
48
1
60
1
100
AcDbPoint
10
568
20
10
30
0
39
0
210
0
220
0
230
1
50
360
0
POINT
5
A0
100
AcDbEntity
8
1
62
256
6
ByLayer
370
18
48
1
60
1
100
AcDbPoint
10
568
20
30
30
0
39
0
210
0
220
0
230
1
50
360
0
POINT
5
A1
100
AcDbEntity
8
1
62
256
6
ByLayer
370
18
48
1
60
1
100
AcDbPoint
10
180
20
-30
30
0
39
0
210
0
220
0
230
1
50
360
0
POINT
5
A2
100
AcDbEntity
8
1
62
256
6
ByLayer
370
18
48
1
60
1
100
AcDbPoint
10
568
20
30
30
0
39
0
210
0
220
0
230
1
50
360
0
POINT
5
A3
100
AcDbEntity
8
1
62
256
6
ByLayer
370
18
48
1
60
1
100
AcDbPoint
10
0
20
-30
30
0
39
0
210
0
220
0
230
1
50
360
0
POINT
5
A4
100
AcDbEntity
8
1
62
256
6
ByLayer
370
18
48
1
60
1
100
AcDbPoint
10
-240
20
-13.3
30
0
39
0
210
0
220
0
230
1
50
360
0
POINT
5
A5
100
AcDbEntity
8
1
62
256
6
ByLayer
370
18
48
1
60
1
100
AcDbPoint
10
568
20
-13.3
30
0
39
0
210
0
220
0
230
1
50
360
0
SPLINE
5
14D
100
AcDbEntity
8
1
62
256
6
ByLayer
370
18
48
1
60
0
100
AcDbSpline
70
4
71
3
72
87
73
83
40
0
40
0
40
0
40
0
40
0.0095957382389179
40
0.0190531073342745
40
0.0284807905637321
40
0.0378776849257357
40
0.0472437149774232
40
0.0565790211131453
40
0.0658837411126445
40
0.0751580101812428
40
0.0844019609892109
40
0.0936157237100803
40
0.10279942605806
40
0.111953193324579
40
0.121077148413944
40
0.130171411878151
40
0.139236101950884
40
0.148271334580714
40
0.157277223463514
40
0.166253880074124
40
0.175201413697284
40
0.184119931457849
40
0.193009538350305
40
0.201870337267615
40
0.210702429029417
40
0.219505912409511
40
0.22828088416288
40
0.237027439051878
40
0.245745669872041
40
0.254435667477185
40
0.263096829595862
40
0.271726598949722
40
0.28032483273552
40
0.288891649815006
40
0.29742716674422
40
0.305931497807615
40
0.314404755051431
40
0.32284704831582
40
0.33125848526704
40
0.33963917142845
40
0.347989210210915
40
0.35630870294256
40
0.364597748897864
40
0.372856445326122
40
0.38108488747928
40
0.389283168639182
40
0.397451380144217
40
0.405589611415401
40
0.413697949981882
40
0.421776481505943
40
0.429825289807422
40
0.437844456887649
40
0.44583406295286
40
0.453794186437128
40
0.461724904024803
40
0.469626290672487
40
0.477498419630546
40
0.485341362464175
40
0.493155189074021
40
0.500939967716379
40
0.528420087677465
40
0.555455307869905
40
0.582048101822831
40
0.608200657238951
40
0.633914888860847
40
0.659192450569731
40
0.684023037479464
40
0.708373252877995
40
0.73224395697332
40
0.755638241432196
40
0.778558923891713
40
0.80100856250027
40
0.822989469590273
40
0.844503724556919
40
0.86555318601064
40
0.886139503265006
40
0.906264127217008
40
0.925928320672626
40
0.945133168167572
40
0.963879585330894
40
0.982168327838052
40
1
40
1
40
1
40
1
41
1
10
566
20
30
30
0
41
1
10
566.000664165404
20
29.9999777691866
30
0
41
1
10
566.001982919045
20
29.9999336281249
30
0
41
1
10
566.003953830956
20
29.9995791934425
30
0
41
1
10
566.005909950125
20
29.9990198289548
30
0
41
1
10
566.007858150994
20
29.9982357985086
30
0
41
1
10
566.009797787049
20
29.9972347894406
30
0
41
1
10
566.011728315206
20
29.9960175104316
30
0
41
1
10
566.013649216743
20
29.9945864978273
30
0
41
1
10
566.01555998383
20
29.9929437769198
30
0
41
1
10
566.017460118667
20
29.9910914875078
30
0
41
1
10
566.019349133308
20
29.9890317174628
30
0
41
1
10
566.021226549306
20
29.9867665474627
30
0
41
1
10
566.023091897429
20
29.9842980394164
30
0
41
1
10
566.02494471736
20
29.981628239899
30
0
41
1
10
566.026784557413
20
29.9787591795793
30
0
41
1
10
566.028610974264
20
29.9756928737122
30
0
41
1
10
566.030423532677
20
29.9724313223436
30
0
41
1
10
566.032221805251
20
29.9689765105867
30
0
41
1
10
566.034005372168
20
29.9653304088765
30
0
41
1
10
566.035773820948
20
29.961494973225
30
0
41
1
10
566.037526746213
20
29.9574721454732
30
0
41
1
10
566.039263749457
20
29.9532638535392
30
0
41
1
10
566.040984438827
20
29.9488720116641
30
0
41
1
10
566.042688428901
20
29.944298520655
30
0
41
1
10
566.044375340483
20
29.9395452681231
30
0
41
1
10
566.046044800392
20
29.9346141287231
30
0
41
1
10
566.047696441276
20
29.9295069643822
30
0
41
1
10
566.049329901387
20
29.9242256245437
30
0
41
1
10
566.050944781686
20
29.9187720909478
30
0
41
1
10
566.052540527294
20
29.9131489282542
30
0
41
1
10
566.054116596478
20
29.9073588445887
30
0
41
1
10
566.055672492078
20
29.9014044789241
30
0
41
1
10
566.057207890179
20
29.8952878820669
30
0
41
1
10
566.058722487742
20
29.8890110302862
30
0
41
1
10
566.060215987144
20
29.8825758844472
30
0
41
1
10
566.06168809578
20
29.8759843903454
30
0
41
1
10
566.063138525981
20
29.869238478958
30
0
41
1
10
566.064566994812
20
29.8623400667266
30
0
41
1
10
566.065973223923
20
29.8552910558178
30
0
41
1
10
566.067356939398
20
29.8480933343856
30
0
41
1
10
566.068717871603
20
29.8407487768292
30
0
41
1
10
566.070055755041
20
29.8332592440453
30
0
41
1
10
566.071370328213
20
29.8256265836785
30
0
41
1
10
566.072661333481
20
29.8178526303657
30
0
41
1
10
566.073928516933
20
29.8099392059786
30
0
41
1
10
566.075171628256
20
29.801888119861
30
0
41
1
10
566.07639042061
20
29.7937011690633
30
0
41
1
10
566.077584650503
20
29.7853801385728
30
0
41
1
10
566.078754077679
20
29.7769268015414
30
0
41
1
10
566.079898464993
20
29.7683429195085
30
0
41
1
10
566.081017578308
20
29.759630242622
30
0
41
1
10
566.082111186381
20
29.7507905098542
30
0
41
1
10
566.083179060755
20
29.741825449219
30
0
41
1
10
566.084220975657
20
29.7327367779699
30
0
41
1
10
566.085236707916
20
29.7235262028531
30
0
41
1
10
566.086226036766
20
29.7141954201438
30
0
41
1
10
566.087188744138
20
29.7047461164707
30
0
41
1
10
566.088124613117
20
29.6951799667019
30
0
41
1
10
566.08980099136
20
29.6773221305073
30
0
41
1
10
566.092080204567
20
29.6505874266475
30
0
41
1
10
566.094733934436
20
29.6139555135331
30
0
41
1
10
566.097019467198
20
29.576158596506
30
0
41
1
10
566.098931576391
20
29.5372833072047
30
0
41
1
10
566.100465618447
20
29.4974145489651
30
0
41
1
10
566.101617298037
20
29.4566419395225
30
0
41
1
10
566.102382817281
20
29.4150739163435
30
0
41
1
10
566.102761192118
20
29.372820593373
30
0
41
1
10
566.102751778669
20
29.3299867912726
30
0
41
1
10
566.102355145333
20
29.2866545337641
30
0
41
1
10
566.101572318649
20
29.24290239617
30
0
41
1
10
566.100404848263
20
29.1988069865159
30
0
41
1
10
566.098854787356
20
29.1544430432378
30
0
41
1
10
566.096924692066
20
29.1098834854993
30
0
41
1
10
566.094617660379
20
29.0651995303574
30
0
41
1
10
566.09193722085
20
29.0204605514201
30
0
41
1
10
566.088887785283
20
28.9757348329544
30
0
41
1
10
566.085473080858
20
28.9310870632155
30
0
41
1
10
566.081701881918
20
28.8865875516475
30
0
41
1
10
566.077567462013
20
28.8422791843854
30
0
41
1
10
566.073121653596
20
28.7982964685779
30
0
41
1
10
566.069804385458
20
28.7686827219345
30
0
41
1
10
566.068166739865
20
28.754063215861
30
0
0
SPLINE
5
14E
100
AcDbEntity
8
1
62
256
6
ByLayer
370
13
48
1
60
0
100
AcDbSpline
70
4
71
1
72
4
73
2
40
0
40
0
40
1
40
1
41
1
10
565.636333479731
20
29.0040268797171
30
0
41
1
10
566.068166739865
20
28.754063215861
30
0
0
SPLINE
5
14F
100
AcDbEntity
8
1
62
256
6
ByLayer
370
18
48
1
60
0
100
AcDbSpline
70
4
71
3
72
36
73
32
40
0
40
0
40
0
40
0
40
0.122294168910568
40
0.122294168910568
40
0.195436321501348
40
0.195436321501348
40
0.232007397796741
40
0.232007397796741
40
0.268578474092133
40
0.268578474092133
40
0.341720626682918
40
0.341720626682918
40
0.378291702978311
40
0.378291702978311
40
0.414862779273705
40
0.414862779273705
40
0.488004931864492
40
0.488004931864492
40
0.524576008159886
40
0.524576008159886
40
0.561147084455279
40
0.561147084455279
40
0.634289237046066
40
0.634289237046066
40
0.707431389636853
40
0.707431389636853
40
0.780573542227641
40
0.780573542227641
40
0.853715694818428
40
0.853715694818428
40
1
40
1
40
1
40
1
41
1
10
567.607729614586
20
-9.71653231842078
30
0
41
1
10
567.598295176104
20
-9.72603531402871
30
0
41
1
10
567.589548040494
20
-9.73485269376044
30
0
41
1
10
567.576962978984
20
-9.74754554778974
30
0
41
1
10
567.572665768936
20
-9.75188121991948
30
0
41
1
10
567.566937041454
20
-9.75766266878878
30
0
41
1
10
567.565146159727
20
-9.75947030348334
30
0
41
1
10
567.561821741835
20
-9.76282620129848
30
0
41
1
10
567.560285385347
20
-9.76437731324626
30
0
41
1
10
567.556170769704
20
-9.76853182457762
30
0
41
1
10
567.554054662599
20
-9.77066898424641
30
0
41
1
10
567.551904777518
20
-9.77284038556553
30
0
41
1
10
567.551358069514
20
-9.77339260144771
30
0
41
1
10
567.550642684802
20
-9.77411520325688
30
0
41
1
10
567.550471174801
20
-9.77428845045682
30
0
41
1
10
567.550501778366
20
-9.77425753736372
30
0
41
1
10
567.551246131199
20
-9.77350561707181
30
0
41
1
10
567.553449587003
20
-9.77128011912004
30
0
41
1
10
567.554366440456
20
-9.77035413314633
30
0
41
1
10
567.556507437831
20
-9.76819200728937
30
0
41
1
10
567.557735591993
20
-9.76695181711028
30
0
41
1
10
567.561863192775
20
-9.76278423519858
30
0
41
1
10
567.565218581561
20
-9.75939689923172
30
0
41
1
10
567.572951716671
20
-9.75159268784739
30
0
41
1
10
567.577252302461
20
-9.74725369068454
30
0
41
1
10
567.586584704884
20
-9.73784146922713
30
0
41
1
10
567.591617667416
20
-9.73276708578817
30
0
41
1
10
567.602342916788
20
-9.72195815563543
30
0
41
1
10
567.607954623723
20
-9.71630483568805
30
0
41
1
10
567.625296915117
20
-9.6988417531482
30
0
41
1
10
567.637586054382
20
-9.6864770846455
30
0
41
1
10
567.650480947162
20
-9.67351614771064
30
0
0
SPLINE
5
150
100
AcDbEntity
8
1
62
256
6
ByLayer
370
18
48
1
60
0
100
AcDbSpline
70
4
71
3
72
8
73
4
40
0
40
0
40
0
40
0
40
1
40
1
40
1
40
1
41
1
10
567.650480947162
20
-9.67351614771064
30
0
41
1
10
567.875830405165
20
-9.44701251069972
30
0
41
1
10
568.100607863251
20
-9.21975466987089
30
0
41
1
10
568.324759526419
20
-8.99167169445599
30
0
0
SPLINE
5
151
100
AcDbEntity
8
1
62
256
6
ByLayer
370
18
48
1
60
0
100
AcDbSpline
70
4
71
3
72
8
73
4
40
0
40
0
40
0
40
0
40
1
40
1
40
1
40
1
41
1
10
568.324759526419
20
-8.97685679321
30
0
41
1
10
568.100458994954
20
-9.19503327622812
30
0
41
1
10
567.875685997486
20
-9.41255891076685
30
0
41
1
10
567.650480947162
20
-9.62948936820573
30
0
0
SPLINE
5
152
100
AcDbEntity
8
1
62
256
6
ByLayer
370
18
48
1
60
0
100
AcDbSpline
70
4
71
3
72
36
73
32
40
0
40
0
40
0
40
0
40
0.0624999999999999
40
0.0624999999999999
40
0.125
40
0.125
40
0.1875
40
0.1875
40
0.25
40
0.25
40
0.3125
40
0.3125
40
0.375
40
0.375
40
0.4375
40
0.4375
40
0.5
40
0.5
40
0.5625
40
0.5625
40
0.625
40
0.625
40
0.6875
40
0.6875
40
0.749999999999999
40
0.749999999999999
40
0.812499999999999
40
0.812499999999999
40
0.874999999999999
40
0.874999999999999
40
1
40
1
40
1
40
1
41
1
10
567.650480947162
20
-9.62948936820573
30
0
41
1
10
567.643862084188
20
-9.63586503771444
30
0
41
1
10
567.637368158041
20
-9.64208549393919
30
0
41
1
10
567.624658212001
20
-9.65417951440287
30
0
41
1
10
567.618465781099
20
-9.66003024657368
30
0
41
1
10
567.606614451507
20
-9.67113177605012
30
0
41
1
10
567.600930365741
20
-9.6764066912076
30
0
41
1
10
567.590113554064
20
-9.6863246581521
30
0
41
1
10
567.584944456052
20
-9.69100002973397
30
0
41
1
10
567.575462300344
20
-9.69941575654178
30
0
41
1
10
567.571165979257
20
-9.70314262332732
30
0
41
1
10
567.563582231134
20
-9.70950259963303
30
0
41
1
10
567.560295493777
20
-9.71213143841499
30
0
41
1
10
567.555115656292
20
-9.71594958104214
30
0
41
1
10
567.55318093426
20
-9.71717517338055
30
0
41
1
10
567.550745513604
20
-9.71812863957416
30
0
41
1
10
567.550291079597
20
-9.71783638379492
30
0
41
1
10
567.550812662286
20
-9.71581840714754
30
0
41
1
10
567.551796471514
20
-9.71407934212152
30
0
41
1
10
567.555138387984
20
-9.70923886666969
30
0
41
1
10
567.557446708715
20
-9.70620514956011
30
0
41
1
10
567.563158317433
20
-9.69908462041684
30
0
41
1
10
567.566592406128
20
-9.69496234484359
30
0
41
1
10
567.57432482138
20
-9.68591712910319
30
0
41
1
10
567.578590882068
20
-9.68102998219098
30
0
41
1
10
567.587802061849
20
-9.67063807328691
30
0
41
1
10
567.592748132286
20
-9.66513244064811
30
0
41
1
10
567.60325464834
20
-9.65356394564418
30
0
41
1
10
567.608756349684
20
-9.64756608451057
30
0
41
1
10
567.625757992912
20
-9.6291819152151
30
0
41
1
10
567.63781344554
20
-9.61633815056899
30
0
41
1
10
567.650480947162
20
-9.60300034106922
30
0
0
SPLINE
5
153
100
AcDbEntity
8
1
62
256
6
ByLayer
370
18
48
1
60
0
100
AcDbSpline
70
4
71
3
72
8
73
4
40
0
40
0
40
0
40
0
40
1
40
1
40
1
40
1
41
1
10
567.650480947162
20
-9.60300034106922
30
0
41
1
10
567.876008003165
20
-9.36553939573849
30
0
41
1
10
568.100791090601
20
-9.12714334966518
30
0
41
1
10
568.324759526419
20
-8.88772336069121
30
0
0
SPLINE
5
154
100
AcDbEntity
8
1
62
256
6
ByLayer
370
18
48
1
60
0
100
AcDbSpline
70
4
71
3
72
8
73
4
40
0
40
0
40
0
40
0
40
1
40
1
40
1
40
1
41
1
10
568.324759526419
20
-8.84299853393827
30
0
41
1
10
568.10033706691
20
-9.05252988602155
30
0
41
1
10
567.875567648883
20
-9.26156385841358
30
0
41
1
10
567.650480947162
20
-9.4701429912256
30
0
0
SPLINE
5
155
100
AcDbEntity
8
1
62
256
6
ByLayer
370
18
48
1
60
0
100
AcDbSpline
70
4
71
3
72
38
73
34
40
0
40
0
40
0
40
0
40
0.0624999999999997
40
0.0624999999999997
40
0.124999999999999
40
0.124999999999999
40
0.187499999999999
40
0.187499999999999
40
0.249999999999999
40
0.249999999999999
40
0.312499999999999
40
0.312499999999999
40
0.374999999999998
40
0.374999999999998
40
0.437499999999998
40
0.437499999999998
40
0.499999999999998
40
0.499999999999998
40
0.531249999999996
40
0.531249999999996
40
0.562499999999995
40
0.562499999999995
40
0.624999999999996
40
0.624999999999996
40
0.687499999999996
40
0.687499999999996
40
0.749999999999998
40
0.749999999999998
40
0.812499999999998
40
0.812499999999998
40
0.874999999999999
40
0.874999999999999
40
1
40
1
40
1
40
1
41
1
10
567.650480947162
20
-9.4701429912256
30
0
41
1
10
567.643726881463
20
-9.47640172244127
30
0
41
1
10
567.637098160743
20
-9.48246759842618
30
0
41
1
10
567.624121587645
20
-9.49416536458574
30
0
41
1
10
567.617742143976
20
-9.49982427039237
30
0
41
1
10
567.605562970484
20
-9.51041364087877
30
0
41
1
10
567.599742695575
20
-9.51536379996395
30
0
41
1
10
567.588714807944
20
-9.52447763543444
30
0
41
1
10
567.583471678807
20
-9.52866871468689
30
0
41
1
10
567.573894168183
20
-9.53596728090332
30
0
41
1
10
567.569604727196
20
-9.53904307630035
30
0
41
1
10
567.562140118258
20
-9.54391162876186
30
0
41
1
10
567.558968752714
20
-9.54569252125896
30
0
41
1
10
567.55412676766
20
-9.54768938933273
30
0
41
1
10
567.552408786091
20
-9.5479394606952
30
0
41
1
10
567.550449968655
20
-9.54686494800944
30
0
41
1
10
567.550243871428
20
-9.54555320166253
30
0
41
1
10
567.550991933076
20
-9.54254591030218
30
0
41
1
10
567.551417710024
20
-9.5413688368418
30
0
41
1
10
567.552612851189
20
-9.53867451681327
30
0
41
1
10
567.553385026571
20
-9.53715395741011
30
0
41
1
10
567.556141299637
20
-9.53220317401144
30
0
41
1
10
567.558572250333
20
-9.52836011374427
30
0
41
1
10
567.56445428438
20
-9.51974187542243
30
0
41
1
10
567.567937837454
20
-9.51492531016356
30
0
41
1
10
567.575648799551
20
-9.50468923349132
30
0
41
1
10
567.579874304902
20
-9.49926807007421
30
0
41
1
10
567.588959245089
20
-9.48790759078616
30
0
41
1
10
567.593819464948
20
-9.48196763019104
30
0
41
1
10
567.604115964568
20
-9.46961815491846
30
0
41
1
10
567.609513235996
20
-9.46325617343916
30
0
41
1
10
567.6261921918
20
-9.44387850617306
30
0
41
1
10
567.638027080278
20
-9.43048819086061
30
0
41
1
10
567.650480947162
20
-9.41669403193265
30
0
0
SPLINE
5
156
100
AcDbEntity
8
1
62
256
6
ByLayer
370
18
48
1
60
0
100
AcDbSpline
70
4
71
3
72
8
73
4
40
0
40
0
40
0
40
0
40
1
40
1
40
1
40
1
41
1
10
567.650480947162
20
-9.41669403193265
30
0
41
1
10
567.876228917632
20
-9.16665093997489
30
0
41
1
10
568.101019214676
20
-8.91546545317652
30
0
41
1
10
568.324759526419
20
-8.66302745403328
30
0
0
SPLINE
5
157
100
AcDbEntity
8
1
62
256
6
ByLayer
370
18
48
1
60
0
100
AcDbSpline
70
4
71
3
72
8
73
4
40
0
40
0
40
0
40
0
40
1
40
1
40
1
40
1
41
1
10
568.324759526419
20
-8.58752521854376
30
0
41
1
10
568.100236859786
20
-8.78957038042915
30
0
41
1
10
567.875470342809
20
-8.9912532251729
30
0
41
1
10
567.650480947162
20
-9.19260491285752
30
0
0
SPLINE
5
158
100
AcDbEntity
8
1
62
256
6
ByLayer
370
18
48
1
60
0
100
AcDbSpline
70
4
71
3
72
39
73
35
40
0
40
0
40
0
40
0
40
0.0625000000000019
40
0.0625000000000019
40
0.125000000000004
40
0.125000000000004
40
0.187500000000006
40
0.187500000000006
40
0.250000000000007
40
0.250000000000007
40
0.312500000000009
40
0.312500000000009
40
0.34375000000001
40
0.34375000000001
40
0.37500000000001
40
0.40625000000001
40
0.40625000000001
40
0.43750000000001
40
0.43750000000001
40
0.500000000000009
40
0.500000000000009
40
0.562500000000007
40
0.562500000000007
40
0.625000000000006
40
0.625000000000006
40
0.687500000000004
40
0.687500000000004
40
0.750000000000003
40
0.750000000000003
40
0.812500000000002
40
0.812500000000002
40
0.875
40
0.875
40
1
40
1
40
1
40
1
41
1
10
567.650480947162
20
-9.19260491285752
30
0
41
1
10
567.643561481925
20
-9.19879740917133
30
0
41
1
10
567.636760597053
20
-9.20475945602931
30
0
41
1
10
567.623428732479
20
-9.21615687320474
30
0
41
1
10
567.616868043973
20
-9.22161492234301
30
0
41
1
10
567.604372494835
20
-9.23165711743741
30
0
41
1
10
567.598405523108
20
-9.2362705084991
30
0
41
1
10
567.587120780066
20
-9.2445513660951
30
0
41
1
10
567.581757911793
20
-9.24824522226095
30
0
41
1
10
567.572161291116
20
-9.25426188299707
30
0
41
1
10
567.567898801765
20
-9.2566113207269
30
0
41
1
10
567.562409953693
20
-9.25901971110915
30
0
41
1
10
567.56074024976
20
-9.25963014183219
30
0
41
1
10
567.557792033825
20
-9.26043826005662
30
0
41
1
10
567.555212841065
20
-9.260843929945
30
0
41
1
10
567.553367705005
20
-9.26044824980823
30
0
41
1
10
567.551893890274
20
-9.25964684781201
30
0
41
1
10
567.551341802858
20
-9.25903712749243
30
0
41
1
10
567.550274927363
20
-9.25664302764744
30
0
41
1
10
567.550326458122
20
-9.25430287060351
30
0
41
1
10
567.551787967949
20
-9.24829597919154
30
0
41
1
10
567.553220516284
20
-9.24459649567137
30
0
41
1
10
567.557185296634
20
-9.23629105924238
30
0
41
1
10
567.559719213955
20
-9.2316610587576
30
0
41
1
10
567.565737405588
20
-9.22157887828689
30
0
41
1
10
567.569244994022
20
-9.21609568532239
30
0
41
1
10
567.576918114054
20
-9.2046829541805
30
0
41
1
10
567.581098727558
20
-9.19872551352557
30
0
41
1
10
567.590054837743
20
-9.18637742361341
30
0
41
1
10
567.594830979835
20
-9.17998630294136
30
0
41
1
10
567.604926584524
20
-9.16680948261137
30
0
41
1
10
567.61022432905
20
-9.1600533921706
30
0
41
1
10
567.626598565669
20
-9.13957880338478
30
0
41
1
10
567.638226288089
20
-9.12555695530392
30
0
41
1
10
567.650480947162
20
-9.11121115699939
30
0
0
SPLINE
5
159
100
AcDbEntity
8
1
62
256
6
ByLayer
370
18
48
1
60
0
100
AcDbSpline
70
4
71
3
72
8
73
4
40
0
40
0
40
0
40
0
40
1
40
1
40
1
40
1
41
1
10
567.650480947162
20
-9.11121115699939
30
0
41
1
10
567.876507770666
20
-8.8466150387261
30
0
41
1
10
568.101307459449
20
-8.58063653668887
30
0
41
1
10
568.324759526419
20
-8.31313992055976
30
0
0
SPLINE
5
15A
100
AcDbEntity
8
1
62
256
6
ByLayer
370
18
48
1
60
0
100
AcDbSpline
70
4
71
3
72
8
73
4
40
0
40
0
40
0
40
0
40
1
40
1
40
1
40
1
41
1
10
568.324759526419
20
-8.2053177327395
30
0
41
1
10
568.100154848045
20
-8.40099561220677
30
0
41
1
10
567.875390693943
20
-8.59642895894723
30
0
41
1
10
567.650480947162
20
-8.79163906058523
30
0
0
SPLINE
5
15B
100
AcDbEntity
8
1
62
256
6
ByLayer
370
18
48
1
60
0
100
AcDbSpline
70
4
71
3
72
32
73
28
40
0
40
0
40
0
40
0
40
0.124999999999999
40
0.124999999999999
40
0.187499999999999
40
0.187499999999999
40
0.249999999999999
40
0.249999999999999
40
0.3125
40
0.3125
40
0.375
40
0.375
40
0.4375
40
0.4375
40
0.5
40
0.5
40
0.562500000000001
40
0.562500000000001
40
0.625000000000001
40
0.625000000000001
40
0.749999999999995
40
0.749999999999995
40
0.812499999999994
40
0.812499999999994
40
0.874999999999993
40
0.874999999999993
40
1
40
1
40
1
40
1
41
1
10
567.650480947162
20
-8.79163906058528
30
0
41
1
10
567.636218452344
20
-8.8040181731086
30
0
41
1
10
567.622240264368
20
-8.81541731520468
30
0
41
1
10
567.602992291188
20
-8.82961530428082
30
0
41
1
10
567.596826112669
20
-8.83389454015315
30
0
41
1
10
567.585150324815
20
-8.84130944123353
30
0
41
1
10
567.579802545074
20
-8.84434192832924
30
0
41
1
10
567.570193548697
20
-8.84890585163845
30
0
41
1
10
567.565917359672
20
-8.85042533678563
30
0
41
1
10
567.558961483899
20
-8.85167539867427
30
0
41
1
10
567.556219248358
20
-8.85144369332568
30
0
41
1
10
567.552246458667
20
-8.84921566462106
30
0
41
1
10
567.551085390741
20
-8.847251677175
30
0
41
1
10
567.550241537347
20
-8.84186141945361
30
0
41
1
10
567.550569080283
20
-8.83838297276696
30
0
41
1
10
567.552511726574
20
-8.83033441718436
30
0
41
1
10
567.554109567751
20
-8.82577081875542
30
0
41
1
10
567.558360917358
20
-8.81573420419278
30
0
41
1
10
567.56103952816
20
-8.81021890291851
30
0
41
1
10
567.570274220005
20
-8.79285792318433
30
0
41
1
10
567.578003306719
20
-8.7801749967735
30
0
41
1
10
567.591401058081
20
-8.75988184293715
30
0
41
1
10
567.59613953536
20
-8.75295527660575
30
0
41
1
10
567.605993559771
20
-8.73896416601866
30
0
41
1
10
567.611125160039
20
-8.73187560879262
30
0
41
1
10
567.627074672477
20
-8.71035906210028
30
0
41
1
10
567.638441494712
20
-8.69568280905241
30
0
41
1
10
567.650480947162
20
-8.68070599964432
30
0
0
SPLINE
5
15C
100
AcDbEntity
8
1
62
256
6
ByLayer
370
18
48
1
60
0
100
AcDbSpline
70
4
71
3
72
8
73
4
40
0
40
0
40
0
40
0
40
1
40
1
40
1
40
1
41
1
10
567.650480947162
20
-8.68070599964432
30
0
41
1
10
567.876866272618
20
-8.39908772121976
30
0
41
1
10
568.101678442285
20
-8.11580555548483
30
0
41
1
10
568.324759526419
20
-7.83069246411924
30
0
0
SPLINE
5
15D
100
AcDbEntity
8
1
62
256
6
ByLayer
370
18
48
1
60
0
100
AcDbSpline
70
4
71
3
72
8
73
4
40
0
40
0
40
0
40
0
40
1
40
1
40
1
40
1
41
1
10
568.324759526419
20
-7.68816253176118
30
0
41
1
10
568.100089025132
20
-7.8786205059024
30
0
41
1
10
567.875326782245
20
-8.0689340213255
30
0
41
1
10
567.650480947162
20
-8.2591159102949
30
0
0
SPLINE
5
15E
100
AcDbEntity
8
1
62
256
6
ByLayer
370
18
48
1
60
0
100
AcDbSpline
70
4
71
3
72
41
73
37
40
0
40
0
40
0
40
0
40
0.0624999999999944
40
0.0624999999999944
40
0.124999999999989
40
0.124999999999989
40
0.156249999999985
40
0.156249999999985
40
0.187499999999981
40
0.187499999999981
40
0.249999999999972
40
0.249999999999972
40
0.28124999999997
40
0.28124999999997
40
0.312499999999967
40
0.343749999999964
40
0.343749999999964
40
0.374999999999961
40
0.374999999999961
40
0.437499999999955
40
0.437499999999955
40
0.468749999999955
40
0.468749999999955
40
0.499999999999954
40
0.499999999999954
40
0.562499999999958
40
0.562499999999958
40
0.624999999999962
40
0.624999999999962
40
0.687499999999966
40
0.687499999999966
40
0.74999999999997
40
0.74999999999997
40
0.874999999999985
40
0.874999999999985
40
1
40
1
40
1
40
1
41
1
10
567.650480947162
20
-8.2591159102949
30
0
41
1
10
567.64312067197
20
-8.2653414694156
30
0
41
1
10
567.635804695087
20
-8.27127735885227
30
0
41
1
10
567.621558337367
20
-8.28223636023472
30
0
41
1
10
567.614658110684
20
-8.2872398905796
30
0
41
1
10
567.604698216193
20
-8.29390870638139
30
0
41
1
10
567.601443651369
20
-8.29599151951948
30
0
41
1
10
567.595080260982
20
-8.29984422411519
30
0
41
1
10
567.591968194618
20
-8.30161422204668
30
0
41
1
10
567.583076629913
20
-8.30629453677466
30
0
41
1
10
567.577668862641
20
-8.3086246746206
30
0
41
1
10
567.570442806861
20
-8.31076958635947
30
0
41
1
10
567.568202442333
20
-8.31124983167399
30
0
41
1
10
567.564140466581
20
-8.31172491144275
30
0
41
1
10
567.560469603166
20
-8.31172328666247
30
0
41
1
10
567.557572696077
20
-8.31077697094406
30
0
41
1
10
567.555065784551
20
-8.30935396384405
30
0
41
1
10
567.554012412702
20
-8.30840103005454
30
0
41
1
10
567.551498718449
20
-8.30493182516665
30
0
41
1
10
567.550641696581
20
-8.3017928744913
30
0
41
1
10
567.550431296051
20
-8.29599719885306
30
0
41
1
10
567.550543891767
20
-8.29387711956713
30
0
41
1
10
567.551097439142
20
-8.28938356069506
30
0
41
1
10
567.55153724686
20
-8.28700083368454
30
0
41
1
10
567.553295887259
20
-8.27948610445031
30
0
41
1
10
567.555051097323
20
-8.27398989737566
30
0
41
1
10
567.559557801758
20
-8.26216508268919
30
0
41
1
10
567.562301249488
20
-8.25586842562103
30
0
41
1
10
567.568507240897
20
-8.24285911980735
30
0
41
1
10
567.571983861287
20
-8.23611093369692
30
0
41
1
10
567.579584891849
20
-8.22219257178654
30
0
41
1
10
567.583728003621
20
-8.21499226193851
30
0
41
1
10
567.59691541842
20
-8.19302844745215
30
0
41
1
10
567.606613261902
20
-8.17804922558236
30
0
41
1
10
567.627467863824
20
-8.1475539976571
30
0
41
1
10
567.638630045339
20
-8.13203595639516
30
0
41
1
10
567.650480947162
20
-8.11626786628187
30
0
0
SPLINE
5
15F
100
AcDbEntity
8
1
62
256
6
ByLayer
370
18
48
1
60
0
100
AcDbSpline
70
4
71
3
72
8
73
4
40
0
40
0
40
0
40
0
40
1
40
1
40
1
40
1
41
1
10
567.650480947162
20
-8.11626786628187
30
0
41
1
10
567.877337890168
20
-7.81442579774125
30
0
41
1
10
568.102167049584
20
-7.51058417609937
30
0
41
1
10
568.324759526419
20
-7.20453701062598
30
0
0
SPLINE
5
160
100
AcDbEntity
8
1
62
256
6
ByLayer
370
18
48
1
60
0
100
AcDbSpline
70
4
71
3
72
8
73
4
40
0
40
0
40
0
40
0
40
1
40
1
40
1
40
1
41
1
10
568.324759526419
20
-7.02376555730251
30
0
41
1
10
568.100039125586
20
-7.21026872787758
30
0
41
1
10
567.875278354979
20
-7.39670705634092
30
0
41
1
10
567.650480947162
20
-7.58308644885346
30
0
0
SPLINE
5
161
100
AcDbEntity
8
1
62
256
6
ByLayer
370
18
48
1
60
0
100
AcDbSpline
70
4
71
3
72
39
73
35
40
0
40
0
40
0
40
0
40
0.0625000000000213
40
0.0625000000000213
40
0.125000000000042
40
0.125000000000042
40
0.187500000000064
40
0.187500000000064
40
0.21875000000007
40
0.21875000000007
40
0.250000000000077
40
0.250000000000077
40
0.31250000000008
40
0.31250000000008
40
0.343750000000081
40
0.343750000000081
40
0.375000000000083
40
0.406250000000085
40
0.406250000000085
40
0.437500000000086
40
0.437500000000086
40
0.500000000000078
40
0.500000000000078
40
0.56250000000007
40
0.56250000000007
40
0.625000000000062
40
0.625000000000062
40
0.687500000000054
40
0.687500000000054
40
0.750000000000046
40
0.750000000000046
40
0.875000000000023
40
0.875000000000023
40
1
40
1
40
1
40
1
41
1
10
567.650480947162
20
-7.58308644885346
30
0
41
1
10
567.642848465984
20
-7.58941453430191
30
0
41
1
10
567.635230044314
20
-7.59539066175
30
0
41
1
10
567.620434193986
20
-7.60617795991254
30
0
41
1
10
567.613255140464
20
-7.61099748452483
30
0
41
1
10
567.599425158374
20
-7.61924599158874
30
0
41
1
10
567.592745263725
20
-7.62267227840965
30
0
41
1
10
567.583692680945
20
-7.62629981682892
30
0
41
1
10
567.580816760607
20
-7.6272697003244
30
0
41
1
10
567.575367399923
20
-7.62869737898711
30
0
41
1
10
567.572783455345
20
-7.62915279821033
30
0
41
1
10
567.565725370173
20
-7.62968303013906
30
0
41
1
10
567.561864611698
20
-7.62895634321637
30
0
41
1
10
567.557292459269
20
-7.62630232283914
30
0
41
1
10
567.555968736541
20
-7.62514531139868
30
0
41
1
10
567.553784251942
20
-7.62238725098723
30
0
41
1
10
567.5520409109
20
-7.61918078634437
30
0
41
1
10
567.551098579189
20
-7.61515893160964
30
0
41
1
10
567.550528264205
20
-7.61075786637713
30
0
41
1
10
567.550430700683
20
-7.60835688135012
30
0
41
1
10
567.550654051541
20
-7.60076523529523
30
0
41
1
10
567.551475794025
20
-7.5951597496354
30
0
41
1
10
567.554198267888
20
-7.58307378544748
30
0
41
1
10
567.556114381686
20
-7.57655576543829
30
0
41
1
10
567.560823333971
20
-7.5629298211241
30
0
41
1
10
567.563597798464
20
-7.5558628914157
30
0
41
1
10
567.569844713144
20
-7.54130661080421
30
0
41
1
10
567.573318283136
20
-7.53381659100654
30
0
41
1
10
567.580882685559
20
-7.51846307267346
30
0
41
1
10
567.584984596991
20
-7.51058295596772
30
0
41
1
10
567.597909096523
20
-7.48684300276636
30
0
41
1
10
567.60740422431
20
-7.47075182661223
30
0
41
1
10
567.627855969026
20
-7.43813389250067
30
0
41
1
10
567.638816630046
20
-7.42160590352921
30
0
41
1
10
567.650480947162
20
-7.40487133421578
30
0
0
SPLINE
5
162
100
AcDbEntity
8
1
62
256
6
ByLayer
370
18
48
1
60
0
100
AcDbSpline
70
4
71
3
72
8
73
4
40
0
40
0
40
0
40
0
40
1
40
1
40
1
40
1
41
1
10
567.650480947162
20
-7.40487133421578
30
0
41
1
10
567.87797677687
20
-7.07848748397726
30
0
41
1
10
568.10282976625
20
-6.74969542669066
30
0
41
1
10
568.324759526419
20
-6.41823966660246
30
0
0
SPLINE
5
163
100
AcDbEntity
8
1
62
256
6
ByLayer
370
18
48
1
60
0
100
AcDbSpline
70
4
71
3
72
8
73
4
40
0
40
0
40
0
40
0
40
1
40
1
40
1
40
1
41
1
10
568.324759526419
20
-6.19401413331485
30
0
41
1
10
568.100007511727
20
-6.37808164940662
30
0
41
1
10
567.875247737629
20
-6.56213653340302
30
0
41
1
10
567.650480947162
20
-6.74617999157198
30
0
0
SPLINE
5
164
100
AcDbEntity
8
1
62
256
6
ByLayer
370
18
48
1
60
0
100
AcDbSpline
70
4
71
3
72
39
73
35
40
0
40
0
40
0
40
0
40
0.0625000000000016
40
0.0625000000000016
40
0.125000000000003
40
0.125000000000003
40
0.156250000000001
40
0.156250000000001
40
0.187499999999998
40
0.187499999999998
40
0.218749999999996
40
0.218749999999996
40
0.249999999999993
40
0.281249999999991
40
0.281249999999991
40
0.312499999999988
40
0.312499999999988
40
0.374999999999983
40
0.374999999999983
40
0.406249999999981
40
0.406249999999981
40
0.437499999999978
40
0.437499999999978
40
0.499999999999981
40
0.499999999999981
40
0.562499999999983
40
0.562499999999983
40
0.624999999999986
40
0.624999999999986
40
0.749999999999991
40
0.749999999999991
40
0.874999999999995
40
0.874999999999995
40
1
40
1
40
1
40
1
41
1
10
567.650480947162
20
-6.74617999157198
30
0
41
1
10
567.642517355018
20
-6.75270073707196
30
0
41
1
10
567.63453440989
20
-6.75878159165063
30
0
41
1
10
567.619042460543
20
-6.76946231516717
30
0
41
1
10
567.611511726718
20
-6.77408959518209
30
0
41
1
10
567.600621370502
20
-6.77968068062552
30
0
41
1
10
567.597061556648
20
-6.78131246213724
30
0
41
1
10
567.590290341915
20
-6.78398567944657
30
0
41
1
10
567.587053841966
20
-6.78504091900891
30
0
41
1
10
567.58089623758
20
-6.78655511880726
30
0
41
1
10
567.577954952722
20
-6.78701454672404
30
0
41
1
10
567.572512587958
20
-6.78728427632893
30
0
41
1
10
567.567547431314
20
-6.78691345563783
30
0
41
1
10
567.56348717482
20
-6.7853258627772
30
0
41
1
10
567.559865561372
20
-6.78314737202635
30
0
41
1
10
567.558264729514
20
-6.78174880183224
30
0
41
1
10
567.554196953588
20
-6.77679176938068
30
0
41
1
10
567.552440567205
20
-6.77250792575296
30
0
41
1
10
567.550959029724
20
-6.76489635645567
30
0
41
1
10
567.550660070545
20
-6.76214610672554
30
0
41
1
10
567.550422720308
20
-6.75638207547314
30
0
41
1
10
567.550481076441
20
-6.75336117180615
30
0
41
1
10
567.551119474506
20
-6.74393435785436
30
0
41
1
10
567.552159177103
20
-6.73716718747642
30
0
41
1
10
567.555239798449
20
-6.72284376907112
30
0
41
1
10
567.557290439547
20
-6.71527469724032
30
0
41
1
10
567.562146245542
20
-6.69978534924883
30
0
41
1
10
567.564959968858
20
-6.69182339839057
30
0
41
1
10
567.574383518436
20
-6.66738351676605
30
0
41
1
10
567.582020418222
20
-6.65026269122404
30
0
41
1
10
567.598905986321
20
-6.61584943637183
30
0
41
1
10
567.608200334979
20
-6.59843529348399
30
0
41
1
10
567.628249215424
20
-6.56325479016812
30
0
41
1
10
567.639006636006
20
-6.54548771526874
30
0
41
1
10
567.650480947162
20
-6.52755066300921
30
0
0
SPLINE
5
165
100
AcDbEntity
8
1
62
256
6
ByLayer
370
18
48
1
60
0
100
AcDbSpline
70
4
71
3
72
8
73
4
40
0
40
0
40
0
40
0
40
1
40
1
40
1
40
1
41
1
10
567.650480947162
20
-6.52755066300921
30
0
41
1
10
567.878876276632
20
-6.1705149416585
30
0
41
1
10
568.103764009202
20
-5.81055984951604
30
0
41
1
10
568.324759526419
20
-5.44736526887351
30
0
0
SPLINE
5
166
100
AcDbEntity
8
1
62
256
6
ByLayer
370
18
48
1
60
0
100
AcDbSpline
70
4
71
3
72
8
73
4
40
0
40
0
40
0
40
0
40
1
40
1
40
1
40
1
41
1
10
568.324759526419
20
-5.17180258736585
30
0
41
1
10
568.10000187134
20
-5.35544727349571
30
0
41
1
10
567.875242279349
20
-5.53908879894846
30
0
41
1
10
567.650480947162
20
-5.72272748451729
30
0
0
SPLINE
5
167
100
AcDbEntity
8
1
62
256
6
ByLayer
370
18
48
1
60
0
100
AcDbSpline
70
4
71
3
72
38
73
34
40
0
40
0
40
0
40
0
40
0.0624999999999863
40
0.0624999999999863
40
0.0937499999999828
40
0.0937499999999828
40
0.124999999999979
40
0.124999999999979
40
0.187499999999972
40
0.187499999999972
40
0.249999999999965
40
0.249999999999965
40
0.281249999999962
40
0.281249999999962
40
0.312499999999958
40
0.312499999999958
40
0.374999999999962
40
0.374999999999962
40
0.437499999999966
40
0.437499999999966
40
0.49999999999997
40
0.49999999999997
40
0.562499999999974
40
0.562499999999974
40
0.624999999999978
40
0.624999999999978
40
0.687499999999982
40
0.687499999999982
40
0.749999999999986
40
0.749999999999986
40
0.874999999999993
40
0.874999999999993
40
1
40
1
40
1
40
1
41
1
10
567.650480947162
20
-5.72272748451729
30
0
41
1
10
567.642084189611
20
-5.72958795960272
30
0
41
1
10
567.633635577278
20
-5.73587307783458
30
0
41
1
10
567.621331349082
20
-5.74385427794306
30
0
41
1
10
567.617278610407
20
-5.74628415462024
30
0
41
1
10
567.609284196945
20
-5.75061672255669
30
0
41
1
10
567.605312533919
20
-5.75253096411251
30
0
41
1
10
567.59384949108
20
-5.75724042347383
30
0
41
1
10
567.586793021272
20
-5.75902617700712
30
0
41
1
10
567.574217814694
20
-5.75947418594671
30
0
41
1
10
567.568995280752
20
-5.75813911091188
30
0
41
1
10
567.562595860953
20
-5.75402834981685
30
0
41
1
10
567.560701051961
20
-5.7522911875497
30
0
41
1
10
567.557471003325
20
-5.74826785950165
30
0
41
1
10
567.556116901746
20
-5.7459736675126
30
0
41
1
10
567.552741344183
20
-5.73834591417074
30
0
41
1
10
567.551412871276
20
-5.73221371650544
30
0
41
1
10
567.550260898918
20
-5.71896225515888
30
0
41
1
10
567.550404629695
20
-5.71178511454553
30
0
41
1
10
567.551786707426
20
-5.69658868130136
30
0
41
1
10
567.55302900844
20
-5.68856640108874
30
0
41
1
10
567.556428844899
20
-5.67181535036866
30
0
41
1
10
567.558575785074
20
-5.66315319947307
30
0
41
1
10
567.563557184201
20
-5.64553843947527
30
0
41
1
10
567.566399025425
20
-5.63655452303158
30
0
41
1
10
567.5726862554
20
-5.61828257420939
30
0
41
1
10
567.576143791446
20
-5.60896563047709
30
0
41
1
10
567.58354639268
20
-5.59020084556562
30
0
41
1
10
567.587481021919
20
-5.58077547210371
30
0
41
1
10
567.599905559109
20
-5.55238513745371
30
0
41
1
10
567.609009839549
20
-5.53330704383489
30
0
41
1
10
567.628661740995
20
-5.49488800433443
30
0
41
1
10
567.639211392285
20
-5.47554667574656
30
0
41
1
10
567.650480947162
20
-5.45607698208266
30
0
0
SPLINE
5
168
100
AcDbEntity
8
1
62
256
6
ByLayer
370
18
48
1
60
0
100
AcDbSpline
70
4
71
3
72
8
73
4
40
0
40
0
40
0
40
0
40
1
40
1
40
1
40
1
41
1
10
567.650480947162
20
-5.45607698208266
30
0
41
1
10
567.880211532645
20
-5.05918605128039
30
0
41
1
10
568.105152654041
20
-4.65871232422029
30
0
41
1
10
568.324759526419
20
-4.25424827025256
30
0
0
SPLINE
5
169
100
AcDbEntity
8
1
62
256
6
ByLayer
370
18
48
1
60
0
100
AcDbSpline
70
4
71
3
72
8
73
4
40
0
40
0
40
0
40
0
40
1
40
1
40
1
40
1
41
1
10
568.324759526419
20
-3.91477968744027
30
0
41
1
10
568.10004293855
20
-4.10099187452857
30
0
41
1
10
567.87528177088
20
-4.28713229076112
30
0
41
1
10
567.650480947162
20
-4.47320886309137
30
0
0
SPLINE
5
16A
100
AcDbEntity
8
1
62
256
6
ByLayer
370
18
48
1
60
0
100
AcDbSpline
70
4
71
3
72
34
73
30
40
0
40
0
40
0
40
0
40
0.0625000000000092
40
0.0625000000000092
40
0.0937500000000141
40
0.0937500000000141
40
0.125000000000019
40
0.125000000000019
40
0.187500000000023
40
0.187500000000023
40
0.250000000000026
40
0.250000000000026
40
0.281250000000028
40
0.281250000000028
40
0.31250000000003
40
0.31250000000003
40
0.375000000000029
40
0.375000000000029
40
0.437500000000029
40
0.437500000000029
40
0.500000000000028
40
0.500000000000028
40
0.625000000000021
40
0.625000000000021
40
0.750000000000014
40
0.750000000000014
40
0.875000000000007
40
0.875000000000007
40
1
40
1
40
1
40
1
41
1
10
567.650480947162
20
-4.47320886309234
30
0
41
1
10
567.641610746045
20
-4.48055108093837
30
0
41
1
10
567.632717594853
20
-4.48709742601386
30
0
41
1
10
567.619328414583
20
-4.49520539498968
30
0
41
1
10
567.614948765932
20
-4.49756171194724
30
0
41
1
10
567.606376490094
20
-4.50149614590856
30
0
41
1
10
567.602156895126
20
-4.50308185095662
30
0
41
1
10
567.590005767027
20
-4.50643292619623
30
0
41
1
10
567.582819857639
20
-4.50675740049002
30
0
41
1
10
567.570335823892
20
-4.50344855594545
30
0
41
1
10
567.565449926247
20
-4.49992936230836
30
0
41
1
10
567.559738856258
20
-4.49254380095675
30
0
41
1
10
567.558096977763
20
-4.48970101832055
30
0
41
1
10
567.555363676397
20
-4.48351861218566
30
0
41
1
10
567.554261456695
20
-4.48017426130411
30
0
41
1
10
567.551618606382
20
-4.46950406988526
30
0
41
1
10
567.55074024509
20
-4.46148862180922
30
0
41
1
10
567.550322100162
20
-4.44464214164975
30
0
41
1
10
567.550767880496
20
-4.43576934561122
30
0
41
1
10
567.552650600946
20
-4.41733960157637
30
0
41
1
10
567.554097560382
20
-4.40774830411704
30
0
41
1
10
567.559624326733
20
-4.37836229806959
30
0
41
1
10
567.564840271178
20
-4.35804580031567
30
0
41
1
10
567.57746663017
20
-4.31641517318911
30
0
41
1
10
567.584781622077
20
-4.29544451247421
30
0
41
1
10
567.600983403359
20
-4.25325825027181
30
0
41
1
10
567.609876729726
20
-4.23204169530158
30
0
41
1
10
567.629096511696
20
-4.18938762024362
30
0
41
1
10
567.639424130324
20
-4.16794990812167
30
0
41
1
10
567.650480947162
20
-4.14640238483957
30
0
0
SPLINE
5
16B
100
AcDbEntity
8
1
62
256
6
ByLayer
370
18
48
1
60
0
100
AcDbSpline
70
4
71
3
72
8
73
4
40
0
40
0
40
0
40
0
40
1
40
1
40
1
40
1
41
1
10
567.650480947162
20
-4.14640238483957
30
0
41
1
10
567.882352997816
20
-3.69453016127875
30
0
41
1
10
568.107382666912
20
-3.23816651619706
30
0
41
1
10
568.324759526419
20
-2.77677947489116
30
0
0
SPLINE
5
16C
100
AcDbEntity
8
1
62
256
6
ByLayer
370
18
48
1
60
0
100
AcDbSpline
70
4
71
3
72
8
73
4
40
0
40
0
40
0
40
0
40
1
40
1
40
1
40
1
41
1
10
568.324759526419
20
-2.35146119898371
30
0
41
1
10
568.100191536751
20
-2.54535781735063
30
0
41
1
10
567.875423713527
20
-2.73894510745822
30
0
41
1
10
567.650480947162
20
-2.93226159791618
30
0
0
SPLINE
5
16D
100
AcDbEntity
8
1
62
256
6
ByLayer
370
18
48
1
60
0
100
AcDbSpline
70
4
71
3
72
39
73
35
40
0
40
0
40
0
40
0
40
0.0312500000000006
40
0.0312500000000006
40
0.0625000000000012
40
0.0625000000000012
40
0.0937500000000018
40
0.0937500000000018
40
0.125000000000002
40
0.125000000000002
40
0.156250000000003
40
0.156250000000003
40
0.187500000000004
40
0.187500000000004
40
0.218750000000004
40
0.218750000000004
40
0.250000000000005
40
0.250000000000005
40
0.281250000000005
40
0.281250000000005
40
0.312500000000006
40
0.312500000000006
40
0.375000000000006
40
0.375000000000006
40
0.499999999999999
40
0.499999999999999
40
0.562499999999999
40
0.562499999999999
40
0.624999999999998
40
0.624999999999998
40
0.749999999999999
40
0.749999999999999
40
0.874999999999999
40
1
40
1
40
1
40
1
41
1
10
567.650480947162
20
-2.932261597918
30
0
41
1
10
567.645659559596
20
-2.93640511290346
30
0
41
1
10
567.640801078904
20
-2.94027527253354
30
0
41
1
10
567.630992180374
20
-2.94733665601501
30
0
41
1
10
567.626006027204
20
-2.95054470916693
30
0
41
1
10
567.616213206618
20
-2.95591984138929
30
0
41
1
10
567.611384546088
20
-2.95810902100658
30
0
41
1
10
567.601890289183
20
-2.96128445215328
30
0
41
1
10
567.597355810905
20
-2.96222048374523
30
0
41
1
10
567.588820720175
20
-2.96271895541383
30
0
41
1
10
567.584759371
20
-2.96226588251534
30
0
41
1
10
567.577453125654
20
-2.96002560259382
30
0
41
1
10
567.574191909539
20
-2.9582620751234
30
0
41
1
10
567.568356163976
20
-2.95360470918979
30
0
41
1
10
567.565807208947
20
-2.95071591730056
30
0
41
1
10
567.561457307646
20
-2.94421632214494
30
0
41
1
10
567.559626662752
20
-2.94058162684405
30
0
41
1
10
567.556523269337
20
-2.9326866584442
30
0
41
1
10
567.555247510152
20
-2.92840352998718
30
0
41
1
10
567.55319751331
20
-2.91944341403291
30
0
41
1
10
567.552418485904
20
-2.91476360894916
30
0
41
1
10
567.550682498191
20
-2.90023434939485
30
0
41
1
10
567.550325735067
20
-2.88985561336847
30
0
41
1
10
567.550966789172
20
-2.85799228261726
30
0
41
1
10
567.553590221519
20
-2.83558668761202
30
0
41
1
10
567.559524476594
20
-2.80090260273039
30
0
41
1
10
567.561860927053
20
-2.78911380618899
30
0
41
1
10
567.567088729835
20
-2.76542058685061
30
0
41
1
10
567.569973709317
20
-2.75353553285834
30
0
41
1
10
567.579321527427
20
-2.7177809868877
30
0
41
1
10
567.58646953122
20
-2.6938130910537
30
0
41
1
10
567.602267862415
20
-2.64565947793375
30
0
41
1
10
567.619577003328
20
-2.5972869331207
30
0
41
1
10
567.639694160572
20
-2.54851064618469
30
0
41
1
10
567.650480947162
20
-2.52402032861346
30
0
0
SPLINE
5
16E
100
AcDbEntity
8
1
62
256
6
ByLayer
370
18
48
1
60
0
100
AcDbSpline
70
4
71
3
72
8
73
4
40
0
40
0
40
0
40
0
40
1
40
1
40
1
40
1
41
1
10
567.650480947162
20
-2.52402032861346
30
0
41
1
10
567.886241901321
20
-1.98874871734216
30
0
41
1
10
568.111437539985
20
-1.44762852173454
30
0
41
1
10
568.324759526419
20
-0.89993549292825
30
0
0
SPLINE
5
16F
100
AcDbEntity
8
1
62
256
6
ByLayer
370
18
48
1
60
0
100
AcDbSpline
70
4
71
3
72
8
73
4
40
0
40
0
40
0
40
0
40
1
40
1
40
1
40
1
41
1
10
568.324759526419
20
-0.34389161534483
30
0
41
1
10
568.100672937923
20
-0.556162591907196
30
0
41
1
10
567.875878259423
20
-0.767429388532435
30
0
41
1
10
567.650480947162
20
-0.977841558303169
30
0
0
SPLINE
5
170
100
AcDbEntity
8
1
62
256
6
ByLayer
370
18
48
1
60
0
100
AcDbSpline
70
4
71
3
72
39
73
35
40
0
40
0
40
0
40
0
40
0.031249999999996
40
0.031249999999996
40
0.062499999999992
40
0.062499999999992
40
0.0781249999999901
40
0.0781249999999901
40
0.0937499999999882
40
0.0937499999999882
40
0.124999999999984
40
0.124999999999984
40
0.15624999999998
40
0.15624999999998
40
0.187499999999976
40
0.187499999999976
40
0.218749999999972
40
0.218749999999972
40
0.249999999999969
40
0.249999999999969
40
0.281249999999965
40
0.281249999999965
40
0.312499999999961
40
0.312499999999961
40
0.374999999999961
40
0.374999999999961
40
0.499999999999969
40
0.499999999999969
40
0.624999999999977
40
0.624999999999977
40
0.749999999999984
40
0.749999999999984
40
0.874999999999992
40
1
40
1
40
1
40
1
41
1
10
567.650480947162
20
-0.977841558304931
30
0
41
1
10
567.645070573186
20
-0.982892233116388
30
0
41
1
10
567.639513106979
20
-0.987579228837319
30
0
41
1
10
567.628225225349
20
-0.995759799513735
30
0
41
1
10
567.622572736454
20
-0.999203314171893
30
0
41
1
10
567.614077225303
20
-1.00309188103847
30
0
41
1
10
567.611222335286
20
-1.00417688359528
30
0
41
1
10
567.605677702528
20
-1.00579678088002
30
0
41
1
10
567.602973531995
20
-1.00634145162616
30
0
41
1
10
567.595073068045
20
-1.00714902252196
30
0
41
1
10
567.590031566255
20
-1.00653248903342
30
0
41
1
10
567.581193349521
20
-1.00322100252112
30
0
41
1
10
567.577280359417
20
-1.00054314112481
30
0
41
1
10
567.570434037439
20
-0.993612958907136
30
0
41
1
10
567.567567506173
20
-0.989455460235547
30
0
41
1
10
567.562642849808
20
-0.980131183633546
30
0
41
1
10
567.560603852079
20
-0.974976493191207
30
0
41
1
10
567.557229405652
20
-0.964197752233815
30
0
41
1
10
567.555875895449
20
-0.958533659728573
30
0
41
1
10
567.553672457203
20
-0.94678901701576
30
0
41
1
10
567.552823959493
20
-0.940707304258353
30
0
41
1
10
567.551532822405
20
-0.928206679927825
30
0
41
1
10
567.551090778585
20
-0.921769186527058
30
0
41
1
10
567.550280304693
20
-0.902257823361708
30
0
41
1
10
567.550409275107
20
-0.888933626273968
30
0
41
1
10
567.552194406003
20
-0.84829137627122
30
0
41
1
10
567.555225580056
20
-0.820314330220867
30
0
41
1
10
567.56364088965
20
-0.763207265473113
30
0
41
1
10
567.568989094997
20
-0.734484531172598
30
0
41
1
10
567.581324248186
20
-0.676891721786319
30
0
41
1
10
567.588324868774
20
-0.647999173381379
30
0
41
1
10
567.603732419277
20
-0.590048407194558
30
0
41
1
10
567.620551977068
20
-0.531931418667625
30
0
41
1
10
567.640038964386
20
-0.473501799807082
30
0
41
1
10
567.650480947162
20
-0.444207483062257
30
0
0
SPLINE
5
171
100
AcDbEntity
8
1
62
256
6
ByLayer
370
18
48
1
60
0
100
AcDbSpline
70
4
71
3
72
8
73
4
40
0
40
0
40
0
40
0
40
1
40
1
40
1
40
1
41
1
10
567.650480947162
20
-0.444207483062257
30
0
41
1
10
567.895186418447
20
0.24229811068858
30
0
41
1
10
568.120774732857
20
0.937045595656343
30
0
41
1
10
568.324759526419
20
1.64110690641399
30
0
0
SPLINE
5
172
100
AcDbEntity
8
1
62
256
6
ByLayer
370
18
48
1
60
0
100
AcDbSpline
70
4
71
3
72
8
73
4
40
0
40
0
40
0
40
0
40
1
40
1
40
1
40
1
41
1
10
568.324759526419
20
2.45456470771893
30
0
41
1
10
568.102856207575
20
2.19187060693343
30
0
41
1
10
567.87789393872
20
1.93271052174703
30
0
41
1
10
567.650480947162
20
1.67638176503277
30
0
0
SPLINE
5
173
100
AcDbEntity
8
1
62
256
6
ByLayer
370
18
48
1
60
0
100
AcDbSpline
70
4
71
3
72
38
73
34
40
0
40
0
40
0
40
0
40
0.031250000000003
40
0.031250000000003
40
0.0468750000000068
40
0.0468750000000068
40
0.0625000000000107
40
0.0625000000000107
40
0.0781250000000144
40
0.0781250000000144
40
0.0937500000000182
40
0.0937500000000182
40
0.109375000000022
40
0.109375000000022
40
0.125000000000026
40
0.125000000000026
40
0.156250000000027
40
0.156250000000027
40
0.187500000000028
40
0.187500000000028
40
0.250000000000024
40
0.250000000000024
40
0.31250000000002
40
0.31250000000002
40
0.375000000000016
40
0.375000000000016
40
0.500000000000012
40
0.500000000000012
40
0.625000000000009
40
0.625000000000009
40
0.750000000000005
40
0.750000000000005
40
1
40
1
40
1
40
1
41
1
10
567.650480947163
20
1.67638176502948
30
0
41
1
10
567.643984522043
20
1.66905931364801
30
0
41
1
10
567.637087099727
20
1.66231875587789
30
0
41
1
10
567.626354747428
20
1.65431929894339
30
0
41
1
10
567.622672786077
20
1.65198024808029
30
0
41
1
10
567.615227174174
20
1.6483035930188
30
0
41
1
10
567.611531397854
20
1.64699544836816
30
0
41
1
10
567.604203715131
20
1.64563392473019
30
0
41
1
10
567.600638398742
20
1.64561065532052
30
0
41
1
10
567.593959541195
20
1.64685932334777
30
0
41
1
10
567.590782123263
20
1.64815201330708
30
0
41
1
10
567.58507026222
20
1.6517179267301
30
0
41
1
10
567.582488099225
20
1.65398866350603
30
0
41
1
10
567.577753050436
20
1.65929668580236
30
0
41
1
10
567.575612489275
20
1.66232946069277
30
0
41
1
10
567.569849274635
20
1.67207971328747
30
0
41
1
10
567.566789889395
20
1.67956456217814
30
0
41
1
10
567.561775920044
20
1.69522279655121
30
0
41
1
10
567.559797491318
20
1.70345737470888
30
0
41
1
10
567.554893629213
20
1.72895805759015
30
0
41
1
10
567.552983754743
20
1.74711581875533
30
0
41
1
10
567.550722421526
20
1.78361208320371
30
0
41
1
10
567.550369579247
20
1.80210014155148
30
0
41
1
10
567.550648562
20
1.83938773594889
30
0
41
1
10
567.551290415845
20
1.85819022626737
30
0
41
1
10
567.5543116466
20
1.9149523649873
30
0
41
1
10
567.557768451239
20
1.95326129889264
30
0
41
1
10
567.566574464434
20
2.03052082889997
30
0
41
1
10
567.571943356467
20
2.06947722862333
30
0
41
1
10
567.584191791777
20
2.14791859569266
30
0
41
1
10
567.591049423945
20
2.18722891010407
30
0
41
1
10
567.613451439318
20
2.30514039385747
30
0
41
1
10
567.630794068013
20
2.38384383757238
30
0
41
1
10
567.650480947162
20
2.46263609031763
30
0
0
SPLINE
5
174
100
AcDbEntity
8
1
62
256
6
ByLayer
370
18
48
1
60
0
100
AcDbSpline
70
4
71
3
72
8
73
4
40
0
40
0
40
0
40
0
40
1
40
1
40
1
40
1
41
1
10
567.650480947162
20
2.46263609031757
30
0
41
1
10
567.936650314553
20
3.60796384660381
30
0
41
1
10
568.164101740032
20
4.76844481811253
30
0
41
1
10
568.324759526419
20
5.94616308295468
30
0
0
SPLINE
5
175
100
AcDbEntity
8
1
62
256
6
ByLayer
370
18
48
1
60
0
100
AcDbSpline
70
4
71
3
72
10
73
6
40
0
40
0
40
0
40
0
40
0.5
40
0.5
40
1
40
1
40
1
40
1
41
1
10
568.324759526416
20
8.46016437563725
30
0
41
1
10
568.253343637489
20
8.08605222484721
30
0
41
1
10
568.158489259991
20
7.72177884436883
30
0
41
1
10
567.9309865447
20
7.00909684761706
30
0
41
1
10
567.798334418939
20
6.66068982141837
30
0
41
1
10
567.650480947162
20
6.31866386161903
30
0
0
SPLINE
5
176
100
AcDbEntity
8
1
62
256
6
ByLayer
370
18
48
1
60
0
100
AcDbSpline
70
4
71
3
72
57
73
53
40
0
40
0
40
0
40
0
40
0.125
40
0.125
40
0.25
40
0.375000000000001
40
0.375000000000001
40
0.500000000000001
40
0.500000000000001
40
0.625000000000001
40
0.625000000000001
40
0.687500000000001
40
0.687500000000001
40
0.750000000000001
40
0.750000000000001
40
0.8125
40
0.8125
40
0.875
40
0.875
40
0.90625
40
0.90625
40
0.921875
40
0.921875
40
0.937499999999999
40
0.937499999999999
40
0.9453125
40
0.9453125
40
0.953125
40
0.953125
40
0.9609375
40
0.9609375
40
0.96484375
40
0.96484375
40
0.968749999999999
40
0.968749999999999
40
0.972656249999999
40
0.972656249999999
40
0.976562499999999
40
0.976562499999999
40
0.978515624999999
40
0.978515624999999
40
0.980468749999998
40
0.980468749999998
40
0.982421874999998
40
0.982421874999998
40
0.984374999999998
40
0.984374999999998
40
0.988281249999999
40
0.988281249999999
40
0.9921875
40
0.9921875
40
1
40
1
40
1
40
1
41
1
10
567.650480947162
20
9.79447758099826
30
0
41
1
10
567.649474914009
20
9.64257282307904
30
0
41
1
10
567.647352403027
20
9.49068193356169
30
0
41
1
10
567.641079448038
20
9.18692895768669
30
0
41
1
10
567.632780577668
20
8.88320479551027
30
0
41
1
10
567.621220285853
20
8.57954243457772
30
0
41
1
10
567.608599227804
20
8.27591403785436
30
0
41
1
10
567.601754923346
20
8.12411680115923
30
0
41
1
10
567.587790157286
20
7.82056059262777
30
0
41
1
10
567.580656945611
20
7.66880154760912
30
0
41
1
10
567.570656270951
20
7.44119674680263
30
0
41
1
10
567.567443146172
20
7.36533413035306
30
0
41
1
10
567.561508805656
20
7.2136216166233
30
0
41
1
10
567.558783648494
20
7.13774767313896
30
0
41
1
10
567.554227791731
20
6.98639807764863
30
0
41
1
10
567.552384521753
20
6.91088208268513
30
0
41
1
10
567.550304819929
20
6.76030544061041
30
0
41
1
10
567.550017507499
20
6.68523525994846
30
0
41
1
10
567.552116127572
20
6.57321938097095
30
0
41
1
10
567.553241725102
20
6.53597982306559
30
0
41
1
10
567.556066196098
20
6.48036217479188
30
0
41
1
10
567.557199844787
20
6.46186376712728
30
0
41
1
10
567.560032561575
20
6.42498249382146
30
0
41
1
10
567.561724621638
20
6.40659831536362
30
0
41
1
10
567.564962866512
20
6.37916042457891
30
0
41
1
10
567.566160648091
20
6.3700378374333
30
0
41
1
10
567.568892543204
20
6.35185807402093
30
0
41
1
10
567.570429233634
20
6.34277298098749
30
0
41
1
10
567.574003223349
20
6.32482961050255
30
0
41
1
10
567.576022559128
20
6.31601943191163
30
0
41
1
10
567.579665375541
20
6.30322695536699
30
0
41
1
10
567.580983473112
20
6.29903429871069
30
0
41
1
10
567.583925806698
20
6.29085903674445
30
0
41
1
10
567.585555704597
20
6.28686312506596
30
0
41
1
10
567.589214864265
20
6.27940680909927
30
0
41
1
10
567.59124291104
20
6.27591802146424
30
0
41
1
10
567.596024190781
20
6.26981277473988
30
0
41
1
10
567.598791925149
20
6.2672074496241
30
0
41
1
10
567.603585192062
20
6.26497186906516
30
0
41
1
10
567.605238544653
20
6.2645309526626
30
0
41
1
10
567.608667422954
20
6.26431709371332
30
0
41
1
10
567.61045752744
20
6.26455966997349
30
0
41
1
10
567.613936585578
20
6.26566676014733
30
0
41
1
10
567.615671884936
20
6.26653771797311
30
0
41
1
10
567.61899339339
20
6.26871155502153
30
0
41
1
10
567.620581409002
20
6.27000587963516
30
0
41
1
10
567.625186557665
20
6.27434154931967
30
0
41
1
10
567.628021131566
20
6.27780990187063
30
0
41
1
10
567.633249794903
20
6.28514751172537
30
0
41
1
10
567.635679061346
20
6.2890666805614
30
0
41
1
10
567.642616772461
20
6.30129666549914
30
0
41
1
10
567.646685962344
20
6.3098850124714
30
0
41
1
10
567.650480947162
20
6.31866386161903
30
0
0
SPLINE
5
177
100
AcDbEntity
8
1
62
256
6
ByLayer
370
18
48
1
60
0
100
AcDbSpline
70
4
71
3
72
8
73
4
40
0
40
0
40
0
40
0
40
1
40
1
40
1
40
1
41
1
10
567.650480947162
20
9.79447758099826
30
0
41
1
10
567.651388368233
20
9.93149252699942
30
0
41
1
10
567.651388368233
20
10.0685074730006
30
0
41
1
10
567.650480947162
20
10.2055224190018
30
0
0
SPLINE
5
178
100
AcDbEntity
8
1
62
256
6
ByLayer
370
18
48
1
60
0
100
AcDbSpline
70
4
71
3
72
59
73
55
40
0
40
0
40
0
40
0
40
0.124999999999998
40
0.124999999999998
40
0.249999999999996
40
0.374999999999994
40
0.374999999999994
40
0.499999999999992
40
0.499999999999992
40
0.62499999999999
40
0.62499999999999
40
0.687499999999989
40
0.687499999999989
40
0.749999999999988
40
0.749999999999988
40
0.812499999999987
40
0.812499999999987
40
0.843749999999987
40
0.843749999999987
40
0.874999999999986
40
0.874999999999986
40
0.906249999999986
40
0.906249999999986
40
0.921874999999986
40
0.921874999999986
40
0.937499999999986
40
0.937499999999986
40
0.945312499999987
40
0.945312499999987
40
0.953124999999987
40
0.953124999999987
40
0.960937499999988
40
0.960937499999988
40
0.964843749999988
40
0.964843749999988
40
0.968749999999988
40
0.968749999999988
40
0.972656249999988
40
0.972656249999988
40
0.976562499999989
40
0.976562499999989
40
0.97851562499999
40
0.97851562499999
40
0.980468749999991
40
0.980468749999991
40
0.982421874999992
40
0.982421874999992
40
0.984374999999993
40
0.984374999999993
40
0.988281249999995
40
0.988281249999995
40
0.992187499999997
40
0.992187499999997
40
1
40
1
40
1
40
1
41
1
10
567.650480947162
20
10.2055224190018
30
0
41
1
10
567.649474529164
20
10.3574852861192
30
0
41
1
10
567.647350571744
20
10.5094620343194
30
0
41
1
10
567.641070593963
20
10.8134443933812
30
0
41
1
10
567.632760419544
20
11.1174556232829
30
0
41
1
10
567.621178756172
20
11.4215288641216
30
0
41
1
10
567.608531759673
20
11.7256362295776
30
0
41
1
10
567.601672191192
20
11.8777069546616
30
0
41
1
10
567.587676377915
20
12.1818869200888
30
0
41
1
10
567.580530180473
20
12.3339457376476
30
0
41
1
10
567.570536139854
20
12.5616080984846
30
0
41
1
10
567.567328862802
20
12.6374390773337
30
0
41
1
10
567.561413484972
20
12.7889690857481
30
0
41
1
10
567.558701689912
20
12.86466839813
30
0
41
1
10
567.554167978853
20
13.0159053359236
30
0
41
1
10
567.552334555853
20
13.0914438407016
30
0
41
1
10
567.550799054594
20
13.2045885463255
30
0
41
1
10
567.550492739192
20
13.2422760369103
30
0
41
1
10
567.550469812771
20
13.3175825427869
30
0
41
1
10
567.550750183483
20
13.3552388665528
30
0
41
1
10
567.552208755407
20
13.4302326217144
30
0
41
1
10
567.553373181025
20
13.4675729768558
30
0
41
1
10
567.556275212278
20
13.5231989072049
30
0
41
1
10
567.557437968645
20
13.541675934308
30
0
41
1
10
567.560336644401
20
13.5784457108357
30
0
41
1
10
567.562065629678
20
13.5967405299608
30
0
41
1
10
567.565365531574
20
13.6239620454232
30
0
41
1
10
567.566584913132
20
13.6329985979264
30
0
41
1
10
567.569361551694
20
13.6509675743081
30
0
41
1
10
567.570921073671
20
13.659919161523
30
0
41
1
10
567.574516938715
20
13.6774537645175
30
0
41
1
10
567.576547962152
20
13.6860599634295
30
0
41
1
10
567.58021552862
20
13.6985438125884
30
0
41
1
10
567.581543102687
20
13.7026331396192
30
0
41
1
10
567.584510409302
20
13.7105987392375
30
0
41
1
10
567.586161611328
20
13.7145039643822
30
0
41
1
10
567.589888240219
20
13.7217777673951
30
0
41
1
10
567.591955510826
20
13.7251627485117
30
0
41
1
10
567.59684579735
20
13.7310016203027
30
0
41
1
10
567.599637337106
20
13.7333837176071
30
0
41
1
10
567.604411839463
20
13.7352706160984
30
0
41
1
10
567.606061767277
20
13.7356019586467
30
0
41
1
10
567.609492008733
20
13.7356009926044
30
0
41
1
10
567.611227428267
20
13.7352622784863
30
0
41
1
10
567.61463552521
20
13.7340069946705
30
0
41
1
10
567.616332222931
20
13.7330796461144
30
0
41
1
10
567.61955483406
20
13.730848235388
30
0
41
1
10
567.621102908113
20
13.7295383311096
30
0
41
1
10
567.62560527577
20
13.7251733572554
30
0
41
1
10
567.62836321643
20
13.7217476448436
30
0
41
1
10
567.633516183583
20
13.7144363213693
30
0
41
1
10
567.635914818984
20
13.7105362614838
30
0
41
1
10
567.642693644436
20
13.6985283928831
30
0
41
1
10
567.646722359183
20
13.6900307915786
30
0
41
1
10
567.650480947162
20
13.6813361383826
30
0
0
SPLINE
5
179
100
AcDbEntity
8
1
62
256
6
ByLayer
370
18
48
1
60
0
100
AcDbSpline
70
4
71
3
72
10
73
6
40
0
40
0
40
0
40
0
40
0.5
40
0.5
40
1
40
1
40
1
40
1
41
1
10
567.650480947161
20
13.6813361383823
30
0
41
1
10
567.798334418938
20
13.3393101785829
30
0
41
1
10
567.9309865447
20
12.9909031523841
30
0
41
1
10
568.158489259991
20
12.2782211556321
30
0
41
1
10
568.253343637489
20
11.9139477751536
30
0
41
1
10
568.324759526416
20
11.5398356243635
30
0
0
SPLINE
5
17A
100
AcDbEntity
8
1
62
256
6
ByLayer
370
18
48
1
60
0
100
AcDbSpline
70
4
71
3
72
8
73
4
40
0
40
0
40
0
40
0
40
1
40
1
40
1
40
1
41
1
10
568.324759526419
20
14.0538369170453
30
0
41
1
10
568.164101740032
20
15.2315551818875
30
0
41
1
10
567.936650314553
20
16.3920361533962
30
0
41
1
10
567.650480947162
20
17.5373639096824
30
0
0
SPLINE
5
17B
100
AcDbEntity
8
1
62
256
6
ByLayer
370
18
48
1
60
0
100
AcDbSpline
70
4
71
3
72
42
73
38
40
0
40
0
40
0
40
0
40
0.250000000000002
40
0.250000000000002
40
0.375000000000008
40
0.375000000000008
40
0.500000000000014
40
0.500000000000014
40
0.62500000000002
40
0.62500000000002
40
0.687500000000026
40
0.687500000000026
40
0.750000000000032
40
0.750000000000032
40
0.781250000000028
40
0.781250000000028
40
0.812500000000023
40
0.812500000000023
40
0.843750000000019
40
0.843750000000019
40
0.859375000000017
40
0.859375000000017
40
0.875000000000015
40
0.875000000000015
40
0.890625000000013
40
0.890625000000013
40
0.906250000000012
40
0.906250000000012
40
0.92187500000001
40
0.92187500000001
40
0.937500000000008
40
0.937500000000008
40
0.953125000000006
40
0.953125000000006
40
0.968750000000004
40
0.968750000000004
40
1
40
1
40
1
40
1
41
1
10
567.650480947161
20
17.5373639096824
30
0
41
1
10
567.63076897837
20
17.6162565780124
30
0
41
1
10
567.61346059995
20
17.6948483875495
30
0
41
1
10
567.591140780514
20
17.8122718609814
30
0
41
1
10
567.584320719394
20
17.8513346156643
30
0
41
1
10
567.572124668301
20
17.9292847102226
30
0
41
1
10
567.566742521326
20
17.9681725752515
30
0
41
1
10
567.557864378318
20
18.045734165457
30
0
41
1
10
567.55434285781
20
18.0844400879741
30
0
41
1
10
567.551271377319
20
18.1421780618732
30
0
41
1
10
567.550630005146
20
18.1612308644057
30
0
41
1
10
567.550377159459
20
18.1988263852385
30
0
41
1
10
567.550757044975
20
18.2173731419214
30
0
41
1
10
567.552486535079
20
18.2446298400157
30
0
41
1
10
567.553258656099
20
18.2536204028768
30
0
41
1
10
567.555324288495
20
18.2713507168489
30
0
41
1
10
567.556619146011
20
18.2801132325764
30
0
41
1
10
567.559941779673
20
18.2971873027509
30
0
41
1
10
567.56194845637
20
18.3054174754391
30
0
41
1
10
567.565733288872
20
18.317079095543
30
0
41
1
10
567.567125496084
20
18.3208510908144
30
0
41
1
10
567.570248978874
20
18.3280968735361
30
0
41
1
10
567.571992418155
20
18.3315905985706
30
0
41
1
10
567.575857623531
20
18.3380349923355
30
0
41
1
10
567.577978928924
20
18.3409948006531
30
0
41
1
10
567.582717557109
20
18.3462264145773
30
0
41
1
10
567.58536880188
20
18.3485166992717
30
0
41
1
10
567.591140283969
20
18.3520175053935
30
0
41
1
10
567.594278886941
20
18.3532465409801
30
0
41
1
10
567.601038610781
20
18.354412808648
30
0
41
1
10
567.604547324229
20
18.3543357984657
30
0
41
1
10
567.611812347963
20
18.3529157629835
30
0
41
1
10
567.615579957293
20
18.3515498926707
30
0
41
1
10
567.622949675614
20
18.3478528590455
30
0
41
1
10
567.626634528598
20
18.3454932373682
30
0
41
1
10
567.637401170667
20
18.3374023255912
30
0
41
1
10
567.644079218297
20
18.3308339493794
30
0
41
1
10
567.650480947162
20
18.3236182349672
30
0
0
SPLINE
5
17C
100
AcDbEntity
8
1
62
256
6
ByLayer
370
18
48
1
60
0
100
AcDbSpline
70
4
71
3
72
8
73
4
40
0
40
0
40
0
40
0
40
1
40
1
40
1
40
1
41
1
10
567.650480947162
20
18.3236182349672
30
0
41
1
10
567.877893938717
20
18.0672894782562
30
0
41
1
10
568.102856207569
20
17.808129393073
30
0
41
1
10
568.324759526411
20
17.5454352922909
30
0
0
SPLINE
5
17D
100
AcDbEntity
8
1
62
256
6
ByLayer
370
18
48
1
60
0
100
AcDbSpline
70
4
71
3
72
8
73
4
40
0
40
0
40
0
40
0
40
1
40
1
40
1
40
1
41
1
10
568.324759526419
20
18.358893093586
30
0
41
1
10
568.120774732857
20
19.0629544043437
30
0
41
1
10
567.895186418447
20
19.7577018893114
30
0
41
1
10
567.650480947162
20
20.4442074830623
30
0
0
SPLINE
5
17E
100
AcDbEntity
8
1
62
256
6
ByLayer
370
18
48
1
60
0
100
AcDbSpline
70
4
71
3
72
40
73
36
40
0
40
0
40
0
40
0
40
0.125000000000016
40
0.125000000000016
40
0.250000000000032
40
0.250000000000032
40
0.375000000000048
40
0.375000000000048
40
0.500000000000064
40
0.500000000000064
40
0.562500000000069
40
0.562500000000069
40
0.625000000000074
40
0.625000000000074
40
0.687500000000078
40
0.687500000000078
40
0.750000000000083
40
0.750000000000083
40
0.781250000000076
40
0.781250000000076
40
0.812500000000069
40
0.812500000000069
40
0.843750000000062
40
0.843750000000062
40
0.875000000000055
40
0.875000000000055
40
0.906250000000048
40
0.906250000000048
40
0.921875000000044
40
0.921875000000044
40
0.93750000000004
40
0.93750000000004
40
0.96875000000002
40
0.96875000000002
40
1
40
1
40
1
40
1
41
1
10
567.650480947162
20
20.4442074830623
30
0
41
1
10
567.640025010736
20
20.4735409458828
30
0
41
1
10
567.630210989745
20
20.5029673076446
30
0
41
1
10
567.611958545041
20
20.5616002322846
30
0
41
1
10
567.603523410692
20
20.590786552845
30
0
41
1
10
567.588102337403
20
20.6488854928166
30
0
41
1
10
567.581113785878
20
20.6777985452119
30
0
41
1
10
567.5688291768
20
20.7353093306323
30
0
41
1
10
567.56352332279
20
20.7639086554242
30
0
41
1
10
567.557268698592
20
20.8064991466697
30
0
41
1
10
567.555468305322
20
20.8206822963954
30
0
41
1
10
567.552619223369
20
20.8486113407325
30
0
41
1
10
567.551563972929
20
20.8623801284275
30
0
41
1
10
567.550399909879
20
20.8894214732842
30
0
41
1
10
567.550285829804
20
20.9026966836893
30
0
41
1
10
567.55138586223
20
20.9285585052098
30
0
41
1
10
567.552608640832
20
20.941233130269
30
0
41
1
10
567.555948456209
20
20.9588608230583
30
0
41
1
10
567.557314290988
20
20.9645185412802
30
0
41
1
10
567.560709973981
20
20.9752629426491
30
0
41
1
10
567.562757184409
20
20.9803881681514
30
0
41
1
10
567.567691285185
20
20.989647309684
30
0
41
1
10
567.570555797839
20
20.993760395917
30
0
41
1
10
567.57735811212
20
21.0005969404052
30
0
41
1
10
567.581328265331
20
21.0032995526688
30
0
41
1
10
567.590209516905
20
21.0065701580048
30
0
41
1
10
567.595238130169
20
21.0071547338828
30
0
41
1
10
567.603144568994
20
21.0063121242097
30
0
41
1
10
567.605853809947
20
21.0057558877143
30
0
41
1
10
567.611415566325
20
21.0041091466677
30
0
41
1
10
567.614249175209
20
21.0030206655203
30
0
41
1
10
567.622685087213
20
20.9991362853478
30
0
41
1
10
567.628307688267
20
20.9957046891457
30
0
41
1
10
567.639550729521
20
20.9875472607252
30
0
41
1
10
567.645089621271
20
20.9828744514101
30
0
41
1
10
567.650480947162
20
20.9778415583049
30
0
0
SPLINE
5
17F
100
AcDbEntity
8
1
62
256
6
ByLayer
370
18
48
1
60
0
100
AcDbSpline
70
4
71
3
72
8
73
4
40
0
40
0
40
0
40
0
40
1
40
1
40
1
40
1
41
1
10
567.650480947162
20
20.9778415583032
30
0
41
1
10
567.875878259423
20
20.7674293885324
30
0
41
1
10
568.100672937923
20
20.5561625919072
30
0
41
1
10
568.324759526419
20
20.3438916153448
30
0
0
SPLINE
5
180
100
AcDbEntity
8
1
62
256
6
ByLayer
370
18
48
1
60
0
100
AcDbSpline
70
4
71
3
72
8
73
4
40
0
40
0
40
0
40
0
40
1
40
1
40
1
40
1
41
1
10
568.324759526419
20
20.8999354929283
30
0
41
1
10
568.111437539985
20
21.4476285217345
30
0
41
1
10
567.886241901321
20
21.9887487173422
30
0
41
1
10
567.650480947162
20
22.5240203286135
30
0
0
SPLINE
5
181
100
AcDbEntity
8
1
62
256
6
ByLayer
370
18
48
1
60
0
100
AcDbSpline
70
4
71
3
72
40
73
36
40
0
40
0
40
0
40
0
40
0.125000000000005
40
0.125000000000005
40
0.25000000000001
40
0.25000000000001
40
0.375000000000016
40
0.375000000000016
40
0.500000000000021
40
0.500000000000021
40
0.562500000000015
40
0.562500000000015
40
0.625000000000009
40
0.625000000000009
40
0.687500000000003
40
0.687500000000003
40
0.718750000000003
40
0.718750000000003
40
0.750000000000002
40
0.750000000000002
40
0.781250000000002
40
0.781250000000002
40
0.812500000000002
40
0.812500000000002
40
0.843750000000002
40
0.843750000000002
40
0.875000000000001
40
0.875000000000001
40
0.906250000000001
40
0.906250000000001
40
0.937500000000001
40
0.937500000000001
40
0.96875
40
0.96875
40
1
40
1
40
1
40
1
41
1
10
567.650480947162
20
22.5240203286135
30
0
41
1
10
567.639690471916
20
22.5485190209094
30
0
41
1
10
567.629613916005
20
22.5729486554888
30
0
41
1
10
567.610849297583
20
22.621668938142
30
0
41
1
10
567.602160592807
20
22.6459596622956
30
0
41
1
10
567.586289625029
20
22.6943887125299
30
0
41
1
10
567.579096154492
20
22.7185525224916
30
0
41
1
10
567.566584682111
20
22.7665924147565
30
0
41
1
10
567.561339273704
20
22.7901565661243
30
0
41
1
10
567.555481361028
20
22.8246060554301
30
0
41
1
10
567.553867302615
20
22.8359382479917
30
0
41
1
10
567.551487852271
20
22.8582271487095
30
0
41
1
10
567.550718615151
20
22.8692396521953
30
0
41
1
10
567.550336211257
20
22.8904892822468
30
0
41
1
10
567.550714779598
20
22.9006787514834
30
0
41
1
10
567.552465551096
20
22.915065565048
30
0
41
1
10
567.553248182532
20
22.9197101977658
30
0
41
1
10
567.555309097648
20
22.9286248501684
30
0
41
1
10
567.556593904736
20
22.9329010995047
30
0
41
1
10
567.559717301251
20
22.9407756166953
30
0
41
1
10
567.561559358519
20
22.9444002494743
30
0
41
1
10
567.565937706079
20
22.9508777423328
30
0
41
1
10
567.568504767017
20
22.9537519025183
30
0
41
1
10
567.574349248947
20
22.9583575070419
30
0
41
1
10
567.577621102576
20
22.9601034727104
30
0
41
1
10
567.584977180313
20
22.9623048822337
30
0
41
1
10
567.589008029016
20
22.9627276846837
30
0
41
1
10
567.597554413792
20
22.962188306639
30
0
41
1
10
567.602165047507
20
22.9612103113994
30
0
41
1
10
567.61156352127
20
22.9580305278136
30
0
41
1
10
567.616343834585
20
22.9558532438612
30
0
41
1
10
567.626039774226
20
22.9505209964753
30
0
41
1
10
567.630992916634
20
22.947336362705
30
0
41
1
10
567.640809613647
20
22.9402688914594
30
0
41
1
10
567.64566607499
20
22.9363995135537
30
0
41
1
10
567.650480947162
20
22.9322615979172
30
0
0
SPLINE
5
182
100
AcDbEntity
8
1
62
256
6
ByLayer
370
18
48
1
60
0
100
AcDbSpline
70
4
71
3
72
8
73
4
40
0
40
0
40
0
40
0
40
1
40
1
40
1
40
1
41
1
10
567.650480947162
20
22.9322615979162
30
0
41
1
10
567.875423713527
20
22.7389451074582
30
0
41
1
10
568.100191536751
20
22.5453578173506
30
0
41
1
10
568.324759526419
20
22.3514611989837
30
0
0
SPLINE
5
183
100
AcDbEntity
8
1
62
256
6
ByLayer
370
18
48
1
60
0
100
AcDbSpline
70
4
71
3
72
8
73
4
40
0
40
0
40
0
40
0
40
1
40
1
40
1
40
1
41
1
10
568.324759526419
20
22.7767794748912
30
0
41
1
10
568.107382666912
20
23.2381665161971
30
0
41
1
10
567.882352997816
20
23.6945301612787
30
0
41
1
10
567.650480947162
20
24.1464023848396
30
0
0
SPLINE
5
184
100
AcDbEntity
8
1
62
256
6
ByLayer
370
18
48
1
60
0
100
AcDbSpline
70
4
71
3
72
40
73
36
40
0
40
0
40
0
40
0
40
0.125
40
0.125
40
0.250000000000001
40
0.250000000000001
40
0.375000000000001
40
0.375000000000001
40
0.437499999999999
40
0.437499999999999
40
0.499999999999997
40
0.499999999999997
40
0.562499999999995
40
0.562499999999995
40
0.624999999999993
40
0.624999999999993
40
0.687499999999991
40
0.687499999999991
40
0.718749999999991
40
0.718749999999991
40
0.749999999999992
40
0.749999999999992
40
0.781249999999992
40
0.781249999999992
40
0.812499999999992
40
0.812499999999992
40
0.843749999999993
40
0.843749999999993
40
0.874999999999993
40
0.874999999999993
40
0.937499999999991
40
0.937499999999991
40
0.968749999999996
40
0.968749999999996
40
1
40
1
40
1
40
1
41
1
10
567.650480947162
20
24.1464023848396
30
0
41
1
10
567.639414958228
20
24.1679677827019
30
0
41
1
10
567.629040809078
20
24.1894982781843
30
0
41
1
10
567.609683150239
20
24.2324844320556
30
0
41
1
10
567.600665700982
20
24.2540304822579
30
0
41
1
10
567.584409180772
20
24.2964716606384
30
0
41
1
10
567.577153956557
20
24.3173783954802
30
0
41
1
10
567.56784509696
20
24.348174082471
30
0
41
1
10
567.565006721943
20
24.358344472771
30
0
41
1
10
567.55994833633
20
24.3784644888773
30
0
41
1
10
567.557723039423
20
24.3884367390243
30
0
41
1
10
567.554054354314
20
24.40801378138
30
0
41
1
10
567.552625671844
20
24.4175304795215
30
0
41
1
10
567.550759790623
20
24.4359026326873
30
0
41
1
10
567.550318779816
20
24.4447605718962
30
0
41
1
10
567.550749497916
20
24.4616056545879
30
0
41
1
10
567.551636822927
20
24.4696104377068
30
0
41
1
10
567.554281873644
20
24.4802400051828
30
0
41
1
10
567.555383473851
20
24.4835703154142
30
0
41
1
10
567.55811068237
20
24.4897250071963
30
0
41
1
10
567.559751087798
20
24.4925672484108
30
0
41
1
10
567.5635955558
20
24.4975235357782
30
0
41
1
10
567.565792502249
20
24.4996397405528
30
0
41
1
10
567.570810054821
20
24.5030524418847
30
0
41
1
10
567.573662929114
20
24.5043510856066
30
0
41
1
10
567.579852338377
20
24.505948937453
30
0
41
1
10
567.583198210382
20
24.5062662734115
30
0
41
1
10
567.59039654148
20
24.5059318013038
30
0
41
1
10
567.594295692839
20
24.5052651393165
30
0
41
1
10
567.606418497699
20
24.5018746224377
30
0
41
1
10
567.61493133613
20
24.4978669254721
30
0
41
1
10
567.628201605806
20
24.4898327177079
30
0
41
1
10
567.632697891773
20
24.4868155998196
30
0
41
1
10
567.641605111237
20
24.4803478822293
30
0
41
1
10
567.646047713552
20
24.476878426667
30
0
41
1
10
567.650480947162
20
24.4732088630919
30
0
0
SPLINE
5
185
100
AcDbEntity
8
1
62
256
6
ByLayer
370
18
48
1
60
0
100
AcDbSpline
70
4
71
3
72
8
73
4
40
0
40
0
40
0
40
0
40
1
40
1
40
1
40
1
41
1
10
567.650480947162
20
24.4732088630914
30
0
41
1
10
567.87528177088
20
24.2871322907612
30
0
41
1
10
568.10004293855
20
24.1009918745286
30
0
41
1
10
568.324759526419
20
23.9147796874403
30
0
0
SPLINE
5
186
100
AcDbEntity
8
1
62
256
6
ByLayer
370
18
48
1
60
0
100
AcDbSpline
70
4
71
3
72
8
73
4
40
0
40
0
40
0
40
0
40
1
40
1
40
1
40
1
41
1
10
568.324759526419
20
24.2542482702526
30
0
41
1
10
568.105152654041
20
24.6587123242203
30
0
41
1
10
567.880211532645
20
25.0591860512804
30
0
41
1
10
567.650480947162
20
25.4560769820827
30
0
0
SPLINE
5
187
100
AcDbEntity
8
1
62
256
6
ByLayer
370
18
48
1
60
0
100
AcDbSpline
70
4
71
3
72
39
73
35
40
0
40
0
40
0
40
0
40
0.125000000000004
40
0.125000000000004
40
0.250000000000007
40
0.250000000000007
40
0.375000000000011
40
0.375000000000011
40
0.437500000000005
40
0.437500000000005
40
0.5
40
0.5
40
0.562499999999994
40
0.562499999999994
40
0.593749999999991
40
0.593749999999991
40
0.624999999999988
40
0.624999999999988
40
0.68749999999999
40
0.68749999999999
40
0.718749999999991
40
0.718749999999991
40
0.749999999999992
40
0.749999999999992
40
0.781249999999993
40
0.781249999999993
40
0.812499999999994
40
0.843749999999995
40
0.843749999999995
40
0.874999999999996
40
0.874999999999996
40
0.937499999999998
40
0.937499999999998
40
1
40
1
40
1
40
1
41
1
10
567.650480947162
20
25.4560769820827
30
0
41
1
10
567.639193035731
20
25.4755783891984
30
0
41
1
10
567.628590160519
20
25.4950150973001
30
0
41
1
10
567.608789608101
20
25.5337506274622
30
0
41
1
10
567.59955440175
20
25.553139477002
30
0
41
1
10
567.58299604585
20
25.5910738569027
30
0
41
1
10
567.575636447461
20
25.6096683647398
30
0
41
1
10
567.566297083473
20
25.6368716168552
30
0
41
1
10
567.563469944102
20
25.645823579614
30
0
41
1
10
567.558498129876
20
25.6634519327067
30
0
41
1
10
567.556355985995
20
25.6721338879737
30
0
41
1
10
567.552992495483
20
25.6887880728007
30
0
41
1
10
567.551755667217
20
25.6968054930674
30
0
41
1
10
567.550731607718
20
25.7082552465153
30
0
41
1
10
567.550529643809
20
25.7119751829311
30
0
41
1
10
567.550447718715
20
25.719192264216
30
0
41
1
10
567.550569803588
20
25.7227031448462
30
0
41
1
10
567.551489172924
20
25.7326767960533
30
0
41
1
10
567.552823866437
20
25.738626638058
30
0
41
1
10
567.556235634613
20
25.7461914297908
30
0
41
1
10
567.557622786118
20
25.7484972729628
30
0
41
1
10
567.560888621489
20
25.7524800239255
30
0
41
1
10
567.562763444322
20
25.7541622265617
30
0
41
1
10
567.567039967856
20
25.7568546457306
30
0
41
1
10
567.569461523802
20
25.7578691446226
30
0
41
1
10
567.574799687778
20
25.7591280609591
30
0
41
1
10
567.580568003688
20
25.759614741613
30
0
41
1
10
567.587174135165
20
25.7586005535335
30
0
41
1
10
567.594197904459
20
25.7568396148944
30
0
41
1
10
567.597925489672
20
25.755576485668
30
0
41
1
10
567.609307892352
20
25.7508672481533
30
0
41
1
10
567.617324482498
20
25.7464633141779
30
0
41
1
10
567.63384879861
20
25.7357246214997
30
0
41
1
10
567.642150093394
20
25.7295341136677
30
0
41
1
10
567.650480947162
20
25.7227274845176
30
0
0
SPLINE
5
188
100
AcDbEntity
8
1
62
256
6
ByLayer
370
18
48
1
60
0
100
AcDbSpline
70
4
71
3
72
8
73
4
40
0
40
0
40
0
40
0
40
1
40
1
40
1
40
1
41
1
10
567.650480947162
20
25.7227274845173
30
0
41
1
10
567.875242279349
20
25.5390887989485
30
0
41
1
10
568.10000187134
20
25.3554472734957
30
0
41
1
10
568.324759526419
20
25.1718025873659
30
0
0
SPLINE
5
189
100
AcDbEntity
8
1
62
256
6
ByLayer
370
18
48
1
60
0
100
AcDbSpline
70
4
71
3
72
8
73
4
40
0
40
0
40
0
40
0
40
1
40
1
40
1
40
1
41
1
10
568.324759526419
20
25.4473652688735
30
0
41
1
10
568.103764009202
20
25.810559849516
30
0
41
1
10
567.878876276632
20
26.1705149416585
30
0
41
1
10
567.650480947162
20
26.5275506630092
30
0
0
SPLINE
5
18A
100
AcDbEntity
8
1
62
256
6
ByLayer
370
18
48
1
60
0
100
AcDbSpline
70
4
71
3
72
41
73
37
40
0
40
0
40
0
40
0
40
0.125
40
0.125
40
0.187500000000009
40
0.187500000000009
40
0.250000000000018
40
0.250000000000018
40
0.375000000000031
40
0.375000000000031
40
0.437500000000035
40
0.437500000000035
40
0.500000000000038
40
0.500000000000038
40
0.562500000000041
40
0.562500000000041
40
0.625000000000045
40
0.625000000000045
40
0.656250000000042
40
0.656250000000042
40
0.687500000000039
40
0.687500000000039
40
0.718750000000036
40
0.718750000000036
40
0.750000000000034
40
0.750000000000034
40
0.812500000000026
40
0.812500000000026
40
0.843750000000023
40
0.843750000000023
40
0.87500000000002
40
0.906250000000017
40
0.906250000000017
40
0.937500000000015
40
0.937500000000015
40
1
40
1
40
1
40
1
41
1
10
567.650480947162
20
26.5275506630092
30
0
41
1
10
567.638981804677
20
26.5455265324872
30
0
41
1
10
567.62814548197
20
26.5634206151345
30
0
41
1
10
567.612939206481
20
26.5901281849027
30
0
41
1
10
567.608042788563
20
26.5990169496372
30
0
41
1
10
567.598721928768
20
26.6165648982947
30
0
41
1
10
567.594284643271
20
26.6252457634574
30
0
41
1
10
567.581686936374
20
26.6509896479143
30
0
41
1
10
567.574223281786
20
26.6677610781086
30
0
41
1
10
567.564837577099
20
26.6921604462441
30
0
41
1
10
567.562006278076
20
26.7001981661704
30
0
41
1
10
567.557184605238
20
26.7156477088207
30
0
41
1
10
567.555179368067
20
26.7230904973064
30
0
41
1
10
567.552137250522
20
26.7373043165413
30
0
41
1
10
567.551097322754
20
26.7440774273189
30
0
41
1
10
567.550263647968
20
26.7567617390192
30
0
41
1
10
567.550482593648
20
26.7625191878594
30
0
41
1
10
567.551971457481
20
26.7700613230136
30
0
41
1
10
567.552662227263
20
26.7723934928277
30
0
41
1
10
567.554488589318
20
26.776642572205
30
0
41
1
10
567.555629696968
20
26.7785582671374
30
0
41
1
10
567.558347744801
20
26.781828174281
30
0
41
1
10
567.559929168047
20
26.783196917648
30
0
41
1
10
567.563569638857
20
26.7853637195283
30
0
41
1
10
567.565645521329
20
26.7861647789785
30
0
41
1
10
567.572537810431
20
26.7876065271336
30
0
41
1
10
567.57792665398
20
26.7872966647606
30
0
41
1
10
567.587151619285
20
26.7850110816938
30
0
41
1
10
567.590446302725
20
26.7839313072075
30
0
41
1
10
567.597241521147
20
26.7812338486902
30
0
41
1
10
567.604247829043
20
26.7780072079684
30
0
41
1
10
567.61163322165
20
26.7738322488324
30
0
41
1
10
567.619193271317
20
26.7692211157923
30
0
41
1
10
567.623071327699
20
26.7666886267638
30
0
41
1
10
567.634714931172
20
26.7586489532194
30
0
41
1
10
567.642563586242
20
26.7526628820393
30
0
41
1
10
567.650480947162
20
26.7461799915722
30
0
0
SPLINE
5
18B
100
AcDbEntity
8
1
62
256
6
ByLayer
370
18
48
1
60
0
100
AcDbSpline
70
4
71
3
72
8
73
4
40
0
40
0
40
0
40
0
40
1
40
1
40
1
40
1
41
1
10
567.650480947162
20
26.746179991572
30
0
41
1
10
567.875247737629
20
26.562136533403
30
0
41
1
10
568.100007511727
20
26.3780816494067
30
0
41
1
10
568.324759526419
20
26.1940141333149
30
0
0
SPLINE
5
18C
100
AcDbEntity
8
1
62
256
6
ByLayer
370
18
48
1
60
0
100
AcDbSpline
70
4
71
3
72
8
73
4
40
0
40
0
40
0
40
0
40
1
40
1
40
1
40
1
41
1
10
568.324759526419
20
26.4182396666025
30
0
41
1
10
568.10282976625
20
26.7496954266907
30
0
41
1
10
567.87797677687
20
27.0784874839773
30
0
41
1
10
567.650480947162
20
27.4048713342158
30
0
0
SPLINE
5
18D
100
AcDbEntity
8
1
62
256
6
ByLayer
370
18
48
1
60
0
100
AcDbSpline
70
4
71
3
72
34
73
30
40
0
40
0
40
0
40
0
40
0.125
40
0.125
40
0.250000000000001
40
0.250000000000001
40
0.312499999999991
40
0.312499999999991
40
0.374999999999981
40
0.374999999999981
40
0.499999999999975
40
0.499999999999975
40
0.562499999999972
40
0.562499999999972
40
0.624999999999968
40
0.624999999999968
40
0.687499999999965
40
0.687499999999965
40
0.718749999999965
40
0.718749999999965
40
0.749999999999966
40
0.749999999999966
40
0.812499999999974
40
0.812499999999974
40
0.874999999999983
40
0.874999999999983
40
0.937499999999991
40
0.937499999999991
40
1
40
1
40
1
40
1
41
1
10
567.650480947162
20
27.4048713342158
30
0
41
1
10
567.638779782576
20
27.4216587678787
30
0
41
1
10
567.627693116502
20
27.4383758860407
30
0
41
1
10
567.607002473869
20
27.4714107933081
30
0
41
1
10
567.597504579954
20
27.4875524832557
30
0
41
1
10
567.584701626499
20
27.5111204626936
30
0
41
1
10
567.580676613219
20
27.518868159681
30
0
41
1
10
567.57317678391
20
27.534117596638
30
0
41
1
10
567.569687169971
20
27.5416532144368
30
0
41
1
10
567.560306547285
20
27.5635746306862
30
0
41
1
10
567.555515793997
20
27.5771559030129
30
0
41
1
10
567.551444442405
20
27.595334081104
30
0
41
1
10
567.550629414815
20
27.6010158296478
30
0
41
1
10
567.550369704541
20
27.6110410235757
30
0
41
1
10
567.550906911697
20
27.6154408318442
30
0
41
1
10
567.553649785601
20
27.6227119306337
30
0
41
1
10
567.555833495619
20
27.625479638909
30
0
41
1
10
567.560418657478
20
27.6281044544242
30
0
41
1
10
567.562180578905
20
27.6287302685931
30
0
41
1
10
567.56612484049
20
27.6294299988261
30
0
41
1
10
567.568286199411
20
27.6295043011147
30
0
41
1
10
567.575316333567
20
27.6289333978027
30
0
41
1
10
567.580743615076
20
27.6274928474924
30
0
41
1
10
567.592956646791
20
27.6225760263927
30
0
41
1
10
567.599500450861
20
27.619204439914
30
0
41
1
10
567.613308831924
20
27.6109620758323
30
0
41
1
10
567.620630234375
20
27.606041751766
30
0
41
1
10
567.635395579301
20
27.5952630873197
30
0
41
1
10
567.642891402848
20
27.5893789353748
30
0
41
1
10
567.650480947162
20
27.5830864488536
30
0
0
SPLINE
5
18E
100
AcDbEntity
8
1
62
256
6
ByLayer
370
18
48
1
60
0
100
AcDbSpline
70
4
71
3
72
8
73
4
40
0
40
0
40
0
40
0
40
1
40
1
40
1
40
1
41
1
10
567.650480947162
20
27.5830864488535
30
0
41
1
10
567.875278354979
20
27.3967070563409
30
0
41
1
10
568.100039125586
20
27.2102687278776
30
0
41
1
10
568.324759526419
20
27.0237655573026
30
0
0
SPLINE
5
18F
100
AcDbEntity
8
1
62
256
6
ByLayer
370
18
48
1
60
0
100
AcDbSpline
70
4
71
3
72
8
73
4
40
0
40
0
40
0
40
0
40
1
40
1
40
1
40
1
41
1
10
568.324759526419
20
27.204537010626
30
0
41
1
10
568.102167049584
20
27.5105841760993
30
0
41
1
10
567.877337890168
20
27.8144257977413
30
0
41
1
10
567.650480947162
20
28.1162678662819
30
0
0
SPLINE
5
190
100
AcDbEntity
8
1
62
256
6
ByLayer
370
18
48
1
60
0
100
AcDbSpline
70
4
71
3
72
41
73
37
40
0
40
0
40
0
40
0
40
0.0624999999999901
40
0.0624999999999901
40
0.12499999999998
40
0.12499999999998
40
0.249999999999961
40
0.249999999999961
40
0.312499999999953
40
0.312499999999953
40
0.374999999999945
40
0.374999999999945
40
0.437499999999937
40
0.468749999999933
40
0.468749999999933
40
0.499999999999929
40
0.499999999999929
40
0.562499999999936
40
0.562499999999936
40
0.624999999999943
40
0.624999999999943
40
0.68749999999995
40
0.68749999999995
40
0.749999999999956
40
0.749999999999956
40
0.78124999999996
40
0.78124999999996
40
0.812499999999963
40
0.812499999999963
40
0.874999999999976
40
0.874999999999976
40
0.906249999999985
40
0.906249999999985
40
0.937499999999993
40
0.937499999999993
40
1
40
1
40
1
40
1
41
1
10
567.650480947162
20
28.1162678662819
30
0
41
1
10
567.644530707472
20
28.1241848937819
30
0
41
1
10
567.638734660478
20
28.1320661881963
30
0
41
1
10
567.627462614209
20
28.1477537676446
30
0
41
1
10
567.621983627572
20
28.1555655854397
30
0
41
1
10
567.606226071217
20
28.1786319055696
30
0
41
1
10
567.59655639816
20
28.1936038516693
30
0
41
1
10
567.583525644729
20
28.2153410699518
30
0
41
1
10
567.579429881241
20
28.2224656317339
30
0
41
1
10
567.571814377828
20
28.2364325284526
30
0
41
1
10
567.568318980523
20
28.2432345542673
30
0
41
1
10
567.562151731737
20
28.2562021368569
30
0
41
1
10
567.558116055743
20
28.2654991328199
30
0
41
1
10
567.555124307769
20
28.2740375850843
30
0
41
1
10
567.553390593519
20
28.2795405045769
30
0
41
1
10
567.552653442229
20
28.2822028365412
30
0
41
1
10
567.550910298472
20
28.2897406107663
30
0
41
1
10
567.550352356246
20
28.2942147484467
30
0
41
1
10
567.550659068286
20
28.3018677379402
30
0
41
1
10
567.551551382701
20
28.3050594781882
30
0
41
1
10
567.554942046485
20
28.3096266601921
30
0
41
1
10
567.55744201508
20
28.31105029367
30
0
41
1
10
567.564147905172
20
28.3119608702219
30
0
41
1
10
567.568227742826
20
28.3114399048529
30
0
41
1
10
567.575359496822
20
28.3093034854225
30
0
41
1
10
567.577906330663
20
28.3083642815716
30
0
41
1
10
567.583336023074
20
28.3060366334107
30
0
41
1
10
567.586212296449
20
28.3046487760991
30
0
41
1
10
567.595094710497
20
28.2999585110497
30
0
41
1
10
567.601422754011
20
28.2961049586613
30
0
41
1
10
567.611436330013
20
28.2893955044817
30
0
41
1
10
567.614876803774
20
28.2869917365593
30
0
41
1
10
567.62181975771
20
28.2819650556373
30
0
41
1
10
567.625327553302
20
28.2793394829975
30
0
41
1
10
567.635948792471
20
28.271161122513
30
0
41
1
10
567.643159471795
20
28.2653086512668
30
0
41
1
10
567.650480947162
20
28.2591159102949
30
0
0
SPLINE
5
191
100
AcDbEntity
8
1
62
256
6
ByLayer
370
18
48
1
60
0
100
AcDbSpline
70
4
71
3
72
8
73
4
40
0
40
0
40
0
40
0
40
1
40
1
40
1
40
1
41
1
10
567.650480947162
20
28.2591159102949
30
0
41
1
10
567.875326782245
20
28.0689340213255
30
0
41
1
10
568.100089025132
20
27.8786205059024
30
0
41
1
10
568.324759526419
20
27.6881625317612
30
0
0
SPLINE
5
192
100
AcDbEntity
8
1
62
256
6
ByLayer
370
18
48
1
60
0
100
AcDbSpline
70
4
71
3
72
8
73
4
40
0
40
0
40
0
40
0
40
1
40
1
40
1
40
1
41
1
10
568.324759526419
20
27.8306924641192
30
0
41
1
10
568.101678442285
20
28.1158055554848
30
0
41
1
10
567.876866272618
20
28.3990877212198
30
0
41
1
10
567.650480947162
20
28.6807059996443
30
0
0
SPLINE
5
193
100
AcDbEntity
8
1
62
256
6
ByLayer
370
18
48
1
60
0
100
AcDbSpline
70
4
71
3
72
38
73
34
40
0
40
0
40
0
40
0
40
0.0625000000000047
40
0.0625000000000047
40
0.125000000000009
40
0.125000000000009
40
0.250000000000002
40
0.250000000000002
40
0.3125
40
0.3125
40
0.374999999999997
40
0.374999999999997
40
0.437499999999995
40
0.437499999999995
40
0.499999999999992
40
0.499999999999992
40
0.56249999999999
40
0.56249999999999
40
0.624999999999987
40
0.624999999999987
40
0.687499999999985
40
0.687499999999985
40
0.749999999999982
40
0.749999999999982
40
0.781249999999982
40
0.781249999999982
40
0.812499999999981
40
0.812499999999981
40
0.874999999999987
40
0.874999999999987
40
0.937499999999994
40
0.937499999999994
40
1
40
1
40
1
40
1
41
1
10
567.650480947162
20
28.6807059996443
30
0
41
1
10
567.644435066044
20
28.6882269404489
30
0
41
1
10
567.638541009106
20
28.6956954835845
30
0
41
1
10
567.627070710279
20
28.7105219541045
30
0
41
1
10
567.621478397149
20
28.7179019338335
30
0
41
1
10
567.605382543492
20
28.7396367381104
30
0
41
1
10
567.59552307329
20
28.7536213176681
30
0
41
1
10
567.582291758194
20
28.7736882743326
30
0
41
1
10
567.578143409899
20
28.7802241905302
30
0
41
1
10
567.570463431254
20
28.792935050527
30
0
41
1
10
567.566983467967
20
28.7990266725007
30
0
41
1
10
567.560894095359
20
28.8105111646514
30
0
41
1
10
567.558273629461
20
28.8159211153961
30
0
41
1
10
567.554041861198
20
28.8259505318496
30
0
41
1
10
567.552432376484
20
28.8305864249236
30
0
41
1
10
567.550538980103
20
28.8385889334807
30
0
41
1
10
567.550233118891
20
28.8420039082263
30
0
41
1
10
567.551141496283
20
28.8474028832892
30
0
41
1
10
567.552342069685
20
28.8493113044688
30
0
41
1
10
567.556322566542
20
28.8514574493095
30
0
41
1
10
567.559156903261
20
28.8516693992416
30
0
41
1
10
567.566155193741
20
28.8503516061792
30
0
41
1
10
567.570327284129
20
28.8488516643691
30
0
41
1
10
567.57754044284
20
28.845411474338
30
0
41
1
10
567.580121827421
20
28.8440551043984
30
0
41
1
10
567.585487525657
20
28.8410134790065
30
0
41
1
10
567.588275661537
20
28.8393280740423
30
0
41
1
10
567.596927885113
20
28.8338227337176
30
0
41
1
10
567.603078037699
20
28.8295564416253
30
0
41
1
10
567.616050433374
20
28.8199786606838
30
0
41
1
10
567.622764082909
20
28.8147458022603
30
0
41
1
10
567.636420273296
20
28.8036638171371
30
0
41
1
10
567.643389119659
20
28.7977944023938
30
0
41
1
10
567.650480947162
20
28.7916390605853
30
0
0
SPLINE
5
194
100
AcDbEntity
8
1
62
256
6
ByLayer
370
18
48
1
60
0
100
AcDbSpline
70
4
71
3
72
8
73
4
40
0
40
0
40
0
40
0
40
1
40
1
40
1
40
1
41
1
10
567.650480947162
20
28.7916390605853
30
0
41
1
10
567.875390693943
20
28.5964289589472
30
0
41
1
10
568.100154848045
20
28.4009956122068
30
0
41
1
10
568.324759526419
20
28.2053177327395
30
0
0
SPLINE
5
195
100
AcDbEntity
8
1
62
256
6
ByLayer
370
18
48
1
60
0
100
AcDbSpline
70
4
71
3
72
8
73
4
40
0
40
0
40
0
40
0
40
1
40
1
40
1
40
1
41
1
10
568.324759526419
20
28.3131399205598
30
0
41
1
10
568.101307459449
20
28.5806365366889
30
0
41
1
10
567.876507770666
20
28.8466150387261
30
0
41
1
10
567.650480947162
20
29.1112111569994
30
0
0
SPLINE
5
196
100
AcDbEntity
8
1
62
256
6
ByLayer
370
18
48
1
60
0
100
AcDbSpline
70
4
71
3
72
37
73
33
40
0
40
0
40
0
40
0
40
0.125000000000025
40
0.125000000000025
40
0.25000000000005
40
0.25000000000005
40
0.312500000000056
40
0.312500000000056
40
0.375000000000062
40
0.375000000000062
40
0.437500000000068
40
0.437500000000068
40
0.468750000000067
40
0.468750000000067
40
0.500000000000065
40
0.531250000000064
40
0.531250000000064
40
0.562500000000062
40
0.562500000000062
40
0.625000000000059
40
0.625000000000059
40
0.656250000000056
40
0.656250000000056
40
0.687500000000052
40
0.687500000000052
40
0.750000000000044
40
0.750000000000044
40
0.812500000000036
40
0.812500000000036
40
0.875000000000027
40
0.875000000000027
40
1
40
1
40
1
40
1
41
1
10
567.650480947162
20
29.1112111569994
30
0
41
1
10
567.638202144537
20
29.1255852187202
30
0
41
1
10
567.626485867576
20
29.1397144945022
30
0
41
1
10
567.604552320067
20
29.167151063143
30
0
41
1
10
567.594502099815
20
29.1802445976579
30
0
41
1
10
567.581082092083
20
29.1987490698133
30
0
41
1
10
567.57688735265
20
29.20472606789
30
0
41
1
10
567.569160111633
20
29.2162246159392
30
0
41
1
10
567.565703840036
20
29.2216334116342
30
0
41
1
10
567.559712993625
20
29.2316731893742
30
0
41
1
10
567.557175330865
20
29.236307773251
30
0
41
1
10
567.554189582967
20
29.2425686008373
30
0
41
1
10
567.55333114082
20
29.2445439196842
30
0
41
1
10
567.551945089713
20
29.2481706791234
30
0
41
1
10
567.550880306039
20
29.2514915212535
30
0
41
1
10
567.550493173189
20
29.2541672783632
30
0
41
1
10
567.550469840073
20
29.2564968771615
30
0
41
1
10
567.55064329357
20
29.2574911476069
30
0
41
1
10
567.551729677775
20
29.2598627622591
30
0
41
1
10
567.553197894126
20
29.2606567256918
30
0
41
1
10
567.556546564706
20
29.2606368151033
30
0
41
1
10
567.557864176504
20
29.2604245190905
30
0
41
1
10
567.56084962648
20
29.2595937482398
30
0
41
1
10
567.562509311231
20
29.2589798099646
30
0
41
1
10
567.567961306
20
29.256576233022
30
0
41
1
10
567.572230449554
20
29.254223815366
30
0
41
1
10
567.581924074944
20
29.2481356233894
30
0
41
1
10
567.587203153222
20
29.2444931606373
30
0
41
1
10
567.598484907468
20
29.2362099822945
30
0
41
1
10
567.604518790299
20
29.231543271623
30
0
41
1
10
567.623400016941
20
29.2163577993824
30
0
41
1
10
567.636681697516
20
29.2049543935825
30
0
41
1
10
567.650480947162
20
29.1926049128576
30
0
0
SPLINE
5
197
100
AcDbEntity
8
1
62
256
6
ByLayer
370
18
48
1
60
0
100
AcDbSpline
70
4
71
3
72
8
73
4
40
0
40
0
40
0
40
0
40
1
40
1
40
1
40
1
41
1
10
567.650480947162
20
29.1926049128575
30
0
41
1
10
567.875470342809
20
28.9912532251729
30
0
41
1
10
568.100236859786
20
28.7895703804292
30
0
41
1
10
568.324759526419
20
28.5875252185438
30
0
0
SPLINE
5
198
100
AcDbEntity
8
1
62
256
6
ByLayer
370
18
48
1
60
0
100
AcDbSpline
70
4
71
3
72
8
73
4
40
0
40
0
40
0
40
0
40
1
40
1
40
1
40
1
41
1
10
568.324759526419
20
28.6630274540333
30
0
41
1
10
568.101019214676
20
28.9154654531765
30
0
41
1
10
567.876228917632
20
29.1666509399749
30
0
41
1
10
567.650480947162
20
29.4166940319327
30
0
0
SPLINE
5
199
100
AcDbEntity
8
1
62
256
6
ByLayer
370
18
48
1
60
0
100
AcDbSpline
70
4
71
3
72
37
73
33
40
0
40
0
40
0
40
0
40
0.0625000000000103
40
0.0625000000000103
40
0.125000000000021
40
0.125000000000021
40
0.250000000000026
40
0.250000000000026
40
0.312500000000028
40
0.312500000000028
40
0.375000000000031
40
0.406250000000031
40
0.406250000000031
40
0.43750000000003
40
0.43750000000003
40
0.500000000000033
40
0.500000000000033
40
0.531250000000031
40
0.531250000000031
40
0.562500000000028
40
0.562500000000028
40
0.625000000000024
40
0.625000000000024
40
0.687500000000019
40
0.687500000000019
40
0.750000000000015
40
0.750000000000015
40
0.81250000000001
40
0.81250000000001
40
0.875000000000006
40
0.875000000000006
40
1
40
1
40
1
40
1
41
1
10
567.650480947162
20
29.4166940319327
30
0
41
1
10
567.644233516261
20
29.4236138148036
30
0
41
1
10
567.638128791671
20
29.430447242132
30
0
41
1
10
567.626224587922
20
29.4439282469415
30
0
41
1
10
567.620408632679
20
29.4505953398456
30
0
41
1
10
567.603696944729
20
29.4700187730249
30
0
41
1
10
567.593459438986
20
29.4822776869191
30
0
41
1
10
567.579801977808
20
29.499359790977
30
0
41
1
10
567.575513158025
20
29.5048653228669
30
0
41
1
10
567.567827277759
20
29.515076174795
30
0
41
1
10
567.562698992221
20
29.5221718288959
30
0
41
1
10
567.55866279162
20
29.5283005792956
30
0
41
1
10
567.556240243351
20
29.5321488241232
30
0
41
1
10
567.555161120897
20
29.5339584350359
30
0
41
1
10
567.552417952635
20
29.5389021635936
30
0
41
1
10
567.551221826353
20
29.5415884195284
30
0
41
1
10
567.550485616375
20
29.5445985953608
30
0
41
1
10
567.55041909126
20
29.5454340249258
30
0
41
1
10
567.550661814729
20
29.5467128369886
30
0
41
1
10
567.550968230582
20
29.5471605417463
30
0
41
1
10
567.552439131489
20
29.5479324593435
30
0
41
1
10
567.554154903999
20
29.5476875862862
30
0
41
1
10
567.559095757758
20
29.545630029289
30
0
41
1
10
567.562230525272
20
29.5438567909989
30
0
41
1
10
567.569682176899
20
29.5389883407314
30
0
41
1
10
567.574051131848
20
29.535851615375
30
0
41
1
10
567.583612877603
20
29.528557039509
30
0
41
1
10
567.58879748384
20
29.5244110022476
30
0
41
1
10
567.599860114334
20
29.5152650369474
30
0
41
1
10
567.605784818522
20
29.510223577669
30
0
41
1
10
567.624098620595
20
29.4942917137734
30
0
41
1
10
567.637015243456
20
29.482621137558
30
0
41
1
10
567.650480947162
20
29.4701429912257
30
0
0
SPLINE
5
19A
100
AcDbEntity
8
1
62
256
6
ByLayer
370
18
48
1
60
0
100
AcDbSpline
70
4
71
3
72
8
73
4
40
0
40
0
40
0
40
0
40
1
40
1
40
1
40
1
41
1
10
567.650480947162
20
29.4701429912256
30
0
41
1
10
567.875567648883
20
29.2615638584136
30
0
41
1
10
568.10033706691
20
29.0525298860215
30
0
41
1
10
568.324759526419
20
28.8429985339383
30
0
0
SPLINE
5
19B
100
AcDbEntity
8
1
62
256
6
ByLayer
370
18
48
1
60
0
100
AcDbSpline
70
4
71
3
72
8
73
4
40
0
40
0
40
0
40
0
40
1
40
1
40
1
40
1
41
1
10
568.324759526419
20
28.8877233606912
30
0
41
1
10
568.100791090601
20
29.1271433496652
30
0
41
1
10
567.876008003165
20
29.3655393957385
30
0
41
1
10
567.650480947162
20
29.6030003410692
30
0
0
SPLINE
5
19C
100
AcDbEntity
8
1
62
256
6
ByLayer
370
18
48
1
60
0
100
AcDbSpline
70
4
71
3
72
37
73
33
40
0
40
0
40
0
40
0
40
0.125000000000017
40
0.125000000000017
40
0.187500000000019
40
0.187500000000019
40
0.25000000000002
40
0.25000000000002
40
0.312500000000021
40
0.343750000000022
40
0.343750000000022
40
0.375000000000022
40
0.375000000000022
40
0.437500000000021
40
0.437500000000021
40
0.46875000000002
40
0.46875000000002
40
0.50000000000002
40
0.50000000000002
40
0.562500000000019
40
0.562500000000019
40
0.625000000000018
40
0.625000000000018
40
0.687500000000017
40
0.687500000000017
40
0.750000000000016
40
0.750000000000016
40
0.812500000000015
40
0.812500000000015
40
0.875000000000014
40
0.875000000000014
40
1
40
1
40
1
40
1
41
1
10
567.650480947162
20
29.6030003410692
30
0
41
1
10
567.637713524711
20
29.6164433587645
30
0
41
1
10
567.625555134204
20
29.6293990848537
30
0
41
1
10
567.60856985031
20
29.6477688699773
30
0
41
1
10
567.603108564081
20
29.6537238617308
30
0
41
1
10
567.592645038061
20
29.6652469120385
30
0
41
1
10
567.587628553198
20
29.6708318448452
30
0
41
1
10
567.578394061832
20
29.6812540907382
30
0
41
1
10
567.572016535815
20
29.6885648297593
30
0
41
1
10
567.566579562048
20
29.6950058114147
30
0
41
1
10
567.563185659207
20
29.6990862291318
30
0
41
1
10
567.561600856608
20
29.7010238889255
30
0
41
1
10
567.557303071354
20
29.7063893319181
30
0
41
1
10
567.555014755975
20
29.7094065301894
30
0
41
1
10
567.552553203198
20
29.712989484205
30
0
41
1
10
567.551893247071
20
29.7140301161126
30
0
41
1
10
567.550941407315
20
29.7157401602286
30
0
41
1
10
567.550646743411
20
29.7164124694591
30
0
41
1
10
567.550307456757
20
29.7178803359909
30
0
41
1
10
567.550804218981
20
29.7181301453526
30
0
41
1
10
567.553323180194
20
29.7170929258189
30
0
41
1
10
567.555303382755
20
29.7158212919829
30
0
41
1
10
567.560517793468
20
29.7119566589441
30
0
41
1
10
567.563756830219
20
29.709360874101
30
0
41
1
10
567.571431586465
20
29.7029148992649
30
0
41
1
10
567.575773222109
20
29.6991432590721
30
0
41
1
10
567.585223568068
20
29.6907486294537
30
0
41
1
10
567.59034747327
20
29.6861125346104
30
0
41
1
10
567.601310018783
20
29.6760560925488
30
0
41
1
10
567.607046357809
20
29.670729424597
30
0
41
1
10
567.624771194315
20
29.6541190568012
30
0
41
1
10
567.637325338164
20
29.6421616074541
30
0
41
1
10
567.650480947162
20
29.6294893682057
30
0
0
SPLINE
5
19D
100
AcDbEntity
8
1
62
256
6
ByLayer
370
18
48
1
60
0
100
AcDbSpline
70
4
71
3
72
8
73
4
40
0
40
0
40
0
40
0
40
1
40
1
40
1
40
1
41
1
10
567.650480947162
20
29.6294893682057
30
0
41
1
10
567.875685997486
20
29.4125589107669
30
0
41
1
10
568.100458994954
20
29.1950332762281
30
0
41
1
10
568.324759526419
20
28.97685679321
30
0
0
SPLINE
5
19E
100
AcDbEntity
8
1
62
256
6
ByLayer
370
18
48
1
60
0
100
AcDbSpline
70
4
71
3
72
8
73
4
40
0
40
0
40
0
40
0
40
1
40
1
40
1
40
1
41
1
10
568.324759526419
20
28.991671694456
30
0
41
1
10
568.100607863251
20
29.2197546698709
30
0
41
1
10
567.875830405165
20
29.4470125106997
30
0
41
1
10
567.650480947162
20
29.6735161477106
30
0
0
SPLINE
5
19F
100
AcDbEntity
8
1
62
256
6
ByLayer
370
18
48
1
60
0
100
AcDbSpline
70
4
71
3
72
24
73
20
40
0
40
0
40
0
40
0
40
0.125028419046603
40
0.125028419046603
40
0.250056838093207
40
0.250056838093207
40
0.500113676186413
40
0.500113676186413
40
0.625142095233027
40
0.625142095233027
40
0.687656304756334
40
0.687656304756334
40
0.750170514279641
40
0.750170514279641
40
0.875198933326255
40
0.875198933326255
40
0.937713142849566
40
0.937713142849566
40
1
40
1
40
1
40
1
41
1
10
567.650480947162
20
29.6735161477106
30
0
41
1
10
567.643995528497
20
29.6800347829366
30
0
41
1
10
567.637641930967
20
29.6864240983025
30
0
41
1
10
567.625223781212
20
29.6989177330083
30
0
41
1
10
567.619159362558
20
29.7050219490506
30
0
41
1
10
567.601760540395
20
29.7225422830359
30
0
41
1
10
567.591092877904
20
29.7332946246385
30
0
41
1
10
567.576962978984
20
29.7475455477897
30
0
41
1
10
567.572665768936
20
29.7518812199195
30
0
41
1
10
567.566937041454
20
29.7576626687888
30
0
41
1
10
567.565146159727
20
29.7594703034833
30
0
41
1
10
567.561821741835
20
29.7628262012985
30
0
41
1
10
567.560285385347
20
29.7643773132463
30
0
41
1
10
567.556170769704
20
29.7685318245776
30
0
41
1
10
567.554054662599
20
29.7706689842464
30
0
41
1
10
567.551904777518
20
29.7728403855655
30
0
41
1
10
567.551358069514
20
29.7733926014477
30
0
41
1
10
567.550643985662
20
29.7741138892737
30
0
41
1
10
567.550472424763
20
29.7742871878348
30
0
41
1
10
567.5504812719
20
29.7742782512341
30
0
0
SPLINE
5
1A0
100
AcDbEntity
8
1
62
256
6
ByLayer
370
13
48
1
60
0
100
AcDbSpline
70
4
71
3
72
30
73
26
40
0
40
0
40
0
40
0
40
0.03125
40
0.03125
40
0.0624999999999999
40
0.125
40
0.125
40
0.25
40
0.25
40
0.3125
40
0.3125
40
0.375
40
0.375
40
0.499999999999999
40
0.499999999999999
40
0.624999999999999
40
0.656249999999999
40
0.656249999999999
40
0.687499999999999
40
0.687499999999999
40
0.749999999999999
40
0.749999999999999
40
0.874999999999999
40
0.874999999999999
40
1
40
1
40
1
40
1
41
1
10
566
20
30
30
0
41
1
10
566.007362850041
20
30
30
0
41
1
10
566.014748318526
20
29.9995146855327
30
0
41
1
10
566.029491014814
20
29.9975721011388
30
0
41
1
10
566.051583615958
20
29.9932016118071
30
0
41
1
10
566.073568059289
20
29.9844669543471
30
0
41
1
10
566.11727434799
20
29.9611833545936
30
0
41
1
10
566.146063645186
20
29.9379123489139
30
0
41
1
10
566.188228866469
20
29.8913335735415
30
0
41
1
10
566.202101521617
20
29.8738730025959
30
0
41
1
10
566.229367974665
20
29.8351303445858
30
0
41
1
10
566.242766214032
20
29.8138435156958
30
0
41
1
10
566.282119345361
20
29.7442500623257
30
0
41
1
10
566.307237698167
20
29.69021422284
30
0
41
1
10
566.354415448542
20
29.5668448333318
30
0
41
1
10
566.38199430259
20
29.4801781976741
30
0
41
1
10
566.406382851588
20
29.3814505483904
30
0
41
1
10
566.415861533638
20
29.3409900334812
30
0
41
1
10
566.420463067924
20
29.3202742697899
30
0
41
1
10
566.433807020244
20
29.2567499092745
30
0
41
1
10
566.442095788348
20
29.2125395608471
30
0
41
1
10
566.464881574937
20
29.0743374473421
30
0
41
1
10
566.477322865052
20
28.9747784554308
30
0
41
1
10
566.494867295457
20
28.7607822397313
30
0
41
1
10
566.5
20
28.6463456924524
30
0
41
1
10
566.5
20
28.5243902439028
30
0
0
SPLINE
5
1A1
100
AcDbEntity
8
1
62
256
6
ByLayer
370
18
48
1
60
0
100
AcDbSpline
70
4
71
3
72
60
73
56
40
0
40
0
40
0
40
0
40
0.0216264738653171
40
0.0431475147276808
40
0.0645630933003096
40
0.0858731793361235
40
0.107077741645561
40
0.12817674811445
40
0.149170165721854
40
0.17005796055791
40
0.190840097841685
40
0.21151654193904
40
0.232087256380409
40
0.252552203878683
40
0.272911346346944
40
0.29316464491629
40
0.31331205995355
40
0.333353551079031
40
0.353289077184203
40
0.373118596449355
40
0.392842066361207
40
0.412459443730502
40
0.431970684709539
40
0.451375744809649
40
0.470674578918656
40
0.489867141318234
40
0.508953385701277
40
0.527933265189153
40
0.546806732348941
40
0.565573739210563
40
0.584234237283902
40
0.602788177575826
40
0.621235510607151
40
0.639576186429524
40
0.657810154642261
40
0.675937364409093
40
0.693957764474832
40
0.711871303181989
40
0.729677928487298
40
0.747377587978149
40
0.764970228888963
40
0.782455798117493
40
0.799834242241018
40
0.81710550753247
40
0.834269539976486
40
0.851326285285365
40
0.86827568891495
40
0.885117696080421
40
0.901852251772003
40
0.918479300770604
40
0.934998787663359
40
0.951410656859086
40
0.96771485260367
40
0.983911318995364
40
1
40
1
40
1
40
1
41
1
10
566.068166739865
20
28.754063215861
30
0
41
1
10
566.067290919398
20
28.7465082804987
30
0
41
1
10
566.065543548248
20
28.7314352414614
30
0
41
1
10
566.06297928222
20
28.7086309250707
30
0
41
1
10
566.060464820122
20
28.6857575303804
30
0
41
1
10
566.058003726494
20
28.6628002463442
30
0
41
1
10
566.055595046242
20
28.6397669176163
30
0
41
1
10
566.053239016603
20
28.6166593427073
30
0
41
1
10
566.05093554802
20
28.593480907999
30
0
41
1
10
566.048684628286
20
28.5702345574624
30
0
41
1
10
566.046486215167
20
28.5469233326968
30
0
41
1
10
566.044340265069
20
28.5235502293898
30
0
41
1
10
566.042246725527
20
28.5001182355639
30
0
41
1
10
566.04020553731
20
28.4766303214789
30
0
41
1
10
566.038216633975
20
28.4530894423868
30
0
41
1
10
566.036279942096
20
28.4294985378663
30
0
41
1
10
566.034395381317
20
28.4058605320647
30
0
41
1
10
566.032562864448
20
28.3821783336952
30
0
41
1
10
566.030782297555
20
28.3584548360973
30
0
41
1
10
566.029053580047
20
28.3346929172772
30
0
41
1
10
566.027376604769
20
28.3108954399518
30
0
41
1
10
566.025751258087
20
28.2870652515884
30
0
41
1
10
566.024177419984
20
28.2632051844442
30
0
41
1
10
566.022654964143
20
28.2393180556022
30
0
41
1
10
566.021183758045
20
28.2154066670068
30
0
41
1
10
566.019763663054
20
28.1914738054967
30
0
41
1
10
566.018394534507
20
28.1675222428363
30
0
41
1
10
566.017076221809
20
28.1435547357454
30
0
41
1
10
566.015808568519
20
28.1195740259271
30
0
41
1
10
566.014591412443
20
28.0955828400943
30
0
41
1
10
566.013424585724
20
28.0715838899939
30
0
41
1
10
566.01230791493
20
28.0475798724302
30
0
41
1
10
566.01124122115
20
28.0235734692868
30
0
41
1
10
566.010224320077
20
27.9995673475458
30
0
41
1
10
566.009257022105
20
27.975564159307
30
0
41
1
10
566.008339132414
20
27.9515665418046
30
0
41
1
10
566.007470451062
20
27.9275771174235
30
0
41
1
10
566.006650773076
20
27.9035984937125
30
0
41
1
10
566.00587988854
20
27.8796332633988
30
0
41
1
10
566.005157582685
20
27.8556840043983
30
0
41
1
10
566.004483635978
20
27.8317532798267
30
0
41
1
10
566.003857824211
20
27.8078436380104
30
0
41
1
10
566.003279918591
20
27.783957612486
30
0
41
1
10
566.002749685821
20
27.7600977220396
30
0
41
1
10
566.00226688823
20
27.7362664705933
30
0
41
1
10
566.00183128368
20
27.7124663476495
30
0
41
1
10
566.001442626355
20
27.6886998266708
30
0
41
1
10
566.001100664232
20
27.6649693710866
30
0
41
1
10
566.000805148853
20
27.6412774120985
30
0
41
1
10
566.000555799599
20
27.6176264307272
30
0
41
1
10
566.000352436163
20
27.5940186545633
30
0
41
1
10
566.00019448934
20
27.5704571785284
30
0
41
1
10
566.00008280936
20
27.5469418229864
30
0
41
1
10
566.000012983882
20
27.5234844394311
30
0
41
1
10
566.000004318317
20
27.5078107039917
30
0
41
1
10
566
20
27.5000000000001
30
0
0
SPLINE
5
1A2
100
AcDbEntity
8
1
62
256
6
ByLayer
370
18
48
1
60
0
100
AcDbSpline
70
4
71
1
72
4
73
2
40
0
40
0
40
1
40
1
41
1
10
565.5
20
27.9661016949153
30
0
41
1
10
566
20
27.5000000000001
30
0
0
SPLINE
5
1A3
100
AcDbEntity
8
1
62
256
6
ByLayer
370
18
48
1
60
0
100
AcDbSpline
70
4
71
3
72
39
73
35
40
0
40
0
40
0
40
0
40
0.0225305296107975
40
0.045188766161115
40
0.0679748217919318
40
0.0908888067675377
40
0.11393082951567
40
0.137100996666513
40
0.160399413090782
40
0.183826181936832
40
0.207381404666827
40
0.231065181092024
40
0.254877609407088
40
0.278818786223698
40
0.302888806603183
40
0.327087764088445
40
0.351415750735031
40
0.375872857141485
40
0.400459172478941
40
0.425174784519986
40
0.450019779666844
40
0.474994242978865
40
0.500098258199346
40
0.543355153079006
40
0.587048671897727
40
0.631179209952526
40
0.675747150910974
40
0.72075286725326
40
0.766196720693911
40
0.812079062584293
40
0.858400234296833
40
0.905160567591976
40
0.952360384968781
40
1
40
1
40
1
40
1
41
1
10
565.5
20
27.9661016949153
30
0
41
1
10
565.500018521496
20
27.9752227793053
30
0
41
1
10
565.50005566947
20
27.9935166479697
30
0
41
1
10
565.500328278334
20
28.0208068894042
30
0
41
1
10
565.500759363252
20
28.0480815995954
30
0
41
1
10
565.501364750929
20
28.0753211132631
30
0
41
1
10
565.502140164816
20
28.1025265962802
30
0
41
1
10
565.503086760515
20
28.1296935577394
30
0
41
1
10
565.504204225852
20
28.1568190072496
30
0
41
1
10
565.50549264523
20
28.1838995210222
30
0
41
1
10
565.506951995907
20
28.2109317643794
30
0
41
1
10
565.508582284087
20
28.2379123505727
30
0
41
1
10
565.510383508153
20
28.264837878915
30
0
41
1
10
565.512355668601
20
28.2917049244719
30
0
41
1
10
565.514498765352
20
28.3185100408395
30
0
41
1
10
565.516812798502
20
28.3452497593912
30
0
41
1
10
565.519297768023
20
28.3719205894752
30
0
41
1
10
565.521953674198
20
28.3985190183752
30
0
41
1
10
565.524780516188
20
28.4250415112683
30
0
41
1
10
565.527778297357
20
28.4514845114462
30
0
41
1
10
565.530947005264
20
28.4778444394852
30
0
41
1
10
565.534286686909
20
28.5041176964008
30
0
41
1
10
565.538637272387
20
28.5365665991407
30
0
41
1
10
565.544168631492
20
28.5750627660185
30
0
41
1
10
565.551085188887
20
28.6194090065353
30
0
41
1
10
565.558512098947
20
28.6634975232345
30
0
41
1
10
565.566449432072
20
28.707306799104
30
0
41
1
10
565.574897212838
20
28.7508149632105
30
0
41
1
10
565.58385527486
20
28.7940003521996
30
0
41
1
10
565.593324273791
20
28.8368393312514
30
0
41
1
10
565.603301725963
20
28.8793145603017
30
0
41
1
10
565.61379703897
20
28.9213836987757
30
0
41
1
10
565.624774608892
20
28.9630978669458
30
0
41
1
10
565.632468629657
20
28.990341762873
30
0
41
1
10
565.636333479731
20
29.0040268797171
30
0
0
SPLINE
5
1A4
100
AcDbEntity
8
1
62
256
6
ByLayer
370
18
48
1
60
0
100
AcDbSpline
70
4
71
3
72
43
73
39
40
0
40
0
40
0
40
0
40
0.010775667328879
40
0.0216711320006454
40
0.0326864104204931
40
0.0438215184639415
40
0.0550764714993314
40
0.0664512844091183
40
0.0779459716100843
40
0.0895605470725213
40
0.101295024338398
40
0.113149416538667
40
0.125123736409667
40
0.18470143346445
40
0.249983186248411
40
0.306239448234883
40
0.366572714788005
40
0.430983326352887
40
0.499471558437718
40
0.555203447718706
40
0.61545599432238
40
0.680229254200607
40
0.74952326678507
40
0.760814345749358
40
0.772877906057261
40
0.785713947832351
40
0.799322471149028
40
0.813703476041406
40
0.828856962509979
40
0.844782930526632
40
0.861481380038539
40
0.878952310971141
40
0.897195723230552
40
0.916211616705429
40
0.935999991268515
40
0.956560846777862
40
0.977894183077842
40
1
40
1
40
1
40
1
41
1
10
565.636333479731
20
29.0040268797171
30
0
41
1
10
565.638355622447
20
29.0111096197542
30
0
41
1
10
565.642422388837
20
29.0253538414425
30
0
41
1
10
565.64842281766
20
29.0465518594839
30
0
41
1
10
565.654393599167
20
29.0677677996961
30
0
41
1
10
565.660324829373
20
29.0889730843889
30
0
41
1
10
565.666219205376
20
29.1101653607046
30
0
41
1
10
565.672075991905
20
29.1313350137145
30
0
41
1
10
565.677895390152
20
29.1524742858909
30
0
41
1
10
565.683677339547
20
29.173574794803
30
0
41
1
10
565.689421876634
20
29.1946282051547
30
0
41
1
10
565.695128913603
20
29.2156260597002
30
0
41
1
10
565.708293252098
20
29.2642302177707
30
0
41
1
10
565.72882318633
20
29.3408031663274
30
0
41
1
10
565.754176242387
20
29.4348008730428
30
0
41
1
10
565.778159661275
20
29.5219670931435
30
0
41
1
10
565.800795960519
20
29.6017959565443
30
0
41
1
10
565.823839383984
20
29.6790880206504
30
0
41
1
10
565.845366767884
20
29.7462651025476
30
0
41
1
10
565.86565863256
20
29.8043754456493
30
0
41
1
10
565.884974561573
20
29.8543618117903
30
0
41
1
10
565.905218749215
20
29.9000246627636
30
0
41
1
10
565.920027451057
20
29.9276951004321
30
0
41
1
10
565.929352713187
20
29.9428423406928
30
0
41
1
10
565.932980142271
20
29.948477400859
30
0
41
1
10
565.936826996675
20
29.9541535232281
30
0
41
1
10
565.940892851665
20
29.9598111121683
30
0
41
1
10
565.945177823072
20
29.9653869606835
30
0
41
1
10
565.949681870094
20
29.9708142621123
30
0
41
1
10
565.954404998889
20
29.9760225986218
30
0
41
1
10
565.959347203186
20
29.9809379754185
30
0
41
1
10
565.964508480425
20
29.9854826895745
30
0
41
1
10
565.969888830355
20
29.9895758588758
30
0
41
1
10
565.975488241676
20
29.9931313274067
30
0
41
1
10
565.981306749888
20
29.9960659949495
30
0
41
1
10
565.987344206354
20
29.9982668515612
30
0
41
1
10
565.993601190963
20
29.9997212574874
30
0
41
1
10
565.997841925921
20
29.9999059907887
30
0
41
1
10
566
20
30
30
0
0
LINE
5
A6
100
AcDbEntity
8
SK4
62
256
6
ByLayer
370
18
48
0.05
60
0
100
AcDbLine
10
-245
20
0
30
0
11
564
21
0
31
0
39
0
210
0
220
0
230
1
0
LINE
5
A8
100
AcDbEntity
8
81
62
256
6
ByLayer
370
18
48
1
60
0
100
AcDbLine
10
568
20
10
30
0
11
573
21
10
31
0
39
0
210
0
220
0
230
1
0
LINE
5
A9
100
AcDbEntity
8
4
62
256
6
ByLayer
370
18
48
0.05
60
0
100
AcDbLine
10
564
20
10
30
0
11
568
21
10
31
0
39
0
210
0
220
0
230
1
0
LINE
5
AB
100
AcDbEntity
8
80
62
256
6
ByLayer
370
18
48
1
60
0
100
AcDbLine
10
0
20
0
30
0
11
-5
21
0
31
0
39
0
210
0
220
0
230
1
0
LINE
5
AC
100
AcDbEntity
8
1
62
256
6
ByLayer
370
18
48
1
60
0
100
AcDbLine
10
560.45
20
25.888
30
0
11
560.55
21
25.888
31
0
39
0
210
0
220
0
230
1
0
LINE
5
AD
100
AcDbEntity
8
1
62
256
6
ByLayer
370
18
48
1
60
0
100
AcDbLine
10
559.633975
20
25.888
30
0
11
558.767949
21
25.888
31
0
39
0
210
0
220
0
230
1
0
LINE
5
AE
100
AcDbEntity
8
1
62
256
6
ByLayer
370
18
48
1
60
0
100
AcDbLine
10
558.767949
20
25.888
30
0
11
559.633975
21
25.888
31
0
39
0
210
0
220
0
230
1
0
LINE
5
AF
100
AcDbEntity
8
1
62
256
6
ByLayer
370
18
48
1
60
0
100
AcDbLine
10
562.232051
20
25.888
30
0
11
561.366025
21
25.888
31
0
39
0
210
0
220
0
230
1
0
LINE
5
B0
100
AcDbEntity
8
1
62
256
6
ByLayer
370
18
48
1
60
0
100
AcDbLine
10
559.633975
20
25.888
30
0
11
561.366025
21
25.888
31
0
39
0
210
0
220
0
230
1
0
LINE
5
B1
100
AcDbEntity
8
1
62
256
6
ByLayer
370
18
48
1
60
0
100
AcDbLine
10
561.366025
20
25.888
30
0
11
562.232051
21
25.888
31
0
39
0
210
0
220
0
230
1
0
LINE
5
B2
100
AcDbEntity
8
1
62
256
6
ByLayer
370
18
48
1
60
0
100
AcDbLine
10
561.366025
20
25.888
30
0
11
559.633975
21
25.888
31
0
39
0
210
0
220
0
230
1
0
LINE
5
B3
100
AcDbEntity
8
1
62
256
6
ByLayer
370
18
48
1
60
0
100
AcDbLine
10
572.8
20
3.100505
30
0
11
572.8
21
-2.899495
31
0
39
0
210
0
220
0
230
1
0
LINE
5
B4
100
AcDbEntity
8
1
62
256
6
ByLayer
370
13
48
1
60
0
100
AcDbLine
10
568.324503
20
-2.344995
30
0
11
572.8
21
-2.344995
31
0
39
0
210
0
220
0
230
1
0
LINE
5
B5
100
AcDbEntity
8
1
62
256
6
ByLayer
370
13
48
1
60
0
100
AcDbLine
10
568.324503
20
2.546005
30
0
11
572.8
21
2.546005
31
0
39
0
210
0
220
0
230
1
0
LINE
5
B6
100
AcDbEntity
8
1
62
256
6
ByLayer
370
18
48
1
60
0
100
AcDbLine
10
572.8
20
22.899495
30
0
11
572.8
21
16.899495
31
0
39
0
210
0
220
0
230
1
0
LINE
5
B7
100
AcDbEntity
8
1
62
256
6
ByLayer
370
13
48
1
60
0
100
AcDbLine
10
568.324503
20
17.453995
30
0
11
572.8
21
17.453995
31
0
39
0
210
0
220
0
230
1
0
LINE
5
B8
100
AcDbEntity
8
1
62
256
6
ByLayer
370
13
48
1
60
0
100
AcDbLine
10
568.324503
20
22.344995
30
0
11
572.8
21
22.344995
31
0
39
0
210
0
220
0
230
1
0
LINE
5
B9
100
AcDbEntity
8
1
62
256
6
ByLayer
370
18
48
1
60
0
100
AcDbLine
10
0
20
30
30
0
11
0
21
-30
31
0
39
0
210
0
220
0
230
1
0
LINE
5
BA
100
AcDbEntity
8
1
62
256
6
ByLayer
370
18
48
1
60
0
100
AcDbLine
10
564
20
30
30
0
11
564
21
-30
31
0
39
0
210
0
220
0
230
1
0
LINE
5
BB
100
AcDbEntity
8
SK1
62
256
6
ByLayer
370
18
48
1
60
0
100
AcDbLine
10
-240
20
-28.9875
30
0
11
-240
21
28.9875
31
0
39
0
210
0
220
0
230
1
0
LINE
5
BD
100
AcDbEntity
8
SK1
62
256
6
ByLayer
370
18
48
1
60
0
100
AcDbLine
10
-239
20
-29.9875
30
0
11
-239
21
29.9875
31
0
39
0
210
0
220
0
230
1
0
LINE
5
BE
100
AcDbEntity
8
1
62
256
6
ByLayer
370
13
48
1
60
0
100
AcDbLine
10
572.8
20
-2.899495
30
0
11
572.8
21
3.100505
31
0
39
0
210
0
220
0
230
1
0
LINE
5
BF
100
AcDbEntity
8
1
62
256
6
ByLayer
370
18
48
1
60
0
100
AcDbLine
10
573
20
-4.899495
30
0
11
573
21
5.100505
31
0
39
0
210
0
220
0
230
1
0
LINE
5
C0
100
AcDbEntity
8
1
62
256
6
ByLayer
370
13
48
1
60
0
100
AcDbLine
10
578.4
20
-4.899495
30
0
11
578.4
21
5.100505
31
0
39
0
210
0
220
0
230
1
0
LINE
5
C1
100
AcDbEntity
8
1
62
256
6
ByLayer
370
18
48
1
60
0
100
AcDbLine
10
579
20
-4.299495
30
0
11
579
21
4.500505
31
0
39
0
210
0
220
0
230
1
0
LINE
5
C2
100
AcDbEntity
8
1
62
256
6
ByLayer
370
18
48
1
60
0
100
AcDbLine
10
568.32476
20
28.887542
30
0
11
568.32476
21
28.976857
31
0
39
0
210
0
220
0
230
1
0
LINE
5
C3
100
AcDbEntity
8
1
62
256
6
ByLayer
370
18
48
1
60
0
100
AcDbLine
10
568.32476
20
-8.976857
30
0
11
568.32476
21
-8.887542
31
0
39
0
210
0
220
0
230
1
0
LINE
5
C4
100
AcDbEntity
8
1
62
256
6
ByLayer
370
13
48
1
60
0
100
AcDbLine
10
567.650481
20
29.602807
30
0
11
567.650481
21
29.629489
31
0
39
0
210
0
220
0
230
1
0
LINE
5
C5
100
AcDbEntity
8
1
62
256
6
ByLayer
370
13
48
1
60
0
100
AcDbLine
10
567.650481
20
-9.629489
30
0
11
567.650481
21
-9.602807
31
0
39
0
210
0
220
0
230
1
0
LINE
5
C6
100
AcDbEntity
8
1
62
256
6
ByLayer
370
18
48
1
60
0
100
AcDbLine
10
568.32476
20
28.662842
30
0
11
568.32476
21
28.842999
31
0
39
0
210
0
220
0
230
1
0
LINE
5
C7
100
AcDbEntity
8
1
62
256
6
ByLayer
370
18
48
1
60
0
100
AcDbLine
10
568.32476
20
-8.842999
30
0
11
568.32476
21
-8.662842
31
0
39
0
210
0
220
0
230
1
0
LINE
5
C8
100
AcDbEntity
8
1
62
256
6
ByLayer
370
13
48
1
60
0
100
AcDbLine
10
567.650481
20
29.416627
30
0
11
567.650481
21
29.470143
31
0
39
0
210
0
220
0
230
1
0
LINE
5
C9
100
AcDbEntity
8
1
62
256
6
ByLayer
370
13
48
1
60
0
100
AcDbLine
10
567.650481
20
-9.470143
30
0
11
567.650481
21
-9.416627
31
0
39
0
210
0
220
0
230
1
0
LINE
5
CA
100
AcDbEntity
8
1
62
256
6
ByLayer
370
18
48
1
60
0
100
AcDbLine
10
568.32476
20
28.31313
30
0
11
568.32476
21
28.587525
31
0
39
0
210
0
220
0
230
1
0
LINE
5
CB
100
AcDbEntity
8
1
62
256
6
ByLayer
370
18
48
1
60
0
100
AcDbLine
10
568.32476
20
-8.587525
30
0
11
568.32476
21
-8.31313
31
0
39
0
210
0
220
0
230
1
0
LINE
5
CC
100
AcDbEntity
8
1
62
256
6
ByLayer
370
13
48
1
60
0
100
AcDbLine
10
567.650481
20
-9.192605
30
0
11
567.650481
21
-9.111162
31
0
39
0
210
0
220
0
230
1
0
LINE
5
CD
100
AcDbEntity
8
1
62
256
6
ByLayer
370
13
48
1
60
0
100
AcDbLine
10
567.650481
20
29.111162
30
0
11
567.650481
21
29.192605
31
0
39
0
210
0
220
0
230
1
0
LINE
5
CE
100
AcDbEntity
8
1
62
256
6
ByLayer
370
18
48
1
60
0
100
AcDbLine
10
568.32476
20
-8.205318
30
0
11
568.32476
21
-7.830489
31
0
39
0
210
0
220
0
230
1
0
LINE
5
CF
100
AcDbEntity
8
1
62
256
6
ByLayer
370
18
48
1
60
0
100
AcDbLine
10
568.32476
20
27.830489
30
0
11
568.32476
21
28.205318
31
0
39
0
210
0
220
0
230
1
0
LINE
5
D0
100
AcDbEntity
8
1
62
256
6
ByLayer
370
13
48
1
60
0
100
AcDbLine
10
567.650481
20
-8.791639
30
0
11
567.650481
21
-8.680651
31
0
39
0
210
0
220
0
230
1
0
LINE
5
D1
100
AcDbEntity
8
1
62
256
6
ByLayer
370
13
48
1
60
0
100
AcDbLine
10
567.650481
20
28.680651
30
0
11
567.650481
21
28.791639
31
0
39
0
210
0
220
0
230
1
0
LINE
5
D2
100
AcDbEntity
8
1
62
256
6
ByLayer
370
18
48
1
60
0
100
AcDbLine
10
568.32476
20
-7.688163
30
0
11
568.32476
21
-7.204449
31
0
39
0
210
0
220
0
230
1
0
LINE
5
D3
100
AcDbEntity
8
1
62
256
6
ByLayer
370
18
48
1
60
0
100
AcDbLine
10
568.32476
20
27.204449
30
0
11
568.32476
21
27.688163
31
0
39
0
210
0
220
0
230
1
0
LINE
5
D4
100
AcDbEntity
8
1
62
256
6
ByLayer
370
13
48
1
60
0
100
AcDbLine
10
567.650481
20
-8.259116
30
0
11
567.650481
21
-8.116188
31
0
39
0
210
0
220
0
230
1
0
LINE
5
D5
100
AcDbEntity
8
1
62
256
6
ByLayer
370
13
48
1
60
0
100
AcDbLine
10
567.650481
20
28.116188
30
0
11
567.650481
21
28.259116
31
0
39
0
210
0
220
0
230
1
0
LINE
5
D6
100
AcDbEntity
8
1
62
256
6
ByLayer
370
18
48
1
60
0
100
AcDbLine
10
568.32476
20
-7.023766
30
0
11
568.32476
21
-6.418191
31
0
39
0
210
0
220
0
230
1
0
LINE
5
D7
100
AcDbEntity
8
1
62
256
6
ByLayer
370
18
48
1
60
0
100
AcDbLine
10
568.32476
20
26.418191
30
0
11
568.32476
21
27.023766
31
0
39
0
210
0
220
0
230
1
0
LINE
5
D8
100
AcDbEntity
8
1
62
256
6
ByLayer
370
13
48
1
60
0
100
AcDbLine
10
567.650481
20
-7.583086
30
0
11
567.650481
21
-7.404844
31
0
39
0
210
0
220
0
230
1
0
LINE
5
D9
100
AcDbEntity
8
1
62
256
6
ByLayer
370
13
48
1
60
0
100
AcDbLine
10
567.650481
20
27.404844
30
0
11
567.650481
21
27.583086
31
0
39
0
210
0
220
0
230
1
0
LINE
5
DA
100
AcDbEntity
8
1
62
256
6
ByLayer
370
18
48
1
60
0
100
AcDbLine
10
568.32476
20
25.447336
30
0
11
568.32476
21
26.194014
31
0
39
0
210
0
220
0
230
1
0
LINE
5
DB
100
AcDbEntity
8
1
62
256
6
ByLayer
370
18
48
1
60
0
100
AcDbLine
10
568.32476
20
-6.194014
30
0
11
568.32476
21
-5.447336
31
0
39
0
210
0
220
0
230
1
0
LINE
5
DC
100
AcDbEntity
8
1
62
256
6
ByLayer
370
13
48
1
60
0
100
AcDbLine
10
567.650481
20
-6.74618
30
0
11
567.650481
21
-6.527523
31
0
39
0
210
0
220
0
230
1
0
LINE
5
DD
100
AcDbEntity
8
1
62
256
6
ByLayer
370
13
48
1
60
0
100
AcDbLine
10
567.650481
20
26.527523
30
0
11
567.650481
21
26.74618
31
0
39
0
210
0
220
0
230
1
0
LINE
5
DE
100
AcDbEntity
8
1
62
256
6
ByLayer
370
18
48
1
60
0
100
AcDbLine
10
568.32476
20
24.254246
30
0
11
568.32476
21
25.171803
31
0
39
0
210
0
220
0
230
1
0
LINE
5
DF
100
AcDbEntity
8
1
62
256
6
ByLayer
370
18
48
1
60
0
100
AcDbLine
10
568.32476
20
-5.171803
30
0
11
568.32476
21
-4.254246
31
0
39
0
210
0
220
0
230
1
0
LINE
5
E0
100
AcDbEntity
8
1
62
256
6
ByLayer
370
13
48
1
60
0
100
AcDbLine
10
567.650481
20
25.456027
30
0
11
567.650481
21
25.722727
31
0
39
0
210
0
220
0
230
1
0
LINE
5
E1
100
AcDbEntity
8
1
62
256
6
ByLayer
370
13
48
1
60
0
100
AcDbLine
10
567.650481
20
-5.722727
30
0
11
567.650481
21
-5.456027
31
0
39
0
210
0
220
0
230
1
0
LINE
5
E2
100
AcDbEntity
8
1
62
256
6
ByLayer
370
18
48
1
60
0
100
AcDbLine
10
568.32476
20
22.776776
30
0
11
568.32476
21
23.91478
31
0
39
0
210
0
220
0
230
1
0
LINE
5
E3
100
AcDbEntity
8
1
62
256
6
ByLayer
370
18
48
1
60
0
100
AcDbLine
10
568.32476
20
-3.91478
30
0
11
568.32476
21
-2.776776
31
0
39
0
210
0
220
0
230
1
0
LINE
5
E4
100
AcDbEntity
8
1
62
256
6
ByLayer
370
13
48
1
60
0
100
AcDbLine
10
567.650481
20
-4.473209
30
0
11
567.650481
21
-4.146205
31
0
39
0
210
0
220
0
230
1
0
LINE
5
E5
100
AcDbEntity
8
1
62
256
6
ByLayer
370
13
48
1
60
0
100
AcDbLine
10
567.650481
20
24.146205
30
0
11
567.650481
21
24.473209
31
0
39
0
210
0
220
0
230
1
0
LINE
5
E6
100
AcDbEntity
8
1
62
256
6
ByLayer
370
18
48
1
60
0
100
AcDbLine
10
568.32476
20
-2.351461
30
0
11
568.32476
21
-0.899779
31
0
39
0
210
0
220
0
230
1
0
LINE
5
E7
100
AcDbEntity
8
1
62
256
6
ByLayer
370
18
48
1
60
0
100
AcDbLine
10
568.32476
20
20.899779
30
0
11
568.32476
21
22.351461
31
0
39
0
210
0
220
0
230
1
0
LINE
5
E8
100
AcDbEntity
8
1
62
256
6
ByLayer
370
13
48
1
60
0
100
AcDbLine
10
567.650481
20
-2.932262
30
0
11
567.650481
21
-2.523683
31
0
39
0
210
0
220
0
230
1
0
LINE
5
E9
100
AcDbEntity
8
1
62
256
6
ByLayer
370
13
48
1
60
0
100
AcDbLine
10
567.650481
20
22.523683
30
0
11
567.650481
21
22.932262
31
0
39
0
210
0
220
0
230
1
0
LINE
5
EA
100
AcDbEntity
8
1
62
256
6
ByLayer
370
18
48
1
60
0
100
AcDbLine
10
568.32476
20
-0.343892
30
0
11
568.32476
21
1.641166
31
0
39
0
210
0
220
0
230
1
0
LINE
5
EB
100
AcDbEntity
8
1
62
256
6
ByLayer
370
18
48
1
60
0
100
AcDbLine
10
568.32476
20
18.358834
30
0
11
568.32476
21
20.343892
31
0
39
0
210
0
220
0
230
1
0
LINE
5
EC
100
AcDbEntity
8
1
62
256
6
ByLayer
370
13
48
1
60
0
100
AcDbLine
10
567.650481
20
-0.977842
30
0
11
567.650481
21
-0.444044
31
0
39
0
210
0
220
0
230
1
0
LINE
5
ED
100
AcDbEntity
8
1
62
256
6
ByLayer
370
13
48
1
60
0
100
AcDbLine
10
567.650481
20
20.444044
30
0
11
567.650481
21
20.977842
31
0
39
0
210
0
220
0
230
1
0
LINE
5
EE
100
AcDbEntity
8
1
62
256
6
ByLayer
370
18
48
1
60
0
100
AcDbLine
10
568.32476
20
2.454565
30
0
11
568.32476
21
5.946215
31
0
39
0
210
0
220
0
230
1
0
LINE
5
EF
100
AcDbEntity
8
1
62
256
6
ByLayer
370
18
48
1
60
0
100
AcDbLine
10
568.32476
20
14.053785
30
0
11
568.32476
21
17.545435
31
0
39
0
210
0
220
0
230
1
0
LINE
5
F0
100
AcDbEntity
8
1
62
256
6
ByLayer
370
13
48
1
60
0
100
AcDbLine
10
567.650481
20
1.676382
30
0
11
567.650481
21
2.462704
31
0
39
0
210
0
220
0
230
1
0
LINE
5
F1
100
AcDbEntity
8
1
62
256
6
ByLayer
370
13
48
1
60
0
100
AcDbLine
10
567.650481
20
17.537296
30
0
11
567.650481
21
18.323618
31
0
39
0
210
0
220
0
230
1
0
LINE
5
F2
100
AcDbEntity
8
1
62
256
6
ByLayer
370
18
48
1
60
0
100
AcDbLine
10
568.32476
20
8.460164
30
0
11
568.32476
21
11.539836
31
0
39
0
210
0
220
0
230
1
0
LINE
5
F3
100
AcDbEntity
8
1
62
256
6
ByLayer
370
13
48
1
60
0
100
AcDbLine
10
567.650481
20
6.318664
30
0
11
567.650481
21
9.790509
31
0
39
0
210
0
220
0
230
1
0
LINE
5
F4
100
AcDbEntity
8
1
62
256
6
ByLayer
370
13
48
1
60
0
100
AcDbLine
10
567.650481
20
10.209491
30
0
11
567.650481
21
13.681336
31
0
39
0
210
0
220
0
230
1
0
LINE
5
F5
100
AcDbEntity
8
1
62
256
6
ByLayer
370
18
48
1
60
0
100
AcDbLine
10
568.32476
20
-8.976857
30
0
11
568.32476
21
-8.991672
31
0
39
0
210
0
220
0
230
1
0
LINE
5
F6
100
AcDbEntity
8
1
62
256
6
ByLayer
370
18
48
1
60
0
100
AcDbLine
10
568.32476
20
-8.842999
30
0
11
568.32476
21
-8.887723
31
0
39
0
210
0
220
0
230
1
0
LINE
5
F7
100
AcDbEntity
8
1
62
256
6
ByLayer
370
18
48
1
60
0
100
AcDbLine
10
568.32476
20
-8.587525
30
0
11
568.32476
21
-8.663027
31
0
39
0
210
0
220
0
230
1
0
LINE
5
F8
100
AcDbEntity
8
1
62
256
6
ByLayer
370
18
48
1
60
0
100
AcDbLine
10
568.32476
20
-8.205318
30
0
11
568.32476
21
-8.31314
31
0
39
0
210
0
220
0
230
1
0
LINE
5
F9
100
AcDbEntity
8
1
62
256
6
ByLayer
370
18
48
1
60
0
100
AcDbLine
10
568.32476
20
-7.688163
30
0
11
568.32476
21
-7.830692
31
0
39
0
210
0
220
0
230
1
0
LINE
5
FA
100
AcDbEntity
8
1
62
256
6
ByLayer
370
18
48
1
60
0
100
AcDbLine
10
568.32476
20
-7.023766
30
0
11
568.32476
21
-7.204537
31
0
39
0
210
0
220
0
230
1
0
LINE
5
FB
100
AcDbEntity
8
1
62
256
6
ByLayer
370
18
48
1
60
0
100
AcDbLine
10
568.32476
20
-6.194014
30
0
11
568.32476
21
-6.41824
31
0
39
0
210
0
220
0
230
1
0
LINE
5
FC
100
AcDbEntity
8
1
62
256
6
ByLayer
370
18
48
1
60
0
100
AcDbLine
10
568.32476
20
-5.171803
30
0
11
568.32476
21
-5.447365
31
0
39
0
210
0
220
0
230
1
0
LINE
5
FD
100
AcDbEntity
8
1
62
256
6
ByLayer
370
18
48
1
60
0
100
AcDbLine
10
568.32476
20
-3.91478
30
0
11
568.32476
21
-4.254248
31
0
39
0
210
0
220
0
230
1
0
LINE
5
FE
100
AcDbEntity
8
1
62
256
6
ByLayer
370
18
48
1
60
0
100
AcDbLine
10
568.32476
20
-2.351461
30
0
11
568.32476
21
-2.776779
31
0
39
0
210
0
220
0
230
1
0
LINE
5
FF
100
AcDbEntity
8
1
62
256
6
ByLayer
370
18
48
1
60
0
100
AcDbLine
10
568.32476
20
-0.343892
30
0
11
568.32476
21
-0.899935
31
0
39
0
210
0
220
0
230
1
0
LINE
5
100
100
AcDbEntity
8
1
62
256
6
ByLayer
370
18
48
1
60
0
100
AcDbLine
10
568.32476
20
2.454565
30
0
11
568.32476
21
1.641107
31
0
39
0
210
0
220
0
230
1
0
LINE
5
101
100
AcDbEntity
8
1
62
256
6
ByLayer
370
18
48
1
60
0
100
AcDbLine
10
568.32476
20
8.460164
30
0
11
568.32476
21
5.946163
31
0
39
0
210
0
220
0
230
1
0
LINE
5
102
100
AcDbEntity
8
1
62
256
6
ByLayer
370
18
48
1
60
0
100
AcDbLine
10
568.32476
20
14.053837
30
0
11
568.32476
21
11.539836
31
0
39
0
210
0
220
0
230
1
0
LINE
5
103
100
AcDbEntity
8
1
62
256
6
ByLayer
370
18
48
1
60
0
100
AcDbLine
10
568.32476
20
18.358893
30
0
11
568.32476
21
17.545435
31
0
39
0
210
0
220
0
230
1
0
LINE
5
104
100
AcDbEntity
8
1
62
256
6
ByLayer
370
18
48
1
60
0
100
AcDbLine
10
568.32476
20
20.899935
30
0
11
568.32476
21
20.343892
31
0
39
0
210
0
220
0
230
1
0
LINE
5
105
100
AcDbEntity
8
1
62
256
6
ByLayer
370
18
48
1
60
0
100
AcDbLine
10
568.32476
20
22.776779
30
0
11
568.32476
21
22.351461
31
0
39
0
210
0
220
0
230
1
0
LINE
5
106
100
AcDbEntity
8
1
62
256
6
ByLayer
370
18
48
1
60
0
100
AcDbLine
10
568.32476
20
24.254248
30
0
11
568.32476
21
23.91478
31
0
39
0
210
0
220
0
230
1
0
LINE
5
107
100
AcDbEntity
8
1
62
256
6
ByLayer
370
18
48
1
60
0
100
AcDbLine
10
568.32476
20
25.447365
30
0
11
568.32476
21
25.171803
31
0
39
0
210
0
220
0
230
1
0
LINE
5
108
100
AcDbEntity
8
1
62
256
6
ByLayer
370
18
48
1
60
0
100
AcDbLine
10
568.32476
20
26.41824
30
0
11
568.32476
21
26.194014
31
0
39
0
210
0
220
0
230
1
0
LINE
5
109
100
AcDbEntity
8
1
62
256
6
ByLayer
370
18
48
1
60
0
100
AcDbLine
10
568.32476
20
27.204537
30
0
11
568.32476
21
27.023766
31
0
39
0
210
0
220
0
230
1
0
LINE
5
10A
100
AcDbEntity
8
1
62
256
6
ByLayer
370
18
48
1
60
0
100
AcDbLine
10
568.32476
20
27.830692
30
0
11
568.32476
21
27.688163
31
0
39
0
210
0
220
0
230
1
0
LINE
5
10B
100
AcDbEntity
8
1
62
256
6
ByLayer
370
18
48
1
60
0
100
AcDbLine
10
568.32476
20
28.31314
30
0
11
568.32476
21
28.205318
31
0
39
0
210
0
220
0
230
1
0
LINE
5
10C
100
AcDbEntity
8
1
62
256
6
ByLayer
370
18
48
1
60
0
100
AcDbLine
10
568.32476
20
28.663027
30
0
11
568.32476
21
28.587525
31
0
39
0
210
0
220
0
230
1
0
LINE
5
10D
100
AcDbEntity
8
1
62
256
6
ByLayer
370
18
48
1
60
0
100
AcDbLine
10
568.32476
20
28.887723
30
0
11
568.32476
21
28.842999
31
0
39
0
210
0
220
0
230
1
0
LINE
5
10E
100
AcDbEntity
8
1
62
256
6
ByLayer
370
18
48
1
60
0
100
AcDbLine
10
568.32476
20
28.991672
30
0
11
568.32476
21
28.976857
31
0
39
0
210
0
220
0
230
1
0
LINE
5
10F
100
AcDbEntity
8
1
62
256
6
ByLayer
370
18
48
1
60
0
100
AcDbLine
10
567.32476
20
-10
30
0
11
567.32476
21
30
31
0
39
0
210
0
220
0
230
1
0
LINE
5
110
100
AcDbEntity
8
1
62
256
6
ByLayer
370
13
48
1
60
0
100
AcDbLine
10
566.5
20
-10
30
0
11
566.5
21
28.52439
31
0
39
0
210
0
220
0
230
1
0
LINE
5
111
100
AcDbEntity
8
1
62
256
6
ByLayer
370
18
48
1
60
0
100
AcDbLine
10
566
20
-29.5
30
0
11
566
21
27.5
31
0
39
0
210
0
220
0
230
1
0
LINE
5
112
100
AcDbEntity
8
1
62
256
6
ByLayer
370
13
48
1
60
0
100
AcDbLine
10
564.4
20
30
30
0
11
564.4
21
-30
31
0
39
0
210
0
220
0
230
1
0
LINE
5
113
100
AcDbEntity
8
1
62
256
6
ByLayer
370
18
48
1
60
0
100
AcDbLine
10
565.5
20
-30
30
0
11
565.5
21
27.966102
31
0
39
0
210
0
220
0
230
1
0
LINE
5
114
100
AcDbEntity
8
1
62
256
6
ByLayer
370
13
48
1
60
0
100
AcDbLine
10
572.8
20
22.899495
30
0
11
572.8
21
16.899495
31
0
39
0
210
0
220
0
230
1
0
LINE
5
115
100
AcDbEntity
8
1
62
256
6
ByLayer
370
18
48
1
60
0
100
AcDbLine
10
573
20
24.899495
30
0
11
573
21
14.899495
31
0
39
0
210
0
220
0
230
1
0
LINE
5
116
100
AcDbEntity
8
1
62
256
6
ByLayer
370
13
48
1
60
0
100
AcDbLine
10
578.4
20
24.899495
30
0
11
578.4
21
14.899495
31
0
39
0
210
0
220
0
230
1
0
LINE
5
117
100
AcDbEntity
8
1
62
256
6
ByLayer
370
18
48
1
60
0
100
AcDbLine
10
579
20
24.299495
30
0
11
579
21
15.499495
31
0
39
0
210
0
220
0
230
1
0
LINE
5
118
100
AcDbEntity
8
1
62
256
6
ByLayer
370
18
48
1
60
0
100
AcDbLine
10
0
20
-30
30
0
11
564
21
-30
31
0
39
0
210
0
220
0
230
1
0
LINE
5
119
100
AcDbEntity
8
1
62
256
6
ByLayer
370
18
48
1
60
0
100
AcDbLine
10
564
20
30
30
0
11
0
21
30
31
0
39
0
210
0
220
0
230
1
0
LINE
5
11A
100
AcDbEntity
8
SK1
62
256
6
ByLayer
370
18
48
1
60
0
100
AcDbLine
10
0
20
29.9875
30
0
11
-239
21
29.9875
31
0
39
0
210
0
220
0
230
1
0
LINE
5
11B
100
AcDbEntity
8
SK1
62
256
6
ByLayer
370
18
48
1
60
0
100
AcDbLine
10
-239
20
-29.9875
30
0
11
0
21
-29.9875
31
0
39
0
210
0
220
0
230
1
0
LINE
5
11C
100
AcDbEntity
8
SK1
62
256
6
ByLayer
370
18
48
1
60
0
100
AcDbLine
10
-240
20
-28.9875
30
0
11
-239
21
-29.9875
31
0
39
0
210
0
220
0
230
1
0
LINE
5
11D
100
AcDbEntity
8
SK1
62
256
6
ByLayer
370
18
48
1
60
0
100
AcDbLine
10
-239
20
29.9875
30
0
11
-240
21
28.9875
31
0
39
0
210
0
220
0
230
1
0
LINE
5
11E
100
AcDbEntity
8
1
62
256
6
ByLayer
370
18
48
1
60
0
100
AcDbLine
10
568.324609
20
-2.899495
30
0
11
572.8
21
-2.899495
31
0
39
0
210
0
220
0
230
1
0
LINE
5
11F
100
AcDbEntity
8
1
62
256
6
ByLayer
370
18
48
1
60
0
100
AcDbLine
10
572.8
20
3.100505
30
0
11
568.324609
21
3.100505
31
0
39
0
210
0
220
0
230
1
0
LINE
5
120
100
AcDbEntity
8
1
62
256
6
ByLayer
370
18
48
1
60
0
100
AcDbLine
10
573
20
-4.899495
30
0
11
578.4
21
-4.899495
31
0
39
0
210
0
220
0
230
1
0
LINE
5
121
100
AcDbEntity
8
1
62
256
6
ByLayer
370
18
48
1
60
0
100
AcDbLine
10
578.4
20
5.100505
30
0
11
573
21
5.100505
31
0
39
0
210
0
220
0
230
1
0
LINE
5
122
100
AcDbEntity
8
1
62
256
6
ByLayer
370
18
48
1
60
0
100
AcDbLine
10
567.552123
20
29.772637
30
0
11
567.32476
21
30
31
0
39
0
210
0
220
0
230
1
0
LINE
5
123
100
AcDbEntity
8
1
62
256
6
ByLayer
370
18
48
1
60
0
100
AcDbLine
10
567.32476
20
-10
30
0
11
567.552123
21
-9.772637
31
0
39
0
210
0
220
0
230
1
0
LINE
5
124
100
AcDbEntity
8
1
62
256
6
ByLayer
370
18
48
1
60
0
100
AcDbLine
10
566.5
20
-10
30
0
11
567.32476
21
-10
31
0
39
0
210
0
220
0
230
1
0
LINE
5
125
100
AcDbEntity
8
1
62
256
6
ByLayer
370
18
48
1
60
0
100
AcDbLine
10
567.32476
20
30
30
0
11
566
21
30
31
0
39
0
210
0
220
0
230
1
0
LINE
5
126
100
AcDbEntity
8
1
62
256
6
ByLayer
370
18
48
1
60
0
100
AcDbLine
10
565.5
20
-30
30
0
11
566
21
-29.5
31
0
39
0
210
0
220
0
230
1
0
LINE
5
127
100
AcDbEntity
8
1
62
256
6
ByLayer
370
18
48
1
60
0
100
AcDbLine
10
566.02
20
30
30
0
11
564.4
21
30
31
0
39
0
210
0
220
0
230
1
0
LINE
5
128
100
AcDbEntity
8
1
62
256
6
ByLayer
370
18
48
1
60
0
100
AcDbLine
10
564.4
20
-30
30
0
11
565.5
21
-30
31
0
39
0
210
0
220
0
230
1
0
LINE
5
129
100
AcDbEntity
8
1
62
256
6
ByLayer
370
18
48
1
60
0
100
AcDbLine
10
568.324609
20
16.899495
30
0
11
572.8
21
16.899495
31
0
39
0
210
0
220
0
230
1
0
LINE
5
12A
100
AcDbEntity
8
1
62
256
6
ByLayer
370
18
48
1
60
0
100
AcDbLine
10
572.8
20
22.899495
30
0
11
568.324609
21
22.899495
31
0
39
0
210
0
220
0
230
1
0
LINE
5
12B
100
AcDbEntity
8
1
62
256
6
ByLayer
370
18
48
1
60
0
100
AcDbLine
10
573
20
14.899495
30
0
11
578.4
21
14.899495
31
0
39
0
210
0
220
0
230
1
0
LINE
5
12C
100
AcDbEntity
8
1
62
256
6
ByLayer
370
18
48
1
60
0
100
AcDbLine
10
578.4
20
24.899495
30
0
11
573
21
24.899495
31
0
39
0
210
0
220
0
230
1
0
LINE
5
12D
100
AcDbEntity
8
1
62
256
6
ByLayer
370
13
48
0.05
60
0
100
AcDbLine
10
-245.5
20
0
30
0
11
570.5
21
0
31
0
39
0
210
0
220
0
230
1
0
LINE
5
12E
100
AcDbEntity
8
SK2
62
256
6
ByLayer
370
18
48
1
60
0
100
AcDbLine
10
-250.25
20
-29.9875
30
0
11
-250.25
21
29.9875
31
0
39
0
210
0
220
0
230
1
0
LINE
5
130
100
AcDbEntity
8
SK2
62
256
6
ByLayer
370
18
48
1
60
0
100
AcDbLine
10
-240.5875
20
29.9875
30
0
11
-252.25
21
29.9875
31
0
39
0
210
0
220
0
230
1
0
LINE
5
131
100
AcDbEntity
8
SK2
62
256
6
ByLayer
370
18
48
1
60
0
100
AcDbLine
10
-240.5875
20
-29.9875
30
0
11
-252.25
21
-29.9875
31
0
39
0
210
0
220
0
230
1
0
LINE
5
132
100
AcDbEntity
8
1
62
256
6
ByLayer
370
18
48
1
60
1
100
AcDbLine
10
-250.25
20
29.9875
30
0
11
-249.789216
21
26.487502
31
0
39
0
210
0
220
0
230
1
0
LINE
5
133
100
AcDbEntity
8
1
62
256
6
ByLayer
370
18
48
1
60
1
100
AcDbLine
10
-249.789216
20
26.487502
30
0
11
-250.710784
21
26.487498
31
0
39
0
210
0
220
0
230
1
0
LINE
5
134
100
AcDbEntity
8
1
62
256
6
ByLayer
370
18
48
1
60
1
100
AcDbLine
10
-250.710784
20
26.487498
30
0
11
-250.25
21
29.9875
31
0
39
0
210
0
220
0
230
1
0
LINE
5
135
100
AcDbEntity
8
1
62
256
6
ByLayer
370
18
48
1
60
1
100
AcDbLine
10
-250.25
20
-29.9875
30
0
11
-250.710784
21
-26.487502
31
0
39
0
210
0
220
0
230
1
0
LINE
5
136
100
AcDbEntity
8
1
62
256
6
ByLayer
370
18
48
1
60
1
100
AcDbLine
10
-250.710784
20
-26.487502
30
0
11
-249.789216
21
-26.487498
31
0
39
0
210
0
220
0
230
1
0
LINE
5
137
100
AcDbEntity
8
1
62
256
6
ByLayer
370
18
48
1
60
1
100
AcDbLine
10
-249.789216
20
-26.487498
30
0
11
-250.25
21
-29.9875
31
0
39
0
210
0
220
0
230
1
0
LINE
5
138
100
AcDbEntity
8
SK2
62
256
6
ByLayer
370
13
48
1
60
0
100
AcDbLine
10
602.123181
20
-10
30
0
11
602.123181
21
36.949199
31
0
39
0
210
0
220
0
230
1
0
LINE
5
139
100
AcDbEntity
8
SK2
62
256
6
ByLayer
370
13
48
1
60
0
100
AcDbLine
10
568.91226
20
-10
30
0
11
604.123181
21
-10
31
0
39
0
210
0
220
0
230
1
0
LINE
5
13A
100
AcDbEntity
8
SK2
62
256
6
ByLayer
370
13
48
1
60
0
100
AcDbLine
10
568.91226
20
30
30
0
11
604.123181
21
30
31
0
39
0
210
0
220
0
230
1
0
LINE
5
13B
100
AcDbEntity
8
1
62
256
6
ByLayer
370
18
48
1
60
1
100
AcDbLine
10
602.123181
20
-10
30
0
11
601.662397
21
-6.500002
31
0
39
0
210
0
220
0
230
1
0
LINE
5
13C
100
AcDbEntity
8
1
62
256
6
ByLayer
370
18
48
1
60
1
100
AcDbLine
10
601.662397
20
-6.500002
30
0
11
602.583964
21
-6.499998
31
0
39
0
210
0
220
0
230
1
0
LINE
5
13D
100
AcDbEntity
8
1
62
256
6
ByLayer
370
18
48
1
60
1
100
AcDbLine
10
602.583964
20
-6.499998
30
0
11
602.123181
21
-10
31
0
39
0
210
0
220
0
230
1
0
LINE
5
13E
100
AcDbEntity
8
1
62
256
6
ByLayer
370
18
48
1
60
1
100
AcDbLine
10
602.123181
20
30
30
0
11
602.583964
21
26.500002
31
0
39
0
210
0
220
0
230
1
0
LINE
5
13F
100
AcDbEntity
8
1
62
256
6
ByLayer
370
18
48
1
60
1
100
AcDbLine
10
602.583964
20
26.500002
30
0
11
601.662397
21
26.499998
31
0
39
0
210
0
220
0
230
1
0
LINE
5
140
100
AcDbEntity
8
1
62
256
6
ByLayer
370
18
48
1
60
1
100
AcDbLine
10
601.662397
20
26.499998
30
0
11
602.123181
21
30
31
0
39
0
210
0
220
0
230
1
0
LINE
5
1A9
100
AcDbEntity
8
1
62
256
6
ByLayer
370
18
48
1
60
1
100
AcDbLine
10
-250.25
20
29.9875
30
0
11
-249.789216
21
26.487502
31
0
39
0
210
0
220
0
230
1
0
LINE
5
1AA
100
AcDbEntity
8
1
62
256
6
ByLayer
370
18
48
1
60
1
100
AcDbLine
10
-249.789216
20
26.487502
30
0
11
-250.710784
21
26.487498
31
0
39
0
210
0
220
0
230
1
0
LINE
5
1AB
100
AcDbEntity
8
1
62
256
6
ByLayer
370
18
48
1
60
1
100
AcDbLine
10
-250.710784
20
26.487498
30
0
11
-250.25
21
29.9875
31
0
39
0
210
0
220
0
230
1
0
LINE
5
1AD
100
AcDbEntity
8
1
62
256
6
ByLayer
370
18
48
1
60
1
100
AcDbLine
10
-250.25
20
-29.9875
30
0
11
-250.710784
21
-26.487502
31
0
39
0
210
0
220
0
230
1
0
LINE
5
1AE
100
AcDbEntity
8
1
62
256
6
ByLayer
370
18
48
1
60
1
100
AcDbLine
10
-250.710784
20
-26.487502
30
0
11
-249.789216
21
-26.487498
31
0
39
0
210
0
220
0
230
1
0
LINE
5
1AF
100
AcDbEntity
8
1
62
256
6
ByLayer
370
18
48
1
60
1
100
AcDbLine
10
-249.789216
20
-26.487498
30
0
11
-250.25
21
-29.9875
31
0
39
0
210
0
220
0
230
1
0
LINE
5
1B3
100
AcDbEntity
8
1
62
256
6
ByLayer
370
18
48
1
60
1
100
AcDbLine
10
602.123181
20
-10
30
0
11
601.662397
21
-6.500002
31
0
39
0
210
0
220
0
230
1
0
LINE
5
1B4
100
AcDbEntity
8
1
62
256
6
ByLayer
370
18
48
1
60
1
100
AcDbLine
10
601.662397
20
-6.500002
30
0
11
602.583964
21
-6.499998
31
0
39
0
210
0
220
0
230
1
0
LINE
5
1B5
100
AcDbEntity
8
1
62
256
6
ByLayer
370
18
48
1
60
1
100
AcDbLine
10
602.583964
20
-6.499998
30
0
11
602.123181
21
-10
31
0
39
0
210
0
220
0
230
1
0
LINE
5
1B7
100
AcDbEntity
8
1
62
256
6
ByLayer
370
18
48
1
60
1
100
AcDbLine
10
602.123181
20
30
30
0
11
602.583964
21
26.500002
31
0
39
0
210
0
220
0
230
1
0
LINE
5
1B8
100
AcDbEntity
8
1
62
256
6
ByLayer
370
18
48
1
60
1
100
AcDbLine
10
602.583964
20
26.500002
30
0
11
601.662397
21
26.499998
31
0
39
0
210
0
220
0
230
1
0
LINE
5
1B9
100
AcDbEntity
8
1
62
256
6
ByLayer
370
18
48
1
60
1
100
AcDbLine
10
601.662397
20
26.499998
30
0
11
602.123181
21
30
31
0
39
0
210
0
220
0
230
1
0
MTEXT
5
1A5
100
AcDbEntity
8
SK2
62
256
6
ByLayer
370
18
48
1
60
0
100
AcDbMText
10
-251.814634
20
-4.530622
30
0
210
0
220
0
230
1
1
%%c
40
3.5
41
0
44
1.084337
50
90
71
7
72
5
7
iso_b_vert
0
MTEXT
5
1A8
100
AcDbEntity
8
SK2
62
256
6
ByLayer
370
18
48
1
60
0
100
AcDbMText
10
-251.814634
20
2.442034
30
0
210
0
220
0
230
1
1
\W0.6740;60
40
3.5
41
0
44
1.084337
50
90
71
7
72
5
7
iso_b_vert
0
MTEXT
5
1B1
100
AcDbEntity
8
SK2
62
256
6
ByLayer
370
18
48
1
60
0
100
AcDbMText
10
600.558547
20
25.584577
30
0
210
0
220
0
230
1
1
%%c
40
3.5
41
0
44
1.084337
50
90
71
7
72
5
7
iso_b_vert
0
MTEXT
5
1B2
100
AcDbEntity
8
SK2
62
256
6
ByLayer
370
18
48
1
60
0
100
AcDbMText
10
600.558547
20
32.557233
30
0
210
0
220
0
230
1
1
\W0.7361;40
40
3.5
41
0
44
1.084337
50
90
71
7
72
5
7
iso_b_vert
0
MTEXT
5
1BB
100
AcDbEntity
8
SK6
62
256
6
ByLayer
370
18
48
1
60
0
100
AcDbMText
10
147.115227
20
-66.217366
30
0
210
0
220
0
230
1
1
\W0.7779;HT30D-CY60 808-40
40
3.5
41
0
44
1.084337
50
0
71
7
72
5
7
iso_b_vert
0
HATCH
5
1AC
100
AcDbEntity
8
SK2
62
256
6
ByLayer
370
13
48
1
60
0
100
AcDbHatch
10
0
20
0
30
0
210
0
220
0
230
1
2
ANSI31
70
0
71
0
91
1
92
5
93
3
72
1
10
-250.25
20
29.9875
11
-249.789216258447
21
26.4875016925532
72
1
10
-249.789216258447
20
26.4875016925532
11
-250.710783741553
21
26.4874983074468
72
1
10
-250.710783741553
20
26.4874983074468
11
-250.25
21
29.9875
97
0
75
0
76
1
52
0
41
0.0062
77
0
78
1
53
45
43
0
44
0
45
-0.0139193969876572
46
0.0139193969876572
79
0
47
0
98
1
10
0
20
0
0
HATCH
5
1B0
100
AcDbEntity
8
SK2
62
256
6
ByLayer
370
13
48
1
60
0
100
AcDbHatch
10
0
20
0
30
0
210
0
220
0
230
1
2
ANSI31
70
0
71
0
91
1
92
5
93
3
72
1
10
-250.25
20
-29.9875
11
-250.710783741553
21
-26.4875016925532
72
1
10
-250.710783741553
20
-26.4875016925532
11
-249.789216258447
21
-26.4874983074468
72
1
10
-249.789216258447
20
-26.4874983074468
11
-250.25
21
-29.9875
97
0
75
0
76
1
52
0
41
0.0062
77
0
78
1
53
45
43
0
44
0
45
-0.0139193969876572
46
0.0139193969876572
79
0
47
0
98
1
10
0
20
0
0
HATCH
5
1B6
100
AcDbEntity
8
SK2
62
256
6
ByLayer
370
13
48
1
60
0
100
AcDbHatch
10
0
20
0
30
0
210
0
220
0
230
1
2
ANSI31
70
0
71
0
91
1
92
5
93
3
72
1
10
602.123180566759
20
-10
11
601.662396825206
21
-6.50000169255321
72
1
10
601.662396825206
20
-6.50000169255321
11
602.583964308312
21
-6.49999830744679
72
1
10
602.583964308312
20
-6.49999830744679
11
602.123180566759
21
-10
97
0
75
0
76
1
52
0
41
0.0062
77
0
78
1
53
45
43
0
44
0
45
-0.0139193969876572
46
0.0139193969876572
79
0
47
0
98
1
10
0
20
0
0
HATCH
5
1BA
100
AcDbEntity
8
SK2
62
256
6
ByLayer
370
13
48
1
60
0
100
AcDbHatch
10
0
20
0
30
0
210
0
220
0
230
1
2
ANSI31
70
0
71
0
91
1
92
5
93
3
72
1
10
602.123180566759
20
30
11
602.583964308312
21
26.5000016925532
72
1
10
602.583964308312
20
26.5000016925532
11
601.662396825206
21
26.4999983074468
72
1
10
601.662396825206
20
26.4999983074468
11
602.123180566759
21
30
97
0
75
0
76
1
52
0
41
0.0062
77
0
78
1
53
45
43
0
44
0
45
-0.0139193969876572
46
0.0139193969876572
79
0
47
0
98
1
10
0
20
0
0
DIMENSION
5
1BE
100
AcDbEntity
8
SK2
62
256
6
ByLayer
370
18
48
1
60
0
100
AcDbDimension
2
_U0
10
592.123181
20
10
30
0
11
592.123181
21
24.833333
31
0
70
32
71
1
72
1
41
1
210
0
220
0
230
1
3
Standard
100
AcDbAlignedDimension
13
568
23
0
33
0
14
568
24
10
34
0
50
90
100
AcDbRotatedDimension
1001
ACAD
1000
DSTYLE
1002
{
1070
   371
1070
    13
1070
   372
1070
    13
1070
   170
1070
     0
1070
   144
1040
1.0
1070
   277
1070
     2
1070
   284
1070
     8
1070
   278
1070
    46
1070
   146
1040
1.0
1070
   345
1005
16
1070
   347
1005
16
1070
   346
1005
16
1070
   344
1005
0
1070
   343
1005
0
1070
   172
1070
     1
1070
    76
1070
     0
1070
    75
1070
     0
1070
   282
1070
     0
1070
   281
1070
     0
1070
    71
1070
     0
1070
    74
1070
     0
1070
   279
1070
     0
1070
   173
1070
     1
1070
   340
1005
1A6
1070
   271
1070
     3
1070
   272
1070
     2
1070
    77
1070
     1
1070
    73
1070
     0
1070
   171
1070
     3
1070
   274
1070
     4
1070
   177
1070
     2
1070
   176
1070
     2
1070
   178
1070
     2
1070
    78
1070
     8
1070
    48
1040
-0.1
1070
    41
1040
3.5
1070
   147
1040
1.75
1070
    42
1040
1.5875
1070
    44
1040
2.0
1070
   140
1040
3.5
1002
}
1001
ACAD_DSTYLE_DIM_LINETYPE
1070
   380
1005
16
1001
ACAD_DSTYLE_DIM_EXT1_LINETYPE
1070
   381
1005
16
1001
ACAD_DSTYLE_DIM_EXT2_LINETYPE
1070
   382
1005
16
0
DIMENSION
5
1D9
100
AcDbEntity
8
SK2
62
256
6
ByLayer
370
18
48
1
60
0
100
AcDbDimension
2
_U1
10
180
20
-43.75
30
0
11
374
21
-43.75
31
0
70
32
71
1
72
1
41
1
210
0
220
0
230
1
3
Standard
100
AcDbAlignedDimension
13
568
23
30
33
0
14
180
24
-30
34
0
50
0
100
AcDbRotatedDimension
1001
ACAD
1000
DSTYLE
1002
{
1070
   371
1070
    13
1070
   372
1070
    13
1070
   170
1070
     0
1070
   144
1040
1.0
1070
   277
1070
     2
1070
   284
1070
     8
1070
   278
1070
    46
1070
   146
1040
1.0
1070
   345
1005
16
1070
   347
1005
16
1070
   346
1005
16
1070
   344
1005
0
1070
   343
1005
0
1070
   172
1070
     1
1070
    76
1070
     0
1070
    75
1070
     0
1070
   282
1070
     0
1070
   281
1070
     0
1070
    71
1070
     0
1070
    74
1070
     0
1070
   279
1070
     0
1070
   173
1070
     1
1070
   340
1005
1A6
1070
   271
1070
     0
1070
   272
1070
     2
1070
    77
1070
     1
1070
    73
1070
     1
1070
   171
1070
     3
1070
   274
1070
     4
1070
   177
1070
     2
1070
   176
1070
     2
1070
   178
1070
     2
1070
    78
1070
     8
1070
    48
1040
-0.1
1070
    41
1040
3.5
1070
   147
1040
1.75
1070
    42
1040
1.5875
1070
    44
1040
2.0
1070
   140
1040
3.5
1002
}
1001
ACAD_DSTYLE_DIM_LINETYPE
1070
   380
1005
16
1001
ACAD_DSTYLE_DIM_EXT1_LINETYPE
1070
   381
1005
16
1001
ACAD_DSTYLE_DIM_EXT2_LINETYPE
1070
   382
1005
16
0
DIMENSION
5
1F2
100
AcDbEntity
8
SK2
62
256
6
ByLayer
370
18
48
1
60
0
100
AcDbDimension
2
_U2
10
0
20
-53.75
30
0
11
284
21
-53.75
31
0
70
32
71
1
72
1
41
1
210
0
220
0
230
1
3
Standard
100
AcDbAlignedDimension
13
568
23
30
33
0
14
0
24
-30
34
0
50
0
100
AcDbRotatedDimension
1001
ACAD
1000
DSTYLE
1002
{
1070
   371
1070
    13
1070
   372
1070
    13
1070
   170
1070
     0
1070
   144
1040
1.0
1070
   277
1070
     2
1070
   284
1070
     8
1070
   278
1070
    46
1070
   146
1040
1.0
1070
   345
1005
16
1070
   347
1005
16
1070
   346
1005
16
1070
   344
1005
0
1070
   343
1005
0
1070
   172
1070
     1
1070
    76
1070
     0
1070
    75
1070
     0
1070
   282
1070
     0
1070
   281
1070
     0
1070
    71
1070
     0
1070
    74
1070
     0
1070
   279
1070
     0
1070
   173
1070
     1
1070
   340
1005
1A6
1070
   271
1070
     2
1070
   272
1070
     2
1070
    77
1070
     1
1070
    73
1070
     1
1070
   171
1070
     3
1070
   274
1070
     4
1070
   177
1070
     2
1070
   176
1070
     2
1070
   178
1070
     2
1070
    78
1070
     8
1070
    48
1040
-0.1
1070
    41
1040
3.5
1070
   147
1040
1.75
1070
    42
1040
1.5875
1070
    44
1040
2.0
1070
   140
1040
3.5
1002
}
1001
ACAD_DSTYLE_DIM_LINETYPE
1070
   380
1005
16
1001
ACAD_DSTYLE_DIM_EXT1_LINETYPE
1070
   381
1005
16
1001
ACAD_DSTYLE_DIM_EXT2_LINETYPE
1070
   382
1005
16
0
DIMENSION
5
20B
100
AcDbEntity
8
SK2
62
256
6
ByLayer
370
18
48
1
60
0
100
AcDbDimension
2
_U3
10
568
20
40.25
30
0
11
164
21
40.25
31
0
70
32
71
1
72
1
41
1
210
0
220
0
230
1
3
Standard
100
AcDbAlignedDimension
13
-240
23
-13.3
33
0
14
568
24
-13.3
34
0
50
0
100
AcDbRotatedDimension
1001
ACAD
1000
DSTYLE
1002
{
1070
   371
1070
    13
1070
   372
1070
    13
1070
   170
1070
     0
1070
   144
1040
1.0
1070
   277
1070
     2
1070
   284
1070
     8
1070
   278
1070
    46
1070
   146
1040
1.0
1070
   345
1005
16
1070
   347
1005
16
1070
   346
1005
16
1070
   344
1005
0
1070
   343
1005
0
1070
   172
1070
     1
1070
    76
1070
     0
1070
    75
1070
     0
1070
   282
1070
     0
1070
   281
1070
     0
1070
    71
1070
     0
1070
    74
1070
     0
1070
   279
1070
     0
1070
   173
1070
     1
1070
   340
1005
1A6
1070
   271
1070
     2
1070
   272
1070
     2
1070
    77
1070
     1
1070
    73
1070
     1
1070
   171
1070
     3
1070
   274
1070
     4
1070
   177
1070
     2
1070
   176
1070
     2
1070
   178
1070
     2
1070
    78
1070
     8
1070
    48
1040
-0.1
1070
    41
1040
3.5
1070
   147
1040
1.75
1070
    42
1040
1.5875
1070
    44
1040
2.0
1070
   140
1040
3.5
1002
}
1001
ACAD_DSTYLE_DIM_LINETYPE
1070
   380
1005
16
1001
ACAD_DSTYLE_DIM_EXT1_LINETYPE
1070
   381
1005
16
1001
ACAD_DSTYLE_DIM_EXT2_LINETYPE
1070
   382
1005
16
0
ENDSEC
0
SECTION
2
OBJECTS
0
DICTIONARY
5
293
330
0
100
AcDbDictionary
280
0
281
1
3
ACAD_GROUP
350
294
3
ACAD_MLINESTYLE
350
295
0
DICTIONARY
5
294
330
0
100
AcDbDictionary
280
0
281
1
0
DICTIONARY
5
295
330
0
100
AcDbDictionary
280
0
281
1
3
Standard
350
18
0
MLINESTYLE
5
18
330
295
100
AcDbMlineStyle
2
Standard
70
0
3

62
256
51
90
52
90
71
2
49
-0.5
62
256
6
ByLayer
49
0.5
62
256
6
ByLayer
0
RASTERVARIABLES
5
281
330

100
AcDbRasterVariables
90
0
70
1
71
1
72
1
0
ENDSEC
0
EOF
