0
SECTION
2
HEADER
9
$ACADVER
1
AC1015
9
$DWGCODEPAGE
3
ANSI_1252
9
$HANDSEED
5
252
9
$ANGBASE
50
0
9
$ANGDIR
70
0
9
$ATTMODE
70
1
9
$AUNITS
70
0
9
$AUPREC
70
0
9
$CECOLOR
62
256
9
$CELTSCALE
40
1
9
$CELTYPE
6
ByLayer
9
$CELWEIGHT
370
18
9
$CLAYER
8
0
9
$CMLJUST
70
0
9
$CMLSCALE
40
1
9
$CMLSTYLE
2
Standard
9
$DIMSTYLE
2
Standard
9
$TEXTSIZE
40
0.2
9
$TEXTSTYLE
7
Standard
9
$LUNITS
70
2
9
$LUPREC
70
4
9
$EXTNAMES
290
1
9
$INSUNITS
70
4
9
$LTSCALE
40
1
9
$LWDISPLAY
290
1
9
$PDMODE
70
0
9
$PDSIZE
40
0
9
$PLINEGEN
70
0
0
ENDSEC
0
SECTION
2
CLASSES
0
CLASS
1
RASTERVARIABLES
2
AcDbRasterVariables
3
ISM
90
0
280
0
281
0
0
ENDSEC
0
SECTION
2
TABLES
0
TABLE
2
VPORT
5
248
100
AcDbSymbolTable
0
VPORT
5
1
100
AcDbSymbolTableRecord
100
AcDbViewportTableRecord
2
*Active
70
0
10
0
20
0
11
1
21
1
12
-1
22
1
13
0
23
0
14
0.5
24
0.5
15
10
25
10
16
0
26
0
36
1
17
0
27
0
37
0
0
ENDTAB
0
TABLE
2
LTYPE
5
249
100
AcDbSymbolTable
0
LTYPE
5
14
100
AcDbSymbolTableRecord
100
AcDbLinetypeTableRecord
70
0
2
ByBlock
3

72
65
73
0
40
0
0
LTYPE
5
15
100
AcDbSymbolTableRecord
100
AcDbLinetypeTableRecord
70
0
2
ByLayer
3

72
65
73
0
40
0
0
LTYPE
5
16
100
AcDbSymbolTableRecord
100
AcDbLinetypeTableRecord
70
0
2
Continuous
3
Solid line
72
65
73
0
40
0
0
LTYPE
5
6E
100
AcDbSymbolTableRecord
100
AcDbLinetypeTableRecord
70
0
2
CENTER
3
____ _ ____ _ ____ _ ____
72
65
73
4
40
47.5
49
22
74
0
49
-8.5
74
0
49
8.5
74
0
49
-8.5
74
0
0
LTYPE
5
6F
100
AcDbSymbolTableRecord
100
AcDbLinetypeTableRecord
70
0
2
DASHED
3
__ __ __ __ __ __ __ __ __
72
65
73
2
40
25.72
49
12.86
74
0
49
-12.86
74
0
0
ENDTAB
0
TABLE
2
LAYER
5
24a
100
AcDbSymbolTable
0
LAYER
5
10
100
AcDbSymbolTableRecord
100
AcDbLayerTableRecord
2
0
70
0
62
7
6
Continuous
290
1
370
-3
390
0
0
LAYER
5
71
100
AcDbSymbolTableRecord
100
AcDbLayerTableRecord
2
1
70
0
62
4
6
Continuous
290
1
370
-3
390
0
0
LAYER
5
73
100
AcDbSymbolTableRecord
100
AcDbLayerTableRecord
2
81
70
0
62
-3
6
Continuous
290
1
370
-3
390
0
0
LAYER
5
75
100
AcDbSymbolTableRecord
100
AcDbLayerTableRecord
2
80
70
0
62
-6
6
Continuous
290
1
370
-3
390
0
0
LAYER
5
12B
100
AcDbSymbolTableRecord
100
AcDbLayerTableRecord
2
Defpoints
70
0
62
7
6
Continuous
290
0
370
-3
390
0
0
LAYER
5
139
100
AcDbSymbolTableRecord
100
AcDbLayerTableRecord
2
2
70
0
62
7
6
Continuous
290
1
370
-3
390
0
0
LAYER
5
235
100
AcDbSymbolTableRecord
100
AcDbLayerTableRecord
2
SK1
70
0
62
4
6
Continuous
290
1
370
-3
390
0
0
LAYER
5
236
100
AcDbSymbolTableRecord
100
AcDbLayerTableRecord
2
SK6
70
0
62
5
6
Continuous
290
1
370
-3
390
0
0
LAYER
5
237
100
AcDbSymbolTableRecord
100
AcDbLayerTableRecord
2
SK2
70
0
62
7
6
Continuous
290
1
370
-3
390
0
0
ENDTAB
0
TABLE
2
STYLE
5
24b
100
AcDbSymbolTable
0
STYLE
5
11
100
AcDbSymbolTableRecord
100
AcDbTextStyleTableRecord
2
Standard
3
txt
70
0
71
0
40
0
41
1
42
0
50
0
0
STYLE
5
124
100
AcDbSymbolTableRecord
100
AcDbTextStyleTableRecord
2
iso_b_vert
3
simplex.shx
70
0
71
0
40
0
41
1
42
0
50
0
0
STYLE
5
125
100
AcDbSymbolTableRecord
100
AcDbTextStyleTableRecord
2
DWGDirectTextStyle
3
simplex
70
0
71
0
40
0
41
1
42
0
50
0
0
ENDTAB
0
TABLE
2
DIMSTYLE
5
24c
100
AcDbSymbolTable
100
AcDbDimStyleTable
0
DIMSTYLE
105
27
100
AcDbSymbolTableRecord
100
AcDbDimStyleTableRecord
2
Standard
70
0
3
<>
41
0.18
42
0.0625
44
0.18
140
0.18
147
0.09
73
0
74
0
77
1
271
2
275
0
278
52
280
0
340
11
0
ENDTAB
0
TABLE
2
VIEW
5
24d
100
AcDbSymbolTable
0
ENDTAB
0
TABLE
2
UCS
5
24e
100
AcDbSymbolTable
0
ENDTAB
0
TABLE
2
APPID
5
24f
100
AcDbSymbolTable
0
APPID
5
12
100
AcDbSymbolTableRecord
100
AcDbRegAppTableRecord
2
ACAD
70
0
0
APPID
5
127
100
AcDbSymbolTableRecord
100
AcDbRegAppTableRecord
2
ACAD_DSTYLE_DIMBREAK
70
0
0
APPID
5
1F4
100
AcDbSymbolTableRecord
100
AcDbRegAppTableRecord
2
ACAD_DSTYLE_DIM_LINETYPE
70
0
0
APPID
5
1F5
100
AcDbSymbolTableRecord
100
AcDbRegAppTableRecord
2
ACAD_DSTYLE_DIM_EXT1_LINETYPE
70
0
0
APPID
5
1F6
100
AcDbSymbolTableRecord
100
AcDbRegAppTableRecord
2
ACAD_DSTYLE_DIM_EXT2_LINETYPE
70
0
0
APPID
5
231
100
AcDbSymbolTableRecord
100
AcDbRegAppTableRecord
2
ACAD_MLEADERVER
70
0
0
ENDTAB
0
TABLE
2
BLOCK_RECORD
5
250
100
AcDbSymbolTable
0
BLOCK_RECORD
5
1F
100
AcDbSymbolTableRecord
100
AcDbBlockTableRecord
2
*Model_Space
340
0
70
0
0
BLOCK_RECORD
5
1B
100
AcDbSymbolTableRecord
100
AcDbBlockTableRecord
2
*Paper_Space
340
0
70
0
0
BLOCK_RECORD
5
23
100
AcDbSymbolTableRecord
100
AcDbBlockTableRecord
2
*Paper_Space0
340
0
70
0
0
BLOCK_RECORD
5
12C
100
AcDbSymbolTableRecord
100
AcDbBlockTableRecord
2
*D1
340
0
70
0
0
BLOCK_RECORD
5
13A
100
AcDbSymbolTableRecord
100
AcDbBlockTableRecord
2
_U0
340
0
70
0
0
BLOCK_RECORD
5
146
100
AcDbSymbolTableRecord
100
AcDbBlockTableRecord
2
*D3
340
0
70
0
0
BLOCK_RECORD
5
153
100
AcDbSymbolTableRecord
100
AcDbBlockTableRecord
2
_U1
340
0
70
0
0
BLOCK_RECORD
5
15F
100
AcDbSymbolTableRecord
100
AcDbBlockTableRecord
2
*D5
340
0
70
0
0
BLOCK_RECORD
5
16C
100
AcDbSymbolTableRecord
100
AcDbBlockTableRecord
2
_U2
340
0
70
0
0
BLOCK_RECORD
5
178
100
AcDbSymbolTableRecord
100
AcDbBlockTableRecord
2
*D7
340
0
70
0
0
BLOCK_RECORD
5
184
100
AcDbSymbolTableRecord
100
AcDbBlockTableRecord
2
_U3
340
0
70
0
0
BLOCK_RECORD
5
190
100
AcDbSymbolTableRecord
100
AcDbBlockTableRecord
2
*D9
340
0
70
0
0
BLOCK_RECORD
5
19C
100
AcDbSymbolTableRecord
100
AcDbBlockTableRecord
2
_U4
340
0
70
0
0
BLOCK_RECORD
5
1A8
100
AcDbSymbolTableRecord
100
AcDbBlockTableRecord
2
*D11
340
0
70
0
0
BLOCK_RECORD
5
1B4
100
AcDbSymbolTableRecord
100
AcDbBlockTableRecord
2
_U5
340
0
70
0
0
BLOCK_RECORD
5
1C0
100
AcDbSymbolTableRecord
100
AcDbBlockTableRecord
2
*D13
340
0
70
0
0
BLOCK_RECORD
5
1CD
100
AcDbSymbolTableRecord
100
AcDbBlockTableRecord
2
_U6
340
0
70
0
0
ENDTAB
0
ENDSEC
0
SECTION
2
BLOCKS
0
BLOCK
5
20
100
AcDbEntity
8
0
100
AcDbBlockBegin
2
*Model_Space
70
0
10
0
20
0
30
0
3
*Model_Space
0
ENDBLK
5
21
100
AcDbEntity
8
0
100
AcDbBlockEnd
0
BLOCK
5
1C
100
AcDbEntity
8
0
100
AcDbBlockBegin
2
*Paper_Space
70
0
10
0
20
0
30
0
3
*Paper_Space
0
ENDBLK
5
1D
100
AcDbEntity
8
0
100
AcDbBlockEnd
0
BLOCK
5
24
100
AcDbEntity
8
0
100
AcDbBlockBegin
2
*Paper_Space0
70
0
10
0
20
0
30
0
3
*Paper_Space0
0
ENDBLK
5
25
100
AcDbEntity
8
0
100
AcDbBlockEnd
0
BLOCK
5
12D
100
AcDbEntity
8
0
100
AcDbBlockBegin
2
*D1
70
1
10
0
20
0
30
0
3
*D1
0
LINE
5
12F
100
AcDbEntity
8
0
62
256
6
ByLayer
370
-2
48
1
60
0
100
AcDbLine
10
49.095468
20
3.0375
30
0
11
82.607968
21
3.0375
31
0
39
0
210
0
220
0
230
1
0
LINE
5
130
100
AcDbEntity
8
0
62
256
6
ByLayer
370
-2
48
1
60
0
100
AcDbLine
10
1.5875
20
-12.4625
30
0
11
82.607968
21
-12.4625
31
0
39
0
210
0
220
0
230
1
0
LINE
5
131
100
AcDbEntity
8
0
62
256
6
ByLayer
370
-2
48
1
60
0
100
AcDbLine
10
80.607968
20
6.5375
30
0
11
80.607968
21
10.0375
31
0
39
0
210
0
220
0
230
1
0
LINE
5
132
100
AcDbEntity
8
0
62
256
6
ByLayer
370
-2
48
1
60
0
100
AcDbLine
10
80.607968
20
-15.9625
30
0
11
80.607968
21
-19.4625
31
0
39
0
210
0
220
0
230
1
0
SOLID
5
133
100
AcDbEntity
8
0
62
256
6
ByLayer
370
-1
48
1
60
0
100
AcDbTrace
10
80.024634
20
6.5375
30
0
11
81.191301
21
6.5375
31
0
12
80.607968
22
3.0375
32
0
13
80.607968
23
3.0375
33
0
39
0
210
0
220
0
230
1
0
SOLID
5
134
100
AcDbEntity
8
0
62
256
6
ByLayer
370
-1
48
1
60
0
100
AcDbTrace
10
81.191301
20
-15.9625
30
0
11
80.024634
21
-15.9625
31
0
12
80.607968
22
-12.4625
32
0
13
80.607968
23
-12.4625
33
0
39
0
210
0
220
0
230
1
0
MTEXT
5
135
100
AcDbEntity
8
0
62
256
6
ByLayer
370
18
48
1
60
0
100
AcDbMText
10
73.607968
20
-4.7125
30
0
210
0
220
0
230
1
1
\A1;15.5
40
3.5
41
0
44
1
50
90
71
5
72
5
7
iso_b_vert
0
POINT
5
136
100
AcDbEntity
8
Defpoints
62
0
6
ByLayer
370
-1
48
1
60
0
100
AcDbPoint
10
47.507968
20
3.0375
30
0
39
0
210
0
220
0
230
1
50
360
0
POINT
5
137
100
AcDbEntity
8
Defpoints
62
0
6
ByLayer
370
-1
48
1
60
0
100
AcDbPoint
10
0
20
-12.4625
30
0
39
0
210
0
220
0
230
1
50
360
0
POINT
5
138
100
AcDbEntity
8
Defpoints
62
0
6
ByLayer
370
-1
48
1
60
0
100
AcDbPoint
10
80.607968
20
-12.4625
30
0
39
0
210
0
220
0
230
1
50
360
0
ENDBLK
5
12E
100
AcDbEntity
8
0
100
AcDbBlockEnd
0
BLOCK
5
141
100
AcDbEntity
8
0
100
AcDbBlockBegin
2
_U0
70
0
10
0
20
0
30
0
3
_U0
0
MTEXT
5
13B
100
AcDbEntity
8
2
62
256
6
ByLayer
370
18
48
1
60
0
100
AcDbMText
10
79.918334
20
-8.224766
30
0
210
0
220
0
230
1
1
\W0.6563;15.5
40
3.5
41
0
44
1.084337
50
90
71
7
72
5
7
iso_b_vert
0
LINE
5
13C
100
AcDbEntity
8
2
62
256
6
ByLayer
370
13
48
1
60
0
100
AcDbLine
10
49.095468
20
3.0375
30
0
11
82.607968
21
3.0375
31
0
39
0
210
0
220
0
230
1
0
LINE
5
13D
100
AcDbEntity
8
2
62
256
6
ByLayer
370
13
48
1
60
0
100
AcDbLine
10
1.5875
20
-12.4625
30
0
11
82.607968
21
-12.4625
31
0
39
0
210
0
220
0
230
1
0
LINE
5
13E
100
AcDbEntity
8
2
62
256
6
ByLayer
370
13
48
1
60
0
100
AcDbLine
10
80.607968
20
3.0375
30
0
11
80.607968
21
-12.4625
31
0
39
0
210
0
220
0
230
1
0
SOLID
5
13F
100
AcDbEntity
8
2
62
256
6
ByLayer
370
18
48
1
60
0
100
AcDbTrace
10
80.607968
20
3.0375
30
0
11
81.068751
21
-0.462498
31
0
12
80.147184
22
-0.462502
32
0
13
80.147184
23
-0.462502
33
0
39
0
210
0
220
0
230
1
0
SOLID
5
140
100
AcDbEntity
8
2
62
256
6
ByLayer
370
18
48
1
60
0
100
AcDbTrace
10
80.607968
20
-12.4625
30
0
11
80.147184
21
-8.962502
31
0
12
81.068751
22
-8.962498
32
0
13
81.068751
23
-8.962498
33
0
39
0
210
0
220
0
230
1
0
ENDBLK
5
142
100
AcDbEntity
8
0
100
AcDbBlockEnd
0
BLOCK
5
147
100
AcDbEntity
8
0
100
AcDbBlockBegin
2
*D3
70
1
10
0
20
0
30
0
3
*D3
0
LINE
5
149
100
AcDbEntity
8
0
62
256
6
ByLayer
370
-2
48
1
60
0
100
AcDbLine
10
49.095468
20
-2.9625
30
0
11
70.607968
21
-2.9625
31
0
39
0
210
0
220
0
230
1
0
LINE
5
14A
100
AcDbEntity
8
0
62
256
6
ByLayer
370
-2
48
1
60
0
100
AcDbLine
10
49.095468
20
3.0375
30
0
11
70.607968
21
3.0375
31
0
39
0
210
0
220
0
230
1
0
LINE
5
14B
100
AcDbEntity
8
0
62
256
6
ByLayer
370
-2
48
1
60
0
100
AcDbLine
10
68.607968
20
-6.4625
30
0
11
68.607968
21
-9.9625
31
0
39
0
210
0
220
0
230
1
0
LINE
5
14C
100
AcDbEntity
8
0
62
256
6
ByLayer
370
-2
48
1
60
0
100
AcDbLine
10
68.607968
20
6.5375
30
0
11
68.607968
21
10.0375
31
0
39
0
210
0
220
0
230
1
0
SOLID
5
14D
100
AcDbEntity
8
0
62
256
6
ByLayer
370
-1
48
1
60
0
100
AcDbTrace
10
69.191301
20
-6.4625
30
0
11
68.024634
21
-6.4625
31
0
12
68.607968
22
-2.9625
32
0
13
68.607968
23
-2.9625
33
0
39
0
210
0
220
0
230
1
0
SOLID
5
14E
100
AcDbEntity
8
0
62
256
6
ByLayer
370
-1
48
1
60
0
100
AcDbTrace
10
68.024634
20
6.5375
30
0
11
69.191301
21
6.5375
31
0
12
68.607968
22
3.0375
32
0
13
68.607968
23
3.0375
33
0
39
0
210
0
220
0
230
1
0
MTEXT
5
14F
100
AcDbEntity
8
0
62
256
6
ByLayer
370
18
48
1
60
0
100
AcDbMText
10
61.607968
20
0.0375
30
0
210
0
220
0
230
1
1
\A1;6
40
3.5
41
0
44
1
50
90
71
5
72
5
7
iso_b_vert
0
POINT
5
150
100
AcDbEntity
8
Defpoints
62
0
6
ByLayer
370
-1
48
1
60
0
100
AcDbPoint
10
47.507968
20
-2.9625
30
0
39
0
210
0
220
0
230
1
50
360
0
POINT
5
151
100
AcDbEntity
8
Defpoints
62
0
6
ByLayer
370
-1
48
1
60
0
100
AcDbPoint
10
47.507968
20
3.0375
30
0
39
0
210
0
220
0
230
1
50
360
0
POINT
5
152
100
AcDbEntity
8
Defpoints
62
0
6
ByLayer
370
-1
48
1
60
0
100
AcDbPoint
10
68.607968
20
3.0375
30
0
39
0
210
0
220
0
230
1
50
360
0
ENDBLK
5
148
100
AcDbEntity
8
0
100
AcDbBlockEnd
0
BLOCK
5
15A
100
AcDbEntity
8
0
100
AcDbBlockBegin
2
_U1
70
0
10
0
20
0
30
0
3
_U1
0
MTEXT
5
154
100
AcDbEntity
8
2
62
256
6
ByLayer
370
18
48
1
60
0
100
AcDbMText
10
67.918334
20
-0.587733
30
0
210
0
220
0
230
1
1
\W0.5404;6
40
3.5
41
0
44
1.084337
50
90
71
7
72
5
7
iso_b_vert
0
LINE
5
155
100
AcDbEntity
8
2
62
256
6
ByLayer
370
13
48
1
60
0
100
AcDbLine
10
49.095468
20
-2.9625
30
0
11
70.607968
21
-2.9625
31
0
39
0
210
0
220
0
230
1
0
LINE
5
156
100
AcDbEntity
8
2
62
256
6
ByLayer
370
13
48
1
60
0
100
AcDbLine
10
49.095468
20
3.0375
30
0
11
70.607968
21
3.0375
31
0
39
0
210
0
220
0
230
1
0
LINE
5
157
100
AcDbEntity
8
2
62
256
6
ByLayer
370
13
48
1
60
0
100
AcDbLine
10
68.607968
20
-11.7125
30
0
11
68.607968
21
11.7875
31
0
39
0
210
0
220
0
230
1
0
SOLID
5
158
100
AcDbEntity
8
2
62
256
6
ByLayer
370
18
48
1
60
0
100
AcDbTrace
10
68.607968
20
-2.9625
30
0
11
69.068751
21
-6.462498
31
0
12
68.147184
22
-6.462502
32
0
13
68.147184
23
-6.462502
33
0
39
0
210
0
220
0
230
1
0
SOLID
5
159
100
AcDbEntity
8
2
62
256
6
ByLayer
370
18
48
1
60
0
100
AcDbTrace
10
68.607968
20
3.0375
30
0
11
68.147184
21
6.537498
31
0
12
69.068751
22
6.537502
32
0
13
69.068751
23
6.537502
33
0
39
0
210
0
220
0
230
1
0
ENDBLK
5
15B
100
AcDbEntity
8
0
100
AcDbBlockEnd
0
BLOCK
5
160
100
AcDbEntity
8
0
100
AcDbBlockBegin
2
*D5
70
1
10
0
20
0
30
0
3
*D5
0
LINE
5
162
100
AcDbEntity
8
0
62
256
6
ByLayer
370
-2
48
1
60
0
100
AcDbLine
10
-1.5875
20
-12.4625
30
0
11
-97.6
21
-12.4625
31
0
39
0
210
0
220
0
230
1
0
LINE
5
163
100
AcDbEntity
8
0
62
256
6
ByLayer
370
-2
48
1
60
0
100
AcDbLine
10
-1.5875
20
12.5375
30
0
11
-97.6
21
12.5375
31
0
39
0
210
0
220
0
230
1
0
LINE
5
164
100
AcDbEntity
8
0
62
256
6
ByLayer
370
-2
48
1
60
0
100
AcDbLine
10
-95.6
20
-8.9625
30
0
11
-95.6
21
9.0375
31
0
39
0
210
0
220
0
230
1
0
SOLID
5
165
100
AcDbEntity
8
0
62
256
6
ByLayer
370
-1
48
1
60
0
100
AcDbTrace
10
-96.183333
20
-8.9625
30
0
11
-95.016667
21
-8.9625
31
0
12
-95.6
22
-12.4625
32
0
13
-95.6
23
-12.4625
33
0
39
0
210
0
220
0
230
1
0
SOLID
5
166
100
AcDbEntity
8
0
62
256
6
ByLayer
370
-1
48
1
60
0
100
AcDbTrace
10
-95.016667
20
9.0375
30
0
11
-96.183333
21
9.0375
31
0
12
-95.6
22
12.5375
32
0
13
-95.6
23
12.5375
33
0
39
0
210
0
220
0
230
1
0
MTEXT
5
167
100
AcDbEntity
8
0
62
256
6
ByLayer
370
18
48
1
60
0
100
AcDbMText
10
-102.6
20
0.0375
30
0
210
0
220
0
230
1
1
\A1;25
40
3.5
41
0
44
1
50
90
71
5
72
5
7
iso_b_vert
0
POINT
5
168
100
AcDbEntity
8
Defpoints
62
0
6
ByLayer
370
-1
48
1
60
0
100
AcDbPoint
10
0
20
-12.4625
30
0
39
0
210
0
220
0
230
1
50
360
0
POINT
5
169
100
AcDbEntity
8
Defpoints
62
0
6
ByLayer
370
-1
48
1
60
0
100
AcDbPoint
10
0
20
12.5375
30
0
39
0
210
0
220
0
230
1
50
360
0
POINT
5
16A
100
AcDbEntity
8
Defpoints
62
0
6
ByLayer
370
-1
48
1
60
0
100
AcDbPoint
10
-95.6
20
12.5375
30
0
39
0
210
0
220
0
230
1
50
360
0
ENDBLK
5
161
100
AcDbEntity
8
0
100
AcDbBlockEnd
0
BLOCK
5
173
100
AcDbEntity
8
0
100
AcDbBlockBegin
2
_U2
70
0
10
0
20
0
30
0
3
_U2
0
MTEXT
5
16D
100
AcDbEntity
8
SK2
62
256
6
ByLayer
370
18
48
1
60
0
100
AcDbMText
10
-96.289634
20
-1.895466
30
0
210
0
220
0
230
1
1
\W0.6740;25
40
3.5
41
0
44
1.084337
50
90
71
7
72
5
7
iso_b_vert
0
LINE
5
16E
100
AcDbEntity
8
SK2
62
256
6
ByLayer
370
13
48
1
60
0
100
AcDbLine
10
-1.5875
20
-12.4625
30
0
11
-97.6
21
-12.4625
31
0
39
0
210
0
220
0
230
1
0
LINE
5
16F
100
AcDbEntity
8
SK2
62
256
6
ByLayer
370
13
48
1
60
0
100
AcDbLine
10
-1.5875
20
12.5375
30
0
11
-97.6
21
12.5375
31
0
39
0
210
0
220
0
230
1
0
LINE
5
170
100
AcDbEntity
8
SK2
62
256
6
ByLayer
370
13
48
1
60
0
100
AcDbLine
10
-95.6
20
-12.4625
30
0
11
-95.6
21
12.5375
31
0
39
0
210
0
220
0
230
1
0
SOLID
5
171
100
AcDbEntity
8
SK2
62
256
6
ByLayer
370
18
48
1
60
0
100
AcDbTrace
10
-95.6
20
-12.4625
30
0
11
-96.060784
21
-8.962502
31
0
12
-95.139216
22
-8.962498
32
0
13
-95.139216
23
-8.962498
33
0
39
0
210
0
220
0
230
1
0
SOLID
5
172
100
AcDbEntity
8
SK2
62
256
6
ByLayer
370
18
48
1
60
0
100
AcDbTrace
10
-95.6
20
12.5375
30
0
11
-95.139216
21
9.037502
31
0
12
-96.060784
22
9.037498
32
0
13
-96.060784
23
9.037498
33
0
39
0
210
0
220
0
230
1
0
ENDBLK
5
174
100
AcDbEntity
8
0
100
AcDbBlockEnd
0
BLOCK
5
179
100
AcDbEntity
8
0
100
AcDbBlockBegin
2
*D7
70
1
10
0
20
0
30
0
3
*D7
0
LINE
5
17B
100
AcDbEntity
8
0
62
256
6
ByLayer
370
-2
48
1
60
0
100
AcDbLine
10
21.083148
20
-3.725
30
0
11
21.083148
21
-24.2125
31
0
39
0
210
0
220
0
230
1
0
LINE
5
17C
100
AcDbEntity
8
0
62
256
6
ByLayer
370
-2
48
1
60
0
100
AcDbLine
10
47.507968
20
1.45
30
0
11
47.507968
21
-24.2125
31
0
39
0
210
0
220
0
230
1
0
LINE
5
17D
100
AcDbEntity
8
0
62
256
6
ByLayer
370
-2
48
1
60
0
100
AcDbLine
10
24.583148
20
-22.2125
30
0
11
44.007968
21
-22.2125
31
0
39
0
210
0
220
0
230
1
0
SOLID
5
17E
100
AcDbEntity
8
0
62
256
6
ByLayer
370
-1
48
1
60
0
100
AcDbTrace
10
24.583148
20
-21.629167
30
0
11
24.583148
21
-22.795833
31
0
12
21.083148
22
-22.2125
32
0
13
21.083148
23
-22.2125
33
0
39
0
210
0
220
0
230
1
0
SOLID
5
17F
100
AcDbEntity
8
0
62
256
6
ByLayer
370
-1
48
1
60
0
100
AcDbTrace
10
44.007968
20
-22.795833
30
0
11
44.007968
21
-21.629167
31
0
12
47.507968
22
-22.2125
32
0
13
47.507968
23
-22.2125
33
0
39
0
210
0
220
0
230
1
0
MTEXT
5
180
100
AcDbEntity
8
0
62
256
6
ByLayer
370
18
48
1
60
0
100
AcDbMText
10
34.295558
20
-15.2125
30
0
210
0
220
0
230
1
1
\A1;26.4
40
3.5
41
0
44
1
50
0
71
5
72
5
7
iso_b_vert
0
POINT
5
181
100
AcDbEntity
8
Defpoints
62
0
6
ByLayer
370
-1
48
1
60
0
100
AcDbPoint
10
21.083148
20
-2.1375
30
0
39
0
210
0
220
0
230
1
50
360
0
POINT
5
182
100
AcDbEntity
8
Defpoints
62
0
6
ByLayer
370
-1
48
1
60
0
100
AcDbPoint
10
47.507968
20
3.0375
30
0
39
0
210
0
220
0
230
1
50
360
0
POINT
5
183
100
AcDbEntity
8
Defpoints
62
0
6
ByLayer
370
-1
48
1
60
0
100
AcDbPoint
10
47.507968
20
-22.2125
30
0
39
0
210
0
220
0
230
1
50
360
0
ENDBLK
5
17A
100
AcDbEntity
8
0
100
AcDbBlockEnd
0
BLOCK
5
18B
100
AcDbEntity
8
0
100
AcDbBlockBegin
2
_U3
70
0
10
0
20
0
30
0
3
_U3
0
MTEXT
5
185
100
AcDbEntity
8
2
62
256
6
ByLayer
370
18
48
1
60
0
100
AcDbMText
10
30.189592
20
-21.179866
30
0
210
0
220
0
230
1
1
\W0.7528;26.4
40
3.5
41
0
44
1.084337
50
0
71
7
72
5
7
iso_b_vert
0
LINE
5
186
100
AcDbEntity
8
2
62
256
6
ByLayer
370
13
48
1
60
0
100
AcDbLine
10
21.083148
20
-3.725
30
0
11
21.083148
21
-24.2125
31
0
39
0
210
0
220
0
230
1
0
LINE
5
187
100
AcDbEntity
8
2
62
256
6
ByLayer
370
13
48
1
60
0
100
AcDbLine
10
47.507968
20
1.45
30
0
11
47.507968
21
-24.2125
31
0
39
0
210
0
220
0
230
1
0
LINE
5
188
100
AcDbEntity
8
2
62
256
6
ByLayer
370
13
48
1
60
0
100
AcDbLine
10
21.083148
20
-22.2125
30
0
11
47.507968
21
-22.2125
31
0
39
0
210
0
220
0
230
1
0
SOLID
5
189
100
AcDbEntity
8
2
62
256
6
ByLayer
370
18
48
1
60
0
100
AcDbTrace
10
21.083148
20
-22.2125
30
0
11
24.583146
21
-21.751716
31
0
12
24.583149
22
-22.673284
32
0
13
24.583149
23
-22.673284
33
0
39
0
210
0
220
0
230
1
0
SOLID
5
18A
100
AcDbEntity
8
2
62
256
6
ByLayer
370
18
48
1
60
0
100
AcDbTrace
10
47.507968
20
-22.2125
30
0
11
44.007969
21
-22.673284
31
0
12
44.007966
22
-21.751716
32
0
13
44.007966
23
-21.751716
33
0
39
0
210
0
220
0
230
1
0
ENDBLK
5
18C
100
AcDbEntity
8
0
100
AcDbBlockEnd
0
BLOCK
5
191
100
AcDbEntity
8
0
100
AcDbBlockBegin
2
*D9
70
1
10
0
20
0
30
0
3
*D9
0
LINE
5
193
100
AcDbEntity
8
0
62
256
6
ByLayer
370
-2
48
1
60
0
100
AcDbLine
10
-84
20
-14.05
30
0
11
-84
21
-35.2125
31
0
39
0
210
0
220
0
230
1
0
LINE
5
194
100
AcDbEntity
8
0
62
256
6
ByLayer
370
-2
48
1
60
0
100
AcDbLine
10
47.507968
20
1.45
30
0
11
47.507968
21
-35.2125
31
0
39
0
210
0
220
0
230
1
0
LINE
5
195
100
AcDbEntity
8
0
62
256
6
ByLayer
370
-2
48
1
60
0
100
AcDbLine
10
-80.5
20
-33.2125
30
0
11
44.007968
21
-33.2125
31
0
39
0
210
0
220
0
230
1
0
SOLID
5
196
100
AcDbEntity
8
0
62
256
6
ByLayer
370
-1
48
1
60
0
100
AcDbTrace
10
-80.5
20
-32.629167
30
0
11
-80.5
21
-33.795833
31
0
12
-84
22
-33.2125
32
0
13
-84
23
-33.2125
33
0
39
0
210
0
220
0
230
1
0
SOLID
5
197
100
AcDbEntity
8
0
62
256
6
ByLayer
370
-1
48
1
60
0
100
AcDbTrace
10
44.007968
20
-33.795833
30
0
11
44.007968
21
-32.629167
31
0
12
47.507968
22
-33.2125
32
0
13
47.507968
23
-33.2125
33
0
39
0
210
0
220
0
230
1
0
MTEXT
5
198
100
AcDbEntity
8
0
62
256
6
ByLayer
370
18
48
1
60
0
100
AcDbMText
10
-18.246016
20
-26.2125
30
0
210
0
220
0
230
1
1
\A1;131.5
40
3.5
41
0
44
1
50
0
71
5
72
5
7
iso_b_vert
0
POINT
5
199
100
AcDbEntity
8
Defpoints
62
0
6
ByLayer
370
-1
48
1
60
0
100
AcDbPoint
10
-84
20
-12.4625
30
0
39
0
210
0
220
0
230
1
50
360
0
POINT
5
19A
100
AcDbEntity
8
Defpoints
62
0
6
ByLayer
370
-1
48
1
60
0
100
AcDbPoint
10
47.507968
20
3.0375
30
0
39
0
210
0
220
0
230
1
50
360
0
POINT
5
19B
100
AcDbEntity
8
Defpoints
62
0
6
ByLayer
370
-1
48
1
60
0
100
AcDbPoint
10
47.507968
20
-33.2125
30
0
39
0
210
0
220
0
230
1
50
360
0
ENDBLK
5
192
100
AcDbEntity
8
0
100
AcDbBlockEnd
0
BLOCK
5
1A3
100
AcDbEntity
8
0
100
AcDbBlockBegin
2
_U4
70
0
10
0
20
0
30
0
3
_U4
0
MTEXT
5
19D
100
AcDbEntity
8
SK2
62
256
6
ByLayer
370
18
48
1
60
0
100
AcDbMText
10
-22.600582
20
-32.179866
30
0
210
0
220
0
230
1
1
\W0.6261;131.5
40
3.5
41
0
44
1.084337
50
0
71
7
72
5
7
iso_b_vert
0
LINE
5
19E
100
AcDbEntity
8
SK2
62
256
6
ByLayer
370
13
48
1
60
0
100
AcDbLine
10
-84
20
-14.05
30
0
11
-84
21
-35.2125
31
0
39
0
210
0
220
0
230
1
0
LINE
5
19F
100
AcDbEntity
8
SK2
62
256
6
ByLayer
370
13
48
1
60
0
100
AcDbLine
10
47.507968
20
1.45
30
0
11
47.507968
21
-35.2125
31
0
39
0
210
0
220
0
230
1
0
LINE
5
1A0
100
AcDbEntity
8
SK2
62
256
6
ByLayer
370
13
48
1
60
0
100
AcDbLine
10
-84
20
-33.2125
30
0
11
47.507968
21
-33.2125
31
0
39
0
210
0
220
0
230
1
0
SOLID
5
1A1
100
AcDbEntity
8
SK2
62
256
6
ByLayer
370
18
48
1
60
0
100
AcDbTrace
10
-84
20
-33.2125
30
0
11
-80.500002
21
-32.751716
31
0
12
-80.499998
22
-33.673284
32
0
13
-80.499998
23
-33.673284
33
0
39
0
210
0
220
0
230
1
0
SOLID
5
1A2
100
AcDbEntity
8
SK2
62
256
6
ByLayer
370
18
48
1
60
0
100
AcDbTrace
10
47.507968
20
-33.2125
30
0
11
44.007969
21
-33.673284
31
0
12
44.007966
22
-32.751716
32
0
13
44.007966
23
-32.751716
33
0
39
0
210
0
220
0
230
1
0
ENDBLK
5
1A4
100
AcDbEntity
8
0
100
AcDbBlockEnd
0
BLOCK
5
1A9
100
AcDbEntity
8
0
100
AcDbBlockBegin
2
*D11
70
1
10
0
20
0
30
0
3
*D11
0
LINE
5
1AB
100
AcDbEntity
8
0
62
256
6
ByLayer
370
-2
48
1
60
0
100
AcDbLine
10
0
20
-14.05
30
0
11
0
21
-32.2125
31
0
39
0
210
0
220
0
230
1
0
LINE
5
1AC
100
AcDbEntity
8
0
62
256
6
ByLayer
370
-2
48
1
60
0
100
AcDbLine
10
47.507968
20
1.45
30
0
11
47.507968
21
-32.2125
31
0
39
0
210
0
220
0
230
1
0
LINE
5
1AD
100
AcDbEntity
8
0
62
256
6
ByLayer
370
-2
48
1
60
0
100
AcDbLine
10
3.5
20
-30.2125
30
0
11
44.007968
21
-30.2125
31
0
39
0
210
0
220
0
230
1
0
SOLID
5
1AE
100
AcDbEntity
8
0
62
256
6
ByLayer
370
-1
48
1
60
0
100
AcDbTrace
10
3.5
20
-29.629167
30
0
11
3.5
21
-30.795833
31
0
12
0
22
-30.2125
32
0
13
0
23
-30.2125
33
0
39
0
210
0
220
0
230
1
0
SOLID
5
1AF
100
AcDbEntity
8
0
62
256
6
ByLayer
370
-1
48
1
60
0
100
AcDbTrace
10
44.007968
20
-30.795833
30
0
11
44.007968
21
-29.629167
31
0
12
47.507968
22
-30.2125
32
0
13
47.507968
23
-30.2125
33
0
39
0
210
0
220
0
230
1
0
MTEXT
5
1B0
100
AcDbEntity
8
0
62
256
6
ByLayer
370
18
48
1
60
0
100
AcDbMText
10
23.753984
20
-23.2125
30
0
210
0
220
0
230
1
1
\A1;47.5
40
3.5
41
0
44
1
50
0
71
5
72
5
7
iso_b_vert
0
POINT
5
1B1
100
AcDbEntity
8
Defpoints
62
0
6
ByLayer
370
-1
48
1
60
0
100
AcDbPoint
10
0
20
-12.4625
30
0
39
0
210
0
220
0
230
1
50
360
0
POINT
5
1B2
100
AcDbEntity
8
Defpoints
62
0
6
ByLayer
370
-1
48
1
60
0
100
AcDbPoint
10
47.507968
20
3.0375
30
0
39
0
210
0
220
0
230
1
50
360
0
POINT
5
1B3
100
AcDbEntity
8
Defpoints
62
0
6
ByLayer
370
-1
48
1
60
0
100
AcDbPoint
10
47.507968
20
-30.2125
30
0
39
0
210
0
220
0
230
1
50
360
0
ENDBLK
5
1AA
100
AcDbEntity
8
0
100
AcDbBlockEnd
0
BLOCK
5
1BB
100
AcDbEntity
8
0
100
AcDbBlockBegin
2
_U5
70
0
10
0
20
0
30
0
3
_U5
0
MTEXT
5
1B5
100
AcDbEntity
8
2
62
256
6
ByLayer
370
18
48
1
60
0
100
AcDbMText
10
19.648018
20
-29.179866
30
0
210
0
220
0
230
1
1
\W0.7640;47.5
40
3.5
41
0
44
1.084337
50
0
71
7
72
5
7
iso_b_vert
0
LINE
5
1B6
100
AcDbEntity
8
2
62
256
6
ByLayer
370
13
48
1
60
0
100
AcDbLine
10
0
20
-14.05
30
0
11
0
21
-32.2125
31
0
39
0
210
0
220
0
230
1
0
LINE
5
1B7
100
AcDbEntity
8
2
62
256
6
ByLayer
370
13
48
1
60
0
100
AcDbLine
10
47.507968
20
1.45
30
0
11
47.507968
21
-32.2125
31
0
39
0
210
0
220
0
230
1
0
LINE
5
1B8
100
AcDbEntity
8
2
62
256
6
ByLayer
370
13
48
1
60
0
100
AcDbLine
10
0
20
-30.2125
30
0
11
47.507968
21
-30.2125
31
0
39
0
210
0
220
0
230
1
0
SOLID
5
1B9
100
AcDbEntity
8
2
62
256
6
ByLayer
370
18
48
1
60
0
100
AcDbTrace
10
0
20
-30.2125
30
0
11
3.499998
21
-29.751716
31
0
12
3.500002
22
-30.673284
32
0
13
3.500002
23
-30.673284
33
0
39
0
210
0
220
0
230
1
0
SOLID
5
1BA
100
AcDbEntity
8
2
62
256
6
ByLayer
370
18
48
1
60
0
100
AcDbTrace
10
47.507968
20
-30.2125
30
0
11
44.007969
21
-30.673284
31
0
12
44.007966
22
-29.751716
32
0
13
44.007966
23
-29.751716
33
0
39
0
210
0
220
0
230
1
0
ENDBLK
5
1BC
100
AcDbEntity
8
0
100
AcDbBlockEnd
0
BLOCK
5
1C1
100
AcDbEntity
8
0
100
AcDbBlockBegin
2
*D13
70
1
10
0
20
0
30
0
3
*D13
0
LINE
5
1C3
100
AcDbEntity
8
0
62
256
6
ByLayer
370
-2
48
1
60
0
100
AcDbLine
10
-84
20
-14.05
30
0
11
-84
21
-24.2125
31
0
39
0
210
0
220
0
230
1
0
LINE
5
1C4
100
AcDbEntity
8
0
62
256
6
ByLayer
370
-2
48
1
60
0
100
AcDbLine
10
-81
20
-14.05
30
0
11
-81
21
-24.2125
31
0
39
0
210
0
220
0
230
1
0
LINE
5
1C5
100
AcDbEntity
8
0
62
256
6
ByLayer
370
-2
48
1
60
0
100
AcDbLine
10
-87.5
20
-22.2125
30
0
11
-91
21
-22.2125
31
0
39
0
210
0
220
0
230
1
0
LINE
5
1C6
100
AcDbEntity
8
0
62
256
6
ByLayer
370
-2
48
1
60
0
100
AcDbLine
10
-77.5
20
-22.2125
30
0
11
-74
21
-22.2125
31
0
39
0
210
0
220
0
230
1
0
SOLID
5
1C7
100
AcDbEntity
8
0
62
256
6
ByLayer
370
-1
48
1
60
0
100
AcDbTrace
10
-87.5
20
-22.795833
30
0
11
-87.5
21
-21.629167
31
0
12
-84
22
-22.2125
32
0
13
-84
23
-22.2125
33
0
39
0
210
0
220
0
230
1
0
SOLID
5
1C8
100
AcDbEntity
8
0
62
256
6
ByLayer
370
-1
48
1
60
0
100
AcDbTrace
10
-77.5
20
-21.629167
30
0
11
-77.5
21
-22.795833
31
0
12
-81
22
-22.2125
32
0
13
-81
23
-22.2125
33
0
39
0
210
0
220
0
230
1
0
MTEXT
5
1C9
100
AcDbEntity
8
0
62
256
6
ByLayer
370
18
48
1
60
0
100
AcDbMText
10
-82.5
20
-15.2125
30
0
210
0
220
0
230
1
1
\A1;3
40
3.5
41
0
44
1
50
0
71
5
72
5
7
iso_b_vert
0
POINT
5
1CA
100
AcDbEntity
8
Defpoints
62
0
6
ByLayer
370
-1
48
1
60
0
100
AcDbPoint
10
-84
20
-12.4625
30
0
39
0
210
0
220
0
230
1
50
360
0
POINT
5
1CB
100
AcDbEntity
8
Defpoints
62
0
6
ByLayer
370
-1
48
1
60
0
100
AcDbPoint
10
-81
20
-12.4625
30
0
39
0
210
0
220
0
230
1
50
360
0
POINT
5
1CC
100
AcDbEntity
8
Defpoints
62
0
6
ByLayer
370
-1
48
1
60
0
100
AcDbPoint
10
-81
20
-22.2125
30
0
39
0
210
0
220
0
230
1
50
360
0
ENDBLK
5
1C2
100
AcDbEntity
8
0
100
AcDbBlockEnd
0
BLOCK
5
1D4
100
AcDbEntity
8
0
100
AcDbBlockBegin
2
_U6
70
0
10
0
20
0
30
0
3
_U6
0
MTEXT
5
1CE
100
AcDbEntity
8
SK2
62
256
6
ByLayer
370
18
48
1
60
0
100
AcDbMText
10
-83.097233
20
-21.179866
30
0
210
0
220
0
230
1
1
\W0.5404;3
40
3.5
41
0
44
1.084337
50
0
71
7
72
5
7
iso_b_vert
0
LINE
5
1CF
100
AcDbEntity
8
SK2
62
256
6
ByLayer
370
13
48
1
60
0
100
AcDbLine
10
-84
20
-14.05
30
0
11
-84
21
-24.2125
31
0
39
0
210
0
220
0
230
1
0
LINE
5
1D0
100
AcDbEntity
8
SK2
62
256
6
ByLayer
370
13
48
1
60
0
100
AcDbLine
10
-81
20
-14.05
30
0
11
-81
21
-24.2125
31
0
39
0
210
0
220
0
230
1
0
LINE
5
1D1
100
AcDbEntity
8
SK2
62
256
6
ByLayer
370
13
48
1
60
0
100
AcDbLine
10
-92.75
20
-22.2125
30
0
11
-72.25
21
-22.2125
31
0
39
0
210
0
220
0
230
1
0
SOLID
5
1D2
100
AcDbEntity
8
SK2
62
256
6
ByLayer
370
18
48
1
60
0
100
AcDbTrace
10
-84
20
-22.2125
30
0
11
-87.499998
21
-22.673284
31
0
12
-87.500002
22
-21.751716
32
0
13
-87.500002
23
-21.751716
33
0
39
0
210
0
220
0
230
1
0
SOLID
5
1D3
100
AcDbEntity
8
SK2
62
256
6
ByLayer
370
18
48
1
60
0
100
AcDbTrace
10
-81
20
-22.2125
30
0
11
-77.500002
21
-21.751716
31
0
12
-77.499998
22
-22.673284
32
0
13
-77.499998
23
-22.673284
33
0
39
0
210
0
220
0
230
1
0
ENDBLK
5
1D5
100
AcDbEntity
8
0
100
AcDbBlockEnd
0
ENDSEC
0
SECTION
2
ENTITIES
0
ARC
5
D0
100
AcDbEntity
8
1
62
256
6
ByLayer
370
18
48
1
60
0
100
AcDbCircle
39
0
10
25.507968
20
10.7125
30
0
40
8.5
210
0
220
0
230
1
100
AcDbArc
50
215
51
270
0
ARC
5
D1
100
AcDbEntity
8
1
62
256
6
ByLayer
370
18
48
1
60
0
100
AcDbCircle
39
0
10
25.507968
20
-10.6375
30
0
40
8.5
210
0
220
0
230
1
100
AcDbArc
50
90
51
145
0
ARC
5
D3
100
AcDbEntity
8
1
62
256
6
ByLayer
370
18
48
1
60
0
100
AcDbCircle
39
0
10
11.933148
20
0
30
0
40
2.1768
210
0
220
0
230
1
100
AcDbArc
50
150
51
210
0
ARC
5
D4
100
AcDbEntity
8
1
62
256
6
ByLayer
370
18
48
1
60
0
100
AcDbCircle
39
0
10
11.933148
20
0
30
0
40
2.1768
210
0
220
0
230
1
100
AcDbArc
50
210
51
270
0
ARC
5
D5
100
AcDbEntity
8
1
62
256
6
ByLayer
370
18
48
1
60
0
100
AcDbCircle
39
0
10
11.933148
20
0
30
0
40
2.1768
210
0
220
0
230
1
100
AcDbArc
50
330
51
30
0
ARC
5
D6
100
AcDbEntity
8
1
62
256
6
ByLayer
370
18
48
1
60
0
100
AcDbCircle
39
0
10
11.933148
20
0
30
0
40
2.1768
210
0
220
0
230
1
100
AcDbArc
50
30
51
90
0
ARC
5
D7
100
AcDbEntity
8
1
62
256
6
ByLayer
370
18
48
1
60
0
100
AcDbCircle
39
0
10
11.933148
20
0
30
0
40
2.1768
210
0
220
0
230
1
100
AcDbArc
50
90
51
150
0
ARC
5
D8
100
AcDbEntity
8
1
62
256
6
ByLayer
370
18
48
1
60
0
100
AcDbCircle
39
0
10
11.933148
20
0
30
0
40
2.1768
210
0
220
0
230
1
100
AcDbArc
50
270
51
330
0
ARC
5
DB
100
AcDbEntity
8
1
62
256
6
ByLayer
370
18
48
1
60
0
100
AcDbCircle
39
0
10
11.933148
20
0
30
0
40
2.8067
210
0
220
0
230
1
100
AcDbArc
50
180
51
240
0
ARC
5
DC
100
AcDbEntity
8
1
62
256
6
ByLayer
370
18
48
1
60
0
100
AcDbCircle
39
0
10
11.933148
20
0
30
0
40
2.8067
210
0
220
0
230
1
100
AcDbArc
50
240
51
300
0
ARC
5
DD
100
AcDbEntity
8
1
62
256
6
ByLayer
370
18
48
1
60
0
100
AcDbCircle
39
0
10
11.933148
20
0
30
0
40
2.8067
210
0
220
0
230
1
100
AcDbArc
50
300
51
360
0
ARC
5
DE
100
AcDbEntity
8
1
62
256
6
ByLayer
370
18
48
1
60
0
100
AcDbCircle
39
0
10
11.933148
20
0
30
0
40
2.8067
210
0
220
0
230
1
100
AcDbArc
50
360
51
60
0
ARC
5
DF
100
AcDbEntity
8
1
62
256
6
ByLayer
370
18
48
1
60
0
100
AcDbCircle
39
0
10
11.933148
20
0
30
0
40
2.8067
210
0
220
0
230
1
100
AcDbArc
50
60
51
120
0
ARC
5
E0
100
AcDbEntity
8
1
62
256
6
ByLayer
370
18
48
1
60
0
100
AcDbCircle
39
0
10
11.933148
20
0
30
0
40
2.8067
210
0
220
0
230
1
100
AcDbArc
50
120
51
180
0
CIRCLE
5
D2
100
AcDbEntity
8
1
62
256
6
ByLayer
370
18
48
1
60
0
100
AcDbCircle
10
11.933148
20
0
30
0
40
5.75
39
0
210
0
220
0
230
1
0
CIRCLE
5
D9
100
AcDbEntity
8
1
62
256
6
ByLayer
370
18
48
1
60
0
100
AcDbCircle
10
11.933148
20
0
30
0
40
5.35
39
0
210
0
220
0
230
1
0
CIRCLE
5
DA
100
AcDbEntity
8
1
62
256
6
ByLayer
370
13
48
1
60
0
100
AcDbCircle
10
11.933148
20
0
30
0
40
4.55
39
0
210
0
220
0
230
1
0
POINT
5
70
100
AcDbEntity
8
1
62
256
6
ByLayer
370
18
48
1
60
0
100
AcDbPoint
10
47.507968
20
0.0375
30
0
39
0
210
0
220
0
230
1
50
360
0
POINT
5
72
100
AcDbEntity
8
81
62
256
6
ByLayer
370
18
48
1
60
0
100
AcDbPoint
10
47.507968
20
3.0375
30
0
39
0
210
0
220
0
230
1
50
360
0
POINT
5
74
100
AcDbEntity
8
80
62
256
6
ByLayer
370
18
48
1
60
0
100
AcDbPoint
10
0
20
0
30
0
39
0
210
0
220
0
230
1
50
360
0
POINT
5
76
100
AcDbEntity
8
1
62
256
6
ByLayer
370
18
48
1
60
1
100
AcDbPoint
10
47.507968
20
3.0375
30
0
39
0
210
0
220
0
230
1
50
360
0
POINT
5
77
100
AcDbEntity
8
1
62
256
6
ByLayer
370
18
48
1
60
1
100
AcDbPoint
10
0
20
-12.4625
30
0
39
0
210
0
220
0
230
1
50
360
0
POINT
5
78
100
AcDbEntity
8
1
62
256
6
ByLayer
370
18
48
1
60
1
100
AcDbPoint
10
47.507968
20
-2.9625
30
0
39
0
210
0
220
0
230
1
50
360
0
POINT
5
79
100
AcDbEntity
8
1
62
256
6
ByLayer
370
18
48
1
60
1
100
AcDbPoint
10
47.507968
20
3.0375
30
0
39
0
210
0
220
0
230
1
50
360
0
POINT
5
7A
100
AcDbEntity
8
1
62
256
6
ByLayer
370
18
48
1
60
1
100
AcDbPoint
10
0
20
-12.4625
30
0
39
0
210
0
220
0
230
1
50
360
0
POINT
5
7B
100
AcDbEntity
8
1
62
256
6
ByLayer
370
18
48
1
60
1
100
AcDbPoint
10
0
20
12.5375
30
0
39
0
210
0
220
0
230
1
50
360
0
POINT
5
7C
100
AcDbEntity
8
1
62
256
6
ByLayer
370
18
48
1
60
1
100
AcDbPoint
10
21.083148
20
-2.1375
30
0
39
0
210
0
220
0
230
1
50
360
0
POINT
5
7D
100
AcDbEntity
8
1
62
256
6
ByLayer
370
18
48
1
60
1
100
AcDbPoint
10
47.507968
20
3.0375
30
0
39
0
210
0
220
0
230
1
50
360
0
POINT
5
7E
100
AcDbEntity
8
1
62
256
6
ByLayer
370
18
48
1
60
1
100
AcDbPoint
10
-84
20
-12.4625
30
0
39
0
210
0
220
0
230
1
50
360
0
POINT
5
7F
100
AcDbEntity
8
1
62
256
6
ByLayer
370
18
48
1
60
1
100
AcDbPoint
10
47.507968
20
3.0375
30
0
39
0
210
0
220
0
230
1
50
360
0
POINT
5
80
100
AcDbEntity
8
1
62
256
6
ByLayer
370
18
48
1
60
1
100
AcDbPoint
10
0
20
-12.4625
30
0
39
0
210
0
220
0
230
1
50
360
0
POINT
5
81
100
AcDbEntity
8
1
62
256
6
ByLayer
370
18
48
1
60
1
100
AcDbPoint
10
47.507968
20
3.0375
30
0
39
0
210
0
220
0
230
1
50
360
0
POINT
5
82
100
AcDbEntity
8
1
62
256
6
ByLayer
370
18
48
1
60
1
100
AcDbPoint
10
-84
20
-12.4625
30
0
39
0
210
0
220
0
230
1
50
360
0
POINT
5
83
100
AcDbEntity
8
1
62
256
6
ByLayer
370
18
48
1
60
1
100
AcDbPoint
10
-81
20
-12.4625
30
0
39
0
210
0
220
0
230
1
50
360
0
SPLINE
5
E1
100
AcDbEntity
8
1
62
256
6
ByLayer
370
18
48
1
60
0
100
AcDbSpline
70
4
71
3
72
12
73
8
40
0
40
0
40
0
40
0
40
0.499999999999999
40
0.499999999999999
40
0.75
40
0.75
40
1
40
1
40
1
40
1
41
1
10
39.0401802202847
20
-0.462500000000148
30
0
41
1
10
38.999775607902
20
-0.741895894410874
30
0
41
1
10
38.9591382042364
20
-1.02123809387848
30
0
41
1
10
38.8973599891206
20
-1.44006176772689
30
0
41
1
10
38.8766270432532
20
-1.57963796292199
30
0
41
1
10
38.8346865196698
20
-1.85867701801729
30
0
41
1
10
38.8134869111326
20
-1.99814171025153
30
0
41
1
10
38.7918422779882
20
-2.13750000000016
30
0
0
SPLINE
5
E2
100
AcDbEntity
8
1
62
256
6
ByLayer
370
18
48
1
60
0
100
AcDbSpline
70
4
71
3
72
8
73
4
40
0
40
0
40
0
40
0
40
1
40
1
40
1
40
1
41
1
10
39.2282051689795
20
-0.378422762386578
30
0
41
1
10
39.1655666541557
20
-0.406588994101838
30
0
41
1
10
39.1029044243977
20
-0.434663868853505
30
0
41
1
10
39.0401802202847
20
-0.462500000000148
30
0
0
SPLINE
5
E3
100
AcDbEntity
8
1
62
256
6
ByLayer
370
18
48
1
60
0
100
AcDbSpline
70
4
71
3
72
20
73
16
40
0
40
0
40
0
40
0
40
0.250000000000013
40
0.250000000000013
40
0.37500000000001
40
0.37500000000001
40
0.500000000000008
40
0.500000000000008
40
0.625000000000006
40
0.625000000000006
40
0.750000000000004
40
0.750000000000004
40
0.875000000000002
40
0.875000000000002
40
1
40
1
40
1
40
1
41
1
10
39.3079675788577
20
-0.237468869268696
30
0
41
1
10
39.3079675788577
20
-0.252951663549197
30
0
41
1
10
39.3060783160647
20
-0.268033049751807
30
0
41
1
10
39.3004523504296
20
-0.290061902937793
30
0
41
1
10
39.2981169758411
20
-0.297222222723974
30
0
41
1
10
39.2926556072829
20
-0.310878485317204
30
0
41
1
10
39.2895174183165
20
-0.317424159728631
30
0
41
1
10
39.2824158965608
20
-0.329943570212237
30
0
41
1
10
39.2784412790464
20
-0.335913501772012
30
0
41
1
10
39.269932032489
20
-0.346875083885408
30
0
41
1
10
39.2653682366918
20
-0.351923820307917
30
0
41
1
10
39.2556237120736
20
-0.361159157109086
30
0
41
1
10
39.2504075825045
20
-0.365363930613853
30
0
41
1
10
39.2396101665443
20
-0.372677198429187
30
0
41
1
10
39.2340095122214
20
-0.375812763136679
30
0
41
1
10
39.2282051689795
20
-0.378422762386578
30
0
0
SPLINE
5
E4
100
AcDbEntity
8
1
62
256
6
ByLayer
370
18
48
1
60
0
100
AcDbSpline
70
4
71
3
72
20
73
16
40
0
40
0
40
0
40
0
40
0.250000000000033
40
0.250000000000033
40
0.375000000000028
40
0.375000000000028
40
0.500000000000022
40
0.500000000000022
40
0.625000000000017
40
0.625000000000017
40
0.750000000000011
40
0.750000000000011
40
0.875000000000006
40
0.875000000000006
40
1
40
1
40
1
40
1
41
1
10
39.2282051689796
20
0.453422762386254
30
0
41
1
10
39.2398129494855
20
0.448203171271245
30
0
41
1
10
39.2505236133358
20
0.440960523540752
30
0
41
1
10
39.2652424936518
20
0.427058718654507
30
0
41
1
10
39.2698760660433
20
0.421939393134778
30
0
41
1
10
39.2783788358861
20
0.411001619644168
30
0
41
1
10
39.2822850965385
20
0.405149519713916
30
0
41
1
10
39.2893945091583
20
0.392664614053586
30
0
41
1
10
39.2926040109188
20
0.385994329446703
30
0
41
1
10
39.2980868740209
20
0.372310471564873
30
0
41
1
10
39.3003932877825
20
0.365248554220017
30
0
41
1
10
39.304135262839
20
0.350684329622425
30
0
41
1
10
39.3055755633095
20
0.343125261566826
30
0
41
1
10
39.3074865693747
20
0.327892058956905
30
0
41
1
10
39.3079675788713
20
0.320212417193091
30
0
41
1
10
39.3079675788714
20
0.312468869270219
30
0
0
SPLINE
5
E5
100
AcDbEntity
8
1
62
256
6
ByLayer
370
18
48
1
60
0
100
AcDbSpline
70
4
71
3
72
8
73
4
40
0
40
0
40
0
40
0
40
1
40
1
40
1
40
1
41
1
10
39.0401802202847
20
0.537499999999852
30
0
41
1
10
39.1029081905519
20
0.509662197486307
30
0
41
1
10
39.165569440402
20
0.481587741229276
30
0
41
1
10
39.2282051689796
20
0.453422762386254
30
0
0
SPLINE
5
E6
100
AcDbEntity
8
1
62
256
6
ByLayer
370
18
48
1
60
0
100
AcDbSpline
70
4
71
3
72
12
73
8
40
0
40
0
40
0
40
0
40
0.25
40
0.25
40
0.5
40
0.5
40
1
40
1
40
1
40
1
41
1
10
38.7918422779883
20
2.21249999999978
30
0
41
1
10
38.8134869197998
20
2.0731416544478
30
0
41
1
10
38.8346865105113
20
1.93367707685204
30
0
41
1
10
38.8766269737653
20
1.65463842733811
30
0
41
1
10
38.8973599237441
20
1.5150622092865
30
0
41
1
10
38.9591381841726
20
1.09623823321783
30
0
41
1
10
38.9997756011735
20
0.816895940937854
30
0
41
1
10
39.0401802202847
20
0.537499999999852
30
0
0
SPLINE
5
E7
100
AcDbEntity
8
1
62
256
6
ByLayer
370
18
48
1
60
0
100
AcDbSpline
70
4
71
3
72
26
73
22
40
0
40
0
40
0
40
0
40
0.043715945556891
40
0.0886896885652802
40
0.134907868262293
40
0.182357824769966
40
0.231027751633378
40
0.280906859867723
40
0.331985553901914
40
0.384255619718589
40
0.437710425380106
40
0.492345133993635
40
0.548156929004052
40
0.605145251507097
40
0.663312049049403
40
0.722662035122143
40
0.783202958266347
40
0.844945879388411
40
0.90790545554386
40
0.97210022808756
40
1
40
1
40
1
40
1
41
1
10
26.413269233364
20
2.55290037034618
30
0
41
1
10
26.4224903460434
20
2.54677169678879
30
0
41
1
10
26.4411978817341
20
2.53433801516076
30
0
41
1
10
26.4698525562113
20
2.51572575724793
30
0
41
1
10
26.4994572570976
20
2.49684258994532
30
0
41
1
10
26.5300340805223
20
2.47774535939703
30
0
41
1
10
26.5615876074289
20
2.45846491974316
30
0
41
1
10
26.5941283745668
20
2.4390412129026
30
0
41
1
10
26.6276663869139
20
2.41951350655987
30
0
41
1
10
26.6622129806309
20
2.39992312814934
30
0
41
1
10
26.6977803621293
20
2.38031271804397
30
0
41
1
10
26.7343817935393
20
2.36072644747978
30
0
41
1
10
26.7720315989704
20
2.34120996511189
30
0
41
1
10
26.8107452210675
20
2.32181041613884
30
0
41
1
10
26.8505392629492
20
2.30257643394356
30
0
41
1
10
26.8914315383969
20
2.28355814825108
30
0
41
1
10
26.9334411052501
20
2.26480713319069
30
0
41
1
10
26.9765883610554
20
2.24637656236078
30
0
41
1
10
27.0208949021133
20
2.22832054971363
30
0
41
1
10
27.0575151514584
20
2.21413276868921
30
0
41
1
10
27.0793701594224
20
2.20598212499726
30
0
41
1
10
27.0860005847145
20
2.20353876166979
30
0
0
SPLINE
5
E8
100
AcDbEntity
8
1
62
256
6
ByLayer
370
18
48
1
60
0
100
AcDbSpline
70
4
71
2
72
8
73
5
40
0
40
0
40
0
40
0.622762040300757
40
0.622762040300757
40
1
40
1
40
1
41
1
10
26.4132692333677
20
-2.47790039741324
30
0
41
1
10
26.6200765628325
20
-2.33979206296561
30
0
41
1
10
26.8215067212991
20
-2.24162734241028
30
0
41
1
10
26.9527175200873
20
-2.1776832364485
30
0
41
1
10
27.0860105387854
20
-2.12858920951391
30
0
0
SPLINE
5
E9
100
AcDbEntity
8
1
62
256
6
ByLayer
370
18
48
1
60
0
100
AcDbSpline
70
4
71
2
72
8
73
5
40
0
40
0
40
0
40
0.346275327872062
40
0.692550655744124
40
1
40
1
40
1
41
1
10
24.7329675858277
20
3.06249997960674
30
0
41
1
10
24.4348322432062
20
3.06235824556529
30
0
41
1
10
23.8510713786545
20
2.94641695220477
30
0
41
1
10
23.3313922359834
20
2.73126811489678
30
0
41
1
10
23.1083632264623
20
2.5892247835111
30
0
0
SPLINE
5
EA
100
AcDbEntity
8
1
62
256
6
ByLayer
370
18
48
1
60
0
100
AcDbSpline
70
4
71
5
72
12
73
6
40
0
40
0
40
0
40
0
40
0
40
0
40
1
40
1
40
1
40
1
40
1
40
1
41
1
10
24.7329724468977
20
3.06249998384678
30
0
41
1
10
25.0497469326677
20
3.06249894231678
30
0
41
1
10
25.3665221221977
20
3.02103592631679
30
0
41
1
10
25.6760578570177
20
2.93809624307679
30
0
41
1
10
25.9711248719977
20
2.81561702327676
30
0
41
1
10
26.2454603350577
20
2.65723101294677
30
0
0
SPLINE
5
EB
100
AcDbEntity
8
1
62
256
6
ByLayer
370
18
48
1
60
0
100
AcDbSpline
70
4
71
2
72
6
73
3
40
0
40
0
40
0
40
1
40
1
40
1
41
1
10
26.4132689302677
20
2.55290010457674
30
0
41
1
10
26.350105366243
20
2.59506266693907
30
0
41
1
10
26.2442728644377
20
2.65514913086676
30
0
0
SPLINE
5
EC
100
AcDbEntity
8
1
62
256
6
ByLayer
370
18
48
1
60
0
100
AcDbSpline
70
4
71
3
72
8
73
4
40
0
40
0
40
0
40
0
40
1
40
1
40
1
40
1
41
1
10
26.4132666383012
20
-2.47789670058438
30
0
41
1
10
26.3584840729689
20
-2.51447746621341
30
0
41
1
10
26.3025065336128
20
-2.54926792862611
30
0
41
1
10
26.2454534225673
20
-2.5821939380551
30
0
0
SPLINE
5
ED
100
AcDbEntity
8
1
62
256
6
ByLayer
370
18
48
1
60
0
100
AcDbSpline
70
4
71
5
72
12
73
6
40
0
40
0
40
0
40
0
40
0
40
0
40
1
40
1
40
1
40
1
40
1
40
1
41
1
10
24.7329724468977
20
-2.98750001091324
30
0
41
1
10
25.0497469326677
20
-2.98749896938324
30
0
41
1
10
25.3665221221977
20
-2.94603595338322
30
0
41
1
10
25.6760578570177
20
-2.86309627014322
30
0
41
1
10
25.9711248719977
20
-2.74061705034322
30
0
41
1
10
26.2454603350577
20
-2.58223104001323
30
0
0
SPLINE
5
EE
100
AcDbEntity
8
1
62
256
6
ByLayer
370
18
48
1
60
0
100
AcDbSpline
70
4
71
3
72
12
73
8
40
0
40
0
40
0
40
0
40
0.339299383016031
40
0.339299383016031
40
0.678598766032062
40
0.678598766032062
40
1
40
1
40
1
40
1
41
1
10
24.7329675858277
20
-2.9875000133888
30
0
41
1
10
24.5349817996583
20
-2.98750001294226
30
0
41
1
10
24.3370009091222
20
-2.96800059682826
30
0
41
1
10
23.9486378196261
20
-2.89075037472122
30
0
41
1
10
23.7582652237087
20
-2.83300147889213
30
0
41
1
10
23.4020840171944
20
-2.68546639224917
30
0
41
1
10
23.2355174953053
20
-2.59753423268143
30
0
41
1
10
23.0785086829864
20
-2.49496677433115
30
0
0
SPLINE
5
EF
100
AcDbEntity
8
1
62
256
6
ByLayer
370
18
48
1
60
0
100
AcDbSpline
70
4
71
2
72
8
73
5
40
0
40
0
40
0
40
0.5
40
0.5
40
1
40
1
40
1
41
1
10
42.8026659517477
20
2.55290037034669
30
0
41
1
10
42.5958586162241
20
2.41479203185301
30
0
41
1
10
42.394428451821
20
2.3166273095006
30
0
41
1
10
42.1778195313447
20
2.21106539130128
30
0
41
1
10
41.9555359471487
20
2.14597431891338
30
0
0
SPLINE
5
F0
100
AcDbEntity
8
1
62
256
6
ByLayer
370
18
48
1
60
0
100
AcDbSpline
70
4
71
3
72
29
73
25
40
0
40
0
40
0
40
0
40
0.035204990380335
40
0.0714229004752474
40
0.108642970698875
40
0.146855005896495
40
0.186049498185527
40
0.226217759064497
40
0.267352061102749
40
0.309445789451746
40
0.352493603330997
40
0.396491607531784
40
0.44143753384791
40
0.487330932187097
40
0.534173370932758
40
0.581968645917042
40
0.630722997134934
40
0.680445332069773
40
0.731147454227716
40
0.782844295188491
40
0.835554148185357
40
0.88929890093403
40
0.944104265157137
40
1
40
1
40
1
40
1
41
1
10
42.8026659517514
20
-2.47790039741272
30
0
41
1
10
42.7934448391442
20
-2.47177172390309
30
0
41
1
10
42.7747373036244
20
-2.4593380423882
30
0
41
1
10
42.7460826294471
20
-2.44072578466546
30
0
41
1
10
42.7164779289436
20
-2.42184261759814
30
0
41
1
10
42.6859011059857
20
-2.40274538732638
30
0
41
1
10
42.6543475796303
20
-2.38346494798679
30
0
41
1
10
42.6218068131289
20
-2.36404124149414
30
0
41
1
10
42.5882688015046
20
-2.34451353552888
30
0
41
1
10
42.5537222085975
20
-2.32492315752103
30
0
41
1
10
42.5181548279976
20
-2.30531274783868
30
0
41
1
10
42.4815533975759
20
-2.2857264777131
30
0
41
1
10
42.4439035932242
20
-2.2662099957941
30
0
41
1
10
42.4051899722998
20
-2.24681044727487
30
0
41
1
10
42.3653959316854
20
-2.22757646553268
30
0
41
1
10
42.3245036576018
20
-2.20855818028656
30
0
41
1
10
42.282494092212
20
-2.18980716565957
30
0
41
1
10
42.2393468379717
20
-2.17137659524371
30
0
41
1
10
42.195040298583
20
-2.15332058298466
30
0
41
1
10
42.1495509089232
20
-2.13569663112247
30
0
41
1
10
42.1028558633849
20
-2.11855611510569
30
0
41
1
10
42.0549223979422
20
-2.10198071366221
30
0
41
1
10
42.0057487417676
20
-2.08594224752568
30
0
41
1
10
41.9723893090107
20
-2.07597511341967
30
0
41
1
10
41.9555453027305
20
-2.07094245981611
30
0
0
SPLINE
5
F1
100
AcDbEntity
8
1
62
256
6
ByLayer
370
18
48
1
60
0
100
AcDbSpline
70
4
71
3
72
8
73
4
40
0
40
0
40
0
40
0
40
1
40
1
40
1
40
1
41
1
10
42.970481762548
20
-2.58219393805516
30
0
41
1
10
42.9134286515025
20
-2.54926792862616
30
0
41
1
10
42.8574511121464
20
-2.51447746621346
30
0
41
1
10
42.8026685468141
20
-2.47789670058444
30
0
0
SPLINE
5
F2
100
AcDbEntity
8
1
62
256
6
ByLayer
370
18
48
1
60
0
100
AcDbSpline
70
4
71
5
72
12
73
6
40
0
40
0
40
0
40
0
40
0
40
0
40
1
40
1
40
1
40
1
40
1
40
1
41
1
10
42.9704748500577
20
-2.58223104001328
30
0
41
1
10
43.2448103131176
20
-2.7406170503433
30
0
41
1
10
43.5398773280977
20
-2.8630962701433
30
0
41
1
10
43.8494130629176
20
-2.9460359533833
30
0
41
1
10
44.1661882524476
20
-2.9874989693833
30
0
41
1
10
44.4829627382177
20
-2.98750001091329
30
0
0
SPLINE
5
F3
100
AcDbEntity
8
1
62
256
6
ByLayer
370
18
48
1
60
0
100
AcDbSpline
70
4
71
2
72
13
73
10
40
0
40
0
40
0
40
0.125
40
0.25
40
0.375
40
0.5
40
0.625
40
0.75
40
0.875
40
1
40
1
40
1
41
1
10
44.4829675992877
20
-2.98750000667332
30
0
41
1
10
44.7811029419091
20
-2.98735827263187
30
0
41
1
10
45.3648638064609
20
-2.87141697927134
30
0
41
1
10
45.9153482551219
20
-2.64351464615709
30
0
41
1
10
46.4108375803039
20
-2.31250982782609
30
0
41
1
10
46.8322932203918
20
-1.89120358955765
30
0
41
1
10
47.1634738650528
20
-1.39583160499581
30
0
41
1
10
47.3915716815639
20
-0.84542796359267
30
0
41
1
10
47.5078255881324
20
-0.261177774249859
30
0
41
1
10
47.5079675788577
20
0.0374999729335173
30
0
0
SPLINE
5
F4
100
AcDbEntity
8
1
62
256
6
ByLayer
370
18
48
1
60
0
100
AcDbSpline
70
4
71
2
72
13
73
10
40
0
40
0
40
0
40
0.125
40
0.25
40
0.375
40
0.5
40
0.625
40
0.75
40
0.875
40
1
40
1
40
1
41
1
10
47.5079675788577
20
0.0374999999998238
30
0
41
1
10
47.5078258459898
20
0.33563534368821
30
0
41
1
10
47.3918845552745
20
0.919396208372007
30
0
41
1
10
47.1639822229938
20
1.46988065640787
30
0
41
1
10
46.8329774035008
20
1.96536997974425
30
0
41
1
10
46.4116711630554
20
2.3868256176533
30
0
41
1
10
45.9162991766415
20
2.71800626115294
30
0
41
1
10
45.3658955346087
20
2.94610407849189
30
0
41
1
10
44.7816453453993
20
3.0623579877057
30
0
41
1
10
44.4829675992877
20
3.06249997960669
30
0
0
SPLINE
5
F5
100
AcDbEntity
8
1
62
256
6
ByLayer
370
18
48
1
60
0
100
AcDbSpline
70
4
71
5
72
12
73
6
40
0
40
0
40
0
40
0
40
0
40
0
40
1
40
1
40
1
40
1
40
1
40
1
41
1
10
42.9704748500577
20
2.65723101294671
30
0
41
1
10
43.2448103131177
20
2.8156170232767
30
0
41
1
10
43.5398773280977
20
2.9380962430767
30
0
41
1
10
43.8494130629177
20
3.0210359263167
30
0
41
1
10
44.1661882524477
20
3.06249894231669
30
0
41
1
10
44.4829627382177
20
3.06249998384669
30
0
0
SPLINE
5
F6
100
AcDbEntity
8
1
62
256
6
ByLayer
370
18
48
1
60
0
100
AcDbSpline
70
4
71
3
72
8
73
4
40
0
40
0
40
0
40
0
40
1
40
1
40
1
40
1
41
1
10
42.8026685468142
20
2.55289667351786
30
0
41
1
10
42.8574511121465
20
2.58947743914689
30
0
41
1
10
42.9134286515026
20
2.62426790155959
30
0
41
1
10
42.970481762548
20
2.65719391098858
30
0
0
SPLINE
5
F7
100
AcDbEntity
8
1
62
256
6
ByLayer
370
18
48
1
60
0
100
AcDbSpline
70
4
71
3
72
8
73
4
40
0
40
0
40
0
40
0
40
1
40
1
40
1
40
1
41
1
10
41.955543725248
20
-2.07094776398199
30
0
41
1
10
41.936391014062
20
-2.06535369885526
30
0
41
1
10
41.9164474753414
20
-2.06250001373507
30
0
41
1
10
41.8965098870777
20
-2.06250001349403
30
0
0
SPLINE
5
F8
100
AcDbEntity
8
1
62
256
6
ByLayer
370
18
48
1
60
0
100
AcDbSpline
70
4
71
2
72
6
73
3
40
0
40
0
40
0
40
1
40
1
40
1
41
1
10
41.9555437252477
20
2.1459477369167
30
0
41
1
10
41.9265955923207
20
2.13757532124117
30
0
41
1
10
41.8965098870777
20
2.13749998642669
30
0
0
SPLINE
5
F9
100
AcDbEntity
8
1
62
256
6
ByLayer
370
18
48
1
60
0
100
AcDbSpline
70
4
71
1
72
4
73
2
40
0
40
0
40
1
40
1
41
1
10
39.3541212600995
20
1.89621364117926
30
0
41
1
10
39.3556415718205
20
1.87884901366831
30
0
0
SPLINE
5
FA
100
AcDbEntity
8
1
62
256
6
ByLayer
370
18
48
1
60
0
100
AcDbSpline
70
4
71
1
72
4
73
2
40
0
40
0
40
1
40
1
41
1
10
39.5659263938116
20
0.687433819486984
30
0
41
1
10
39.5856589685083
20
0.643164872845119
30
0
0
SPLINE
5
FB
100
AcDbEntity
8
1
62
256
6
ByLayer
370
18
48
1
60
0
100
AcDbSpline
70
4
71
3
72
14
73
10
40
0
40
0
40
0
40
0
40
0.0944060490509801
40
0.209208202273556
40
0.344413017645294
40
0.500023246074744
40
0.702942592168865
40
0.869599374716205
40
1
40
1
40
1
40
1
41
1
10
39.6980862311176
20
0.520585338289692
30
0
41
1
10
39.696782206382
20
0.521216486809664
30
0
41
1
10
39.6938924268245
20
0.522615141329766
30
0
41
1
10
39.6892193528163
20
0.525299974906432
30
0
41
1
10
39.6837531647763
20
0.528847656065068
30
0
41
1
10
39.6771578158419
20
0.533738585406297
30
0
41
1
10
39.670130267495
20
0.539619159732439
30
0
41
1
10
39.6633824655123
20
0.545760806979246
30
0
41
1
10
39.6592877104771
20
0.54967105522482
30
0
41
1
10
39.6574902174576
20
0.551387554469756
30
0
0
SPLINE
5
FC
100
AcDbEntity
8
1
62
256
6
ByLayer
370
18
48
1
60
0
100
AcDbSpline
70
4
71
3
72
14
73
10
40
0
40
0
40
0
40
0
40
0.0939014673073519
40
0.20853548845182
40
0.343902001358897
40
0.500000920931439
40
0.703524667022678
40
0.870191140322604
40
1
40
1
40
1
40
1
41
1
10
39.8569130080172
20
0.465232510168733
30
0
41
1
10
39.8519374520934
20
0.466698899324911
30
0
41
1
10
39.8408877846638
20
0.469955442462293
30
0
41
1
10
39.8226789342058
20
0.475597822538788
30
0
41
1
10
39.8011827049514
20
0.482549555518801
30
0
41
1
10
39.7749903846223
20
0.491461453585288
30
0
41
1
10
39.7471399130362
20
0.501506984155355
30
0
41
1
10
39.720671775008
20
0.511563010904467
30
0
41
1
10
39.7049638112861
20
0.517837926893378
30
0
41
1
10
39.6980862311579
20
0.520585338224066
30
0
0
SPLINE
5
FD
100
AcDbEntity
8
1
62
256
6
ByLayer
370
18
48
1
60
0
100
AcDbSpline
70
4
71
2
72
10
73
7
40
0
40
0
40
0
40
0.5
40
0.5
40
0.75
40
0.75
40
1
40
1
40
1
41
1
10
39.8569130081579
20
0.465232510204714
30
0
41
1
10
39.9249391386497
20
0.445358076678389
30
0
41
1
10
39.9722082729415
20
0.393954953476566
30
0
41
1
10
39.9982600664389
20
0.365624763579206
30
0
41
1
10
40.0148984067479
20
0.329831783190798
30
0
41
1
10
40.0328000784752
20
0.291321080010334
30
0
41
1
10
40.0369137897879
20
0.248235573438706
30
0
0
SPLINE
5
FE
100
AcDbEntity
8
1
62
256
6
ByLayer
370
18
48
1
60
0
100
AcDbSpline
70
4
71
1
72
4
73
2
40
0
40
0
40
1
40
1
41
1
10
40.0369137898284
20
0.248235573511096
30
0
41
1
10
40.0458285522431
20
0.0574999871505213
30
0
0
SPLINE
5
FF
100
AcDbEntity
8
1
62
256
6
ByLayer
370
18
48
1
60
0
100
AcDbSpline
70
4
71
3
72
14
73
10
40
0
40
0
40
0
40
0
40
0.0938770523177647
40
0.208503011710317
40
0.343877770738799
40
0.500001202556683
40
0.703553796789316
40
0.870220227034333
40
1
40
1
40
1
40
1
41
1
10
40.0369137896827
20
-0.173235600577669
30
0
41
1
10
40.0371930618592
20
-0.167283020778058
30
0
41
1
10
40.0378133315465
20
-0.154062209248224
30
0
41
1
10
40.0388353337009
20
-0.132234608301303
30
0
41
1
10
40.0400419033422
20
-0.106435214626629
30
0
41
1
10
40.0415119976036
20
-0.0749597713760579
30
0
41
1
10
40.0430751557013
20
-0.0414683002310596
30
0
41
1
10
40.0445607294154
20
-0.0096381384816198
30
0
41
1
10
40.0454425180452
20
0.0092368113111547
30
0
41
1
10
40.0458285520943
20
0.0174999857836724
30
0
0
SPLINE
5
100
100
AcDbEntity
8
1
62
256
6
ByLayer
370
18
48
1
60
0
100
AcDbSpline
70
4
71
3
72
39
73
35
40
0
40
0
40
0
40
0
40
0.0308962441128806
40
0.0611861637052007
40
0.0908706857964208
40
0.119950795355661
40
0.14842754012252
40
0.176302035927564
40
0.203575472574096
40
0.230249120352197
40
0.256324337265167
40
0.281802577061548
40
0.306685398178361
40
0.330974473718726
40
0.354671602604059
40
0.377778722064752
40
0.400297921656926
40
0.422231459024284
40
0.443581777658637
40
0.464351526952816
40
0.48454358488936
40
0.50416108376275
40
0.551452032297312
40
0.597456156678706
40
0.64222340009455
40
0.685807957984725
40
0.728268554709731
40
0.769668697820269
40
0.810076895194328
40
0.849566817612253
40
0.888217387129933
40
0.92611277038117
40
0.963342256272443
40
1
40
1
40
1
40
1
41
1
10
39.8569130079977
20
-0.390232537271288
30
0
41
1
10
39.8594436371294
20
-0.389478123190571
30
0
41
1
10
39.8644552329648
20
-0.387984100057025
30
0
41
1
10
39.871844988921
20
-0.385450566373066
30
0
41
1
10
39.8790463348314
20
-0.382744872463434
30
0
41
1
10
39.8860556861248
20
-0.379857531373574
30
0
41
1
10
39.8928739767315
20
-0.376806808170528
30
0
41
1
10
39.8995009665873
20
-0.373603501716247
30
0
41
1
10
39.9059367207413
20
-0.37026006806633
30
0
41
1
10
39.9121812252846
20
-0.366788226731472
30
0
41
1
10
39.9182344870487
20
-0.363199560012106
30
0
41
1
10
39.9240965077647
20
-0.35950533826167
30
0
41
1
10
39.9297672908204
20
-0.355716548380116
30
0
41
1
10
39.9352468394235
20
-0.351843871955197
30
0
41
1
10
39.9405351575251
20
-0.34789767889572
30
0
41
1
10
39.9456322481199
20
-0.343888018481493
30
0
41
1
10
39.9505381190945
20
-0.339824615662508
30
0
41
1
10
39.9552527624662
20
-0.335716858711379
30
0
41
1
10
39.9597762289703
20
-0.331573823880433
30
0
41
1
10
39.9641083609019
20
-0.327404173946974
30
0
41
1
10
39.9682497488128
20
-0.323216514243597
30
0
41
1
10
39.9740931996329
20
-0.317003332389277
30
0
41
1
10
39.9814275306008
20
-0.308530211723621
30
0
41
1
10
39.9899548932305
20
-0.297461866710307
30
0
41
1
10
39.997787365009
20
-0.286016955639269
30
0
41
1
10
40.0049258129344
20
-0.274241179549591
30
0
41
1
10
40.0113699067912
20
-0.262178857520467
30
0
41
1
10
40.0171194630325
20
-0.249874002772259
30
0
41
1
10
40.0221746708895
20
-0.237369965390997
30
0
41
1
10
40.0265339652942
20
-0.224708967022167
30
0
41
1
10
40.0302020419282
20
-0.211933459983641
30
0
41
1
10
40.0331607981802
20
-0.199080593504561
30
0
41
1
10
40.0354747660713
20
-0.186201804435086
30
0
41
1
10
40.0364365960076
20
-0.177535314607042
30
0
41
1
10
40.0369137896377
20
-0.173235600505279
30
0
0
SPLINE
5
101
100
AcDbEntity
8
1
62
256
6
ByLayer
370
18
48
1
60
0
100
AcDbSpline
70
4
71
1
72
4
73
2
40
0
40
0
40
1
40
1
41
1
10
39.8569130081892
20
-0.390232537238432
30
0
41
1
10
39.6980862313431
20
-0.445585365303373
30
0
0
SPLINE
5
102
100
AcDbEntity
8
1
62
256
6
ByLayer
370
18
48
1
60
0
100
AcDbSpline
70
4
71
1
72
4
73
2
40
0
40
0
40
1
40
1
41
1
10
39.6980862313076
20
-0.445585365242351
30
0
41
1
10
39.6574902176513
20
-0.476387581567821
30
0
0
SPLINE
5
103
100
AcDbEntity
8
1
62
256
6
ByLayer
370
18
48
1
60
0
100
AcDbSpline
70
4
71
3
72
14
73
10
40
0
40
0
40
0
40
0
40
0.0938870830730964
40
0.208520560734447
40
0.343901429075714
40
0.500028761929712
40
0.70355641279053
40
0.870215267216982
40
1
40
1
40
1
40
1
41
1
10
39.565926393634
20
-0.612433846518996
30
0
41
1
10
39.5665601795236
20
-0.610935342808205
30
0
41
1
10
39.5679678000903
20
-0.607607208374731
30
0
41
1
10
39.5702372227971
20
-0.602171215865212
30
0
41
1
10
39.5728947444416
20
-0.595849269722379
30
0
41
1
10
39.5760984905665
20
-0.588324388712891
30
0
41
1
10
39.579512062135
20
-0.580641599323997
30
0
41
1
10
39.5827893145471
20
-0.573699823822608
30
0
41
1
10
39.5847851708092
20
-0.569850261104278
30
0
41
1
10
39.5856589683303
20
-0.568164900076795
30
0
0
SPLINE
5
104
100
AcDbEntity
8
1
62
256
6
ByLayer
370
18
48
1
60
0
100
AcDbSpline
70
4
71
3
72
8
73
4
40
0
40
0
40
0
40
0
40
1
40
1
40
1
40
1
41
1
10
39.3541212604231
20
-1.8212137389126
30
0
41
1
10
39.3546280308968
20
-1.81540776885686
30
0
41
1
10
39.3551348013705
20
-1.80960206587213
30
0
41
1
10
39.3556415718442
20
-1.80388429877172
30
0
0
SPLINE
5
105
100
AcDbEntity
8
1
62
256
6
ByLayer
370
18
48
1
60
0
100
AcDbSpline
70
4
71
3
72
37
73
33
40
0
40
0
40
0
40
0
40
0.125000000000005
40
0.125000000000005
40
0.250000000000009
40
0.250000000000009
40
0.375000000000013
40
0.375000000000013
40
0.437500000000017
40
0.437500000000017
40
0.50000000000002
40
0.50000000000002
40
0.562500000000023
40
0.562500000000023
40
0.625000000000027
40
0.625000000000027
40
0.68750000000003
40
0.68750000000003
40
0.718750000000031
40
0.718750000000031
40
0.750000000000032
40
0.750000000000032
40
0.812500000000031
40
0.812500000000031
40
0.843750000000028
40
0.843750000000028
40
0.875000000000024
40
0.906250000000021
40
0.906250000000021
40
0.937500000000018
40
0.937500000000018
40
1
40
1
40
1
40
1
41
1
10
9.12644764916783
20
-2.84E-14
30
0
41
1
10
9.12644764916783
20
-0.0364408487404262
30
0
41
1
10
9.12787286274374
20
-0.0729184444004716
30
0
41
1
10
9.13364737331625
20
-0.145547100225002
30
0
41
1
10
9.13800197877373
20
-0.181778733278321
30
0
41
1
10
9.1498824160787
20
-0.2535795521637
30
0
41
1
10
9.15742199092807
20
-0.289249648561935
30
0
41
1
10
9.17146823777858
20
-0.341851432506559
30
0
41
1
10
9.17660884616311
20
-0.359239956645297
30
0
41
1
10
9.18792386208543
20
-0.393686399949473
30
0
41
1
10
9.19409917851598
20
-0.410741219821944
30
0
41
1
10
9.20755433199705
20
-0.444230205188546
30
0
41
1
10
9.21484128716506
20
-0.460692323545828
30
0
41
1
10
9.23074407358308
20
-0.492938255857183
30
0
41
1
10
9.23938517994895
20
-0.508756134596865
30
0
41
1
10
9.25801304805177
20
-0.539058664674769
30
0
41
1
10
9.26801968038981
20
-0.553599394555647
30
0
41
1
10
9.28432382769512
20
-0.574253234840086
30
0
41
1
10
9.2899754943447
20
-0.580943805367809
30
0
41
1
10
9.30177802634441
20
-0.593875378118184
30
0
41
1
10
9.30796002618214
20
-0.600143441298428
30
0
41
1
10
9.32706517219074
20
-0.617859821202046
30
0
41
1
10
9.3405677068684
20
-0.628285028836757
30
0
41
1
10
9.36224903560353
20
-0.641288561201378
30
0
41
1
10
9.36977411562808
20
-0.645203367875723
30
0
41
1
10
9.38502467989622
20
-0.651859391919544
30
0
41
1
10
9.40047100785316
20
-0.657361626858432
30
0
41
1
10
9.41631643453033
20
-0.660462789820002
30
0
41
1
10
9.43236961360222
20
-0.662293607965609
30
0
41
1
10
9.44042805185549
20
-0.662555030298279
30
0
41
1
10
9.46411288115414
20
-0.661459508422695
30
0
41
1
10
9.47948831899984
20
-0.658266782966166
30
0
41
1
10
9.49449100686905
20
-0.652870758576398
30
0
0
SPLINE
5
106
100
AcDbEntity
8
1
62
256
6
ByLayer
370
18
48
1
60
0
100
AcDbSpline
70
4
71
3
72
35
73
31
40
0
40
0
40
0
40
0
40
0.124999999999985
40
0.124999999999985
40
0.249999999999971
40
0.249999999999971
40
0.374999999999957
40
0.374999999999957
40
0.437499999999953
40
0.437499999999953
40
0.499999999999948
40
0.499999999999948
40
0.62499999999994
40
0.62499999999994
40
0.687499999999937
40
0.687499999999937
40
0.71874999999994
40
0.71874999999994
40
0.749999999999944
40
0.749999999999944
40
0.812499999999947
40
0.812499999999947
40
0.843749999999956
40
0.843749999999956
40
0.874999999999964
40
0.906249999999973
40
0.906249999999973
40
0.937499999999982
40
0.937499999999982
40
1
40
1
40
1
40
1
41
1
10
10.5297976491678
20
-2.43067350080182
30
0
41
1
10
10.4982572998806
20
-2.41246367165056
30
0
41
1
10
10.4673632230477
20
-2.3929812892797
30
0
41
1
10
10.4073592658868
20
-2.35167139612128
30
0
41
1
10
10.3782392557707
20
-2.3298480246963
30
0
41
1
10
10.3219482918818
20
-2.28362435383053
30
0
41
1
10
10.2948645880072
20
-2.25929407393176
30
0
41
1
10
10.2563700586968
20
-2.22087634152123
30
0
41
1
10
10.2438843219316
20
-2.20773842442603
30
0
41
1
10
10.2196978726408
20
-2.18071216698266
30
0
41
1
10
10.2079986961235
20
-2.16682264752467
30
0
41
1
10
10.17451939611
20
-2.12415343228136
30
0
41
1
10
10.1541636532382
20
-2.09419133952025
30
0
41
1
10
10.1286874689287
20
-2.04710060677232
30
0
41
1
10
10.1210047637994
20
-2.03095389028408
30
0
41
1
10
10.1112308289954
20
-2.00632323323708
30
0
41
1
10
10.1082631055557
20
-1.99804309568208
30
0
41
1
10
10.1029873449642
20
-1.98132656710572
30
0
41
1
10
10.1006738158711
20
-1.97286069269427
30
0
41
1
10
10.0949480470606
20
-1.94752347895445
30
0
41
1
10
10.0927087816621
20
-1.93066173379671
30
0
41
1
10
10.0923359786471
20
-1.90544990923661
30
0
41
1
10
10.0927229359366
20
-1.89699830494152
30
0
41
1
10
10.0946074162647
20
-1.88051610260479
30
0
41
1
10
10.0975837680627
20
-1.8644393789173
30
0
41
1
10
10.1028284088268
20
-1.84921364601757
30
0
41
1
10
10.1092714739294
20
-1.83444107125734
30
0
41
1
10
10.1130704509882
20
-1.82735664974376
30
0
41
1
10
10.12584357347
20
-1.80745663986997
30
0
41
1
10
10.136273653309
20
-1.79577134708967
30
0
41
1
10
10.1484166657033
20
-1.78550322405025
30
0
0
SPLINE
5
107
100
AcDbEntity
8
1
62
256
6
ByLayer
370
18
48
1
60
0
100
AcDbSpline
70
4
71
3
72
50
73
46
40
0
40
0
40
0
40
0
40
0.03125
40
0.03125
40
0.0625000000000001
40
0.0625000000000001
40
0.0937500000000001
40
0.0937500000000001
40
0.125
40
0.125
40
0.15625
40
0.15625
40
0.1875
40
0.1875
40
0.21875
40
0.21875
40
0.25
40
0.25
40
0.3125
40
0.3125
40
0.375000000000001
40
0.375000000000001
40
0.437500000000001
40
0.437500000000001
40
0.500000000000001
40
0.500000000000001
40
0.624999999999999
40
0.624999999999999
40
0.687499999999997
40
0.687499999999997
40
0.749999999999995
40
0.749999999999995
40
0.812499999999992
40
0.812499999999992
40
0.843749999999994
40
0.843749999999994
40
0.874999999999995
40
0.874999999999995
40
0.906249999999996
40
0.906249999999996
40
0.937499999999997
40
0.937499999999997
40
0.968749999999999
40
0.968749999999999
40
1
40
1
40
1
40
1
41
1
10
9.51449100686904
20
-0.651498961765554
30
0
41
1
10
9.52815895769103
20
-0.650561479198103
30
0
41
1
10
9.54185365495161
20
-0.651085119359266
30
0
41
1
10
9.56929497193138
20
-0.654466589061769
30
0
41
1
10
9.5830279284088
20
-0.657337560120851
30
0
41
1
10
9.61011128023824
20
-0.66491019765752
30
0
41
1
10
9.62355841987932
20
-0.669637318738353
30
0
41
1
10
9.64999293233004
20
-0.680535790125248
30
0
41
1
10
9.66300283478895
20
-0.686710684362765
30
0
41
1
10
9.68868436850093
20
-0.70029136910091
30
0
41
1
10
9.70133088504357
20
-0.707687854877406
30
0
41
1
10
9.72614123743099
20
-0.723431247354767
30
0
41
1
10
9.7383307477553
20
-0.731792488431267
30
0
41
1
10
9.76233805570186
20
-0.749385205588965
30
0
41
1
10
9.7741594851484
20
-0.75862251195295
30
0
41
1
10
9.79731868121283
20
-0.777762356754494
30
0
41
1
10
9.80867769338946
20
-0.787680157151556
30
0
41
1
10
9.84216136142064
20
-0.81838986358963
30
0
41
1
10
9.86374964980607
20
-0.840194931360855
30
0
41
1
10
9.90516568669568
20
-0.885629692470815
30
0
41
1
10
9.92502890880507
20
-0.909286328020698
30
0
41
1
10
9.9632276697819
20
-0.958333954632366
30
0
41
1
10
9.98151983426004
20
-0.983681441158126
30
0
41
1
10
10.0162927681137
20
-1.03552989888914
30
0
41
1
10
10.0328221125102
20
-1.06209458610425
30
0
41
1
10
10.0798294971509
20
-1.14365108836981
30
0
41
1
10
10.1072360822513
20
-1.19951612707882
30
0
41
1
10
10.1421036750957
20
-1.28571952477515
30
0
41
1
10
10.1526922176502
20
-1.31495490957167
30
0
41
1
10
10.1711814670206
20
-1.37332842931659
30
0
41
1
10
10.1791343626983
20
-1.40256892024237
30
0
41
1
10
10.192119460561
20
-1.46122323066987
30
0
41
1
10
10.1971608418269
20
-1.49063598294964
30
0
41
1
10
10.2019964194671
20
-1.53496684220212
30
0
41
1
10
10.2031491280786
20
-1.54982441271673
30
0
41
1
10
10.20436806938
20
-1.57920522762225
30
0
41
1
10
10.2044419467724
20
-1.59376737706424
30
0
41
1
10
10.2033659590407
20
-1.62261319924991
30
0
41
1
10
10.2022175959838
20
-1.63689716540665
30
0
41
1
10
10.1984616138945
20
-1.66514805350999
30
0
41
1
10
10.1958437577287
20
-1.67916662108812
30
0
41
1
10
10.1888215573045
20
-1.70659321568763
30
0
41
1
10
10.184463170276
20
-1.71984430281057
30
0
41
1
10
10.1737055430277
20
-1.74525067843098
30
0
41
1
10
10.1673120668106
20
-1.75740907709613
30
0
41
1
10
10.1596046765907
20
-1.76886861437939
30
0
0
SPLINE
5
108
100
AcDbEntity
8
1
62
256
6
ByLayer
370
18
48
1
60
0
100
AcDbSpline
70
4
71
3
72
8
73
4
40
0
40
0
40
0
40
0
40
1
40
1
40
1
40
1
41
1
10
9.49449100686905
20
-0.652870758576398
30
0
41
1
10
9.50115743026467
20
-0.652413509658714
30
0
41
1
10
9.50782409503088
20
-0.651956244185442
30
0
41
1
10
9.51449100686904
20
-0.651498961765554
30
0
0
SPLINE
5
109
100
AcDbEntity
8
1
62
256
6
ByLayer
370
18
48
1
60
0
100
AcDbSpline
70
4
71
3
72
8
73
4
40
0
40
0
40
0
40
0
40
1
40
1
40
1
40
1
41
1
10
10.1484166657033
20
-1.78550322405025
30
0
41
1
10
10.1521458665797
20
-1.7799585564961
30
0
41
1
10
10.1558752024789
20
-1.77441368818668
30
0
41
1
10
10.1596046765903
20
-1.76886861437998
30
0
0
SPLINE
5
10A
100
AcDbEntity
8
1
62
256
6
ByLayer
370
18
48
1
60
0
100
AcDbSpline
70
4
71
3
72
52
73
48
40
0
40
0
40
0
40
0
40
0.0156249999999997
40
0.0156249999999997
40
0.0312499999999993
40
0.0312499999999993
40
0.0624999999999993
40
0.0624999999999993
40
0.0937499999999994
40
0.0937499999999994
40
0.124999999999999
40
0.124999999999999
40
0.187499999999999
40
0.187499999999999
40
0.218749999999999
40
0.218749999999999
40
0.25
40
0.25
40
0.3125
40
0.3125
40
0.375
40
0.375
40
0.4375
40
0.4375
40
0.5
40
0.5
40
0.5625
40
0.5625
40
0.625
40
0.625
40
0.6875
40
0.6875
40
0.75
40
0.75
40
0.8125
40
0.8125
40
0.84375
40
0.84375
40
0.875
40
0.875
40
0.90625
40
0.90625
40
0.9375
40
0.9375
40
0.96875
40
0.96875
40
1
40
1
40
1
40
1
41
1
10
12.5782613188888
20
-2.42036757614486
30
0
41
1
10
12.5752466751929
20
-2.41420745734689
30
0
41
1
10
12.5719024976648
20
-2.40821241873655
30
0
41
1
10
12.5646228892655
20
-2.39651733542272
30
0
41
1
10
12.5606777718008
20
-2.39080725601201
30
0
41
1
10
12.5481836632597
20
-2.37426543961831
30
0
41
1
10
12.5389470939748
20
-2.36395133423213
30
0
41
1
10
12.5190301612905
20
-2.34444420626505
30
0
41
1
10
12.5083465469686
20
-2.33525375527157
30
0
41
1
10
12.4857465341283
20
-2.3178130364945
30
0
41
1
10
12.4738655194809
20
-2.30959723391482
30
0
41
1
10
12.4370974979226
20
-2.2864581926857
30
0
41
1
10
12.410865877081
20
-2.27288106004096
30
0
41
1
10
12.3701315216096
20
-2.25490525378979
30
0
41
1
10
12.3563003162001
20
-2.24930405245308
30
0
41
1
10
12.3281739520468
20
-2.23880093027014
30
0
41
1
10
12.3138644848668
20
-2.23389595816335
30
0
41
1
10
12.2705455689227
20
-2.22022454919943
30
0
41
1
10
12.2410699806103
20
-2.21246091323229
30
0
41
1
10
12.1810423228971
20
-2.19926715447499
30
0
41
1
10
12.1505403353983
20
-2.19385854131176
30
0
41
1
10
12.0891532386414
20
-2.18528297277868
30
0
41
1
10
12.0581693106294
20
-2.18209850827847
30
0
41
1
10
11.9957640947628
20
-2.17785251302192
30
0
41
1
10
11.9644891012257
20
-2.17679988111564
30
0
41
1
10
11.9017956305747
20
-2.17680011890448
30
0
41
1
10
11.8705368913049
20
-2.17785300340265
30
0
41
1
10
11.8081963225415
20
-2.18209284645928
30
0
41
1
10
11.7771268116345
20
-2.18528365887471
30
0
41
1
10
11.7156545082945
20
-2.19387402120998
30
0
41
1
10
11.6851292401217
20
-2.19929123322444
30
0
41
1
10
11.6251321475805
20
-2.21248452043648
30
0
41
1
10
11.5955936819438
20
-2.22026701835159
30
0
41
1
10
11.5377682936979
20
-2.23853025940369
30
0
41
1
10
11.5096583612
20
-2.24894542921467
30
0
41
1
10
11.4689051694098
20
-2.26693668870249
30
0
41
1
10
11.4555367619558
20
-2.27334384426229
30
0
41
1
10
11.4295152738132
20
-2.28698661436792
30
0
41
1
10
11.416846535755
20
-2.29422651626592
30
0
41
1
10
11.3922934865538
20
-2.3096876881153
30
0
41
1
10
11.3804345975575
20
-2.31789556552201
30
0
41
1
10
11.357863516698
20
-2.33532515624754
30
0
41
1
10
11.3470953550253
20
-2.34458989396381
30
0
41
1
10
11.3270367303515
20
-2.36427750021989
30
0
41
1
10
11.3178218868032
20
-2.37461831849768
30
0
41
1
10
11.3013378773117
20
-2.39650488229637
30
0
41
1
10
11.2940632918653
20
-2.40804728740906
30
0
41
1
10
11.2880339794465
20
-2.42036757614551
30
0
0
SPLINE
5
10B
100
AcDbEntity
8
1
62
256
6
ByLayer
370
18
48
1
60
0
100
AcDbSpline
70
4
71
3
72
8
73
4
40
0
40
0
40
0
40
0
40
1
40
1
40
1
40
1
41
1
10
11.2880339794465
20
-2.42036757614551
30
0
41
1
10
11.2850965417198
20
-2.4263699323721
30
0
41
1
10
11.2821592128528
20
-2.43237206615478
30
0
41
1
10
11.2792219903336
20
-2.43837398262662
30
0
0
SPLINE
5
10C
100
AcDbEntity
8
1
62
256
6
ByLayer
370
18
48
1
60
0
100
AcDbSpline
70
4
71
3
72
35
73
31
40
0
40
0
40
0
40
0
40
0.125000000000002
40
0.125000000000002
40
0.250000000000004
40
0.250000000000004
40
0.375000000000007
40
0.375000000000007
40
0.500000000000009
40
0.500000000000009
40
0.56250000000001
40
0.56250000000001
40
0.62500000000001
40
0.62500000000001
40
0.687500000000011
40
0.687500000000011
40
0.718750000000012
40
0.718750000000012
40
0.750000000000013
40
0.750000000000013
40
0.812500000000014
40
0.812500000000014
40
0.843750000000014
40
0.843750000000014
40
0.875000000000014
40
0.906250000000013
40
0.906250000000013
40
0.937500000000013
40
0.937500000000013
40
1
40
1
40
1
40
1
41
1
10
10.5297976491678
20
-2.43067350080182
30
0
41
1
10
10.5613372898497
20
-2.44888292083965
30
0
41
1
10
10.593616039675
20
-2.46587697738647
30
0
41
1
10
10.6594403795911
20
-2.49721050481418
30
0
41
1
10
10.6928992840789
20
-2.51151520056479
30
0
41
1
10
10.7610146192467
20
-2.537131556248
30
0
41
1
10
10.7956859117003
20
-2.54844645116722
30
0
41
1
10
10.8659101524603
20
-2.56733031592651
30
0
41
1
10
10.901481055425
20
-2.574915641075
30
0
41
1
10
10.9551871676108
20
-2.58256346588294
30
0
41
1
10
10.9731204654899
20
-2.58448377228518
30
0
41
1
10
11.0090546065132
20
-2.58682798716268
30
0
41
1
10
11.0270118176168
20
-2.58724469202389
30
0
41
1
10
11.0625036229831
20
-2.58625746632828
30
0
41
1
10
11.0800881263702
20
-2.58486146704905
30
0
41
1
10
11.1061471942853
20
-2.58105973069655
30
0
41
1
10
11.1147802414963
20
-2.57950611890456
30
0
41
1
10
11.1319204755254
20
-2.57573502144433
30
0
41
1
10
11.1404355033009
20
-2.5735111179759
30
0
41
1
10
11.1652871783389
20
-2.56582476797763
30
0
41
1
10
11.1810883910859
20
-2.55933535358156
30
0
41
1
10
11.2032885416794
20
-2.5469768561627
30
0
41
1
10
11.2104168619572
20
-2.54241503959827
30
0
41
1
10
11.2236944432874
20
-2.53259908909581
30
0
41
1
10
11.2361008077893
20
-2.52203518489694
30
0
41
1
10
11.246676326733
20
-2.50991000149699
30
0
41
1
10
11.2562737069669
20
-2.49695504520636
30
0
41
1
10
11.2605491590394
20
-2.49008536568354
30
0
41
1
10
11.27146601287
20
-2.46899643111996
30
0
41
1
10
11.2763926676143
20
-2.45407065641086
30
0
41
1
10
11.2792219903336
20
-2.43837398262662
30
0
0
SPLINE
5
10D
100
AcDbEntity
8
1
62
256
6
ByLayer
370
18
48
1
60
0
100
AcDbSpline
70
4
71
3
72
35
73
31
40
0
40
0
40
0
40
0
40
0.125000000000001
40
0.125000000000001
40
0.250000000000002
40
0.250000000000002
40
0.375000000000004
40
0.375000000000004
40
0.437500000000005
40
0.437500000000005
40
0.500000000000007
40
0.500000000000007
40
0.625000000000004
40
0.625000000000004
40
0.687500000000002
40
0.687500000000002
40
0.718750000000004
40
0.718750000000004
40
0.750000000000007
40
0.750000000000007
40
0.812500000000005
40
0.812500000000005
40
0.843750000000004
40
0.843750000000004
40
0.875000000000004
40
0.906250000000003
40
0.906250000000003
40
0.937500000000003
40
0.937500000000003
40
1
40
1
40
1
40
1
41
1
10
13.3364976491678
20
-2.43067350080182
30
0
41
1
10
13.3049572998807
20
-2.44888332995311
30
0
41
1
10
13.2726380234048
20
-2.46589719413151
30
0
41
1
10
13.2068606279216
20
-2.49720719878116
30
0
41
1
10
13.1734010288132
20
-2.51151418158776
30
0
41
1
10
13.1052246736428
20
-2.53715175088618
30
0
41
1
10
13.070612181232
20
-2.54844178652076
30
0
41
1
10
13.0180941843535
20
-2.56257016060499
30
0
41
1
10
13.0004735460137
20
-2.566814167281
30
0
41
1
10
12.9649748958531
20
-2.57424711807258
30
0
41
1
10
12.9470966308975
20
-2.57743414241082
30
0
41
1
10
12.8934043565304
20
-2.58509345910187
30
0
41
1
10
12.8572785516129
20
-2.5877410031612
30
0
41
1
10
12.8037586886156
20
-2.5862586595907
30
0
41
1
10
12.7859338693845
20
-2.58483871915831
30
0
41
1
10
12.7597161272678
20
-2.58098786647003
30
0
41
1
10
12.7510614560785
20
-2.57941792158277
30
0
41
1
10
12.7339466373726
20
-2.57562859999109
30
0
41
1
10
12.7254582105204
20
-2.57339923775234
30
0
41
1
10
12.7006526553554
20
-2.5656892921285
30
0
41
1
10
12.6849303229974
20
-2.55919768027059
30
0
41
1
10
12.6629098409451
20
-2.54691462487213
30
0
41
1
10
12.6557840155675
20
-2.54235370788172
30
0
41
1
10
12.6424522497977
20
-2.53248059887633
30
0
41
1
10
12.6300174323944
20
-2.52186475940738
30
0
41
1
10
12.6194540234733
20
-2.50970978217958
30
0
41
1
10
12.609882131003
20
-2.49674363674234
30
0
41
1
10
12.6056463305304
20
-2.48991141534432
30
0
41
1
10
12.5947989776851
20
-2.46889956185245
30
0
41
1
10
12.5898942572062
20
-2.45402420135824
30
0
41
1
10
12.587073308002
20
-2.43837398262664
30
0
0
SPLINE
5
10E
100
AcDbEntity
8
1
62
256
6
ByLayer
370
18
48
1
60
0
100
AcDbSpline
70
4
71
3
72
8
73
4
40
0
40
0
40
0
40
0
40
1
40
1
40
1
40
1
41
1
10
12.587073308002
20
-2.43837398262664
30
0
41
1
10
12.5841360854828
20
-2.43237206615478
30
0
41
1
10
12.5811987566158
20
-2.4263699323721
30
0
41
1
10
12.5782613188891
20
-2.42036757614551
30
0
0
SPLINE
5
10F
100
AcDbEntity
8
1
62
256
6
ByLayer
370
18
48
1
60
0
100
AcDbSpline
70
4
71
3
72
35
73
31
40
0
40
0
40
0
40
0
40
0.125
40
0.125
40
0.250000000000001
40
0.250000000000001
40
0.375000000000001
40
0.375000000000001
40
0.437500000000002
40
0.437500000000002
40
0.500000000000003
40
0.500000000000003
40
0.625000000000006
40
0.625000000000006
40
0.687500000000008
40
0.687500000000008
40
0.718750000000006
40
0.718750000000006
40
0.750000000000004
40
0.750000000000004
40
0.812499999999993
40
0.812499999999993
40
0.843749999999993
40
0.843749999999993
40
0.874999999999994
40
0.906249999999994
40
0.906249999999994
40
0.937499999999994
40
0.937499999999994
40
1
40
1
40
1
40
1
41
1
10
14.7398476491678
20
-5.68E-14
30
0
41
1
10
14.7398476491678
20
-0.0364196583026057
30
0
41
1
10
14.7384224495249
20
-0.0729159048518397
30
0
41
1
10
14.7326490112025
20
-0.145535802659936
30
0
41
1
10
14.7283094222104
20
-0.181666156891481
30
0
41
1
10
14.7164240309289
20
-0.253527397055677
30
0
41
1
10
14.7088952423927
20
-0.289147712589028
30
0
41
1
10
14.6948717748245
20
-0.341693819083787
30
0
41
1
10
14.6897368732498
20
-0.359075742854998
30
0
41
1
10
14.6784246723801
20
-0.393534951089947
30
0
41
1
10
14.6722455839417
20
-0.410611494886183
30
0
41
1
10
14.6520326095883
20
-0.460940026820566
30
0
41
1
10
14.6362625475425
20
-0.493549663641005
30
0
41
1
10
14.6082188688547
20
-0.539158052818436
30
0
41
1
10
14.5980767547528
20
-0.55388482887426
30
0
41
1
10
14.5816329474402
20
-0.574664633232999
30
0
41
1
10
14.5759459996906
20
-0.581374825900724
30
0
41
1
10
14.5641069415762
20
-0.594302032885395
30
0
41
1
10
14.5579320438171
20
-0.600538545058129
30
0
41
1
10
14.5388522574626
20
-0.618165813174073
30
0
41
1
10
14.5253691905031
20
-0.628535946473903
30
0
41
1
10
14.5037215114658
20
-0.64146471563555
30
0
41
1
10
14.4962087287988
20
-0.645355402940226
30
0
41
1
10
14.4809924827008
20
-0.651964496271574
30
0
41
1
10
14.4655814873366
20
-0.657425444299776
30
0
41
1
10
14.4497732638144
20
-0.660496136162067
30
0
41
1
10
14.4337583062414
20
-0.662302565485021
30
0
41
1
10
14.4257235287101
20
-0.662554765600589
30
0
41
1
10
14.4021030533829
20
-0.661442921982513
30
0
41
1
10
14.386768253065
20
-0.658252854268625
30
0
41
1
10
14.3718042914666
20
-0.652870758576427
30
0
0
SPLINE
5
110
100
AcDbEntity
8
1
62
256
6
ByLayer
370
18
48
1
60
0
100
AcDbSpline
70
4
71
3
72
52
73
48
40
0
40
0
40
0
40
0
40
0.0156249999999946
40
0.0156249999999946
40
0.031249999999989
40
0.031249999999989
40
0.0624999999999878
40
0.0624999999999878
40
0.0937499999999865
40
0.0937499999999865
40
0.124999999999985
40
0.124999999999985
40
0.187499999999985
40
0.187499999999985
40
0.218749999999984
40
0.218749999999984
40
0.249999999999983
40
0.249999999999983
40
0.312499999999985
40
0.312499999999985
40
0.374999999999987
40
0.374999999999987
40
0.43749999999999
40
0.43749999999999
40
0.499999999999992
40
0.499999999999992
40
0.562499999999994
40
0.562499999999994
40
0.624999999999996
40
0.624999999999996
40
0.687499999999999
40
0.687499999999999
40
0.750000000000001
40
0.750000000000001
40
0.812500000000003
40
0.812500000000003
40
0.843750000000003
40
0.843750000000003
40
0.875000000000002
40
0.875000000000002
40
0.906250000000002
40
0.906250000000002
40
0.937500000000001
40
0.937500000000001
40
0.968750000000001
40
0.968750000000001
40
1
40
1
40
1
40
1
41
1
10
14.3518042914659
20
-0.651498961765498
30
0
41
1
10
14.3449621502486
20
-0.651029660390464
30
0
41
1
10
14.3380982057513
20
-0.65092828377945
30
0
41
1
10
14.3243301623025
20
-0.651385067925958
30
0
41
1
10
14.3174125297428
20
-0.651946600165871
30
0
41
1
10
14.2968398422507
20
-0.654495907363241
30
0
41
1
10
14.2832892803264
20
-0.65733795831477
30
0
41
1
10
14.2564371456099
20
-0.664832964001249
30
0
41
1
10
14.2431361744164
20
-0.669490019911507
30
0
41
1
10
14.216732062475
20
-0.68034184576851
30
0
41
1
10
14.2036764614049
20
-0.686523204986059
30
0
41
1
10
14.165253453102
20
-0.706795725087943
30
0
41
1
10
14.1403795009003
20
-0.722724408796807
30
0
41
1
10
14.1044448182976
20
-0.749013492316266
30
0
41
1
10
14.0926784329436
20
-0.758191066897524
30
0
41
1
10
14.0695192802375
20
-0.777297651678822
30
0
41
1
10
14.0581167161981
20
-0.787237527717934
30
0
41
1
10
14.0246174707578
20
-0.81791710490802
30
0
41
1
10
14.0031561706283
20
-0.839561895194436
30
0
41
1
10
13.9617162115165
20
-0.884950492325089
30
0
41
1
10
13.9417812213685
20
-0.908661681783371
30
0
41
1
10
13.9036610127885
20
-0.957536682772854
30
0
41
1
10
13.8854112216278
20
-0.982777319290193
30
0
41
1
10
13.850531473938
20
-1.03469882393105
30
0
41
1
10
13.8339823711978
20
-1.06125744688421
30
0
41
1
10
13.8026358418035
20
-1.1155517040138
30
0
41
1
10
13.7879182968913
20
-1.14314900856084
30
0
41
1
10
13.7604198243047
20
-1.19925744632468
30
0
41
1
10
13.7476483934617
20
-1.22775983826091
30
0
41
1
10
13.7243517138017
20
-1.28529159575021
30
0
41
1
10
13.7137805229375
20
-1.31443585945237
30
0
41
1
10
13.6952076985519
20
-1.37299150935229
30
0
41
1
10
13.687178306633
20
-1.40246381993998
30
0
41
1
10
13.6740820432166
20
-1.46167369567073
30
0
41
1
10
13.6690468786087
20
-1.49122519621801
30
0
41
1
10
13.6642511704761
20
-1.53551412533759
30
0
41
1
10
13.6631157262299
20
-1.55029508358081
30
0
41
1
10
13.661919967648
20
-1.57965173840941
30
0
41
1
10
13.6618555375835
20
-1.59424313835072
30
0
41
1
10
13.6629687805768
20
-1.62323728862401
30
0
41
1
10
13.664147566424
20
-1.6376113264588
30
0
41
1
10
13.6679564943401
20
-1.66587325123669
30
0
41
1
10
13.6705959117255
20
-1.67983112165555
30
0
41
1
10
13.677616566546
20
-1.70704620331605
30
0
41
1
10
13.6819645560964
20
-1.72019690105964
30
0
41
1
10
13.6926768716018
20
-1.74541575393482
30
0
41
1
10
13.699035594927
20
-1.75748693228977
30
0
41
1
10
13.7066906217453
20
-1.76886861438001
30
0
0
SPLINE
5
111
100
AcDbEntity
8
1
62
256
6
ByLayer
370
18
48
1
60
0
100
AcDbSpline
70
4
71
3
72
8
73
4
40
0
40
0
40
0
40
0
40
1
40
1
40
1
40
1
41
1
10
13.7066906217453
20
-1.76886861438001
30
0
41
1
10
13.7104200958567
20
-1.77441368818668
30
0
41
1
10
13.714149431756
20
-1.77995855649613
30
0
41
1
10
13.7178786326324
20
-1.78550322405027
30
0
0
SPLINE
5
112
100
AcDbEntity
8
1
62
256
6
ByLayer
370
18
48
1
60
0
100
AcDbSpline
70
4
71
3
72
35
73
31
40
0
40
0
40
0
40
0
40
0.124999999999993
40
0.124999999999993
40
0.249999999999986
40
0.249999999999986
40
0.374999999999979
40
0.374999999999979
40
0.499999999999972
40
0.499999999999972
40
0.562499999999969
40
0.562499999999969
40
0.624999999999966
40
0.624999999999966
40
0.687499999999963
40
0.687499999999963
40
0.718749999999965
40
0.718749999999965
40
0.749999999999968
40
0.749999999999968
40
0.812499999999977
40
0.812499999999977
40
0.843749999999979
40
0.843749999999979
40
0.874999999999981
40
0.906249999999983
40
0.906249999999983
40
0.937499999999985
40
0.937499999999985
40
1
40
1
40
1
40
1
41
1
10
13.3364976491678
20
-2.43067350080182
30
0
41
1
10
13.3680372898498
20
-2.41246408076395
30
0
41
1
10
13.3988939494452
20
-2.3930068916863
30
0
41
1
10
13.4589417501458
20
-2.35166810484552
30
0
41
1
10
13.4880594323032
20
-2.32984419145148
30
0
41
1
10
13.5443015146612
20
-2.28366275865051
30
0
41
1
10
13.5714361473291
20
-2.25929398606331
30
0
41
1
10
13.6229021743123
20
-2.20791994198328
30
0
41
1
10
13.6472567100693
20
-2.18090729895451
30
0
41
1
10
13.6807329767295
20
-2.1382203538671
30
0
41
1
10
13.6913626597964
20
-2.12364981553134
30
0
41
1
10
13.711359879944
20
-2.09370204398067
30
0
41
1
10
13.7206993624914
20
-2.07835899541448
30
0
41
1
10
13.7375903026429
20
-2.04712857749331
30
0
41
1
10
13.7451735834969
20
-2.03120195120755
30
0
41
1
10
13.7549107171948
20
-2.0067332682178
30
0
41
1
10
13.7578817735208
20
-1.99848002412509
30
0
41
1
10
13.7631860243346
20
-1.98175059729897
30
0
41
1
10
13.7655175813232
20
-1.97326441519718
30
0
41
1
10
13.7712868444813
20
-1.94789905828853
30
0
41
1
10
13.7735674531321
20
-1.93097009944106
30
0
41
1
10
13.7739647557115
20
-1.90556495634982
30
0
41
1
10
13.7735782668182
20
-1.89711074162062
30
0
41
1
10
13.7717161949859
20
-1.88070404363666
30
0
41
1
10
13.7687707678375
20
-1.86467786470996
30
0
41
1
10
13.7635578104594
20
-1.8494566049466
30
0
41
1
10
13.7571371793238
20
-1.83466755170892
30
0
41
1
10
13.7533255883774
20
-1.82753006184004
30
0
41
1
10
13.7405204622219
20
-1.80753132181155
30
0
41
1
10
13.7300576895248
20
-1.79580182629283
30
0
41
1
10
13.7178786326324
20
-1.78550322405027
30
0
0
SPLINE
5
113
100
AcDbEntity
8
1
62
256
6
ByLayer
370
18
48
1
60
0
100
AcDbSpline
70
4
71
3
72
8
73
4
40
0
40
0
40
0
40
0
40
1
40
1
40
1
40
1
41
1
10
14.3718042914666
20
-0.652870758576427
30
0
41
1
10
14.3651378680709
20
-0.652413509658743
30
0
41
1
10
14.3584712033048
20
-0.65195624418547
30
0
41
1
10
14.3518042914666
20
-0.651498961765554
30
0
0
SPLINE
5
114
100
AcDbEntity
8
1
62
256
6
ByLayer
370
18
48
1
60
0
100
AcDbSpline
70
4
71
3
72
35
73
31
40
0
40
0
40
0
40
0
40
0.124999999999998
40
0.124999999999998
40
0.249999999999995
40
0.249999999999995
40
0.374999999999993
40
0.374999999999993
40
0.499999999999991
40
0.499999999999991
40
0.562499999999993
40
0.562499999999993
40
0.624999999999994
40
0.624999999999994
40
0.687499999999996
40
0.687499999999996
40
0.718749999999999
40
0.718749999999999
40
0.750000000000002
40
0.750000000000002
40
0.812500000000001
40
0.812500000000001
40
0.843749999999999
40
0.843749999999999
40
0.874999999999997
40
0.906249999999995
40
0.906249999999995
40
0.937499999999992
40
0.937499999999992
40
1
40
1
40
1
40
1
41
1
10
14.7398476491678
20
-5.68E-14
30
0
41
1
10
14.7398476491678
20
0.0364188400756404
30
0
41
1
10
14.7384255589381
20
0.0728700857000888
30
0
41
1
10
14.7326490197226
20
0.145542399968633
30
0
41
1
10
14.7283077973921
20
0.181671009113245
30
0
41
1
10
14.7164345445823
20
0.253468797597463
30
0
41
1
10
14.7088978847967
20
0.289152465103854
30
0
41
1
10
14.6901396710198
20
0.359410373943177
30
0
41
1
10
14.678923303812
20
0.394008342120429
30
0
41
1
10
14.6586934582865
20
0.444343112015787
30
0
41
1
10
14.6513898434744
20
0.460833956753788
30
0
41
1
10
14.6354529225985
20
0.493125943181951
30
0
41
1
10
14.6268351940424
20
0.508885696609354
30
0
41
1
10
14.6082343288276
20
0.53912888883491
30
0
41
1
10
14.5982331062946
20
0.553659515841446
30
0
41
1
10
14.5819111720773
20
0.574326462478695
30
0
41
1
10
14.5762491811923
20
0.581026094779418
30
0
41
1
10
14.5644131979771
20
0.593984424145333
30
0
41
1
10
14.55822972719
20
0.600246702778691
30
0
41
1
10
14.5391473153102
20
0.617925709689047
30
0
41
1
10
14.525626711214
20
0.628365254140448
30
0
41
1
10
14.5038238631999
20
0.641411899812852
30
0
41
1
10
14.4963090540288
20
0.645304297977589
30
0
41
1
10
14.4811694008663
20
0.651895045459099
30
0
41
1
10
14.465817609216
20
0.65735732018689
30
0
41
1
10
14.4500291328942
20
0.660453396550366
30
0
41
1
10
14.4340111215247
20
0.662287493497388
30
0
41
1
10
14.4259240785058
20
0.662555303843448
30
0
41
1
10
14.4022020985197
20
0.661465109308381
30
0
41
1
10
14.3868126710783
20
0.658268830118004
30
0
41
1
10
14.3718042914666
20
0.652870758576313
30
0
0
SPLINE
5
115
100
AcDbEntity
8
1
62
256
6
ByLayer
370
18
48
1
60
0
100
AcDbSpline
70
4
71
3
72
52
73
48
40
0
40
0
40
0
40
0
40
0.0156249999999988
40
0.0156249999999988
40
0.0312499999999973
40
0.0312499999999973
40
0.0625000000000012
40
0.0625000000000012
40
0.093750000000005
40
0.093750000000005
40
0.125000000000009
40
0.125000000000009
40
0.187500000000011
40
0.187500000000011
40
0.218750000000011
40
0.218750000000011
40
0.25000000000001
40
0.25000000000001
40
0.31250000000001
40
0.31250000000001
40
0.37500000000001
40
0.37500000000001
40
0.437500000000009
40
0.437500000000009
40
0.500000000000009
40
0.500000000000009
40
0.562500000000009
40
0.562500000000009
40
0.625000000000008
40
0.625000000000008
40
0.687500000000008
40
0.687500000000008
40
0.750000000000007
40
0.750000000000007
40
0.812500000000007
40
0.812500000000007
40
0.843750000000006
40
0.843750000000006
40
0.875000000000005
40
0.875000000000005
40
0.906250000000004
40
0.906250000000004
40
0.937500000000002
40
0.937500000000002
40
0.968750000000001
40
0.968750000000001
40
1
40
1
40
1
40
1
41
1
10
13.7066906217449
20
1.7688686143793
30
0
41
1
10
13.7028631242235
20
1.7631777969564
30
0
41
1
10
13.6993433572543
20
1.75728413495707
30
0
41
1
10
13.6928549222048
20
1.74513226749673
30
0
41
1
10
13.6898824071099
20
1.73886065584608
30
0
41
1
10
13.6818038281587
20
1.71976953225504
30
0
41
1
10
13.6774898355195
20
1.70661337591733
30
0
41
1
10
13.6705546334872
20
1.67961124226378
30
0
41
1
10
13.6679372766156
20
1.66576373536
30
0
41
1
10
13.6641331775145
20
1.63747119072593
30
0
41
1
10
13.6629585910917
20
1.62307402892873
30
0
41
1
10
13.6613036043473
20
1.5796624675977
30
0
41
1
10
13.6626612729871
20
1.55015665124409
30
0
41
1
10
13.6674609458559
20
1.50589176147349
30
0
41
1
10
13.6695257659113
20
1.4911129855555
30
0
41
1
10
13.6744929773584
20
1.46150327859129
30
0
41
1
10
13.6773998804991
20
1.44665843044538
30
0
41
1
10
13.6872195510029
20
1.40230744429138
30
0
41
1
10
13.6952338391858
20
1.37289901803783
30
0
41
1
10
13.7138215377872
20
1.31431666214988
30
0
41
1
10
13.724388535138
20
1.28519685952833
30
0
41
1
10
13.7476554233149
20
1.2277462900058
30
0
41
1
10
13.7603895601663
20
1.19932118898822
30
0
41
1
10
13.7879150283431
20
1.14315368909081
30
0
41
1
10
13.8026409191399
20
1.1155424342314
30
0
41
1
10
13.8339878603966
20
1.06124841489066
30
0
41
1
10
13.8505290547542
20
1.03470399484178
30
0
41
1
10
13.885371150931
20
0.982835400134604
30
0
41
1
10
13.9036692309949
20
0.957523820613744
30
0
41
1
10
13.941844854675
20
0.908582425459741
30
0
41
1
10
13.9617989319836
20
0.884855373772012
30
0
41
1
10
14.0032232001393
20
0.839493011084159
30
0
41
1
10
14.024732273857
20
0.817803198411582
30
0
41
1
10
14.0694613986865
20
0.776856563732906
30
0
41
1
10
14.0925361665765
20
0.757720232996576
30
0
41
1
10
14.1284936502341
20
0.731422563364845
30
0
41
1
10
14.1407266134419
20
0.723048760681451
30
0
41
1
10
14.1655523430027
20
0.707334875958452
30
0
41
1
10
14.1781566509964
20
0.699983377915146
30
0
41
1
10
14.2038229431908
20
0.686450399491235
30
0
41
1
10
14.2168606180343
20
0.680284239063184
30
0
41
1
10
14.2432406268099
20
0.669451905010789
30
0
41
1
10
14.256648205868
20
0.664758772308232
30
0
41
1
10
14.2837274853624
20
0.657231296903774
30
0
41
1
10
14.297290318461
20
0.654421417438016
30
0
41
1
10
14.3244866434579
20
0.651089128361491
30
0
41
1
10
14.3381199522295
20
0.650560355119239
30
0
41
1
10
14.3518042914666
20
0.651498961765469
30
0
0
SPLINE
5
116
100
AcDbEntity
8
1
62
256
6
ByLayer
370
18
48
1
60
0
100
AcDbSpline
70
4
71
3
72
8
73
4
40
0
40
0
40
0
40
0
40
1
40
1
40
1
40
1
41
1
10
14.3518042914666
20
0.651498961765469
30
0
41
1
10
14.3584712033048
20
0.651956244185357
30
0
41
1
10
14.365137868071
20
0.652413509658629
30
0
41
1
10
14.3718042914666
20
0.652870758576313
30
0
0
SPLINE
5
117
100
AcDbEntity
8
1
62
256
6
ByLayer
370
18
48
1
60
0
100
AcDbSpline
70
4
71
3
72
35
73
31
40
0
40
0
40
0
40
0
40
0.124999999999997
40
0.124999999999997
40
0.249999999999993
40
0.249999999999993
40
0.37499999999999
40
0.37499999999999
40
0.437499999999991
40
0.437499999999991
40
0.499999999999992
40
0.499999999999992
40
0.624999999999999
40
0.624999999999999
40
0.687500000000002
40
0.687500000000002
40
0.718750000000003
40
0.718750000000003
40
0.750000000000004
40
0.750000000000004
40
0.812499999999994
40
0.812499999999994
40
0.843749999999996
40
0.843749999999996
40
0.874999999999998
40
0.906250000000001
40
0.906250000000001
40
0.937500000000003
40
0.937500000000003
40
1
40
1
40
1
40
1
41
1
10
13.3364976491678
20
2.43067350080176
30
0
41
1
10
13.368037998455
20
2.41246367165047
30
0
41
1
10
13.398932075288
20
2.39298128927965
30
0
41
1
10
13.4589360324488
20
2.35167139612122
30
0
41
1
10
13.4880560425649
20
2.32984802469625
30
0
41
1
10
13.5443470064538
20
2.28362435383048
30
0
41
1
10
13.5714307103284
20
2.2592940739317
30
0
41
1
10
13.6099252396388
20
2.22087634152118
30
0
41
1
10
13.622410976404
20
2.20773842442594
30
0
41
1
10
13.6465974256949
20
2.1807121669826
30
0
41
1
10
13.6582966022121
20
2.16682264752461
30
0
41
1
10
13.6917759022257
20
2.12415343228128
30
0
41
1
10
13.7121316450975
20
2.09419133952016
30
0
41
1
10
13.7376078294069
20
2.04710060677223
30
0
41
1
10
13.7452905345362
20
2.03095389028403
30
0
41
1
10
13.7550644693402
20
2.00632323323703
30
0
41
1
10
13.75803219278
20
1.99804309568202
30
0
41
1
10
13.7633079533715
20
1.98132656710564
30
0
41
1
10
13.7656214824645
20
1.97286069269418
30
0
41
1
10
13.771347251275
20
1.94752347895437
30
0
41
1
10
13.7735865166735
20
1.93066173379663
30
0
41
1
10
13.7739593196885
20
1.90544990923652
30
0
41
1
10
13.773572362399
20
1.89699830494143
30
0
41
1
10
13.771687882071
20
1.8805161026047
30
0
41
1
10
13.76871170411
20
1.86443931510758
30
0
41
1
10
13.7634668895089
20
1.84921364601749
30
0
41
1
10
13.7570238244062
20
1.83444107125726
30
0
41
1
10
13.7532248473475
20
1.82735664974368
30
0
41
1
10
13.7404517248656
20
1.80745663986988
30
0
41
1
10
13.7300216450266
20
1.79577134708956
30
0
41
1
10
13.7178786326324
20
1.78550322405016
30
0
0
SPLINE
5
118
100
AcDbEntity
8
1
62
256
6
ByLayer
370
18
48
1
60
0
100
AcDbSpline
70
4
71
3
72
8
73
4
40
0
40
0
40
0
40
0
40
1
40
1
40
1
40
1
41
1
10
13.7178786326324
20
1.78550322405016
30
0
41
1
10
13.714149431756
20
1.77995855649601
30
0
41
1
10
13.7104200958568
20
1.7744136881866
30
0
41
1
10
13.7066906217453
20
1.7688686143799
30
0
0
SPLINE
5
119
100
AcDbEntity
8
1
62
256
6
ByLayer
370
18
48
1
60
0
100
AcDbSpline
70
4
71
3
72
52
73
48
40
0
40
0
40
0
40
0
40
0.0156249999999964
40
0.0156249999999964
40
0.0312499999999931
40
0.0312499999999931
40
0.0624999999999946
40
0.0624999999999946
40
0.0937499999999959
40
0.0937499999999959
40
0.124999999999997
40
0.124999999999997
40
0.1875
40
0.1875
40
0.218750000000002
40
0.218750000000002
40
0.250000000000003
40
0.250000000000003
40
0.312500000000003
40
0.312500000000003
40
0.375000000000003
40
0.375000000000003
40
0.437500000000002
40
0.437500000000002
40
0.500000000000002
40
0.500000000000002
40
0.562500000000002
40
0.562500000000002
40
0.625000000000002
40
0.625000000000002
40
0.687500000000001
40
0.687500000000001
40
0.750000000000001
40
0.750000000000001
40
0.812500000000001
40
0.812500000000001
40
0.843750000000001
40
0.843750000000001
40
0.875000000000001
40
0.875000000000001
40
0.90625
40
0.90625
40
0.9375
40
0.9375
40
0.96875
40
0.96875
40
1
40
1
40
1
40
1
41
1
10
11.2880339794469
20
2.42036757614477
30
0
41
1
10
11.2910486231427
20
2.41420745734681
30
0
41
1
10
11.2943928006709
20
2.40821241873647
30
0
41
1
10
11.3016724090702
20
2.39651733542263
30
0
41
1
10
11.3056175265348
20
2.39080725601193
30
0
41
1
10
11.3181116350759
20
2.37426543961823
30
0
41
1
10
11.3273482043609
20
2.36395133423204
30
0
41
1
10
11.3472651370451
20
2.34444420626497
30
0
41
1
10
11.357948751367
20
2.33525375527148
30
0
41
1
10
11.3805487642073
20
2.31781303649441
30
0
41
1
10
11.3924297788547
20
2.30959723391476
30
0
41
1
10
11.4291978004131
20
2.28645819268562
30
0
41
1
10
11.4554294212546
20
2.27288106004085
30
0
41
1
10
11.4961637767261
20
2.2549052537897
30
0
41
1
10
11.5099949821356
20
2.24930405245297
30
0
41
1
10
11.5381213462888
20
2.23880093027006
30
0
41
1
10
11.5524308134688
20
2.23389595816326
30
0
41
1
10
11.595749729413
20
2.22022454919934
30
0
41
1
10
11.6252253177253
20
2.21246091323221
30
0
41
1
10
11.6852529754385
20
2.19926715447491
30
0
41
1
10
11.7157549629373
20
2.19385854131167
30
0
41
1
10
11.7771420596942
20
2.1852829727786
30
0
41
1
10
11.8081259877063
20
2.18209850827839
30
0
41
1
10
11.8705312035729
20
2.17785251302183
30
0
41
1
10
11.9018061971099
20
2.17679988111556
30
0
41
1
10
11.9644996677609
20
2.1768001189044
30
0
41
1
10
11.9957584070307
20
2.17785300340256
30
0
41
1
10
12.0580989757942
20
2.1820928464592
30
0
41
1
10
12.0891684867011
20
2.18528365887462
30
0
41
1
10
12.1506407900412
20
2.19387402120989
30
0
41
1
10
12.181166058214
20
2.19929123322436
30
0
41
1
10
12.2411631507551
20
2.21248452043639
30
0
41
1
10
12.2707016163918
20
2.22026701835151
30
0
41
1
10
12.3285270046377
20
2.23853025940358
30
0
41
1
10
12.3566369371356
20
2.24894542921456
30
0
41
1
10
12.3973901289258
20
2.2669366887024
30
0
41
1
10
12.4107585363798
20
2.2733438442622
30
0
41
1
10
12.4367800245225
20
2.28698661436783
30
0
41
1
10
12.4494487625807
20
2.29422651626584
30
0
41
1
10
12.4740018117819
20
2.30968768811522
30
0
41
1
10
12.4858607007782
20
2.31789556552192
30
0
41
1
10
12.5084317816376
20
2.33532515624742
30
0
41
1
10
12.5191999433104
20
2.34458989396376
30
0
41
1
10
12.5392585679842
20
2.3642775002198
30
0
41
1
10
12.5484734115324
20
2.3746183184976
30
0
41
1
10
12.5649574210239
20
2.39650488229626
30
0
41
1
10
12.5722320064703
20
2.40804728740898
30
0
41
1
10
12.5782613188891
20
2.42036757614542
30
0
0
SPLINE
5
11A
100
AcDbEntity
8
1
62
256
6
ByLayer
370
18
48
1
60
0
100
AcDbSpline
70
4
71
3
72
8
73
4
40
0
40
0
40
0
40
0
40
1
40
1
40
1
40
1
41
1
10
12.5782613188891
20
2.42036757614542
30
0
41
1
10
12.5811987566158
20
2.42636993237201
30
0
41
1
10
12.5841360854828
20
2.4323720661547
30
0
41
1
10
12.5870733080021
20
2.43837398262653
30
0
0
SPLINE
5
11B
100
AcDbEntity
8
1
62
256
6
ByLayer
370
18
48
1
60
0
100
AcDbSpline
70
4
71
3
72
35
73
31
40
0
40
0
40
0
40
0
40
0.125000000000005
40
0.125000000000005
40
0.25000000000001
40
0.25000000000001
40
0.375000000000015
40
0.375000000000015
40
0.500000000000021
40
0.500000000000021
40
0.56250000000002
40
0.56250000000002
40
0.62500000000002
40
0.62500000000002
40
0.68750000000002
40
0.68750000000002
40
0.718750000000022
40
0.718750000000022
40
0.750000000000025
40
0.750000000000025
40
0.812500000000025
40
0.812500000000025
40
0.843750000000023
40
0.843750000000023
40
0.875000000000021
40
0.906250000000019
40
0.906250000000019
40
0.937500000000016
40
0.937500000000016
40
1
40
1
40
1
40
1
41
1
10
13.3364976491678
20
2.43067350080176
30
0
41
1
10
13.3049580084859
20
2.44888292083959
30
0
41
1
10
13.2726792586607
20
2.46587697738639
30
0
41
1
10
13.2068549187446
20
2.49721050481412
30
0
41
1
10
13.1733960142567
20
2.5115152005647
30
0
41
1
10
13.1052806790889
20
2.53713155624794
30
0
41
1
10
13.0706093866353
20
2.54844645116714
30
0
41
1
10
13.0003851458753
20
2.56733031592643
30
0
41
1
10
12.9648142429106
20
2.57491564107491
30
0
41
1
10
12.9111081307248
20
2.58256346588286
30
0
41
1
10
12.8931748328458
20
2.5844837722851
30
0
41
1
10
12.8572406918224
20
2.58682798716259
30
0
41
1
10
12.8392834807188
20
2.5872446920238
30
0
41
1
10
12.8037916753526
20
2.58625746632819
30
0
41
1
10
12.7862071719655
20
2.58486146704897
30
0
41
1
10
12.7601481040503
20
2.5810597306965
30
0
41
1
10
12.7515150568394
20
2.57950611890448
30
0
41
1
10
12.7343748228103
20
2.57573502144424
30
0
41
1
10
12.7258597950347
20
2.57351111797581
30
0
41
1
10
12.7010081199967
20
2.56582476797752
30
0
41
1
10
12.6852069072498
20
2.55933535358147
30
0
41
1
10
12.6630067566563
20
2.54697685616261
30
0
41
1
10
12.6558784363784
20
2.54241503959818
30
0
41
1
10
12.6426008550482
20
2.5325990890957
30
0
41
1
10
12.6301944905463
20
2.52203518489682
30
0
41
1
10
12.6196189716026
20
2.5099100014969
30
0
41
1
10
12.6100215913687
20
2.49695504520628
30
0
41
1
10
12.6057461392962
20
2.49008536568346
30
0
41
1
10
12.5948292854656
20
2.46899643111988
30
0
41
1
10
12.5899026307214
20
2.45407065641081
30
0
41
1
10
12.5870733080021
20
2.43837398262653
30
0
0
SPLINE
5
11C
100
AcDbEntity
8
1
62
256
6
ByLayer
370
18
48
1
60
0
100
AcDbSpline
70
4
71
3
72
35
73
31
40
0
40
0
40
0
40
0
40
0.125000000000003
40
0.125000000000003
40
0.250000000000006
40
0.250000000000006
40
0.375000000000009
40
0.375000000000009
40
0.437500000000009
40
0.437500000000009
40
0.50000000000001
40
0.50000000000001
40
0.625000000000004
40
0.625000000000004
40
0.687500000000001
40
0.687500000000001
40
0.718749999999996
40
0.718749999999996
40
0.749999999999991
40
0.749999999999991
40
0.812499999999982
40
0.812499999999982
40
0.843749999999985
40
0.843749999999985
40
0.874999999999988
40
0.906249999999992
40
0.906249999999992
40
0.937499999999995
40
0.937499999999995
40
1
40
1
40
1
40
1
41
1
10
10.5297976491678
20
2.43067350080173
30
0
41
1
10
10.561337998455
20
2.44888332995302
30
0
41
1
10
10.5936572749309
20
2.46589719413143
30
0
41
1
10
10.6594346704141
20
2.4972071987811
30
0
41
1
10
10.6928942695224
20
2.51151418158767
30
0
41
1
10
10.7610706246928
20
2.5371517508861
30
0
41
1
10
10.7956831171036
20
2.54844178652067
30
0
41
1
10
10.8482011139821
20
2.56257016060491
30
0
41
1
10
10.865821752322
20
2.56681416728091
30
0
41
1
10
10.9013204024826
20
2.57424711807249
30
0
41
1
10
10.9191986674381
20
2.57743414241071
30
0
41
1
10
10.9728909418052
20
2.58509345910179
30
0
41
1
10
11.0090167467228
20
2.58774100316111
30
0
41
1
10
11.06253660972
20
2.58625865959061
30
0
41
1
10
11.0803614289512
20
2.58483871915823
30
0
41
1
10
11.1065791710678
20
2.58098786646994
30
0
41
1
10
11.1152338422571
20
2.57941792158269
30
0
41
1
10
11.1323486609631
20
2.57562859999101
30
0
41
1
10
11.1408370878152
20
2.57339923775226
30
0
41
1
10
11.1656426429802
20
2.56568929212841
30
0
41
1
10
11.1813649753382
20
2.5591976802705
30
0
41
1
10
11.2033854573905
20
2.54691462487204
30
0
41
1
10
11.2105112827681
20
2.5423537078816
30
0
41
1
10
11.223843048538
20
2.53248059887622
30
0
41
1
10
11.2362778659413
20
2.52186475940729
30
0
41
1
10
11.2468412748623
20
2.5097097821795
30
0
41
1
10
11.2564131673326
20
2.49674363674225
30
0
41
1
10
11.2606489678052
20
2.48991141534421
30
0
41
1
10
11.2714963206505
20
2.46889956185237
30
0
41
1
10
11.2764010411295
20
2.45402420135815
30
0
41
1
10
11.2792219903336
20
2.43837398262656
30
0
0
SPLINE
5
11D
100
AcDbEntity
8
1
62
256
6
ByLayer
370
18
48
1
60
0
100
AcDbSpline
70
4
71
3
72
8
73
4
40
0
40
0
40
0
40
0
40
1
40
1
40
1
40
1
41
1
10
11.2792219903336
20
2.43837398262656
30
0
41
1
10
11.2821592128528
20
2.4323720661547
30
0
41
1
10
11.2850965417198
20
2.42636993237201
30
0
41
1
10
11.2880339794466
20
2.42036757614542
30
0
0
SPLINE
5
11E
100
AcDbEntity
8
1
62
256
6
ByLayer
370
18
48
1
60
0
100
AcDbSpline
70
4
71
3
72
39
73
35
40
0
40
0
40
0
40
0
40
0.124999999999992
40
0.124999999999992
40
0.249999999999984
40
0.249999999999984
40
0.374999999999977
40
0.374999999999977
40
0.437499999999976
40
0.437499999999976
40
0.499999999999975
40
0.499999999999975
40
0.562499999999974
40
0.562499999999974
40
0.624999999999973
40
0.624999999999973
40
0.687499999999972
40
0.687499999999972
40
0.718749999999977
40
0.718749999999977
40
0.749999999999982
40
0.749999999999982
40
0.812499999999984
40
0.812499999999984
40
0.843749999999987
40
0.843749999999987
40
0.87499999999999
40
0.87499999999999
40
0.906249999999992
40
0.906249999999992
40
0.937499999999995
40
0.968749999999997
40
0.968749999999997
40
1
40
1
40
1
40
1
41
1
10
9.12644764916783
20
-2.84E-14
30
0
41
1
10
9.12644764916783
20
0.0364248722858633
30
0
41
1
10
9.12787150420775
20
0.0728850946985631
30
0
41
1
10
9.13364116826648
20
0.14548529795448
30
0
41
1
10
9.13799122514629
20
0.181696415994168
30
0
41
1
10
9.14986219400498
20
0.253474619015407
30
0
41
1
10
9.15739221869876
20
0.2891187424637
30
0
41
1
10
9.17142855712098
20
0.341712481995728
30
0
41
1
10
9.17656375576706
20
0.359091473961939
30
0
41
1
10
9.18786036418919
20
0.393504198697968
30
0
41
1
10
9.19403108904177
20
0.41056075244569
30
0
41
1
10
9.20749155589147
20
0.444084850429192
30
0
41
1
10
9.21478302574118
20
0.460566933330313
30
0
41
1
10
9.23070084604518
20
0.49285781174882
30
0
41
1
10
9.23928945960978
20
0.508584023794356
30
0
41
1
10
9.25784879261886
20
0.538807636755706
30
0
41
1
10
9.26783108078692
20
0.553338234888344
30
0
41
1
10
9.28413180526175
20
0.57402081568631
30
0
41
1
10
9.28978795007347
20
0.580728273722229
30
0
41
1
10
9.30161599161482
20
0.593707597162563
30
0
41
1
10
9.30778273311574
20
0.599967833067581
30
0
41
1
10
9.32682188291102
20
0.617656102769502
30
0
41
1
10
9.34032118522924
20
0.628118351721611
30
0
41
1
10
9.36211504558247
20
0.641217446067458
30
0
41
1
10
9.36960696905538
20
0.645118686857444
30
0
41
1
10
9.38476274670964
20
0.651756476004806
30
0
41
1
10
9.3924680148221
20
0.654519275611335
30
0
41
1
10
9.4081462758904
20
0.658858096078404
30
0
41
1
10
9.41618452951514
20
0.660439517926307
30
0
41
1
10
9.4321979437436
20
0.662282103506669
30
0
41
1
10
9.44809137573341
20
0.662823045641204
30
0
41
1
10
9.46375151097178
20
0.660883639205707
30
0
41
1
10
9.47929745950287
20
0.657741892843688
30
0
41
1
10
9.48698919667834
20
0.655568938469798
30
0
41
1
10
9.49449100686905
20
0.652870758576341
30
0
0
SPLINE
5
11F
100
AcDbEntity
8
1
62
256
6
ByLayer
370
18
48
1
60
0
100
AcDbSpline
70
4
71
3
72
8
73
4
40
0
40
0
40
0
40
0
40
1
40
1
40
1
40
1
41
1
10
10.1596046765903
20
1.76886861437993
30
0
41
1
10
10.1558752024789
20
1.7744136881866
30
0
41
1
10
10.1521458665797
20
1.77995855649601
30
0
41
1
10
10.1484166657033
20
1.78550322405016
30
0
0
SPLINE
5
120
100
AcDbEntity
8
1
62
256
6
ByLayer
370
18
48
1
60
0
100
AcDbSpline
70
4
71
3
72
35
73
31
40
0
40
0
40
0
40
0
40
0.124999999999998
40
0.124999999999998
40
0.249999999999996
40
0.249999999999996
40
0.374999999999993
40
0.374999999999993
40
0.499999999999991
40
0.499999999999991
40
0.56249999999999
40
0.56249999999999
40
0.624999999999988
40
0.624999999999988
40
0.687499999999986
40
0.687499999999986
40
0.718749999999985
40
0.718749999999985
40
0.749999999999983
40
0.749999999999983
40
0.812499999999988
40
0.812499999999988
40
0.843749999999988
40
0.843749999999988
40
0.874999999999988
40
0.906249999999988
40
0.906249999999988
40
0.937499999999988
40
0.937499999999988
40
1
40
1
40
1
40
1
41
1
10
10.5297976491678
20
2.43067350080173
30
0
41
1
10
10.4982580084859
20
2.4124640807639
30
0
41
1
10
10.4674013488904
20
2.39300689168624
30
0
41
1
10
10.4073535481898
20
2.35166810484543
30
0
41
1
10
10.3782358660324
20
2.3298441914514
30
0
41
1
10
10.3219937836745
20
2.28366275865042
30
0
41
1
10
10.2948591510065
20
2.25929398606323
30
0
41
1
10
10.2433931240233
20
2.20791994198319
30
0
41
1
10
10.2190385882664
20
2.18090729895442
30
0
41
1
10
10.1855623216061
20
2.13822035386701
30
0
41
1
10
10.1749326385392
20
2.12364981553128
30
0
41
1
10
10.1549354183917
20
2.09370204398058
30
0
41
1
10
10.1455959358443
20
2.07835899541439
30
0
41
1
10
10.1287049956928
20
2.04712857749325
30
0
41
1
10
10.1211217148387
20
2.03120195120746
30
0
41
1
10
10.1113845811408
20
2.00673326821771
30
0
41
1
10
10.1084135248149
20
1.998480024125
30
0
41
1
10
10.103109274001
20
1.98175059729888
30
0
41
1
10
10.1007777170125
20
1.97326441519709
30
0
41
1
10
10.0950084538544
20
1.94789905828844
30
0
41
1
10
10.0927278452036
20
1.93097009944097
30
0
41
1
10
10.0923305426242
20
1.90556495634974
30
0
41
1
10
10.0927170315174
20
1.89711074162054
30
0
41
1
10
10.0945791033498
20
1.88070404363657
30
0
41
1
10
10.0975245304982
20
1.8646778647099
30
0
41
1
10
10.1027374878762
20
1.84945660494651
30
0
41
1
10
10.1091581190119
20
1.83466755170883
30
0
41
1
10
10.1129697099583
20
1.82753006183995
30
0
41
1
10
10.1257748361138
20
1.80753132181147
30
0
41
1
10
10.1362376088109
20
1.79580182629275
30
0
41
1
10
10.1484166657033
20
1.78550322405019
30
0
0
SPLINE
5
121
100
AcDbEntity
8
1
62
256
6
ByLayer
370
18
48
1
60
0
100
AcDbSpline
70
4
71
3
72
8
73
4
40
0
40
0
40
0
40
0
40
1
40
1
40
1
40
1
41
1
10
9.51449100686906
20
0.651498961765469
30
0
41
1
10
9.50782409503088
20
0.651956244185385
30
0
41
1
10
9.5011574302647
20
0.652413509658629
30
0
41
1
10
9.49449100686905
20
0.652870758576341
30
0
0
SPLINE
5
122
100
AcDbEntity
8
1
62
256
6
ByLayer
370
18
48
1
60
0
100
AcDbSpline
70
4
71
3
72
50
73
46
40
0
40
0
40
0
40
0
40
0.0312500000000009
40
0.0312500000000009
40
0.0468750000000022
40
0.0468750000000022
40
0.0625000000000036
40
0.0625000000000036
40
0.125000000000005
40
0.125000000000005
40
0.156250000000005
40
0.156250000000005
40
0.187500000000006
40
0.187500000000006
40
0.250000000000004
40
0.250000000000004
40
0.281250000000005
40
0.281250000000005
40
0.312500000000005
40
0.312500000000005
40
0.375000000000005
40
0.375000000000005
40
0.500000000000001
40
0.500000000000001
40
0.562500000000002
40
0.562500000000002
40
0.625000000000002
40
0.625000000000002
40
0.687500000000003
40
0.687500000000003
40
0.750000000000004
40
0.750000000000004
40
0.812500000000004
40
0.812500000000004
40
0.843750000000003
40
0.843750000000003
40
0.875000000000003
40
0.875000000000003
40
0.906250000000002
40
0.906250000000002
40
0.937500000000001
40
0.937500000000001
40
0.968750000000001
40
0.968750000000001
40
1
40
1
40
1
40
1
41
1
10
10.1596046765903
20
1.76886861437993
30
0
41
1
10
10.1673028212417
20
1.75742282363535
30
0
41
1
10
10.1737062589795
20
1.74525405452201
30
0
41
1
10
10.1817939473158
20
1.72614568520561
30
0
41
1
10
10.1842342891088
20
1.71963218716098
30
0
41
1
10
10.1886504899658
20
1.70634154822119
30
0
41
1
10
10.190630428135
20
1.69954493715642
30
0
41
1
10
10.1993751602368
20
1.6653064059665
30
0
41
1
10
10.2028446767774
20
1.63697052693044
30
0
41
1
10
10.2044474056832
20
1.59342734754873
30
0
41
1
10
10.2043593684651
20
1.57868949864144
30
0
41
1
10
10.2031130027039
20
1.54927099963646
30
0
41
1
10
10.2019589259947
20
1.53455451242499
30
0
41
1
10
10.1971168259559
20
1.49037223400848
30
0
41
1
10
10.1920619985428
20
1.46087341384163
30
0
41
1
10
10.1822129790489
20
1.41652167291466
30
0
41
1
10
10.1785391278935
20
1.40168796128918
30
0
41
1
10
10.1705124036065
20
1.37213480876599
30
0
41
1
10
10.1661740875328
20
1.35746210736008
30
0
41
1
10
10.1522642268578
20
1.31372586506464
30
0
41
1
10
10.1418032626981
20
1.28494221932201
30
0
41
1
10
10.1072295237117
20
1.19957002010384
30
0
41
1
10
10.0799809229694
20
1.14394031339108
30
0
41
1
10
10.0329657936411
20
1.06233070867063
30
0
41
1
10
10.0164137916884
20
1.03571612064917
30
0
41
1
10
9.9815541499357
20
0.983726864861325
30
0
41
1
10
9.96324206490968
20
0.958353086144427
30
0
41
1
10
9.92503445834652
20
0.90929280601992
30
0
41
1
10
9.90506156175138
20
0.885507567613359
30
0
41
1
10
9.86359214781214
20
0.840030092798258
30
0
41
1
10
9.84206079494322
20
0.818287346893356
30
0
41
1
10
9.79727368712867
20
0.777231279009698
30
0
41
1
10
9.77416833444386
20
0.758043713665927
30
0
41
1
10
9.7381623347386
20
0.731674531809659
30
0
41
1
10
9.7259122612767
20
0.723277400567497
30
0
41
1
10
9.70104989595379
20
0.707518280746285
30
0
41
1
10
9.68842686803049
20
0.700145378571591
30
0
41
1
10
9.66272217399654
20
0.686572296927608
30
0
41
1
10
9.64966324542152
20
0.680386705395847
30
0
41
1
10
9.62324087989694
20
0.669519889857526
30
0
41
1
10
9.60981251619577
20
0.664811567719454
30
0
41
1
10
9.58268625301059
20
0.657257480613566
30
0
41
1
10
9.56909988594313
20
0.654437105166949
30
0
41
1
10
9.54185629437694
20
0.65109092752374
30
0
41
1
10
9.52819925437089
20
0.650558715255215
30
0
41
1
10
9.51449100686906
20
0.651498961765469
30
0
0
LINE
5
84
100
AcDbEntity
8
81
62
256
6
ByLayer
370
18
48
1
60
0
100
AcDbLine
10
47.507968
20
3.0375
30
0
11
52.507968
21
3.0375
31
0
39
0
210
0
220
0
230
1
0
LINE
5
85
100
AcDbEntity
8
80
62
256
6
ByLayer
370
18
48
1
60
0
100
AcDbLine
10
0
20
0
30
0
11
-5
21
0
31
0
39
0
210
0
220
0
230
1
0
LINE
5
86
100
AcDbEntity
8
1
62
256
6
ByLayer
370
18
48
1
60
0
100
AcDbLine
10
39.914294
20
2.2125
30
0
11
42.126699
21
2.2125
31
0
39
0
210
0
220
0
230
1
0
LINE
5
87
100
AcDbEntity
8
1
62
256
6
ByLayer
370
18
48
1
60
0
100
AcDbLine
10
38.791807
20
-2.1375
30
0
11
39.914294
21
-2.1375
31
0
39
0
210
0
220
0
230
1
0
LINE
5
88
100
AcDbEntity
8
1
62
256
6
ByLayer
370
18
48
1
60
0
100
AcDbLine
10
38.791807
20
2.2125
30
0
11
39.914294
21
2.2125
31
0
39
0
210
0
220
0
230
1
0
LINE
5
89
100
AcDbEntity
8
1
62
256
6
ByLayer
370
18
48
1
60
0
100
AcDbLine
10
39.91416
20
2.137491
30
0
11
39.914294
21
2.2125
31
0
39
0
210
0
220
0
230
1
0
LINE
5
8A
100
AcDbEntity
8
1
62
256
6
ByLayer
370
18
48
1
60
0
100
AcDbLine
10
39.914294
20
-2.1375
30
0
11
42.126699
21
-2.1375
31
0
39
0
210
0
220
0
230
1
0
LINE
5
8B
100
AcDbEntity
8
1
62
256
6
ByLayer
370
18
48
1
60
0
100
AcDbLine
10
39.914294
20
-2.1375
30
0
11
39.91416
21
-2.062491
31
0
39
0
210
0
220
0
230
1
0
LINE
5
8C
100
AcDbEntity
8
1
62
256
6
ByLayer
370
18
48
1
60
0
100
AcDbLine
10
0
20
12.4625
30
0
11
13.90602
21
12.4625
31
0
39
0
210
0
220
0
230
1
0
LINE
5
8D
100
AcDbEntity
8
1
62
256
6
ByLayer
370
18
48
1
60
0
100
AcDbLine
10
0
20
12.4625
30
0
11
0
21
-12.4625
31
0
39
0
210
0
220
0
230
1
0
LINE
5
8E
100
AcDbEntity
8
1
62
256
6
ByLayer
370
18
48
1
60
0
100
AcDbLine
10
0
20
-12.4625
30
0
11
13.853505
21
-12.4625
31
0
39
0
210
0
220
0
230
1
0
LINE
5
8F
100
AcDbEntity
8
1
62
256
6
ByLayer
370
18
48
1
60
0
100
AcDbLine
10
38.791842
20
2.2125
30
0
11
35.607968
21
2.2125
31
0
39
0
210
0
220
0
230
1
0
LINE
5
90
100
AcDbEntity
8
1
62
256
6
ByLayer
370
18
48
1
60
0
100
AcDbLine
10
38.791842
20
-2.1375
30
0
11
35.607968
21
-2.1375
31
0
39
0
210
0
220
0
230
1
0
LINE
5
91
100
AcDbEntity
8
1
62
256
6
ByLayer
370
18
48
1
60
0
100
AcDbLine
10
39.307968
20
0.312469
30
0
11
39.307968
21
-0.237469
31
0
39
0
210
0
220
0
230
1
0
LINE
5
92
100
AcDbEntity
8
1
62
256
6
ByLayer
370
18
48
1
60
0
100
AcDbLine
10
26.774508
20
2.2125
30
0
11
25.507968
21
2.2125
31
0
39
0
210
0
220
0
230
1
0
LINE
5
93
100
AcDbEntity
8
1
62
256
6
ByLayer
370
18
48
1
60
0
100
AcDbLine
10
18.545175
20
-5.7621
30
0
11
13.853505
21
-12.4625
31
0
39
0
210
0
220
0
230
1
0
LINE
5
94
100
AcDbEntity
8
1
62
256
6
ByLayer
370
18
48
1
60
0
100
AcDbLine
10
26.774508
20
-2.1375
30
0
11
25.507968
21
-2.1375
31
0
39
0
210
0
220
0
230
1
0
LINE
5
95
100
AcDbEntity
8
1
62
256
6
ByLayer
370
18
48
1
60
0
100
AcDbLine
10
18.545175
20
5.8371
30
0
11
13.90602
21
12.4625
31
0
39
0
210
0
220
0
230
1
0
LINE
5
96
100
AcDbEntity
8
1
62
256
6
ByLayer
370
18
48
1
60
0
100
AcDbLine
10
35.607968
20
2.2125
30
0
11
26.774508
21
2.2125
31
0
39
0
210
0
220
0
230
1
0
LINE
5
97
100
AcDbEntity
8
1
62
256
6
ByLayer
370
18
48
1
60
0
100
AcDbLine
10
26.774508
20
-2.1375
30
0
11
26.774508
21
2.2125
31
0
39
0
210
0
220
0
230
1
0
LINE
5
98
100
AcDbEntity
8
1
62
256
6
ByLayer
370
18
48
1
60
0
100
AcDbLine
10
35.607968
20
-2.1375
30
0
11
26.774508
21
-2.1375
31
0
39
0
210
0
220
0
230
1
0
LINE
5
99
100
AcDbEntity
8
1
62
256
6
ByLayer
370
18
48
1
60
0
100
AcDbLine
10
35.607968
20
2.2125
30
0
11
35.607968
21
-2.1375
31
0
39
0
210
0
220
0
230
1
0
LINE
5
9A
100
AcDbEntity
8
1
62
256
6
ByLayer
370
18
48
1
60
0
100
AcDbLine
10
41.048628
20
-2.0625
30
0
11
41.896511
21
-2.0625
31
0
39
0
210
0
220
0
230
1
0
LINE
5
9B
100
AcDbEntity
8
1
62
256
6
ByLayer
370
18
48
1
60
0
100
AcDbLine
10
41.048628
20
2.1375
30
0
11
41.896511
21
2.1375
31
0
39
0
210
0
220
0
230
1
0
LINE
5
9C
100
AcDbEntity
8
1
62
256
6
ByLayer
370
18
48
1
60
0
100
AcDbLine
10
40.518298
20
2.1375
30
0
11
41.048628
21
2.1375
31
0
39
0
210
0
220
0
230
1
0
LINE
5
9D
100
AcDbEntity
8
1
62
256
6
ByLayer
370
13
48
1
60
0
100
AcDbLine
10
41.048628
20
2.1375
30
0
11
41.048628
21
0.0375
31
0
39
0
210
0
220
0
230
1
0
LINE
5
9E
100
AcDbEntity
8
1
62
256
6
ByLayer
370
18
48
1
60
0
100
AcDbLine
10
40.518298
20
-2.0625
30
0
11
41.048628
21
-2.0625
31
0
39
0
210
0
220
0
230
1
0
LINE
5
9F
100
AcDbEntity
8
1
62
256
6
ByLayer
370
18
48
1
60
0
100
AcDbLine
10
40.518298
20
0.0375
30
0
11
41.048628
21
0.0375
31
0
39
0
210
0
220
0
230
1
0
LINE
5
A0
100
AcDbEntity
8
1
62
256
6
ByLayer
370
13
48
1
60
0
100
AcDbLine
10
41.048628
20
-2.0625
30
0
11
41.048628
21
0.0375
31
0
39
0
210
0
220
0
230
1
0
LINE
5
A1
100
AcDbEntity
8
1
62
256
6
ByLayer
370
13
48
1
60
0
100
AcDbLine
10
39.307894
20
0.0575
30
0
11
40.045829
21
0.0575
31
0
39
0
210
0
220
0
230
1
0
LINE
5
A2
100
AcDbEntity
8
1
62
256
6
ByLayer
370
13
48
1
60
0
100
AcDbLine
10
39.307894
20
0.0175
30
0
11
40.045829
21
0.0175
31
0
39
0
210
0
220
0
230
1
0
LINE
5
A3
100
AcDbEntity
8
1
62
256
6
ByLayer
370
13
48
1
60
0
100
AcDbLine
10
39.307908
20
-0.173236
30
0
11
40.036914
21
-0.173236
31
0
39
0
210
0
220
0
230
1
0
LINE
5
A4
100
AcDbEntity
8
1
62
256
6
ByLayer
370
13
48
1
60
0
100
AcDbLine
10
39.307908
20
0.248236
30
0
11
40.036914
21
0.248236
31
0
39
0
210
0
220
0
230
1
0
LINE
5
A5
100
AcDbEntity
8
1
62
256
6
ByLayer
370
13
48
1
60
0
100
AcDbLine
10
39.201779
20
0.465233
30
0
11
39.856913
21
0.465233
31
0
39
0
210
0
220
0
230
1
0
LINE
5
A6
100
AcDbEntity
8
1
62
256
6
ByLayer
370
13
48
1
60
0
100
AcDbLine
10
39.201779
20
-0.390233
30
0
11
39.856913
21
-0.390233
31
0
39
0
210
0
220
0
230
1
0
LINE
5
A7
100
AcDbEntity
8
1
62
256
6
ByLayer
370
13
48
1
60
0
100
AcDbLine
10
39.698086
20
0.520585
30
0
11
39.077967
21
0.520585
31
0
39
0
210
0
220
0
230
1
0
LINE
5
A8
100
AcDbEntity
8
1
62
256
6
ByLayer
370
13
48
1
60
0
100
AcDbLine
10
39.698086
20
-0.445585
30
0
11
39.077967
21
-0.445585
31
0
39
0
210
0
220
0
230
1
0
LINE
5
A9
100
AcDbEntity
8
1
62
256
6
ByLayer
370
13
48
1
60
0
100
AcDbLine
10
39.038135
20
0.551388
30
0
11
39.65749
21
0.551388
31
0
39
0
210
0
220
0
230
1
0
LINE
5
AA
100
AcDbEntity
8
1
62
256
6
ByLayer
370
13
48
1
60
0
100
AcDbLine
10
39.038135
20
-0.476388
30
0
11
39.65749
21
-0.476388
31
0
39
0
210
0
220
0
230
1
0
LINE
5
AB
100
AcDbEntity
8
1
62
256
6
ByLayer
370
13
48
1
60
0
100
AcDbLine
10
39.02458
20
0.643165
30
0
11
39.585659
21
0.643165
31
0
39
0
210
0
220
0
230
1
0
LINE
5
AC
100
AcDbEntity
8
1
62
256
6
ByLayer
370
13
48
1
60
0
100
AcDbLine
10
39.02458
20
-0.568165
30
0
11
39.585659
21
-0.568165
31
0
39
0
210
0
220
0
230
1
0
LINE
5
AD
100
AcDbEntity
8
1
62
256
6
ByLayer
370
13
48
1
60
0
100
AcDbLine
10
39.018227
20
0.687434
30
0
11
39.565926
21
0.687434
31
0
39
0
210
0
220
0
230
1
0
LINE
5
AE
100
AcDbEntity
8
1
62
256
6
ByLayer
370
13
48
1
60
0
100
AcDbLine
10
39.018072
20
-0.612434
30
0
11
39.565926
21
-0.612434
31
0
39
0
210
0
220
0
230
1
0
LINE
5
AF
100
AcDbEntity
8
1
62
256
6
ByLayer
370
13
48
1
60
0
100
AcDbLine
10
38.842329
20
1.878884
30
0
11
39.355842
21
1.878884
31
0
39
0
210
0
220
0
230
1
0
LINE
5
B0
100
AcDbEntity
8
1
62
256
6
ByLayer
370
13
48
1
60
0
100
AcDbLine
10
38.839757
20
1.896249
30
0
11
39.354121
21
1.896249
31
0
39
0
210
0
220
0
230
1
0
LINE
5
B1
100
AcDbEntity
8
1
62
256
6
ByLayer
370
18
48
1
60
0
100
AcDbLine
10
38.803152
20
2.1375
30
0
11
39.354322
21
2.1375
31
0
39
0
210
0
220
0
230
1
0
LINE
5
B2
100
AcDbEntity
8
1
62
256
6
ByLayer
370
18
48
1
60
0
100
AcDbLine
10
40.518298
20
2.1375
30
0
11
39.354322
21
2.1375
31
0
39
0
210
0
220
0
230
1
0
LINE
5
B3
100
AcDbEntity
8
1
62
256
6
ByLayer
370
18
48
1
60
0
100
AcDbLine
10
39.354322
20
2.1375
30
0
11
39.354322
21
1.896214
31
0
39
0
210
0
220
0
230
1
0
LINE
5
B4
100
AcDbEntity
8
1
62
256
6
ByLayer
370
18
48
1
60
0
100
AcDbLine
10
39.355842
20
1.878884
30
0
11
39.565926
21
0.687434
31
0
39
0
210
0
220
0
230
1
0
LINE
5
B5
100
AcDbEntity
8
1
62
256
6
ByLayer
370
18
48
1
60
0
100
AcDbLine
10
39.585659
20
0.643165
30
0
11
39.65749
21
0.551388
31
0
39
0
210
0
220
0
230
1
0
LINE
5
B6
100
AcDbEntity
8
1
62
256
6
ByLayer
370
18
48
1
60
0
100
AcDbLine
10
40.045829
20
0.0575
30
0
11
40.045829
21
0.0175
31
0
39
0
210
0
220
0
230
1
0
LINE
5
B7
100
AcDbEntity
8
1
62
256
6
ByLayer
370
18
48
1
60
0
100
AcDbLine
10
39.585659
20
-0.568165
30
0
11
39.65749
21
-0.476388
31
0
39
0
210
0
220
0
230
1
0
LINE
5
B8
100
AcDbEntity
8
1
62
256
6
ByLayer
370
18
48
1
60
0
100
AcDbLine
10
39.355842
20
-1.803884
30
0
11
39.565926
21
-0.612434
31
0
39
0
210
0
220
0
230
1
0
LINE
5
B9
100
AcDbEntity
8
1
62
256
6
ByLayer
370
18
48
1
60
0
100
AcDbLine
10
40.518298
20
-2.0625
30
0
11
39.354322
21
-2.0625
31
0
39
0
210
0
220
0
230
1
0
LINE
5
BA
100
AcDbEntity
8
1
62
256
6
ByLayer
370
13
48
1
60
0
100
AcDbLine
10
40.518298
20
-2.0625
30
0
11
40.518298
21
0.0375
31
0
39
0
210
0
220
0
230
1
0
LINE
5
BB
100
AcDbEntity
8
1
62
256
6
ByLayer
370
13
48
1
60
0
100
AcDbLine
10
40.518298
20
2.1375
30
0
11
40.518298
21
0.0375
31
0
39
0
210
0
220
0
230
1
0
LINE
5
BC
100
AcDbEntity
8
1
62
256
6
ByLayer
370
18
48
1
60
0
100
AcDbLine
10
38.803152
20
-2.0625
30
0
11
39.354322
21
-2.0625
31
0
39
0
210
0
220
0
230
1
0
LINE
5
BD
100
AcDbEntity
8
1
62
256
6
ByLayer
370
18
48
1
60
0
100
AcDbLine
10
39.354322
20
-2.0625
30
0
11
39.354322
21
-1.821214
31
0
39
0
210
0
220
0
230
1
0
LINE
5
BE
100
AcDbEntity
8
1
62
256
6
ByLayer
370
13
48
1
60
0
100
AcDbLine
10
38.839757
20
-1.821249
30
0
11
39.354121
21
-1.821249
31
0
39
0
210
0
220
0
230
1
0
LINE
5
BF
100
AcDbEntity
8
1
62
256
6
ByLayer
370
13
48
1
60
0
100
AcDbLine
10
38.842478
20
-1.803884
30
0
11
39.355842
21
-1.803884
31
0
39
0
210
0
220
0
230
1
0
LINE
5
C0
100
AcDbEntity
8
SK1
62
256
6
ByLayer
370
18
48
1
60
0
100
AcDbLine
10
-81
20
12.4625
30
0
11
-9.66689
21
12.4625
31
0
39
0
210
0
220
0
230
1
0
LINE
5
C2
100
AcDbEntity
8
SK1
62
256
6
ByLayer
370
18
48
1
60
0
100
AcDbLine
10
-81
20
-12.4625
30
0
11
-9.66689
21
-12.4625
31
0
39
0
210
0
220
0
230
1
0
LINE
5
C3
100
AcDbEntity
8
SK1
62
256
6
ByLayer
370
18
48
1
60
0
100
AcDbLine
10
-81
20
12.4625
30
0
11
-84
21
9.4625
31
0
39
0
210
0
220
0
230
1
0
LINE
5
C4
100
AcDbEntity
8
SK1
62
256
6
ByLayer
370
18
48
1
60
0
100
AcDbLine
10
-84
20
9.4625
30
0
11
-84
21
-9.4625
31
0
39
0
210
0
220
0
230
1
0
LINE
5
C5
100
AcDbEntity
8
SK1
62
256
6
ByLayer
370
18
48
1
60
0
100
AcDbLine
10
-81
20
-12.4625
30
0
11
-84
21
-9.4625
31
0
39
0
210
0
220
0
230
1
0
LINE
5
C6
100
AcDbEntity
8
SK1
62
256
6
ByLayer
370
18
48
1
60
0
100
AcDbLine
10
-9.66689
20
12.4625
30
0
11
-4.729504
21
12.4625
31
0
39
0
210
0
220
0
230
1
0
LINE
5
C7
100
AcDbEntity
8
SK1
62
256
6
ByLayer
370
18
48
1
60
0
100
AcDbLine
10
-9.66689
20
-12.4625
30
0
11
-4.729504
21
-12.4625
31
0
39
0
210
0
220
0
230
1
0
LINE
5
C8
100
AcDbEntity
8
SK1
62
256
6
ByLayer
370
18
48
1
60
0
100
AcDbLine
10
-9.66689
20
12.4625
30
0
11
-9.66689
21
-12.4625
31
0
39
0
210
0
220
0
230
1
0
LINE
5
C9
100
AcDbEntity
8
SK1
62
256
6
ByLayer
370
18
48
1
60
0
100
AcDbLine
10
-4.729504
20
-12.4625
30
0
11
-2.652508
21
-12.4625
31
0
39
0
210
0
220
0
230
1
0
LINE
5
CA
100
AcDbEntity
8
SK1
62
256
6
ByLayer
370
18
48
1
60
0
100
AcDbLine
10
-4.729504
20
12.4625
30
0
11
-2.652508
21
12.4625
31
0
39
0
210
0
220
0
230
1
0
LINE
5
CB
100
AcDbEntity
8
SK1
62
256
6
ByLayer
370
13
48
1
60
0
100
AcDbLine
10
-4.729504
20
-12.4625
30
0
11
-4.729504
21
12.4625
31
0
39
0
210
0
220
0
230
1
0
LINE
5
CC
100
AcDbEntity
8
SK1
62
256
6
ByLayer
370
18
48
1
60
0
100
AcDbLine
10
0
20
12.4625
30
0
11
0
21
-12.4625
31
0
39
0
210
0
220
0
230
1
0
LINE
5
CD
100
AcDbEntity
8
SK1
62
256
6
ByLayer
370
18
48
1
60
0
100
AcDbLine
10
-2.652508
20
12.4625
30
0
11
0
21
12.4625
31
0
39
0
210
0
220
0
230
1
0
LINE
5
CE
100
AcDbEntity
8
SK1
62
256
6
ByLayer
370
18
48
1
60
0
100
AcDbLine
10
-2.652508
20
12.4625
30
0
11
-2.652508
21
-12.4625
31
0
39
0
210
0
220
0
230
1
0
LINE
5
CF
100
AcDbEntity
8
SK1
62
256
6
ByLayer
370
18
48
1
60
0
100
AcDbLine
10
-2.652508
20
-12.4625
30
0
11
0
21
-12.4625
31
0
39
0
210
0
220
0
230
1
0
MTEXT
5
123
100
AcDbEntity
8
SK6
62
256
6
ByLayer
370
18
48
1
60
0
100
AcDbMText
10
-50.560516
20
-54.217366
30
0
210
0
220
0
230
1
1
\W0.7852;C2T-QS25-NJ22BB
40
3.5
41
0
44
1.084337
50
0
71
7
72
5
7
iso_b_vert
0
DIMENSION
5
128
100
AcDbEntity
8
2
62
256
6
ByLayer
370
18
48
1
60
0
100
AcDbDimension
2
_U0
10
80.607968
20
-12.4625
30
0
11
80.607968
21
-4.7125
31
0
70
32
71
1
72
1
41
1
210
0
220
0
230
1
3
Standard
100
AcDbAlignedDimension
13
47.507968
23
3.0375
33
0
14
0
24
-12.4625
34
0
50
90
100
AcDbRotatedDimension
1001
ACAD
1000
DSTYLE
1002
{
1070
   371
1070
    13
1070
   372
1070
    13
1070
   170
1070
     0
1070
   144
1040
1.0
1070
   277
1070
     2
1070
   284
1070
     8
1070
   278
1070
    46
1070
   146
1040
1.0
1070
   345
1005
16
1070
   347
1005
16
1070
   346
1005
16
1070
   344
1005
0
1070
   343
1005
0
1070
   172
1070
     1
1070
    76
1070
     0
1070
    75
1070
     0
1070
   282
1070
     0
1070
   281
1070
     0
1070
    71
1070
     0
1070
    74
1070
     0
1070
   279
1070
     0
1070
   173
1070
     1
1070
   340
1005
124
1070
   271
1070
     2
1070
   272
1070
     2
1070
    77
1070
     1
1070
    73
1070
     0
1070
   171
1070
     3
1070
   274
1070
     4
1070
   177
1070
     2
1070
   176
1070
     2
1070
   178
1070
     2
1070
    78
1070
     8
1070
    48
1040
-0.1
1070
    41
1040
3.5
1070
   147
1040
1.75
1070
    42
1040
1.5875
1070
    44
1040
2.0
1070
   140
1040
3.5
1002
}
1001
ACAD_DSTYLE_DIM_LINETYPE
1070
   380
1005
16
1001
ACAD_DSTYLE_DIM_EXT1_LINETYPE
1070
   381
1005
16
1001
ACAD_DSTYLE_DIM_EXT2_LINETYPE
1070
   382
1005
16
0
DIMENSION
5
143
100
AcDbEntity
8
2
62
256
6
ByLayer
370
18
48
1
60
0
100
AcDbDimension
2
_U1
10
68.607968
20
3.0375
30
0
11
68.607968
21
0.0375
31
0
70
32
71
1
72
1
41
1
210
0
220
0
230
1
3
Standard
100
AcDbAlignedDimension
13
47.507968
23
-2.9625
33
0
14
47.507968
24
3.0375
34
0
50
90
100
AcDbRotatedDimension
1001
ACAD
1000
DSTYLE
1002
{
1070
   371
1070
    13
1070
   372
1070
    13
1070
   170
1070
     0
1070
   144
1040
1.0
1070
   277
1070
     2
1070
   284
1070
     8
1070
   278
1070
    46
1070
   146
1040
1.0
1070
   345
1005
16
1070
   347
1005
16
1070
   346
1005
16
1070
   344
1005
0
1070
   343
1005
0
1070
   172
1070
     1
1070
    76
1070
     0
1070
    75
1070
     0
1070
   282
1070
     0
1070
   281
1070
     0
1070
    71
1070
     0
1070
    74
1070
     0
1070
   279
1070
     0
1070
   173
1070
     1
1070
   340
1005
124
1070
   271
1070
     2
1070
   272
1070
     2
1070
    77
1070
     1
1070
    73
1070
     0
1070
   171
1070
     3
1070
   274
1070
     4
1070
   177
1070
     2
1070
   176
1070
     2
1070
   178
1070
     2
1070
    78
1070
     8
1070
    48
1040
-0.1
1070
    41
1040
3.5
1070
   147
1040
1.75
1070
    42
1040
1.5875
1070
    44
1040
2.0
1070
   140
1040
3.5
1002
}
1001
ACAD_DSTYLE_DIM_LINETYPE
1070
   380
1005
16
1001
ACAD_DSTYLE_DIM_EXT1_LINETYPE
1070
   381
1005
16
1001
ACAD_DSTYLE_DIM_EXT2_LINETYPE
1070
   382
1005
16
0
DIMENSION
5
15C
100
AcDbEntity
8
SK2
62
256
6
ByLayer
370
18
48
1
60
0
100
AcDbDimension
2
_U2
10
-95.6
20
12.5375
30
0
11
-95.6
21
0.0375
31
0
70
32
71
1
72
1
41
1
210
0
220
0
230
1
3
Standard
100
AcDbAlignedDimension
13
0
23
-12.4625
33
0
14
0
24
12.5375
34
0
50
90
100
AcDbRotatedDimension
1001
ACAD
1000
DSTYLE
1002
{
1070
   371
1070
    13
1070
   372
1070
    13
1070
   170
1070
     0
1070
   144
1040
1.0
1070
   277
1070
     2
1070
   284
1070
     8
1070
   278
1070
    46
1070
   146
1040
1.0
1070
   345
1005
16
1070
   347
1005
16
1070
   346
1005
16
1070
   344
1005
0
1070
   343
1005
0
1070
   172
1070
     1
1070
    76
1070
     0
1070
    75
1070
     0
1070
   282
1070
     0
1070
   281
1070
     0
1070
    71
1070
     0
1070
    74
1070
     0
1070
   279
1070
     0
1070
   173
1070
     1
1070
   340
1005
124
1070
   271
1070
     2
1070
   272
1070
     2
1070
    77
1070
     1
1070
    73
1070
     0
1070
   171
1070
     3
1070
   274
1070
     4
1070
   177
1070
     2
1070
   176
1070
     2
1070
   178
1070
     2
1070
    78
1070
     8
1070
    48
1040
-0.1
1070
    41
1040
3.5
1070
   147
1040
1.75
1070
    42
1040
1.5875
1070
    44
1040
2.0
1070
   140
1040
3.5
1002
}
1001
ACAD_DSTYLE_DIM_LINETYPE
1070
   380
1005
16
1001
ACAD_DSTYLE_DIM_EXT1_LINETYPE
1070
   381
1005
16
1001
ACAD_DSTYLE_DIM_EXT2_LINETYPE
1070
   382
1005
16
0
DIMENSION
5
175
100
AcDbEntity
8
2
62
256
6
ByLayer
370
18
48
1
60
0
100
AcDbDimension
2
_U3
10
47.507968
20
-22.2125
30
0
11
34.295558
21
-22.2125
31
0
70
32
71
1
72
1
41
1
210
0
220
0
230
1
3
Standard
100
AcDbAlignedDimension
13
21.083148
23
-2.1375
33
0
14
47.507968
24
3.0375
34
0
50
0
100
AcDbRotatedDimension
1001
ACAD
1000
DSTYLE
1002
{
1070
   371
1070
    13
1070
   372
1070
    13
1070
   170
1070
     0
1070
   144
1040
1.0
1070
   277
1070
     2
1070
   284
1070
     8
1070
   278
1070
    46
1070
   146
1040
1.0
1070
   345
1005
16
1070
   347
1005
16
1070
   346
1005
16
1070
   344
1005
0
1070
   343
1005
0
1070
   172
1070
     1
1070
    76
1070
     0
1070
    75
1070
     0
1070
   282
1070
     0
1070
   281
1070
     0
1070
    71
1070
     0
1070
    74
1070
     0
1070
   279
1070
     0
1070
   173
1070
     1
1070
   340
1005
124
1070
   271
1070
     1
1070
   272
1070
     2
1070
    77
1070
     1
1070
    73
1070
     1
1070
   171
1070
     3
1070
   274
1070
     4
1070
   177
1070
     2
1070
   176
1070
     2
1070
   178
1070
     2
1070
    78
1070
     8
1070
    48
1040
-0.1
1070
    41
1040
3.5
1070
   147
1040
1.75
1070
    42
1040
1.5875
1070
    44
1040
2.0
1070
   140
1040
3.5
1002
}
1001
ACAD_DSTYLE_DIM_LINETYPE
1070
   380
1005
16
1001
ACAD_DSTYLE_DIM_EXT1_LINETYPE
1070
   381
1005
16
1001
ACAD_DSTYLE_DIM_EXT2_LINETYPE
1070
   382
1005
16
0
DIMENSION
5
18D
100
AcDbEntity
8
SK2
62
256
6
ByLayer
370
18
48
1
60
0
100
AcDbDimension
2
_U4
10
47.507968
20
-33.2125
30
0
11
-18.246016
21
-33.2125
31
0
70
32
71
1
72
1
41
1
210
0
220
0
230
1
3
Standard
100
AcDbAlignedDimension
13
-84
23
-12.4625
33
0
14
47.507968
24
3.0375
34
0
50
0
100
AcDbRotatedDimension
1001
ACAD
1000
DSTYLE
1002
{
1070
   371
1070
    13
1070
   372
1070
    13
1070
   170
1070
     0
1070
   144
1040
1.0
1070
   277
1070
     2
1070
   284
1070
     8
1070
   278
1070
    46
1070
   146
1040
1.0
1070
   345
1005
16
1070
   347
1005
16
1070
   346
1005
16
1070
   344
1005
0
1070
   343
1005
0
1070
   172
1070
     1
1070
    76
1070
     0
1070
    75
1070
     0
1070
   282
1070
     0
1070
   281
1070
     0
1070
    71
1070
     0
1070
    74
1070
     0
1070
   279
1070
     0
1070
   173
1070
     1
1070
   340
1005
124
1070
   271
1070
     1
1070
   272
1070
     2
1070
    77
1070
     1
1070
    73
1070
     1
1070
   171
1070
     3
1070
   274
1070
     4
1070
   177
1070
     2
1070
   176
1070
     2
1070
   178
1070
     2
1070
    78
1070
     8
1070
    48
1040
-0.1
1070
    41
1040
3.5
1070
   147
1040
1.75
1070
    42
1040
1.5875
1070
    44
1040
2.0
1070
   140
1040
3.5
1002
}
1001
ACAD_DSTYLE_DIM_LINETYPE
1070
   380
1005
16
1001
ACAD_DSTYLE_DIM_EXT1_LINETYPE
1070
   381
1005
16
1001
ACAD_DSTYLE_DIM_EXT2_LINETYPE
1070
   382
1005
16
0
DIMENSION
5
1A5
100
AcDbEntity
8
2
62
256
6
ByLayer
370
18
48
1
60
0
100
AcDbDimension
2
_U5
10
47.507968
20
-30.2125
30
0
11
23.753984
21
-30.2125
31
0
70
32
71
1
72
1
41
1
210
0
220
0
230
1
3
Standard
100
AcDbAlignedDimension
13
0
23
-12.4625
33
0
14
47.507968
24
3.0375
34
0
50
0
100
AcDbRotatedDimension
1001
ACAD
1000
DSTYLE
1002
{
1070
   371
1070
    13
1070
   372
1070
    13
1070
   170
1070
     0
1070
   144
1040
1.0
1070
   277
1070
     2
1070
   284
1070
     8
1070
   278
1070
    46
1070
   146
1040
1.0
1070
   345
1005
16
1070
   347
1005
16
1070
   346
1005
16
1070
   344
1005
0
1070
   343
1005
0
1070
   172
1070
     1
1070
    76
1070
     0
1070
    75
1070
     0
1070
   282
1070
     0
1070
   281
1070
     0
1070
    71
1070
     0
1070
    74
1070
     0
1070
   279
1070
     0
1070
   173
1070
     1
1070
   340
1005
124
1070
   271
1070
     1
1070
   272
1070
     2
1070
    77
1070
     1
1070
    73
1070
     1
1070
   171
1070
     3
1070
   274
1070
     4
1070
   177
1070
     2
1070
   176
1070
     2
1070
   178
1070
     2
1070
    78
1070
     8
1070
    48
1040
-0.1
1070
    41
1040
3.5
1070
   147
1040
1.75
1070
    42
1040
1.5875
1070
    44
1040
2.0
1070
   140
1040
3.5
1002
}
1001
ACAD_DSTYLE_DIM_LINETYPE
1070
   380
1005
16
1001
ACAD_DSTYLE_DIM_EXT1_LINETYPE
1070
   381
1005
16
1001
ACAD_DSTYLE_DIM_EXT2_LINETYPE
1070
   382
1005
16
0
DIMENSION
5
1BD
100
AcDbEntity
8
SK2
62
256
6
ByLayer
370
18
48
1
60
0
100
AcDbDimension
2
_U6
10
-81
20
-22.2125
30
0
11
-82.5
21
-22.2125
31
0
70
32
71
1
72
1
41
1
210
0
220
0
230
1
3
Standard
100
AcDbAlignedDimension
13
-84
23
-12.4625
33
0
14
-81
24
-12.4625
34
0
50
0
100
AcDbRotatedDimension
1001
ACAD
1000
DSTYLE
1002
{
1070
   371
1070
    13
1070
   372
1070
    13
1070
   170
1070
     0
1070
   144
1040
1.0
1070
   277
1070
     2
1070
   284
1070
     8
1070
   278
1070
    46
1070
   146
1040
1.0
1070
   345
1005
16
1070
   347
1005
16
1070
   346
1005
16
1070
   344
1005
0
1070
   343
1005
0
1070
   172
1070
     1
1070
    76
1070
     0
1070
    75
1070
     0
1070
   282
1070
     0
1070
   281
1070
     0
1070
    71
1070
     0
1070
    74
1070
     0
1070
   279
1070
     0
1070
   173
1070
     1
1070
   340
1005
124
1070
   271
1070
     2
1070
   272
1070
     2
1070
    77
1070
     1
1070
    73
1070
     1
1070
   171
1070
     3
1070
   274
1070
     4
1070
   177
1070
     2
1070
   176
1070
     2
1070
   178
1070
     2
1070
    78
1070
     8
1070
    48
1040
-0.1
1070
    41
1040
3.5
1070
   147
1040
1.75
1070
    42
1040
1.5875
1070
    44
1040
2.0
1070
   140
1040
3.5
1002
}
1001
ACAD_DSTYLE_DIM_LINETYPE
1070
   380
1005
16
1001
ACAD_DSTYLE_DIM_EXT1_LINETYPE
1070
   381
1005
16
1001
ACAD_DSTYLE_DIM_EXT2_LINETYPE
1070
   382
1005
16
0
ENDSEC
0
SECTION
2
OBJECTS
0
DICTIONARY
5
245
330
0
100
AcDbDictionary
280
0
281
1
3
ACAD_GROUP
350
246
3
ACAD_MLINESTYLE
350
247
0
DICTIONARY
5
246
330
0
100
AcDbDictionary
280
0
281
1
0
DICTIONARY
5
247
330
0
100
AcDbDictionary
280
0
281
1
3
Standard
350
18
0
MLINESTYLE
5
18
330
247
100
AcDbMlineStyle
2
Standard
70
0
3

62
256
51
90
52
90
71
2
49
-0.5
62
256
6
ByLayer
49
0.5
62
256
6
ByLayer
0
RASTERVARIABLES
5
234
330

100
AcDbRasterVariables
90
0
70
1
71
1
72
1
0
ENDSEC
0
EOF
