0
SECTION
2
HEADER
9
$ACADVER
1
AC1015
9
$DWGCODEPAGE
3
ANSI_1252
9
$HANDSEED
5
243
9
$ANGBASE
50
0
9
$ANGDIR
70
0
9
$ATTMODE
70
1
9
$AUNITS
70
0
9
$AUPREC
70
0
9
$CECOLOR
62
256
9
$CELTSCALE
40
1
9
$CELTYPE
6
ByLayer
9
$CELWEIGHT
370
18
9
$CLAYER
8
0
9
$CMLJUST
70
0
9
$CMLSCALE
40
1
9
$CMLSTYLE
2
Standard
9
$DIMSTYLE
2
Standard
9
$TEXTSIZE
40
0.2
9
$TEXTSTYLE
7
Standard
9
$LUNITS
70
2
9
$LUPREC
70
4
9
$EXTNAMES
290
1
9
$INSUNITS
70
4
9
$LTSCALE
40
1
9
$LWDISPLAY
290
1
9
$PDMODE
70
0
9
$PDSIZE
40
0
9
$PLINEGEN
70
0
0
ENDSEC
0
SECTION
2
CLASSES
0
CLASS
1
RASTERVARIABLES
2
AcDbRasterVariables
3
ISM
90
0
280
0
281
0
0
ENDSEC
0
SECTION
2
TABLES
0
TABLE
2
VPORT
5
239
100
AcDbSymbolTable
0
VPORT
5
1
100
AcDbSymbolTableRecord
100
AcDbViewportTableRecord
2
*Active
70
0
10
0
20
0
11
1
21
1
12
-1
22
1
13
0
23
0
14
0.5
24
0.5
15
10
25
10
16
0
26
0
36
1
17
0
27
0
37
0
0
ENDTAB
0
TABLE
2
LTYPE
5
23a
100
AcDbSymbolTable
0
LTYPE
5
14
100
AcDbSymbolTableRecord
100
AcDbLinetypeTableRecord
70
0
2
ByBlock
3

72
65
73
0
40
0
0
LTYPE
5
15
100
AcDbSymbolTableRecord
100
AcDbLinetypeTableRecord
70
0
2
ByLayer
3

72
65
73
0
40
0
0
LTYPE
5
16
100
AcDbSymbolTableRecord
100
AcDbLinetypeTableRecord
70
0
2
Continuous
3
Solid line
72
65
73
0
40
0
0
LTYPE
5
6E
100
AcDbSymbolTableRecord
100
AcDbLinetypeTableRecord
70
0
2
CENTER
3
____ _ ____ _ ____ _ ____
72
65
73
4
40
47.5
49
22
74
0
49
-8.5
74
0
49
8.5
74
0
49
-8.5
74
0
0
LTYPE
5
6F
100
AcDbSymbolTableRecord
100
AcDbLinetypeTableRecord
70
0
2
DASHED
3
__ __ __ __ __ __ __ __ __
72
65
73
2
40
25.72
49
12.86
74
0
49
-12.86
74
0
0
ENDTAB
0
TABLE
2
LAYER
5
23b
100
AcDbSymbolTable
0
LAYER
5
10
100
AcDbSymbolTableRecord
100
AcDbLayerTableRecord
2
0
70
0
62
7
6
Continuous
290
1
370
-3
390
0
0
LAYER
5
71
100
AcDbSymbolTableRecord
100
AcDbLayerTableRecord
2
1
70
0
62
4
6
Continuous
290
1
370
-3
390
0
0
LAYER
5
73
100
AcDbSymbolTableRecord
100
AcDbLayerTableRecord
2
81
70
0
62
-3
6
Continuous
290
1
370
-3
390
0
0
LAYER
5
75
100
AcDbSymbolTableRecord
100
AcDbLayerTableRecord
2
80
70
0
62
-6
6
Continuous
290
1
370
-3
390
0
0
LAYER
5
11C
100
AcDbSymbolTableRecord
100
AcDbLayerTableRecord
2
Defpoints
70
0
62
7
6
Continuous
290
0
370
-3
390
0
0
LAYER
5
12A
100
AcDbSymbolTableRecord
100
AcDbLayerTableRecord
2
2
70
0
62
7
6
Continuous
290
1
370
-3
390
0
0
LAYER
5
226
100
AcDbSymbolTableRecord
100
AcDbLayerTableRecord
2
SK1
70
0
62
4
6
Continuous
290
1
370
-3
390
0
0
LAYER
5
227
100
AcDbSymbolTableRecord
100
AcDbLayerTableRecord
2
SK6
70
0
62
5
6
Continuous
290
1
370
-3
390
0
0
LAYER
5
228
100
AcDbSymbolTableRecord
100
AcDbLayerTableRecord
2
SK2
70
0
62
7
6
Continuous
290
1
370
-3
390
0
0
ENDTAB
0
TABLE
2
STYLE
5
23c
100
AcDbSymbolTable
0
STYLE
5
11
100
AcDbSymbolTableRecord
100
AcDbTextStyleTableRecord
2
Standard
3
txt
70
0
71
0
40
0
41
1
42
0
50
0
0
STYLE
5
115
100
AcDbSymbolTableRecord
100
AcDbTextStyleTableRecord
2
iso_b_vert
3
simplex.shx
70
0
71
0
40
0
41
1
42
0
50
0
0
STYLE
5
116
100
AcDbSymbolTableRecord
100
AcDbTextStyleTableRecord
2
DWGDirectTextStyle
3
simplex
70
0
71
0
40
0
41
1
42
0
50
0
0
ENDTAB
0
TABLE
2
DIMSTYLE
5
23d
100
AcDbSymbolTable
100
AcDbDimStyleTable
0
DIMSTYLE
105
27
100
AcDbSymbolTableRecord
100
AcDbDimStyleTableRecord
2
Standard
70
0
3
<>
41
0.18
42
0.0625
44
0.18
140
0.18
147
0.09
73
0
74
0
77
1
271
2
275
0
278
52
280
0
340
11
0
ENDTAB
0
TABLE
2
VIEW
5
23e
100
AcDbSymbolTable
0
ENDTAB
0
TABLE
2
UCS
5
23f
100
AcDbSymbolTable
0
ENDTAB
0
TABLE
2
APPID
5
240
100
AcDbSymbolTable
0
APPID
5
12
100
AcDbSymbolTableRecord
100
AcDbRegAppTableRecord
2
ACAD
70
0
0
APPID
5
118
100
AcDbSymbolTableRecord
100
AcDbRegAppTableRecord
2
ACAD_DSTYLE_DIMBREAK
70
0
0
APPID
5
1E5
100
AcDbSymbolTableRecord
100
AcDbRegAppTableRecord
2
ACAD_DSTYLE_DIM_LINETYPE
70
0
0
APPID
5
1E6
100
AcDbSymbolTableRecord
100
AcDbRegAppTableRecord
2
ACAD_DSTYLE_DIM_EXT1_LINETYPE
70
0
0
APPID
5
1E7
100
AcDbSymbolTableRecord
100
AcDbRegAppTableRecord
2
ACAD_DSTYLE_DIM_EXT2_LINETYPE
70
0
0
APPID
5
222
100
AcDbSymbolTableRecord
100
AcDbRegAppTableRecord
2
ACAD_MLEADERVER
70
0
0
ENDTAB
0
TABLE
2
BLOCK_RECORD
5
241
100
AcDbSymbolTable
0
BLOCK_RECORD
5
1F
100
AcDbSymbolTableRecord
100
AcDbBlockTableRecord
2
*Model_Space
340
0
70
0
0
BLOCK_RECORD
5
1B
100
AcDbSymbolTableRecord
100
AcDbBlockTableRecord
2
*Paper_Space
340
0
70
0
0
BLOCK_RECORD
5
23
100
AcDbSymbolTableRecord
100
AcDbBlockTableRecord
2
*Paper_Space0
340
0
70
0
0
BLOCK_RECORD
5
11D
100
AcDbSymbolTableRecord
100
AcDbBlockTableRecord
2
*D1
340
0
70
0
0
BLOCK_RECORD
5
12B
100
AcDbSymbolTableRecord
100
AcDbBlockTableRecord
2
_U0
340
0
70
0
0
BLOCK_RECORD
5
137
100
AcDbSymbolTableRecord
100
AcDbBlockTableRecord
2
*D3
340
0
70
0
0
BLOCK_RECORD
5
144
100
AcDbSymbolTableRecord
100
AcDbBlockTableRecord
2
_U1
340
0
70
0
0
BLOCK_RECORD
5
150
100
AcDbSymbolTableRecord
100
AcDbBlockTableRecord
2
*D5
340
0
70
0
0
BLOCK_RECORD
5
15D
100
AcDbSymbolTableRecord
100
AcDbBlockTableRecord
2
_U2
340
0
70
0
0
BLOCK_RECORD
5
169
100
AcDbSymbolTableRecord
100
AcDbBlockTableRecord
2
*D7
340
0
70
0
0
BLOCK_RECORD
5
175
100
AcDbSymbolTableRecord
100
AcDbBlockTableRecord
2
_U3
340
0
70
0
0
BLOCK_RECORD
5
181
100
AcDbSymbolTableRecord
100
AcDbBlockTableRecord
2
*D9
340
0
70
0
0
BLOCK_RECORD
5
18D
100
AcDbSymbolTableRecord
100
AcDbBlockTableRecord
2
_U4
340
0
70
0
0
BLOCK_RECORD
5
199
100
AcDbSymbolTableRecord
100
AcDbBlockTableRecord
2
*D11
340
0
70
0
0
BLOCK_RECORD
5
1A5
100
AcDbSymbolTableRecord
100
AcDbBlockTableRecord
2
_U5
340
0
70
0
0
BLOCK_RECORD
5
1B1
100
AcDbSymbolTableRecord
100
AcDbBlockTableRecord
2
*D13
340
0
70
0
0
BLOCK_RECORD
5
1BE
100
AcDbSymbolTableRecord
100
AcDbBlockTableRecord
2
_U6
340
0
70
0
0
ENDTAB
0
ENDSEC
0
SECTION
2
BLOCKS
0
BLOCK
5
20
100
AcDbEntity
8
0
100
AcDbBlockBegin
2
*Model_Space
70
0
10
0
20
0
30
0
3
*Model_Space
0
ENDBLK
5
21
100
AcDbEntity
8
0
100
AcDbBlockEnd
0
BLOCK
5
1C
100
AcDbEntity
8
0
100
AcDbBlockBegin
2
*Paper_Space
70
0
10
0
20
0
30
0
3
*Paper_Space
0
ENDBLK
5
1D
100
AcDbEntity
8
0
100
AcDbBlockEnd
0
BLOCK
5
24
100
AcDbEntity
8
0
100
AcDbBlockBegin
2
*Paper_Space0
70
0
10
0
20
0
30
0
3
*Paper_Space0
0
ENDBLK
5
25
100
AcDbEntity
8
0
100
AcDbBlockEnd
0
BLOCK
5
11E
100
AcDbEntity
8
0
100
AcDbBlockBegin
2
*D1
70
1
10
0
20
0
30
0
3
*D1
0
LINE
5
120
100
AcDbEntity
8
0
62
256
6
ByLayer
370
-2
48
1
60
0
100
AcDbLine
10
42.775852
20
2.0375
30
0
11
76.288352
21
2.0375
31
0
39
0
210
0
220
0
230
1
0
LINE
5
121
100
AcDbEntity
8
0
62
256
6
ByLayer
370
-2
48
1
60
0
100
AcDbLine
10
1.5875
20
-9.9625
30
0
11
76.288352
21
-9.9625
31
0
39
0
210
0
220
0
230
1
0
LINE
5
122
100
AcDbEntity
8
0
62
256
6
ByLayer
370
-2
48
1
60
0
100
AcDbLine
10
74.288352
20
5.5375
30
0
11
74.288352
21
9.0375
31
0
39
0
210
0
220
0
230
1
0
LINE
5
123
100
AcDbEntity
8
0
62
256
6
ByLayer
370
-2
48
1
60
0
100
AcDbLine
10
74.288352
20
-13.4625
30
0
11
74.288352
21
-16.9625
31
0
39
0
210
0
220
0
230
1
0
SOLID
5
124
100
AcDbEntity
8
0
62
256
6
ByLayer
370
-1
48
1
60
0
100
AcDbTrace
10
73.705019
20
5.5375
30
0
11
74.871686
21
5.5375
31
0
12
74.288352
22
2.0375
32
0
13
74.288352
23
2.0375
33
0
39
0
210
0
220
0
230
1
0
SOLID
5
125
100
AcDbEntity
8
0
62
256
6
ByLayer
370
-1
48
1
60
0
100
AcDbTrace
10
74.871686
20
-13.4625
30
0
11
73.705019
21
-13.4625
31
0
12
74.288352
22
-9.9625
32
0
13
74.288352
23
-9.9625
33
0
39
0
210
0
220
0
230
1
0
MTEXT
5
126
100
AcDbEntity
8
0
62
256
6
ByLayer
370
18
48
1
60
0
100
AcDbMText
10
67.288352
20
-3.9625
30
0
210
0
220
0
230
1
1
\A1;12
40
3.5
41
0
44
1
50
90
71
5
72
5
7
iso_b_vert
0
POINT
5
127
100
AcDbEntity
8
Defpoints
62
0
6
ByLayer
370
-1
48
1
60
0
100
AcDbPoint
10
41.188352
20
2.0375
30
0
39
0
210
0
220
0
230
1
50
360
0
POINT
5
128
100
AcDbEntity
8
Defpoints
62
0
6
ByLayer
370
-1
48
1
60
0
100
AcDbPoint
10
0
20
-9.9625
30
0
39
0
210
0
220
0
230
1
50
360
0
POINT
5
129
100
AcDbEntity
8
Defpoints
62
0
6
ByLayer
370
-1
48
1
60
0
100
AcDbPoint
10
74.288352
20
-9.9625
30
0
39
0
210
0
220
0
230
1
50
360
0
ENDBLK
5
11F
100
AcDbEntity
8
0
100
AcDbBlockEnd
0
BLOCK
5
132
100
AcDbEntity
8
0
100
AcDbBlockBegin
2
_U0
70
0
10
0
20
0
30
0
3
_U0
0
MTEXT
5
12C
100
AcDbEntity
8
2
62
256
6
ByLayer
370
18
48
1
60
0
100
AcDbMText
10
73.598719
20
-5.458033
30
0
210
0
220
0
230
1
1
\W0.5321;12
40
3.5
41
0
44
1.084337
50
90
71
7
72
5
7
iso_b_vert
0
LINE
5
12D
100
AcDbEntity
8
2
62
256
6
ByLayer
370
13
48
1
60
0
100
AcDbLine
10
42.775852
20
2.0375
30
0
11
76.288352
21
2.0375
31
0
39
0
210
0
220
0
230
1
0
LINE
5
12E
100
AcDbEntity
8
2
62
256
6
ByLayer
370
13
48
1
60
0
100
AcDbLine
10
1.5875
20
-9.9625
30
0
11
76.288352
21
-9.9625
31
0
39
0
210
0
220
0
230
1
0
LINE
5
12F
100
AcDbEntity
8
2
62
256
6
ByLayer
370
13
48
1
60
0
100
AcDbLine
10
74.288352
20
2.0375
30
0
11
74.288352
21
-9.9625
31
0
39
0
210
0
220
0
230
1
0
SOLID
5
130
100
AcDbEntity
8
2
62
256
6
ByLayer
370
18
48
1
60
0
100
AcDbTrace
10
74.288352
20
2.0375
30
0
11
74.749136
21
-1.462498
31
0
12
73.827569
22
-1.462502
32
0
13
73.827569
23
-1.462502
33
0
39
0
210
0
220
0
230
1
0
SOLID
5
131
100
AcDbEntity
8
2
62
256
6
ByLayer
370
18
48
1
60
0
100
AcDbTrace
10
74.288352
20
-9.9625
30
0
11
73.827569
21
-6.462502
31
0
12
74.749136
22
-6.462498
32
0
13
74.749136
23
-6.462498
33
0
39
0
210
0
220
0
230
1
0
ENDBLK
5
133
100
AcDbEntity
8
0
100
AcDbBlockEnd
0
BLOCK
5
138
100
AcDbEntity
8
0
100
AcDbBlockBegin
2
*D3
70
1
10
0
20
0
30
0
3
*D3
0
LINE
5
13A
100
AcDbEntity
8
0
62
256
6
ByLayer
370
-2
48
1
60
0
100
AcDbLine
10
42.775852
20
-1.9625
30
0
11
64.288352
21
-1.9625
31
0
39
0
210
0
220
0
230
1
0
LINE
5
13B
100
AcDbEntity
8
0
62
256
6
ByLayer
370
-2
48
1
60
0
100
AcDbLine
10
42.775852
20
2.0375
30
0
11
64.288352
21
2.0375
31
0
39
0
210
0
220
0
230
1
0
LINE
5
13C
100
AcDbEntity
8
0
62
256
6
ByLayer
370
-2
48
1
60
0
100
AcDbLine
10
62.288352
20
-5.4625
30
0
11
62.288352
21
-8.9625
31
0
39
0
210
0
220
0
230
1
0
LINE
5
13D
100
AcDbEntity
8
0
62
256
6
ByLayer
370
-2
48
1
60
0
100
AcDbLine
10
62.288352
20
5.5375
30
0
11
62.288352
21
9.0375
31
0
39
0
210
0
220
0
230
1
0
SOLID
5
13E
100
AcDbEntity
8
0
62
256
6
ByLayer
370
-1
48
1
60
0
100
AcDbTrace
10
62.871686
20
-5.4625
30
0
11
61.705019
21
-5.4625
31
0
12
62.288352
22
-1.9625
32
0
13
62.288352
23
-1.9625
33
0
39
0
210
0
220
0
230
1
0
SOLID
5
13F
100
AcDbEntity
8
0
62
256
6
ByLayer
370
-1
48
1
60
0
100
AcDbTrace
10
61.705019
20
5.5375
30
0
11
62.871686
21
5.5375
31
0
12
62.288352
22
2.0375
32
0
13
62.288352
23
2.0375
33
0
39
0
210
0
220
0
230
1
0
MTEXT
5
140
100
AcDbEntity
8
0
62
256
6
ByLayer
370
18
48
1
60
0
100
AcDbMText
10
55.288352
20
0.0375
30
0
210
0
220
0
230
1
1
\A1;4
40
3.5
41
0
44
1
50
90
71
5
72
5
7
iso_b_vert
0
POINT
5
141
100
AcDbEntity
8
Defpoints
62
0
6
ByLayer
370
-1
48
1
60
0
100
AcDbPoint
10
41.188352
20
-1.9625
30
0
39
0
210
0
220
0
230
1
50
360
0
POINT
5
142
100
AcDbEntity
8
Defpoints
62
0
6
ByLayer
370
-1
48
1
60
0
100
AcDbPoint
10
41.188352
20
2.0375
30
0
39
0
210
0
220
0
230
1
50
360
0
POINT
5
143
100
AcDbEntity
8
Defpoints
62
0
6
ByLayer
370
-1
48
1
60
0
100
AcDbPoint
10
62.288352
20
2.0375
30
0
39
0
210
0
220
0
230
1
50
360
0
ENDBLK
5
139
100
AcDbEntity
8
0
100
AcDbBlockEnd
0
BLOCK
5
14B
100
AcDbEntity
8
0
100
AcDbBlockBegin
2
_U1
70
0
10
0
20
0
30
0
3
_U1
0
MTEXT
5
145
100
AcDbEntity
8
2
62
256
6
ByLayer
370
18
48
1
60
0
100
AcDbMText
10
61.598719
20
-0.772
30
0
210
0
220
0
230
1
1
\W0.6380;4
40
3.5
41
0
44
1.084337
50
90
71
7
72
5
7
iso_b_vert
0
LINE
5
146
100
AcDbEntity
8
2
62
256
6
ByLayer
370
13
48
1
60
0
100
AcDbLine
10
42.775852
20
-1.9625
30
0
11
64.288352
21
-1.9625
31
0
39
0
210
0
220
0
230
1
0
LINE
5
147
100
AcDbEntity
8
2
62
256
6
ByLayer
370
13
48
1
60
0
100
AcDbLine
10
42.775852
20
2.0375
30
0
11
64.288352
21
2.0375
31
0
39
0
210
0
220
0
230
1
0
LINE
5
148
100
AcDbEntity
8
2
62
256
6
ByLayer
370
13
48
1
60
0
100
AcDbLine
10
62.288352
20
-10.7125
30
0
11
62.288352
21
10.7875
31
0
39
0
210
0
220
0
230
1
0
SOLID
5
149
100
AcDbEntity
8
2
62
256
6
ByLayer
370
18
48
1
60
0
100
AcDbTrace
10
62.288352
20
-1.9625
30
0
11
62.749136
21
-5.462498
31
0
12
61.827569
22
-5.462502
32
0
13
61.827569
23
-5.462502
33
0
39
0
210
0
220
0
230
1
0
SOLID
5
14A
100
AcDbEntity
8
2
62
256
6
ByLayer
370
18
48
1
60
0
100
AcDbTrace
10
62.288352
20
2.0375
30
0
11
61.827569
21
5.537498
31
0
12
62.749136
22
5.537502
32
0
13
62.749136
23
5.537502
33
0
39
0
210
0
220
0
230
1
0
ENDBLK
5
14C
100
AcDbEntity
8
0
100
AcDbBlockEnd
0
BLOCK
5
151
100
AcDbEntity
8
0
100
AcDbBlockBegin
2
*D5
70
1
10
0
20
0
30
0
3
*D5
0
LINE
5
153
100
AcDbEntity
8
0
62
256
6
ByLayer
370
-2
48
1
60
0
100
AcDbLine
10
-1.5875
20
-9.9625
30
0
11
-82.6
21
-9.9625
31
0
39
0
210
0
220
0
230
1
0
LINE
5
154
100
AcDbEntity
8
0
62
256
6
ByLayer
370
-2
48
1
60
0
100
AcDbLine
10
-1.5875
20
10.0375
30
0
11
-82.6
21
10.0375
31
0
39
0
210
0
220
0
230
1
0
LINE
5
155
100
AcDbEntity
8
0
62
256
6
ByLayer
370
-2
48
1
60
0
100
AcDbLine
10
-80.6
20
-6.4625
30
0
11
-80.6
21
6.5375
31
0
39
0
210
0
220
0
230
1
0
SOLID
5
156
100
AcDbEntity
8
0
62
256
6
ByLayer
370
-1
48
1
60
0
100
AcDbTrace
10
-81.183333
20
-6.4625
30
0
11
-80.016667
21
-6.4625
31
0
12
-80.6
22
-9.9625
32
0
13
-80.6
23
-9.9625
33
0
39
0
210
0
220
0
230
1
0
SOLID
5
157
100
AcDbEntity
8
0
62
256
6
ByLayer
370
-1
48
1
60
0
100
AcDbTrace
10
-80.016667
20
6.5375
30
0
11
-81.183333
21
6.5375
31
0
12
-80.6
22
10.0375
32
0
13
-80.6
23
10.0375
33
0
39
0
210
0
220
0
230
1
0
MTEXT
5
158
100
AcDbEntity
8
0
62
256
6
ByLayer
370
18
48
1
60
0
100
AcDbMText
10
-87.6
20
0.0375
30
0
210
0
220
0
230
1
1
\A1;20
40
3.5
41
0
44
1
50
90
71
5
72
5
7
iso_b_vert
0
POINT
5
159
100
AcDbEntity
8
Defpoints
62
0
6
ByLayer
370
-1
48
1
60
0
100
AcDbPoint
10
0
20
-9.9625
30
0
39
0
210
0
220
0
230
1
50
360
0
POINT
5
15A
100
AcDbEntity
8
Defpoints
62
0
6
ByLayer
370
-1
48
1
60
0
100
AcDbPoint
10
0
20
10.0375
30
0
39
0
210
0
220
0
230
1
50
360
0
POINT
5
15B
100
AcDbEntity
8
Defpoints
62
0
6
ByLayer
370
-1
48
1
60
0
100
AcDbPoint
10
-80.6
20
10.0375
30
0
39
0
210
0
220
0
230
1
50
360
0
ENDBLK
5
152
100
AcDbEntity
8
0
100
AcDbBlockEnd
0
BLOCK
5
164
100
AcDbEntity
8
0
100
AcDbBlockBegin
2
_U2
70
0
10
0
20
0
30
0
3
_U2
0
MTEXT
5
15E
100
AcDbEntity
8
SK2
62
256
6
ByLayer
370
18
48
1
60
0
100
AcDbMText
10
-81.289634
20
-1.895466
30
0
210
0
220
0
230
1
1
\W0.6740;20
40
3.5
41
0
44
1.084337
50
90
71
7
72
5
7
iso_b_vert
0
LINE
5
15F
100
AcDbEntity
8
SK2
62
256
6
ByLayer
370
13
48
1
60
0
100
AcDbLine
10
-1.5875
20
-9.9625
30
0
11
-82.6
21
-9.9625
31
0
39
0
210
0
220
0
230
1
0
LINE
5
160
100
AcDbEntity
8
SK2
62
256
6
ByLayer
370
13
48
1
60
0
100
AcDbLine
10
-1.5875
20
10.0375
30
0
11
-82.6
21
10.0375
31
0
39
0
210
0
220
0
230
1
0
LINE
5
161
100
AcDbEntity
8
SK2
62
256
6
ByLayer
370
13
48
1
60
0
100
AcDbLine
10
-80.6
20
-9.9625
30
0
11
-80.6
21
10.0375
31
0
39
0
210
0
220
0
230
1
0
SOLID
5
162
100
AcDbEntity
8
SK2
62
256
6
ByLayer
370
18
48
1
60
0
100
AcDbTrace
10
-80.6
20
-9.9625
30
0
11
-81.060784
21
-6.462502
31
0
12
-80.139216
22
-6.462498
32
0
13
-80.139216
23
-6.462498
33
0
39
0
210
0
220
0
230
1
0
SOLID
5
163
100
AcDbEntity
8
SK2
62
256
6
ByLayer
370
18
48
1
60
0
100
AcDbTrace
10
-80.6
20
10.0375
30
0
11
-80.139216
21
6.537502
31
0
12
-81.060784
22
6.537498
32
0
13
-81.060784
23
6.537498
33
0
39
0
210
0
220
0
230
1
0
ENDBLK
5
165
100
AcDbEntity
8
0
100
AcDbBlockEnd
0
BLOCK
5
16A
100
AcDbEntity
8
0
100
AcDbBlockBegin
2
*D7
70
1
10
0
20
0
30
0
3
*D7
0
LINE
5
16C
100
AcDbEntity
8
0
62
256
6
ByLayer
370
-2
48
1
60
0
100
AcDbLine
10
18.763532
20
-2.725
30
0
11
18.763532
21
-21.7125
31
0
39
0
210
0
220
0
230
1
0
LINE
5
16D
100
AcDbEntity
8
0
62
256
6
ByLayer
370
-2
48
1
60
0
100
AcDbLine
10
41.188352
20
0.45
30
0
11
41.188352
21
-21.7125
31
0
39
0
210
0
220
0
230
1
0
LINE
5
16E
100
AcDbEntity
8
0
62
256
6
ByLayer
370
-2
48
1
60
0
100
AcDbLine
10
22.263532
20
-19.7125
30
0
11
37.688352
21
-19.7125
31
0
39
0
210
0
220
0
230
1
0
SOLID
5
16F
100
AcDbEntity
8
0
62
256
6
ByLayer
370
-1
48
1
60
0
100
AcDbTrace
10
22.263532
20
-19.129167
30
0
11
22.263532
21
-20.295833
31
0
12
18.763532
22
-19.7125
32
0
13
18.763532
23
-19.7125
33
0
39
0
210
0
220
0
230
1
0
SOLID
5
170
100
AcDbEntity
8
0
62
256
6
ByLayer
370
-1
48
1
60
0
100
AcDbTrace
10
37.688352
20
-20.295833
30
0
11
37.688352
21
-19.129167
31
0
12
41.188352
22
-19.7125
32
0
13
41.188352
23
-19.7125
33
0
39
0
210
0
220
0
230
1
0
MTEXT
5
171
100
AcDbEntity
8
0
62
256
6
ByLayer
370
18
48
1
60
0
100
AcDbMText
10
29.975942
20
-12.7125
30
0
210
0
220
0
230
1
1
\A1;22.4
40
3.5
41
0
44
1
50
0
71
5
72
5
7
iso_b_vert
0
POINT
5
172
100
AcDbEntity
8
Defpoints
62
0
6
ByLayer
370
-1
48
1
60
0
100
AcDbPoint
10
18.763532
20
-1.1375
30
0
39
0
210
0
220
0
230
1
50
360
0
POINT
5
173
100
AcDbEntity
8
Defpoints
62
0
6
ByLayer
370
-1
48
1
60
0
100
AcDbPoint
10
41.188352
20
2.0375
30
0
39
0
210
0
220
0
230
1
50
360
0
POINT
5
174
100
AcDbEntity
8
Defpoints
62
0
6
ByLayer
370
-1
48
1
60
0
100
AcDbPoint
10
41.188352
20
-19.7125
30
0
39
0
210
0
220
0
230
1
50
360
0
ENDBLK
5
16B
100
AcDbEntity
8
0
100
AcDbBlockEnd
0
BLOCK
5
17C
100
AcDbEntity
8
0
100
AcDbBlockBegin
2
_U3
70
0
10
0
20
0
30
0
3
_U3
0
MTEXT
5
176
100
AcDbEntity
8
2
62
256
6
ByLayer
370
18
48
1
60
0
100
AcDbMText
10
25.869977
20
-18.679866
30
0
210
0
220
0
230
1
1
\W0.7528;22.4
40
3.5
41
0
44
1.084337
50
0
71
7
72
5
7
iso_b_vert
0
LINE
5
177
100
AcDbEntity
8
2
62
256
6
ByLayer
370
13
48
1
60
0
100
AcDbLine
10
18.763532
20
-2.725
30
0
11
18.763532
21
-21.7125
31
0
39
0
210
0
220
0
230
1
0
LINE
5
178
100
AcDbEntity
8
2
62
256
6
ByLayer
370
13
48
1
60
0
100
AcDbLine
10
41.188352
20
0.45
30
0
11
41.188352
21
-21.7125
31
0
39
0
210
0
220
0
230
1
0
LINE
5
179
100
AcDbEntity
8
2
62
256
6
ByLayer
370
13
48
1
60
0
100
AcDbLine
10
18.763532
20
-19.7125
30
0
11
41.188352
21
-19.7125
31
0
39
0
210
0
220
0
230
1
0
SOLID
5
17A
100
AcDbEntity
8
2
62
256
6
ByLayer
370
18
48
1
60
0
100
AcDbTrace
10
18.763532
20
-19.7125
30
0
11
22.263531
21
-19.251716
31
0
12
22.263534
22
-20.173284
32
0
13
22.263534
23
-20.173284
33
0
39
0
210
0
220
0
230
1
0
SOLID
5
17B
100
AcDbEntity
8
2
62
256
6
ByLayer
370
18
48
1
60
0
100
AcDbTrace
10
41.188352
20
-19.7125
30
0
11
37.688354
21
-20.173284
31
0
12
37.688351
22
-19.251716
32
0
13
37.688351
23
-19.251716
33
0
39
0
210
0
220
0
230
1
0
ENDBLK
5
17D
100
AcDbEntity
8
0
100
AcDbBlockEnd
0
BLOCK
5
182
100
AcDbEntity
8
0
100
AcDbBlockBegin
2
*D9
70
1
10
0
20
0
30
0
3
*D9
0
LINE
5
184
100
AcDbEntity
8
0
62
256
6
ByLayer
370
-2
48
1
60
0
100
AcDbLine
10
-69
20
-11.55
30
0
11
-69
21
-32.7125
31
0
39
0
210
0
220
0
230
1
0
LINE
5
185
100
AcDbEntity
8
0
62
256
6
ByLayer
370
-2
48
1
60
0
100
AcDbLine
10
41.188352
20
0.45
30
0
11
41.188352
21
-32.7125
31
0
39
0
210
0
220
0
230
1
0
LINE
5
186
100
AcDbEntity
8
0
62
256
6
ByLayer
370
-2
48
1
60
0
100
AcDbLine
10
-65.5
20
-30.7125
30
0
11
37.688352
21
-30.7125
31
0
39
0
210
0
220
0
230
1
0
SOLID
5
187
100
AcDbEntity
8
0
62
256
6
ByLayer
370
-1
48
1
60
0
100
AcDbTrace
10
-65.5
20
-30.129167
30
0
11
-65.5
21
-31.295833
31
0
12
-69
22
-30.7125
32
0
13
-69
23
-30.7125
33
0
39
0
210
0
220
0
230
1
0
SOLID
5
188
100
AcDbEntity
8
0
62
256
6
ByLayer
370
-1
48
1
60
0
100
AcDbTrace
10
37.688352
20
-31.295833
30
0
11
37.688352
21
-30.129167
31
0
12
41.188352
22
-30.7125
32
0
13
41.188352
23
-30.7125
33
0
39
0
210
0
220
0
230
1
0
MTEXT
5
189
100
AcDbEntity
8
0
62
256
6
ByLayer
370
18
48
1
60
0
100
AcDbMText
10
-13.905824
20
-23.7125
30
0
210
0
220
0
230
1
1
\A1;110.2
40
3.5
41
0
44
1
50
0
71
5
72
5
7
iso_b_vert
0
POINT
5
18A
100
AcDbEntity
8
Defpoints
62
0
6
ByLayer
370
-1
48
1
60
0
100
AcDbPoint
10
-69
20
-9.9625
30
0
39
0
210
0
220
0
230
1
50
360
0
POINT
5
18B
100
AcDbEntity
8
Defpoints
62
0
6
ByLayer
370
-1
48
1
60
0
100
AcDbPoint
10
41.188352
20
2.0375
30
0
39
0
210
0
220
0
230
1
50
360
0
POINT
5
18C
100
AcDbEntity
8
Defpoints
62
0
6
ByLayer
370
-1
48
1
60
0
100
AcDbPoint
10
41.188352
20
-30.7125
30
0
39
0
210
0
220
0
230
1
50
360
0
ENDBLK
5
183
100
AcDbEntity
8
0
100
AcDbBlockEnd
0
BLOCK
5
194
100
AcDbEntity
8
0
100
AcDbBlockBegin
2
_U4
70
0
10
0
20
0
30
0
3
_U4
0
MTEXT
5
18E
100
AcDbEntity
8
SK2
62
256
6
ByLayer
370
18
48
1
60
0
100
AcDbMText
10
-18.260389
20
-29.679866
30
0
210
0
220
0
230
1
1
\W0.6261;110.2
40
3.5
41
0
44
1.084337
50
0
71
7
72
5
7
iso_b_vert
0
LINE
5
18F
100
AcDbEntity
8
SK2
62
256
6
ByLayer
370
13
48
1
60
0
100
AcDbLine
10
-69
20
-11.55
30
0
11
-69
21
-32.7125
31
0
39
0
210
0
220
0
230
1
0
LINE
5
190
100
AcDbEntity
8
SK2
62
256
6
ByLayer
370
13
48
1
60
0
100
AcDbLine
10
41.188352
20
0.45
30
0
11
41.188352
21
-32.7125
31
0
39
0
210
0
220
0
230
1
0
LINE
5
191
100
AcDbEntity
8
SK2
62
256
6
ByLayer
370
13
48
1
60
0
100
AcDbLine
10
-69
20
-30.7125
30
0
11
41.188352
21
-30.7125
31
0
39
0
210
0
220
0
230
1
0
SOLID
5
192
100
AcDbEntity
8
SK2
62
256
6
ByLayer
370
18
48
1
60
0
100
AcDbTrace
10
-69
20
-30.7125
30
0
11
-65.500002
21
-30.251716
31
0
12
-65.499998
22
-31.173284
32
0
13
-65.499998
23
-31.173284
33
0
39
0
210
0
220
0
230
1
0
SOLID
5
193
100
AcDbEntity
8
SK2
62
256
6
ByLayer
370
18
48
1
60
0
100
AcDbTrace
10
41.188352
20
-30.7125
30
0
11
37.688354
21
-31.173284
31
0
12
37.688351
22
-30.251716
32
0
13
37.688351
23
-30.251716
33
0
39
0
210
0
220
0
230
1
0
ENDBLK
5
195
100
AcDbEntity
8
0
100
AcDbBlockEnd
0
BLOCK
5
19A
100
AcDbEntity
8
0
100
AcDbBlockBegin
2
*D11
70
1
10
0
20
0
30
0
3
*D11
0
LINE
5
19C
100
AcDbEntity
8
0
62
256
6
ByLayer
370
-2
48
1
60
0
100
AcDbLine
10
0
20
-11.55
30
0
11
0
21
-29.7125
31
0
39
0
210
0
220
0
230
1
0
LINE
5
19D
100
AcDbEntity
8
0
62
256
6
ByLayer
370
-2
48
1
60
0
100
AcDbLine
10
41.188352
20
0.45
30
0
11
41.188352
21
-29.7125
31
0
39
0
210
0
220
0
230
1
0
LINE
5
19E
100
AcDbEntity
8
0
62
256
6
ByLayer
370
-2
48
1
60
0
100
AcDbLine
10
3.5
20
-27.7125
30
0
11
37.688352
21
-27.7125
31
0
39
0
210
0
220
0
230
1
0
SOLID
5
19F
100
AcDbEntity
8
0
62
256
6
ByLayer
370
-1
48
1
60
0
100
AcDbTrace
10
3.5
20
-27.129167
30
0
11
3.5
21
-28.295833
31
0
12
0
22
-27.7125
32
0
13
0
23
-27.7125
33
0
39
0
210
0
220
0
230
1
0
SOLID
5
1A0
100
AcDbEntity
8
0
62
256
6
ByLayer
370
-1
48
1
60
0
100
AcDbTrace
10
37.688352
20
-28.295833
30
0
11
37.688352
21
-27.129167
31
0
12
41.188352
22
-27.7125
32
0
13
41.188352
23
-27.7125
33
0
39
0
210
0
220
0
230
1
0
MTEXT
5
1A1
100
AcDbEntity
8
0
62
256
6
ByLayer
370
18
48
1
60
0
100
AcDbMText
10
20.594176
20
-20.7125
30
0
210
0
220
0
230
1
1
\A1;41.2
40
3.5
41
0
44
1
50
0
71
5
72
5
7
iso_b_vert
0
POINT
5
1A2
100
AcDbEntity
8
Defpoints
62
0
6
ByLayer
370
-1
48
1
60
0
100
AcDbPoint
10
0
20
-9.9625
30
0
39
0
210
0
220
0
230
1
50
360
0
POINT
5
1A3
100
AcDbEntity
8
Defpoints
62
0
6
ByLayer
370
-1
48
1
60
0
100
AcDbPoint
10
41.188352
20
2.0375
30
0
39
0
210
0
220
0
230
1
50
360
0
POINT
5
1A4
100
AcDbEntity
8
Defpoints
62
0
6
ByLayer
370
-1
48
1
60
0
100
AcDbPoint
10
41.188352
20
-27.7125
30
0
39
0
210
0
220
0
230
1
50
360
0
ENDBLK
5
19B
100
AcDbEntity
8
0
100
AcDbBlockEnd
0
BLOCK
5
1AC
100
AcDbEntity
8
0
100
AcDbBlockBegin
2
_U5
70
0
10
0
20
0
30
0
3
_U5
0
MTEXT
5
1A6
100
AcDbEntity
8
2
62
256
6
ByLayer
370
18
48
1
60
0
100
AcDbMText
10
16.925644
20
-26.679866
30
0
210
0
220
0
230
1
1
\W0.6856;41.2
40
3.5
41
0
44
1.084337
50
0
71
7
72
5
7
iso_b_vert
0
LINE
5
1A7
100
AcDbEntity
8
2
62
256
6
ByLayer
370
13
48
1
60
0
100
AcDbLine
10
0
20
-11.55
30
0
11
0
21
-29.7125
31
0
39
0
210
0
220
0
230
1
0
LINE
5
1A8
100
AcDbEntity
8
2
62
256
6
ByLayer
370
13
48
1
60
0
100
AcDbLine
10
41.188352
20
0.45
30
0
11
41.188352
21
-29.7125
31
0
39
0
210
0
220
0
230
1
0
LINE
5
1A9
100
AcDbEntity
8
2
62
256
6
ByLayer
370
13
48
1
60
0
100
AcDbLine
10
0
20
-27.7125
30
0
11
41.188352
21
-27.7125
31
0
39
0
210
0
220
0
230
1
0
SOLID
5
1AA
100
AcDbEntity
8
2
62
256
6
ByLayer
370
18
48
1
60
0
100
AcDbTrace
10
0
20
-27.7125
30
0
11
3.499998
21
-27.251716
31
0
12
3.500002
22
-28.173284
32
0
13
3.500002
23
-28.173284
33
0
39
0
210
0
220
0
230
1
0
SOLID
5
1AB
100
AcDbEntity
8
2
62
256
6
ByLayer
370
18
48
1
60
0
100
AcDbTrace
10
41.188352
20
-27.7125
30
0
11
37.688354
21
-28.173284
31
0
12
37.688351
22
-27.251716
32
0
13
37.688351
23
-27.251716
33
0
39
0
210
0
220
0
230
1
0
ENDBLK
5
1AD
100
AcDbEntity
8
0
100
AcDbBlockEnd
0
BLOCK
5
1B2
100
AcDbEntity
8
0
100
AcDbBlockBegin
2
*D13
70
1
10
0
20
0
30
0
3
*D13
0
LINE
5
1B4
100
AcDbEntity
8
0
62
256
6
ByLayer
370
-2
48
1
60
0
100
AcDbLine
10
-69
20
-11.55
30
0
11
-69
21
-21.7125
31
0
39
0
210
0
220
0
230
1
0
LINE
5
1B5
100
AcDbEntity
8
0
62
256
6
ByLayer
370
-2
48
1
60
0
100
AcDbLine
10
-66
20
-11.55
30
0
11
-66
21
-21.7125
31
0
39
0
210
0
220
0
230
1
0
LINE
5
1B6
100
AcDbEntity
8
0
62
256
6
ByLayer
370
-2
48
1
60
0
100
AcDbLine
10
-72.5
20
-19.7125
30
0
11
-76
21
-19.7125
31
0
39
0
210
0
220
0
230
1
0
LINE
5
1B7
100
AcDbEntity
8
0
62
256
6
ByLayer
370
-2
48
1
60
0
100
AcDbLine
10
-62.5
20
-19.7125
30
0
11
-59
21
-19.7125
31
0
39
0
210
0
220
0
230
1
0
SOLID
5
1B8
100
AcDbEntity
8
0
62
256
6
ByLayer
370
-1
48
1
60
0
100
AcDbTrace
10
-72.5
20
-20.295833
30
0
11
-72.5
21
-19.129167
31
0
12
-69
22
-19.7125
32
0
13
-69
23
-19.7125
33
0
39
0
210
0
220
0
230
1
0
SOLID
5
1B9
100
AcDbEntity
8
0
62
256
6
ByLayer
370
-1
48
1
60
0
100
AcDbTrace
10
-62.5
20
-19.129167
30
0
11
-62.5
21
-20.295833
31
0
12
-66
22
-19.7125
32
0
13
-66
23
-19.7125
33
0
39
0
210
0
220
0
230
1
0
MTEXT
5
1BA
100
AcDbEntity
8
0
62
256
6
ByLayer
370
18
48
1
60
0
100
AcDbMText
10
-67.5
20
-12.7125
30
0
210
0
220
0
230
1
1
\A1;3
40
3.5
41
0
44
1
50
0
71
5
72
5
7
iso_b_vert
0
POINT
5
1BB
100
AcDbEntity
8
Defpoints
62
0
6
ByLayer
370
-1
48
1
60
0
100
AcDbPoint
10
-69
20
-9.9625
30
0
39
0
210
0
220
0
230
1
50
360
0
POINT
5
1BC
100
AcDbEntity
8
Defpoints
62
0
6
ByLayer
370
-1
48
1
60
0
100
AcDbPoint
10
-66
20
-9.9625
30
0
39
0
210
0
220
0
230
1
50
360
0
POINT
5
1BD
100
AcDbEntity
8
Defpoints
62
0
6
ByLayer
370
-1
48
1
60
0
100
AcDbPoint
10
-66
20
-19.7125
30
0
39
0
210
0
220
0
230
1
50
360
0
ENDBLK
5
1B3
100
AcDbEntity
8
0
100
AcDbBlockEnd
0
BLOCK
5
1C5
100
AcDbEntity
8
0
100
AcDbBlockBegin
2
_U6
70
0
10
0
20
0
30
0
3
_U6
0
MTEXT
5
1BF
100
AcDbEntity
8
SK2
62
256
6
ByLayer
370
18
48
1
60
0
100
AcDbMText
10
-68.097233
20
-18.679866
30
0
210
0
220
0
230
1
1
\W0.5404;3
40
3.5
41
0
44
1.084337
50
0
71
7
72
5
7
iso_b_vert
0
LINE
5
1C0
100
AcDbEntity
8
SK2
62
256
6
ByLayer
370
13
48
1
60
0
100
AcDbLine
10
-69
20
-11.55
30
0
11
-69
21
-21.7125
31
0
39
0
210
0
220
0
230
1
0
LINE
5
1C1
100
AcDbEntity
8
SK2
62
256
6
ByLayer
370
13
48
1
60
0
100
AcDbLine
10
-66
20
-11.55
30
0
11
-66
21
-21.7125
31
0
39
0
210
0
220
0
230
1
0
LINE
5
1C2
100
AcDbEntity
8
SK2
62
256
6
ByLayer
370
13
48
1
60
0
100
AcDbLine
10
-77.75
20
-19.7125
30
0
11
-57.25
21
-19.7125
31
0
39
0
210
0
220
0
230
1
0
SOLID
5
1C3
100
AcDbEntity
8
SK2
62
256
6
ByLayer
370
18
48
1
60
0
100
AcDbTrace
10
-69
20
-19.7125
30
0
11
-72.499998
21
-20.173284
31
0
12
-72.500002
22
-19.251716
32
0
13
-72.500002
23
-19.251716
33
0
39
0
210
0
220
0
230
1
0
SOLID
5
1C4
100
AcDbEntity
8
SK2
62
256
6
ByLayer
370
18
48
1
60
0
100
AcDbTrace
10
-66
20
-19.7125
30
0
11
-62.500002
21
-19.251716
31
0
12
-62.499998
22
-20.173284
32
0
13
-62.499998
23
-20.173284
33
0
39
0
210
0
220
0
230
1
0
ENDBLK
5
1C6
100
AcDbEntity
8
0
100
AcDbBlockEnd
0
ENDSEC
0
SECTION
2
ENTITIES
0
ARC
5
CA
100
AcDbEntity
8
1
62
256
6
ByLayer
370
18
48
1
60
0
100
AcDbCircle
39
0
10
23.188352
20
9.7125
30
0
40
8.5
210
0
220
0
230
1
100
AcDbArc
50
215
51
270
0
ARC
5
CB
100
AcDbEntity
8
1
62
256
6
ByLayer
370
18
48
1
60
0
100
AcDbCircle
39
0
10
23.188352
20
-9.6375
30
0
40
8.5
210
0
220
0
230
1
100
AcDbArc
50
90
51
145
0
ARC
5
CC
100
AcDbEntity
8
1
62
256
6
ByLayer
370
18
48
1
60
0
100
AcDbCircle
39
0
10
10.813532
20
0
30
0
40
1.416
210
0
220
0
230
1
100
AcDbArc
50
150.190711
51
209.809289
0
ARC
5
CD
100
AcDbEntity
8
1
62
256
6
ByLayer
370
18
48
1
60
0
100
AcDbCircle
39
0
10
10.813532
20
0
30
0
40
1.416
210
0
220
0
230
1
100
AcDbArc
50
276.192438
51
330.190711
0
ARC
5
CE
100
AcDbEntity
8
1
62
256
6
ByLayer
370
18
48
1
60
0
100
AcDbCircle
39
0
10
10.813532
20
0
30
0
40
1.416
210
0
220
0
230
1
100
AcDbArc
50
330.190711
51
29.809289
0
ARC
5
CF
100
AcDbEntity
8
1
62
256
6
ByLayer
370
18
48
1
60
0
100
AcDbCircle
39
0
10
10.813532
20
0
30
0
40
1.416
210
0
220
0
230
1
100
AcDbArc
50
29.809289
51
83.807562
0
ARC
5
D0
100
AcDbEntity
8
1
62
256
6
ByLayer
370
18
48
1
60
0
100
AcDbCircle
39
0
10
10.813532
20
0
30
0
40
1.416
210
0
220
0
230
1
100
AcDbArc
50
209.809289
51
263.807562
0
ARC
5
D1
100
AcDbEntity
8
1
62
256
6
ByLayer
370
18
48
1
60
0
100
AcDbCircle
39
0
10
10.813532
20
0
30
0
40
1.416
210
0
220
0
230
1
100
AcDbArc
50
96.192438
51
150.190711
0
ARC
5
D4
100
AcDbEntity
8
1
62
256
6
ByLayer
370
18
48
1
60
0
100
AcDbCircle
39
0
10
10.813532
20
0
30
0
40
1.9685
210
0
220
0
230
1
100
AcDbArc
50
180
51
239.618578
0
ARC
5
D5
100
AcDbEntity
8
1
62
256
6
ByLayer
370
18
48
1
60
0
100
AcDbCircle
39
0
10
10.813532
20
0
30
0
40
1.9685
210
0
220
0
230
1
100
AcDbArc
50
120.381422
51
180
0
ARC
5
D6
100
AcDbEntity
8
1
62
256
6
ByLayer
370
18
48
1
60
0
100
AcDbCircle
39
0
10
10.813532
20
0
30
0
40
1.9685
210
0
220
0
230
1
100
AcDbArc
50
360
51
59.618578
0
ARC
5
D7
100
AcDbEntity
8
1
62
256
6
ByLayer
370
18
48
1
60
0
100
AcDbCircle
39
0
10
10.813532
20
0
30
0
40
1.9685
210
0
220
0
230
1
100
AcDbArc
50
300.381422
51
360
0
ARC
5
D8
100
AcDbEntity
8
1
62
256
6
ByLayer
370
18
48
1
60
0
100
AcDbCircle
39
0
10
10.813532
20
0
30
0
40
1.416
210
0
220
0
230
1
100
AcDbArc
50
83.807562
51
96.192438
0
ARC
5
D9
100
AcDbEntity
8
1
62
256
6
ByLayer
370
18
48
1
60
0
100
AcDbCircle
39
0
10
10.813532
20
0
30
0
40
1.9685
210
0
220
0
230
1
100
AcDbArc
50
59.618578
51
120.381422
0
ARC
5
DA
100
AcDbEntity
8
1
62
256
6
ByLayer
370
18
48
1
60
0
100
AcDbCircle
39
0
10
10.813532
20
0
30
0
40
1.9685
210
0
220
0
230
1
100
AcDbArc
50
239.618578
51
300.381422
0
ARC
5
DB
100
AcDbEntity
8
1
62
256
6
ByLayer
370
18
48
1
60
0
100
AcDbCircle
39
0
10
10.813532
20
0
30
0
40
1.416
210
0
220
0
230
1
100
AcDbArc
50
263.807562
51
276.192438
0
ARC
5
DC
100
AcDbEntity
8
1
62
256
6
ByLayer
370
18
48
1
60
0
100
AcDbCircle
39
0
10
22.585849
20
0.0375
30
0
40
2.00056587453268
210
0
220
0
230
1
100
AcDbArc
50
70
51
134.559692
0
ARC
5
DD
100
AcDbEntity
8
1
62
256
6
ByLayer
370
18
48
1
60
0
100
AcDbCircle
39
0
10
22.585849
20
0.0375
30
0
40
2.00056587453268
210
0
220
0
230
1
100
AcDbArc
50
225.457492
51
290
0
ARC
5
DE
100
AcDbEntity
8
1
62
256
6
ByLayer
370
18
48
1
60
0
100
AcDbCircle
39
0
10
39.185856
20
0.0375
30
0
40
2.00056587453268
210
0
220
0
230
1
100
AcDbArc
50
250
51
110
0
CIRCLE
5
C9
100
AcDbEntity
8
1
62
256
6
ByLayer
370
18
48
1
60
0
100
AcDbCircle
10
10.813532
20
0
30
0
40
4.55
39
0
210
0
220
0
230
1
0
CIRCLE
5
D2
100
AcDbEntity
8
1
62
256
6
ByLayer
370
18
48
1
60
0
100
AcDbCircle
10
10.813532
20
0
30
0
40
4.25
39
0
210
0
220
0
230
1
0
CIRCLE
5
D3
100
AcDbEntity
8
1
62
256
6
ByLayer
370
18
48
1
60
0
100
AcDbCircle
10
10.813532
20
0
30
0
40
3.75
39
0
210
0
220
0
230
1
0
POINT
5
70
100
AcDbEntity
8
1
62
256
6
ByLayer
370
18
48
1
60
0
100
AcDbPoint
10
41.188352
20
0.0375
30
0
39
0
210
0
220
0
230
1
50
360
0
POINT
5
72
100
AcDbEntity
8
81
62
256
6
ByLayer
370
18
48
1
60
0
100
AcDbPoint
10
41.188352
20
2.0375
30
0
39
0
210
0
220
0
230
1
50
360
0
POINT
5
74
100
AcDbEntity
8
80
62
256
6
ByLayer
370
18
48
1
60
0
100
AcDbPoint
10
0
20
0
30
0
39
0
210
0
220
0
230
1
50
360
0
POINT
5
76
100
AcDbEntity
8
1
62
256
6
ByLayer
370
18
48
1
60
1
100
AcDbPoint
10
41.188352
20
2.0375
30
0
39
0
210
0
220
0
230
1
50
360
0
POINT
5
77
100
AcDbEntity
8
1
62
256
6
ByLayer
370
18
48
1
60
1
100
AcDbPoint
10
0
20
-9.9625
30
0
39
0
210
0
220
0
230
1
50
360
0
POINT
5
78
100
AcDbEntity
8
1
62
256
6
ByLayer
370
18
48
1
60
1
100
AcDbPoint
10
41.188352
20
-1.9625
30
0
39
0
210
0
220
0
230
1
50
360
0
POINT
5
79
100
AcDbEntity
8
1
62
256
6
ByLayer
370
18
48
1
60
1
100
AcDbPoint
10
41.188352
20
2.0375
30
0
39
0
210
0
220
0
230
1
50
360
0
POINT
5
7A
100
AcDbEntity
8
1
62
256
6
ByLayer
370
18
48
1
60
1
100
AcDbPoint
10
0
20
-9.9625
30
0
39
0
210
0
220
0
230
1
50
360
0
POINT
5
7B
100
AcDbEntity
8
1
62
256
6
ByLayer
370
18
48
1
60
1
100
AcDbPoint
10
0
20
10.0375
30
0
39
0
210
0
220
0
230
1
50
360
0
POINT
5
7C
100
AcDbEntity
8
1
62
256
6
ByLayer
370
18
48
1
60
1
100
AcDbPoint
10
18.763532
20
-1.1375
30
0
39
0
210
0
220
0
230
1
50
360
0
POINT
5
7D
100
AcDbEntity
8
1
62
256
6
ByLayer
370
18
48
1
60
1
100
AcDbPoint
10
41.188352
20
2.0375
30
0
39
0
210
0
220
0
230
1
50
360
0
POINT
5
7E
100
AcDbEntity
8
1
62
256
6
ByLayer
370
18
48
1
60
1
100
AcDbPoint
10
-69
20
-9.9625
30
0
39
0
210
0
220
0
230
1
50
360
0
POINT
5
7F
100
AcDbEntity
8
1
62
256
6
ByLayer
370
18
48
1
60
1
100
AcDbPoint
10
41.188352
20
2.0375
30
0
39
0
210
0
220
0
230
1
50
360
0
POINT
5
80
100
AcDbEntity
8
1
62
256
6
ByLayer
370
18
48
1
60
1
100
AcDbPoint
10
0
20
-9.9625
30
0
39
0
210
0
220
0
230
1
50
360
0
POINT
5
81
100
AcDbEntity
8
1
62
256
6
ByLayer
370
18
48
1
60
1
100
AcDbPoint
10
41.188352
20
2.0375
30
0
39
0
210
0
220
0
230
1
50
360
0
POINT
5
82
100
AcDbEntity
8
1
62
256
6
ByLayer
370
18
48
1
60
1
100
AcDbPoint
10
-69
20
-9.9625
30
0
39
0
210
0
220
0
230
1
50
360
0
POINT
5
83
100
AcDbEntity
8
1
62
256
6
ByLayer
370
18
48
1
60
1
100
AcDbPoint
10
-66
20
-9.9625
30
0
39
0
210
0
220
0
230
1
50
360
0
SPLINE
5
DF
100
AcDbEntity
8
1
62
256
6
ByLayer
370
18
48
1
60
0
100
AcDbSpline
70
4
71
3
72
12
73
8
40
0
40
0
40
0
40
0
40
0.500000000000001
40
0.500000000000001
40
0.750000000000001
40
0.750000000000001
40
1
40
1
40
1
40
1
41
1
10
34.63693503293
20
-0.212500000000119
30
0
41
1
10
34.592363424844
20
-0.367359753182768
30
0
41
1
10
34.5473937489889
20
-0.522023204024464
30
0
41
1
10
34.4787575147653
20
-0.753435629039785
30
0
41
1
10
34.4556779382269
20
-0.830474066255363
30
0
41
1
10
34.4089147564457
20
-0.98425307118319
30
0
41
1
10
34.3852355975502
20
-1.06099583155816
30
0
41
1
10
34.3610726147836
20
-1.13750000000013
30
0
0
SPLINE
5
E0
100
AcDbEntity
8
1
62
256
6
ByLayer
370
18
48
1
60
0
100
AcDbSpline
70
4
71
3
72
8
73
4
40
0
40
0
40
0
40
0
40
1
40
1
40
1
40
1
41
1
10
34.7625336602884
20
-0.150398990899561
30
0
41
1
10
34.7207076807788
20
-0.171233181401732
30
0
41
1
10
34.6788482943014
20
-0.191956218432296
30
0
41
1
10
34.63693503293
20
-0.212500000000119
30
0
0
SPLINE
5
E1
100
AcDbEntity
8
1
62
256
6
ByLayer
370
18
48
1
60
0
100
AcDbSpline
70
4
71
3
72
20
73
16
40
0
40
0
40
0
40
0
40
0.25
40
0.25
40
0.375
40
0.375
40
0.5
40
0.5
40
0.625
40
0.625
40
0.75
40
0.75
40
0.875
40
0.875
40
1
40
1
40
1
40
1
41
1
10
34.838352336587
20
-0.0113189610525524
30
0
41
1
10
34.838352336587
20
-0.0264923350998174
30
0
41
1
10
34.8365395378105
20
-0.0412693474048922
30
0
41
1
10
34.8311573174715
20
-0.0628526059216483
30
0
41
1
10
34.8289236636859
20
-0.069871932869944
30
0
41
1
10
34.8237075337264
20
-0.0832625182136724
30
0
41
1
10
34.8207131376028
20
-0.0896834208558914
30
0
41
1
10
34.8139493981871
20
-0.101974823254437
30
0
41
1
10
34.8101678740476
20
-0.107845103190243
30
0
41
1
10
34.8020790196088
20
-0.11865668227486
30
0
41
1
10
34.7977450279123
20
-0.123651942602521
30
0
41
1
10
34.7885062888124
20
-0.132833275976452
30
0
41
1
10
34.783568870426
20
-0.137038621490291
30
0
41
1
10
34.7733369756166
20
-0.144442159534634
30
0
41
1
10
34.7680302928893
20
-0.147661030137613
30
0
41
1
10
34.7625336602884
20
-0.150398990899561
30
0
0
SPLINE
5
E2
100
AcDbEntity
8
1
62
256
6
ByLayer
370
18
48
1
60
0
100
AcDbSpline
70
4
71
3
72
20
73
16
40
0
40
0
40
0
40
0
40
0.250000000000008
40
0.250000000000008
40
0.375000000000007
40
0.375000000000007
40
0.500000000000006
40
0.500000000000006
40
0.625000000000004
40
0.625000000000004
40
0.750000000000003
40
0.750000000000003
40
0.875000000000001
40
0.875000000000001
40
1
40
1
40
1
40
1
41
1
10
34.7625336602884
20
0.225398990899265
30
0
41
1
10
34.7735294575265
20
0.219921808127481
30
0
41
1
10
34.7836800357428
20
0.212598234758303
30
0
41
1
10
34.7976161153235
20
0.198795318661382
30
0
41
1
10
34.802029003498
20
0.193716681980334
30
0
41
1
10
34.8101147193496
20
0.182922914891407
30
0
41
1
10
34.8138280194909
20
0.177170713753952
30
0
41
1
10
34.8205835187229
20
0.164942753969228
30
0
41
1
10
34.8236467635982
20
0.158404516814414
30
0
41
1
10
34.8288994233404
20
0.144947943796581
30
0
41
1
10
34.8311042279803
20
0.138022101378198
30
0
41
1
10
34.8346774572989
20
0.123778430981162
30
0
41
1
10
34.8360495782591
20
0.116430617369275
30
0
41
1
10
34.8378906475126
20
0.101452023675591
30
0
41
1
10
34.8383523365934
20
0.0939113433295233
30
0
41
1
10
34.8383523365934
20
0.0863189610529957
30
0
0
SPLINE
5
E3
100
AcDbEntity
8
1
62
256
6
ByLayer
370
18
48
1
60
0
100
AcDbSpline
70
4
71
3
72
8
73
4
40
0
40
0
40
0
40
0
40
1
40
1
40
1
40
1
41
1
10
34.63693503293
20
0.287499999999881
30
0
41
1
10
34.6788479103573
20
0.266956406622199
30
0
41
1
10
34.7207073531852
20
0.246233344581071
30
0
41
1
10
34.7625336602884
20
0.225398990899265
30
0
0
SPLINE
5
E4
100
AcDbEntity
8
1
62
256
6
ByLayer
370
18
48
1
60
0
100
AcDbSpline
70
4
71
3
72
12
73
8
40
0
40
0
40
0
40
0
40
0.250000000000001
40
0.250000000000001
40
0.500000000000001
40
0.500000000000001
40
1
40
1
40
1
40
1
41
1
10
34.3610726147836
20
1.21249999999986
30
0
41
1
10
34.3852355975502
20
1.13599583155789
30
0
41
1
10
34.4089147564457
20
1.05925307118292
30
0
41
1
10
34.4556779382269
20
0.905474066255067
30
0
41
1
10
34.4787575147653
20
0.828435629039518
30
0
41
1
10
34.5473937489889
20
0.597023204024225
30
0
41
1
10
34.592363424844
20
0.442359753182529
30
0
41
1
10
34.63693503293
20
0.287499999999881
30
0
0
SPLINE
5
E5
100
AcDbEntity
8
1
62
256
6
ByLayer
370
18
48
1
60
0
100
AcDbSpline
70
4
71
3
72
24
73
20
40
0
40
0
40
0
40
0
40
0.0624999999999996
40
0.0624999999999996
40
0.124999999999999
40
0.124999999999999
40
0.250000000000008
40
0.250000000000008
40
0.31250000000001
40
0.31250000000001
40
0.375000000000013
40
0.375000000000013
40
0.500000000000009
40
0.500000000000009
40
0.625000000000004
40
0.625000000000004
40
0.75
40
0.75
40
1
40
1
40
1
40
1
41
1
10
9.81795551730201
20
-1.69818105833983
30
0
41
1
10
9.80985379708403
20
-1.69343133782246
30
0
41
1
10
9.80188259766982
20
-1.68828978898651
30
0
41
1
10
9.78643934119626
20
-1.67735532158605
30
0
41
1
10
9.7790147117604
20
-1.67160082777497
30
0
41
1
10
9.75759965526953
20
-1.65350705640506
30
0
41
1
10
9.74446216737209
20
-1.64034310533592
30
0
41
1
10
9.72645192892097
20
-1.61896037283981
30
0
41
1
10
9.72072705244133
20
-1.61154312092057
30
0
41
1
10
9.71006149339863
20
-1.59645701884025
30
0
41
1
10
9.70508987238247
20
-1.58875416851683
30
0
41
1
10
9.69121717653695
20
-1.56518656155032
30
0
41
1
10
9.68335168916872
20
-1.5488655560664
30
0
41
1
10
9.67034207933725
20
-1.51503765004165
30
0
41
1
10
9.66536734599538
20
-1.49797339489601
30
0
41
1
10
9.65820841441388
20
-1.46360299775966
30
0
41
1
10
9.65602309997857
20
-1.44623705874807
30
0
41
1
10
9.65359319685112
20
-1.39416944413006
30
0
41
1
10
9.65739311512834
20
-1.36060391070851
30
0
41
1
10
9.66608137331232
20
-1.32815233797862
30
0
0
SPLINE
5
E6
100
AcDbEntity
8
1
62
256
6
ByLayer
370
18
48
1
60
0
100
AcDbSpline
70
4
71
3
72
26
73
22
40
0
40
0
40
0
40
0
40
0.124999999999999
40
0.124999999999999
40
0.249999999999998
40
0.249999999999998
40
0.312499999999995
40
0.312499999999995
40
0.374999999999993
40
0.374999999999993
40
0.499999999999988
40
0.499999999999988
40
0.562499999999986
40
0.562499999999986
40
0.624999999999985
40
0.624999999999985
40
0.74999999999999
40
0.74999999999999
40
0.874999999999995
40
0.874999999999995
40
1
40
1
40
1
40
1
41
1
10
8.84503240689719
20
-2.84E-14
30
0
41
1
10
8.84503240689719
20
-0.0187420838797152
30
0
41
1
10
8.8466696113926
20
-0.0377900241210227
30
0
41
1
10
8.85304712621425
20
-0.0746705458543886
30
0
41
1
10
8.85775961523169
20
-0.0926468374793785
30
0
41
1
10
8.86706702079402
20
-0.118927230560843
30
0
41
1
10
8.87056488180184
20
-0.127613610563003
30
0
41
1
10
8.87819827666115
20
-0.144482547616008
30
0
41
1
10
8.88233330763231
20
-0.152677395515894
30
0
41
1
10
8.89565007748146
20
-0.176573251819548
30
0
41
1
10
8.90573784440383
20
-0.191589936924572
30
0
41
1
10
8.92262769981096
20
-0.212775539408426
30
0
41
1
10
8.92853978951274
20
-0.219591918569108
30
0
41
1
10
8.9407350350543
20
-0.232559589510771
30
0
41
1
10
8.9470411101118
20
-0.238740382771226
30
0
41
1
10
8.96655605412138
20
-0.256409082201344
30
0
41
1
10
8.98035827923511
20
-0.26702827097111
30
0
41
1
10
9.00948687365727
20
-0.286001380946175
30
0
41
1
10
9.02455511271094
20
-0.294181158804605
30
0
41
1
10
9.05541465919728
20
-0.308022019823966
30
0
41
1
10
9.07123751740909
20
-0.313701983655449
30
0
41
1
10
9.08743696675288
20
-0.318161969546878
30
0
0
SPLINE
5
E7
100
AcDbEntity
8
1
62
256
6
ByLayer
370
18
48
1
60
0
100
AcDbSpline
70
4
71
3
72
34
73
30
40
0
40
0
40
0
40
0
40
0.124999999999997
40
0.124999999999997
40
0.187499999999994
40
0.187499999999994
40
0.218749999999991
40
0.218749999999991
40
0.249999999999988
40
0.249999999999988
40
0.374999999999987
40
0.374999999999987
40
0.406249999999987
40
0.406249999999987
40
0.437499999999986
40
0.499999999999987
40
0.562499999999987
40
0.562499999999987
40
0.624999999999987
40
0.624999999999987
40
0.687499999999988
40
0.687499999999988
40
0.749999999999988
40
0.749999999999988
40
0.874999999999991
40
0.874999999999991
40
0.937499999999995
40
0.937499999999995
40
1
40
1
40
1
40
1
41
1
10
9.66608137331232
20
-1.32815233797862
30
0
41
1
10
9.67919794511843
20
-1.27916054066773
30
0
41
1
10
9.68783022278782
20
-1.22905490158101
30
0
41
1
10
9.69374036729693
20
-1.15189762753937
30
0
41
1
10
9.69452893053287
20
-1.12584204988261
30
0
41
1
10
9.6938018975373
20
-1.08617210539072
30
0
41
1
10
9.69323820774389
20
-1.0728201914697
30
0
41
1
10
9.69144828378506
20
-1.04604626410068
30
0
41
1
10
9.69022650537005
20
-1.03266781005993
30
0
41
1
10
9.68246569095166
20
-0.965805458094593
30
0
41
1
10
9.67104255861761
20
-0.912410563500231
30
0
41
1
10
9.64929975716097
20
-0.845588624549634
30
0
41
1
10
9.64456326185089
20
-0.832203806776079
30
0
41
1
10
9.63446775845034
20
-0.80585216300662
30
0
41
1
10
9.61834212156663
20
-0.766794007040176
30
0
41
1
10
9.58660776656609
20
-0.70401393337994
30
0
41
1
10
9.55600160325457
20
-0.65627531742274
30
0
41
1
10
9.52268271444802
20
-0.609830268451702
30
0
41
1
10
9.50506808694826
20
-0.587813604735658
30
0
41
1
10
9.46808638812252
20
-0.546050782975499
30
0
41
1
10
9.44871285656779
20
-0.526297008668223
30
0
41
1
10
9.40824750179507
20
-0.488939694671302
30
0
41
1
10
9.38707288400573
20
-0.471293140601489
30
0
41
1
10
9.32254820102716
20
-0.422626957124862
30
0
41
1
10
9.2777592520662
20
-0.395360151625937
30
0
41
1
10
9.20796320186872
20
-0.361207557278078
30
0
41
1
10
9.18418156163457
20
-0.350934126047775
30
0
41
1
10
9.13614125189392
20
-0.332780618803298
30
0
41
1
10
9.11190316666992
20
-0.324897933475711
30
0
41
1
10
9.08743696675288
20
-0.318161969546878
30
0
0
SPLINE
5
E8
100
AcDbEntity
8
1
62
256
6
ByLayer
370
18
48
1
60
0
100
AcDbSpline
70
4
71
3
72
26
73
22
40
0
40
0
40
0
40
0
40
0.24999999999997
40
0.24999999999997
40
0.312499999999967
40
0.312499999999967
40
0.374999999999965
40
0.374999999999965
40
0.499999999999968
40
0.499999999999968
40
0.562499999999971
40
0.562499999999971
40
0.624999999999973
40
0.624999999999973
40
0.749999999999969
40
0.749999999999969
40
0.812499999999974
40
0.812499999999974
40
0.874999999999979
40
0.874999999999979
40
1
40
1
40
1
40
1
41
1
10
9.08743696675288
20
0.318161969546793
30
0
41
1
10
9.05495537354815
20
0.309219230546887
30
0
41
1
10
9.02406871716531
20
0.295487632259011
30
0
41
1
10
8.9877338895754
20
0.271835338828993
30
0
41
1
10
8.98055494947303
20
0.266749506773095
30
0
41
1
10
8.96667301233666
20
0.256053009176298
30
0
41
1
10
8.95995081245027
20
0.250433399071113
30
0
41
1
10
8.94044568058817
20
0.232759503349257
30
0
41
1
10
8.92831959826074
20
0.219895784116773
30
0
41
1
10
8.91154300014799
20
0.198881054867883
30
0
41
1
10
8.90618728970395
20
0.191588310609035
30
0
41
1
10
8.8959808408608
20
0.176391613443798
30
0
41
1
10
8.8911702939929
20
0.168541170711222
30
0
41
1
10
8.87780791395866
20
0.144543772838062
30
0
41
1
10
8.87023550285247
20
0.12783349964954
30
0
41
1
10
8.86094842704583
20
0.101670510413328
30
0
41
1
10
8.85819967531449
20
0.0927656700964121
30
0
41
1
10
8.85343071279328
20
0.0745707697432181
30
0
41
1
10
8.85141788139265
20
0.0652845989498871
30
0
41
1
10
8.84662882318378
20
0.0374812768525317
30
0
41
1
10
8.84503240689719
20
0.0188089532899767
30
0
41
1
10
8.84503240689719
20
-2.84E-14
30
0
0
SPLINE
5
E9
100
AcDbEntity
8
1
62
256
6
ByLayer
370
18
48
1
60
0
100
AcDbSpline
70
4
71
3
72
34
73
30
40
0
40
0
40
0
40
0
40
0.125000000000025
40
0.125000000000025
40
0.187500000000036
40
0.187500000000036
40
0.21875000000004
40
0.21875000000004
40
0.250000000000044
40
0.250000000000044
40
0.375000000000043
40
0.375000000000043
40
0.40625000000004
40
0.40625000000004
40
0.437500000000038
40
0.500000000000033
40
0.562500000000029
40
0.562500000000029
40
0.625000000000024
40
0.625000000000024
40
0.68750000000002
40
0.68750000000002
40
0.750000000000015
40
0.750000000000015
40
0.875000000000006
40
0.875000000000006
40
0.937500000000003
40
0.937500000000003
40
1
40
1
40
1
40
1
41
1
10
9.08743696675288
20
0.318161969546793
30
0
41
1
10
9.13633485431282
20
0.331624395584214
30
0
41
1
10
9.18392568020144
20
0.349518652074551
30
0
41
1
10
9.25347662040662
20
0.38344270749559
30
0
41
1
10
9.27635300600042
20
0.395940146223524
30
0
41
1
10
9.31020768432748
20
0.416630578172146
30
0
41
1
10
9.32144099565468
20
0.423869646460389
30
0
41
1
10
9.34363300317196
20
0.438954795783303
30
0
41
1
10
9.3545563772511
20
0.446775003959431
30
0
41
1
10
9.40831197207262
20
0.487285990491074
30
0
41
1
10
9.44859726204288
20
0.524145157022446
30
0
41
1
10
9.49524655137739
20
0.576697657768221
30
0
41
1
10
9.5043978329698
20
0.587553152200769
30
0
41
1
10
9.52202496548634
20
0.609589767560152
30
0
41
1
10
9.54756395813172
20
0.643254814530451
30
0
41
1
10
9.5856731487045
20
0.702382611853551
30
0
41
1
10
9.61137699797953
20
0.752929867776459
30
0
41
1
10
9.63459294419454
20
0.805163106388306
30
0
41
1
10
9.64467755804216
20
0.83149386630501
30
0
41
1
10
9.6620017685745
20
0.884518869914046
30
0
41
1
10
9.66924466701306
20
0.911222535644697
30
0
41
1
10
9.6810064714771
20
0.965024710100323
30
0
41
1
10
9.68552061105834
20
0.992216397076987
30
0
41
1
10
9.69487022143255
20
1.07249352089428
30
0
41
1
10
9.6957404937512
20
1.1249222467064
30
0
41
1
10
9.68990353894444
20
1.20240655888611
30
0
41
1
10
9.68673853750326
20
1.22811828053665
30
0
41
1
10
9.67810258126724
20
1.27874279472232
30
0
41
1
10
9.67264428782812
20
1.30363915095995
30
0
41
1
10
9.66608137331232
20
1.32815233797854
30
0
0
SPLINE
5
EA
100
AcDbEntity
8
1
62
256
6
ByLayer
370
18
48
1
60
0
100
AcDbSpline
70
4
71
3
72
24
73
20
40
0
40
0
40
0
40
0
40
0.0625000000000032
40
0.0625000000000032
40
0.125000000000006
40
0.125000000000006
40
0.250000000000022
40
0.250000000000022
40
0.312500000000028
40
0.312500000000028
40
0.375000000000034
40
0.375000000000034
40
0.500000000000026
40
0.500000000000026
40
0.625000000000017
40
0.625000000000017
40
0.750000000000008
40
0.750000000000008
40
1
40
1
40
1
40
1
41
1
10
9.81795551730201
20
1.69818105833974
30
0
41
1
10
9.80985379708403
20
1.69343133782238
30
0
41
1
10
9.80188259766985
20
1.68828978898642
30
0
41
1
10
9.78643934119629
20
1.67735532158599
30
0
41
1
10
9.7790147117604
20
1.67160082777491
30
0
41
1
10
9.75759965526953
20
1.653507056405
30
0
41
1
10
9.74446216737209
20
1.64034310533583
30
0
41
1
10
9.72645192892097
20
1.61896037283975
30
0
41
1
10
9.72072705244133
20
1.61154312092052
30
0
41
1
10
9.71006149339863
20
1.59645701884017
30
0
41
1
10
9.7050898723825
20
1.58875416851677
30
0
41
1
10
9.69121717653695
20
1.56518656155023
30
0
41
1
10
9.68335168916872
20
1.54886555606632
30
0
41
1
10
9.67034207933725
20
1.51503765004156
30
0
41
1
10
9.66536734599538
20
1.49797339489595
30
0
41
1
10
9.65820841441388
20
1.46360299775961
30
0
41
1
10
9.65602309997857
20
1.44623705874798
30
0
41
1
10
9.65359319685115
20
1.39416944412997
30
0
41
1
10
9.65739311512837
20
1.36060391070842
30
0
41
1
10
9.66608137331232
20
1.32815233797854
30
0
0
SPLINE
5
EB
100
AcDbEntity
8
1
62
256
6
ByLayer
370
18
48
1
60
0
100
AcDbSpline
70
4
71
3
72
26
73
22
40
0
40
0
40
0
40
0
40
0.124999999999999
40
0.124999999999999
40
0.249999999999998
40
0.249999999999998
40
0.312499999999995
40
0.312499999999995
40
0.374999999999993
40
0.374999999999993
40
0.499999999999988
40
0.499999999999988
40
0.562499999999986
40
0.562499999999986
40
0.624999999999985
40
0.624999999999985
40
0.74999999999999
40
0.74999999999999
40
0.874999999999995
40
0.874999999999995
40
1
40
1
40
1
40
1
41
1
10
12.7820324068972
20
-5.68E-14
30
0
41
1
10
12.7820324068972
20
0.0187420838796299
30
0
41
1
10
12.7803952024018
20
0.0377900241209375
30
0
41
1
10
12.7740176875801
20
0.0746705458543033
30
0
41
1
10
12.7693051985627
20
0.0926468374792933
30
0
41
1
10
12.7599977930003
20
0.118927230560757
30
0
41
1
10
12.7564999319925
20
0.127613610562889
30
0
41
1
10
12.7488665371332
20
0.144482547615922
30
0
41
1
10
12.7447315061621
20
0.152677395515781
30
0
41
1
10
12.7314147363129
20
0.176573251819434
30
0
41
1
10
12.7213269693905
20
0.191589936924487
30
0
41
1
10
12.7044371139834
20
0.212775539408341
30
0
41
1
10
12.6985250242816
20
0.219591918569023
30
0
41
1
10
12.6863297787401
20
0.232559589510657
30
0
41
1
10
12.6800237036826
20
0.238740382771141
30
0
41
1
10
12.660508759673
20
0.256409082201259
30
0
41
1
10
12.6467065345593
20
0.267028270971025
30
0
41
1
10
12.6175779401371
20
0.28600138094609
30
0
41
1
10
12.6025097010834
20
0.29418115880452
30
0
41
1
10
12.5716501545971
20
0.308022019823881
30
0
41
1
10
12.5558272963853
20
0.313701983655363
30
0
41
1
10
12.5396278470415
20
0.318161969546793
30
0
0
SPLINE
5
EC
100
AcDbEntity
8
1
62
256
6
ByLayer
370
18
48
1
60
0
100
AcDbSpline
70
4
71
3
72
34
73
30
40
0
40
0
40
0
40
0
40
0.124999999999991
40
0.124999999999991
40
0.187499999999988
40
0.187499999999988
40
0.218749999999985
40
0.218749999999985
40
0.249999999999982
40
0.249999999999982
40
0.374999999999983
40
0.374999999999983
40
0.406249999999983
40
0.406249999999983
40
0.437499999999982
40
0.499999999999983
40
0.562499999999984
40
0.562499999999984
40
0.624999999999985
40
0.624999999999985
40
0.687499999999985
40
0.687499999999985
40
0.749999999999986
40
0.749999999999986
40
0.87499999999999
40
0.87499999999999
40
0.937499999999995
40
0.937499999999995
40
1
40
1
40
1
40
1
41
1
10
11.9609834404821
20
1.32815233797854
30
0
41
1
10
11.9478668686759
20
1.27916054066765
30
0
41
1
10
11.9392345910065
20
1.22905490158092
30
0
41
1
10
11.9333244464974
20
1.15189762753926
30
0
41
1
10
11.9325358832615
20
1.12584204988252
30
0
41
1
10
11.9332629162571
20
1.08617210539063
30
0
41
1
10
11.9338266060505
20
1.07282019146962
30
0
41
1
10
11.9356165300093
20
1.0460462641006
30
0
41
1
10
11.9368383084243
20
1.03266781005985
30
0
41
1
10
11.9445991228427
20
0.965805458094508
30
0
41
1
10
11.9560222551767
20
0.912410563500146
30
0
41
1
10
11.9777650566334
20
0.845588624549549
30
0
41
1
10
11.9825015519435
20
0.832203806775993
30
0
41
1
10
11.992597055344
20
0.805852163006534
30
0
41
1
10
12.0087226922277
20
0.76679400704009
30
0
41
1
10
12.0404570472283
20
0.704013933379855
30
0
41
1
10
12.0710632105398
20
0.656275317422654
30
0
41
1
10
12.1043820993463
20
0.609830268451617
30
0
41
1
10
12.1219967268461
20
0.587813604735572
30
0
41
1
10
12.1589784256719
20
0.546050782975414
30
0
41
1
10
12.1783519572266
20
0.526297008668138
30
0
41
1
10
12.2188173119993
20
0.488939694671217
30
0
41
1
10
12.2399919297887
20
0.471293140601404
30
0
41
1
10
12.3045166127672
20
0.422626957124777
30
0
41
1
10
12.3493055617282
20
0.395360151625852
30
0
41
1
10
12.4191016119257
20
0.361207557277993
30
0
41
1
10
12.4428832521598
20
0.35093412604769
30
0
41
1
10
12.4909235619004
20
0.332780618803213
30
0
41
1
10
12.5151616471244
20
0.324897933475626
30
0
41
1
10
12.5396278470415
20
0.318161969546793
30
0
0
SPLINE
5
ED
100
AcDbEntity
8
1
62
256
6
ByLayer
370
18
48
1
60
0
100
AcDbSpline
70
4
71
3
72
24
73
20
40
0
40
0
40
0
40
0
40
0.0625000000000037
40
0.0625000000000037
40
0.125000000000007
40
0.125000000000007
40
0.250000000000005
40
0.250000000000005
40
0.312500000000006
40
0.312500000000006
40
0.375000000000007
40
0.375000000000007
40
0.500000000000008
40
0.500000000000008
40
0.625000000000008
40
0.625000000000008
40
0.750000000000008
40
0.750000000000008
40
1
40
1
40
1
40
1
41
1
10
11.8091092964924
20
1.69818105833974
30
0
41
1
10
11.8172110167103
20
1.69343133782238
30
0
41
1
10
11.8251822161245
20
1.68828978898642
30
0
41
1
10
11.8406254725981
20
1.67735532158596
30
0
41
1
10
11.848050102034
20
1.67160082777488
30
0
41
1
10
11.8694651585249
20
1.65350705640498
30
0
41
1
10
11.8826026464223
20
1.64034310533583
30
0
41
1
10
11.9006128848734
20
1.61896037283972
30
0
41
1
10
11.9063377613531
20
1.61154312092049
30
0
41
1
10
11.9170033203957
20
1.59645701884017
30
0
41
1
10
11.9219749414119
20
1.58875416851674
30
0
41
1
10
11.9358476372574
20
1.56518656155023
30
0
41
1
10
11.9437131246257
20
1.54886555606632
30
0
41
1
10
11.9567227344571
20
1.51503765004154
30
0
41
1
10
11.961697467799
20
1.49797339489592
30
0
41
1
10
11.9688563993805
20
1.46360299775958
30
0
41
1
10
11.9710417138158
20
1.44623705874798
30
0
41
1
10
11.9734716169432
20
1.39416944412997
30
0
41
1
10
11.969671698666
20
1.36060391070842
30
0
41
1
10
11.9609834404821
20
1.32815233797854
30
0
0
SPLINE
5
EE
100
AcDbEntity
8
1
62
256
6
ByLayer
370
18
48
1
60
0
100
AcDbSpline
70
4
71
3
72
26
73
22
40
0
40
0
40
0
40
0
40
0.24999999999997
40
0.24999999999997
40
0.312499999999967
40
0.312499999999967
40
0.374999999999965
40
0.374999999999965
40
0.499999999999968
40
0.499999999999968
40
0.562499999999971
40
0.562499999999971
40
0.624999999999973
40
0.624999999999973
40
0.749999999999969
40
0.749999999999969
40
0.812499999999974
40
0.812499999999974
40
0.874999999999979
40
0.874999999999979
40
1
40
1
40
1
40
1
41
1
10
12.5396278470415
20
-0.318161969546878
30
0
41
1
10
12.5721094402462
20
-0.309219230546972
30
0
41
1
10
12.6029960966291
20
-0.295487632259096
30
0
41
1
10
12.639330924219
20
-0.271835338829078
30
0
41
1
10
12.6465098643214
20
-0.266749506773181
30
0
41
1
10
12.6603918014577
20
-0.256053009176384
30
0
41
1
10
12.6671140013441
20
-0.250433399071198
30
0
41
1
10
12.6866191332062
20
-0.232759503349371
30
0
41
1
10
12.6987452155337
20
-0.219895784116858
30
0
41
1
10
12.7155218136464
20
-0.198881054867997
30
0
41
1
10
12.7208775240904
20
-0.19158831060912
30
0
41
1
10
12.7310839729336
20
-0.176391613443911
30
0
41
1
10
12.7358945198015
20
-0.168541170711308
30
0
41
1
10
12.7492568998357
20
-0.144543772838148
30
0
41
1
10
12.7568293109419
20
-0.127833499649654
30
0
41
1
10
12.7661163867485
20
-0.101670510413442
30
0
41
1
10
12.7688651384799
20
-0.0927656700965258
30
0
41
1
10
12.7736341010011
20
-0.0745707697433033
30
0
41
1
10
12.7756469324017
20
-0.0652845989499724
30
0
41
1
10
12.7804359906106
20
-0.0374812768526169
30
0
41
1
10
12.7820324068972
20
-0.0188089532900904
30
0
41
1
10
12.7820324068972
20
-5.68E-14
30
0
0
SPLINE
5
EF
100
AcDbEntity
8
1
62
256
6
ByLayer
370
18
48
1
60
0
100
AcDbSpline
70
4
71
3
72
34
73
30
40
0
40
0
40
0
40
0
40
0.125000000000025
40
0.125000000000025
40
0.187500000000036
40
0.187500000000036
40
0.21875000000004
40
0.21875000000004
40
0.250000000000044
40
0.250000000000044
40
0.375000000000043
40
0.375000000000043
40
0.40625000000004
40
0.40625000000004
40
0.437500000000038
40
0.500000000000033
40
0.562500000000029
40
0.562500000000029
40
0.625000000000024
40
0.625000000000024
40
0.68750000000002
40
0.68750000000002
40
0.750000000000015
40
0.750000000000015
40
0.875000000000006
40
0.875000000000006
40
0.937500000000003
40
0.937500000000003
40
1
40
1
40
1
40
1
41
1
10
12.5396278470415
20
-0.318161969546878
30
0
41
1
10
12.4907299594815
20
-0.331624395584299
30
0
41
1
10
12.4431391335929
20
-0.349518652074636
30
0
41
1
10
12.3735881933878
20
-0.383442707495675
30
0
41
1
10
12.3507118077939
20
-0.395940146223637
30
0
41
1
10
12.3168571294669
20
-0.416630578172231
30
0
41
1
10
12.3056238181397
20
-0.423869646460503
30
0
41
1
10
12.2834318106224
20
-0.438954795783388
30
0
41
1
10
12.2725084365433
20
-0.446775003959516
30
0
41
1
10
12.2187528417217
20
-0.487285990491159
30
0
41
1
10
12.1784675517515
20
-0.524145157022531
30
0
41
1
10
12.131818262417
20
-0.576697657768307
30
0
41
1
10
12.1226669808246
20
-0.587553152200854
30
0
41
1
10
12.105039848308
20
-0.609589767560237
30
0
41
1
10
12.0795008556626
20
-0.643254814530536
30
0
41
1
10
12.0413916650899
20
-0.702382611853636
30
0
41
1
10
12.0156878158149
20
-0.752929867776544
30
0
41
1
10
11.9924718695998
20
-0.80516310638842
30
0
41
1
10
11.9823872557522
20
-0.831493866305095
30
0
41
1
10
11.9650630452199
20
-0.884518869914132
30
0
41
1
10
11.9578201467813
20
-0.911222535644782
30
0
41
1
10
11.9460583423173
20
-0.965024710100408
30
0
41
1
10
11.941544202736
20
-0.992216397077073
30
0
41
1
10
11.9321945923618
20
-1.0724935208944
30
0
41
1
10
11.9313243200432
20
-1.12492224670649
30
0
41
1
10
11.9371612748499
20
-1.2024065588862
30
0
41
1
10
11.9403262762911
20
-1.22811828053673
30
0
41
1
10
11.9489622325271
20
-1.27874279472241
30
0
41
1
10
11.9544205259662
20
-1.30363915096004
30
0
41
1
10
11.960983440482
20
-1.32815233797862
30
0
0
SPLINE
5
F0
100
AcDbEntity
8
1
62
256
6
ByLayer
370
18
48
1
60
0
100
AcDbSpline
70
4
71
3
72
24
73
20
40
0
40
0
40
0
40
0
40
0.0624999999999996
40
0.0624999999999996
40
0.124999999999999
40
0.124999999999999
40
0.250000000000008
40
0.250000000000008
40
0.31250000000001
40
0.31250000000001
40
0.375000000000013
40
0.375000000000013
40
0.500000000000009
40
0.500000000000009
40
0.625000000000004
40
0.625000000000004
40
0.75
40
0.75
40
1
40
1
40
1
40
1
41
1
10
11.8091092964924
20
-1.69818105833983
30
0
41
1
10
11.8172110167103
20
-1.69343133782246
30
0
41
1
10
11.8251822161245
20
-1.68828978898654
30
0
41
1
10
11.8406254725981
20
-1.67735532158608
30
0
41
1
10
11.848050102034
20
-1.67160082777499
30
0
41
1
10
11.8694651585248
20
-1.65350705640509
30
0
41
1
10
11.8826026464223
20
-1.64034310533592
30
0
41
1
10
11.9006128848734
20
-1.61896037283984
30
0
41
1
10
11.906337761353
20
-1.6115431209206
30
0
41
1
10
11.9170033203957
20
-1.59645701884025
30
0
41
1
10
11.9219749414119
20
-1.58875416851686
30
0
41
1
10
11.9358476372574
20
-1.56518656155032
30
0
41
1
10
11.9437131246256
20
-1.54886555606643
30
0
41
1
10
11.9567227344571
20
-1.51503765004165
30
0
41
1
10
11.961697467799
20
-1.49797339489604
30
0
41
1
10
11.9688563993805
20
-1.46360299775969
30
0
41
1
10
11.9710417138158
20
-1.44623705874807
30
0
41
1
10
11.9734716169432
20
-1.39416944413006
30
0
41
1
10
11.969671698666
20
-1.36060391070851
30
0
41
1
10
11.960983440482
20
-1.32815233797862
30
0
0
SPLINE
5
F1
100
AcDbEntity
8
1
62
256
6
ByLayer
370
18
48
1
60
0
100
AcDbSpline
70
4
71
3
72
17
73
13
40
0
40
0
40
0
40
0
40
0.250000000000002
40
0.250000000000002
40
0.500000000000005
40
0.500000000000005
40
0.562500000000002
40
0.562500000000002
40
0.624999999999999
40
0.749999999999996
40
0.749999999999996
40
1
40
1
40
1
40
1
41
1
10
10.22141470273
20
1.64358262808872
30
0
41
1
10
10.2495800880877
20
1.61462460363109
30
0
41
1
10
10.2798066490326
20
1.58776905890366
30
0
41
1
10
10.3446107302842
20
1.53828026163313
30
0
41
1
10
10.3791817117634
20
1.51564270781321
30
0
41
1
10
10.4255438950406
20
1.4902105226125
30
0
41
1
10
10.4349976970859
20
1.48525755203701
30
0
41
1
10
10.4541071307835
20
1.47571635835556
30
0
41
1
10
10.483070369949
20
1.46195011152753
30
0
41
1
10
10.5129461301538
20
1.44982303345165
30
0
41
1
10
10.5739830189753
20
1.42780907632689
30
0
41
1
10
10.6163742096302
20
1.4160955020356
30
0
41
1
10
10.6607911135207
20
1.40773793629978
30
0
0
SPLINE
5
F2
100
AcDbEntity
8
1
62
256
6
ByLayer
370
18
48
1
60
0
100
AcDbSpline
70
4
71
3
72
18
73
14
40
0
40
0
40
0
40
0
40
0.25
40
0.25
40
0.375000000000004
40
0.375000000000004
40
0.437500000000005
40
0.437500000000005
40
0.500000000000006
40
0.500000000000006
40
0.750000000000003
40
0.750000000000003
40
1
40
1
40
1
40
1
41
1
10
10.9662737002737
20
1.40773793629978
30
0
41
1
10
11.0106986897545
20
1.41609702343504
30
0
41
1
10
11.05306113458
20
1.42780592386288
30
0
41
1
10
11.1140200048368
20
1.44978529958451
30
0
41
1
10
11.13390521975
20
1.45785398223066
30
0
41
1
10
11.1631175531406
20
1.4710409062468
30
0
41
1
10
11.1727522503544
20
1.47561747444701
30
0
41
1
10
11.1918202825067
20
1.48513070900492
30
0
41
1
10
11.201274436722
20
1.49007912414402
30
0
41
1
10
11.2477411987749
20
1.51554985314357
30
0
41
1
10
11.2823657507522
20
1.53821699746726
30
0
41
1
10
11.3472393822069
20
1.58775052945967
30
0
41
1
10
11.3774816064214
20
1.61462139656189
30
0
41
1
10
11.4056501110644
20
1.64358262808872
30
0
0
SPLINE
5
F3
100
AcDbEntity
8
1
62
256
6
ByLayer
370
18
48
1
60
0
100
AcDbSpline
70
4
71
3
72
24
73
20
40
0
40
0
40
0
40
0
40
0.124999999999995
40
0.124999999999995
40
0.187499999999992
40
0.187499999999992
40
0.249999999999989
40
0.249999999999989
40
0.374999999999993
40
0.374999999999993
40
0.499999999999997
40
0.499999999999997
40
0.625000000000001
40
0.625000000000001
40
0.687500000000002
40
0.687500000000002
40
0.750000000000004
40
0.750000000000004
40
1
40
1
40
1
40
1
41
1
10
11.8091092964924
20
1.69818105833974
30
0
41
1
10
11.7924832494711
20
1.70792825702529
30
0
41
1
10
11.7751706557168
20
1.71613573668981
30
0
41
1
10
11.7481849631099
20
1.72616576349762
30
0
41
1
10
11.7389850357787
20
1.72913594129568
30
0
41
1
10
11.7203878720698
20
1.7342485495551
30
0
41
1
10
11.711081486334
20
1.73636958926602
30
0
41
1
10
11.683141372779
20
1.74149634461298
30
0
41
1
10
11.664486747141
20
1.74327407382685
30
0
41
1
10
11.6271324649553
20
1.74368150345831
30
0
41
1
10
11.6082934844708
20
1.74226047800434
30
0
41
1
10
11.5721173019767
20
1.73648729490304
30
0
41
1
10
11.5546019333442
20
1.73215862463135
30
0
41
1
10
11.5291435300788
20
1.72365209639119
30
0
41
1
10
11.5207939090841
20
1.72047913939872
30
0
41
1
10
11.5043684660461
20
1.71346298446994
30
0
41
1
10
11.4962656623059
20
1.70960285142726
30
0
41
1
10
11.4571165353766
20
1.68898464130703
30
0
41
1
10
11.4296074212201
20
1.66821415237351
30
0
41
1
10
11.4056501110644
20
1.64358262808872
30
0
0
SPLINE
5
F4
100
AcDbEntity
8
1
62
256
6
ByLayer
370
18
48
1
60
0
100
AcDbSpline
70
4
71
3
72
24
73
20
40
0
40
0
40
0
40
0
40
0.249999999999975
40
0.249999999999975
40
0.312499999999971
40
0.312499999999971
40
0.374999999999967
40
0.374999999999967
40
0.49999999999998
40
0.49999999999998
40
0.624999999999994
40
0.624999999999994
40
0.750000000000007
40
0.750000000000007
40
0.812500000000009
40
0.812500000000009
40
0.87500000000001
40
0.87500000000001
40
1
40
1
40
1
40
1
41
1
10
10.22141470273
20
1.64358262808872
30
0
41
1
10
10.1974573925743
20
1.66821415237351
30
0
41
1
10
10.1699482784177
20
1.68898464130703
30
0
41
1
10
10.1307991514884
20
1.70960285142726
30
0
41
1
10
10.1226963477483
20
1.71346298446994
30
0
41
1
10
10.1062709047102
20
1.72047913939872
30
0
41
1
10
10.0979212837156
20
1.72365209639119
30
0
41
1
10
10.0724628804502
20
1.73215862463138
30
0
41
1
10
10.0549475118177
20
1.73648729490304
30
0
41
1
10
10.0187713293236
20
1.74226047800434
30
0
41
1
10
9.99993234883911
20
1.74368150345831
30
0
41
1
10
9.96257806665338
20
1.74327407382685
30
0
41
1
10
9.94392344101541
20
1.74149634461298
30
0
41
1
10
9.9159833274604
20
1.73636958926605
30
0
41
1
10
9.90667694172456
20
1.7342485495551
30
0
41
1
10
9.88807977801565
20
1.72913594129568
30
0
41
1
10
9.87887985068448
20
1.72616576349765
30
0
41
1
10
9.85189415807756
20
1.71613573668981
30
0
41
1
10
9.83458156432326
20
1.70792825702529
30
0
41
1
10
9.81795551730201
20
1.69818105833974
30
0
0
SPLINE
5
F5
100
AcDbEntity
8
1
62
256
6
ByLayer
370
18
48
1
60
0
100
AcDbSpline
70
4
71
3
72
18
73
14
40
0
40
0
40
0
40
0
40
0.250000000000026
40
0.250000000000026
40
0.375000000000034
40
0.375000000000034
40
0.437500000000037
40
0.437500000000037
40
0.500000000000039
40
0.500000000000039
40
0.750000000000019
40
0.750000000000019
40
1
40
1
40
1
40
1
41
1
10
10.6607911135207
20
-1.40773793629987
30
0
41
1
10
10.6163661240395
20
-1.41609702343519
30
0
41
1
10
10.5740036792139
20
-1.42780592386308
30
0
41
1
10
10.5130448089573
20
-1.4497852995847
30
0
41
1
10
10.4931595940442
20
-1.45785398223083
30
0
41
1
10
10.4639472606538
20
-1.47104090624688
30
0
41
1
10
10.45431256344
20
-1.47561747444706
30
0
41
1
10
10.435244531288
20
-1.48513070900486
30
0
41
1
10
10.4257903770727
20
-1.4900791241439
30
0
41
1
10
10.3793236150196
20
-1.51554985314357
30
0
41
1
10
10.3446990630422
20
-1.53821699746732
30
0
41
1
10
10.2798254315874
20
-1.58775052945978
30
0
41
1
10
10.249583207373
20
-1.61462139656203
30
0
41
1
10
10.22141470273
20
-1.64358262808881
30
0
0
SPLINE
5
F6
100
AcDbEntity
8
1
62
256
6
ByLayer
370
18
48
1
60
0
100
AcDbSpline
70
4
71
3
72
24
73
20
40
0
40
0
40
0
40
0
40
0.125000000000003
40
0.125000000000003
40
0.187500000000013
40
0.187500000000013
40
0.250000000000022
40
0.250000000000022
40
0.375000000000031
40
0.375000000000031
40
0.50000000000004
40
0.50000000000004
40
0.625000000000048
40
0.625000000000048
40
0.687500000000042
40
0.687500000000042
40
0.750000000000035
40
0.750000000000035
40
1
40
1
40
1
40
1
41
1
10
9.81795551730201
20
-1.69818105833983
30
0
41
1
10
9.83458156432323
20
-1.70792825702537
30
0
41
1
10
9.85189415807753
20
-1.71613573668989
30
0
41
1
10
9.87887985068446
20
-1.72616576349773
30
0
41
1
10
9.88807977801562
20
-1.72913594129577
30
0
41
1
10
9.90667694172453
20
-1.73424854955519
30
0
41
1
10
9.9159833274604
20
-1.73636958926613
30
0
41
1
10
9.94392344101539
20
-1.74149634461307
30
0
41
1
10
9.96257806665338
20
-1.74327407382694
30
0
41
1
10
9.99993234883908
20
-1.74368150345839
30
0
41
1
10
10.0187713293236
20
-1.74226047800443
30
0
41
1
10
10.0549475118177
20
-1.73648729490313
30
0
41
1
10
10.0724628804502
20
-1.73215862463144
30
0
41
1
10
10.0979212837156
20
-1.72365209639128
30
0
41
1
10
10.1062709047102
20
-1.72047913939881
30
0
41
1
10
10.1226963477483
20
-1.71346298447003
30
0
41
1
10
10.1307991514884
20
-1.70960285142735
30
0
41
1
10
10.1699482784177
20
-1.68898464130712
30
0
41
1
10
10.1974573925743
20
-1.66821415237359
30
0
41
1
10
10.22141470273
20
-1.64358262808881
30
0
0
SPLINE
5
F7
100
AcDbEntity
8
1
62
256
6
ByLayer
370
18
48
1
60
0
100
AcDbSpline
70
4
71
3
72
24
73
20
40
0
40
0
40
0
40
0
40
0.249999999999984
40
0.249999999999984
40
0.312499999999982
40
0.312499999999982
40
0.374999999999981
40
0.374999999999981
40
0.499999999999988
40
0.499999999999988
40
0.624999999999996
40
0.624999999999996
40
0.750000000000004
40
0.750000000000004
40
0.812500000000003
40
0.812500000000003
40
0.875000000000001
40
0.875000000000001
40
1
40
1
40
1
40
1
41
1
10
11.4056501110644
20
-1.64358262808881
30
0
41
1
10
11.4296074212201
20
-1.66821415237359
30
0
41
1
10
11.4571165353766
20
-1.68898464130712
30
0
41
1
10
11.4962656623059
20
-1.70960285142735
30
0
41
1
10
11.504368466046
20
-1.71346298447003
30
0
41
1
10
11.5207939090841
20
-1.72047913939881
30
0
41
1
10
11.5291435300788
20
-1.72365209639128
30
0
41
1
10
11.5546019333442
20
-1.73215862463147
30
0
41
1
10
11.5721173019767
20
-1.73648729490313
30
0
41
1
10
11.6082934844708
20
-1.74226047800443
30
0
41
1
10
11.6271324649553
20
-1.74368150345839
30
0
41
1
10
11.664486747141
20
-1.74327407382694
30
0
41
1
10
11.683141372779
20
-1.7414963446131
30
0
41
1
10
11.711081486334
20
-1.73636958926613
30
0
41
1
10
11.7203878720698
20
-1.73424854955519
30
0
41
1
10
11.7389850357787
20
-1.72913594129577
30
0
41
1
10
11.7481849631099
20
-1.72616576349773
30
0
41
1
10
11.7751706557168
20
-1.71613573668989
30
0
41
1
10
11.7924832494711
20
-1.70792825702537
30
0
41
1
10
11.8091092964924
20
-1.69818105833983
30
0
0
SPLINE
5
F8
100
AcDbEntity
8
1
62
256
6
ByLayer
370
18
48
1
60
0
100
AcDbSpline
70
4
71
3
72
17
73
13
40
0
40
0
40
0
40
0
40
0.250000000000005
40
0.250000000000005
40
0.50000000000001
40
0.50000000000001
40
0.562500000000009
40
0.562500000000009
40
0.625000000000009
40
0.750000000000005
40
0.750000000000005
40
1
40
1
40
1
40
1
41
1
10
11.4056501110644
20
-1.64358262808881
30
0
41
1
10
11.3774847257066
20
-1.61462460363114
30
0
41
1
10
11.3472581647617
20
-1.58776905890366
30
0
41
1
10
11.28245408351
20
-1.53828026163308
30
0
41
1
10
11.2478831020307
20
-1.51564270781313
30
0
41
1
10
11.2015209187535
20
-1.49021052261241
30
0
41
1
10
11.1920671167081
20
-1.4852575520369
30
0
41
1
10
11.1729576830104
20
-1.47571635835544
30
0
41
1
10
11.1439944438449
20
-1.46195011152741
30
0
41
1
10
11.1141186836401
20
-1.44982303345156
30
0
41
1
10
11.0530817948186
20
-1.42780907632687
30
0
41
1
10
11.010690604164
20
-1.41609550203566
30
0
41
1
10
10.9662737002736
20
-1.40773793629987
30
0
0
SPLINE
5
F9
100
AcDbEntity
8
1
62
256
6
ByLayer
370
18
48
1
60
0
100
AcDbSpline
70
4
71
3
72
14
73
10
40
0
40
0
40
0
40
0
40
0.25
40
0.25
40
0.5
40
0.5
40
0.75
40
0.75
40
1
40
1
40
1
40
1
41
1
10
37.5585914354833
20
1.58101585514481
30
0
41
1
10
37.577038213944
20
1.58659179060044
30
0
41
1
10
37.5958129740117
20
1.59243134213997
30
0
41
1
10
37.6339978145408
20
1.60462108566563
30
0
41
1
10
37.6534517066301
20
1.61098651499523
30
0
41
1
10
37.6926091618263
20
1.6240983394267
30
0
41
1
10
37.7123893720814
20
1.63086997484109
30
0
41
1
10
37.7520444851653
20
1.64473441943522
30
0
41
1
10
37.7718933947803
20
1.65181740773133
30
0
41
1
10
37.79176342301
20
1.65904950660453
30
0
0
SPLINE
5
FA
100
AcDbEntity
8
1
62
256
6
ByLayer
370
18
48
1
60
0
100
AcDbSpline
70
4
71
3
72
14
73
10
40
0
40
0
40
0
40
0
40
0.25
40
0.25
40
0.5
40
0.5
40
0.75
40
0.75
40
1
40
1
40
1
40
1
41
1
10
37.79176342301
20
-1.5840495066048
30
0
41
1
10
37.7718934429755
20
-1.57681742527325
30
0
41
1
10
37.7520627764656
20
-1.56974107882382
30
0
41
1
10
37.7124805041078
20
-1.55590157338412
30
0
41
1
10
37.6926804982694
20
-1.54912256456478
30
0
41
1
10
37.6535143881248
20
-1.53600716675032
30
0
41
1
10
37.6340861020835
20
-1.52964955421402
30
0
41
1
10
37.5958298891616
20
-1.51743645822046
30
0
41
1
10
37.5770380320264
20
-1.51159173561217
30
0
41
1
10
37.5585914354833
20
-1.50601585514505
30
0
0
SPLINE
5
FB
100
AcDbEntity
8
1
62
256
6
ByLayer
370
18
48
1
60
0
100
AcDbSpline
70
4
71
3
72
14
73
10
40
0
40
0
40
0
40
0
40
0.25
40
0.25
40
0.5
40
0.5
40
0.75
40
0.75
40
1
40
1
40
1
40
1
41
1
10
23.9799412501641
20
-1.58404950660477
30
0
41
1
10
23.9998112301986
20
-1.57681742527319
30
0
41
1
10
24.0196418967085
20
-1.5697410788238
30
0
41
1
10
24.0592241690662
20
-1.55590157338409
30
0
41
1
10
24.0790241749046
20
-1.54912256456476
30
0
41
1
10
24.1181902850493
20
-1.5360071667503
30
0
41
1
10
24.1376185710906
20
-1.52964955421399
30
0
41
1
10
24.1758747840125
20
-1.51743645822043
30
0
41
1
10
24.1946666411477
20
-1.51159173561214
30
0
41
1
10
24.2131132376908
20
-1.50601585514505
30
0
0
SPLINE
5
FC
100
AcDbEntity
8
1
62
256
6
ByLayer
370
18
48
1
60
0
100
AcDbSpline
70
4
71
3
72
14
73
10
40
0
40
0
40
0
40
0
40
0.25
40
0.25
40
0.5
40
0.5
40
0.75
40
0.75
40
1
40
1
40
1
40
1
41
1
10
24.2131132376908
20
1.58101585514484
30
0
41
1
10
24.19466645923
20
1.58659179060046
30
0
41
1
10
24.1758916991624
20
1.59243134214
30
0
41
1
10
24.1377068586332
20
1.60462108566568
30
0
41
1
10
24.118252966544
20
1.61098651499529
30
0
41
1
10
24.0790955113478
20
1.62409833942672
30
0
41
1
10
24.0593153010927
20
1.63086997484112
30
0
41
1
10
24.0196601880088
20
1.64473441943528
30
0
41
1
10
23.9998112783938
20
1.65181740773136
30
0
41
1
10
23.9799412501641
20
1.65904950660456
30
0
0
SPLINE
5
FD
100
AcDbEntity
8
1
62
256
6
ByLayer
370
18
48
1
60
0
100
AcDbSpline
70
4
71
3
72
9
73
5
40
0
40
0
40
0
40
0
40
0.328379613142045
40
1
40
1
40
1
40
1
41
1
10
35.143762723231
20
1.18499999999986
30
0
41
1
10
35.2124166375109
20
1.18499999999986
30
0
41
1
10
35.4214853845717
20
1.18499999999986
30
0
41
1
10
35.6305541316325
20
1.18499999999989
30
0
41
1
10
35.7709688557017
20
1.18499999999989
30
0
0
SPLINE
5
FE
100
AcDbEntity
8
1
62
256
6
ByLayer
370
18
48
1
60
0
100
AcDbSpline
70
2053
71
3
72
86
73
82
40
0
40
0
40
0
40
0
40
0.0312500000000593
40
0.0312500000000593
40
0.0468750000000875
40
0.0468750000000875
40
0.0625000000001156
40
0.0625000000001156
40
0.0937500000001771
40
0.0937500000001771
40
0.125000000000239
40
0.125000000000239
40
0.1562500000003
40
0.1562500000003
40
0.171875000000322
40
0.171875000000322
40
0.187500000000345
40
0.187500000000345
40
0.218750000000365
40
0.218750000000365
40
0.250000000000385
40
0.250000000000385
40
0.281250000000405
40
0.281250000000405
40
0.312500000000425
40
0.312500000000425
40
0.328125000000436
40
0.328125000000436
40
0.343750000000448
40
0.343750000000448
40
0.375000000000467
40
0.375000000000467
40
0.406250000000486
40
0.406250000000486
40
0.421875000000494
40
0.421875000000494
40
0.437500000000503
40
0.437500000000503
40
0.468750000000512
40
0.468750000000512
40
0.500000000000521
40
0.500000000000521
40
0.53125000000053
40
0.53125000000053
40
0.546875000000537
40
0.546875000000537
40
0.562500000000543
40
0.562500000000543
40
0.593750000000541
40
0.593750000000541
40
0.62500000000054
40
0.62500000000054
40
0.656250000000539
40
0.656250000000539
40
0.687500000000538
40
0.687500000000538
40
0.703125000000525
40
0.703125000000525
40
0.718750000000513
40
0.718750000000513
40
0.750000000000466
40
0.750000000000466
40
0.781250000000419
40
0.781250000000419
40
0.796875000000387
40
0.796875000000387
40
0.812500000000355
40
0.812500000000355
40
0.843750000000294
40
0.843750000000294
40
0.875000000000232
40
0.875000000000232
40
0.90625000000017
40
0.90625000000017
40
0.921875000000142
40
0.921875000000142
40
0.937500000000114
40
0.937500000000114
40
0.968750000000057
40
0.968750000000057
40
1
40
1
40
1
40
1
41
1
10
35.9914180510108
20
0.837499999999867
30
0
41
1
10
35.9914180510108
20
0.828048473851254
30
0
41
1
10
35.9922566901662
20
0.818754888922598
30
0
41
1
10
35.9947211613641
20
0.805041734473178
30
0
41
1
10
35.9957452324671
20
0.80050883508946
30
0
41
1
10
35.998207780242
20
0.791521081483438
30
0
41
1
10
35.9996532080978
20
0.787054032375977
30
0
41
1
10
36.0045233392625
20
0.774059932608168
30
0
41
1
10
36.008496994133
20
0.765842682726827
30
0
41
1
10
36.0178850807746
20
0.750291167566331
30
0
41
1
10
36.0233494835756
20
0.742928008974559
30
0
41
1
10
36.0352860078676
20
0.729730280102558
30
0
41
1
10
36.0417990159319
20
0.723808130659052
30
0
41
1
10
36.0524051480363
20
0.715964204791732
30
0
41
1
10
36.0560799249969
20
0.713528808986013
30
0
41
1
10
36.0635488148525
20
0.7091150307524
30
0
41
1
10
36.0673625033489
20
0.707121327422129
30
0
41
1
10
36.0790377025483
20
0.701770098108142
30
0
41
1
10
36.0871889553174
20
0.699024269919647
30
0
41
1
10
36.1038882164664
20
0.695349384987793
30
0
41
1
10
36.1122820871533
20
0.69444057828494
30
0
41
1
10
36.1291559472534
20
0.694430669209879
30
0
41
1
10
36.1377253285346
20
0.695358934784622
30
0
41
1
10
36.1543174568188
20
0.699007922622428
30
0
41
1
10
36.1623818141874
20
0.701707870052587
30
0
41
1
10
36.1741288551218
20
0.707078282861687
30
0
41
1
10
36.1780063113851
20
0.709103363253632
30
0
41
1
10
36.1855021443909
20
0.713532432078154
30
0
41
1
10
36.1891272983803
20
0.715936284303211
30
0
41
1
10
36.1996433155472
20
0.723702157751745
30
0
41
1
10
36.2061782424692
20
0.729613085034202
30
0
41
1
10
36.2182594829155
20
0.742959527553239
30
0
41
1
10
36.2236252053688
20
0.750200529437365
30
0
41
1
10
36.2306545665625
20
0.761819277132247
30
0
41
1
10
36.2328294776839
20
0.765822569837013
30
0
41
1
10
36.2368358034079
20
0.774095394924359
30
0
41
1
10
36.2386724772927
20
0.778384001835036
30
0
41
1
10
36.2435463193312
20
0.791386803221172
30
0
41
1
10
36.2459938461591
20
0.800304482181161
30
0
41
1
10
36.2493053329714
20
0.818631965295225
30
0
41
1
10
36.2501542624564
20
0.828113079572404
30
0
41
1
10
36.2501602310341
20
0.846785779941825
30
0
41
1
10
36.2493446940235
20
0.856064653713105
30
0
41
1
10
36.2468686456817
20
0.869894997006782
30
0
41
1
10
36.2458288000049
20
0.874495153142931
30
0
41
1
10
36.2433720209814
20
0.883463247588224
30
0
41
1
10
36.2419513692322
20
0.887857206725101
30
0
41
1
10
36.2371223334998
20
0.900773367940587
30
0
41
1
10
36.2331258314461
20
0.909075873056963
30
0
41
1
10
36.2236662756114
20
0.924751354756239
30
0
41
1
10
36.2183128634258
20
0.93196171704335
30
0
41
1
10
36.206396262671
20
0.945165402194363
30
0
41
1
10
36.1997494919827
20
0.951210758610728
30
0
41
1
10
36.1856806275865
20
0.961617588131617
30
0
41
1
10
36.1782535268052
20
0.966017138138
30
0
41
1
10
36.1665226300323
20
0.971408122460304
30
0
41
1
10
36.1624900654007
20
0.973009308013133
30
0
41
1
10
36.1543524196649
20
0.975745463719193
30
0
41
1
10
36.1502503912781
20
0.976882932389458
30
0
41
1
10
36.1378472511734
20
0.979621301142572
30
0
41
1
10
36.1294500244501
20
0.980554691826455
30
0
41
1
10
36.1123895454683
20
0.980573951902699
30
0
41
1
10
36.1039463909373
20
0.979652732905549
30
0
41
1
10
36.091546907779
20
0.976939959048252
30
0
41
1
10
36.0874504012417
20
0.975812263585965
30
0
41
1
10
36.079332109947
20
0.97310138603055
30
0
41
1
10
36.0752909529838
20
0.971507739868827
30
0
41
1
10
36.0635195967432
20
0.966126843101591
30
0
41
1
10
36.0560843963867
20
0.961737232919887
30
0
41
1
10
36.0420257276748
20
0.951378633287447
30
0
41
1
10
36.0353595888798
20
0.945341658460961
30
0
41
1
10
36.0234057029831
20
0.932143465750357
30
0
41
1
10
36.0180479438784
20
0.924947927618632
30
0
41
1
10
36.0109556938988
20
0.913244918563663
30
0
41
1
10
36.0087463738718
20
0.909178156037484
30
0
41
1
10
36.0047431372238
20
0.900912394526927
30
0
41
1
10
36.0029358658434
20
0.896693864628361
30
0
41
1
10
35.9980862905539
20
0.883786087982912
30
0
41
1
10
35.9956052032657
20
0.874816848758968
30
0
41
1
10
35.9922567867412
20
0.856305048621095
30
0
41
1
10
35.9914180510108
20
0.846951526148445
30
0
41
1
10
35.9914180510108
20
0.837499999999867
30
0
0
SPLINE
5
FF
100
AcDbEntity
8
1
62
256
6
ByLayer
370
18
48
1
60
0
100
AcDbSpline
70
4
71
3
72
8
73
4
40
0
40
0
40
0
40
0
40
1
40
1
40
1
40
1
41
1
10
36.6938379917916
20
1.31962341102627
30
0
41
1
10
36.9820906533822
20
1.40675528409614
30
0
41
1
10
37.2703420686436
20
1.49388628571663
30
0
41
1
10
37.5585914354833
20
1.58101585514481
30
0
0
SPLINE
5
100
100
AcDbEntity
8
1
62
256
6
ByLayer
370
18
48
1
60
0
100
AcDbSpline
70
4
71
3
72
10
73
6
40
0
40
0
40
0
40
0
40
0.5
40
0.5
40
1
40
1
40
1
40
1
41
1
10
35.770968844851
20
1.18499999999986
30
0
41
1
10
35.9274572270403
20
1.18499999999986
30
0
41
1
10
36.0826180736265
20
1.19612812901173
30
0
41
1
10
36.3902866188472
20
1.24062187556635
30
0
41
1
10
36.5427967416097
20
1.27396726004213
30
0
41
1
10
36.6938379917916
20
1.31962341102627
30
0
0
SPLINE
5
101
100
AcDbEntity
8
1
62
256
6
ByLayer
370
18
48
1
60
0
100
AcDbSpline
70
4
71
3
72
10
73
6
40
0
40
0
40
0
40
0
40
0.5
40
0.5
40
1
40
1
40
1
40
1
41
1
10
35.143762723231
20
1.0629379281352
30
0
41
1
10
35.143762723231
20
1.05377452410639
30
0
41
1
10
35.1455261961356
20
1.04498513092406
30
0
41
1
10
35.1518998071898
20
1.02813848948125
30
0
41
1
10
35.156308195524
20
1.02053863067536
30
0
41
1
10
35.16152590614
20
1.01348433134578
30
0
0
SPLINE
5
102
100
AcDbEntity
8
1
62
256
6
ByLayer
370
18
48
1
60
0
100
AcDbSpline
70
4
71
3
72
8
73
4
40
0
40
0
40
0
40
0
40
1
40
1
40
1
40
1
41
1
10
35.16152590614
20
1.01348433134578
30
0
41
1
10
35.3114248959618
20
0.810822202064799
30
0
41
1
10
35.4613239548006
20
0.608160118283308
30
0
41
1
10
35.6112227797078
20
0.405497880281985
30
0
0
SPLINE
5
103
100
AcDbEntity
8
1
62
256
6
ByLayer
370
18
48
1
60
0
100
AcDbSpline
70
4
71
3
72
18
73
14
40
0
40
0
40
0
40
0
40
0.124999999999996
40
0.124999999999996
40
0.249999999999993
40
0.249999999999993
40
0.374999999999989
40
0.374999999999989
40
0.499999999999986
40
0.499999999999986
40
0.749999999999993
40
0.749999999999993
40
1
40
1
40
1
40
1
41
1
10
35.6112227797078
20
0.405497880281985
30
0
41
1
10
35.6181052979606
20
0.396192760291541
30
0
41
1
10
35.6257751874925
20
0.387967133293302
30
0
41
1
10
35.6421082639059
20
0.372877699236881
30
0
41
1
10
35.6507822400224
20
0.366028684310635
30
0
41
1
10
35.6688736960613
20
0.353350005579159
30
0
41
1
10
35.6783095677024
20
0.347522631038004
30
0
41
1
10
35.6974001671824
20
0.336877180016984
30
0
41
1
10
35.70710592549
20
0.332024123602395
30
0
41
1
10
35.7366040490561
20
0.318579716054216
30
0
41
1
10
35.7567720321686
20
0.311087815889209
30
0
41
1
10
35.7978414589908
20
0.298250895207673
30
0
41
1
10
35.8187625594653
20
0.292920020115901
30
0
41
1
10
35.8398147136128
20
0.288524355552767
30
0
0
SPLINE
5
104
100
AcDbEntity
8
1
62
256
6
ByLayer
370
18
48
1
60
0
100
AcDbSpline
70
4
71
3
72
8
73
4
40
0
40
0
40
0
40
0
40
1
40
1
40
1
40
1
41
1
10
35.8398147136128
20
0.288524355552823
30
0
41
1
10
35.9277235679644
20
0.270169092089048
30
0
41
1
10
36.015886196346
20
0.25344692031706
30
0
41
1
10
36.1042866881541
20
0.23825565179817
30
0
0
SPLINE
5
105
100
AcDbEntity
8
1
62
256
6
ByLayer
370
18
48
1
60
0
100
AcDbSpline
70
4
71
3
72
8
73
4
40
0
40
0
40
0
40
0
40
1
40
1
40
1
40
1
41
1
10
36.1042866881541
20
0.23825565179817
30
0
41
1
10
36.1109209245879
20
0.237115584983798
30
0
41
1
10
36.1175551605411
20
0.235975517842263
30
0
41
1
10
36.1241893960009
20
0.234835450364898
30
0
0
SPLINE
5
106
100
AcDbEntity
8
1
62
256
6
ByLayer
370
18
48
1
60
0
100
AcDbSpline
70
4
71
3
72
28
73
24
40
0
40
0
40
0
40
0
40
0.0625000000000181
40
0.0625000000000181
40
0.0937500000000147
40
0.0937500000000147
40
0.125000000000011
40
0.125000000000011
40
0.187500000000004
40
0.187500000000004
40
0.249999999999998
40
0.249999999999998
40
0.312499999999991
40
0.312499999999991
40
0.374999999999984
40
0.374999999999984
40
0.499999999999987
40
0.499999999999987
40
0.624999999999989
40
0.624999999999989
40
0.749999999999992
40
0.749999999999992
40
1
40
1
40
1
40
1
41
1
10
36.4168440488197
20
0.0374999999998522
30
0
41
1
10
36.4168440488197
20
0.0460814522132864
30
0
41
1
10
36.4157364201261
20
0.0544404255671225
30
0
41
1
10
36.4126137752196
20
0.0666853878788061
30
0
41
1
10
36.4113167550382
20
0.070743444431514
30
0
41
1
10
36.408331426247
20
0.0785826194629351
30
0
41
1
10
36.4066433955683
20
0.0823774484813953
30
0
41
1
10
36.4010742298233
20
0.0934394017550915
30
0
41
1
10
36.3966732567826
20
0.10041156214595
30
0
41
1
10
36.3868967798242
20
0.113574543276513
30
0
41
1
10
36.381607947818
20
0.119660280098572
30
0
41
1
10
36.3704412113865
20
0.131102748860854
30
0
41
1
10
36.3645611193617
20
0.13645677353793
30
0
41
1
10
36.3523312597403
20
0.146583577722509
30
0
41
1
10
36.3459583975738
20
0.151368725929018
30
0
41
1
10
36.3265296857492
20
0.164814468801211
30
0
41
1
10
36.3131044209639
20
0.172646696814155
30
0
41
1
10
36.2856042494594
20
0.186756270938645
30
0
41
1
10
36.2715247138106
20
0.193022537864465
30
0
41
1
10
36.2428534229286
20
0.204329105792198
30
0
41
1
10
36.2282424313329
20
0.209368400544861
30
0
41
1
10
36.1841774399867
20
0.222819534691553
30
0
41
1
10
36.1543553224804
20
0.229651553605151
30
0
41
1
10
36.1241893960009
20
0.234835450364898
30
0
0
SPLINE
5
107
100
AcDbEntity
8
1
62
256
6
ByLayer
370
18
48
1
60
0
100
AcDbSpline
70
4
71
3
72
26
73
22
40
0
40
0
40
0
40
0
40
0.250000000000031
40
0.250000000000031
40
0.375000000000026
40
0.375000000000026
40
0.500000000000021
40
0.500000000000021
40
0.625000000000015
40
0.625000000000015
40
0.75000000000001
40
0.75000000000001
40
0.812500000000011
40
0.812500000000011
40
0.875000000000013
40
0.875000000000013
40
0.906250000000013
40
0.906250000000013
40
0.937500000000014
40
0.937500000000014
40
1
40
1
40
1
40
1
41
1
10
36.1241893960009
20
-0.159835450365165
30
0
41
1
10
36.1543533212848
20
-0.154651897503101
30
0
41
1
10
36.184082943691
20
-0.147833039263389
30
0
41
1
10
36.2278515676901
20
-0.134495270196709
30
0
41
1
10
36.2423020661362
20
-0.129525798646853
30
0
41
1
10
36.2708622718862
20
-0.118303644883696
30
0
41
1
10
36.2849733317764
20
-0.112056055765919
30
0
41
1
10
36.3127425318462
20
-0.0978554526181767
30
0
41
1
10
36.3263583662479
20
-0.0899220796678151
30
0
41
1
10
36.3523226483107
20
-0.0719751453186745
30
0
41
1
10
36.3647967662423
20
-0.0618780808380279
30
0
41
1
10
36.3815599477676
20
-0.0447136794257688
30
0
41
1
10
36.3868384526508
20
-0.0386415170714258
30
0
41
1
10
36.3965703772056
20
-0.0255614459869378
30
0
41
1
10
36.4010311872042
20
-0.0185157628407069
30
0
41
1
10
36.4066221788334
20
-0.00742410570777
30
0
41
1
10
36.4083127124631
20
-0.0036262707853325
30
0
41
1
10
36.411297227287
20
0.0041998583749034
30
0
41
1
10
36.412597032231
20
0.008256267903306
30
0
41
1
10
36.4157362691503
20
0.0205444778099491
30
0
41
1
10
36.4168440488197
20
0.0289194387947305
30
0
41
1
10
36.4168440488197
20
0.0374999999998522
30
0
0
SPLINE
5
108
100
AcDbEntity
8
1
62
256
6
ByLayer
370
18
48
1
60
0
100
AcDbSpline
70
4
71
3
72
8
73
4
40
0
40
0
40
0
40
0
40
1
40
1
40
1
40
1
41
1
10
36.1241893960009
20
-0.159835450365165
30
0
41
1
10
36.1175551605411
20
-0.16097551784253
30
0
41
1
10
36.1109209245879
20
-0.162115584984065
30
0
41
1
10
36.1042866881541
20
-0.163255651798437
30
0
0
SPLINE
5
109
100
AcDbEntity
8
1
62
256
6
ByLayer
370
18
48
1
60
0
100
AcDbSpline
70
4
71
3
72
8
73
4
40
0
40
0
40
0
40
0
40
1
40
1
40
1
40
1
41
1
10
36.1042866881541
20
-0.163255651798437
30
0
41
1
10
36.015886196346
20
-0.178446920317327
30
0
41
1
10
35.9277235679644
20
-0.195169092089287
30
0
41
1
10
35.8398147136128
20
-0.213524355553034
30
0
0
SPLINE
5
10A
100
AcDbEntity
8
1
62
256
6
ByLayer
370
18
48
1
60
0
100
AcDbSpline
70
4
71
3
72
18
73
14
40
0
40
0
40
0
40
0
40
0.250000000000027
40
0.250000000000027
40
0.500000000000055
40
0.500000000000055
40
0.625000000000041
40
0.625000000000041
40
0.750000000000027
40
0.750000000000027
40
0.875000000000014
40
0.875000000000014
40
1
40
1
40
1
40
1
41
1
10
35.8398147136128
20
-0.213524355553062
30
0
41
1
10
35.8187511491194
20
-0.217922402582758
30
0
41
1
10
35.7979695514293
20
-0.223219584972753
30
0
41
1
10
35.7570859591186
20
-0.235981059606701
30
0
41
1
10
35.7369798027178
20
-0.243432080914602
30
0
41
1
10
35.7075158840473
20
-0.256825820879271
30
0
41
1
10
35.6978116885961
20
-0.261663841086602
30
0
41
1
10
35.6787009195057
20
-0.272288930008074
30
0
41
1
10
35.6692374512317
20
-0.278112489262725
30
0
41
1
10
35.6510083505541
20
-0.290853371469382
30
0
41
1
10
35.642274068845
20
-0.297735835547002
30
0
41
1
10
35.625841062227
20
-0.312895116499021
30
0
41
1
10
35.618131497819
20
-0.321157338252846
30
0
41
1
10
35.6112227797077
20
-0.330497880281882
30
0
0
SPLINE
5
10B
100
AcDbEntity
8
1
62
256
6
ByLayer
370
18
48
1
60
0
100
AcDbSpline
70
4
71
3
72
8
73
4
40
0
40
0
40
0
40
0
40
1
40
1
40
1
40
1
41
1
10
35.6112227797078
20
-0.330497880282223
30
0
41
1
10
35.4613239548006
20
-0.533160118283575
30
0
41
1
10
35.3114248959618
20
-0.735822202065037
30
0
41
1
10
35.16152590614
20
-0.938484331346046
30
0
0
SPLINE
5
10C
100
AcDbEntity
8
1
62
256
6
ByLayer
370
18
48
1
60
0
100
AcDbSpline
70
4
71
3
72
12
73
8
40
0
40
0
40
0
40
0
40
0.500000000000028
40
0.500000000000028
40
0.750000000000014
40
0.750000000000014
40
1
40
1
40
1
40
1
41
1
10
35.16152590614
20
-0.938484331346046
30
0
41
1
10
35.1563204215641
20
-0.945522101175811
30
0
41
1
10
35.1519133925999
20
-0.953116402290789
30
0
41
1
10
35.1471366224569
20
-0.965721614936172
30
0
41
1
10
35.145898775279
20
-0.970019021096704
30
0
41
1
10
35.1442111112118
20
-0.978826552761348
30
0
41
1
10
35.143762723231
20
-0.983371144167108
30
0
41
1
10
35.143762723231
20
-0.987937928135437
30
0
0
SPLINE
5
10D
100
AcDbEntity
8
1
62
256
6
ByLayer
370
18
48
1
60
0
100
AcDbSpline
70
4
71
3
72
9
73
5
40
0
40
0
40
0
40
0
40
0.671620386858399
40
1
40
1
40
1
40
1
41
1
10
35.7709688557017
20
-1.11000000000013
30
0
41
1
10
35.6305541316325
20
-1.11000000000013
30
0
41
1
10
35.4214853845718
20
-1.11000000000013
30
0
41
1
10
35.2124166375111
20
-1.11000000000013
30
0
41
1
10
35.1437627232314
20
-1.11000000000013
30
0
0
SPLINE
5
10E
100
AcDbEntity
8
1
62
256
6
ByLayer
370
18
48
1
60
0
100
AcDbSpline
70
4
71
3
72
10
73
6
40
0
40
0
40
0
40
0
40
0.5
40
0.5
40
1
40
1
40
1
40
1
41
1
10
36.6938379917916
20
-1.24462341102654
30
0
41
1
10
36.5427967416097
20
-1.19896726004239
30
0
41
1
10
36.3902866188472
20
-1.16562187556662
30
0
41
1
10
36.0826180736265
20
-1.12112812901199
30
0
41
1
10
35.9274572270403
20
-1.11000000000013
30
0
41
1
10
35.770968844851
20
-1.11000000000013
30
0
0
SPLINE
5
10F
100
AcDbEntity
8
1
62
256
6
ByLayer
370
18
48
1
60
0
100
AcDbSpline
70
4
71
3
72
8
73
4
40
0
40
0
40
0
40
0
40
1
40
1
40
1
40
1
41
1
10
37.5585914354833
20
-1.50601585514508
30
0
41
1
10
37.2703420686436
20
-1.41888628571689
30
0
41
1
10
36.9820906533822
20
-1.3317552840964
30
0
41
1
10
36.6938379917916
20
-1.24462341102654
30
0
0
SPLINE
5
110
100
AcDbEntity
8
1
62
256
6
ByLayer
370
18
48
1
60
0
100
AcDbSpline
70
4
71
3
72
8
73
4
40
0
40
0
40
0
40
0
40
1
40
1
40
1
40
1
41
1
10
24.2131132376908
20
-1.50601585514505
30
0
41
1
10
24.5013626045305
20
-1.41888628571684
30
0
41
1
10
24.7896140197919
20
-1.33175528409637
30
0
41
1
10
25.0778666813825
20
-1.24462341102648
30
0
0
SPLINE
5
111
100
AcDbEntity
8
1
62
256
6
ByLayer
370
18
48
1
60
0
100
AcDbSpline
70
4
71
3
72
10
73
6
40
0
40
0
40
0
40
0
40
0.844817807027622
40
0.844817807027622
40
1
40
1
40
1
40
1
41
1
10
25.0778666813825
20
-1.24462341102648
30
0
41
1
10
25.2289079315644
20
-1.19896726004237
30
0
41
1
10
25.3814180543269
20
-1.16562187556659
30
0
41
1
10
25.5635097092739
20
-1.13928853707364
30
0
41
1
10
25.5918118515123
20
-1.13557722915016
30
0
41
1
10
25.6201587596123
20
-1.13224113668346
30
0
0
SPLINE
5
112
100
AcDbEntity
8
1
62
256
6
ByLayer
370
18
48
1
60
0
100
AcDbSpline
70
4
71
3
72
10
73
6
40
0
40
0
40
0
40
0
40
0.144521800254528
40
0.144521800254528
40
1
40
1
40
1
40
1
41
1
10
25.613330748091
20
1.20805207245914
30
0
41
1
10
25.587266744642
20
1.21117569369611
30
0
41
1
10
25.5612406058029
20
1.21461668538865
30
0
41
1
10
25.3814180543268
20
1.2406218755664
30
0
41
1
10
25.2289079315643
20
1.27396726004216
30
0
41
1
10
25.0778666813824
20
1.3196234110263
30
0
0
SPLINE
5
113
100
AcDbEntity
8
1
62
256
6
ByLayer
370
18
48
1
60
0
100
AcDbSpline
70
4
71
3
72
8
73
4
40
0
40
0
40
0
40
0
40
1
40
1
40
1
40
1
41
1
10
25.0778666813824
20
1.3196234110263
30
0
41
1
10
24.7896140197918
20
1.40675528409619
30
0
41
1
10
24.5013626045305
20
1.49388628571666
30
0
41
1
10
24.2131132376908
20
1.58101585514484
30
0
0
LINE
5
84
100
AcDbEntity
8
81
62
256
6
ByLayer
370
18
48
1
60
0
100
AcDbLine
10
41.188352
20
2.0375
30
0
11
46.188352
21
2.0375
31
0
39
0
210
0
220
0
230
1
0
LINE
5
85
100
AcDbEntity
8
80
62
256
6
ByLayer
370
18
48
1
60
0
100
AcDbLine
10
0
20
0
30
0
11
-5
21
0
31
0
39
0
210
0
220
0
230
1
0
LINE
5
86
100
AcDbEntity
8
1
62
256
6
ByLayer
370
18
48
1
60
0
100
AcDbLine
10
0
20
9.9625
30
0
11
12.636716
21
9.9625
31
0
39
0
210
0
220
0
230
1
0
LINE
5
87
100
AcDbEntity
8
1
62
256
6
ByLayer
370
18
48
1
60
0
100
AcDbLine
10
0
20
9.9625
30
0
11
0
21
-9.9625
31
0
39
0
210
0
220
0
230
1
0
LINE
5
88
100
AcDbEntity
8
1
62
256
6
ByLayer
370
18
48
1
60
0
100
AcDbLine
10
0
20
-9.9625
30
0
11
12.584201
21
-9.9625
31
0
39
0
210
0
220
0
230
1
0
LINE
5
89
100
AcDbEntity
8
1
62
256
6
ByLayer
370
18
48
1
60
0
100
AcDbLine
10
34.361073
20
1.2125
30
0
11
31.138352
21
1.2125
31
0
39
0
210
0
220
0
230
1
0
LINE
5
8A
100
AcDbEntity
8
1
62
256
6
ByLayer
370
18
48
1
60
0
100
AcDbLine
10
34.361073
20
-1.1375
30
0
11
31.138352
21
-1.1375
31
0
39
0
210
0
220
0
230
1
0
LINE
5
8B
100
AcDbEntity
8
1
62
256
6
ByLayer
370
18
48
1
60
0
100
AcDbLine
10
34.838352
20
0.086319
30
0
11
34.838352
21
-0.011319
31
0
39
0
210
0
220
0
230
1
0
LINE
5
8C
100
AcDbEntity
8
1
62
256
6
ByLayer
370
18
48
1
60
0
100
AcDbLine
10
16.22556
20
4.8371
30
0
11
12.636716
21
9.9625
31
0
39
0
210
0
220
0
230
1
0
LINE
5
8D
100
AcDbEntity
8
1
62
256
6
ByLayer
370
18
48
1
60
0
100
AcDbLine
10
16.22556
20
-4.7621
30
0
11
12.584201
21
-9.9625
31
0
39
0
210
0
220
0
230
1
0
LINE
5
8E
100
AcDbEntity
8
1
62
256
6
ByLayer
370
18
48
1
60
0
100
AcDbLine
10
23.517329
20
1.2125
30
0
11
23.188352
21
1.2125
31
0
39
0
210
0
220
0
230
1
0
LINE
5
8F
100
AcDbEntity
8
1
62
256
6
ByLayer
370
18
48
1
60
0
100
AcDbLine
10
23.517329
20
-1.1375
30
0
11
23.188352
21
-1.1375
31
0
39
0
210
0
220
0
230
1
0
LINE
5
90
100
AcDbEntity
8
1
62
256
6
ByLayer
370
18
48
1
60
0
100
AcDbLine
10
31.138352
20
1.2125
30
0
11
23.517329
21
1.2125
31
0
39
0
210
0
220
0
230
1
0
LINE
5
91
100
AcDbEntity
8
1
62
256
6
ByLayer
370
18
48
1
60
0
100
AcDbLine
10
23.517329
20
-1.1375
30
0
11
23.517329
21
1.2125
31
0
39
0
210
0
220
0
230
1
0
LINE
5
92
100
AcDbEntity
8
1
62
256
6
ByLayer
370
18
48
1
60
0
100
AcDbLine
10
31.138352
20
-1.1375
30
0
11
23.517329
21
-1.1375
31
0
39
0
210
0
220
0
230
1
0
LINE
5
93
100
AcDbEntity
8
1
62
256
6
ByLayer
370
18
48
1
60
0
100
AcDbLine
10
31.138352
20
1.2125
30
0
11
31.138352
21
-1.1375
31
0
39
0
210
0
220
0
230
1
0
LINE
5
94
100
AcDbEntity
8
1
62
256
6
ByLayer
370
18
48
1
60
0
100
AcDbLine
10
34.361064
20
-1.1375
30
0
11
34.785476
21
-1.1375
31
0
39
0
210
0
220
0
230
1
0
LINE
5
95
100
AcDbEntity
8
1
62
256
6
ByLayer
370
18
48
1
60
0
100
AcDbLine
10
34.361064
20
1.2125
30
0
11
34.785476
21
1.2125
31
0
39
0
210
0
220
0
230
1
0
LINE
5
96
100
AcDbEntity
8
1
62
256
6
ByLayer
370
18
48
1
60
0
100
AcDbLine
10
34.785476
20
-1.1375
30
0
11
34.785215
21
-1.109996
31
0
39
0
210
0
220
0
230
1
0
LINE
5
97
100
AcDbEntity
8
1
62
256
6
ByLayer
370
18
48
1
60
0
100
AcDbLine
10
34.785476
20
-1.1375
30
0
11
35.703872
21
-1.1375
31
0
39
0
210
0
220
0
230
1
0
LINE
5
98
100
AcDbEntity
8
1
62
256
6
ByLayer
370
18
48
1
60
0
100
AcDbLine
10
35.703872
20
1.2125
30
0
11
36.157952
21
1.2125
31
0
39
0
210
0
220
0
230
1
0
LINE
5
99
100
AcDbEntity
8
1
62
256
6
ByLayer
370
18
48
1
60
0
100
AcDbLine
10
35.703872
20
-1.1375
30
0
11
36.151059
21
-1.1375
31
0
39
0
210
0
220
0
230
1
0
LINE
5
9A
100
AcDbEntity
8
1
62
256
6
ByLayer
370
18
48
1
60
0
100
AcDbLine
10
35.703872
20
-1.1375
30
0
11
35.703611
21
-1.109996
31
0
39
0
210
0
220
0
230
1
0
LINE
5
9B
100
AcDbEntity
8
1
62
256
6
ByLayer
370
18
48
1
60
0
100
AcDbLine
10
34.785476
20
1.2125
30
0
11
35.703872
21
1.2125
31
0
39
0
210
0
220
0
230
1
0
LINE
5
9C
100
AcDbEntity
8
1
62
256
6
ByLayer
370
18
48
1
60
0
100
AcDbLine
10
34.785215
20
1.184996
30
0
11
34.785476
21
1.2125
31
0
39
0
210
0
220
0
230
1
0
LINE
5
9D
100
AcDbEntity
8
1
62
256
6
ByLayer
370
18
48
1
60
0
100
AcDbLine
10
35.703611
20
1.184996
30
0
11
35.703872
21
1.2125
31
0
39
0
210
0
220
0
230
1
0
LINE
5
9E
100
AcDbEntity
8
SK1
62
256
6
ByLayer
370
18
48
1
60
0
100
AcDbLine
10
-66
20
-9.9625
30
0
11
-9.66689
21
-9.9625
31
0
39
0
210
0
220
0
230
1
0
LINE
5
A0
100
AcDbEntity
8
SK1
62
256
6
ByLayer
370
18
48
1
60
0
100
AcDbLine
10
-66
20
9.9625
30
0
11
-9.66689
21
9.9625
31
0
39
0
210
0
220
0
230
1
0
LINE
5
A1
100
AcDbEntity
8
SK1
62
256
6
ByLayer
370
18
48
1
60
0
100
AcDbLine
10
-66
20
9.9625
30
0
11
-69
21
6.9625
31
0
39
0
210
0
220
0
230
1
0
LINE
5
A2
100
AcDbEntity
8
SK1
62
256
6
ByLayer
370
18
48
1
60
0
100
AcDbLine
10
-69
20
6.9625
30
0
11
-69
21
-6.9625
31
0
39
0
210
0
220
0
230
1
0
LINE
5
A3
100
AcDbEntity
8
SK1
62
256
6
ByLayer
370
18
48
1
60
0
100
AcDbLine
10
-66
20
-9.9625
30
0
11
-69
21
-6.9625
31
0
39
0
210
0
220
0
230
1
0
LINE
5
A4
100
AcDbEntity
8
SK1
62
256
6
ByLayer
370
18
48
1
60
0
100
AcDbLine
10
-9.66689
20
-9.9625
30
0
11
-4.729504
21
-9.9625
31
0
39
0
210
0
220
0
230
1
0
LINE
5
A5
100
AcDbEntity
8
SK1
62
256
6
ByLayer
370
18
48
1
60
0
100
AcDbLine
10
-9.66689
20
9.9625
30
0
11
-4.729504
21
9.9625
31
0
39
0
210
0
220
0
230
1
0
LINE
5
A6
100
AcDbEntity
8
SK1
62
256
6
ByLayer
370
18
48
1
60
0
100
AcDbLine
10
-9.66689
20
9.9625
30
0
11
-9.66689
21
-9.9625
31
0
39
0
210
0
220
0
230
1
0
LINE
5
A7
100
AcDbEntity
8
SK1
62
256
6
ByLayer
370
18
48
1
60
0
100
AcDbLine
10
-2.840072
20
-9.9625
30
0
11
0
21
-9.9625
31
0
39
0
210
0
220
0
230
1
0
LINE
5
A8
100
AcDbEntity
8
SK1
62
256
6
ByLayer
370
18
48
1
60
0
100
AcDbLine
10
0
20
9.9625
30
0
11
0
21
-9.9625
31
0
39
0
210
0
220
0
230
1
0
LINE
5
A9
100
AcDbEntity
8
SK1
62
256
6
ByLayer
370
18
48
1
60
0
100
AcDbLine
10
-2.840072
20
9.9625
30
0
11
0
21
9.9625
31
0
39
0
210
0
220
0
230
1
0
LINE
5
AA
100
AcDbEntity
8
SK1
62
256
6
ByLayer
370
18
48
1
60
0
100
AcDbLine
10
-4.729504
20
-9.9625
30
0
11
-2.840072
21
-9.9625
31
0
39
0
210
0
220
0
230
1
0
LINE
5
AB
100
AcDbEntity
8
SK1
62
256
6
ByLayer
370
18
48
1
60
0
100
AcDbLine
10
-2.840072
20
9.9625
30
0
11
-2.840072
21
-9.9625
31
0
39
0
210
0
220
0
230
1
0
LINE
5
AC
100
AcDbEntity
8
SK1
62
256
6
ByLayer
370
18
48
1
60
0
100
AcDbLine
10
-4.729504
20
9.9625
30
0
11
-2.840072
21
9.9625
31
0
39
0
210
0
220
0
230
1
0
LINE
5
AD
100
AcDbEntity
8
SK1
62
256
6
ByLayer
370
13
48
1
60
0
100
AcDbLine
10
-4.729504
20
-9.9625
30
0
11
-4.729504
21
9.9625
31
0
39
0
210
0
220
0
230
1
0
LINE
5
AE
100
AcDbEntity
8
1
62
256
6
ByLayer
370
18
48
1
60
0
100
AcDbLine
10
23.270082
20
-1.842417
30
0
11
23.979941
21
-1.58405
31
0
39
0
210
0
220
0
230
1
0
LINE
5
AF
100
AcDbEntity
8
1
62
256
6
ByLayer
370
18
48
1
60
0
100
AcDbLine
10
23.979941
20
1.65905
30
0
11
23.270082
21
1.917417
31
0
39
0
210
0
220
0
230
1
0
LINE
5
B0
100
AcDbEntity
8
1
62
256
6
ByLayer
370
18
48
1
60
0
100
AcDbLine
10
37.791763
20
1.65905
30
0
11
38.501622
21
1.917417
31
0
39
0
210
0
220
0
230
1
0
LINE
5
B1
100
AcDbEntity
8
1
62
256
6
ByLayer
370
18
48
1
60
0
100
AcDbLine
10
38.501622
20
-1.842417
30
0
11
37.791763
21
-1.58405
31
0
39
0
210
0
220
0
230
1
0
LINE
5
B2
100
AcDbEntity
8
1
62
256
6
ByLayer
370
13
48
1
60
0
100
AcDbLine
10
37.791763
20
-1.58405
30
0
11
37.791763
21
1.65905
31
0
39
0
210
0
220
0
230
1
0
LINE
5
B3
100
AcDbEntity
8
1
62
256
6
ByLayer
370
13
48
1
60
0
100
AcDbLine
10
23.979941
20
-1.58405
30
0
11
23.979941
21
-1.137465
31
0
39
0
210
0
220
0
230
1
0
LINE
5
B4
100
AcDbEntity
8
1
62
256
6
ByLayer
370
13
48
1
60
0
100
AcDbLine
10
23.979941
20
1.212465
30
0
11
23.979941
21
1.65905
31
0
39
0
210
0
220
0
230
1
0
LINE
5
B5
100
AcDbEntity
8
1
62
256
6
ByLayer
370
13
48
1
60
0
100
AcDbLine
10
34.743396
20
0.234835
30
0
11
36.124189
21
0.234835
31
0
39
0
210
0
220
0
230
1
0
LINE
5
B6
100
AcDbEntity
8
1
62
256
6
ByLayer
370
13
48
1
60
0
100
AcDbLine
10
36.124189
20
-0.159835
30
0
11
34.743396
21
-0.159835
31
0
39
0
210
0
220
0
230
1
0
LINE
5
B7
100
AcDbEntity
8
1
62
256
6
ByLayer
370
13
48
1
60
0
100
AcDbLine
10
36.416844
20
0.0375
30
0
11
34.838264
21
0.0375
31
0
39
0
210
0
220
0
230
1
0
LINE
5
B8
100
AcDbEntity
8
1
62
256
6
ByLayer
370
13
48
1
60
0
100
AcDbLine
10
34.736405
20
0.238256
30
0
11
36.104287
21
0.238256
31
0
39
0
210
0
220
0
230
1
0
LINE
5
B9
100
AcDbEntity
8
1
62
256
6
ByLayer
370
13
48
1
60
0
100
AcDbLine
10
34.736405
20
-0.163256
30
0
11
36.104287
21
-0.163256
31
0
39
0
210
0
220
0
230
1
0
LINE
5
BA
100
AcDbEntity
8
1
62
256
6
ByLayer
370
13
48
1
60
0
100
AcDbLine
10
34.636621
20
-0.213524
30
0
11
35.839815
21
-0.213524
31
0
39
0
210
0
220
0
230
1
0
LINE
5
BB
100
AcDbEntity
8
1
62
256
6
ByLayer
370
13
48
1
60
0
100
AcDbLine
10
34.636621
20
0.288524
30
0
11
35.839815
21
0.288524
31
0
39
0
210
0
220
0
230
1
0
LINE
5
BC
100
AcDbEntity
8
1
62
256
6
ByLayer
370
13
48
1
60
0
100
AcDbLine
10
34.601618
20
-0.330498
30
0
11
35.611223
21
-0.330498
31
0
39
0
210
0
220
0
230
1
0
LINE
5
BD
100
AcDbEntity
8
1
62
256
6
ByLayer
370
13
48
1
60
0
100
AcDbLine
10
34.601618
20
0.405498
30
0
11
35.611223
21
0.405498
31
0
39
0
210
0
220
0
230
1
0
LINE
5
BE
100
AcDbEntity
8
1
62
256
6
ByLayer
370
13
48
1
60
0
100
AcDbLine
10
34.420365
20
-0.938484
30
0
11
35.161526
21
-0.938484
31
0
39
0
210
0
220
0
230
1
0
LINE
5
BF
100
AcDbEntity
8
1
62
256
6
ByLayer
370
13
48
1
60
0
100
AcDbLine
10
35.143763
20
-0.987938
30
0
11
34.405548
21
-0.987938
31
0
39
0
210
0
220
0
230
1
0
LINE
5
C0
100
AcDbEntity
8
1
62
256
6
ByLayer
370
18
48
1
60
0
100
AcDbLine
10
34.369222
20
-1.11
30
0
11
35.143763
21
-1.11
31
0
39
0
210
0
220
0
230
1
0
LINE
5
C1
100
AcDbEntity
8
1
62
256
6
ByLayer
370
13
48
1
60
0
100
AcDbLine
10
35.161526
20
1.013484
30
0
11
34.420365
21
1.013484
31
0
39
0
210
0
220
0
230
1
0
LINE
5
C2
100
AcDbEntity
8
1
62
256
6
ByLayer
370
18
48
1
60
0
100
AcDbLine
10
35.143763
20
1.185
30
0
11
34.369222
21
1.185
31
0
39
0
210
0
220
0
230
1
0
LINE
5
C3
100
AcDbEntity
8
1
62
256
6
ByLayer
370
13
48
1
60
0
100
AcDbLine
10
34.405548
20
1.062938
30
0
11
35.143763
21
1.062938
31
0
39
0
210
0
220
0
230
1
0
LINE
5
C4
100
AcDbEntity
8
1
62
256
6
ByLayer
370
13
48
1
60
0
100
AcDbLine
10
37.558591
20
-1.506016
30
0
11
37.558591
21
1.581016
31
0
39
0
210
0
220
0
230
1
0
LINE
5
C5
100
AcDbEntity
8
1
62
256
6
ByLayer
370
18
48
1
60
0
100
AcDbLine
10
35.143763
20
1.185
30
0
11
35.143763
21
1.062938
31
0
39
0
210
0
220
0
230
1
0
LINE
5
C6
100
AcDbEntity
8
1
62
256
6
ByLayer
370
18
48
1
60
0
100
AcDbLine
10
35.143763
20
-0.987938
30
0
11
35.143763
21
-1.11
31
0
39
0
210
0
220
0
230
1
0
LINE
5
C7
100
AcDbEntity
8
1
62
256
6
ByLayer
370
13
48
1
60
0
100
AcDbLine
10
24.213113
20
-1.506016
30
0
11
24.213113
21
-1.137453
31
0
39
0
210
0
220
0
230
1
0
LINE
5
C8
100
AcDbEntity
8
1
62
256
6
ByLayer
370
13
48
1
60
0
100
AcDbLine
10
24.213113
20
1.212453
30
0
11
24.213113
21
1.581016
31
0
39
0
210
0
220
0
230
1
0
MTEXT
5
114
100
AcDbEntity
8
SK6
62
256
6
ByLayer
370
18
48
1
60
0
100
AcDbMText
10
-46.220324
20
-54.217366
30
0
210
0
220
0
230
1
1
\W0.7716;C2T-QS20-NG18BB
40
3.5
41
0
44
1.084337
50
0
71
7
72
5
7
iso_b_vert
0
DIMENSION
5
119
100
AcDbEntity
8
2
62
256
6
ByLayer
370
18
48
1
60
0
100
AcDbDimension
2
_U0
10
74.288352
20
-9.9625
30
0
11
74.288352
21
-3.9625
31
0
70
32
71
1
72
1
41
1
210
0
220
0
230
1
3
Standard
100
AcDbAlignedDimension
13
41.188352
23
2.0375
33
0
14
0
24
-9.9625
34
0
50
90
100
AcDbRotatedDimension
1001
ACAD
1000
DSTYLE
1002
{
1070
   371
1070
    13
1070
   372
1070
    13
1070
   170
1070
     0
1070
   144
1040
1.0
1070
   277
1070
     2
1070
   284
1070
     8
1070
   278
1070
    46
1070
   146
1040
1.0
1070
   345
1005
16
1070
   347
1005
16
1070
   346
1005
16
1070
   344
1005
0
1070
   343
1005
0
1070
   172
1070
     1
1070
    76
1070
     0
1070
    75
1070
     0
1070
   282
1070
     0
1070
   281
1070
     0
1070
    71
1070
     0
1070
    74
1070
     0
1070
   279
1070
     0
1070
   173
1070
     1
1070
   340
1005
115
1070
   271
1070
     2
1070
   272
1070
     2
1070
    77
1070
     1
1070
    73
1070
     0
1070
   171
1070
     3
1070
   274
1070
     4
1070
   177
1070
     2
1070
   176
1070
     2
1070
   178
1070
     2
1070
    78
1070
     8
1070
    48
1040
-0.1
1070
    41
1040
3.5
1070
   147
1040
1.75
1070
    42
1040
1.5875
1070
    44
1040
2.0
1070
   140
1040
3.5
1002
}
1001
ACAD_DSTYLE_DIM_LINETYPE
1070
   380
1005
16
1001
ACAD_DSTYLE_DIM_EXT1_LINETYPE
1070
   381
1005
16
1001
ACAD_DSTYLE_DIM_EXT2_LINETYPE
1070
   382
1005
16
0
DIMENSION
5
134
100
AcDbEntity
8
2
62
256
6
ByLayer
370
18
48
1
60
0
100
AcDbDimension
2
_U1
10
62.288352
20
2.0375
30
0
11
62.288352
21
0.0375
31
0
70
32
71
1
72
1
41
1
210
0
220
0
230
1
3
Standard
100
AcDbAlignedDimension
13
41.188352
23
-1.9625
33
0
14
41.188352
24
2.0375
34
0
50
90
100
AcDbRotatedDimension
1001
ACAD
1000
DSTYLE
1002
{
1070
   371
1070
    13
1070
   372
1070
    13
1070
   170
1070
     0
1070
   144
1040
1.0
1070
   277
1070
     2
1070
   284
1070
     8
1070
   278
1070
    46
1070
   146
1040
1.0
1070
   345
1005
16
1070
   347
1005
16
1070
   346
1005
16
1070
   344
1005
0
1070
   343
1005
0
1070
   172
1070
     1
1070
    76
1070
     0
1070
    75
1070
     0
1070
   282
1070
     0
1070
   281
1070
     0
1070
    71
1070
     0
1070
    74
1070
     0
1070
   279
1070
     0
1070
   173
1070
     1
1070
   340
1005
115
1070
   271
1070
     2
1070
   272
1070
     2
1070
    77
1070
     1
1070
    73
1070
     0
1070
   171
1070
     3
1070
   274
1070
     4
1070
   177
1070
     2
1070
   176
1070
     2
1070
   178
1070
     2
1070
    78
1070
     8
1070
    48
1040
-0.1
1070
    41
1040
3.5
1070
   147
1040
1.75
1070
    42
1040
1.5875
1070
    44
1040
2.0
1070
   140
1040
3.5
1002
}
1001
ACAD_DSTYLE_DIM_LINETYPE
1070
   380
1005
16
1001
ACAD_DSTYLE_DIM_EXT1_LINETYPE
1070
   381
1005
16
1001
ACAD_DSTYLE_DIM_EXT2_LINETYPE
1070
   382
1005
16
0
DIMENSION
5
14D
100
AcDbEntity
8
SK2
62
256
6
ByLayer
370
18
48
1
60
0
100
AcDbDimension
2
_U2
10
-80.6
20
10.0375
30
0
11
-80.6
21
0.0375
31
0
70
32
71
1
72
1
41
1
210
0
220
0
230
1
3
Standard
100
AcDbAlignedDimension
13
0
23
-9.9625
33
0
14
0
24
10.0375
34
0
50
90
100
AcDbRotatedDimension
1001
ACAD
1000
DSTYLE
1002
{
1070
   371
1070
    13
1070
   372
1070
    13
1070
   170
1070
     0
1070
   144
1040
1.0
1070
   277
1070
     2
1070
   284
1070
     8
1070
   278
1070
    46
1070
   146
1040
1.0
1070
   345
1005
16
1070
   347
1005
16
1070
   346
1005
16
1070
   344
1005
0
1070
   343
1005
0
1070
   172
1070
     1
1070
    76
1070
     0
1070
    75
1070
     0
1070
   282
1070
     0
1070
   281
1070
     0
1070
    71
1070
     0
1070
    74
1070
     0
1070
   279
1070
     0
1070
   173
1070
     1
1070
   340
1005
115
1070
   271
1070
     2
1070
   272
1070
     2
1070
    77
1070
     1
1070
    73
1070
     0
1070
   171
1070
     3
1070
   274
1070
     4
1070
   177
1070
     2
1070
   176
1070
     2
1070
   178
1070
     2
1070
    78
1070
     8
1070
    48
1040
-0.1
1070
    41
1040
3.5
1070
   147
1040
1.75
1070
    42
1040
1.5875
1070
    44
1040
2.0
1070
   140
1040
3.5
1002
}
1001
ACAD_DSTYLE_DIM_LINETYPE
1070
   380
1005
16
1001
ACAD_DSTYLE_DIM_EXT1_LINETYPE
1070
   381
1005
16
1001
ACAD_DSTYLE_DIM_EXT2_LINETYPE
1070
   382
1005
16
0
DIMENSION
5
166
100
AcDbEntity
8
2
62
256
6
ByLayer
370
18
48
1
60
0
100
AcDbDimension
2
_U3
10
41.188352
20
-19.7125
30
0
11
29.975942
21
-19.7125
31
0
70
32
71
1
72
1
41
1
210
0
220
0
230
1
3
Standard
100
AcDbAlignedDimension
13
18.763532
23
-1.1375
33
0
14
41.188352
24
2.0375
34
0
50
0
100
AcDbRotatedDimension
1001
ACAD
1000
DSTYLE
1002
{
1070
   371
1070
    13
1070
   372
1070
    13
1070
   170
1070
     0
1070
   144
1040
1.0
1070
   277
1070
     2
1070
   284
1070
     8
1070
   278
1070
    46
1070
   146
1040
1.0
1070
   345
1005
16
1070
   347
1005
16
1070
   346
1005
16
1070
   344
1005
0
1070
   343
1005
0
1070
   172
1070
     1
1070
    76
1070
     0
1070
    75
1070
     0
1070
   282
1070
     0
1070
   281
1070
     0
1070
    71
1070
     0
1070
    74
1070
     0
1070
   279
1070
     0
1070
   173
1070
     1
1070
   340
1005
115
1070
   271
1070
     1
1070
   272
1070
     2
1070
    77
1070
     1
1070
    73
1070
     1
1070
   171
1070
     3
1070
   274
1070
     4
1070
   177
1070
     2
1070
   176
1070
     2
1070
   178
1070
     2
1070
    78
1070
     8
1070
    48
1040
-0.1
1070
    41
1040
3.5
1070
   147
1040
1.75
1070
    42
1040
1.5875
1070
    44
1040
2.0
1070
   140
1040
3.5
1002
}
1001
ACAD_DSTYLE_DIM_LINETYPE
1070
   380
1005
16
1001
ACAD_DSTYLE_DIM_EXT1_LINETYPE
1070
   381
1005
16
1001
ACAD_DSTYLE_DIM_EXT2_LINETYPE
1070
   382
1005
16
0
DIMENSION
5
17E
100
AcDbEntity
8
SK2
62
256
6
ByLayer
370
18
48
1
60
0
100
AcDbDimension
2
_U4
10
41.188352
20
-30.7125
30
0
11
-13.905824
21
-30.7125
31
0
70
32
71
1
72
1
41
1
210
0
220
0
230
1
3
Standard
100
AcDbAlignedDimension
13
-69
23
-9.9625
33
0
14
41.188352
24
2.0375
34
0
50
0
100
AcDbRotatedDimension
1001
ACAD
1000
DSTYLE
1002
{
1070
   371
1070
    13
1070
   372
1070
    13
1070
   170
1070
     0
1070
   144
1040
1.0
1070
   277
1070
     2
1070
   284
1070
     8
1070
   278
1070
    46
1070
   146
1040
1.0
1070
   345
1005
16
1070
   347
1005
16
1070
   346
1005
16
1070
   344
1005
0
1070
   343
1005
0
1070
   172
1070
     1
1070
    76
1070
     0
1070
    75
1070
     0
1070
   282
1070
     0
1070
   281
1070
     0
1070
    71
1070
     0
1070
    74
1070
     0
1070
   279
1070
     0
1070
   173
1070
     1
1070
   340
1005
115
1070
   271
1070
     1
1070
   272
1070
     2
1070
    77
1070
     1
1070
    73
1070
     1
1070
   171
1070
     3
1070
   274
1070
     4
1070
   177
1070
     2
1070
   176
1070
     2
1070
   178
1070
     2
1070
    78
1070
     8
1070
    48
1040
-0.1
1070
    41
1040
3.5
1070
   147
1040
1.75
1070
    42
1040
1.5875
1070
    44
1040
2.0
1070
   140
1040
3.5
1002
}
1001
ACAD_DSTYLE_DIM_LINETYPE
1070
   380
1005
16
1001
ACAD_DSTYLE_DIM_EXT1_LINETYPE
1070
   381
1005
16
1001
ACAD_DSTYLE_DIM_EXT2_LINETYPE
1070
   382
1005
16
0
DIMENSION
5
196
100
AcDbEntity
8
2
62
256
6
ByLayer
370
18
48
1
60
0
100
AcDbDimension
2
_U5
10
41.188352
20
-27.7125
30
0
11
20.594176
21
-27.7125
31
0
70
32
71
1
72
1
41
1
210
0
220
0
230
1
3
Standard
100
AcDbAlignedDimension
13
0
23
-9.9625
33
0
14
41.188352
24
2.0375
34
0
50
0
100
AcDbRotatedDimension
1001
ACAD
1000
DSTYLE
1002
{
1070
   371
1070
    13
1070
   372
1070
    13
1070
   170
1070
     0
1070
   144
1040
1.0
1070
   277
1070
     2
1070
   284
1070
     8
1070
   278
1070
    46
1070
   146
1040
1.0
1070
   345
1005
16
1070
   347
1005
16
1070
   346
1005
16
1070
   344
1005
0
1070
   343
1005
0
1070
   172
1070
     1
1070
    76
1070
     0
1070
    75
1070
     0
1070
   282
1070
     0
1070
   281
1070
     0
1070
    71
1070
     0
1070
    74
1070
     0
1070
   279
1070
     0
1070
   173
1070
     1
1070
   340
1005
115
1070
   271
1070
     1
1070
   272
1070
     2
1070
    77
1070
     1
1070
    73
1070
     1
1070
   171
1070
     3
1070
   274
1070
     4
1070
   177
1070
     2
1070
   176
1070
     2
1070
   178
1070
     2
1070
    78
1070
     8
1070
    48
1040
-0.1
1070
    41
1040
3.5
1070
   147
1040
1.75
1070
    42
1040
1.5875
1070
    44
1040
2.0
1070
   140
1040
3.5
1002
}
1001
ACAD_DSTYLE_DIM_LINETYPE
1070
   380
1005
16
1001
ACAD_DSTYLE_DIM_EXT1_LINETYPE
1070
   381
1005
16
1001
ACAD_DSTYLE_DIM_EXT2_LINETYPE
1070
   382
1005
16
0
DIMENSION
5
1AE
100
AcDbEntity
8
SK2
62
256
6
ByLayer
370
18
48
1
60
0
100
AcDbDimension
2
_U6
10
-66
20
-19.7125
30
0
11
-67.5
21
-19.7125
31
0
70
32
71
1
72
1
41
1
210
0
220
0
230
1
3
Standard
100
AcDbAlignedDimension
13
-69
23
-9.9625
33
0
14
-66
24
-9.9625
34
0
50
0
100
AcDbRotatedDimension
1001
ACAD
1000
DSTYLE
1002
{
1070
   371
1070
    13
1070
   372
1070
    13
1070
   170
1070
     0
1070
   144
1040
1.0
1070
   277
1070
     2
1070
   284
1070
     8
1070
   278
1070
    46
1070
   146
1040
1.0
1070
   345
1005
16
1070
   347
1005
16
1070
   346
1005
16
1070
   344
1005
0
1070
   343
1005
0
1070
   172
1070
     1
1070
    76
1070
     0
1070
    75
1070
     0
1070
   282
1070
     0
1070
   281
1070
     0
1070
    71
1070
     0
1070
    74
1070
     0
1070
   279
1070
     0
1070
   173
1070
     1
1070
   340
1005
115
1070
   271
1070
     2
1070
   272
1070
     2
1070
    77
1070
     1
1070
    73
1070
     1
1070
   171
1070
     3
1070
   274
1070
     4
1070
   177
1070
     2
1070
   176
1070
     2
1070
   178
1070
     2
1070
    78
1070
     8
1070
    48
1040
-0.1
1070
    41
1040
3.5
1070
   147
1040
1.75
1070
    42
1040
1.5875
1070
    44
1040
2.0
1070
   140
1040
3.5
1002
}
1001
ACAD_DSTYLE_DIM_LINETYPE
1070
   380
1005
16
1001
ACAD_DSTYLE_DIM_EXT1_LINETYPE
1070
   381
1005
16
1001
ACAD_DSTYLE_DIM_EXT2_LINETYPE
1070
   382
1005
16
0
ENDSEC
0
SECTION
2
OBJECTS
0
DICTIONARY
5
236
330
0
100
AcDbDictionary
280
0
281
1
3
ACAD_GROUP
350
237
3
ACAD_MLINESTYLE
350
238
0
DICTIONARY
5
237
330
0
100
AcDbDictionary
280
0
281
1
0
DICTIONARY
5
238
330
0
100
AcDbDictionary
280
0
281
1
3
Standard
350
18
0
MLINESTYLE
5
18
330
238
100
AcDbMlineStyle
2
Standard
70
0
3

62
256
51
90
52
90
71
2
49
-0.5
62
256
6
ByLayer
49
0.5
62
256
6
ByLayer
0
RASTERVARIABLES
5
225
330

100
AcDbRasterVariables
90
0
70
1
71
1
72
1
0
ENDSEC
0
EOF
