0
SECTION
2
HEADER
9
$ACADVER
1
AC1015
9
$DWGCODEPAGE
3
ANSI_1252
9
$HANDSEED
5
232
9
$ANGBASE
50
0
9
$ANGDIR
70
0
9
$ATTMODE
70
1
9
$AUNITS
70
0
9
$AUPREC
70
0
9
$CECOLOR
62
256
9
$CELTSCALE
40
1
9
$CELTYPE
6
ByLayer
9
$CELWEIGHT
370
18
9
$CLAYER
8
0
9
$CMLJUST
70
0
9
$CMLSCALE
40
1
9
$CMLSTYLE
2
Standard
9
$DIMSTYLE
2
Standard
9
$TEXTSIZE
40
0.2
9
$TEXTSTYLE
7
Standard
9
$LUNITS
70
2
9
$LUPREC
70
4
9
$EXTNAMES
290
1
9
$INSUNITS
70
4
9
$LTSCALE
40
1
9
$LWDISPLAY
290
1
9
$PDMODE
70
0
9
$PDSIZE
40
0
9
$PLINEGEN
70
0
0
ENDSEC
0
SECTION
2
CLASSES
0
CLASS
1
RASTERVARIABLES
2
AcDbRasterVariables
3
ISM
90
0
280
0
281
0
0
ENDSEC
0
SECTION
2
TABLES
0
TABLE
2
VPORT
5
228
100
AcDbSymbolTable
0
VPORT
5
1
100
AcDbSymbolTableRecord
100
AcDbViewportTableRecord
2
*Active
70
0
10
0
20
0
11
1
21
1
12
-1
22
1
13
0
23
0
14
0.5
24
0.5
15
10
25
10
16
0
26
0
36
1
17
0
27
0
37
0
0
ENDTAB
0
TABLE
2
LTYPE
5
229
100
AcDbSymbolTable
0
LTYPE
5
14
100
AcDbSymbolTableRecord
100
AcDbLinetypeTableRecord
70
0
2
ByBlock
3

72
65
73
0
40
0
0
LTYPE
5
15
100
AcDbSymbolTableRecord
100
AcDbLinetypeTableRecord
70
0
2
ByLayer
3

72
65
73
0
40
0
0
LTYPE
5
16
100
AcDbSymbolTableRecord
100
AcDbLinetypeTableRecord
70
0
2
Continuous
3
Solid line
72
65
73
0
40
0
0
LTYPE
5
6E
100
AcDbSymbolTableRecord
100
AcDbLinetypeTableRecord
70
0
2
CENTER
3
____ _ ____ _ ____ _ ____
72
65
73
4
40
47.5
49
22
74
0
49
-8.5
74
0
49
8.5
74
0
49
-8.5
74
0
0
LTYPE
5
6F
100
AcDbSymbolTableRecord
100
AcDbLinetypeTableRecord
70
0
2
DASHED
3
__ __ __ __ __ __ __ __ __
72
65
73
2
40
25.72
49
12.86
74
0
49
-12.86
74
0
0
ENDTAB
0
TABLE
2
LAYER
5
22a
100
AcDbSymbolTable
0
LAYER
5
10
100
AcDbSymbolTableRecord
100
AcDbLayerTableRecord
2
0
70
0
62
7
6
Continuous
290
1
370
-3
390
0
0
LAYER
5
71
100
AcDbSymbolTableRecord
100
AcDbLayerTableRecord
2
1
70
0
62
4
6
Continuous
290
1
370
-3
390
0
0
LAYER
5
73
100
AcDbSymbolTableRecord
100
AcDbLayerTableRecord
2
80
70
0
62
-6
6
Continuous
290
1
370
-3
390
0
0
LAYER
5
75
100
AcDbSymbolTableRecord
100
AcDbLayerTableRecord
2
81
70
0
62
-3
6
Continuous
290
1
370
-3
390
0
0
LAYER
5
C0
100
AcDbSymbolTableRecord
100
AcDbLayerTableRecord
2
2
70
0
62
7
6
Continuous
290
1
370
-3
390
0
0
LAYER
5
125
100
AcDbSymbolTableRecord
100
AcDbLayerTableRecord
2
Defpoints
70
0
62
7
6
Continuous
290
0
370
-3
390
0
0
LAYER
5
215
100
AcDbSymbolTableRecord
100
AcDbLayerTableRecord
2
SK1
70
0
62
4
6
Continuous
290
1
370
-3
390
0
0
LAYER
5
216
100
AcDbSymbolTableRecord
100
AcDbLayerTableRecord
2
SK6
70
0
62
5
6
Continuous
290
1
370
-3
390
0
0
LAYER
5
217
100
AcDbSymbolTableRecord
100
AcDbLayerTableRecord
2
SK2
70
0
62
7
6
Continuous
290
1
370
-3
390
0
0
ENDTAB
0
TABLE
2
STYLE
5
22b
100
AcDbSymbolTable
0
STYLE
5
11
100
AcDbSymbolTableRecord
100
AcDbTextStyleTableRecord
2
Standard
3
txt
70
0
71
0
40
0
41
1
42
0
50
0
0
STYLE
5
115
100
AcDbSymbolTableRecord
100
AcDbTextStyleTableRecord
2
iso_b_vert
3
simplex.shx
70
0
71
0
40
0
41
1
42
0
50
0
0
STYLE
5
116
100
AcDbSymbolTableRecord
100
AcDbTextStyleTableRecord
2
DWGDirectTextStyle
3
simplex
70
0
71
0
40
0
41
1
42
0
50
0
0
ENDTAB
0
TABLE
2
DIMSTYLE
5
22c
100
AcDbSymbolTable
100
AcDbDimStyleTable
0
DIMSTYLE
105
27
100
AcDbSymbolTableRecord
100
AcDbDimStyleTableRecord
2
Standard
70
0
3
<>
41
0.18
42
0.0625
44
0.18
140
0.18
147
0.09
73
0
74
0
77
1
271
2
275
0
278
52
280
0
340
11
0
ENDTAB
0
TABLE
2
VIEW
5
22d
100
AcDbSymbolTable
0
ENDTAB
0
TABLE
2
UCS
5
22e
100
AcDbSymbolTable
0
ENDTAB
0
TABLE
2
APPID
5
22f
100
AcDbSymbolTable
0
APPID
5
12
100
AcDbSymbolTableRecord
100
AcDbRegAppTableRecord
2
ACAD
70
0
0
APPID
5
121
100
AcDbSymbolTableRecord
100
AcDbRegAppTableRecord
2
ACAD_DSTYLE_DIMBREAK
70
0
0
APPID
5
1D4
100
AcDbSymbolTableRecord
100
AcDbRegAppTableRecord
2
ACAD_DSTYLE_DIM_LINETYPE
70
0
0
APPID
5
1D5
100
AcDbSymbolTableRecord
100
AcDbRegAppTableRecord
2
ACAD_DSTYLE_DIM_EXT1_LINETYPE
70
0
0
APPID
5
1D6
100
AcDbSymbolTableRecord
100
AcDbRegAppTableRecord
2
ACAD_DSTYLE_DIM_EXT2_LINETYPE
70
0
0
APPID
5
211
100
AcDbSymbolTableRecord
100
AcDbRegAppTableRecord
2
ACAD_MLEADERVER
70
0
0
ENDTAB
0
TABLE
2
BLOCK_RECORD
5
230
100
AcDbSymbolTable
0
BLOCK_RECORD
5
1F
100
AcDbSymbolTableRecord
100
AcDbBlockTableRecord
2
*Model_Space
340
0
70
0
0
BLOCK_RECORD
5
1B
100
AcDbSymbolTableRecord
100
AcDbBlockTableRecord
2
*Paper_Space
340
0
70
0
0
BLOCK_RECORD
5
23
100
AcDbSymbolTableRecord
100
AcDbBlockTableRecord
2
*Paper_Space0
340
0
70
0
0
BLOCK_RECORD
5
126
100
AcDbSymbolTableRecord
100
AcDbBlockTableRecord
2
*D1
340
0
70
0
0
BLOCK_RECORD
5
132
100
AcDbSymbolTableRecord
100
AcDbBlockTableRecord
2
_U0
340
0
70
0
0
BLOCK_RECORD
5
13E
100
AcDbSymbolTableRecord
100
AcDbBlockTableRecord
2
*D3
340
0
70
0
0
BLOCK_RECORD
5
14B
100
AcDbSymbolTableRecord
100
AcDbBlockTableRecord
2
_U1
340
0
70
0
0
BLOCK_RECORD
5
157
100
AcDbSymbolTableRecord
100
AcDbBlockTableRecord
2
*D5
340
0
70
0
0
BLOCK_RECORD
5
164
100
AcDbSymbolTableRecord
100
AcDbBlockTableRecord
2
_U2
340
0
70
0
0
BLOCK_RECORD
5
170
100
AcDbSymbolTableRecord
100
AcDbBlockTableRecord
2
*D7
340
0
70
0
0
BLOCK_RECORD
5
17C
100
AcDbSymbolTableRecord
100
AcDbBlockTableRecord
2
_U3
340
0
70
0
0
BLOCK_RECORD
5
188
100
AcDbSymbolTableRecord
100
AcDbBlockTableRecord
2
*D9
340
0
70
0
0
BLOCK_RECORD
5
194
100
AcDbSymbolTableRecord
100
AcDbBlockTableRecord
2
_U4
340
0
70
0
0
BLOCK_RECORD
5
1A0
100
AcDbSymbolTableRecord
100
AcDbBlockTableRecord
2
*D11
340
0
70
0
0
BLOCK_RECORD
5
1AD
100
AcDbSymbolTableRecord
100
AcDbBlockTableRecord
2
_U5
340
0
70
0
0
ENDTAB
0
ENDSEC
0
SECTION
2
BLOCKS
0
BLOCK
5
20
100
AcDbEntity
8
0
100
AcDbBlockBegin
2
*Model_Space
70
0
10
0
20
0
30
0
3
*Model_Space
0
ENDBLK
5
21
100
AcDbEntity
8
0
100
AcDbBlockEnd
0
BLOCK
5
1C
100
AcDbEntity
8
0
100
AcDbBlockBegin
2
*Paper_Space
70
0
10
0
20
0
30
0
3
*Paper_Space
0
ENDBLK
5
1D
100
AcDbEntity
8
0
100
AcDbBlockEnd
0
BLOCK
5
24
100
AcDbEntity
8
0
100
AcDbBlockBegin
2
*Paper_Space0
70
0
10
0
20
0
30
0
3
*Paper_Space0
0
ENDBLK
5
25
100
AcDbEntity
8
0
100
AcDbBlockEnd
0
BLOCK
5
127
100
AcDbEntity
8
0
100
AcDbBlockBegin
2
*D1
70
1
10
0
20
0
30
0
3
*D1
0
LINE
5
129
100
AcDbEntity
8
0
62
256
6
ByLayer
370
-2
48
1
60
0
100
AcDbLine
10
28.25144
20
15.6375
30
0
11
60.299474
21
15.6375
31
0
39
0
210
0
220
0
230
1
0
LINE
5
12A
100
AcDbEntity
8
0
62
256
6
ByLayer
370
-2
48
1
60
0
100
AcDbLine
10
1.5875
20
-9.9625
30
0
11
60.299474
21
-9.9625
31
0
39
0
210
0
220
0
230
1
0
LINE
5
12B
100
AcDbEntity
8
0
62
256
6
ByLayer
370
-2
48
1
60
0
100
AcDbLine
10
58.299474
20
12.1375
30
0
11
58.299474
21
-6.4625
31
0
39
0
210
0
220
0
230
1
0
SOLID
5
12C
100
AcDbEntity
8
0
62
256
6
ByLayer
370
-1
48
1
60
0
100
AcDbTrace
10
58.882808
20
12.1375
30
0
11
57.716141
21
12.1375
31
0
12
58.299474
22
15.6375
32
0
13
58.299474
23
15.6375
33
0
39
0
210
0
220
0
230
1
0
SOLID
5
12D
100
AcDbEntity
8
0
62
256
6
ByLayer
370
-1
48
1
60
0
100
AcDbTrace
10
57.716141
20
-6.4625
30
0
11
58.882808
21
-6.4625
31
0
12
58.299474
22
-9.9625
32
0
13
58.299474
23
-9.9625
33
0
39
0
210
0
220
0
230
1
0
MTEXT
5
12E
100
AcDbEntity
8
0
62
256
6
ByLayer
370
18
48
1
60
0
100
AcDbMText
10
51.299474
20
2.8375
30
0
210
0
220
0
230
1
1
\A1;25.6
40
3.5
41
0
44
1
50
90
71
5
72
5
7
iso_b_vert
0
POINT
5
12F
100
AcDbEntity
8
Defpoints
62
0
6
ByLayer
370
-1
48
1
60
0
100
AcDbPoint
10
26.66394
20
15.6375
30
0
39
0
210
0
220
0
230
1
50
360
0
POINT
5
130
100
AcDbEntity
8
Defpoints
62
0
6
ByLayer
370
-1
48
1
60
0
100
AcDbPoint
10
0
20
-9.9625
30
0
39
0
210
0
220
0
230
1
50
360
0
POINT
5
131
100
AcDbEntity
8
Defpoints
62
0
6
ByLayer
370
-1
48
1
60
0
100
AcDbPoint
10
58.299474
20
-9.9625
30
0
39
0
210
0
220
0
230
1
50
360
0
ENDBLK
5
128
100
AcDbEntity
8
0
100
AcDbBlockEnd
0
BLOCK
5
139
100
AcDbEntity
8
0
100
AcDbBlockBegin
2
_U0
70
0
10
0
20
0
30
0
3
_U0
0
MTEXT
5
133
100
AcDbEntity
8
2
62
256
6
ByLayer
370
18
48
1
60
0
100
AcDbMText
10
57.609841
20
-1.112199
30
0
210
0
220
0
230
1
1
\W0.7346;25.6
40
3.5
41
0
44
1.084337
50
90
71
7
72
5
7
iso_b_vert
0
LINE
5
134
100
AcDbEntity
8
2
62
256
6
ByLayer
370
13
48
1
60
0
100
AcDbLine
10
28.25144
20
15.6375
30
0
11
60.299474
21
15.6375
31
0
39
0
210
0
220
0
230
1
0
LINE
5
135
100
AcDbEntity
8
2
62
256
6
ByLayer
370
13
48
1
60
0
100
AcDbLine
10
1.5875
20
-9.9625
30
0
11
60.299474
21
-9.9625
31
0
39
0
210
0
220
0
230
1
0
LINE
5
136
100
AcDbEntity
8
2
62
256
6
ByLayer
370
13
48
1
60
0
100
AcDbLine
10
58.299474
20
15.6375
30
0
11
58.299474
21
-9.9625
31
0
39
0
210
0
220
0
230
1
0
SOLID
5
137
100
AcDbEntity
8
2
62
256
6
ByLayer
370
18
48
1
60
0
100
AcDbTrace
10
58.299474
20
15.6375
30
0
11
58.760258
21
12.137502
31
0
12
57.838691
22
12.137498
32
0
13
57.838691
23
12.137498
33
0
39
0
210
0
220
0
230
1
0
SOLID
5
138
100
AcDbEntity
8
2
62
256
6
ByLayer
370
18
48
1
60
0
100
AcDbTrace
10
58.299474
20
-9.9625
30
0
11
57.838691
21
-6.462502
31
0
12
58.760258
22
-6.462498
32
0
13
58.760258
23
-6.462498
33
0
39
0
210
0
220
0
230
1
0
ENDBLK
5
13A
100
AcDbEntity
8
0
100
AcDbBlockEnd
0
BLOCK
5
13F
100
AcDbEntity
8
0
100
AcDbBlockBegin
2
*D3
70
1
10
0
20
0
30
0
3
*D3
0
LINE
5
141
100
AcDbEntity
8
0
62
256
6
ByLayer
370
-2
48
1
60
0
100
AcDbLine
10
19.414739
20
11.6375
30
0
11
-13.700526
21
11.6375
31
0
39
0
210
0
220
0
230
1
0
LINE
5
142
100
AcDbEntity
8
0
62
256
6
ByLayer
370
-2
48
1
60
0
100
AcDbLine
10
25.07644
20
15.6375
30
0
11
-13.700526
21
15.6375
31
0
39
0
210
0
220
0
230
1
0
LINE
5
143
100
AcDbEntity
8
0
62
256
6
ByLayer
370
-2
48
1
60
0
100
AcDbLine
10
-11.700526
20
8.1375
30
0
11
-11.700526
21
4.6375
31
0
39
0
210
0
220
0
230
1
0
LINE
5
144
100
AcDbEntity
8
0
62
256
6
ByLayer
370
-2
48
1
60
0
100
AcDbLine
10
-11.700526
20
19.1375
30
0
11
-11.700526
21
22.6375
31
0
39
0
210
0
220
0
230
1
0
SOLID
5
145
100
AcDbEntity
8
0
62
256
6
ByLayer
370
-1
48
1
60
0
100
AcDbTrace
10
-11.117192
20
8.1375
30
0
11
-12.283859
21
8.1375
31
0
12
-11.700526
22
11.6375
32
0
13
-11.700526
23
11.6375
33
0
39
0
210
0
220
0
230
1
0
SOLID
5
146
100
AcDbEntity
8
0
62
256
6
ByLayer
370
-1
48
1
60
0
100
AcDbTrace
10
-12.283859
20
19.1375
30
0
11
-11.117192
21
19.1375
31
0
12
-11.700526
22
15.6375
32
0
13
-11.700526
23
15.6375
33
0
39
0
210
0
220
0
230
1
0
MTEXT
5
147
100
AcDbEntity
8
0
62
256
6
ByLayer
370
18
48
1
60
0
100
AcDbMText
10
-18.700526
20
13.6375
30
0
210
0
220
0
230
1
1
\A1;4
40
3.5
41
0
44
1
50
90
71
5
72
5
7
iso_b_vert
0
POINT
5
148
100
AcDbEntity
8
Defpoints
62
0
6
ByLayer
370
-1
48
1
60
0
100
AcDbPoint
10
21.002239
20
11.6375
30
0
39
0
210
0
220
0
230
1
50
360
0
POINT
5
149
100
AcDbEntity
8
Defpoints
62
0
6
ByLayer
370
-1
48
1
60
0
100
AcDbPoint
10
26.66394
20
15.6375
30
0
39
0
210
0
220
0
230
1
50
360
0
POINT
5
14A
100
AcDbEntity
8
Defpoints
62
0
6
ByLayer
370
-1
48
1
60
0
100
AcDbPoint
10
-11.700526
20
15.6375
30
0
39
0
210
0
220
0
230
1
50
360
0
ENDBLK
5
140
100
AcDbEntity
8
0
100
AcDbBlockEnd
0
BLOCK
5
152
100
AcDbEntity
8
0
100
AcDbBlockBegin
2
_U1
70
0
10
0
20
0
30
0
3
_U1
0
MTEXT
5
14C
100
AcDbEntity
8
2
62
256
6
ByLayer
370
18
48
1
60
0
100
AcDbMText
10
-12.390159
20
12.828
30
0
210
0
220
0
230
1
1
\W0.6380;4
40
3.5
41
0
44
1.084337
50
90
71
7
72
5
7
iso_b_vert
0
LINE
5
14D
100
AcDbEntity
8
2
62
256
6
ByLayer
370
13
48
1
60
0
100
AcDbLine
10
19.414739
20
11.6375
30
0
11
-13.700526
21
11.6375
31
0
39
0
210
0
220
0
230
1
0
LINE
5
14E
100
AcDbEntity
8
2
62
256
6
ByLayer
370
13
48
1
60
0
100
AcDbLine
10
25.07644
20
15.6375
30
0
11
-13.700526
21
15.6375
31
0
39
0
210
0
220
0
230
1
0
LINE
5
14F
100
AcDbEntity
8
2
62
256
6
ByLayer
370
13
48
1
60
0
100
AcDbLine
10
-11.700526
20
2.8875
30
0
11
-11.700526
21
24.3875
31
0
39
0
210
0
220
0
230
1
0
SOLID
5
150
100
AcDbEntity
8
2
62
256
6
ByLayer
370
18
48
1
60
0
100
AcDbTrace
10
-11.700526
20
11.6375
30
0
11
-11.239742
21
8.137502
31
0
12
-12.161309
22
8.137498
32
0
13
-12.161309
23
8.137498
33
0
39
0
210
0
220
0
230
1
0
SOLID
5
151
100
AcDbEntity
8
2
62
256
6
ByLayer
370
18
48
1
60
0
100
AcDbTrace
10
-11.700526
20
15.6375
30
0
11
-12.161309
21
19.137498
31
0
12
-11.239742
22
19.137502
32
0
13
-11.239742
23
19.137502
33
0
39
0
210
0
220
0
230
1
0
ENDBLK
5
153
100
AcDbEntity
8
0
100
AcDbBlockEnd
0
BLOCK
5
158
100
AcDbEntity
8
0
100
AcDbBlockBegin
2
*D5
70
1
10
0
20
0
30
0
3
*D5
0
LINE
5
15A
100
AcDbEntity
8
0
62
256
6
ByLayer
370
-2
48
1
60
0
100
AcDbLine
10
-1.5875
20
-9.9625
30
0
11
-82.6
21
-9.9625
31
0
39
0
210
0
220
0
230
1
0
LINE
5
15B
100
AcDbEntity
8
0
62
256
6
ByLayer
370
-2
48
1
60
0
100
AcDbLine
10
-1.5875
20
10.0375
30
0
11
-82.6
21
10.0375
31
0
39
0
210
0
220
0
230
1
0
LINE
5
15C
100
AcDbEntity
8
0
62
256
6
ByLayer
370
-2
48
1
60
0
100
AcDbLine
10
-80.6
20
-6.4625
30
0
11
-80.6
21
6.5375
31
0
39
0
210
0
220
0
230
1
0
SOLID
5
15D
100
AcDbEntity
8
0
62
256
6
ByLayer
370
-1
48
1
60
0
100
AcDbTrace
10
-81.183333
20
-6.4625
30
0
11
-80.016667
21
-6.4625
31
0
12
-80.6
22
-9.9625
32
0
13
-80.6
23
-9.9625
33
0
39
0
210
0
220
0
230
1
0
SOLID
5
15E
100
AcDbEntity
8
0
62
256
6
ByLayer
370
-1
48
1
60
0
100
AcDbTrace
10
-80.016667
20
6.5375
30
0
11
-81.183333
21
6.5375
31
0
12
-80.6
22
10.0375
32
0
13
-80.6
23
10.0375
33
0
39
0
210
0
220
0
230
1
0
MTEXT
5
15F
100
AcDbEntity
8
0
62
256
6
ByLayer
370
18
48
1
60
0
100
AcDbMText
10
-87.6
20
0.0375
30
0
210
0
220
0
230
1
1
\A1;20
40
3.5
41
0
44
1
50
90
71
5
72
5
7
iso_b_vert
0
POINT
5
160
100
AcDbEntity
8
Defpoints
62
0
6
ByLayer
370
-1
48
1
60
0
100
AcDbPoint
10
0
20
-9.9625
30
0
39
0
210
0
220
0
230
1
50
360
0
POINT
5
161
100
AcDbEntity
8
Defpoints
62
0
6
ByLayer
370
-1
48
1
60
0
100
AcDbPoint
10
0
20
10.0375
30
0
39
0
210
0
220
0
230
1
50
360
0
POINT
5
162
100
AcDbEntity
8
Defpoints
62
0
6
ByLayer
370
-1
48
1
60
0
100
AcDbPoint
10
-80.6
20
10.0375
30
0
39
0
210
0
220
0
230
1
50
360
0
ENDBLK
5
159
100
AcDbEntity
8
0
100
AcDbBlockEnd
0
BLOCK
5
16B
100
AcDbEntity
8
0
100
AcDbBlockBegin
2
_U2
70
0
10
0
20
0
30
0
3
_U2
0
MTEXT
5
165
100
AcDbEntity
8
SK2
62
256
6
ByLayer
370
18
48
1
60
0
100
AcDbMText
10
-81.289634
20
-1.895466
30
0
210
0
220
0
230
1
1
\W0.6740;20
40
3.5
41
0
44
1.084337
50
90
71
7
72
5
7
iso_b_vert
0
LINE
5
166
100
AcDbEntity
8
SK2
62
256
6
ByLayer
370
13
48
1
60
0
100
AcDbLine
10
-1.5875
20
-9.9625
30
0
11
-82.6
21
-9.9625
31
0
39
0
210
0
220
0
230
1
0
LINE
5
167
100
AcDbEntity
8
SK2
62
256
6
ByLayer
370
13
48
1
60
0
100
AcDbLine
10
-1.5875
20
10.0375
30
0
11
-82.6
21
10.0375
31
0
39
0
210
0
220
0
230
1
0
LINE
5
168
100
AcDbEntity
8
SK2
62
256
6
ByLayer
370
13
48
1
60
0
100
AcDbLine
10
-80.6
20
-9.9625
30
0
11
-80.6
21
10.0375
31
0
39
0
210
0
220
0
230
1
0
SOLID
5
169
100
AcDbEntity
8
SK2
62
256
6
ByLayer
370
18
48
1
60
0
100
AcDbTrace
10
-80.6
20
-9.9625
30
0
11
-81.060784
21
-6.462502
31
0
12
-80.139216
22
-6.462498
32
0
13
-80.139216
23
-6.462498
33
0
39
0
210
0
220
0
230
1
0
SOLID
5
16A
100
AcDbEntity
8
SK2
62
256
6
ByLayer
370
18
48
1
60
0
100
AcDbTrace
10
-80.6
20
10.0375
30
0
11
-80.139216
21
6.537502
31
0
12
-81.060784
22
6.537498
32
0
13
-81.060784
23
6.537498
33
0
39
0
210
0
220
0
230
1
0
ENDBLK
5
16C
100
AcDbEntity
8
0
100
AcDbBlockEnd
0
BLOCK
5
171
100
AcDbEntity
8
0
100
AcDbBlockBegin
2
*D7
70
1
10
0
20
0
30
0
3
*D7
0
LINE
5
173
100
AcDbEntity
8
0
62
256
6
ByLayer
370
-2
48
1
60
0
100
AcDbLine
10
-69
20
-11.55
30
0
11
-69
21
-32.7125
31
0
39
0
210
0
220
0
230
1
0
LINE
5
174
100
AcDbEntity
8
0
62
256
6
ByLayer
370
-2
48
1
60
0
100
AcDbLine
10
26.66394
20
14.05
30
0
11
26.66394
21
-32.7125
31
0
39
0
210
0
220
0
230
1
0
LINE
5
175
100
AcDbEntity
8
0
62
256
6
ByLayer
370
-2
48
1
60
0
100
AcDbLine
10
-65.5
20
-30.7125
30
0
11
23.16394
21
-30.7125
31
0
39
0
210
0
220
0
230
1
0
SOLID
5
176
100
AcDbEntity
8
0
62
256
6
ByLayer
370
-1
48
1
60
0
100
AcDbTrace
10
-65.5
20
-30.129167
30
0
11
-65.5
21
-31.295833
31
0
12
-69
22
-30.7125
32
0
13
-69
23
-30.7125
33
0
39
0
210
0
220
0
230
1
0
SOLID
5
177
100
AcDbEntity
8
0
62
256
6
ByLayer
370
-1
48
1
60
0
100
AcDbTrace
10
23.16394
20
-31.295833
30
0
11
23.16394
21
-30.129167
31
0
12
26.66394
22
-30.7125
32
0
13
26.66394
23
-30.7125
33
0
39
0
210
0
220
0
230
1
0
MTEXT
5
178
100
AcDbEntity
8
0
62
256
6
ByLayer
370
18
48
1
60
0
100
AcDbMText
10
-21.16803
20
-23.7125
30
0
210
0
220
0
230
1
1
\A1;95.7
40
3.5
41
0
44
1
50
0
71
5
72
5
7
iso_b_vert
0
POINT
5
179
100
AcDbEntity
8
Defpoints
62
0
6
ByLayer
370
-1
48
1
60
0
100
AcDbPoint
10
-69
20
-9.9625
30
0
39
0
210
0
220
0
230
1
50
360
0
POINT
5
17A
100
AcDbEntity
8
Defpoints
62
0
6
ByLayer
370
-1
48
1
60
0
100
AcDbPoint
10
26.66394
20
15.6375
30
0
39
0
210
0
220
0
230
1
50
360
0
POINT
5
17B
100
AcDbEntity
8
Defpoints
62
0
6
ByLayer
370
-1
48
1
60
0
100
AcDbPoint
10
26.66394
20
-30.7125
30
0
39
0
210
0
220
0
230
1
50
360
0
ENDBLK
5
172
100
AcDbEntity
8
0
100
AcDbBlockEnd
0
BLOCK
5
183
100
AcDbEntity
8
0
100
AcDbBlockBegin
2
_U3
70
0
10
0
20
0
30
0
3
_U3
0
MTEXT
5
17D
100
AcDbEntity
8
SK2
62
256
6
ByLayer
370
18
48
1
60
0
100
AcDbMText
10
-25.089729
20
-29.679866
30
0
210
0
220
0
230
1
1
\W0.7346;95.7
40
3.5
41
0
44
1.084337
50
0
71
7
72
5
7
iso_b_vert
0
LINE
5
17E
100
AcDbEntity
8
SK2
62
256
6
ByLayer
370
13
48
1
60
0
100
AcDbLine
10
-69
20
-11.55
30
0
11
-69
21
-32.7125
31
0
39
0
210
0
220
0
230
1
0
LINE
5
17F
100
AcDbEntity
8
SK2
62
256
6
ByLayer
370
13
48
1
60
0
100
AcDbLine
10
26.66394
20
14.05
30
0
11
26.66394
21
-32.7125
31
0
39
0
210
0
220
0
230
1
0
LINE
5
180
100
AcDbEntity
8
SK2
62
256
6
ByLayer
370
13
48
1
60
0
100
AcDbLine
10
-69
20
-30.7125
30
0
11
26.66394
21
-30.7125
31
0
39
0
210
0
220
0
230
1
0
SOLID
5
181
100
AcDbEntity
8
SK2
62
256
6
ByLayer
370
18
48
1
60
0
100
AcDbTrace
10
-69
20
-30.7125
30
0
11
-65.500002
21
-30.251716
31
0
12
-65.499998
22
-31.173284
32
0
13
-65.499998
23
-31.173284
33
0
39
0
210
0
220
0
230
1
0
SOLID
5
182
100
AcDbEntity
8
SK2
62
256
6
ByLayer
370
18
48
1
60
0
100
AcDbTrace
10
26.66394
20
-30.7125
30
0
11
23.163942
21
-31.173284
31
0
12
23.163939
22
-30.251716
32
0
13
23.163939
23
-30.251716
33
0
39
0
210
0
220
0
230
1
0
ENDBLK
5
184
100
AcDbEntity
8
0
100
AcDbBlockEnd
0
BLOCK
5
189
100
AcDbEntity
8
0
100
AcDbBlockBegin
2
*D9
70
1
10
0
20
0
30
0
3
*D9
0
LINE
5
18B
100
AcDbEntity
8
0
62
256
6
ByLayer
370
-2
48
1
60
0
100
AcDbLine
10
0
20
1.5875
30
0
11
0
21
39.8875
31
0
39
0
210
0
220
0
230
1
0
LINE
5
18C
100
AcDbEntity
8
0
62
256
6
ByLayer
370
-2
48
1
60
0
100
AcDbLine
10
26.66394
20
17.225
30
0
11
26.66394
21
39.8875
31
0
39
0
210
0
220
0
230
1
0
LINE
5
18D
100
AcDbEntity
8
0
62
256
6
ByLayer
370
-2
48
1
60
0
100
AcDbLine
10
3.5
20
37.8875
30
0
11
23.16394
21
37.8875
31
0
39
0
210
0
220
0
230
1
0
SOLID
5
18E
100
AcDbEntity
8
0
62
256
6
ByLayer
370
-1
48
1
60
0
100
AcDbTrace
10
3.5
20
38.470833
30
0
11
3.5
21
37.304167
31
0
12
0
22
37.8875
32
0
13
0
23
37.8875
33
0
39
0
210
0
220
0
230
1
0
SOLID
5
18F
100
AcDbEntity
8
0
62
256
6
ByLayer
370
-1
48
1
60
0
100
AcDbTrace
10
23.16394
20
37.304167
30
0
11
23.16394
21
38.470833
31
0
12
26.66394
22
37.8875
32
0
13
26.66394
23
37.8875
33
0
39
0
210
0
220
0
230
1
0
MTEXT
5
190
100
AcDbEntity
8
0
62
256
6
ByLayer
370
18
48
1
60
0
100
AcDbMText
10
13.33197
20
44.8875
30
0
210
0
220
0
230
1
1
\A1;26.7
40
3.5
41
0
44
1
50
0
71
5
72
5
7
iso_b_vert
0
POINT
5
191
100
AcDbEntity
8
Defpoints
62
0
6
ByLayer
370
-1
48
1
60
0
100
AcDbPoint
10
0
20
0
30
0
39
0
210
0
220
0
230
1
50
360
0
POINT
5
192
100
AcDbEntity
8
Defpoints
62
0
6
ByLayer
370
-1
48
1
60
0
100
AcDbPoint
10
26.66394
20
15.6375
30
0
39
0
210
0
220
0
230
1
50
360
0
POINT
5
193
100
AcDbEntity
8
Defpoints
62
0
6
ByLayer
370
-1
48
1
60
0
100
AcDbPoint
10
26.66394
20
37.8875
30
0
39
0
210
0
220
0
230
1
50
360
0
ENDBLK
5
18A
100
AcDbEntity
8
0
100
AcDbBlockEnd
0
BLOCK
5
19B
100
AcDbEntity
8
0
100
AcDbBlockBegin
2
_U4
70
0
10
0
20
0
30
0
3
_U4
0
MTEXT
5
195
100
AcDbEntity
8
SK2
62
256
6
ByLayer
370
18
48
1
60
0
100
AcDbMText
10
9.410271
20
38.920134
30
0
210
0
220
0
230
1
1
\W0.7346;26.7
40
3.5
41
0
44
1.084337
50
0
71
7
72
5
7
iso_b_vert
0
LINE
5
196
100
AcDbEntity
8
SK2
62
256
6
ByLayer
370
13
48
1
60
0
100
AcDbLine
10
0
20
1.5875
30
0
11
0
21
39.8875
31
0
39
0
210
0
220
0
230
1
0
LINE
5
197
100
AcDbEntity
8
SK2
62
256
6
ByLayer
370
13
48
1
60
0
100
AcDbLine
10
26.66394
20
17.225
30
0
11
26.66394
21
39.8875
31
0
39
0
210
0
220
0
230
1
0
LINE
5
198
100
AcDbEntity
8
SK2
62
256
6
ByLayer
370
13
48
1
60
0
100
AcDbLine
10
0
20
37.8875
30
0
11
26.66394
21
37.8875
31
0
39
0
210
0
220
0
230
1
0
SOLID
5
199
100
AcDbEntity
8
SK2
62
256
6
ByLayer
370
18
48
1
60
0
100
AcDbTrace
10
0
20
37.8875
30
0
11
3.499998
21
38.348284
31
0
12
3.500002
22
37.426716
32
0
13
3.500002
23
37.426716
33
0
39
0
210
0
220
0
230
1
0
SOLID
5
19A
100
AcDbEntity
8
SK2
62
256
6
ByLayer
370
18
48
1
60
0
100
AcDbTrace
10
26.66394
20
37.8875
30
0
11
23.163942
21
37.426716
31
0
12
23.163939
22
38.348284
32
0
13
23.163939
23
38.348284
33
0
39
0
210
0
220
0
230
1
0
ENDBLK
5
19C
100
AcDbEntity
8
0
100
AcDbBlockEnd
0
BLOCK
5
1A1
100
AcDbEntity
8
0
100
AcDbBlockBegin
2
*D11
70
1
10
0
20
0
30
0
3
*D11
0
LINE
5
1A3
100
AcDbEntity
8
0
62
256
6
ByLayer
370
-2
48
1
60
0
100
AcDbLine
10
-69
20
-11.55
30
0
11
-69
21
-21.7125
31
0
39
0
210
0
220
0
230
1
0
LINE
5
1A4
100
AcDbEntity
8
0
62
256
6
ByLayer
370
-2
48
1
60
0
100
AcDbLine
10
-66
20
-11.55
30
0
11
-66
21
-21.7125
31
0
39
0
210
0
220
0
230
1
0
LINE
5
1A5
100
AcDbEntity
8
0
62
256
6
ByLayer
370
-2
48
1
60
0
100
AcDbLine
10
-72.5
20
-19.7125
30
0
11
-76
21
-19.7125
31
0
39
0
210
0
220
0
230
1
0
LINE
5
1A6
100
AcDbEntity
8
0
62
256
6
ByLayer
370
-2
48
1
60
0
100
AcDbLine
10
-62.5
20
-19.7125
30
0
11
-59
21
-19.7125
31
0
39
0
210
0
220
0
230
1
0
SOLID
5
1A7
100
AcDbEntity
8
0
62
256
6
ByLayer
370
-1
48
1
60
0
100
AcDbTrace
10
-72.5
20
-20.295833
30
0
11
-72.5
21
-19.129167
31
0
12
-69
22
-19.7125
32
0
13
-69
23
-19.7125
33
0
39
0
210
0
220
0
230
1
0
SOLID
5
1A8
100
AcDbEntity
8
0
62
256
6
ByLayer
370
-1
48
1
60
0
100
AcDbTrace
10
-62.5
20
-19.129167
30
0
11
-62.5
21
-20.295833
31
0
12
-66
22
-19.7125
32
0
13
-66
23
-19.7125
33
0
39
0
210
0
220
0
230
1
0
MTEXT
5
1A9
100
AcDbEntity
8
0
62
256
6
ByLayer
370
18
48
1
60
0
100
AcDbMText
10
-67.5
20
-12.7125
30
0
210
0
220
0
230
1
1
\A1;3
40
3.5
41
0
44
1
50
0
71
5
72
5
7
iso_b_vert
0
POINT
5
1AA
100
AcDbEntity
8
Defpoints
62
0
6
ByLayer
370
-1
48
1
60
0
100
AcDbPoint
10
-69
20
-9.9625
30
0
39
0
210
0
220
0
230
1
50
360
0
POINT
5
1AB
100
AcDbEntity
8
Defpoints
62
0
6
ByLayer
370
-1
48
1
60
0
100
AcDbPoint
10
-66
20
-9.9625
30
0
39
0
210
0
220
0
230
1
50
360
0
POINT
5
1AC
100
AcDbEntity
8
Defpoints
62
0
6
ByLayer
370
-1
48
1
60
0
100
AcDbPoint
10
-66
20
-19.7125
30
0
39
0
210
0
220
0
230
1
50
360
0
ENDBLK
5
1A2
100
AcDbEntity
8
0
100
AcDbBlockEnd
0
BLOCK
5
1B4
100
AcDbEntity
8
0
100
AcDbBlockBegin
2
_U5
70
0
10
0
20
0
30
0
3
_U5
0
MTEXT
5
1AE
100
AcDbEntity
8
SK2
62
256
6
ByLayer
370
18
48
1
60
0
100
AcDbMText
10
-68.097233
20
-18.679866
30
0
210
0
220
0
230
1
1
\W0.5404;3
40
3.5
41
0
44
1.084337
50
0
71
7
72
5
7
iso_b_vert
0
LINE
5
1AF
100
AcDbEntity
8
SK2
62
256
6
ByLayer
370
13
48
1
60
0
100
AcDbLine
10
-69
20
-11.55
30
0
11
-69
21
-21.7125
31
0
39
0
210
0
220
0
230
1
0
LINE
5
1B0
100
AcDbEntity
8
SK2
62
256
6
ByLayer
370
13
48
1
60
0
100
AcDbLine
10
-66
20
-11.55
30
0
11
-66
21
-21.7125
31
0
39
0
210
0
220
0
230
1
0
LINE
5
1B1
100
AcDbEntity
8
SK2
62
256
6
ByLayer
370
13
48
1
60
0
100
AcDbLine
10
-77.75
20
-19.7125
30
0
11
-57.25
21
-19.7125
31
0
39
0
210
0
220
0
230
1
0
SOLID
5
1B2
100
AcDbEntity
8
SK2
62
256
6
ByLayer
370
18
48
1
60
0
100
AcDbTrace
10
-69
20
-19.7125
30
0
11
-72.499998
21
-20.173284
31
0
12
-72.500002
22
-19.251716
32
0
13
-72.500002
23
-19.251716
33
0
39
0
210
0
220
0
230
1
0
SOLID
5
1B3
100
AcDbEntity
8
SK2
62
256
6
ByLayer
370
18
48
1
60
0
100
AcDbTrace
10
-66
20
-19.7125
30
0
11
-62.500002
21
-19.251716
31
0
12
-62.499998
22
-20.173284
32
0
13
-62.499998
23
-20.173284
33
0
39
0
210
0
220
0
230
1
0
ENDBLK
5
1B5
100
AcDbEntity
8
0
100
AcDbBlockEnd
0
ENDSEC
0
SECTION
2
ENTITIES
0
ARC
5
C8
100
AcDbEntity
8
1
62
256
6
ByLayer
370
18
48
1
60
0
100
AcDbCircle
39
0
10
19.676756
20
12.574758
30
0
40
1.60000000000314
210
0
220
0
230
1
100
AcDbArc
50
297.395
51
310.523289
0
ARC
5
C9
100
AcDbEntity
8
1
62
256
6
ByLayer
370
18
48
1
60
0
100
AcDbCircle
39
0
10
19.676756
20
12.574758
30
0
40
1.59999999999538
210
0
220
0
230
1
100
AcDbArc
50
270
51
297.395125
0
ARC
5
CB
100
AcDbEntity
8
1
62
256
6
ByLayer
370
18
48
1
60
0
100
AcDbCircle
39
0
10
-1.227723
20
11.5625
30
0
40
1.6
210
0
220
0
230
1
100
AcDbArc
50
320.114458
51
338.448427
0
ARC
5
CC
100
AcDbEntity
8
SK1
62
256
6
ByLayer
370
18
48
1
60
0
100
AcDbCircle
39
0
10
-1.227723
20
11.5625
30
0
40
1.6
210
0
220
0
230
1
100
AcDbArc
50
270
51
320.114458
0
ARC
5
CD
100
AcDbEntity
8
1
62
256
6
ByLayer
370
18
48
1
60
0
100
AcDbCircle
39
0
10
5.638352
20
5.924758
30
0
40
1.416
210
0
220
0
230
1
100
AcDbArc
50
96.192438
51
150.190711
0
ARC
5
CE
100
AcDbEntity
8
1
62
256
6
ByLayer
370
18
48
1
60
0
100
AcDbCircle
39
0
10
5.638352
20
5.924758
30
0
40
1.416
210
0
220
0
230
1
100
AcDbArc
50
150.190711
51
209.809289
0
ARC
5
CF
100
AcDbEntity
8
1
62
256
6
ByLayer
370
18
48
1
60
0
100
AcDbCircle
39
0
10
5.638352
20
5.924758
30
0
40
1.416
210
0
220
0
230
1
100
AcDbArc
50
209.809289
51
263.807562
0
ARC
5
D0
100
AcDbEntity
8
1
62
256
6
ByLayer
370
18
48
1
60
0
100
AcDbCircle
39
0
10
5.638352
20
5.924758
30
0
40
1.416
210
0
220
0
230
1
100
AcDbArc
50
276.192438
51
330.190711
0
ARC
5
D1
100
AcDbEntity
8
1
62
256
6
ByLayer
370
18
48
1
60
0
100
AcDbCircle
39
0
10
5.638352
20
5.924758
30
0
40
1.416
210
0
220
0
230
1
100
AcDbArc
50
330.190711
51
29.809289
0
ARC
5
D2
100
AcDbEntity
8
1
62
256
6
ByLayer
370
18
48
1
60
0
100
AcDbCircle
39
0
10
5.638352
20
5.924758
30
0
40
1.416
210
0
220
0
230
1
100
AcDbArc
50
29.809289
51
83.807562
0
ARC
5
D3
100
AcDbEntity
8
1
62
256
6
ByLayer
370
18
48
1
60
0
100
AcDbCircle
39
0
10
5.638352
20
5.924758
30
0
40
1.416
210
0
220
0
230
1
100
AcDbArc
50
263.807562
51
276.192438
0
ARC
5
D6
100
AcDbEntity
8
1
62
256
6
ByLayer
370
18
48
1
60
0
100
AcDbCircle
39
0
10
5.638352
20
5.924758
30
0
40
1.9685
210
0
220
0
230
1
100
AcDbArc
50
300.381422
51
0
0
ARC
5
D7
100
AcDbEntity
8
1
62
256
6
ByLayer
370
18
48
1
60
0
100
AcDbCircle
39
0
10
5.638352
20
5.924758
30
0
40
1.9685
210
0
220
0
230
1
100
AcDbArc
50
239.618578
51
300.381422
0
ARC
5
D8
100
AcDbEntity
8
1
62
256
6
ByLayer
370
18
48
1
60
0
100
AcDbCircle
39
0
10
5.638352
20
5.924758
30
0
40
1.9685
210
0
220
0
230
1
100
AcDbArc
50
0
51
59.618578
0
ARC
5
D9
100
AcDbEntity
8
1
62
256
6
ByLayer
370
18
48
1
60
0
100
AcDbCircle
39
0
10
5.638352
20
5.924758
30
0
40
1.416
210
0
220
0
230
1
100
AcDbArc
50
83.807562
51
96.192438
0
ARC
5
DA
100
AcDbEntity
8
1
62
256
6
ByLayer
370
18
48
1
60
0
100
AcDbCircle
39
0
10
5.638352
20
5.924758
30
0
40
1.9685
210
0
220
0
230
1
100
AcDbArc
50
59.618578
51
120.381422
0
ARC
5
DB
100
AcDbEntity
8
1
62
256
6
ByLayer
370
18
48
1
60
0
100
AcDbCircle
39
0
10
5.638352
20
5.924758
30
0
40
1.9685
210
0
220
0
230
1
100
AcDbArc
50
120.381422
51
180
0
ARC
5
DC
100
AcDbEntity
8
1
62
256
6
ByLayer
370
18
48
1
60
0
100
AcDbCircle
39
0
10
5.638352
20
5.924758
30
0
40
1.9685
210
0
220
0
230
1
100
AcDbArc
50
180
51
239.618578
0
ARC
5
DD
100
AcDbEntity
8
1
62
256
6
ByLayer
370
18
48
1
60
0
100
AcDbCircle
39
0
10
24.662175
20
13.635735
30
0
40
2.00056587453268
210
0
220
0
230
1
100
AcDbArc
50
295
51
155
0
ARC
5
DE
100
AcDbEntity
8
1
62
256
6
ByLayer
370
18
48
1
60
0
100
AcDbCircle
39
0
10
12.924197
20
1.897757
30
0
40
2.00056587453268
210
0
220
0
230
1
100
AcDbArc
50
260.966553
51
335
0
ARC
5
DF
100
AcDbEntity
8
2
62
256
6
ByLayer
370
13
48
1
60
0
100
AcDbCircle
39
0
10
26.66394
20
15.6375
30
0
40
36.7964800209377
210
0
220
0
230
1
100
AcDbArc
50
0
51
45
0
CIRCLE
5
CA
100
AcDbEntity
8
1
62
256
6
ByLayer
370
18
48
1
60
0
100
AcDbCircle
10
5.638352
20
5.924758
30
0
40
4.54999999999998
39
0
210
0
220
0
230
1
0
CIRCLE
5
D4
100
AcDbEntity
8
1
62
256
6
ByLayer
370
18
48
1
60
0
100
AcDbCircle
10
5.638352
20
5.924758
30
0
40
4.25
39
0
210
0
220
0
230
1
0
CIRCLE
5
D5
100
AcDbEntity
8
1
62
256
6
ByLayer
370
18
48
1
60
0
100
AcDbCircle
10
5.638352
20
5.924758
30
0
40
3.75
39
0
210
0
220
0
230
1
0
ELLIPSE
5
E0
100
AcDbEntity
8
1
62
256
6
ByLayer
370
18
48
1
60
0
100
AcDbEllipse
10
19.676756
20
12.574758
30
0
11
1.13137084804239
21
1.13137084804239
31
0
210
0
220
0
230
1
40
1
41
-1.64892967385788
42
-1.5707963267949
0
ELLIPSE
5
E1
100
AcDbEntity
8
1
62
256
6
ByLayer
370
18
48
1
60
0
100
AcDbEllipse
10
20.648884
20
9.622443
30
0
11
0.596110401435223
21
0.596110401435223
31
0
210
0
220
0
230
1
40
0.948961
41
0
42
6.28318530717959
0
POINT
5
70
100
AcDbEntity
8
1
62
256
6
ByLayer
370
18
48
1
60
0
100
AcDbPoint
10
26.078154
20
15.051714
30
0
39
0
210
0
220
0
230
1
50
360
0
POINT
5
72
100
AcDbEntity
8
80
62
256
6
ByLayer
370
18
48
1
60
0
100
AcDbPoint
10
0
20
0
30
0
39
0
210
0
220
0
230
1
50
360
0
POINT
5
74
100
AcDbEntity
8
81
62
256
6
ByLayer
370
18
48
1
60
0
100
AcDbPoint
10
26.66394
20
15.6375
30
0
39
0
210
0
220
0
230
1
50
360
0
POINT
5
76
100
AcDbEntity
8
1
62
256
6
ByLayer
370
18
48
1
60
1
100
AcDbPoint
10
26.66394
20
15.6375
30
0
39
0
210
0
220
0
230
1
50
360
0
POINT
5
77
100
AcDbEntity
8
1
62
256
6
ByLayer
370
18
48
1
60
1
100
AcDbPoint
10
0
20
-9.9625
30
0
39
0
210
0
220
0
230
1
50
360
0
POINT
5
78
100
AcDbEntity
8
1
62
256
6
ByLayer
370
18
48
1
60
1
100
AcDbPoint
10
21.002239
20
11.6375
30
0
39
0
210
0
220
0
230
1
50
360
0
POINT
5
79
100
AcDbEntity
8
1
62
256
6
ByLayer
370
18
48
1
60
1
100
AcDbPoint
10
26.66394
20
15.6375
30
0
39
0
210
0
220
0
230
1
50
360
0
POINT
5
7A
100
AcDbEntity
8
1
62
256
6
ByLayer
370
18
48
1
60
1
100
AcDbPoint
10
0
20
-9.9625
30
0
39
0
210
0
220
0
230
1
50
360
0
POINT
5
7B
100
AcDbEntity
8
1
62
256
6
ByLayer
370
18
48
1
60
1
100
AcDbPoint
10
0
20
10.0375
30
0
39
0
210
0
220
0
230
1
50
360
0
POINT
5
7C
100
AcDbEntity
8
1
62
256
6
ByLayer
370
18
48
1
60
1
100
AcDbPoint
10
-69
20
-9.9625
30
0
39
0
210
0
220
0
230
1
50
360
0
POINT
5
7D
100
AcDbEntity
8
1
62
256
6
ByLayer
370
18
48
1
60
1
100
AcDbPoint
10
26.66394
20
15.6375
30
0
39
0
210
0
220
0
230
1
50
360
0
POINT
5
7E
100
AcDbEntity
8
1
62
256
6
ByLayer
370
18
48
1
60
1
100
AcDbPoint
10
-69
20
-9.9625
30
0
39
0
210
0
220
0
230
1
50
360
0
POINT
5
7F
100
AcDbEntity
8
1
62
256
6
ByLayer
370
18
48
1
60
1
100
AcDbPoint
10
-66
20
-9.9625
30
0
39
0
210
0
220
0
230
1
50
360
0
SPLINE
5
E2
100
AcDbEntity
8
1
62
256
6
ByLayer
370
18
48
1
60
0
100
AcDbSpline
70
4
71
3
72
10
73
6
40
0
40
0
40
0
40
0
40
0.5
40
0.5
40
1
40
1
40
1
40
1
41
1
10
21.6446937268618
20
10.264699998035
30
0
41
1
10
21.7275783279262
20
10.1293999744908
30
0
41
1
10
21.8103920445064
20
9.99407781318823
30
0
41
1
10
21.975758256084
20
9.72335190911519
30
0
41
1
10
22.0583172427004
20
9.58795019372624
30
0
41
1
10
22.1406050660187
20
9.45246379199688
30
0
0
SPLINE
5
E3
100
AcDbEntity
8
1
62
256
6
ByLayer
370
18
48
1
60
0
100
AcDbSpline
70
4
71
3
72
8
73
4
40
0
40
0
40
0
40
0
40
1
40
1
40
1
40
1
41
1
10
21.6754314970207
20
10.3832618575009
30
0
41
1
10
21.6652090183639
20
10.3437278174647
30
0
41
1
10
21.6549670258773
20
10.3042049475202
30
0
41
1
10
21.6446937268618
20
10.264699998035
30
0
0
SPLINE
5
E4
100
AcDbEntity
8
1
62
256
6
ByLayer
370
18
48
1
60
0
100
AcDbSpline
70
4
71
3
72
20
73
16
40
0
40
0
40
0
40
0
40
0.249999999999951
40
0.249999999999951
40
0.374999999999959
40
0.374999999999959
40
0.499999999999967
40
0.499999999999967
40
0.624999999999975
40
0.624999999999975
40
0.749999999999984
40
0.749999999999984
40
0.874999999999992
40
0.874999999999992
40
1
40
1
40
1
40
1
41
1
10
21.6225460584827
20
10.5270652834279
30
0
41
1
10
21.6331375985328
20
10.5164737433777
30
0
41
1
10
21.6424308444099
20
10.5050553008632
30
0
41
1
10
21.6544265130724
20
10.4866893477027
30
0
41
1
10
21.6580359196532
20
10.4804410260253
30
0
41
1
10
21.664383299898
20
10.4679052042574
30
0
41
1
10
21.6671424696217
20
10.4615855390099
30
0
41
1
10
21.6718201753291
20
10.4488412523673
30
0
41
1
10
21.6737331578524
20
10.4424034048531
30
0
41
1
10
21.6765857277853
20
10.4298449909446
30
0
41
1
10
21.6775480245551
20
10.4236705064047
30
0
41
1
10
21.6785483178043
20
10.411530152455
30
0
41
1
10
21.6785797008951
20
10.4055170345143
30
0
41
1
10
21.6776956167134
20
10.3940168266827
30
0
41
1
10
21.6767903125154
20
10.3885168908419
30
0
41
1
10
21.6754314970207
20
10.3832618575009
30
0
0
SPLINE
5
E5
100
AcDbEntity
8
1
62
256
6
ByLayer
370
18
48
1
60
0
100
AcDbSpline
70
4
71
3
72
20
73
16
40
0
40
0
40
0
40
0
40
0.249999999999939
40
0.249999999999939
40
0.37499999999995
40
0.37499999999995
40
0.49999999999996
40
0.49999999999996
40
0.62499999999997
40
0.62499999999997
40
0.74999999999998
40
0.74999999999998
40
0.87499999999999
40
0.87499999999999
40
1
40
1
40
1
40
1
41
1
10
21.4097021957345
20
10.6489911587871
30
0
41
1
10
21.4203279749939
20
10.6517387100516
30
0
41
1
10
21.4317521862395
20
10.6526138162914
30
0
41
1
10
21.4500882969188
20
10.6511127758107
30
0
41
1
10
21.45635326344
20
10.6501326168144
30
0
41
1
10
21.4688896682595
20
10.6472797056016
30
0
41
1
10
21.4752042574265
20
10.6454041377289
30
0
41
1
10
21.487927501362
20
10.6407422675822
30
0
41
1
10
21.4943742787546
20
10.6379307603309
30
0
41
1
10
21.5069523482379
20
10.6315572717707
30
0
41
1
10
21.5131285161147
20
10.6279839297837
30
0
41
1
10
21.5252564455471
20
10.620068597109
30
0
41
1
10
21.5312543537294
20
10.615687748001
30
0
41
1
10
21.5427725823495
20
10.606310321123
30
0
41
1
10
21.5482677715833
20
10.6013435703272
30
0
41
1
10
21.5535056216614
20
10.5961057202491
30
0
0
SPLINE
5
E6
100
AcDbEntity
8
1
62
256
6
ByLayer
370
18
48
1
60
0
100
AcDbSpline
70
4
71
3
72
8
73
4
40
0
40
0
40
0
40
0
40
1
40
1
40
1
40
1
41
1
10
21.2911403362686
20
10.6182533886284
30
0
41
1
10
21.3306450741101
20
10.6285266326056
30
0
41
1
10
21.3701679743095
20
10.638768633228
30
0
41
1
10
21.4097021957345
20
10.6489911587872
30
0
0
SPLINE
5
E7
100
AcDbEntity
8
1
62
256
6
ByLayer
370
18
48
1
60
0
100
AcDbSpline
70
4
71
3
72
10
73
6
40
0
40
0
40
0
40
0
40
0.5
40
0.5
40
1
40
1
40
1
40
1
41
1
10
20.4129547994237
20
11.1541910431095
30
0
41
1
10
20.5594605526856
20
11.0653384023401
30
0
41
1
10
20.7058587872463
20
10.9761213803921
30
0
41
1
10
20.9985631587171
20
10.7973881097482
30
0
41
1
10
21.1448647011585
20
10.7078616336525
30
0
41
1
10
21.2911403362686
20
10.6182533886284
30
0
0
SPLINE
5
E8
100
AcDbEntity
8
1
62
256
6
ByLayer
370
18
48
1
60
0
100
AcDbSpline
70
4
71
3
72
24
73
20
40
0
40
0
40
0
40
0
40
0.125000000000009
40
0.125000000000009
40
0.18750000000001
40
0.18750000000001
40
0.250000000000012
40
0.250000000000012
40
0.375000000000014
40
0.375000000000014
40
0.500000000000016
40
0.500000000000016
40
0.625000000000018
40
0.625000000000018
40
0.687500000000014
40
0.687500000000014
40
0.750000000000011
40
0.750000000000011
40
1
40
1
40
1
40
1
41
1
10
4.64277544699183
20
4.22657724186328
30
0
41
1
10
4.65940149401308
20
4.21683004317774
30
0
41
1
10
4.67671408776735
20
4.20862256351319
30
0
41
1
10
4.70369978037431
20
4.19859253670538
30
0
41
1
10
4.71289970770545
20
4.19562235890731
30
0
41
1
10
4.73149687141438
20
4.19050975064789
30
0
41
1
10
4.74080325715022
20
4.18838871093698
30
0
41
1
10
4.76874337070524
20
4.18326195559001
30
0
41
1
10
4.78739799634323
20
4.18148422637614
30
0
41
1
10
4.82475227852893
20
4.18107679674469
30
0
41
1
10
4.84359125901341
20
4.18249782219866
30
0
41
1
10
4.87976744150751
20
4.18827100529995
30
0
41
1
10
4.89728281013998
20
4.19259967557164
30
0
41
1
10
4.92274121340543
20
4.2011062038118
30
0
41
1
10
4.93109083440007
20
4.20427916080428
30
0
41
1
10
4.94751627743815
20
4.21129531573308
30
0
41
1
10
4.95561908117827
20
4.21515544877573
30
0
41
1
10
4.99476820810756
20
4.23577365889597
30
0
41
1
10
5.02227732226407
20
4.25654414782949
30
0
41
1
10
5.04623463241984
20
4.28117567211427
30
0
0
SPLINE
5
E9
100
AcDbEntity
8
1
62
256
6
ByLayer
370
18
48
1
60
0
100
AcDbSpline
70
4
71
3
72
24
73
20
40
0
40
0
40
0
40
0
40
0.249999999999985
40
0.249999999999985
40
0.312499999999984
40
0.312499999999984
40
0.374999999999984
40
0.374999999999984
40
0.499999999999989
40
0.499999999999989
40
0.624999999999995
40
0.624999999999995
40
0.75
40
0.75
40
0.812500000000003
40
0.812500000000003
40
0.875000000000006
40
0.875000000000006
40
1
40
1
40
1
40
1
41
1
10
6.2304700407542
20
4.28117567211427
30
0
41
1
10
6.25442735090994
20
4.25654414782949
30
0
41
1
10
6.28193646506645
20
4.23577365889597
30
0
41
1
10
6.32108559199577
20
4.21515544877576
30
0
41
1
10
6.32918839573588
20
4.21129531573308
30
0
41
1
10
6.34561383877397
20
4.2042791608043
30
0
41
1
10
6.35396345976858
20
4.2011062038118
30
0
41
1
10
6.37942186303403
20
4.19259967557164
30
0
41
1
10
6.3969372316665
20
4.18827100529995
30
0
41
1
10
6.43311341416063
20
4.18249782219868
30
0
41
1
10
6.45195239464511
20
4.18107679674469
30
0
41
1
10
6.48930667683081
20
4.18148422637614
30
0
41
1
10
6.5079613024688
20
4.18326195559001
30
0
41
1
10
6.53590141602379
20
4.18838871093698
30
0
41
1
10
6.54520780175966
20
4.19050975064789
30
0
41
1
10
6.56380496546856
20
4.19562235890731
30
0
41
1
10
6.57300489279973
20
4.19859253670538
30
0
41
1
10
6.59999058540666
20
4.20862256351319
30
0
41
1
10
6.61730317916096
20
4.21683004317774
30
0
41
1
10
6.63392922618218
20
4.22657724186328
30
0
0
SPLINE
5
EA
100
AcDbEntity
8
1
62
256
6
ByLayer
370
18
48
1
60
0
100
AcDbSpline
70
4
71
3
72
18
73
14
40
0
40
0
40
0
40
0
40
0.250000000000019
40
0.250000000000019
40
0.375000000000028
40
0.375000000000028
40
0.437500000000029
40
0.437500000000029
40
0.50000000000003
40
0.50000000000003
40
0.750000000000015
40
0.750000000000015
40
1
40
1
40
1
40
1
41
1
10
5.48561104321055
20
4.51702036390321
30
0
41
1
10
5.44118605372935
20
4.5086612767679
30
0
41
1
10
5.3988236089038
20
4.49695237634
30
0
41
1
10
5.33786473864714
20
4.47497300061838
30
0
41
1
10
5.31797952373401
20
4.46690431797228
30
0
41
1
10
5.28876719034358
20
4.4537173939562
30
0
41
1
10
5.27913249312988
20
4.44914082575605
30
0
41
1
10
5.26006446097779
20
4.43962759119822
30
0
41
1
10
5.25061030676252
20
4.43467917605918
30
0
41
1
10
5.20414354470944
20
4.40920844705951
30
0
41
1
10
5.16951899273201
20
4.38654130273576
30
0
41
1
10
5.10464536127728
20
4.3370077707433
30
0
41
1
10
5.0744031370628
20
4.31013690364108
30
0
41
1
10
5.04623463241984
20
4.2811756721143
30
0
0
SPLINE
5
EB
100
AcDbEntity
8
1
62
256
6
ByLayer
370
18
48
1
60
0
100
AcDbSpline
70
4
71
3
72
17
73
13
40
0
40
0
40
0
40
0
40
0.250000000000006
40
0.250000000000006
40
0.500000000000011
40
0.500000000000011
40
0.562500000000009
40
0.562500000000009
40
0.625000000000007
40
0.750000000000005
40
0.750000000000005
40
1
40
1
40
1
40
1
41
1
10
6.2304700407542
20
4.2811756721143
30
0
41
1
10
6.20230465539643
20
4.31013369657197
30
0
41
1
10
6.17207809445156
20
4.33698924129942
30
0
41
1
10
6.10727401319983
20
4.38647803857003
30
0
41
1
10
6.07270303172052
20
4.40911559238998
30
0
41
1
10
6.02634084844328
20
4.43454777759069
30
0
41
1
10
6.01688704639798
20
4.43950074816618
30
0
41
1
10
5.99777761270025
20
4.44904194184764
30
0
41
1
10
5.96881437353477
20
4.4628081886757
30
0
41
1
10
5.93893861332995
20
4.47493526675154
30
0
41
1
10
5.87790172450849
20
4.49694922387621
30
0
41
1
10
5.83551053385381
20
4.50866279816742
30
0
41
1
10
5.79109362996348
20
4.51702036390321
30
0
0
SPLINE
5
EC
100
AcDbEntity
8
1
62
256
6
ByLayer
370
18
48
1
60
0
100
AcDbSpline
70
4
71
3
72
24
73
20
40
0
40
0
40
0
40
0
40
0.0625000000000077
40
0.0625000000000077
40
0.125000000000015
40
0.125000000000015
40
0.250000000000025
40
0.250000000000025
40
0.31250000000003
40
0.31250000000003
40
0.375000000000035
40
0.375000000000035
40
0.50000000000003
40
0.50000000000003
40
0.625000000000025
40
0.625000000000025
40
0.750000000000019
40
0.750000000000019
40
1
40
1
40
1
40
1
41
1
10
6.63392922618218
20
4.22657724186328
30
0
41
1
10
6.64203094640015
20
4.23132696238062
30
0
41
1
10
6.65000214581437
20
4.23646851121657
30
0
41
1
10
6.66544540228793
20
4.24740297861703
30
0
41
1
10
6.67287003172379
20
4.25315747242811
30
0
41
1
10
6.69428508821468
20
4.27125124379802
30
0
41
1
10
6.70742257611209
20
4.28441519486717
30
0
41
1
10
6.72543281456325
20
4.30579792736327
30
0
41
1
10
6.73115769104285
20
4.31321517928251
30
0
41
1
10
6.74182325008556
20
4.32830128136283
30
0
41
1
10
6.74679487110171
20
4.33600413168625
30
0
41
1
10
6.76066756694723
20
4.35957173865276
30
0
41
1
10
6.7685330543155
20
4.37589274413668
30
0
41
1
10
6.78154266414697
20
4.40972065016143
30
0
41
1
10
6.78651739748884
20
4.42678490530707
30
0
41
1
10
6.79367632907034
20
4.46115530244342
30
0
41
1
10
6.79586164350562
20
4.47852124145501
30
0
41
1
10
6.79829154663307
20
4.53058885607302
30
0
41
1
10
6.79449162835584
20
4.56415438949458
30
0
41
1
10
6.78580337017189
20
4.59660596222446
30
0
0
SPLINE
5
ED
100
AcDbEntity
8
1
62
256
6
ByLayer
370
18
48
1
60
0
100
AcDbSpline
70
4
71
3
72
26
73
22
40
0
40
0
40
0
40
0
40
0.249999999999997
40
0.249999999999997
40
0.312500000000001
40
0.312500000000001
40
0.375000000000005
40
0.375000000000005
40
0.500000000000026
40
0.500000000000026
40
0.562500000000026
40
0.562500000000026
40
0.625000000000025
40
0.625000000000025
40
0.75000000000004
40
0.75000000000004
40
0.812500000000035
40
0.812500000000035
40
0.87500000000003
40
0.87500000000003
40
1
40
1
40
1
40
1
41
1
10
7.36444777673134
20
5.6065963306562
30
0
41
1
10
7.39692936993603
20
5.61553906965611
30
0
41
1
10
7.42781602631891
20
5.62927066794398
30
0
41
1
10
7.46415085390882
20
5.65292296137403
30
0
41
1
10
7.47132979401118
20
5.6580087934299
30
0
41
1
10
7.48521173114753
20
5.66870529102672
30
0
41
1
10
7.49193393103394
20
5.67432490113191
30
0
41
1
10
7.51143906289605
20
5.69199879685374
30
0
41
1
10
7.52356514522347
20
5.70486251608622
30
0
41
1
10
7.5403417433362
20
5.72587724533511
30
0
41
1
10
7.54569745378024
20
5.73316998959396
30
0
41
1
10
7.55590390262341
20
5.7483666867592
30
0
41
1
10
7.56071444949131
20
5.7562171294918
30
0
41
1
10
7.57407682952552
20
5.78021452736493
30
0
41
1
10
7.58164924063175
20
5.79692480055346
30
0
41
1
10
7.59093631643836
20
5.82308778978967
30
0
41
1
10
7.59368506816972
20
5.83199263010658
30
0
41
1
10
7.5984540306909
20
5.85018753045978
30
0
41
1
10
7.60046686209154
20
5.85947370125311
30
0
41
1
10
7.60525592030041
20
5.88727702335049
30
0
41
1
10
7.60685233658702
20
5.90594934691302
30
0
41
1
10
7.60685233658702
20
5.92475830020305
30
0
0
SPLINE
5
EE
100
AcDbEntity
8
1
62
256
6
ByLayer
370
18
48
1
60
0
100
AcDbSpline
70
4
71
3
72
34
73
30
40
0
40
0
40
0
40
0
40
0.125000000000004
40
0.125000000000004
40
0.187500000000007
40
0.187500000000007
40
0.218750000000009
40
0.218750000000009
40
0.25000000000001
40
0.25000000000001
40
0.375000000000007
40
0.375000000000007
40
0.406250000000006
40
0.406250000000006
40
0.437500000000005
40
0.500000000000004
40
0.562500000000003
40
0.562500000000003
40
0.625000000000002
40
0.625000000000002
40
0.687500000000001
40
0.687500000000001
40
0.75
40
0.75
40
0.874999999999999
40
0.874999999999999
40
0.937499999999999
40
0.937499999999999
40
1
40
1
40
1
40
1
41
1
10
7.36444777673134
20
5.6065963306562
30
0
41
1
10
7.31554988917136
20
5.59313390461881
30
0
41
1
10
7.26795906328275
20
5.57523964812847
30
0
41
1
10
7.19840812307757
20
5.54131559270743
30
0
41
1
10
7.17553173748377
20
5.52881815397947
30
0
41
1
10
7.14167705915673
20
5.50812772203085
30
0
41
1
10
7.1304437478295
20
5.50088865374261
30
0
41
1
10
7.10825174031223
20
5.48580350441972
30
0
41
1
10
7.09732836623309
20
5.47798329624356
30
0
41
1
10
7.04357277141156
20
5.43747230971195
30
0
41
1
10
7.0032874814413
20
5.40061314318055
30
0
41
1
10
6.95663819210682
20
5.3480606424348
30
0
41
1
10
6.94748691051439
20
5.33720514800223
30
0
41
1
10
6.92985977799788
20
5.31516853264287
30
0
41
1
10
6.9043207853525
20
5.28150348567254
30
0
41
1
10
6.86621159477971
20
5.22237568834945
30
0
41
1
10
6.84050774550468
20
5.17182843242657
30
0
41
1
10
6.81729179928965
20
5.11959519381469
30
0
41
1
10
6.80720718544202
20
5.09326443389799
30
0
41
1
10
6.78988297490972
20
5.04023943028895
30
0
41
1
10
6.78264007647115
20
5.0135357645583
30
0
41
1
10
6.77087827200711
20
4.9597335901027
30
0
41
1
10
6.76636413242585
20
4.93254190312601
30
0
41
1
10
6.75701452205166
20
4.85226477930871
30
0
41
1
10
6.75614424973298
20
4.79983605349659
30
0
41
1
10
6.76198120453975
20
4.72235174131691
30
0
41
1
10
6.76514620598095
20
4.69664001966638
30
0
41
1
10
6.77378216221695
20
4.6460155054807
30
0
41
1
10
6.77924045565609
20
4.62111914924307
30
0
41
1
10
6.78580337017189
20
4.59660596222446
30
0
0
SPLINE
5
EF
100
AcDbEntity
8
1
62
256
6
ByLayer
370
18
48
1
60
0
100
AcDbSpline
70
4
71
3
72
34
73
30
40
0
40
0
40
0
40
0
40
0.125000000000003
40
0.125000000000003
40
0.187500000000004
40
0.187500000000004
40
0.218750000000003
40
0.218750000000003
40
0.250000000000003
40
0.250000000000003
40
0.375
40
0.375
40
0.406250000000002
40
0.406250000000002
40
0.437500000000005
40
0.500000000000003
40
0.5625
40
0.5625
40
0.624999999999998
40
0.624999999999998
40
0.687499999999996
40
0.687499999999996
40
0.749999999999993
40
0.749999999999993
40
0.874999999999993
40
0.874999999999993
40
0.937499999999996
40
0.937499999999996
40
1
40
1
40
1
40
1
41
1
10
6.78580337017189
20
7.25291063818162
30
0
41
1
10
6.77268679836575
20
7.20391884087073
30
0
41
1
10
6.76405452069636
20
7.153813201784
30
0
41
1
10
6.75814437618726
20
7.07665592774237
30
0
41
1
10
6.75735581295135
20
7.05060035008563
30
0
41
1
10
6.75808284594692
20
7.01093040559374
30
0
41
1
10
6.7586465357403
20
6.9975784916727
30
0
41
1
10
6.76043645969912
20
6.97080456430368
30
0
41
1
10
6.76165823811414
20
6.95742611026293
30
0
41
1
10
6.76941905253253
20
6.89056375829759
30
0
41
1
10
6.7808421848666
20
6.83716886370323
30
0
41
1
10
6.80258498632321
20
6.77034692475266
30
0
41
1
10
6.8073214816333
20
6.75696210697907
30
0
41
1
10
6.81741698503384
20
6.73061046320964
30
0
41
1
10
6.83354262191756
20
6.69155230724317
30
0
41
1
10
6.8652769769181
20
6.62877223358296
30
0
41
1
10
6.89588314022964
20
6.58103361762576
30
0
41
1
10
6.92920202903616
20
6.5345885686547
30
0
41
1
10
6.94681665653596
20
6.51257190493868
30
0
41
1
10
6.9837983553617
20
6.47080908317849
30
0
41
1
10
7.00317188691642
20
6.45105530887125
30
0
41
1
10
7.04363724168914
20
6.4136979948743
30
0
41
1
10
7.06481185947848
20
6.39605144080451
30
0
41
1
10
7.12933654245703
20
6.34738525732789
30
0
41
1
10
7.17412549141798
20
6.32011845182893
30
0
41
1
10
7.24392154161549
20
6.28596585748107
30
0
41
1
10
7.26770318184964
20
6.27569242625077
30
0
41
1
10
7.31574349159027
20
6.25753891900632
30
0
41
1
10
7.33998157681427
20
6.24965623367871
30
0
41
1
10
7.36444777673134
20
6.24292026974987
30
0
0
SPLINE
5
F0
100
AcDbEntity
8
1
62
256
6
ByLayer
370
18
48
1
60
0
100
AcDbSpline
70
4
71
3
72
26
73
22
40
0
40
0
40
0
40
0
40
0.12500000000002
40
0.12500000000002
40
0.25000000000004
40
0.25000000000004
40
0.312500000000039
40
0.312500000000039
40
0.375000000000039
40
0.375000000000039
40
0.50000000000002
40
0.50000000000002
40
0.562500000000016
40
0.562500000000016
40
0.625000000000012
40
0.625000000000012
40
0.750000000000008
40
0.750000000000008
40
0.875000000000004
40
0.875000000000004
40
1
40
1
40
1
40
1
41
1
10
7.60685233658702
20
5.92475830020305
30
0
41
1
10
7.60685233658702
20
5.94350038408271
30
0
41
1
10
7.60521513209162
20
5.96254832432405
30
0
41
1
10
7.59883761726997
20
5.99942884605738
30
0
41
1
10
7.5941251282525
20
6.0174051376824
30
0
41
1
10
7.58481772269019
20
6.04368553076387
30
0
41
1
10
7.58131986168235
20
6.052371910766
30
0
41
1
10
7.57368646682306
20
6.06924084781903
30
0
41
1
10
7.56955143585191
20
6.07743569571889
30
0
41
1
10
7.55623466600275
20
6.10133155202254
30
0
41
1
10
7.54614689908036
20
6.1163482371276
30
0
41
1
10
7.52925704367323
20
6.13753383961145
30
0
41
1
10
7.52334495397145
20
6.1443502187721
30
0
41
1
10
7.51114970842988
20
6.15731788971374
30
0
41
1
10
7.50484363337239
20
6.16349868297422
30
0
41
1
10
7.48532868936283
20
6.18116738240437
30
0
41
1
10
7.47152646424908
20
6.19178657117411
30
0
41
1
10
7.44239786982695
20
6.21075968114917
30
0
41
1
10
7.42732963077324
20
6.21893945900763
30
0
41
1
10
7.39647008428693
20
6.23278032002699
30
0
41
1
10
7.38064722607513
20
6.23846028385847
30
0
41
1
10
7.36444777673134
20
6.24292026974987
30
0
0
SPLINE
5
F1
100
AcDbEntity
8
1
62
256
6
ByLayer
370
18
48
1
60
0
100
AcDbSpline
70
4
71
3
72
24
73
20
40
0
40
0
40
0
40
0
40
0.0625
40
0.0625
40
0.125
40
0.125
40
0.250000000000002
40
0.250000000000002
40
0.312500000000005
40
0.312500000000005
40
0.375000000000008
40
0.375000000000008
40
0.500000000000008
40
0.500000000000008
40
0.625000000000008
40
0.625000000000008
40
0.750000000000008
40
0.750000000000008
40
1
40
1
40
1
40
1
41
1
10
6.63392922618218
20
7.62293935854282
30
0
41
1
10
6.64203094640015
20
7.61818963802546
30
0
41
1
10
6.65000214581437
20
7.6130480891895
30
0
41
1
10
6.66544540228793
20
7.60211362178907
30
0
41
1
10
6.67287003172379
20
7.59635912797799
30
0
41
1
10
6.69428508821466
20
7.57826535660809
30
0
41
1
10
6.70742257611209
20
7.56510140553894
30
0
41
1
10
6.72543281456325
20
7.54371867304283
30
0
41
1
10
6.73115769104285
20
7.5363014211236
30
0
41
1
10
6.74182325008556
20
7.52121531904325
30
0
41
1
10
6.74679487110171
20
7.51351246871985
30
0
41
1
10
6.76066756694723
20
7.48994486175332
30
0
41
1
10
6.7685330543155
20
7.4736238562694
30
0
41
1
10
6.78154266414697
20
7.43979595024464
30
0
41
1
10
6.78651739748884
20
7.42273169509903
30
0
41
1
10
6.79367632907034
20
7.38836129796269
30
0
41
1
10
6.79586164350562
20
7.37099535895109
30
0
41
1
10
6.79829154663307
20
7.31892774433305
30
0
41
1
10
6.79449162835584
20
7.2853622109115
30
0
41
1
10
6.78580337017189
20
7.25291063818162
30
0
0
SPLINE
5
F2
100
AcDbEntity
8
1
62
256
6
ByLayer
370
18
48
1
60
0
100
AcDbSpline
70
4
71
3
72
17
73
13
40
0
40
0
40
0
40
0
40
0.24999999999999
40
0.24999999999999
40
0.49999999999998
40
0.49999999999998
40
0.562499999999978
40
0.562499999999978
40
0.624999999999977
40
0.749999999999983
40
0.749999999999983
40
1
40
1
40
1
40
1
41
1
10
5.04623463241981
20
7.5683409282918
30
0
41
1
10
5.07440001777755
20
7.53938290383417
30
0
41
1
10
5.10462657872236
20
7.51252735910674
30
0
41
1
10
5.16943065997401
20
7.46303856183619
30
0
41
1
10
5.20400164145323
20
7.44040100801629
30
0
41
1
10
5.25036382473039
20
7.41496882281561
30
0
41
1
10
5.25981762677569
20
7.41001585224009
30
0
41
1
10
5.27892706047336
20
7.40047465855864
30
0
41
1
10
5.30789029963881
20
7.38670841173061
30
0
41
1
10
5.33776605984363
20
7.37458133365473
30
0
41
1
10
5.39880294866518
20
7.35256737652998
30
0
41
1
10
5.44119413931998
20
7.34085380223871
30
0
41
1
10
5.48561104321055
20
7.33249623650286
30
0
0
SPLINE
5
F3
100
AcDbEntity
8
1
62
256
6
ByLayer
370
18
48
1
60
0
100
AcDbSpline
70
4
71
3
72
18
73
14
40
0
40
0
40
0
40
0
40
0.250000000000018
40
0.250000000000018
40
0.375000000000026
40
0.375000000000026
40
0.437500000000028
40
0.437500000000028
40
0.50000000000003
40
0.50000000000003
40
0.750000000000015
40
0.750000000000015
40
1
40
1
40
1
40
1
41
1
10
5.79109362996348
20
7.33249623650286
30
0
41
1
10
5.83551861944434
20
7.34085532363815
30
0
41
1
10
5.87788106426984
20
7.35256422406596
30
0
41
1
10
5.93883993452664
20
7.37454359978761
30
0
41
1
10
5.95872514943986
20
7.38261228243374
30
0
41
1
10
5.98793748283046
20
7.39579920644991
30
0
41
1
10
5.99757218004424
20
7.40037577465009
30
0
41
1
10
6.01664021219648
20
7.409889009208
30
0
41
1
10
6.02609436641183
20
7.4148374243471
30
0
41
1
10
6.07256112846471
20
7.44030815334665
30
0
41
1
10
6.10718568044203
20
7.46297529767034
30
0
41
1
10
6.1720593118967
20
7.51250882966275
30
0
41
1
10
6.20230153611118
20
7.53937969676497
30
0
41
1
10
6.2304700407542
20
7.5683409282918
30
0
0
SPLINE
5
F4
100
AcDbEntity
8
1
62
256
6
ByLayer
370
18
48
1
60
0
100
AcDbSpline
70
4
71
3
72
24
73
20
40
0
40
0
40
0
40
0
40
0.12500000000001
40
0.12500000000001
40
0.18750000000001
40
0.18750000000001
40
0.250000000000009
40
0.250000000000009
40
0.375000000000008
40
0.375000000000008
40
0.500000000000007
40
0.500000000000007
40
0.625000000000006
40
0.625000000000006
40
0.687500000000008
40
0.687500000000008
40
0.750000000000009
40
0.750000000000009
40
1
40
1
40
1
40
1
41
1
10
6.63392922618218
20
7.62293935854282
30
0
41
1
10
6.61730317916096
20
7.63268655722837
30
0
41
1
10
6.59999058540666
20
7.64089403689289
30
0
41
1
10
6.57300489279973
20
7.6509240637007
30
0
41
1
10
6.56380496546856
20
7.65389424149876
30
0
41
1
10
6.54520780175966
20
7.65900684975819
30
0
41
1
10
6.53590141602379
20
7.66112788946913
30
0
41
1
10
6.5079613024688
20
7.66625464481609
30
0
41
1
10
6.48930667683081
20
7.66803237402993
30
0
41
1
10
6.45195239464511
20
7.66843980366139
30
0
41
1
10
6.43311341416063
20
7.66701877820742
30
0
41
1
10
6.3969372316665
20
7.66124559510612
30
0
41
1
10
6.37942186303403
20
7.65691692483446
30
0
41
1
10
6.35396345976858
20
7.64841039659427
30
0
41
1
10
6.34561383877397
20
7.6452374396018
30
0
41
1
10
6.32918839573588
20
7.63822128467302
30
0
41
1
10
6.32108559199577
20
7.63436115163034
30
0
41
1
10
6.28193646506645
20
7.61374294151011
30
0
41
1
10
6.25442735090994
20
7.59297245257659
30
0
41
1
10
6.2304700407542
20
7.5683409282918
30
0
0
SPLINE
5
F5
100
AcDbEntity
8
1
62
256
6
ByLayer
370
18
48
1
60
0
100
AcDbSpline
70
4
71
3
72
24
73
20
40
0
40
0
40
0
40
0
40
0.249999999999996
40
0.249999999999996
40
0.312499999999994
40
0.312499999999994
40
0.374999999999991
40
0.374999999999991
40
0.499999999999993
40
0.499999999999993
40
0.624999999999994
40
0.624999999999994
40
0.749999999999996
40
0.749999999999996
40
0.812499999999997
40
0.812499999999997
40
0.874999999999998
40
0.874999999999998
40
1
40
1
40
1
40
1
41
1
10
5.04623463241984
20
7.5683409282918
30
0
41
1
10
5.02227732226407
20
7.59297245257659
30
0
41
1
10
4.99476820810756
20
7.61374294151011
30
0
41
1
10
4.95561908117827
20
7.63436115163034
30
0
41
1
10
4.94751627743815
20
7.63822128467302
30
0
41
1
10
4.93109083440007
20
7.6452374396018
30
0
41
1
10
4.92274121340543
20
7.64841039659427
30
0
41
1
10
4.89728281013998
20
7.65691692483446
30
0
41
1
10
4.87976744150751
20
7.66124559510612
30
0
41
1
10
4.84359125901341
20
7.66701877820742
30
0
41
1
10
4.82475227852893
20
7.66843980366139
30
0
41
1
10
4.78739799634323
20
7.66803237402993
30
0
41
1
10
4.76874337070524
20
7.66625464481609
30
0
41
1
10
4.74080325715022
20
7.66112788946913
30
0
41
1
10
4.73149687141435
20
7.65900684975819
30
0
41
1
10
4.71289970770545
20
7.65389424149879
30
0
41
1
10
4.70369978037431
20
7.65092406370073
30
0
41
1
10
4.67671408776738
20
7.64089403689289
30
0
41
1
10
4.65940149401308
20
7.63268655722837
30
0
41
1
10
4.64277544699183
20
7.62293935854282
30
0
0
SPLINE
5
F6
100
AcDbEntity
8
1
62
256
6
ByLayer
370
18
48
1
60
0
100
AcDbSpline
70
4
71
3
72
34
73
30
40
0
40
0
40
0
40
0
40
0.12499999999999
40
0.12499999999999
40
0.187499999999984
40
0.187499999999984
40
0.218749999999981
40
0.218749999999981
40
0.249999999999978
40
0.249999999999978
40
0.374999999999964
40
0.374999999999964
40
0.406249999999962
40
0.406249999999962
40
0.43749999999996
40
0.499999999999964
40
0.562499999999968
40
0.562499999999968
40
0.624999999999972
40
0.624999999999972
40
0.687499999999976
40
0.687499999999976
40
0.74999999999998
40
0.74999999999998
40
0.874999999999989
40
0.874999999999989
40
0.937499999999994
40
0.937499999999994
40
1
40
1
40
1
40
1
41
1
10
3.9122568964427
20
6.24292026974987
30
0
41
1
10
3.96115478400265
20
6.25638269578729
30
0
41
1
10
4.00874560989126
20
6.27427695227763
30
0
41
1
10
4.07829655009644
20
6.30820100769867
30
0
41
1
10
4.10117293569027
20
6.32069844642663
30
0
41
1
10
4.1350276140173
20
6.34138887837523
30
0
41
1
10
4.14626092534451
20
6.3486279466635
30
0
41
1
10
4.16845293286181
20
6.36371309598638
30
0
41
1
10
4.17937630694095
20
6.37153330416251
30
0
41
1
10
4.23313190176245
20
6.41204429069415
30
0
41
1
10
4.2734171917327
20
6.44890345722553
30
0
41
1
10
4.32006648106722
20
6.5014559579713
30
0
41
1
10
4.32921776265962
20
6.51231145240385
30
0
41
1
10
4.34684489517616
20
6.53434806776323
30
0
41
1
10
4.37238388782154
20
6.56801311473353
30
0
41
1
10
4.41049307839432
20
6.62714091205663
30
0
41
1
10
4.43619692766936
20
6.67768816797954
30
0
41
1
10
4.45941287388436
20
6.72992140659139
30
0
41
1
10
4.46949748773199
20
6.75625216650809
30
0
41
1
10
4.48682169826432
20
6.80927717011713
30
0
41
1
10
4.49406459670288
20
6.83598083584778
30
0
41
1
10
4.50582640116693
20
6.8897830103034
30
0
41
1
10
4.51034054074816
20
6.91697469728007
30
0
41
1
10
4.51969015112238
20
6.99725182109739
30
0
41
1
10
4.52056042344103
20
7.04968054690949
30
0
41
1
10
4.51472346863429
20
7.12716485908919
30
0
41
1
10
4.51155846719308
20
7.15287658073973
30
0
41
1
10
4.50292251095706
20
7.2035010949254
30
0
41
1
10
4.49746421751794
20
7.22839745116303
30
0
41
1
10
4.49090130300215
20
7.25291063818162
30
0
0
SPLINE
5
F7
100
AcDbEntity
8
1
62
256
6
ByLayer
370
18
48
1
60
0
100
AcDbSpline
70
4
71
3
72
24
73
20
40
0
40
0
40
0
40
0
40
0.06249999999999
40
0.06249999999999
40
0.12499999999998
40
0.12499999999998
40
0.249999999999981
40
0.249999999999981
40
0.312499999999986
40
0.312499999999986
40
0.37499999999999
40
0.37499999999999
40
0.49999999999999
40
0.49999999999999
40
0.62499999999999
40
0.62499999999999
40
0.749999999999991
40
0.749999999999991
40
1
40
1
40
1
40
1
41
1
10
4.64277544699183
20
7.62293935854282
30
0
41
1
10
4.63467372677388
20
7.61818963802546
30
0
41
1
10
4.62670252735967
20
7.61304808918953
30
0
41
1
10
4.61125927088611
20
7.60211362178907
30
0
41
1
10
4.60383464145025
20
7.59635912797799
30
0
41
1
10
4.58241958495935
20
7.57826535660809
30
0
41
1
10
4.56928209706192
20
7.56510140553891
30
0
41
1
10
4.55127185861079
20
7.54371867304283
30
0
41
1
10
4.54554698213116
20
7.5363014211236
30
0
41
1
10
4.53488142308848
20
7.52121531904325
30
0
41
1
10
4.52990980207233
20
7.51351246871985
30
0
41
1
10
4.51603710622678
20
7.48994486175332
30
0
41
1
10
4.50817161885854
20
7.4736238562694
30
0
41
1
10
4.49516200902707
20
7.43979595024464
30
0
41
1
10
4.4901872756852
20
7.42273169509903
30
0
41
1
10
4.4830283441037
20
7.38836129796269
30
0
41
1
10
4.48084302966842
20
7.37099535895106
30
0
41
1
10
4.47841312654094
20
7.31892774433305
30
0
41
1
10
4.4822130448182
20
7.2853622109115
30
0
41
1
10
4.49090130300215
20
7.25291063818162
30
0
0
SPLINE
5
F8
100
AcDbEntity
8
1
62
256
6
ByLayer
370
18
48
1
60
0
100
AcDbSpline
70
4
71
3
72
26
73
22
40
0
40
0
40
0
40
0
40
0.250000000000029
40
0.250000000000029
40
0.312500000000034
40
0.312500000000034
40
0.375000000000039
40
0.375000000000039
40
0.500000000000057
40
0.500000000000057
40
0.562500000000053
40
0.562500000000053
40
0.625000000000049
40
0.625000000000049
40
0.750000000000054
40
0.750000000000054
40
0.812500000000046
40
0.812500000000046
40
0.875000000000037
40
0.875000000000037
40
1
40
1
40
1
40
1
41
1
10
3.9122568964427
20
6.24292026974987
30
0
41
1
10
3.87977530323801
20
6.23397753074997
30
0
41
1
10
3.84888864685513
20
6.22024593246209
30
0
41
1
10
3.81255381926522
20
6.19659363903207
30
0
41
1
10
3.80537487916286
20
6.19150780697618
30
0
41
1
10
3.79149294202651
20
6.18081130937938
30
0
41
1
10
3.7847707421401
20
6.17519169927419
30
0
41
1
10
3.76526561027799
20
6.15751780355237
30
0
41
1
10
3.75313952795057
20
6.14465408431985
30
0
41
1
10
3.73636292983781
20
6.12363935507099
30
0
41
1
10
3.7310072193938
20
6.11634661081212
30
0
41
1
10
3.72080077055063
20
6.10114991364691
30
0
41
1
10
3.71599022368272
20
6.0932994709143
30
0
41
1
10
3.70262784364851
20
6.06930207304114
30
0
41
1
10
3.69505543254229
20
6.05259179985265
30
0
41
1
10
3.68576835673568
20
6.02642881061644
30
0
41
1
10
3.68301960500432
20
6.01752397029952
30
0
41
1
10
3.67825064248311
20
5.9993290699463
30
0
41
1
10
3.67623781108247
20
5.99004289915297
30
0
41
1
10
3.67144875287363
20
5.96223957705561
30
0
41
1
10
3.66985233658701
20
5.94356725349306
30
0
41
1
10
3.66985233658701
20
5.92475830020305
30
0
0
SPLINE
5
F9
100
AcDbEntity
8
1
62
256
6
ByLayer
370
18
48
1
60
0
100
AcDbSpline
70
4
71
3
72
34
73
30
40
0
40
0
40
0
40
0
40
0.124999999999989
40
0.124999999999989
40
0.187499999999985
40
0.187499999999985
40
0.218749999999981
40
0.218749999999981
40
0.249999999999978
40
0.249999999999978
40
0.374999999999975
40
0.374999999999975
40
0.406249999999975
40
0.406249999999975
40
0.437499999999975
40
0.499999999999977
40
0.562499999999979
40
0.562499999999979
40
0.624999999999982
40
0.624999999999982
40
0.687499999999984
40
0.687499999999984
40
0.749999999999986
40
0.749999999999986
40
0.874999999999991
40
0.874999999999991
40
0.937499999999995
40
0.937499999999995
40
1
40
1
40
1
40
1
41
1
10
4.49090130300215
20
4.59660596222446
30
0
41
1
10
4.50401787480828
20
4.64559775953538
30
0
41
1
10
4.51265015247768
20
4.69570339862207
30
0
41
1
10
4.51856029698678
20
4.77286067266374
30
0
41
1
10
4.51934886022269
20
4.79891625032047
30
0
41
1
10
4.51862182722712
20
4.83858619481236
30
0
41
1
10
4.51805813743374
20
4.85193810873341
30
0
41
1
10
4.51626821347489
20
4.8787120361024
30
0
41
1
10
4.5150464350599
20
4.89209049014315
30
0
41
1
10
4.50728562064151
20
4.95895284210849
30
0
41
1
10
4.49586248830744
20
5.01234773670288
30
0
41
1
10
4.4741196868508
20
5.07916967565345
30
0
41
1
10
4.46938319154072
20
5.092554493427
30
0
41
1
10
4.45928768814017
20
5.11890613719646
30
0
41
1
10
4.44316205125645
20
5.15796429316291
30
0
41
1
10
4.41142797322871
20
5.22074450704329
30
0
41
1
10
4.3808215329444
20
5.26848298278034
30
0
41
1
10
4.34750264413785
20
5.31492803175138
30
0
41
1
10
4.32988801663808
20
5.33694469546742
30
0
41
1
10
4.29290631781234
20
5.37870751722758
30
0
41
1
10
4.27353278625762
20
5.39846129153486
30
0
41
1
10
4.2330674314849
20
5.43581860553181
30
0
41
1
10
4.21189281369556
20
5.45346515960159
30
0
41
1
10
4.14736813071698
20
5.50213134307822
30
0
41
1
10
4.10257918175603
20
5.52939814857714
30
0
41
1
10
4.03278313155855
20
5.563550742925
30
0
41
1
10
4.0090014913244
20
5.57382417415531
30
0
41
1
10
3.96096118158377
20
5.59197768139978
30
0
41
1
10
3.93672309635977
20
5.59986036672737
30
0
41
1
10
3.9122568964427
20
5.6065963306562
30
0
0
SPLINE
5
FA
100
AcDbEntity
8
1
62
256
6
ByLayer
370
18
48
1
60
0
100
AcDbSpline
70
4
71
3
72
26
73
22
40
0
40
0
40
0
40
0
40
0.125000000000018
40
0.125000000000018
40
0.250000000000036
40
0.250000000000036
40
0.312500000000034
40
0.312500000000034
40
0.375000000000032
40
0.375000000000032
40
0.500000000000014
40
0.500000000000014
40
0.56250000000001
40
0.56250000000001
40
0.625000000000006
40
0.625000000000006
40
0.750000000000008
40
0.750000000000008
40
0.875000000000004
40
0.875000000000004
40
1
40
1
40
1
40
1
41
1
10
3.66985233658701
20
5.92475830020305
30
0
41
1
10
3.66985233658701
20
5.90601621632339
30
0
41
1
10
3.67148954108242
20
5.88696827608206
30
0
41
1
10
3.67786705590407
20
5.85008775434869
30
0
41
1
10
3.68257954492151
20
5.8321114627237
30
0
41
1
10
3.69188695048385
20
5.80583106964224
30
0
41
1
10
3.69538481149166
20
5.79714468964011
30
0
41
1
10
3.70301820635098
20
5.78027575258707
30
0
41
1
10
3.70715323732213
20
5.77208090468721
30
0
41
1
10
3.72047000717129
20
5.74818504838356
30
0
41
1
10
3.73055777409365
20
5.73316836327851
30
0
41
1
10
3.74744762950081
20
5.71198276079465
30
0
41
1
10
3.75335971920256
20
5.705166381634
30
0
41
1
10
3.76555496474413
20
5.69219871069234
30
0
41
1
10
3.77186103980165
20
5.68601791743185
30
0
41
1
10
3.79137598381121
20
5.66834921800174
30
0
41
1
10
3.80517820892496
20
5.65773002923197
30
0
41
1
10
3.83430680334709
20
5.63875691925693
30
0
41
1
10
3.84937504240077
20
5.63057714139848
30
0
41
1
10
3.88023458888711
20
5.61673628037912
30
0
41
1
10
3.89605744709891
20
5.61105631654763
30
0
41
1
10
3.9122568964427
20
5.6065963306562
30
0
0
SPLINE
5
FB
100
AcDbEntity
8
1
62
256
6
ByLayer
370
18
48
1
60
0
100
AcDbSpline
70
4
71
3
72
24
73
20
40
0
40
0
40
0
40
0
40
0.0625000000000006
40
0.0625000000000006
40
0.125000000000001
40
0.125000000000001
40
0.250000000000007
40
0.250000000000007
40
0.312500000000012
40
0.312500000000012
40
0.375000000000017
40
0.375000000000017
40
0.500000000000012
40
0.500000000000012
40
0.625000000000007
40
0.625000000000007
40
0.750000000000001
40
0.750000000000001
40
1
40
1
40
1
40
1
41
1
10
4.64277544699183
20
4.22657724186328
30
0
41
1
10
4.63467372677388
20
4.23132696238062
30
0
41
1
10
4.62670252735967
20
4.23646851121657
30
0
41
1
10
4.61125927088611
20
4.24740297861703
30
0
41
1
10
4.60383464145025
20
4.25315747242811
30
0
41
1
10
4.58241958495935
20
4.27125124379802
30
0
41
1
10
4.56928209706192
20
4.28441519486717
30
0
41
1
10
4.55127185861079
20
4.30579792736327
30
0
41
1
10
4.54554698213116
20
4.31321517928251
30
0
41
1
10
4.53488142308845
20
4.32830128136283
30
0
41
1
10
4.52990980207233
20
4.33600413168625
30
0
41
1
10
4.51603710622678
20
4.35957173865276
30
0
41
1
10
4.50817161885854
20
4.37589274413668
30
0
41
1
10
4.49516200902707
20
4.40972065016146
30
0
41
1
10
4.4901872756852
20
4.42678490530707
30
0
41
1
10
4.4830283441037
20
4.46115530244342
30
0
41
1
10
4.48084302966839
20
4.47852124145501
30
0
41
1
10
4.47841312654094
20
4.53058885607302
30
0
41
1
10
4.4822130448182
20
4.5641543894946
30
0
41
1
10
4.49090130300215
20
4.59660596222446
30
0
0
SPLINE
5
FC
100
AcDbEntity
8
1
62
256
6
ByLayer
370
18
48
1
60
0
100
AcDbSpline
70
4
71
3
72
14
73
10
40
0
40
0
40
0
40
0
40
0.25
40
0.25
40
0.5
40
0.5
40
0.75
40
0.75
40
1
40
1
40
1
40
1
41
1
10
15.0565783801011
20
1.73692073756777
30
0
41
1
10
15.0655147239739
20
1.75608478894387
30
0
41
1
10
15.0745333901781
20
1.77511092026887
30
0
41
1
10
15.0927362752323
20
1.8128858216125
30
0
41
1
10
15.1019435105223
20
1.83168002311424
30
0
41
1
10
15.1203641458658
20
1.86864863192281
30
0
41
1
10
15.1296065077358
20
1.88688201566597
30
0
41
1
10
15.148021772319
20
1.92256920624189
30
0
41
1
10
15.15717677894
20
1.9399898988438
30
0
41
1
10
15.166277749556
20
1.9569763552386
30
0
0
SPLINE
5
FD
100
AcDbEntity
8
1
62
256
6
ByLayer
370
18
48
1
60
0
100
AcDbSpline
70
4
71
3
72
14
73
10
40
0
40
0
40
0
40
0
40
0.25
40
0.25
40
0.5
40
0.5
40
0.75
40
0.75
40
1
40
1
40
1
40
1
41
1
10
22.4200948253084
20
13.5765155431588
30
0
41
1
10
22.4291958856769
20
13.5935021670716
30
0
41
1
10
22.4383424593433
20
13.6109071137232
30
0
41
1
10
22.456723768712
20
13.6465273237078
30
0
41
1
10
22.4659787094846
20
13.6647843409687
30
0
41
1
10
22.4843957516187
20
13.7017443030412
30
0
41
1
10
22.4935942031021
20
13.7205192931671
30
0
41
1
10
22.5118309596826
20
13.7583633353273
30
0
41
1
10
22.5208578292152
20
13.7774070629705
30
0
41
1
10
22.5297941947634
20
13.7965711608296
30
0
0
SPLINE
5
FE
100
AcDbEntity
8
1
62
256
6
ByLayer
370
18
48
1
60
0
100
AcDbSpline
70
4
71
3
72
14
73
10
40
0
40
0
40
0
40
0
40
0.25
40
0.25
40
0.5
40
0.5
40
0.75
40
0.75
40
1
40
1
40
1
40
1
41
1
10
24.8230114990631
20
11.5033538565299
30
0
41
1
10
24.8038474476871
20
11.4944175126571
30
0
41
1
10
24.784821316362
20
11.4853988464529
30
0
41
1
10
24.7470464150184
20
11.4671959613986
30
0
41
1
10
24.7282522135167
20
11.4579887261086
30
0
41
1
10
24.6912836047081
20
11.4395680907652
30
0
41
1
10
24.6730502209649
20
11.4303257288952
30
0
41
1
10
24.637363030389
20
11.4119104643119
30
0
41
1
10
24.6199423377871
20
11.402755457691
30
0
41
1
10
24.6029558813923
20
11.3936544870749
30
0
0
SPLINE
5
FF
100
AcDbEntity
8
1
62
256
6
ByLayer
370
18
48
1
60
0
100
AcDbSpline
70
4
71
3
72
8
73
4
40
0
40
0
40
0
40
0
40
1
40
1
40
1
40
1
41
1
10
15.166277749556
20
1.95697635523857
30
0
41
1
10
15.3084909221366
20
2.22240934658822
30
0
41
1
10
15.4507045304571
20
2.48784479910356
30
0
41
1
10
15.5929184038577
20
2.75328174911459
30
0
0
SPLINE
5
100
100
AcDbEntity
8
1
62
256
6
ByLayer
370
18
48
1
60
0
100
AcDbSpline
70
4
71
3
72
10
73
6
40
0
40
0
40
0
40
0
40
0.844817807027287
40
0.844817807027287
40
1
40
1
40
1
40
1
41
1
10
15.5929184038577
20
2.75328174911459
30
0
41
1
10
15.6674369221365
20
2.89236781532085
30
0
41
1
10
15.7516991166573
20
3.02378750480989
30
0
41
1
10
15.8618368784483
20
3.1711662310401
30
0
41
1
10
15.8792252241474
20
3.19380315873877
30
0
41
1
10
15.8969105414848
20
3.21620642328793
30
0
0
SPLINE
5
101
100
AcDbEntity
8
1
62
256
6
ByLayer
370
18
48
1
60
0
100
AcDbSpline
70
2053
71
3
72
86
73
82
40
0
40
0
40
0
40
0
40
0.0312499999999616
40
0.0312499999999616
40
0.0468749999999509
40
0.0468749999999509
40
0.0624999999999402
40
0.0624999999999402
40
0.0937499999999188
40
0.0937499999999188
40
0.124999999999897
40
0.124999999999897
40
0.156249999999876
40
0.156249999999876
40
0.171874999999871
40
0.171874999999871
40
0.187499999999865
40
0.187499999999865
40
0.21874999999986
40
0.21874999999986
40
0.249999999999855
40
0.249999999999855
40
0.28124999999985
40
0.28124999999985
40
0.312499999999845
40
0.312499999999845
40
0.328124999999842
40
0.328124999999842
40
0.343749999999839
40
0.343749999999839
40
0.374999999999845
40
0.374999999999845
40
0.40624999999985
40
0.40624999999985
40
0.421874999999854
40
0.421874999999854
40
0.437499999999859
40
0.437499999999859
40
0.468749999999867
40
0.468749999999867
40
0.499999999999875
40
0.499999999999875
40
0.531249999999883
40
0.531249999999883
40
0.546874999999887
40
0.546874999999887
40
0.562499999999891
40
0.562499999999891
40
0.593749999999896
40
0.593749999999896
40
0.624999999999901
40
0.624999999999901
40
0.656249999999907
40
0.656249999999907
40
0.687499999999912
40
0.687499999999912
40
0.703124999999918
40
0.703124999999918
40
0.718749999999923
40
0.718749999999923
40
0.749999999999919
40
0.749999999999919
40
0.781249999999915
40
0.781249999999915
40
0.796874999999918
40
0.796874999999918
40
0.81249999999992
40
0.81249999999992
40
0.843749999999928
40
0.843749999999928
40
0.874999999999936
40
0.874999999999936
40
0.906249999999943
40
0.906249999999943
40
0.921874999999953
40
0.921874999999953
40
0.937499999999962
40
0.937499999999962
40
0.968749999999981
40
0.968749999999981
40
1
40
1
40
1
40
1
41
1
10
21.8376810009456
20
11.9426115126105
30
0
41
1
10
21.8443642391779
20
11.9359282743783
30
0
41
1
10
21.8515288035361
20
11.9299497248874
30
0
41
1
10
21.8629681123349
20
11.9219957046808
30
0
41
1
10
21.8668974838488
20
11.9195145884095
30
0
41
1
10
21.874994069602
20
11.9149005711177
30
0
41
1
10
21.8791748221563
20
11.9127639622405
30
0
41
1
10
21.8918067409893
20
11.9070194489511
30
0
41
1
10
21.9004270124082
20
11.9040187741423
30
0
41
1
10
21.9180619739626
20
11.8996605720413
30
0
41
1
10
21.9271324296095
20
11.8983179489458
30
0
41
1
10
21.9449050304618
20
11.8974261426348
30
0
41
1
10
21.9536980146607
20
11.8978439427723
30
0
41
1
10
21.9667441757658
20
11.8997971175336
30
0
41
1
10
21.9710647203631
20
11.9006734923527
30
0
41
1
10
21.9794670355475
20
11.9028337824978
30
0
41
1
10
21.9835734816891
20
11.9041207063505
30
0
41
1
10
21.9956129847504
20
11.9085924283405
30
0
41
1
10
22.0033183845906
20
11.9124146407166
30
0
41
1
10
22.0177250814453
20
11.9216242654604
30
0
41
1
10
22.0243030677108
20
11.9269170049612
30
0
41
1
10
22.0362416953865
20
11.9388416190886
30
0
41
1
10
22.0416447801184
20
11.9455574695858
30
0
41
1
10
22.0507969624979
20
11.9598701000544
30
0
41
1
10
22.0545901731424
20
11.9674816129724
30
0
41
1
10
22.0590991301309
20
11.9795854805911
30
0
41
1
10
22.0604089576709
20
11.9837592042862
30
0
41
1
10
22.0625774874197
20
11.9921913832353
30
0
41
1
10
22.0634410781792
20
11.9964545344135
30
0
41
1
10
22.0653857234517
20
12.0093817832405
30
0
41
1
10
22.0658269578282
20
12.0181823311461
30
0
41
1
10
22.064932324863
20
12.0361624182008
30
0
41
1
10
22.063606302061
20
12.0450767184684
30
0
41
1
10
22.0603611157444
20
12.0582629227198
30
0
41
1
10
22.0590682547282
20
12.0626315725408
30
0
41
1
10
22.0560513840965
20
12.0713142433467
30
0
41
1
10
22.0543176056269
20
12.0756454709339
30
0
41
1
10
22.0485695633482
20
12.0882861667243
30
0
41
1
10
22.0439944749003
20
12.0963225808065
30
0
41
1
10
22.033376562089
20
12.1116236431793
30
0
41
1
10
22.027272685686
20
12.1189280871735
30
0
41
1
10
22.0140733130535
20
12.1321359006496
30
0
41
1
10
22.0069354867375
20
12.1381203834644
30
0
41
1
10
21.9954051266354
20
12.1461490824206
30
0
41
1
10
21.9914170431076
20
12.1486666020895
30
0
41
1
10
21.9833384376036
20
12.1532707973786
30
0
41
1
10
21.9792268868161
20
12.1553732431951
30
0
41
1
10
21.9666791377207
20
12.1610917044645
30
0
41
1
10
21.9579824263489
20
12.1641365084299
30
0
41
1
10
21.9402092708632
20
12.1685318317601
30
0
41
1
10
21.9313253407363
20
12.1698448937692
30
0
41
1
10
21.913562616227
20
12.1707549998737
30
0
41
1
10
21.9045879270836
20
12.1703297357637
30
0
41
1
10
21.8872809979405
20
12.1677402860704
30
0
41
1
10
21.8789182929698
20
12.1655994843871
30
0
41
1
10
21.8668112947408
20
12.1611164893012
30
0
41
1
10
21.8628276317819
20
12.1593972446669
30
0
41
1
10
21.855138693045
20
12.1555778144384
30
0
41
1
10
21.851433809146
20
12.1534815541595
30
0
41
1
10
21.8407271455552
20
12.1466475287982
30
0
41
1
10
21.8341294027139
20
12.1413697997211
30
0
41
1
10
21.8220522034051
20
12.1293198382733
30
0
41
1
10
21.8167333917814
20
12.12269822625
30
0
41
1
10
21.8098838539473
20
12.1120122468352
30
0
41
1
10
21.8077845875042
20
12.1083181781751
30
0
41
1
10
21.8039609685804
20
12.1006607994465
30
0
41
1
10
21.8022303170956
20
12.0966763919462
30
0
41
1
10
21.7977115798672
20
12.0845479175318
30
0
41
1
10
21.7955580224018
20
12.076186513814
30
0
41
1
10
21.7929416784649
20
12.0589208977897
30
0
41
1
10
21.7924967923563
20
12.0499384400056
30
0
41
1
10
21.7933766501423
20
12.0321532346615
30
0
41
1
10
21.7946761561546
20
12.0232767130594
30
0
41
1
10
21.7979364551632
20
12.0099864579419
30
0
41
1
10
21.79924986535
20
12.0055485974092
30
0
41
1
10
21.8022639255853
20
11.996873105613
30
0
41
1
10
21.8039689428347
20
11.9926122206665
30
0
41
1
10
21.8096669516577
20
11.9800558766974
30
0
41
1
10
21.8142547678888
20
11.9719592731739
30
0
41
1
10
21.8249768992675
20
11.9565017657337
30
0
41
1
10
21.8309977627133
20
11.9492947508428
30
0
41
1
10
21.8376810009456
20
11.9426115126105
30
0
0
SPLINE
5
102
100
AcDbEntity
8
1
62
256
6
ByLayer
370
18
48
1
60
0
100
AcDbSpline
70
4
71
3
72
8
73
4
40
0
40
0
40
0
40
0
40
1
40
1
40
1
40
1
41
1
10
21.9934541710068
20
12.7802101492828
30
0
41
1
10
22.1356680444074
20
13.0456470992938
30
0
41
1
10
22.2778816527279
20
13.3110825518092
30
0
41
1
10
22.4200948253084
20
13.5765155431588
30
0
0
SPLINE
5
103
100
AcDbEntity
8
1
62
256
6
ByLayer
370
18
48
1
60
0
100
AcDbSpline
70
4
71
3
72
10
73
6
40
0
40
0
40
0
40
0
40
0.5
40
0.5
40
1
40
1
40
1
40
1
41
1
10
21.4360802659004
20
12.03244999049
30
0
41
1
10
21.5467342621234
20
12.143103986713
30
0
41
1
10
21.648580773433
20
12.260688048995
30
0
41
1
10
21.8346734582072
20
12.5097043935875
30
0
41
1
10
21.918935652728
20
12.6411240830766
30
0
41
1
10
21.9934541710068
20
12.7802101492828
30
0
0
SPLINE
5
104
100
AcDbEntity
8
1
62
256
6
ByLayer
370
18
48
1
60
0
100
AcDbSpline
70
4
71
3
72
9
73
5
40
0
40
0
40
0
40
0
40
0.328379613142054
40
1
40
1
40
1
40
1
41
1
10
20.9925785641012
20
11.5889482886908
30
0
41
1
10
21.0411242124435
20
11.6374939370331
30
0
41
1
10
21.1889581412245
20
11.785327865814
30
0
41
1
10
21.3367920700053
20
11.9331617945949
30
0
41
1
10
21.4360802735731
20
12.0324499981626
30
0
0
SPLINE
5
105
100
AcDbEntity
8
1
62
256
6
ByLayer
370
18
48
1
60
0
100
AcDbSpline
70
4
71
3
72
10
73
6
40
0
40
0
40
0
40
0
40
0.5
40
0.5
40
1
40
1
40
1
40
1
41
1
10
21.0788894828424
20
11.5026373699496
30
0
41
1
10
21.0853689879699
20
11.4961578648221
30
0
41
1
10
21.092830991141
20
11.4911897889497
30
0
41
1
10
21.1092501891425
20
11.4837842381423
30
0
41
1
10
21.1177413021254
20
11.4815275277298
30
0
41
1
10
21.1264189235767
20
11.4802288633962
30
0
0
SPLINE
5
106
100
AcDbEntity
8
1
62
256
6
ByLayer
370
18
48
1
60
0
100
AcDbSpline
70
4
71
3
72
8
73
4
40
0
40
0
40
0
40
0
40
1
40
1
40
1
40
1
41
1
10
21.1264189235767
20
11.4802288633962
30
0
41
1
10
21.375717281677
20
11.4429196896879
30
0
41
1
10
21.6250156564067
20
11.405610596955
30
0
41
1
10
21.8743139747717
20
11.3683012297576
30
0
0
SPLINE
5
107
100
AcDbEntity
8
1
62
256
6
ByLayer
370
18
48
1
60
0
100
AcDbSpline
70
4
71
3
72
18
73
14
40
0
40
0
40
0
40
0
40
0.124999999999993
40
0.124999999999993
40
0.249999999999987
40
0.249999999999987
40
0.37499999999998
40
0.37499999999998
40
0.499999999999974
40
0.499999999999974
40
0.749999999999987
40
0.749999999999987
40
1
40
1
40
1
40
1
41
1
10
21.8743139747717
20
11.3683012297576
30
0
41
1
10
21.8857603635448
20
11.3665881916408
30
0
41
1
10
21.8970001910737
20
11.3661952259098
30
0
41
1
10
21.9192192613089
20
11.3670746138538
30
0
41
1
10
21.9301956735395
20
11.3683650562868
30
0
41
1
10
21.9519534444937
20
11.372192467826
30
0
41
1
10
21.962746189372
20
11.3747440605952
30
0
41
1
10
21.983772752327
20
11.3807156823387
30
0
41
1
10
21.9940673889432
20
11.3841470607544
30
0
41
1
10
22.0244323438953
20
11.3954987522138
30
0
41
1
10
22.0439908349277
20
11.4044620964249
30
0
41
1
10
22.0821083787966
20
11.4244254929668
30
0
41
1
10
22.100671328739
20
11.4354494470552
30
0
41
1
10
22.1186656539157
20
11.4472273637911
30
0
0
SPLINE
5
108
100
AcDbEntity
8
1
62
256
6
ByLayer
370
18
48
1
60
0
100
AcDbSpline
70
4
71
3
72
8
73
4
40
0
40
0
40
0
40
0
40
1
40
1
40
1
40
1
41
1
10
22.1186656539157
20
11.4472273637911
30
0
41
1
10
22.1938057322197
20
11.4964091795638
30
0
41
1
10
22.2679704856517
20
11.5469252108835
30
0
41
1
10
22.341220921854
20
11.5986919491167
30
0
0
SPLINE
5
109
100
AcDbEntity
8
1
62
256
6
ByLayer
370
18
48
1
60
0
100
AcDbSpline
70
4
71
3
72
8
73
4
40
0
40
0
40
0
40
0
40
1
40
1
40
1
40
1
41
1
10
22.341220921854
20
11.5986919491167
30
0
41
1
10
22.3467181843998
20
11.6025769137116
30
0
41
1
10
22.3522154468371
20
11.6064618777353
30
0
41
1
10
22.3577127091629
20
11.6103468411726
30
0
0
SPLINE
5
10A
100
AcDbEntity
8
1
62
256
6
ByLayer
370
18
48
1
60
0
100
AcDbSpline
70
4
71
3
72
28
73
24
40
0
40
0
40
0
40
0
40
0.0625000000000105
40
0.0625000000000105
40
0.0937500000000093
40
0.0937500000000093
40
0.125000000000008
40
0.125000000000008
40
0.187500000000006
40
0.187500000000006
40
0.250000000000003
40
0.250000000000003
40
0.312500000000001
40
0.312500000000001
40
0.374999999999998
40
0.374999999999998
40
0.500000000000003
40
0.500000000000003
40
0.625000000000007
40
0.625000000000007
40
0.750000000000012
40
0.750000000000012
40
1
40
1
40
1
40
1
41
1
10
22.7041880338385
20
11.677747695605
30
0
41
1
10
22.698120030786
20
11.6838156986575
30
0
41
1
10
22.6914261322835
20
11.6889431736395
30
0
41
1
10
22.6805595930089
20
11.6953936261369
30
0
41
1
10
22.6767729819365
20
11.6973459736781
30
0
41
1
10
22.6691189018805
20
11.7007781612695
30
0
41
1
10
22.6652419346083
20
11.702267892662
30
0
41
1
10
22.6534819575714
20
11.7061518799712
30
0
41
1
10
22.6454399377987
20
11.7079699839822
30
0
41
1
10
22.6292192914272
20
11.7103646040468
30
0
41
1
10
22.6211762566757
20
11.7109281008461
30
0
41
1
10
22.605189134366
20
11.711123073047
30
0
41
1
10
22.5972454142654
20
11.710751087258
30
0
41
1
10
22.5814368656835
20
11.7092640024975
30
0
41
1
10
22.5735469608841
20
11.7081413191897
30
0
41
1
10
22.5503012110402
20
11.7039107212719
30
0
41
1
10
22.5352698937316
20
11.6999558470427
30
0
41
1
10
22.5058473604339
20
11.6904872648312
30
0
41
1
10
22.4914607054647
20
11.6849624495339
30
0
41
1
10
22.463192090403
20
11.6726837361796
30
0
41
1
10
22.4492972396738
20
11.6659155244343
30
0
41
1
10
22.4086271973102
20
11.6442682584103
30
0
41
1
10
22.3827088088892
20
11.6280118037953
30
0
41
1
10
22.3577127091629
20
11.6103468411726
30
0
0
SPLINE
5
10B
100
AcDbEntity
8
1
62
256
6
ByLayer
370
18
48
1
60
0
100
AcDbSpline
70
4
71
3
72
26
73
22
40
0
40
0
40
0
40
0
40
0.250000000000009
40
0.250000000000009
40
0.375000000000013
40
0.375000000000013
40
0.500000000000018
40
0.500000000000018
40
0.625000000000022
40
0.625000000000022
40
0.750000000000026
40
0.750000000000026
40
0.812500000000033
40
0.812500000000033
40
0.875000000000039
40
0.875000000000039
40
0.906250000000035
40
0.906250000000035
40
0.937500000000032
40
0.937500000000032
40
1
40
1
40
1
40
1
41
1
10
22.6367871794062
20
11.3312723709294
30
0
41
1
10
22.6544509701422
20
11.3562668124243
30
0
41
1
10
22.6706513268465
20
11.3821104909311
30
0
41
1
10
22.6921691907265
20
11.422490808717
30
0
41
1
10
22.6988732891375
20
11.4362228011915
30
0
41
1
10
22.71113314327
20
11.4643531773749
30
0
41
1
10
22.7166934567768
20
11.4787489161443
30
0
41
1
10
22.7262879036716
20
11.5084260486045
30
0
41
1
10
22.7303060106976
20
11.5236636392522
30
0
41
1
10
22.7359751316331
20
11.5547135581473
30
0
41
1
10
22.7376559622475
20
11.5706737942904
30
0
41
1
10
22.7373722569447
20
11.5946642182548
30
0
41
1
10
22.7368110563649
20
11.6026903520295
30
0
41
1
10
22.7344435592493
20
11.6188208688384
30
0
41
1
10
22.7326157779182
20
11.6269571881688
30
0
41
1
10
22.7287262200395
20
11.6387536022367
30
0
41
1
10
22.7272361330053
20
11.6426344648575
30
0
41
1
10
22.7238125946762
20
11.6502787445277
30
0
41
1
10
22.7218633808815
20
11.6540661601026
30
0
41
1
10
22.7153940800413
20
11.6649750123697
30
0
41
1
10
22.7102554068531
20
11.6716803225905
30
0
41
1
10
22.7041880338386
20
11.677747695605
30
0
0
SPLINE
5
10C
100
AcDbEntity
8
1
62
256
6
ByLayer
370
18
48
1
60
0
100
AcDbSpline
70
4
71
3
72
8
73
4
40
0
40
0
40
0
40
0
40
1
40
1
40
1
40
1
41
1
10
22.6367871794062
20
11.3312723709294
30
0
41
1
10
22.6329022159688
20
11.3257751086035
30
0
41
1
10
22.6290172519451
20
11.3202778461663
30
0
41
1
10
22.6251322873502
20
11.3147805836205
30
0
0
SPLINE
5
10D
100
AcDbEntity
8
1
62
256
6
ByLayer
370
18
48
1
60
0
100
AcDbSpline
70
4
71
3
72
8
73
4
40
0
40
0
40
0
40
0
40
1
40
1
40
1
40
1
41
1
10
22.6251322873502
20
11.3147805836205
30
0
41
1
10
22.573365549117
20
11.2415301474182
30
0
41
1
10
22.5228495177973
20
11.1673653939862
30
0
41
1
10
22.4736677020246
20
11.0922253156822
30
0
0
SPLINE
5
10E
100
AcDbEntity
8
1
62
256
6
ByLayer
370
18
48
1
60
0
100
AcDbSpline
70
4
71
3
72
18
73
14
40
0
40
0
40
0
40
0
40
0.249999999999978
40
0.249999999999978
40
0.499999999999956
40
0.499999999999956
40
0.624999999999967
40
0.624999999999967
40
0.749999999999978
40
0.749999999999978
40
0.874999999999989
40
0.874999999999989
40
1
40
1
40
1
40
1
41
1
10
22.4736677020246
20
11.0922253156822
30
0
41
1
10
22.461883401614
20
11.0742212375142
30
0
41
1
10
22.4509342665526
20
11.0557807552746
30
0
41
1
10
22.4310489264421
20
11.0178479646608
30
0
41
1
10
22.4221003946011
20
10.9983620974326
30
0
41
1
10
22.4107370622633
20
10.9680571563859
30
0
41
1
10
22.40729615675
20
10.9577742570803
30
0
41
1
10
22.4012958747595
20
10.9367478302357
30
0
41
1
10
22.398722070409
20
10.9259382694059
30
0
41
1
10
22.3948413139116
20
10.9040391844953
30
0
41
1
10
22.3935318811068
20
10.8929964776494
30
0
41
1
10
22.3926312210511
20
10.8706573568755
30
0
41
1
10
22.393022008808
20
10.8593635985728
30
0
41
1
10
22.3947415679908
20
10.8478736365383
30
0
0
SPLINE
5
10F
100
AcDbEntity
8
1
62
256
6
ByLayer
370
18
48
1
60
0
100
AcDbSpline
70
4
71
3
72
8
73
4
40
0
40
0
40
0
40
0
40
1
40
1
40
1
40
1
41
1
10
22.3947415679912
20
10.8478736365381
30
0
41
1
10
22.4320509351886
20
10.5985753181732
30
0
41
1
10
22.4693600279215
20
10.3492769434435
30
0
41
1
10
22.5066692016297
20
10.0999785853431
30
0
0
SPLINE
5
110
100
AcDbEntity
8
1
62
256
6
ByLayer
370
18
48
1
60
0
100
AcDbSpline
70
4
71
3
72
12
73
8
40
0
40
0
40
0
40
0
40
0.499999999999946
40
0.499999999999946
40
0.749999999999973
40
0.749999999999973
40
1
40
1
40
1
40
1
41
1
10
22.5066692016297
20
10.0999785853431
30
0
41
1
10
22.5079648229578
20
10.0913212971291
30
0
41
1
10
22.5102185647091
20
10.0828350752469
30
0
41
1
10
22.5157541094887
20
10.0705441573467
30
0
41
1
10
22.5179175443928
20
10.0666301421756
30
0
41
1
10
22.522952051052
20
10.0592089181036
30
0
41
1
10
22.5258485042709
20
10.0556783485211
30
0
41
1
10
22.5290777081832
20
10.0524491446089
30
0
0
SPLINE
5
111
100
AcDbEntity
8
1
62
256
6
ByLayer
370
18
48
1
60
0
100
AcDbSpline
70
4
71
3
72
9
73
5
40
0
40
0
40
0
40
0
40
0.671620386858397
40
1
40
1
40
1
40
1
41
1
10
23.0588903363962
20
10.4096399353395
30
0
41
1
10
22.9596021328285
20
10.3103517317718
30
0
41
1
10
22.8117682040477
20
10.162517802991
30
0
41
1
10
22.6639342752669
20
10.0146838742102
30
0
41
1
10
22.6153886269246
20
9.96613822586798
30
0
0
SPLINE
5
112
100
AcDbEntity
8
1
62
256
6
ByLayer
370
18
48
1
60
0
100
AcDbSpline
70
4
71
3
72
10
73
6
40
0
40
0
40
0
40
0
40
0.5
40
0.5
40
1
40
1
40
1
40
1
41
1
10
23.8066504875164
20
10.9670138327732
30
0
41
1
10
23.6675644213101
20
10.8924953144945
30
0
41
1
10
23.5361447318211
20
10.8082331199736
30
0
41
1
10
23.2871283872285
20
10.6221404351994
30
0
41
1
10
23.1695443249465
20
10.5202939238899
30
0
41
1
10
23.0588903287236
20
10.4096399276669
30
0
0
SPLINE
5
113
100
AcDbEntity
8
1
62
256
6
ByLayer
370
18
48
1
60
0
100
AcDbSpline
70
4
71
3
72
8
73
4
40
0
40
0
40
0
40
0
40
1
40
1
40
1
40
1
41
1
10
24.6029558813923
20
11.3936544870749
30
0
41
1
10
24.3375228900427
20
11.2514413144944
30
0
41
1
10
24.0720874375274
20
11.1092277061739
30
0
41
1
10
23.8066504875164
20
10.9670138327732
30
0
0
LINE
5
80
100
AcDbEntity
8
80
62
256
6
ByLayer
370
18
48
1
60
0
100
AcDbLine
10
0
20
0
30
0
11
-5
21
0
31
0
39
0
210
0
220
0
230
1
0
LINE
5
81
100
AcDbEntity
8
1
62
256
6
ByLayer
370
18
48
1
60
0
100
AcDbLine
10
22.140581
20
9.45244
30
0
11
22.381487
21
9.693346
31
0
39
0
210
0
220
0
230
1
0
LINE
5
82
100
AcDbEntity
8
1
62
256
6
ByLayer
370
18
48
1
60
0
100
AcDbLine
10
22.381487
20
9.693346
30
0
11
23.030891
21
10.34275
31
0
39
0
210
0
220
0
230
1
0
LINE
5
83
100
AcDbEntity
8
1
62
256
6
ByLayer
370
18
48
1
60
0
100
AcDbLine
10
22.381487
20
9.693346
30
0
11
22.361854
21
9.71261
31
0
39
0
210
0
220
0
230
1
0
LINE
5
84
100
AcDbEntity
8
1
62
256
6
ByLayer
370
18
48
1
60
0
100
AcDbLine
10
21.36919
20
12.004451
30
0
11
21.690302
21
12.325562
31
0
39
0
210
0
220
0
230
1
0
LINE
5
85
100
AcDbEntity
8
1
62
256
6
ByLayer
370
18
48
1
60
0
100
AcDbLine
10
23.030891
20
10.34275
30
0
11
23.34711
21
10.658969
31
0
39
0
210
0
220
0
230
1
0
LINE
5
86
100
AcDbEntity
8
1
62
256
6
ByLayer
370
18
48
1
60
0
100
AcDbLine
10
23.030891
20
10.34275
30
0
11
23.011258
21
10.362014
31
0
39
0
210
0
220
0
230
1
0
LINE
5
87
100
AcDbEntity
8
1
62
256
6
ByLayer
370
18
48
1
60
0
100
AcDbLine
10
20.808127
20
11.443387
30
0
11
21.36919
21
12.004451
31
0
39
0
210
0
220
0
230
1
0
LINE
5
88
100
AcDbEntity
8
1
62
256
6
ByLayer
370
18
48
1
60
0
100
AcDbLine
10
20.73905
20
11.335413
30
0
11
20.716367
21
11.358531
31
0
39
0
210
0
220
0
230
1
0
LINE
5
89
100
AcDbEntity
8
1
62
256
6
ByLayer
370
18
48
1
60
0
100
AcDbLine
10
21.388454
20
11.984818
30
0
11
21.36919
21
12.004451
31
0
39
0
210
0
220
0
230
1
0
LINE
5
8A
100
AcDbEntity
8
1
62
256
6
ByLayer
370
18
48
1
60
0
100
AcDbLine
10
0
20
10.53649
30
0
11
0
21
-9.02043
31
0
39
0
210
0
220
0
230
1
0
LINE
5
8B
100
AcDbEntity
8
1
62
256
6
ByLayer
370
18
48
1
60
0
100
AcDbLine
10
22.140605
20
9.452464
30
0
11
19.802581
21
7.11444
31
0
39
0
210
0
220
0
230
1
0
LINE
5
8C
100
AcDbEntity
8
1
62
256
6
ByLayer
370
18
48
1
60
0
100
AcDbLine
10
19.676756
20
10.974758
30
0
11
15.942263
21
10.974758
31
0
39
0
210
0
220
0
230
1
0
LINE
5
8D
100
AcDbEntity
8
1
62
256
6
ByLayer
370
18
48
1
60
0
100
AcDbLine
10
21.553506
20
10.596106
30
0
11
21.622546
21
10.527065
31
0
39
0
210
0
220
0
230
1
0
LINE
5
8E
100
AcDbEntity
8
1
62
256
6
ByLayer
370
18
48
1
60
0
100
AcDbLine
10
19.802581
20
7.11444
30
0
11
15.359227
21
2.671086
31
0
39
0
210
0
220
0
230
1
0
LINE
5
8F
100
AcDbEntity
8
1
62
256
6
ByLayer
370
18
48
1
60
0
100
AcDbLine
10
15.942263
20
10.974758
30
0
11
7.055555
21
10.974758
31
0
39
0
210
0
220
0
230
1
0
LINE
5
90
100
AcDbEntity
8
1
62
256
6
ByLayer
370
18
48
1
60
0
100
AcDbLine
10
15.942263
20
10.974758
30
0
11
19.802581
21
7.11444
31
0
39
0
210
0
220
0
230
1
0
LINE
5
91
100
AcDbEntity
8
1
62
256
6
ByLayer
370
18
48
1
60
0
100
AcDbLine
10
6.261175
20
-6.426966
30
0
11
0
21
-9.02043
31
0
39
0
210
0
220
0
230
1
0
LINE
5
92
100
AcDbEntity
8
1
62
256
6
ByLayer
370
18
48
1
60
0
100
AcDbLine
10
15.359227
20
2.671086
30
0
11
6.261175
21
-6.426966
31
0
39
0
210
0
220
0
230
1
0
LINE
5
93
100
AcDbEntity
8
1
62
256
6
ByLayer
370
18
48
1
60
0
100
AcDbLine
10
15.359227
20
2.671086
30
0
11
7.055555
21
10.974758
31
0
39
0
210
0
220
0
230
1
0
LINE
5
94
100
AcDbEntity
8
1
62
256
6
ByLayer
370
18
48
1
60
0
100
AcDbLine
10
7.055555
20
10.974758
30
0
11
0.260416
21
10.974758
31
0
39
0
210
0
220
0
230
1
0
LINE
5
95
100
AcDbEntity
8
SK1
62
256
6
ByLayer
370
18
48
1
60
0
100
AcDbLine
10
-66
20
-9.9625
30
0
11
-10.44207
21
-9.9625
31
0
39
0
210
0
220
0
230
1
0
LINE
5
97
100
AcDbEntity
8
SK1
62
256
6
ByLayer
370
18
48
1
60
0
100
AcDbLine
10
-66
20
9.9625
30
0
11
-10.44207
21
9.9625
31
0
39
0
210
0
220
0
230
1
0
LINE
5
98
100
AcDbEntity
8
SK1
62
256
6
ByLayer
370
18
48
1
60
0
100
AcDbLine
10
-66
20
-9.9625
30
0
11
-69
21
-6.9625
31
0
39
0
210
0
220
0
230
1
0
LINE
5
99
100
AcDbEntity
8
SK1
62
256
6
ByLayer
370
18
48
1
60
0
100
AcDbLine
10
-66
20
9.9625
30
0
11
-69
21
6.9625
31
0
39
0
210
0
220
0
230
1
0
LINE
5
9A
100
AcDbEntity
8
SK1
62
256
6
ByLayer
370
18
48
1
60
0
100
AcDbLine
10
-69
20
6.9625
30
0
11
-69
21
-6.9625
31
0
39
0
210
0
220
0
230
1
0
LINE
5
9B
100
AcDbEntity
8
SK1
62
256
6
ByLayer
370
18
48
1
60
0
100
AcDbLine
10
-10.44207
20
-9.9625
30
0
11
-5.504684
21
-9.9625
31
0
39
0
210
0
220
0
230
1
0
LINE
5
9C
100
AcDbEntity
8
SK1
62
256
6
ByLayer
370
18
48
1
60
0
100
AcDbLine
10
-10.44207
20
9.9625
30
0
11
-5.504684
21
9.9625
31
0
39
0
210
0
220
0
230
1
0
LINE
5
9D
100
AcDbEntity
8
SK1
62
256
6
ByLayer
370
18
48
1
60
0
100
AcDbLine
10
-10.44207
20
9.9625
30
0
11
-10.44207
21
-9.9625
31
0
39
0
210
0
220
0
230
1
0
LINE
5
9E
100
AcDbEntity
8
SK1
62
256
6
ByLayer
370
18
48
1
60
0
100
AcDbLine
10
-5.504684
20
-9.9625
30
0
11
-3.347303
21
-9.9625
31
0
39
0
210
0
220
0
230
1
0
LINE
5
9F
100
AcDbEntity
8
SK1
62
256
6
ByLayer
370
18
48
1
60
0
100
AcDbLine
10
-5.504684
20
9.9625
30
0
11
-3.347303
21
9.9625
31
0
39
0
210
0
220
0
230
1
0
LINE
5
A0
100
AcDbEntity
8
SK1
62
256
6
ByLayer
370
13
48
1
60
0
100
AcDbLine
10
-5.504684
20
-9.9625
30
0
11
-5.504684
21
9.9625
31
0
39
0
210
0
220
0
230
1
0
LINE
5
A1
100
AcDbEntity
8
SK1
62
256
6
ByLayer
370
18
48
1
60
0
100
AcDbLine
10
-3.347303
20
-9.9625
30
0
11
-2.274359
21
-9.9625
31
0
39
0
210
0
220
0
230
1
0
LINE
5
A2
100
AcDbEntity
8
SK1
62
256
6
ByLayer
370
18
48
1
60
0
100
AcDbLine
10
-3.347303
20
9.9625
30
0
11
-1.227723
21
9.9625
31
0
39
0
210
0
220
0
230
1
0
LINE
5
A3
100
AcDbEntity
8
SK1
62
256
6
ByLayer
370
18
48
1
60
0
100
AcDbLine
10
0
20
-9.02043
30
0
11
-2.274359
21
-9.9625
31
0
39
0
210
0
220
0
230
1
0
LINE
5
A4
100
AcDbEntity
8
SK1
62
256
6
ByLayer
370
18
48
1
60
0
100
AcDbLine
10
0
20
10.53649
30
0
11
0
21
-9.02043
31
0
39
0
210
0
220
0
230
1
0
LINE
5
A5
100
AcDbEntity
8
SK1
62
256
6
ByLayer
370
18
48
1
60
0
100
AcDbLine
10
-3.347303
20
9.9625
30
0
11
-3.347303
21
-9.9625
31
0
39
0
210
0
220
0
230
1
0
LINE
5
A6
100
AcDbEntity
8
1
62
256
6
ByLayer
370
18
48
1
60
0
100
AcDbLine
10
22.529794
20
13.796571
30
0
11
22.849047
21
14.481211
31
0
39
0
210
0
220
0
230
1
0
LINE
5
A7
100
AcDbEntity
8
1
62
256
6
ByLayer
370
18
48
1
60
0
100
AcDbLine
10
25.507651
20
11.822606
30
0
11
24.823011
21
11.503354
31
0
39
0
210
0
220
0
230
1
0
LINE
5
A8
100
AcDbEntity
8
1
62
256
6
ByLayer
370
18
48
1
60
0
100
AcDbLine
10
14.737326
20
1.052281
30
0
11
15.056578
21
1.736921
31
0
39
0
210
0
220
0
230
1
0
LINE
5
A9
100
AcDbEntity
8
1
62
256
6
ByLayer
370
13
48
1
60
0
100
AcDbLine
10
15.056578
20
1.736921
30
0
11
14.740795
21
2.052704
31
0
39
0
210
0
220
0
230
1
0
LINE
5
AA
100
AcDbEntity
8
1
62
256
6
ByLayer
370
13
48
1
60
0
100
AcDbLine
10
24.823011
20
11.503354
30
0
11
22.529794
21
13.796571
31
0
39
0
210
0
220
0
230
1
0
LINE
5
AB
100
AcDbEntity
8
1
62
256
6
ByLayer
370
13
48
1
60
0
100
AcDbLine
10
21.391647
20
10.644281
30
0
11
22.357713
21
11.610347
31
0
39
0
210
0
220
0
230
1
0
LINE
5
AC
100
AcDbEntity
8
1
62
256
6
ByLayer
370
13
48
1
60
0
100
AcDbLine
10
22.636787
20
11.331272
30
0
11
21.670721
21
10.365206
31
0
39
0
210
0
220
0
230
1
0
LINE
5
AD
100
AcDbEntity
8
1
62
256
6
ByLayer
370
13
48
1
60
0
100
AcDbLine
10
22.704188
20
11.677748
30
0
11
21.587964
21
10.561523
31
0
39
0
210
0
220
0
230
1
0
LINE
5
AE
100
AcDbEntity
8
1
62
256
6
ByLayer
370
13
48
1
60
0
100
AcDbLine
10
21.668964
20
10.358612
30
0
11
22.625132
21
11.314781
31
0
39
0
210
0
220
0
230
1
0
LINE
5
AF
100
AcDbEntity
8
1
62
256
6
ByLayer
370
13
48
1
60
0
100
AcDbLine
10
21.385052
20
10.642523
30
0
11
22.341221
21
11.598692
31
0
39
0
210
0
220
0
230
1
0
LINE
5
B0
100
AcDbEntity
8
1
62
256
6
ByLayer
370
13
48
1
60
0
100
AcDbLine
10
21.300282
20
10.628844
30
0
11
22.118666
21
11.447227
31
0
39
0
210
0
220
0
230
1
0
LINE
5
B1
100
AcDbEntity
8
1
62
256
6
ByLayer
370
13
48
1
60
0
100
AcDbLine
10
21.645213
20
10.26377
30
0
11
22.473668
21
11.092225
31
0
39
0
210
0
220
0
230
1
0
LINE
5
B2
100
AcDbEntity
8
1
62
256
6
ByLayer
370
13
48
1
60
0
100
AcDbLine
10
21.707887
20
10.161019
30
0
11
22.394742
21
10.847874
31
0
39
0
210
0
220
0
230
1
0
LINE
5
B3
100
AcDbEntity
8
1
62
256
6
ByLayer
370
13
48
1
60
0
100
AcDbLine
10
21.187564
20
10.681551
30
0
11
21.874314
21
11.368301
31
0
39
0
210
0
220
0
230
1
0
LINE
5
B4
100
AcDbEntity
8
1
62
256
6
ByLayer
370
18
48
1
60
0
100
AcDbLine
10
22.125852
20
9.476601
30
0
11
22.615389
21
9.966138
31
0
39
0
210
0
220
0
230
1
0
LINE
5
B5
100
AcDbEntity
8
1
62
256
6
ByLayer
370
18
48
1
60
0
100
AcDbLine
10
20.992579
20
11.588948
30
0
11
20.502948
21
11.099317
31
0
39
0
210
0
220
0
230
1
0
LINE
5
B6
100
AcDbEntity
8
1
62
256
6
ByLayer
370
13
48
1
60
0
100
AcDbLine
10
22.033892
20
9.627201
30
0
11
22.506669
21
10.099979
31
0
39
0
210
0
220
0
230
1
0
LINE
5
B7
100
AcDbEntity
8
1
62
256
6
ByLayer
370
13
48
1
60
0
100
AcDbLine
10
22.529078
20
10.052449
30
0
11
22.060334
21
9.583706
31
0
39
0
210
0
220
0
230
1
0
LINE
5
B8
100
AcDbEntity
8
1
62
256
6
ByLayer
370
13
48
1
60
0
100
AcDbLine
10
15.166278
20
1.956976
30
0
11
14.905665
21
2.21759
31
0
39
0
210
0
220
0
230
1
0
LINE
5
B9
100
AcDbEntity
8
1
62
256
6
ByLayer
370
13
48
1
60
0
100
AcDbLine
10
20.61024
20
11.033988
30
0
11
21.078889
21
11.502637
31
0
39
0
210
0
220
0
230
1
0
LINE
5
BA
100
AcDbEntity
8
1
62
256
6
ByLayer
370
13
48
1
60
0
100
AcDbLine
10
21.126419
20
11.480229
30
0
11
20.653736
21
11.007546
31
0
39
0
210
0
220
0
230
1
0
LINE
5
BB
100
AcDbEntity
8
1
62
256
6
ByLayer
370
13
48
1
60
0
100
AcDbLine
10
24.602956
20
11.393654
30
0
11
22.420095
21
13.576516
31
0
39
0
210
0
220
0
230
1
0
LINE
5
BC
100
AcDbEntity
8
1
62
256
6
ByLayer
370
18
48
1
60
0
100
AcDbLine
10
20.992579
20
11.588948
30
0
11
21.078889
21
11.502637
31
0
39
0
210
0
220
0
230
1
0
LINE
5
BD
100
AcDbEntity
8
1
62
256
6
ByLayer
370
18
48
1
60
0
100
AcDbLine
10
22.529078
20
10.052449
30
0
11
22.615389
21
9.966138
31
0
39
0
210
0
220
0
230
1
0
LINE
5
BE
100
AcDbEntity
8
81
62
256
6
ByLayer
370
18
48
1
60
0
100
AcDbLine
10
26.66394
20
15.6375
30
0
11
30.199474
21
19.173034
31
0
39
0
210
0
220
0
230
1
0
LINE
5
BF
100
AcDbEntity
8
2
62
256
6
ByLayer
370
13
48
1
60
0
100
AcDbLine
10
31.322006
20
20.295566
30
0
11
54.097194
21
43.070754
31
0
39
0
210
0
220
0
230
1
0
LINE
5
C1
100
AcDbEntity
8
2
62
256
6
ByLayer
370
13
48
1
60
0
100
AcDbLine
10
28.25144
20
15.6375
30
0
11
65.46042
21
15.6375
31
0
39
0
210
0
220
0
230
1
0
LINE
5
C2
100
AcDbEntity
8
1
62
256
6
ByLayer
370
18
48
1
60
1
100
AcDbLine
10
52.682981
20
41.656541
30
0
11
55.431826
21
39.441555
31
0
39
0
210
0
220
0
230
1
0
LINE
5
C3
100
AcDbEntity
8
1
62
256
6
ByLayer
370
18
48
1
60
1
100
AcDbLine
10
55.431826
20
39.441555
30
0
11
54.764883
21
38.805573
31
0
39
0
210
0
220
0
230
1
0
LINE
5
C4
100
AcDbEntity
8
1
62
256
6
ByLayer
370
18
48
1
60
1
100
AcDbLine
10
54.764883
20
38.805573
30
0
11
52.682981
21
41.656541
31
0
39
0
210
0
220
0
230
1
0
LINE
5
C5
100
AcDbEntity
8
1
62
256
6
ByLayer
370
18
48
1
60
1
100
AcDbLine
10
63.46042
20
15.6375
30
0
11
62.916609
21
19.125562
31
0
39
0
210
0
220
0
230
1
0
LINE
5
C6
100
AcDbEntity
8
1
62
256
6
ByLayer
370
18
48
1
60
1
100
AcDbLine
10
62.916609
20
19.125562
30
0
11
63.837916
21
19.147462
31
0
39
0
210
0
220
0
230
1
0
LINE
5
C7
100
AcDbEntity
8
1
62
256
6
ByLayer
370
18
48
1
60
1
100
AcDbLine
10
63.837916
20
19.147462
30
0
11
63.46042
21
15.6375
31
0
39
0
210
0
220
0
230
1
0
LINE
5
117
100
AcDbEntity
8
1
62
256
6
ByLayer
370
18
48
1
60
1
100
AcDbLine
10
52.682981
20
41.656541
30
0
11
55.431826
21
39.441555
31
0
39
0
210
0
220
0
230
1
0
LINE
5
118
100
AcDbEntity
8
1
62
256
6
ByLayer
370
18
48
1
60
1
100
AcDbLine
10
55.431826
20
39.441555
30
0
11
54.764883
21
38.805573
31
0
39
0
210
0
220
0
230
1
0
LINE
5
119
100
AcDbEntity
8
1
62
256
6
ByLayer
370
18
48
1
60
1
100
AcDbLine
10
54.764883
20
38.805573
30
0
11
52.682981
21
41.656541
31
0
39
0
210
0
220
0
230
1
0
LINE
5
11B
100
AcDbEntity
8
1
62
256
6
ByLayer
370
18
48
1
60
1
100
AcDbLine
10
63.46042
20
15.6375
30
0
11
62.916609
21
19.125562
31
0
39
0
210
0
220
0
230
1
0
LINE
5
11C
100
AcDbEntity
8
1
62
256
6
ByLayer
370
18
48
1
60
1
100
AcDbLine
10
62.916609
20
19.125562
30
0
11
63.837916
21
19.147462
31
0
39
0
210
0
220
0
230
1
0
LINE
5
11D
100
AcDbEntity
8
1
62
256
6
ByLayer
370
18
48
1
60
1
100
AcDbLine
10
63.837916
20
19.147462
30
0
11
63.46042
21
15.6375
31
0
39
0
210
0
220
0
230
1
0
MTEXT
5
114
100
AcDbEntity
8
2
62
256
6
ByLayer
370
18
48
1
60
0
100
AcDbMText
10
63.654418
20
24.513648
30
0
210
0
220
0
230
1
1
\W0.8969;45%%d
40
3.5
41
0
44
1.084337
50
278.189667813238
71
7
72
5
7
iso_b_vert
0
MTEXT
5
11F
100
AcDbEntity
8
SK6
62
256
6
ByLayer
370
18
48
1
60
0
100
AcDbMText
10
-54.214763
20
-49.6121
30
0
210
0
220
0
230
1
1
\W0.8080;C2T-QS20-RX45G04CB
40
3.5
41
0
44
1.084337
50
0
71
7
72
5
7
iso_b_vert
0
HATCH
5
11A
100
AcDbEntity
8
2
62
256
6
ByLayer
370
13
48
1
60
0
100
AcDbHatch
10
0
20
0
30
0
210
0
220
0
230
1
2
ANSI31
70
0
71
0
91
1
92
5
93
3
72
1
10
52.6829808848339
20
41.6565405466005
11
55.4318261926779
21
39.4415553813784
72
1
10
55.4318261926779
20
39.4415553813784
11
54.7648831940338
21
38.8055729425575
72
1
10
54.7648831940338
20
38.8055729425575
11
52.6829808848339
21
41.6565405466005
97
0
75
0
76
1
52
0
41
0.0062
77
0
78
1
53
45
43
0
44
0
45
-0.0139193969876572
46
0.0139193969876572
79
0
47
0
98
1
10
0
20
0
0
HATCH
5
11E
100
AcDbEntity
8
2
62
256
6
ByLayer
370
13
48
1
60
0
100
AcDbHatch
10
0
20
0
30
0
210
0
220
0
230
1
2
ANSI31
70
0
71
0
91
1
92
5
93
3
72
1
10
63.4604203591713
20
15.6375
11
62.9166091544403
21
19.1255623822144
72
1
10
62.9166091544403
20
19.1255623822144
11
63.8379164057967
21
19.1474615723162
72
1
10
63.8379164057967
20
19.1474615723162
11
63.4604203591713
21
15.6375
97
0
75
0
76
1
52
0
41
0.0062
77
0
78
1
53
45
43
0
44
0
45
-0.0139193969876572
46
0.0139193969876572
79
0
47
0
98
1
10
0
20
0
0
DIMENSION
5
122
100
AcDbEntity
8
2
62
256
6
ByLayer
370
18
48
1
60
0
100
AcDbDimension
2
_U0
10
58.299474
20
-9.9625
30
0
11
58.299474
21
2.8375
31
0
70
32
71
1
72
1
41
1
210
0
220
0
230
1
3
Standard
100
AcDbAlignedDimension
13
26.66394
23
15.6375
33
0
14
0
24
-9.9625
34
0
50
90
100
AcDbRotatedDimension
1001
ACAD
1000
DSTYLE
1002
{
1070
   371
1070
    13
1070
   372
1070
    13
1070
   170
1070
     0
1070
   144
1040
1.0
1070
   277
1070
     2
1070
   284
1070
     8
1070
   278
1070
    46
1070
   146
1040
1.0
1070
   345
1005
16
1070
   347
1005
16
1070
   346
1005
16
1070
   344
1005
0
1070
   343
1005
0
1070
   172
1070
     1
1070
    76
1070
     0
1070
    75
1070
     0
1070
   282
1070
     0
1070
   281
1070
     0
1070
    71
1070
     0
1070
    74
1070
     0
1070
   279
1070
     0
1070
   173
1070
     1
1070
   340
1005
115
1070
   271
1070
     2
1070
   272
1070
     2
1070
    77
1070
     1
1070
    73
1070
     0
1070
   171
1070
     3
1070
   274
1070
     4
1070
   177
1070
     2
1070
   176
1070
     2
1070
   178
1070
     2
1070
    78
1070
     8
1070
    48
1040
-0.1
1070
    41
1040
3.5
1070
   147
1040
1.75
1070
    42
1040
1.5875
1070
    44
1040
2.0
1070
   140
1040
3.5
1002
}
1001
ACAD_DSTYLE_DIM_LINETYPE
1070
   380
1005
16
1001
ACAD_DSTYLE_DIM_EXT1_LINETYPE
1070
   381
1005
16
1001
ACAD_DSTYLE_DIM_EXT2_LINETYPE
1070
   382
1005
16
0
DIMENSION
5
13B
100
AcDbEntity
8
2
62
256
6
ByLayer
370
18
48
1
60
0
100
AcDbDimension
2
_U1
10
-11.700526
20
15.6375
30
0
11
-11.700526
21
13.6375
31
0
70
32
71
1
72
1
41
1
210
0
220
0
230
1
3
Standard
100
AcDbAlignedDimension
13
21.002239
23
11.6375
33
0
14
26.66394
24
15.6375
34
0
50
90
100
AcDbRotatedDimension
1001
ACAD
1000
DSTYLE
1002
{
1070
   371
1070
    13
1070
   372
1070
    13
1070
   170
1070
     0
1070
   144
1040
1.0
1070
   277
1070
     2
1070
   284
1070
     8
1070
   278
1070
    46
1070
   146
1040
1.0
1070
   345
1005
16
1070
   347
1005
16
1070
   346
1005
16
1070
   344
1005
0
1070
   343
1005
0
1070
   172
1070
     1
1070
    76
1070
     0
1070
    75
1070
     0
1070
   282
1070
     0
1070
   281
1070
     0
1070
    71
1070
     0
1070
    74
1070
     0
1070
   279
1070
     0
1070
   173
1070
     1
1070
   340
1005
115
1070
   271
1070
     2
1070
   272
1070
     2
1070
    77
1070
     1
1070
    73
1070
     0
1070
   171
1070
     3
1070
   274
1070
     4
1070
   177
1070
     2
1070
   176
1070
     2
1070
   178
1070
     2
1070
    78
1070
     8
1070
    48
1040
-0.1
1070
    41
1040
3.5
1070
   147
1040
1.75
1070
    42
1040
1.5875
1070
    44
1040
2.0
1070
   140
1040
3.5
1002
}
1001
ACAD_DSTYLE_DIM_LINETYPE
1070
   380
1005
16
1001
ACAD_DSTYLE_DIM_EXT1_LINETYPE
1070
   381
1005
16
1001
ACAD_DSTYLE_DIM_EXT2_LINETYPE
1070
   382
1005
16
0
DIMENSION
5
154
100
AcDbEntity
8
SK2
62
256
6
ByLayer
370
18
48
1
60
0
100
AcDbDimension
2
_U2
10
-80.6
20
10.0375
30
0
11
-80.6
21
0.0375
31
0
70
32
71
1
72
1
41
1
210
0
220
0
230
1
3
Standard
100
AcDbAlignedDimension
13
0
23
-9.9625
33
0
14
0
24
10.0375
34
0
50
90
100
AcDbRotatedDimension
1001
ACAD
1000
DSTYLE
1002
{
1070
   371
1070
    13
1070
   372
1070
    13
1070
   170
1070
     0
1070
   144
1040
1.0
1070
   277
1070
     2
1070
   284
1070
     8
1070
   278
1070
    46
1070
   146
1040
1.0
1070
   345
1005
16
1070
   347
1005
16
1070
   346
1005
16
1070
   344
1005
0
1070
   343
1005
0
1070
   172
1070
     1
1070
    76
1070
     0
1070
    75
1070
     0
1070
   282
1070
     0
1070
   281
1070
     0
1070
    71
1070
     0
1070
    74
1070
     0
1070
   279
1070
     0
1070
   173
1070
     1
1070
   340
1005
115
1070
   271
1070
     2
1070
   272
1070
     2
1070
    77
1070
     1
1070
    73
1070
     0
1070
   171
1070
     3
1070
   274
1070
     4
1070
   177
1070
     2
1070
   176
1070
     2
1070
   178
1070
     2
1070
    78
1070
     8
1070
    48
1040
-0.1
1070
    41
1040
3.5
1070
   147
1040
1.75
1070
    42
1040
1.5875
1070
    44
1040
2.0
1070
   140
1040
3.5
1002
}
1001
ACAD_DSTYLE_DIM_LINETYPE
1070
   380
1005
16
1001
ACAD_DSTYLE_DIM_EXT1_LINETYPE
1070
   381
1005
16
1001
ACAD_DSTYLE_DIM_EXT2_LINETYPE
1070
   382
1005
16
0
DIMENSION
5
16D
100
AcDbEntity
8
SK2
62
256
6
ByLayer
370
18
48
1
60
0
100
AcDbDimension
2
_U3
10
26.66394
20
-30.7125
30
0
11
-21.16803
21
-30.7125
31
0
70
32
71
1
72
1
41
1
210
0
220
0
230
1
3
Standard
100
AcDbAlignedDimension
13
-69
23
-9.9625
33
0
14
26.66394
24
15.6375
34
0
50
0
100
AcDbRotatedDimension
1001
ACAD
1000
DSTYLE
1002
{
1070
   371
1070
    13
1070
   372
1070
    13
1070
   170
1070
     0
1070
   144
1040
1.0
1070
   277
1070
     2
1070
   284
1070
     8
1070
   278
1070
    46
1070
   146
1040
1.0
1070
   345
1005
16
1070
   347
1005
16
1070
   346
1005
16
1070
   344
1005
0
1070
   343
1005
0
1070
   172
1070
     1
1070
    76
1070
     0
1070
    75
1070
     0
1070
   282
1070
     0
1070
   281
1070
     0
1070
    71
1070
     0
1070
    74
1070
     0
1070
   279
1070
     0
1070
   173
1070
     1
1070
   340
1005
115
1070
   271
1070
     1
1070
   272
1070
     2
1070
    77
1070
     1
1070
    73
1070
     1
1070
   171
1070
     3
1070
   274
1070
     4
1070
   177
1070
     2
1070
   176
1070
     2
1070
   178
1070
     2
1070
    78
1070
     8
1070
    48
1040
-0.1
1070
    41
1040
3.5
1070
   147
1040
1.75
1070
    42
1040
1.5875
1070
    44
1040
2.0
1070
   140
1040
3.5
1002
}
1001
ACAD_DSTYLE_DIM_LINETYPE
1070
   380
1005
16
1001
ACAD_DSTYLE_DIM_EXT1_LINETYPE
1070
   381
1005
16
1001
ACAD_DSTYLE_DIM_EXT2_LINETYPE
1070
   382
1005
16
0
DIMENSION
5
185
100
AcDbEntity
8
SK2
62
256
6
ByLayer
370
18
48
1
60
0
100
AcDbDimension
2
_U4
10
26.66394
20
37.8875
30
0
11
13.33197
21
37.8875
31
0
70
32
71
1
72
1
41
1
210
0
220
0
230
1
3
Standard
100
AcDbAlignedDimension
13
0
23
0
33
0
14
26.66394
24
15.6375
34
0
50
0
100
AcDbRotatedDimension
1001
ACAD
1000
DSTYLE
1002
{
1070
   371
1070
    13
1070
   372
1070
    13
1070
   170
1070
     0
1070
   144
1040
1.0
1070
   277
1070
     2
1070
   284
1070
     8
1070
   278
1070
    46
1070
   146
1040
1.0
1070
   345
1005
16
1070
   347
1005
16
1070
   346
1005
16
1070
   344
1005
0
1070
   343
1005
0
1070
   172
1070
     1
1070
    76
1070
     0
1070
    75
1070
     0
1070
   282
1070
     0
1070
   281
1070
     0
1070
    71
1070
     0
1070
    74
1070
     0
1070
   279
1070
     0
1070
   173
1070
     1
1070
   340
1005
115
1070
   271
1070
     1
1070
   272
1070
     2
1070
    77
1070
     1
1070
    73
1070
     1
1070
   171
1070
     3
1070
   274
1070
     4
1070
   177
1070
     2
1070
   176
1070
     2
1070
   178
1070
     2
1070
    78
1070
     8
1070
    48
1040
-0.1
1070
    41
1040
3.5
1070
   147
1040
1.75
1070
    42
1040
1.5875
1070
    44
1040
2.0
1070
   140
1040
3.5
1002
}
1001
ACAD_DSTYLE_DIM_LINETYPE
1070
   380
1005
16
1001
ACAD_DSTYLE_DIM_EXT1_LINETYPE
1070
   381
1005
16
1001
ACAD_DSTYLE_DIM_EXT2_LINETYPE
1070
   382
1005
16
0
DIMENSION
5
19D
100
AcDbEntity
8
SK2
62
256
6
ByLayer
370
18
48
1
60
0
100
AcDbDimension
2
_U5
10
-66
20
-19.7125
30
0
11
-67.5
21
-19.7125
31
0
70
32
71
1
72
1
41
1
210
0
220
0
230
1
3
Standard
100
AcDbAlignedDimension
13
-69
23
-9.9625
33
0
14
-66
24
-9.9625
34
0
50
0
100
AcDbRotatedDimension
1001
ACAD
1000
DSTYLE
1002
{
1070
   371
1070
    13
1070
   372
1070
    13
1070
   170
1070
     0
1070
   144
1040
1.0
1070
   277
1070
     2
1070
   284
1070
     8
1070
   278
1070
    46
1070
   146
1040
1.0
1070
   345
1005
16
1070
   347
1005
16
1070
   346
1005
16
1070
   344
1005
0
1070
   343
1005
0
1070
   172
1070
     1
1070
    76
1070
     0
1070
    75
1070
     0
1070
   282
1070
     0
1070
   281
1070
     0
1070
    71
1070
     0
1070
    74
1070
     0
1070
   279
1070
     0
1070
   173
1070
     1
1070
   340
1005
115
1070
   271
1070
     2
1070
   272
1070
     2
1070
    77
1070
     1
1070
    73
1070
     1
1070
   171
1070
     3
1070
   274
1070
     4
1070
   177
1070
     2
1070
   176
1070
     2
1070
   178
1070
     2
1070
    78
1070
     8
1070
    48
1040
-0.1
1070
    41
1040
3.5
1070
   147
1040
1.75
1070
    42
1040
1.5875
1070
    44
1040
2.0
1070
   140
1040
3.5
1002
}
1001
ACAD_DSTYLE_DIM_LINETYPE
1070
   380
1005
16
1001
ACAD_DSTYLE_DIM_EXT1_LINETYPE
1070
   381
1005
16
1001
ACAD_DSTYLE_DIM_EXT2_LINETYPE
1070
   382
1005
16
0
ENDSEC
0
SECTION
2
OBJECTS
0
DICTIONARY
5
225
330
0
100
AcDbDictionary
280
0
281
1
3
ACAD_GROUP
350
226
3
ACAD_MLINESTYLE
350
227
0
DICTIONARY
5
226
330
0
100
AcDbDictionary
280
0
281
1
0
DICTIONARY
5
227
330
0
100
AcDbDictionary
280
0
281
1
3
Standard
350
18
0
MLINESTYLE
5
18
330
227
100
AcDbMlineStyle
2
Standard
70
0
3

62
256
51
90
52
90
71
2
49
-0.5
62
256
6
ByLayer
49
0.5
62
256
6
ByLayer
0
RASTERVARIABLES
5
214
330

100
AcDbRasterVariables
90
0
70
1
71
1
72
1
0
ENDSEC
0
EOF
