0
SECTION
2
HEADER
9
$ACADVER
1
AC1015
9
$DWGCODEPAGE
3
ANSI_1252
9
$HANDSEED
5
243
9
$ANGBASE
50
0
9
$ANGDIR
70
0
9
$ATTMODE
70
1
9
$AUNITS
70
0
9
$AUPREC
70
0
9
$CECOLOR
62
256
9
$CELTSCALE
40
1
9
$CELTYPE
6
ByLayer
9
$CELWEIGHT
370
18
9
$CLAYER
8
0
9
$CMLJUST
70
0
9
$CMLSCALE
40
1
9
$CMLSTYLE
2
Standard
9
$DIMSTYLE
2
Standard
9
$TEXTSIZE
40
0.2
9
$TEXTSTYLE
7
Standard
9
$LUNITS
70
2
9
$LUPREC
70
4
9
$EXTNAMES
290
1
9
$INSUNITS
70
4
9
$LTSCALE
40
1
9
$LWDISPLAY
290
1
9
$PDMODE
70
0
9
$PDSIZE
40
0
9
$PLINEGEN
70
0
0
ENDSEC
0
SECTION
2
CLASSES
0
CLASS
1
RASTERVARIABLES
2
AcDbRasterVariables
3
ISM
90
0
280
0
281
0
0
ENDSEC
0
SECTION
2
TABLES
0
TABLE
2
VPORT
5
239
100
AcDbSymbolTable
0
VPORT
5
1
100
AcDbSymbolTableRecord
100
AcDbViewportTableRecord
2
*Active
70
0
10
0
20
0
11
1
21
1
12
-1
22
1
13
0
23
0
14
0.5
24
0.5
15
10
25
10
16
0
26
0
36
1
17
0
27
0
37
0
0
ENDTAB
0
TABLE
2
LTYPE
5
23a
100
AcDbSymbolTable
0
LTYPE
5
14
100
AcDbSymbolTableRecord
100
AcDbLinetypeTableRecord
70
0
2
ByBlock
3

72
65
73
0
40
0
0
LTYPE
5
15
100
AcDbSymbolTableRecord
100
AcDbLinetypeTableRecord
70
0
2
ByLayer
3

72
65
73
0
40
0
0
LTYPE
5
16
100
AcDbSymbolTableRecord
100
AcDbLinetypeTableRecord
70
0
2
Continuous
3
Solid line
72
65
73
0
40
0
0
LTYPE
5
6E
100
AcDbSymbolTableRecord
100
AcDbLinetypeTableRecord
70
0
2
CENTER
3
____ _ ____ _ ____ _ ____
72
65
73
4
40
47.5
49
22
74
0
49
-8.5
74
0
49
8.5
74
0
49
-8.5
74
0
0
LTYPE
5
6F
100
AcDbSymbolTableRecord
100
AcDbLinetypeTableRecord
70
0
2
DASHED
3
__ __ __ __ __ __ __ __ __
72
65
73
2
40
25.72
49
12.86
74
0
49
-12.86
74
0
0
ENDTAB
0
TABLE
2
LAYER
5
23b
100
AcDbSymbolTable
0
LAYER
5
10
100
AcDbSymbolTableRecord
100
AcDbLayerTableRecord
2
0
70
0
62
7
6
Continuous
290
1
370
-3
390
0
0
LAYER
5
71
100
AcDbSymbolTableRecord
100
AcDbLayerTableRecord
2
80
70
0
62
-6
6
Continuous
290
1
370
-3
390
0
0
LAYER
5
73
100
AcDbSymbolTableRecord
100
AcDbLayerTableRecord
2
81
70
0
62
-3
6
Continuous
290
1
370
-3
390
0
0
LAYER
5
75
100
AcDbSymbolTableRecord
100
AcDbLayerTableRecord
2
1
70
0
62
4
6
Continuous
290
1
370
-3
390
0
0
LAYER
5
7E
100
AcDbSymbolTableRecord
100
AcDbLayerTableRecord
2
4
70
0
62
-2
6
CENTER
290
1
370
-3
390
0
0
LAYER
5
C2
100
AcDbSymbolTableRecord
100
AcDbLayerTableRecord
2
2
70
0
62
7
6
Continuous
290
1
370
-3
390
0
0
LAYER
5
197
100
AcDbSymbolTableRecord
100
AcDbLayerTableRecord
2
Defpoints
70
0
62
7
6
Continuous
290
0
370
-3
390
0
0
LAYER
5
225
100
AcDbSymbolTableRecord
100
AcDbLayerTableRecord
2
SK4
70
0
62
2
6
CENTER
290
1
370
-3
390
0
0
LAYER
5
226
100
AcDbSymbolTableRecord
100
AcDbLayerTableRecord
2
SK1
70
0
62
4
6
Continuous
290
1
370
-3
390
0
0
LAYER
5
227
100
AcDbSymbolTableRecord
100
AcDbLayerTableRecord
2
SK2
70
0
62
7
6
Continuous
290
1
370
-3
390
0
0
LAYER
5
228
100
AcDbSymbolTableRecord
100
AcDbLayerTableRecord
2
SK6
70
0
62
5
6
Continuous
290
1
370
-3
390
0
0
ENDTAB
0
TABLE
2
STYLE
5
23c
100
AcDbSymbolTable
0
STYLE
5
11
100
AcDbSymbolTableRecord
100
AcDbTextStyleTableRecord
2
Standard
3
txt
70
0
71
0
40
0
41
1
42
0
50
0
0
STYLE
5
16D
100
AcDbSymbolTableRecord
100
AcDbTextStyleTableRecord
2
iso_b_vert
3
simplex.shx
70
0
71
0
40
0
41
1
42
0
50
0
0
STYLE
5
16E
100
AcDbSymbolTableRecord
100
AcDbTextStyleTableRecord
2
DWGDirectTextStyle
3
simplex
70
0
71
0
40
0
41
1
42
0
50
0
0
ENDTAB
0
TABLE
2
DIMSTYLE
5
23d
100
AcDbSymbolTable
100
AcDbDimStyleTable
0
DIMSTYLE
105
27
100
AcDbSymbolTableRecord
100
AcDbDimStyleTableRecord
2
Standard
70
0
3
<>
41
0.18
42
0.0625
44
0.18
140
0.18
147
0.09
73
0
74
0
77
1
271
2
275
0
278
52
280
0
340
11
0
ENDTAB
0
TABLE
2
VIEW
5
23e
100
AcDbSymbolTable
0
ENDTAB
0
TABLE
2
UCS
5
23f
100
AcDbSymbolTable
0
ENDTAB
0
TABLE
2
APPID
5
240
100
AcDbSymbolTable
0
APPID
5
12
100
AcDbSymbolTableRecord
100
AcDbRegAppTableRecord
2
ACAD
70
0
0
APPID
5
193
100
AcDbSymbolTableRecord
100
AcDbRegAppTableRecord
2
ACAD_DSTYLE_DIMBREAK
70
0
0
APPID
5
1E4
100
AcDbSymbolTableRecord
100
AcDbRegAppTableRecord
2
ACAD_DSTYLE_DIM_LINETYPE
70
0
0
APPID
5
1E5
100
AcDbSymbolTableRecord
100
AcDbRegAppTableRecord
2
ACAD_DSTYLE_DIM_EXT1_LINETYPE
70
0
0
APPID
5
1E6
100
AcDbSymbolTableRecord
100
AcDbRegAppTableRecord
2
ACAD_DSTYLE_DIM_EXT2_LINETYPE
70
0
0
APPID
5
221
100
AcDbSymbolTableRecord
100
AcDbRegAppTableRecord
2
ACAD_MLEADERVER
70
0
0
ENDTAB
0
TABLE
2
BLOCK_RECORD
5
241
100
AcDbSymbolTable
0
BLOCK_RECORD
5
1F
100
AcDbSymbolTableRecord
100
AcDbBlockTableRecord
2
*Model_Space
340
0
70
0
0
BLOCK_RECORD
5
1B
100
AcDbSymbolTableRecord
100
AcDbBlockTableRecord
2
*Paper_Space
340
0
70
0
0
BLOCK_RECORD
5
23
100
AcDbSymbolTableRecord
100
AcDbBlockTableRecord
2
*Paper_Space0
340
0
70
0
0
BLOCK_RECORD
5
198
100
AcDbSymbolTableRecord
100
AcDbBlockTableRecord
2
*D1
340
0
70
0
0
BLOCK_RECORD
5
1A4
100
AcDbSymbolTableRecord
100
AcDbBlockTableRecord
2
_U0
340
0
70
0
0
BLOCK_RECORD
5
1B0
100
AcDbSymbolTableRecord
100
AcDbBlockTableRecord
2
*D3
340
0
70
0
0
BLOCK_RECORD
5
1BD
100
AcDbSymbolTableRecord
100
AcDbBlockTableRecord
2
_U1
340
0
70
0
0
ENDTAB
0
ENDSEC
0
SECTION
2
BLOCKS
0
BLOCK
5
20
100
AcDbEntity
8
0
100
AcDbBlockBegin
2
*Model_Space
70
0
10
0
20
0
30
0
3
*Model_Space
0
ENDBLK
5
21
100
AcDbEntity
8
0
100
AcDbBlockEnd
0
BLOCK
5
1C
100
AcDbEntity
8
0
100
AcDbBlockBegin
2
*Paper_Space
70
0
10
0
20
0
30
0
3
*Paper_Space
0
ENDBLK
5
1D
100
AcDbEntity
8
0
100
AcDbBlockEnd
0
BLOCK
5
24
100
AcDbEntity
8
0
100
AcDbBlockBegin
2
*Paper_Space0
70
0
10
0
20
0
30
0
3
*Paper_Space0
0
ENDBLK
5
25
100
AcDbEntity
8
0
100
AcDbBlockEnd
0
BLOCK
5
199
100
AcDbEntity
8
0
100
AcDbBlockBegin
2
*D1
70
1
10
0
20
0
30
0
3
*D1
0
LINE
5
19B
100
AcDbEntity
8
0
62
256
6
ByLayer
370
-2
48
1
60
0
100
AcDbLine
10
50
20
-1.5875
30
0
11
50
21
-45.7527
31
0
39
0
210
0
220
0
230
1
0
LINE
5
19C
100
AcDbEntity
8
0
62
256
6
ByLayer
370
-2
48
1
60
0
100
AcDbLine
10
0
20
-1.5875
30
0
11
0
21
-45.7527
31
0
39
0
210
0
220
0
230
1
0
LINE
5
19D
100
AcDbEntity
8
0
62
256
6
ByLayer
370
-2
48
1
60
0
100
AcDbLine
10
46.5
20
-43.7527
30
0
11
3.5
21
-43.7527
31
0
39
0
210
0
220
0
230
1
0
SOLID
5
19E
100
AcDbEntity
8
0
62
256
6
ByLayer
370
-1
48
1
60
0
100
AcDbTrace
10
46.5
20
-44.336033
30
0
11
46.5
21
-43.169367
31
0
12
50
22
-43.7527
32
0
13
50
23
-43.7527
33
0
39
0
210
0
220
0
230
1
0
SOLID
5
19F
100
AcDbEntity
8
0
62
256
6
ByLayer
370
-1
48
1
60
0
100
AcDbTrace
10
3.5
20
-43.169367
30
0
11
3.5
21
-44.336033
31
0
12
0
22
-43.7527
32
0
13
0
23
-43.7527
33
0
39
0
210
0
220
0
230
1
0
MTEXT
5
1A0
100
AcDbEntity
8
0
62
256
6
ByLayer
370
18
48
1
60
0
100
AcDbMText
10
25
20
-36.7527
30
0
210
0
220
0
230
1
1
\A1;50
40
3.5
41
0
44
1
50
0
71
5
72
5
7
iso_b_vert
0
POINT
5
1A1
100
AcDbEntity
8
Defpoints
62
0
6
ByLayer
370
-1
48
1
60
0
100
AcDbPoint
10
50
20
0
30
0
39
0
210
0
220
0
230
1
50
360
0
POINT
5
1A2
100
AcDbEntity
8
Defpoints
62
0
6
ByLayer
370
-1
48
1
60
0
100
AcDbPoint
10
0
20
0
30
0
39
0
210
0
220
0
230
1
50
360
0
POINT
5
1A3
100
AcDbEntity
8
Defpoints
62
0
6
ByLayer
370
-1
48
1
60
0
100
AcDbPoint
10
0
20
-43.7527
30
0
39
0
210
0
220
0
230
1
50
360
0
ENDBLK
5
19A
100
AcDbEntity
8
0
100
AcDbBlockEnd
0
BLOCK
5
1AB
100
AcDbEntity
8
0
100
AcDbBlockBegin
2
_U0
70
0
10
0
20
0
30
0
3
_U0
0
MTEXT
5
1A5
100
AcDbEntity
8
SK2
62
256
6
ByLayer
370
18
48
1
60
0
100
AcDbMText
10
23.095034
20
-42.720067
30
0
210
0
220
0
230
1
1
\W0.6740;50
40
3.5
41
0
44
1.084337
50
0
71
7
72
5
7
iso_b_vert
0
LINE
5
1A6
100
AcDbEntity
8
SK2
62
256
6
ByLayer
370
13
48
1
60
0
100
AcDbLine
10
50
20
-1.5875
30
0
11
50
21
-45.7527
31
0
39
0
210
0
220
0
230
1
0
LINE
5
1A7
100
AcDbEntity
8
SK2
62
256
6
ByLayer
370
13
48
1
60
0
100
AcDbLine
10
0
20
-1.5875
30
0
11
0
21
-45.7527
31
0
39
0
210
0
220
0
230
1
0
LINE
5
1A8
100
AcDbEntity
8
SK2
62
256
6
ByLayer
370
13
48
1
60
0
100
AcDbLine
10
50
20
-43.7527
30
0
11
0
21
-43.7527
31
0
39
0
210
0
220
0
230
1
0
SOLID
5
1A9
100
AcDbEntity
8
SK2
62
256
6
ByLayer
370
18
48
1
60
0
100
AcDbTrace
10
50
20
-43.7527
30
0
11
46.500002
21
-44.213484
31
0
12
46.499998
22
-43.291916
32
0
13
46.499998
23
-43.291916
33
0
39
0
210
0
220
0
230
1
0
SOLID
5
1AA
100
AcDbEntity
8
SK2
62
256
6
ByLayer
370
18
48
1
60
0
100
AcDbTrace
10
0
20
-43.7527
30
0
11
3.499998
21
-43.291916
31
0
12
3.500002
22
-44.213484
32
0
13
3.500002
23
-44.213484
33
0
39
0
210
0
220
0
230
1
0
ENDBLK
5
1AC
100
AcDbEntity
8
0
100
AcDbBlockEnd
0
BLOCK
5
1B1
100
AcDbEntity
8
0
100
AcDbBlockBegin
2
*D3
70
1
10
0
20
0
30
0
3
*D3
0
LINE
5
1B3
100
AcDbEntity
8
0
62
256
6
ByLayer
370
-2
48
1
60
0
100
AcDbLine
10
50
20
-1.5875
30
0
11
50
21
-29.2527
31
0
39
0
210
0
220
0
230
1
0
LINE
5
1B4
100
AcDbEntity
8
0
62
256
6
ByLayer
370
-2
48
1
60
0
100
AcDbLine
10
21.425
20
-1.5875
30
0
11
21.425
21
-29.2527
31
0
39
0
210
0
220
0
230
1
0
LINE
5
1B5
100
AcDbEntity
8
0
62
256
6
ByLayer
370
-2
48
1
60
0
100
AcDbLine
10
50
20
-27.2527
30
0
11
79.11996
21
-27.2527
31
0
39
0
210
0
220
0
230
1
0
LINE
5
1B6
100
AcDbEntity
8
0
62
256
6
ByLayer
370
-2
48
1
60
0
100
AcDbLine
10
46.5
20
-27.2527
30
0
11
24.925
21
-27.2527
31
0
39
0
210
0
220
0
230
1
0
SOLID
5
1B7
100
AcDbEntity
8
0
62
256
6
ByLayer
370
-1
48
1
60
0
100
AcDbTrace
10
46.5
20
-27.836033
30
0
11
46.5
21
-26.669367
31
0
12
50
22
-27.2527
32
0
13
50
23
-27.2527
33
0
39
0
210
0
220
0
230
1
0
SOLID
5
1B8
100
AcDbEntity
8
0
62
256
6
ByLayer
370
-1
48
1
60
0
100
AcDbTrace
10
24.925
20
-26.669367
30
0
11
24.925
21
-27.836033
31
0
12
21.425
22
-27.2527
32
0
13
21.425
23
-27.2527
33
0
39
0
210
0
220
0
230
1
0
MTEXT
5
1B9
100
AcDbEntity
8
0
62
256
6
ByLayer
370
18
48
1
60
0
100
AcDbMText
10
66.86996
20
-20.2527
30
0
210
0
220
0
230
1
1
\A1;28.58
40
3.5
41
0
44
1
50
0
71
5
72
5
7
iso_b_vert
0
POINT
5
1BA
100
AcDbEntity
8
Defpoints
62
0
6
ByLayer
370
-1
48
1
60
0
100
AcDbPoint
10
50
20
0
30
0
39
0
210
0
220
0
230
1
50
360
0
POINT
5
1BB
100
AcDbEntity
8
Defpoints
62
0
6
ByLayer
370
-1
48
1
60
0
100
AcDbPoint
10
21.425
20
0
30
0
39
0
210
0
220
0
230
1
50
360
0
POINT
5
1BC
100
AcDbEntity
8
Defpoints
62
0
6
ByLayer
370
-1
48
1
60
0
100
AcDbPoint
10
21.425
20
-27.2527
30
0
39
0
210
0
220
0
230
1
50
360
0
ENDBLK
5
1B2
100
AcDbEntity
8
0
100
AcDbBlockEnd
0
BLOCK
5
1C4
100
AcDbEntity
8
0
100
AcDbBlockBegin
2
_U1
70
0
10
0
20
0
30
0
3
_U1
0
MTEXT
5
1BE
100
AcDbEntity
8
2
62
256
6
ByLayer
370
18
48
1
60
0
100
AcDbMText
10
61.640528
20
-26.220067
30
0
210
0
220
0
230
1
1
\W0.7468;28.58
40
3.5
41
0
44
1.084337
50
0
71
7
72
5
7
iso_b_vert
0
LINE
5
1BF
100
AcDbEntity
8
2
62
256
6
ByLayer
370
13
48
1
60
0
100
AcDbLine
10
50
20
-1.5875
30
0
11
50
21
-29.2527
31
0
39
0
210
0
220
0
230
1
0
LINE
5
1C0
100
AcDbEntity
8
2
62
256
6
ByLayer
370
13
48
1
60
0
100
AcDbLine
10
21.425
20
-1.5875
30
0
11
21.425
21
-29.2527
31
0
39
0
210
0
220
0
230
1
0
LINE
5
1C1
100
AcDbEntity
8
2
62
256
6
ByLayer
370
13
48
1
60
0
100
AcDbLine
10
21.425
20
-27.2527
30
0
11
72.284892
21
-27.2527
31
0
39
0
210
0
220
0
230
1
0
SOLID
5
1C2
100
AcDbEntity
8
2
62
256
6
ByLayer
370
18
48
1
60
0
100
AcDbTrace
10
50
20
-27.2527
30
0
11
46.500002
21
-27.713484
31
0
12
46.499998
22
-26.791916
32
0
13
46.499998
23
-26.791916
33
0
39
0
210
0
220
0
230
1
0
SOLID
5
1C3
100
AcDbEntity
8
2
62
256
6
ByLayer
370
18
48
1
60
0
100
AcDbTrace
10
21.425
20
-27.2527
30
0
11
24.924998
21
-26.791916
31
0
12
24.925002
22
-27.713484
32
0
13
24.925002
23
-27.713484
33
0
39
0
210
0
220
0
230
1
0
ENDBLK
5
1C5
100
AcDbEntity
8
0
100
AcDbBlockEnd
0
ENDSEC
0
SECTION
2
ENTITIES
0
ELLIPSE
5
D8
100
AcDbEntity
8
1
62
256
6
ByLayer
370
18
48
1
60
0
100
AcDbEllipse
10
21.754956
20
-18.221669
30
0
11
4.71776897061353
21
8.46907125428694
31
0
210
0
220
0
230
1
40
0.820013
41
0.636028562012893
42
0.687856627465315
0
ELLIPSE
5
D9
100
AcDbEntity
8
1
62
256
6
ByLayer
370
18
48
1
60
0
100
AcDbEllipse
10
50.536516
20
-0.770351
30
0
11
0.593959630500308
21
0.422147868534381
31
0
210
0
220
0
230
1
40
0.729272
41
2.22843913651091
42
2.89153475839312
0
ELLIPSE
5
DA
100
AcDbEntity
8
1
62
256
6
ByLayer
370
18
48
1
60
0
100
AcDbEllipse
10
49.346954
20
0.833299
30
0
11
0.00428651250387226
21
-0.666034871415353
31
0
210
0
220
0
230
1
40
0.436777
41
-2.60658835557935
42
-0.468560021886831
0
ELLIPSE
5
DB
100
AcDbEntity
8
1
62
256
6
ByLayer
370
18
48
1
60
0
100
AcDbEllipse
10
21.754956
20
18.015631
30
0
11
-5.07227293876132
21
8.26163175195933
31
0
210
0
220
0
230
1
40
0.809793
41
2.35670166977312
42
2.45357653849569
0
ELLIPSE
5
DC
100
AcDbEntity
8
1
62
256
6
ByLayer
370
18
48
1
60
0
100
AcDbEllipse
10
21.754956
20
-14.392944
30
0
11
-7.16036580805821
21
6.53541685472812
31
0
210
0
220
0
230
1
40
0.670747
41
-0.982140008285135
42
-0.885265139562236
0
ELLIPSE
5
DD
100
AcDbEntity
8
1
62
256
6
ByLayer
370
18
48
1
60
0
100
AcDbEllipse
10
21.754956
20
4.273489
30
0
11
-8.35450990932286
21
4.9177917956436
31
0
210
0
220
0
230
1
40
0.168793
41
1.53364371620513
42
1.63051858492786
0
ELLIPSE
5
DE
100
AcDbEntity
8
1
62
256
6
ByLayer
370
18
48
1
60
0
100
AcDbEllipse
10
24.052543
20
0
30
0
11
21.4631287111593
21
-5.82239064809644
31
0
210
0
220
0
230
1
40
0.351219
41
-1.66890713192675
42
-1.59797945506252
0
ELLIPSE
5
DF
100
AcDbEntity
8
1
62
256
6
ByLayer
370
18
48
1
60
0
100
AcDbEllipse
10
24.223447
20
0
30
0
11
22.961328523657
21
-9.50601458770267
31
0
210
0
220
0
230
1
40
0.026179
41
1.70380713934619
42
1.76693338527066
0
ELLIPSE
5
E0
100
AcDbEntity
8
1
62
256
6
ByLayer
370
18
48
1
60
0
100
AcDbEllipse
10
24.052543
20
0
30
0
11
21.4740914040771
21
-5.17192161401571
31
0
210
0
220
0
230
1
40
0.372475
41
1.78243841988971
42
1.85336609669333
0
POINT
5
70
100
AcDbEntity
8
80
62
256
6
ByLayer
370
18
48
1
60
0
100
AcDbPoint
10
0
20
0
30
0
39
0
210
0
220
0
230
1
50
360
0
POINT
5
72
100
AcDbEntity
8
81
62
256
6
ByLayer
370
18
48
1
60
0
100
AcDbPoint
10
50.05
20
0
30
0
39
0
210
0
220
0
230
1
50
360
0
POINT
5
74
100
AcDbEntity
8
1
62
256
6
ByLayer
370
18
48
1
60
1
100
AcDbPoint
10
50
20
0
30
0
39
0
210
0
220
0
230
1
50
360
0
POINT
5
76
100
AcDbEntity
8
1
62
256
6
ByLayer
370
18
48
1
60
1
100
AcDbPoint
10
0
20
0
30
0
39
0
210
0
220
0
230
1
50
360
0
POINT
5
77
100
AcDbEntity
8
1
62
256
6
ByLayer
370
18
48
1
60
1
100
AcDbPoint
10
50
20
0
30
0
39
0
210
0
220
0
230
1
50
360
0
POINT
5
78
100
AcDbEntity
8
1
62
256
6
ByLayer
370
18
48
1
60
1
100
AcDbPoint
10
21.425
20
0
30
0
39
0
210
0
220
0
230
1
50
360
0
SPLINE
5
E1
100
AcDbEntity
8
1
62
256
6
ByLayer
370
18
48
1
60
0
100
AcDbSpline
70
4
71
3
72
26
73
22
40
0
40
0
40
0
40
0
40
0.0527303445711677
40
0.0527303445711677
40
0.105356436539406
40
0.105356436539406
40
0.157982528507644
40
0.157982528507644
40
0.263234712444118
40
0.263234712444118
40
0.315860804412378
40
0.315860804412378
40
0.368486896380639
40
0.368486896380639
40
0.578991264253779
40
0.578991264253779
40
0.789495632126919
40
0.789495632126919
40
0.894747816063459
40
0.894747816063459
40
1
40
1
40
1
40
1
41
1
10
44.3178190457932
20
-1.3659668851819
30
0
41
1
10
44.3139494340991
20
-1.36430348167093
30
0
41
1
10
44.3096916605119
20
-1.36251063495982
30
0
41
1
10
44.3004394989351
20
-1.35868040157126
30
0
41
1
10
44.2954303638441
20
-1.35663713708851
30
0
41
1
10
44.2848765347779
20
-1.35238402372451
30
0
41
1
10
44.2793156875845
20
-1.35016732834603
30
0
41
1
10
44.2618635000243
20
-1.34327207440347
30
0
41
1
10
44.2492058562831
20
-1.33834947587067
30
0
41
1
10
44.2289357540746
20
-1.33055150385673
30
0
41
1
10
44.2219641831498
20
-1.32788285285653
30
0
41
1
10
44.2076238472918
20
-1.32241621364719
30
0
41
1
10
44.2002363084642
20
-1.31961114359942
30
0
41
1
10
44.1627025570654
20
-1.30540544519849
30
0
41
1
10
44.1307006550618
20
-1.2934334111095
30
0
41
1
10
44.0640448930218
20
-1.26859419059357
30
0
41
1
10
44.0293734266171
20
-1.25572189140141
30
0
41
1
10
43.9758716025751
20
-1.2358459282766
30
0
41
1
10
43.9578496415393
20
-1.22914895292965
30
0
41
1
10
43.9216507073982
20
-1.2156832753262
30
0
41
1
10
43.9034458334631
20
-1.2089042343537
30
0
41
1
10
43.885150747284
20
-1.2020802854162
30
0
0
SPLINE
5
E2
100
AcDbEntity
8
1
62
256
6
ByLayer
370
18
48
1
60
0
100
AcDbSpline
70
4
71
3
72
8
73
4
40
0
40
0
40
0
40
0
40
1
40
1
40
1
40
1
41
1
10
48.3065461101085
20
1.02983906377969
30
0
41
1
10
48.2899808701052
20
1.03941433076489
30
0
41
1
10
48.2734242827555
20
1.04901540851031
30
0
41
1
10
48.2568765576517
20
1.05864262749446
30
0
0
SPLINE
5
E3
100
AcDbEntity
8
1
62
256
6
ByLayer
370
18
48
1
60
0
100
AcDbSpline
70
4
71
3
72
8
73
4
40
0
40
0
40
0
40
0
40
1
40
1
40
1
40
1
41
1
10
21.425
20
-9.11064247296099
30
0
41
1
10
21.5337437834782
20
-9.09554411575718
30
0
41
1
10
21.6424875669564
20
-9.07984342551234
30
0
41
1
10
21.7512313504346
20
-9.06354579007416
30
0
0
SPLINE
5
E4
100
AcDbEntity
8
1
62
256
6
ByLayer
370
13
48
1
60
0
100
AcDbSpline
70
4
71
3
72
8
73
4
40
0
40
0
40
0
40
0
40
1
40
1
40
1
40
1
41
1
10
43.5420491626073
20
8.16159467427127
30
0
41
1
10
43.4974693442325
20
8.15226742197444
30
0
41
1
10
43.4528895258578
20
8.14285009666096
30
0
41
1
10
43.408309707483
20
8.13334287133631
30
0
0
SPLINE
5
E5
100
AcDbEntity
8
1
62
256
6
ByLayer
370
18
48
1
60
0
100
AcDbSpline
70
4
71
3
72
16
73
12
40
0
40
0
40
0
40
0
40
0.25
40
0.25
40
0.5
40
0.5
40
0.625
40
0.625
40
0.75
40
0.75
40
1
40
1
40
1
40
1
41
1
10
49.9985971569204
20
0.0423920556238215
30
0
41
1
10
49.9924794168813
20
0.290624395784477
30
0
41
1
10
49.977963211853
20
0.538067261515664
30
0
41
1
10
49.9320594333851
20
1.03136704674046
30
0
41
1
10
49.9007035403289
20
1.27722694426072
30
0
41
1
10
49.8408311167412
20
1.64480993502716
30
0
41
1
10
49.8187711954622
20
1.76692260222927
30
0
41
1
10
49.7705377794684
20
2.01008116757313
30
0
41
1
10
49.744352725042
20
2.13116565390271
30
0
41
1
10
49.6596004975662
20
2.49293663169078
30
0
41
1
10
49.594841489295
20
2.73214189284056
30
0
41
1
10
49.5218950459415
20
2.96938853000236
30
0
0
SPLINE
5
E6
100
AcDbEntity
8
1
62
256
6
ByLayer
370
18
48
1
60
0
100
AcDbSpline
70
4
71
3
72
8
73
4
40
0
40
0
40
0
40
0
40
1
40
1
40
1
40
1
41
1
10
49.0845307799122
20
2.80623970401254
30
0
41
1
10
49.2303159612149
20
2.86063042649272
30
0
41
1
10
49.3761043307411
20
2.9150126180391
30
0
41
1
10
49.5218950459416
20
2.96938853000236
30
0
0
SPLINE
5
E7
100
AcDbEntity
8
1
62
256
6
ByLayer
370
18
48
1
60
0
100
AcDbSpline
70
4
71
3
72
50
73
46
40
0
40
0
40
0
40
0
40
0.0323268880642185
40
0.0323268880642185
40
0.0484903320963278
40
0.0484903320963278
40
0.0646537761284371
40
0.0646537761284371
40
0.129307552256871
40
0.129307552256871
40
0.193961328385305
40
0.193961328385305
40
0.258615104513739
40
0.258615104513739
40
0.323268880642173
40
0.323268880642173
40
0.339432324674281
40
0.339432324674281
40
0.35559576870639
40
0.38792265677061
40
0.38792265677061
40
0.452576432899049
40
0.452576432899049
40
0.517230209027488
40
0.517230209027488
40
0.581883985155927
40
0.581883985155927
40
0.614210873220146
40
0.614210873220146
40
0.646537761284366
40
0.646537761284366
40
0.711191537412808
40
0.711191537412808
40
0.77584531354125
40
0.77584531354125
40
0.840499089669692
40
0.840499089669692
40
0.872825977733913
40
0.888989421766023
40
0.888989421766023
40
0.905152865798134
40
0.905152865798134
40
0.969806641926576
40
0.969806641926576
40
1
40
1
40
1
40
1
41
1
10
49.5218950459416
20
2.96938853000236
30
0
41
1
10
49.4886578290568
20
3.06959381289437
30
0
41
1
10
49.4537103714134
20
3.16914361023439
30
0
41
1
10
49.3986969953511
20
3.31747043343554
30
0
41
1
10
49.3799122617867
20
3.36678450908488
30
0
41
1
10
49.3415503597881
20
3.46488651606003
30
0
41
1
10
49.3219857962642
20
3.51364455187263
30
0
41
1
10
49.2222647873952
20
3.75598431685742
30
0
41
1
10
49.1364341736273
20
3.94522613470687
30
0
41
1
10
48.9529164016687
20
4.31467637664014
30
0
41
1
10
48.8552230422099
20
4.49488137899598
30
0
41
1
10
48.6481296438742
20
4.84643094076833
30
0
41
1
10
48.5387304363028
20
5.017781944451
30
0
41
1
10
48.3080806405805
20
5.35151349992609
30
0
41
1
10
48.1868256520044
20
5.51389131938993
30
0
41
1
10
48.0276211717202
20
5.71107225269947
30
0
41
1
10
47.9953975664486
20
5.75021697427326
30
0
41
1
10
47.9304672984206
20
5.82758569268657
30
0
41
1
10
47.8322435491651
20
5.94238791508573
30
0
41
1
10
47.7315584424769
20
6.053469493135
30
0
41
1
10
47.5269476332011
20
6.27072759229679
30
0
41
1
10
47.3862260155298
20
6.40902675398121
30
0
41
1
10
47.0962604266898
20
6.67274005324378
30
0
41
1
10
46.9470153331148
20
6.79816297076309
30
0
41
1
10
46.6399809813156
20
7.03612694105601
30
0
41
1
10
46.4821926458497
20
7.14866295159067
30
0
41
1
10
46.2389583728275
20
7.30757103437745
30
0
41
1
10
46.1567611645485
20
7.35890615776327
30
0
41
1
10
45.9902489257731
20
7.45815802282152
30
0
41
1
10
45.9064284292123
20
7.50578173529107
30
0
41
1
10
45.6533023003194
20
7.64275003453062
30
0
41
1
10
45.4823339562151
20
7.72620090140057
30
0
41
1
10
45.1360573274929
20
7.87768921452769
30
0
41
1
10
44.9607480603185
20
7.94572468896445
30
0
41
1
10
44.6058200805408
20
8.06639499839216
30
0
41
1
10
44.4262073688015
20
8.11903269228563
30
0
41
1
10
44.1535082152555
20
8.18621694003775
30
0
41
1
10
44.0163373199511
20
8.21686688841629
30
0
41
1
10
43.8779180601056
20
8.24305717261782
30
0
41
1
10
43.7853590796452
20
8.25952007046754
30
0
41
1
10
43.7389006286567
20
8.26725824834691
30
0
41
1
10
43.506638596854
20
8.30332215610909
30
0
41
1
10
43.3206035976448
20
8.32385192469232
30
0
41
1
10
43.0473201017498
20
8.34200978332879
30
0
41
1
10
42.9602687815247
20
8.34601272201112
30
0
41
1
10
42.8731594124722
20
8.34824402842375
30
0
0
SPLINE
5
E8
100
AcDbEntity
8
1
62
256
6
ByLayer
370
18
48
1
60
0
100
AcDbSpline
70
4
71
3
72
8
73
4
40
0
40
0
40
0
40
0
40
1
40
1
40
1
40
1
41
1
10
43.1432393469439
20
8.24519060086908
30
0
41
1
10
43.2766956152787
20
8.22164843503069
30
0
41
1
10
43.409543586499
20
8.1935857460854
30
0
41
1
10
43.5420491626074
20
8.16159467427127
30
0
0
SPLINE
5
E9
100
AcDbEntity
8
1
62
256
6
ByLayer
370
18
48
1
60
0
100
AcDbSpline
70
4
71
3
72
26
73
22
40
0
40
0
40
0
40
0
40
0.232166622852255
40
0.232166622852255
40
0.348249934278383
40
0.348249934278383
40
0.464333245704511
40
0.464333245704511
40
0.580416557130638
40
0.580416557130638
40
0.696499868556766
40
0.696499868556766
40
0.754541524269843
40
0.754541524269843
40
0.81258317998292
40
0.81258317998292
40
0.928666491409073
40
0.928666491409073
40
0.98670814712215
40
0.98670814712215
40
1
40
1
40
1
40
1
41
1
10
43.5420491626073
20
8.16159467427127
30
0
41
1
10
43.6114835133146
20
8.14482877582944
30
0
41
1
10
43.6798601990926
20
8.12537310087703
30
0
41
1
10
43.7803401598978
20
8.09122387577355
30
0
41
1
10
43.813483274061
20
8.0790080562804
30
0
41
1
10
43.8789338727383
20
8.05265687424085
30
0
41
1
10
43.9111680342718
20
8.03854866689153
30
0
41
1
10
43.9741731969189
20
8.0082930245957
30
0
41
1
10
44.0049856769119
20
7.99213242163333
30
0
41
1
10
44.0649032694519
20
7.95732934040683
30
0
41
1
10
44.0940125437259
20
7.93869222667362
30
0
41
1
10
44.1360106304031
20
7.90838253235759
30
0
41
1
10
44.1497305471679
20
7.89788463308116
30
0
41
1
10
44.1765134931366
20
7.87597384478906
30
0
41
1
10
44.1896106652799
20
7.8645287344342
30
0
41
1
10
44.2274391210212
20
7.82883231662467
30
0
41
1
10
44.2507005590186
20
7.8033060916668
30
0
41
1
10
44.2814278845154
20
7.76142870853087
30
0
41
1
10
44.2909964464528
20
7.74680262045254
30
0
41
1
10
44.301504083581
20
7.72825928650985
30
0
41
1
10
44.303410588038
20
7.7247777800109
30
0
41
1
10
44.3052635827064
20
7.72126903686259
30
0
0
SPLINE
5
EA
100
AcDbEntity
8
1
62
256
6
ByLayer
370
18
48
1
60
0
100
AcDbSpline
70
4
71
3
72
10
73
6
40
0
40
0
40
0
40
0
40
0.378978476786895
40
0.378978476786895
40
1
40
1
40
1
40
1
41
1
10
25.3692967533627
20
-8.61064719951759
30
0
41
1
10
24.8885831809825
20
-8.69845408863932
30
0
41
1
10
24.4082643120724
20
-8.77528589785726
30
0
41
1
10
23.1407050064651
20
-8.94855776170206
30
0
41
1
10
22.3533691266283
20
-9.0261860325877
30
0
41
1
10
21.5639128185162
20
-9.07253426883111
30
0
0
SPLINE
5
EB
100
AcDbEntity
8
1
62
256
6
ByLayer
370
18
48
1
60
0
100
AcDbSpline
70
4
71
3
72
14
73
10
40
0
40
0
40
0
40
0
40
0.500000000000014
40
0.500000000000014
40
0.625000000000011
40
0.625000000000011
40
0.750000000000007
40
0.750000000000007
40
1
40
1
40
1
40
1
41
1
10
21.425
20
9.04442899674513
30
0
41
1
10
21.2300693261829
20
9.10571056311605
30
0
41
1
10
21.0352817128339
20
9.17276423185064
30
0
41
1
10
20.7917463845823
20
9.26347412645933
30
0
41
1
10
20.7430365470453
20
9.28196113581839
30
0
41
1
10
20.645604592086
20
9.31961859653683
30
0
41
1
10
20.5968813839749
20
9.33879000152493
30
0
41
1
10
20.4510265933212
20
9.39717933590498
30
0
41
1
10
20.3540954503488
20
9.43731590868452
30
0
41
1
10
20.2574425596036
20
9.47861129369727
30
0
0
SPLINE
5
EC
100
AcDbEntity
8
1
62
256
6
ByLayer
370
18
48
1
60
0
100
AcDbSpline
70
4
71
3
72
8
73
4
40
0
40
0
40
0
40
0
40
1
40
1
40
1
40
1
41
1
10
40.475
20
8.93174598677118
30
0
41
1
10
40.0093939100986
20
8.98406999667992
30
0
41
1
10
39.544214415088
20
9.02575717233216
30
0
41
1
10
39.07907716934
20
9.05672481048458
30
0
0
SPLINE
5
ED
100
AcDbEntity
8
1
62
256
6
ByLayer
370
18
48
1
60
0
100
AcDbSpline
70
4
71
3
72
8
73
4
40
0
40
0
40
0
40
0
40
1
40
1
40
1
40
1
41
1
10
48.2560480257109
20
1.06842403050342
30
0
41
1
10
48.2729327392236
20
1.05550596715207
30
0
41
1
10
48.2897647684734
20
1.0426450332825
30
0
41
1
10
48.3065461101087
20
1.02983906377966
30
0
0
SPLINE
5
EE
100
AcDbEntity
8
1
62
256
6
ByLayer
370
18
48
1
60
0
100
AcDbSpline
70
4
71
3
72
8
73
4
40
0
40
0
40
0
40
0
40
1
40
1
40
1
40
1
41
1
10
36.7605476857139
20
9.31621427043083
30
0
41
1
10
37.9986984571427
20
9.22537919373752
30
0
41
1
10
39.2368492285714
20
9.05550731390554
30
0
41
1
10
40.475
20
8.81162858933197
30
0
0
SPLINE
5
EF
100
AcDbEntity
8
1
62
256
6
ByLayer
370
18
48
1
60
0
100
AcDbSpline
70
4
71
3
72
32
73
28
40
0
40
0
40
0
40
0
40
0.125000000000009
40
0.125000000000009
40
0.156250000000012
40
0.156250000000012
40
0.187500000000016
40
0.187500000000016
40
0.250000000000018
40
0.250000000000018
40
0.375000000000022
40
0.375000000000022
40
0.437500000000021
40
0.437500000000021
40
0.468750000000023
40
0.468750000000023
40
0.484375000000024
40
0.484375000000024
40
0.500000000000025
40
0.500000000000025
40
0.625000000000019
40
0.625000000000019
40
0.750000000000012
40
0.750000000000012
40
0.875000000000006
40
0.875000000000006
40
1
40
1
40
1
40
1
41
1
10
44.1740854572219
20
7.80388258244469
30
0
41
1
10
44.391741219335
20
7.66645561693173
30
0
41
1
10
44.611545828273
20
7.52033204631607
30
0
41
1
10
44.8891292159348
20
7.32623388651666
30
0
41
1
10
44.9447879851888
20
7.28683919467952
30
0
41
1
10
45.0563962695743
20
7.20687313240097
30
0
41
1
10
45.1124271004019
20
7.16624031510779
30
0
41
1
10
45.2795547193562
20
7.04357579912383
30
0
41
1
10
45.3900933006159
20
6.96049419275272
30
0
41
1
10
45.7191021036597
20
6.70738188065775
30
0
41
1
10
45.934980845092
20
6.53350661800337
30
0
41
1
10
46.2534881934187
20
6.26481500950814
30
0
41
1
10
46.3587683560187
20
6.17393234460735
30
0
41
1
10
46.5153072188559
20
6.035559017368
30
0
41
1
10
46.5672564037608
20
5.98909271456697
30
0
41
1
10
46.6448262188352
20
5.91886814422992
30
0
41
1
10
46.6705802935786
20
5.89541152145259
30
0
41
1
10
46.7217438247896
20
5.84852977013895
30
0
41
1
10
46.7471748418828
20
5.82508514492105
30
0
41
1
10
46.9747063853527
20
5.61404999890647
30
0
41
1
10
47.1674323714065
20
5.42622630558148
30
0
41
1
10
47.534076041988
20
5.05011110087665
30
0
41
1
10
47.7080101419017
20
4.86181321117473
30
0
41
1
10
48.0361457694145
20
4.48475378360902
30
0
41
1
10
48.185709934273
20
4.30127422675321
30
0
41
1
10
48.4573346652695
20
3.94389184028972
30
0
41
1
10
48.5793632517182
20
3.77000014597979
30
0
41
1
10
48.6873900047123
20
3.6009838769308
30
0
0
SPLINE
5
F0
100
AcDbEntity
8
1
62
256
6
ByLayer
370
18
48
1
60
0
100
AcDbSpline
70
4
71
3
72
51
73
47
40
0
40
0
40
0
40
0
40
0.0156250000000206
40
0.0156250000000206
40
0.0312500000000411
40
0.0312500000000411
40
0.0625000000000823
40
0.0625000000000823
40
0.125000000000155
40
0.125000000000155
40
0.187500000000229
40
0.187500000000229
40
0.250000000000302
40
0.250000000000302
40
0.312500000000375
40
0.312500000000375
40
0.343750000000412
40
0.343750000000412
40
0.35937500000043
40
0.35937500000043
40
0.363281250000435
40
0.363281250000435
40
0.365234375000433
40
0.365234375000433
40
0.36718750000043
40
0.36718750000043
40
0.371093750000426
40
0.371093750000426
40
0.375000000000421
40
0.375000000000421
40
0.390625000000421
40
0.390625000000421
40
0.406250000000422
40
0.437500000000412
40
0.437500000000412
40
0.500000000000384
40
0.500000000000384
40
0.531250000000366
40
0.531250000000366
40
0.562500000000348
40
0.562500000000348
40
0.625000000000301
40
0.625000000000301
40
0.750000000000197
40
0.750000000000197
40
1
40
1
40
1
40
1
41
1
10
40.4750000086656
20
8.93174595176362
30
0
41
1
10
40.4935983248602
20
8.92957959878581
30
0
41
1
10
40.512195153565
20
8.9273953789432
30
0
41
1
10
40.549382709765
20
8.92300385860904
30
0
41
1
10
40.5679686949678
20
8.92081524803012
30
0
41
1
10
40.6237503946388
20
8.91408471982649
30
0
41
1
10
40.66101243038
20
8.90921136701559
30
0
41
1
10
40.7729782191244
20
8.8936589514947
30
0
41
1
10
40.8478826755529
20
8.88196574249386
30
0
41
1
10
40.9982199340095
20
8.85617397515773
30
0
41
1
10
41.0736516705986
20
8.84207873967816
30
0
41
1
10
41.2250646168501
20
8.8116441973529
30
0
41
1
10
41.3010505958395
20
8.79528874799783
30
0
41
1
10
41.453558662767
20
8.76059307678625
30
0
41
1
10
41.5300767430991
20
8.74226780691865
30
0
41
1
10
41.6451755454208
20
8.71368586999014
30
0
41
1
10
41.6835778531435
20
8.70403229146993
30
0
41
1
10
41.7413568422143
20
8.68898155429781
30
0
41
1
10
41.7606454813541
20
8.68387042473444
30
0
41
1
10
41.7848532999594
20
8.67717175057044
30
0
41
1
10
41.7896994478529
20
8.67581740911828
30
0
41
1
10
41.7969799865242
20
8.67374983167926
30
0
41
1
10
41.7994119233048
20
8.67304432147179
30
0
41
1
10
41.8042457592197
20
8.67173015722821
30
0
41
1
10
41.806638621978
20
8.67115055691448
30
0
41
1
10
41.8138147516185
20
8.66941944317341
30
0
41
1
10
41.8186337328305
20
8.66815301535414
30
0
41
1
10
41.8282611342418
20
8.66565427610362
30
0
41
1
10
41.833078478674
20
8.66439322220063
30
0
41
1
10
41.8571880593774
20
8.65801505956986
30
0
41
1
10
41.8765763949217
20
8.65259196213185
30
0
41
1
10
41.9153714223715
20
8.64169671686801
30
0
41
1
10
41.9736071350973
20
8.62522819103492
30
0
41
1
10
42.0319890198305
20
8.60833858590797
30
0
41
1
10
42.1489876316665
20
8.57390075561977
30
0
41
1
10
42.2272941381391
20
8.55008219669389
30
0
41
1
10
42.3452590023184
20
8.5130470064228
30
0
41
1
10
42.384664708672
20
8.50048439153909
30
0
41
1
10
42.4636509539854
20
8.47492347853256
30
0
41
1
10
42.5032623440688
20
8.46191429385848
30
0
41
1
10
42.6218126711504
20
8.42241554328822
30
0
41
1
10
42.7006291589646
20
8.39540369298066
30
0
41
1
10
42.93646201136
20
8.31240953614122
30
0
41
1
10
43.0928639568829
20
8.25447482041244
30
0
41
1
10
43.5598561442308
20
8.07341666541456
30
0
41
1
10
43.8682478030596
20
7.94307418026852
30
0
41
1
10
44.1740854572219
20
7.80388258244469
30
0
0
SPLINE
5
F1
100
AcDbEntity
8
1
62
256
6
ByLayer
370
18
48
1
60
0
100
AcDbSpline
70
4
71
3
72
10
73
6
40
0
40
0
40
0
40
0
40
0.522466156094895
40
0.522466156094895
40
1
40
1
40
1
40
1
41
1
10
48.6873900047169
20
3.60098387692469
30
0
41
1
10
48.7789434959329
20
3.41090281970662
30
0
41
1
10
48.8717253615068
20
3.22276372507699
30
0
41
1
10
49.0511824653705
20
2.86590439652653
30
0
41
1
10
49.1376997500555
20
2.6968996388969
30
0
41
1
10
49.224912611041
20
2.52908829288404
30
0
0
SPLINE
5
F2
100
AcDbEntity
8
1
62
256
6
ByLayer
370
18
48
1
60
0
100
AcDbSpline
70
4
71
3
72
8
73
4
40
0
40
0
40
0
40
0
40
1
40
1
40
1
40
1
41
1
10
42.4684779207734
20
7.92591034696352
30
0
41
1
10
42.4880367915659
20
7.9181520157943
30
0
41
1
10
42.5073979601635
20
7.91012895931513
30
0
41
1
10
42.526566675629
20
7.90184639157624
30
0
0
SPLINE
5
F3
100
AcDbEntity
8
1
62
256
6
ByLayer
370
18
48
1
60
0
100
AcDbSpline
70
4
71
3
72
8
73
4
40
0
40
0
40
0
40
0
40
1
40
1
40
1
40
1
41
1
10
45.1886076400428
20
3.39870421045282
30
0
41
1
10
45.3607117404618
20
3.2218691773615
30
0
41
1
10
45.5387350260692
20
3.04750383072849
30
0
41
1
10
45.7231026902769
20
2.87578557578414
30
0
0
SPLINE
5
F4
100
AcDbEntity
8
1
62
256
6
ByLayer
370
18
48
1
60
0
100
AcDbSpline
70
4
71
3
72
12
73
8
40
0
40
0
40
0
40
0
40
0.25
40
0.25
40
0.499999999999999
40
0.499999999999999
40
1
40
1
40
1
40
1
41
1
10
42.6109152922203
20
7.82519682855801
30
0
41
1
10
42.5982269176704
20
7.83227421397356
30
0
41
1
10
42.5858768542111
20
7.8398977251386
30
0
41
1
10
42.5615780205721
20
7.85578948717946
30
0
41
1
10
42.5496344980057
20
7.86406626346624
30
0
41
1
10
42.5142301462922
20
7.88957797037881
30
0
41
1
10
42.4911877081544
20
7.90748155445434
30
0
41
1
10
42.4684779207689
20
7.92591034695701
30
0
0
SPLINE
5
F5
100
AcDbEntity
8
1
62
256
6
ByLayer
370
18
48
1
60
0
100
AcDbSpline
70
4
71
3
72
25
73
21
40
0
40
0
40
0
40
0
40
0.124999999999989
40
0.124999999999989
40
0.187499999999991
40
0.187499999999991
40
0.249999999999993
40
0.249999999999993
40
0.312499999999994
40
0.312499999999994
40
0.374999999999996
40
0.5
40
0.5
40
0.750000000000008
40
0.750000000000008
40
0.875000000000012
40
0.875000000000012
40
0.937500000000006
40
0.937500000000006
40
1
40
1
40
1
40
1
41
1
10
42.468477920772
20
7.9259103469625
30
0
41
1
10
42.3852893751749
20
7.96452711436305
30
0
41
1
10
42.3021812929606
20
8.00206304982248
30
0
41
1
10
42.1776028881746
20
8.05674082812612
30
0
41
1
10
42.1360907109078
20
8.07469502434978
30
0
41
1
10
42.0530880784827
20
8.1100526445093
30
0
41
1
10
42.0115964268926
20
8.12741703735938
30
0
41
1
10
41.9286338631843
20
8.16175740159923
30
0
41
1
10
41.8871591771959
20
8.17860882495245
30
0
41
1
10
41.8042244823525
20
8.21189146252544
30
0
41
1
10
41.6798408131075
20
8.26106732562133
30
0
41
1
10
41.5554851410425
20
8.30788753396374
30
0
41
1
10
41.3067322930232
20
8.39808619214293
30
0
41
1
10
41.1408448129678
20
8.45363984514805
30
0
41
1
10
40.8915706912643
20
8.52877125940614
30
0
41
1
10
40.8084048767098
20
8.55244813913131
30
0
41
1
10
40.6834917989948
20
8.58572720309917
30
0
41
1
10
40.6418267736588
20
8.59644896385998
30
0
41
1
10
40.5584320232421
20
8.61710913703246
30
0
41
1
10
40.5167199128848
20
8.62729680390501
30
0
41
1
10
40.4749998341108
20
8.63743540546866
30
0
0
SPLINE
5
F6
100
AcDbEntity
8
1
62
256
6
ByLayer
370
18
48
1
60
0
100
AcDbSpline
70
4
71
3
72
8
73
4
40
0
40
0
40
0
40
0
40
1
40
1
40
1
40
1
41
1
10
49.2495491875231
20
2.48175048762741
30
0
41
1
10
49.3272392241219
20
2.25757296734201
30
0
41
1
10
49.4052515770802
20
2.03371852116825
30
0
41
1
10
49.4835577175108
20
1.81016251107491
30
0
0
SPLINE
5
F7
100
AcDbEntity
8
1
62
256
6
ByLayer
370
18
48
1
60
0
100
AcDbSpline
70
4
71
3
72
43
73
39
40
0
40
0
40
0
40
0
40
0.0008482252051257
40
0.0016985484848061
40
0.00329196323874
40
0.0065889004666058
40
0.0104220350275087
40
0.0114796930332022
40
0.014637293037706
40
0.0161116348378579
40
0.0474000016252023
40
0.0814898148133818
40
0.0969109185235776
40
0.12139945967511
40
0.13043844383465
40
0.136536013258743
40
0.137996009039812
40
0.13853158288401
40
0.138922718497921
40
0.139549679785951
40
0.14018462464343
40
0.140824094220224
40
0.144838589658747
40
0.148149117708131
40
0.166427444357338
40
0.208112132742106
40
0.274614157789726
40
0.315112522495315
40
0.3989161894165
40
0.441884132665728
40
0.529082687596879
40
0.61706284211069
40
0.704664935493439
40
0.747937139465636
40
0.832642882142489
40
0.87377968804092
40
0.95291381880733
40
1
40
1
40
1
40
1
41
1
10
40.4750000583146
20
8.81162853501144
30
0
41
1
10
40.4780055903625
20
8.81102668850127
30
0
41
1
10
40.4840290935188
20
8.80981893088747
30
0
41
1
10
40.495655003903
20
8.80748239660602
30
0
41
1
10
40.5159667949324
20
8.80340025910101
30
0
41
1
10
40.5467879621313
20
8.79716420229283
30
0
41
1
10
40.575655679979
20
8.79131423363938
30
0
41
1
10
40.6040933224498
20
8.78548606737033
30
0
41
1
10
40.6241964626884
20
8.78125911888935
30
0
41
1
10
40.7509836268216
20
8.75418106653774
30
0
41
1
10
40.9860264976257
20
8.69750962905894
30
0
41
1
10
41.267464423503
20
8.61603016799228
30
0
41
1
10
41.5236828192135
20
8.53361555621927
30
0
41
1
10
41.6924724840286
20
8.47530512853359
30
0
41
1
10
41.8288305465146
20
8.42588045700762
30
0
41
1
10
41.8858037519834
20
8.40466474007803
30
0
41
1
10
41.9135185720441
20
8.39412732721922
30
0
41
1
10
41.9217475263557
20
8.39097921164876
30
0
41
1
10
41.9269963485841
20
8.38898496336202
30
0
41
1
10
41.9328885204719
20
8.38678998603751
30
0
41
1
10
41.9394777468642
20
8.38429896798974
30
0
41
1
10
41.9578698291728
20
8.37731240764757
30
0
41
1
10
41.9855889019118
20
8.36667807029113
30
0
41
1
10
42.0742090943114
20
8.33203413973331
30
0
41
1
10
42.2925410928109
20
8.244576312215
30
0
41
1
10
42.7238223714003
20
8.05986022675057
30
0
41
1
10
43.2239418381318
20
7.82132003687133
30
0
41
1
10
43.8561184307761
20
7.49001985350617
30
0
41
1
10
44.4003886035906
20
7.17467363093652
30
0
41
1
10
45.0820243778745
20
6.74039085988338
30
0
41
1
10
45.7607635453597
20
6.26559054876213
30
0
41
1
10
46.5416745118932
20
5.64728912592594
30
0
41
1
10
47.1525812262536
20
5.09820390190578
30
0
41
1
10
47.7184960723294
20
4.5355188564368
30
0
41
1
10
48.1322283225096
20
4.07854926605799
30
0
41
1
10
48.5902730043011
20
3.50914232860112
30
0
41
1
10
48.92731022299
20
3.03320639986171
30
0
41
1
10
49.1468273167553
20
2.66692921928993
30
0
41
1
10
49.2232328368257
20
2.52951095132545
30
0
0
SPLINE
5
F8
100
AcDbEntity
8
1
62
256
6
ByLayer
370
18
48
1
60
0
100
AcDbSpline
70
4
71
3
72
31
73
27
40
0
40
0
40
0
40
0
40
0.0044743900714346
40
0.0089598474913748
40
0.017365114290329
40
0.0347564663856955
40
0.0549762607494279
40
0.0605554093659165
40
0.0772117572607184
40
0.0849889139316557
40
0.250035126728348
40
0.429858976272694
40
0.511205336784625
40
0.640382452402277
40
0.6880631163756
40
0.720227810287283
40
0.727929291671801
40
0.730754445034987
40
0.73281768637336
40
0.736124908730562
40
0.739474244436511
40
0.742847448048126
40
0.764023921493389
40
0.78148696520614
40
0.877905183843641
40
1
40
1
40
1
40
1
41
1
10
40.4750002863913
20
8.6374352954131
30
0
41
1
10
40.4780555663601
20
8.63669281427408
30
0
41
1
10
40.4841825148659
20
8.63520304989567
30
0
41
1
10
40.4960196879219
20
8.63232142331992
30
0
41
1
10
40.5166559758065
20
8.62728899152273
30
0
41
1
10
40.5480587011716
20
8.61960553205739
30
0
41
1
10
40.5773309273834
20
8.61240630728167
30
0
41
1
10
40.6064040377709
20
8.60523651551935
30
0
41
1
10
40.6271313794919
20
8.60004964999862
30
0
41
1
10
40.7575464244725
20
8.56692792059923
30
0
41
1
10
40.9995839389534
20
8.49897656340158
30
0
41
1
10
41.289940701035
20
8.40371699634949
30
0
41
1
10
41.5546413676895
20
8.30865676243889
30
0
41
1
10
41.7292128746955
20
8.24186965230314
30
0
41
1
10
41.8704105957427
20
8.18538056174097
30
0
41
1
10
41.9293919505907
20
8.16133599549465
30
0
41
1
10
41.9580593547744
20
8.14954363066286
30
0
41
1
10
41.966583824565
20
8.14603694145214
30
0
41
1
10
41.9720765288927
20
8.14376009301355
30
0
41
1
10
41.9784184820725
20
8.14114678167198
30
0
41
1
10
41.9854141382882
20
8.1382495447609
30
0
41
1
10
42.0049833900324
20
8.13014085229207
30
0
41
1
10
42.0344951287129
20
8.11784792836357
30
0
41
1
10
42.12865834672
20
8.07830347738761
30
0
41
1
10
42.2925890852963
20
8.0077933329375
30
0
41
1
10
42.4429355398157
20
7.94027593863194
30
0
41
1
10
42.526566675629
20
7.90184639157624
30
0
0
SPLINE
5
F9
100
AcDbEntity
8
1
62
256
6
ByLayer
370
18
48
1
60
0
100
AcDbSpline
70
4
71
3
72
8
73
4
40
0
40
0
40
0
40
0
40
1
40
1
40
1
40
1
41
1
10
42.526566675629
20
7.90184639157624
30
0
41
1
10
42.5427323908395
20
7.8946981776738
30
0
41
1
10
42.5587639118619
20
7.88744600420421
30
0
41
1
10
42.5746591436185
20
7.88008864059933
30
0
0
SPLINE
5
FA
100
AcDbEntity
8
1
62
256
6
ByLayer
370
18
48
1
60
0
100
AcDbSpline
70
4
71
3
72
12
73
8
40
0
40
0
40
0
40
0
40
0.249999999999896
40
0.249999999999896
40
0.499999999999792
40
0.499999999999792
40
1
40
1
40
1
40
1
41
1
10
48.9927556589241
20
1.66695948919295
30
0
41
1
10
48.9848002231201
20
1.66534835979695
30
0
41
1
10
48.9766340571772
20
1.66469660747319
30
0
41
1
10
48.9601192483075
20
1.66422385384539
30
0
41
1
10
48.9517114595151
20
1.66444179356071
30
0
41
1
10
48.926785815342
20
1.66585371952723
30
0
41
1
10
48.9104841131595
20
1.66776194121132
30
0
41
1
10
48.8943147733702
20
1.67007596077431
30
0
0
SPLINE
5
FB
100
AcDbEntity
8
1
62
256
6
ByLayer
370
18
48
1
60
0
100
AcDbSpline
70
4
71
3
72
17
73
13
40
0
40
0
40
0
40
0
40
0.124999999999987
40
0.124999999999987
40
0.249999999999973
40
0.37499999999996
40
0.37499999999996
40
0.499999999999947
40
0.499999999999947
40
0.749999999999973
40
0.749999999999973
40
1
40
1
40
1
40
1
41
1
10
48.3397654832421
20
1.01289104306258
30
0
41
1
10
48.3405448587403
20
1.01142360401909
30
0
41
1
10
48.340913888885
20
1.01035176345309
30
0
41
1
10
48.3409141156157
20
1.00892127235437
30
0
41
1
10
48.3401817698182
20
1.00823291522511
30
0
41
1
10
48.33827998027
20
1.00872926527418
30
0
41
1
10
48.3358960373101
20
1.00971406173855
30
0
41
1
10
48.3344551072697
20
1.01045567206123
30
0
41
1
10
48.329585092953
20
1.01326207744503
30
0
41
1
10
48.3256261725336
20
1.01588886854947
30
0
41
1
10
48.3167504822369
20
1.02215894834413
30
0
41
1
10
48.311827616753
20
1.02580870586868
30
0
41
1
10
48.3065461101086
20
1.02983906377969
30
0
0
SPLINE
5
FC
100
AcDbEntity
8
1
62
256
6
ByLayer
370
18
48
1
60
0
100
AcDbSpline
70
4
71
3
72
48
73
44
40
0
40
0
40
0
40
0
40
0.0624999999999837
40
0.0624999999999837
40
0.124999999999967
40
0.124999999999967
40
0.187499999999951
40
0.187499999999951
40
0.249999999999935
40
0.249999999999935
40
0.312499999999919
40
0.312499999999919
40
0.343749999999911
40
0.343749999999911
40
0.374999999999903
40
0.374999999999903
40
0.437499999999897
40
0.437499999999897
40
0.468749999999888
40
0.468749999999888
40
0.499999999999878
40
0.499999999999878
40
0.624999999999858
40
0.624999999999858
40
0.65624999999987
40
0.65624999999987
40
0.687499999999882
40
0.687499999999882
40
0.749999999999905
40
0.749999999999905
40
0.781249999999917
40
0.781249999999917
40
0.812499999999929
40
0.812499999999929
40
0.874999999999952
40
0.874999999999952
40
0.906249999999964
40
0.906249999999964
40
0.937499999999976
40
0.937499999999976
40
0.968749999999988
40
0.968749999999988
40
1
40
1
40
1
40
1
41
1
10
48.3397654832422
20
1.01289104306252
30
0
41
1
10
48.3369231725358
20
1.01824265818772
30
0
41
1
10
48.3340592376926
20
1.02552455096381
30
0
41
1
10
48.3293195122139
20
1.04353424411417
30
0
41
1
10
48.3274840919768
20
1.05408414121422
30
0
41
1
10
48.3254328833441
20
1.07786532710836
30
0
41
1
10
48.3252100767006
20
1.09110012813397
30
0
41
1
10
48.326795769635
20
1.12010662162572
30
0
41
1
10
48.328590155539
20
1.1356003525687
30
0
41
1
10
48.3343424464022
20
1.1682296037682
30
0
41
1
10
48.3382988650216
20
1.18538262395882
30
0
41
1
10
48.3460177541593
20
1.21228660793179
30
0
41
1
10
48.3488959615163
20
1.22147226912978
30
0
41
1
10
48.3552541559674
20
1.24013938904579
30
0
41
1
10
48.3587110006139
20
1.24955617865794
30
0
41
1
10
48.3699194683602
20
1.2780269020902
30
0
41
1
10
48.3785053078932
20
1.2973004269343
30
0
41
1
10
48.3931345872661
20
1.32655652516081
30
0
41
1
10
48.3983036449046
20
1.33636644369827
30
0
41
1
10
48.409252643926
20
1.35608802891633
30
0
41
1
10
48.4150542016905
20
1.36603455489112
30
0
41
1
10
48.4454086799226
20
1.41555092635875
30
0
41
1
10
48.4735763273942
20
1.45403050742837
30
0
41
1
10
48.5143445296361
20
1.49986576580534
30
0
41
1
10
48.5228172865236
20
1.50895074787579
30
0
41
1
10
48.5401635433386
20
1.52663411839188
30
0
41
1
10
48.5490362391248
20
1.53523627572278
30
0
41
1
10
48.5762839526574
20
1.56028296805346
30
0
41
1
10
48.5952810262696
20
1.57597731795775
30
0
41
1
10
48.6252602248145
20
1.5977080198256
30
0
41
1
10
48.6355022196657
20
1.60464768298624
30
0
41
1
10
48.6565508341328
20
1.61783327474981
30
0
41
1
10
48.6674016960988
20
1.62410012995656
30
0
41
1
10
48.700425686793
20
1.64142501721705
30
0
41
1
10
48.7231474253809
20
1.6510935506148
30
0
41
1
10
48.7586479375808
20
1.66209115995531
30
0
41
1
10
48.7707759679082
20
1.66517914811894
30
0
41
1
10
48.7953352993353
20
1.66997010283111
30
0
41
1
10
48.8076518463433
20
1.67165527382943
30
0
41
1
10
48.8323546836251
20
1.67359855137391
30
0
41
1
10
48.8447409812303
20
1.67385621733291
30
0
41
1
10
48.8695778182771
20
1.67297743998591
30
0
41
1
10
48.882092621283
20
1.67182509211753
30
0
41
1
10
48.8943147733694
20
1.67007596077434
30
0
0
SPLINE
5
FD
100
AcDbEntity
8
1
62
256
6
ByLayer
370
18
48
1
60
0
100
AcDbSpline
70
4
71
3
72
8
73
4
40
0
40
0
40
0
40
0
40
1
40
1
40
1
40
1
41
1
10
42.468394088073
20
-8.1996707673014
30
0
41
1
10
42.4879090237323
20
-8.19970337633816
30
0
41
1
10
42.5072271518064
20
-8.1999412558946
30
0
41
1
10
42.5263536930303
20
-8.20037539756018
30
0
0
SPLINE
5
FE
100
AcDbEntity
8
1
62
256
6
ByLayer
370
13
48
1
60
0
100
AcDbSpline
70
4
71
3
72
27
73
23
40
0
40
0
40
0
40
0
40
0.125000000000007
40
0.125000000000007
40
0.250000000000015
40
0.250000000000015
40
0.312500000000018
40
0.312500000000018
40
0.343750000000018
40
0.343750000000018
40
0.375000000000018
40
0.437500000000018
40
0.437500000000018
40
0.500000000000018
40
0.500000000000018
40
0.625000000000014
40
0.625000000000014
40
0.750000000000009
40
0.750000000000009
40
0.875000000000005
40
0.875000000000005
40
1
40
1
40
1
40
1
41
1
10
43.8851706613731
20
6.01880395033791
30
0
41
1
10
44.0627640451686
20
5.78652569528279
30
0
41
1
10
44.2443172685828
20
5.55812046490442
30
0
41
1
10
44.6175059705748
20
5.11075560997932
30
0
41
1
10
44.8091216170718
20
4.89178386622427
30
0
41
1
10
45.1061084990478
20
4.57191172820606
30
0
41
1
10
45.2067123436442
20
4.46672715573226
30
0
41
1
10
45.3603084741505
20
4.31131379899799
30
0
41
1
10
45.4120133901137
20
4.2598350890766
30
0
41
1
10
45.5158721489249
20
4.1580761372629
30
0
41
1
10
45.6723741791555
20
4.0071878650129
30
0
41
1
10
45.8309255121843
20
3.86148410188619
30
0
41
1
10
46.0439905581798
20
3.6716803854589
30
0
41
1
10
46.1513516486001
20
3.57902210883628
30
0
41
1
10
46.4757169063859
20
3.30739283728539
30
0
41
1
10
46.6950146844343
20
3.1347162303278
30
0
41
1
10
47.1394848259353
20
2.80431454302797
30
0
41
1
10
47.3646457340056
20
2.64657071939996
30
0
41
1
10
47.8210499747935
20
2.34497421071822
30
0
41
1
10
48.0523340662665
20
2.20124083078517
30
0
41
1
10
48.5194893673047
20
1.92577302275919
30
0
41
1
10
48.755362407089
20
1.7940393798844
30
0
41
1
10
48.9927556589413
20
1.66695948918377
30
0
0
SPLINE
5
FF
100
AcDbEntity
8
1
62
256
6
ByLayer
370
18
48
1
60
0
100
AcDbSpline
70
4
71
3
72
8
73
4
40
0
40
0
40
0
40
0
40
1
40
1
40
1
40
1
41
1
10
48.9927556589412
20
1.6669594891838
30
0
41
1
10
49.1461568223558
20
1.69802618745709
30
0
41
1
10
49.2995575818992
20
1.72909354930769
30
0
41
1
10
49.4529578216809
20
1.76016176508486
30
0
0
SPLINE
5
100
100
AcDbEntity
8
1
62
256
6
ByLayer
370
18
48
1
60
0
100
AcDbSpline
70
4
71
3
72
8
73
4
40
0
40
0
40
0
40
0
40
1
40
1
40
1
40
1
41
1
10
49.4529578216736
20
1.76016176509714
30
0
41
1
10
49.463173593197
20
1.77679544673345
30
0
41
1
10
49.4733734928165
20
1.79346250011307
30
0
41
1
10
49.4835577175108
20
1.81016251107494
30
0
0
SPLINE
5
101
100
AcDbEntity
8
1
62
256
6
ByLayer
370
18
48
1
60
0
100
AcDbSpline
70
4
71
3
72
50
73
46
40
0
40
0
40
0
40
0
40
0.0312500000000036
40
0.0312500000000036
40
0.0625000000000073
40
0.0625000000000073
40
0.125000000000013
40
0.125000000000013
40
0.187500000000019
40
0.187500000000019
40
0.250000000000024
40
0.250000000000024
40
0.281250000000026
40
0.296875000000026
40
0.296875000000026
40
0.312500000000025
40
0.312500000000025
40
0.375000000000021
40
0.375000000000021
40
0.437500000000017
40
0.437500000000017
40
0.500000000000013
40
0.500000000000013
40
0.562500000000009
40
0.562500000000009
40
0.578125000000009
40
0.578125000000009
40
0.593750000000009
40
0.593750000000009
40
0.625000000000008
40
0.625000000000008
40
0.68750000000001
40
0.68750000000001
40
0.750000000000013
40
0.750000000000013
40
0.812500000000015
40
0.812500000000015
40
0.843750000000018
40
0.859375000000017
40
0.859375000000017
40
0.875000000000017
40
0.875000000000017
40
0.937500000000008
40
0.937500000000008
40
1
40
1
40
1
40
1
41
1
10
49.4835577175108
20
1.81016251107491
30
0
41
1
10
49.449434949671
20
1.87849832171602
30
0
41
1
10
49.4136351684414
20
1.94729842539263
30
0
41
1
10
49.3386489114729
20
2.08585104979707
30
0
41
1
10
49.2996380425944
20
2.15527769943006
30
0
41
1
10
49.1782110636301
20
2.36388287478158
30
0
41
1
10
49.09138052854
20
2.50344523541619
30
0
41
1
10
48.9061588563669
20
2.78344797440107
30
0
41
1
10
48.8077703900029
20
2.92388861894318
30
0
41
1
10
48.5995676517706
20
3.20551618980599
30
0
41
1
10
48.489746470409
20
3.34670375398795
30
0
41
1
10
48.3163048588838
20
3.559076675054
30
0
41
1
10
48.227403042763
20
3.66541086907336
30
0
41
1
10
48.1351836159122
20
3.77197489262227
30
0
41
1
10
48.0729605363712
20
3.84306990295542
30
0
41
1
10
48.0414492408663
20
3.87867483606277
30
0
41
1
10
47.8823540904859
20
4.05645872032309
30
0
41
1
10
47.7507518687633
20
4.19727626729917
30
0
41
1
10
47.4791423734403
20
4.47620480147432
30
0
41
1
10
47.3391345212468
20
4.61432233862803
30
0
41
1
10
47.0507981240566
20
4.88785169737906
30
0
41
1
10
46.9024693151796
20
5.02325811947713
30
0
41
1
10
46.5974590361689
20
5.29133974389214
30
0
41
1
10
46.440776723654
20
5.424019959361
30
0
41
1
10
46.2395782060345
20
5.58813052790518
30
0
41
1
10
46.1990708872108
20
5.62086536832086
30
0
41
1
10
46.1175165305402
20
5.68615883643537
30
0
41
1
10
46.076424934794
20
5.71875222523357
30
0
41
1
10
45.9527567110591
20
5.81593391640948
30
0
41
1
10
45.8697616972737
20
5.87994745196605
30
0
41
1
10
45.6191542271287
20
6.06970207809391
30
0
41
1
10
45.449921292146
20
6.19315987692903
30
0
41
1
10
45.1072204201293
20
6.43410923557579
30
0
41
1
10
44.9337512504641
20
6.5515989992283
30
0
41
1
10
44.5826053682113
20
6.78065390229898
30
0
41
1
10
44.4049335915265
20
6.89222652463971
30
0
41
1
10
44.1352191301588
20
7.05507114928548
30
0
41
1
10
43.9995591026863
20
7.13536318687102
30
0
41
1
10
43.8626789995665
20
7.2139371068302
30
0
41
1
10
43.7711523659021
20
7.26593491705862
30
0
41
1
10
43.7252248117096
20
7.2917560902242
30
0
41
1
10
43.4956867450581
20
7.41944965384505
30
0
41
1
10
43.3118343275109
20
7.51740640549752
30
0
41
1
10
42.9436332563153
20
7.70499686667566
30
0
41
1
10
42.7592845201605
20
7.79463181639454
30
0
41
1
10
42.5746591436286
20
7.88008864059466
30
0
0
SPLINE
5
102
100
AcDbEntity
8
1
62
256
6
ByLayer
370
13
48
1
60
0
100
AcDbSpline
70
4
71
3
72
8
73
4
40
0
40
0
40
0
40
0
40
1
40
1
40
1
40
1
41
1
10
42.5746591436294
20
7.88008864059771
30
0
41
1
10
42.5867352965456
20
7.86178077572316
30
0
41
1
10
42.5988205394573
20
7.84348340028842
30
0
41
1
10
42.610915292253
20
7.82519682850679
30
0
0
SPLINE
5
103
100
AcDbEntity
8
1
62
256
6
ByLayer
370
18
48
1
60
0
100
AcDbSpline
70
4
71
3
72
12
73
8
40
0
40
0
40
0
40
0
40
0.250000000000008
40
0.250000000000008
40
0.500000000000015
40
0.500000000000015
40
1
40
1
40
1
40
1
41
1
10
42.61091529226
20
7.82519682854655
30
0
41
1
10
42.6892546255587
20
7.78150032094595
30
0
41
1
10
42.7677147507594
20
7.73642504480182
30
0
41
1
10
42.9238217701469
20
7.64458492108332
30
0
41
1
10
43.0015822117826
20
7.59775689482657
30
0
41
1
10
43.234198260326
20
7.45499068910701
30
0
41
1
10
43.3883974045901
20
7.35678964712827
30
0
41
1
10
43.5421339747406
20
7.25640524980139
30
0
0
SPLINE
5
104
100
AcDbEntity
8
1
62
256
6
ByLayer
370
18
48
1
60
0
100
AcDbSpline
70
4
71
3
72
8
73
4
40
0
40
0
40
0
40
0
40
1
40
1
40
1
40
1
41
1
10
44.7434392964634
20
-2.46640349437575
30
0
41
1
10
44.7994227733187
20
-2.43905862277558
30
0
41
1
10
44.8560616400778
20
-2.41184350373214
30
0
41
1
10
44.9133686818514
20
-2.38476066841156
30
0
0
SPLINE
5
105
100
AcDbEntity
8
1
62
256
6
ByLayer
370
18
48
1
60
0
100
AcDbSpline
70
4
71
3
72
20
73
16
40
0
40
0
40
0
40
0
40
0.250000000000011
40
0.250000000000011
40
0.500000000000022
40
0.500000000000022
40
0.562500000000028
40
0.562500000000028
40
0.593750000000031
40
0.593750000000031
40
0.625000000000034
40
0.625000000000034
40
0.750000000000025
40
0.750000000000025
40
1
40
1
40
1
40
1
41
1
10
44.9133686818515
20
-2.38476066841162
30
0
41
1
10
45.1826702511691
20
-2.50419235663912
30
0
41
1
10
45.4581418256879
20
-2.59732221928357
30
0
41
1
10
46.0203549030187
20
-2.73553989620541
30
0
41
1
10
46.3070981054687
20
-2.78062046517593
30
0
41
1
10
46.6720861290068
20
-2.80901103585103
30
0
41
1
10
46.745412333462
20
-2.81328837754535
30
0
41
1
10
46.8558873159725
20
-2.81763402539568
30
0
41
1
10
46.8928172244486
20
-2.8187376910773
30
0
41
1
10
46.9666507346872
20
-2.82025686002845
30
0
41
1
10
47.0035683668654
20
-2.8206733936976
30
0
41
1
10
47.1881608291566
20
-2.8210736219477
30
0
41
1
10
47.335848620873
20
-2.81598754430809
30
0
41
1
10
47.7789498155626
20
-2.7859366619642
30
0
41
1
10
48.0744005372422
20
-2.74637510285879
30
0
41
1
10
48.3698886758141
20
-2.69217838515189
30
0
0
SPLINE
5
106
100
AcDbEntity
8
1
62
256
6
ByLayer
370
18
48
1
60
0
100
AcDbSpline
70
4
71
3
72
8
73
4
40
0
40
0
40
0
40
0
40
1
40
1
40
1
40
1
41
1
10
48.1250720523313
20
-2.38628150268846
30
0
41
1
10
48.2063028845227
20
-2.48863799968163
30
0
41
1
10
48.28791558949
20
-2.59059615439927
30
0
41
1
10
48.3698886758127
20
-2.69217838514911
30
0
0
SPLINE
5
107
100
AcDbEntity
8
1
62
256
6
ByLayer
370
18
48
1
60
0
100
AcDbSpline
70
4
71
3
72
8
73
4
40
0
40
0
40
0
40
0
40
1
40
1
40
1
40
1
41
1
10
48.1250720523312
20
-2.38628150268843
30
0
41
1
10
48.1862675273226
20
-2.29074662698176
30
0
41
1
10
48.2467263174735
20
-2.19431114293022
30
0
41
1
10
48.3065392562681
20
-2.09708609584055
30
0
0
SPLINE
5
108
100
AcDbEntity
8
1
62
256
6
ByLayer
370
18
48
1
60
0
100
AcDbSpline
70
4
71
3
72
8
73
4
40
0
40
0
40
0
40
0
40
1
40
1
40
1
40
1
41
1
10
45.1886076400433
20
3.39870421045302
30
0
41
1
10
45.0314037721248
20
3.39024662367834
30
0
41
1
10
44.8739705965527
20
3.38364380653974
30
0
41
1
10
44.7163257635341
20
3.37875299420736
30
0
0
SPLINE
5
109
100
AcDbEntity
8
1
62
256
6
ByLayer
370
18
48
1
60
0
100
AcDbSpline
70
4
71
3
72
10
73
6
40
0
40
0
40
0
40
0
40
0.5
40
0.5
40
1
40
1
40
1
40
1
41
1
10
44.4037692012092
20
4.12205215734528
30
0
41
1
10
44.5304764135053
20
3.99593212725219
30
0
41
1
10
44.6590192730375
20
3.87260361213316
30
0
41
1
10
44.9205006823272
20
3.63158362328659
30
0
41
1
10
45.0534179738557
20
3.51386590031191
30
0
41
1
10
45.188607640043
20
3.39870421045274
30
0
0
SPLINE
5
10A
100
AcDbEntity
8
1
62
256
6
ByLayer
370
18
48
1
60
0
100
AcDbSpline
70
4
71
3
72
50
73
46
40
0
40
0
40
0
40
0
40
0.125000000000003
40
0.125000000000003
40
0.250000000000005
40
0.250000000000005
40
0.375000000000008
40
0.375000000000008
40
0.50000000000001
40
0.50000000000001
40
0.531250000000011
40
0.531250000000011
40
0.562500000000012
40
0.562500000000012
40
0.62500000000001
40
0.62500000000001
40
0.687500000000008
40
0.687500000000008
40
0.750000000000006
40
0.750000000000006
40
0.781250000000005
40
0.781250000000005
40
0.812500000000004
40
0.812500000000004
40
0.843750000000003
40
0.843750000000003
40
0.875000000000002
40
0.875000000000002
40
0.906250000000001
40
0.906250000000001
40
0.921875000000001
40
0.921875000000001
40
0.937500000000001
40
0.937500000000001
40
0.953125000000001
40
0.953125000000001
40
0.968750000000001
40
0.968750000000001
40
0.976562500000001
40
0.976562500000001
40
0.984375000000001
40
0.984375000000001
40
0.9921875
40
0.9921875
40
1
40
1
40
1
40
1
41
1
10
44.4037692011822
20
4.12205215737222
30
0
41
1
10
44.3426873874062
20
4.182850907909
30
0
41
1
10
44.2870157524954
20
4.2477799395441
30
0
41
1
10
44.1850453562587
20
4.38540021064091
30
0
41
1
10
44.138762043874
20
4.45810244552285
30
0
41
1
10
44.0546502477387
20
4.61123169011532
30
0
41
1
10
44.0175948884953
20
4.69024536332986
30
0
41
1
10
43.9519246560822
20
4.85251103414021
30
0
41
1
10
43.9232857338996
20
4.9358020721628
30
0
41
1
10
43.8920112448476
20
5.04248764721021
30
0
41
1
10
43.8859840588123
20
5.06395399033792
30
0
41
1
10
43.8743740339226
20
5.1071450452954
30
0
41
1
10
43.8687833855998
20
5.12890238468208
30
0
41
1
10
43.8527367297998
20
5.1942758487823
30
0
41
1
10
43.843000311039
20
5.23798476377706
30
0
41
1
10
43.8253710130165
20
5.32563909509821
30
0
41
1
10
43.8174754913584
20
5.36958412290056
30
0
41
1
10
43.8035928031408
20
5.45771604871797
30
0
41
1
10
43.7975983612649
20
5.50190186572948
30
0
41
1
10
43.7902955469799
20
5.5683975201766
30
0
41
1
10
43.7881453749154
20
5.59059928758231
30
0
41
1
10
43.78451366431
20
5.63509045334027
30
0
41
1
10
43.7830318850346
20
5.65738798865564
30
0
41
1
10
43.7809161191684
20
5.70179933042348
30
0
41
1
10
43.780276279089
20
5.72394637107834
30
0
41
1
10
43.7801096777702
20
5.76810792983002
30
0
41
1
10
43.7805802722787
20
5.79011734798195
30
0
41
1
10
43.7831184205198
20
5.83360486430252
30
0
41
1
10
43.7851668841314
20
5.85512478777861
30
0
41
1
10
43.7901920149197
20
5.88690757014899
30
0
41
1
10
43.7922058891624
20
5.89745093994986
30
0
41
1
10
43.7971144268083
20
5.91813802777287
30
0
41
1
10
43.800000174497
20
5.92826827130003
30
0
41
1
10
43.8069951405205
20
5.94794668242835
30
0
41
1
10
43.8111289110006
20
5.95752787098127
30
0
41
1
10
43.820922721622
20
5.97530632230215
30
0
41
1
10
43.8265917568401
20
5.98356792734182
30
0
41
1
10
43.8367918332143
20
5.99461572984046
30
0
41
1
10
43.8404743829991
20
5.99805506926086
30
0
41
1
10
43.8482432619819
20
6.00418851645623
30
0
41
1
10
43.8523553931482
20
6.00691252700921
30
0
41
1
10
43.8610668960768
20
6.01163466553956
30
0
41
1
10
43.8656989975826
20
6.01363947062148
30
0
41
1
10
43.8752211919548
20
6.01681130219487
30
0
41
1
10
43.8801278634973
20
6.01799407058709
30
0
41
1
10
43.8851706618573
20
6.01880394970448
30
0
0
SPLINE
5
10B
100
AcDbEntity
8
1
62
256
6
ByLayer
370
18
48
1
60
0
100
AcDbSpline
70
4
71
3
72
56
73
52
40
0
40
0
40
0
40
0
40
0.124999999999973
40
0.124999999999973
40
0.187499999999959
40
0.187499999999959
40
0.249999999999946
40
0.249999999999946
40
0.312499999999933
40
0.312499999999933
40
0.374999999999919
40
0.374999999999919
40
0.40624999999992
40
0.40624999999992
40
0.43749999999992
40
0.43749999999992
40
0.499999999999933
40
0.499999999999933
40
0.53124999999994
40
0.53124999999994
40
0.562499999999947
40
0.562499999999947
40
0.593749999999954
40
0.593749999999954
40
0.609374999999957
40
0.609374999999957
40
0.62499999999996
40
0.656249999999968
40
0.656249999999968
40
0.671874999999973
40
0.671874999999973
40
0.687499999999977
40
0.718749999999985
40
0.718749999999985
40
0.734374999999994
40
0.734374999999994
40
0.750000000000003
40
0.750000000000003
40
0.78125000000002
40
0.78125000000002
40
0.796875000000022
40
0.796875000000022
40
0.812500000000024
40
0.812500000000024
40
0.875000000000015
40
0.875000000000015
40
0.937500000000007
40
0.937500000000007
40
0.968750000000004
40
0.968750000000004
40
1
40
1
40
1
40
1
41
1
10
43.5421339747403
20
7.25640524980145
30
0
41
1
10
43.6115688342789
20
7.21106454374163
30
0
41
1
10
43.6799459344481
20
7.16403767448392
30
0
41
1
10
43.7804263022937
20
7.09021074769527
30
0
41
1
10
43.8135695159675
20
7.06504989753716
30
0
41
1
10
43.8790202200253
20
7.01341886509545
30
0
41
1
10
43.9112542890092
20
6.98700470376517
30
0
41
1
10
43.9742591985957
20
6.93297675262477
30
0
41
1
10
44.0050714856173
20
6.90533383578082
30
0
41
1
10
44.0649885051087
20
6.84848226371972
30
0
41
1
10
44.0940974004629
20
6.81927751597652
30
0
41
1
10
44.136094706526
20
6.77393383112445
30
0
41
1
10
44.1498143273017
20
6.75856147817152
30
0
41
1
10
44.1765965889848
20
6.72720909830633
30
0
41
1
10
44.1896933904007
20
6.71118503733018
30
0
41
1
10
44.2275201208156
20
6.6623782152588
30
0
41
1
10
44.2507801828458
20
6.6289479481421
30
0
41
1
10
44.2815048446799
20
6.57686706808585
30
0
41
1
10
44.2910723402395
20
6.5591093170828
30
0
41
1
10
44.3081692587722
20
6.52343169440078
30
0
41
1
10
44.3157370312303
20
6.5054600109201
30
0
41
1
10
44.3285639382276
20
6.46919451222118
30
0
41
1
10
44.3338254764869
20
6.45090105684918
30
0
41
1
10
44.3396184419813
20
6.42316072866106
30
0
41
1
10
44.3412027783338
20
6.41381885980684
30
0
41
1
10
44.3435573671045
20
6.39527918712829
30
0
41
1
10
44.345877274676
20
6.36770763277565
30
0
41
1
10
44.3444547687063
20
6.34086479543402
30
0
41
1
10
44.34034598454
20
6.31453847102898
30
0
41
1
10
44.3385147557883
20
6.30580946494473
30
0
41
1
10
44.3340085486986
20
6.28883701731266
30
0
41
1
10
44.3259854334708
20
6.26403421108432
30
0
41
1
10
44.3143464786476
20
6.24110464379754
30
0
41
1
10
44.3004791992047
20
6.2193282125321
30
0
41
1
10
44.2954692316545
20
6.21224670945477
30
0
41
1
10
44.2849139080093
20
6.19867303252948
30
0
41
1
10
44.2793523523132
20
6.19215140736014
30
0
41
1
10
44.2618981388407
20
6.17330605866684
30
0
41
1
10
44.2492392764738
20
6.16169869061824
30
0
41
1
10
44.2289674977378
20
6.14549153960709
30
0
41
1
10
44.2219953934398
20
6.14029068960067
30
0
41
1
10
44.2076540362325
20
6.13026241070565
30
0
41
1
10
44.2002660237998
20
6.12542418618426
30
0
41
1
10
44.1627302789546
20
6.10229813052553
30
0
41
1
10
44.1307270763729
20
6.08703928824318
30
0
41
1
10
44.0640690328307
20
6.06095231141495
30
0
41
1
10
44.0293965910751
20
6.05015278046639
30
0
41
1
10
43.9758934652932
20
6.03651182284221
30
0
41
1
10
43.9578710957009
20
6.03241359870654
30
0
41
1
10
43.9216713698956
20
6.02503221685464
30
0
41
1
10
43.9034661154922
20
6.02174222023675
30
0
41
1
10
43.8851706615665
20
6.01880394965764
30
0
0
SPLINE
5
10C
100
AcDbEntity
8
1
62
256
6
ByLayer
370
13
48
1
60
0
100
AcDbSpline
70
4
71
3
72
13
73
9
40
0
40
0
40
0
40
0
40
0.0412446039275734
40
0.256033948888691
40
0.470823293849809
40
0.685612638810927
40
0.900401983772044
40
1
40
1
40
1
40
1
41
1
10
43.5421339747403
20
7.25640524980145
30
0
41
1
10
43.3135059831602
20
7.32697390691175
30
0
41
1
10
41.8942529915801
20
7.75195588574044
30
0
41
1
10
39.284375
20
8.37869884808123
30
0
41
1
10
35.7125
20
8.85016497388753
30
0
41
1
10
32.140625
20
8.90318093796276
30
0
41
1
10
29.2072810956545
20
8.60959647588103
30
0
41
1
10
27.4645621913089
20
8.29094375133181
30
0
41
1
10
26.9124682869633
20
8.17626267732785
30
0
0
SPLINE
5
10D
100
AcDbEntity
8
1
62
256
6
ByLayer
370
13
48
1
60
0
100
AcDbSpline
70
4
71
3
72
10
73
6
40
0
40
0
40
0
40
0
40
0.383453324451047
40
0.778635515942848
40
1
40
1
40
1
40
1
41
1
10
35.8185119809626
20
5.32809761435738
30
0
41
1
10
36.9737996539751
20
5.13485703452633
30
0
41
1
10
39.3197123269875
20
4.66300364678929
30
0
41
1
10
42.3325631730883
20
3.87433532044435
30
0
41
1
10
44.1901263461765
20
3.31797766552901
30
0
41
1
10
44.8570645192647
20
3.11064796798416
30
0
0
SPLINE
5
10E
100
AcDbEntity
8
1
62
256
6
ByLayer
370
18
48
1
60
0
100
AcDbSpline
70
4
71
3
72
8
73
4
40
0
40
0
40
0
40
0
40
1
40
1
40
1
40
1
41
1
10
49.9298041958062
20
-0.685573029543207
30
0
41
1
10
49.9481851932284
20
-0.443363510064501
30
0
41
1
10
49.9583919491183
20
-0.200477954752586
30
0
41
1
10
49.9604354418278
20
0.0430827284477857
30
0
0
SPLINE
5
10F
100
AcDbEntity
8
1
62
256
6
ByLayer
370
18
48
1
60
0
100
AcDbSpline
70
4
71
3
72
23
73
19
40
0
40
0
40
0
40
0
40
0.0625000000000001
40
0.0625000000000001
40
0.125
40
0.1875
40
0.1875
40
0.25
40
0.25
40
0.375000000000003
40
0.375000000000003
40
0.500000000000006
40
0.500000000000006
40
0.625000000000008
40
0.625000000000008
40
0.750000000000011
40
0.750000000000011
40
1
40
1
40
1
40
1
41
1
10
49.9298041958023
20
-0.685573029561141
30
0
41
1
10
49.9309780215684
20
-0.691491348042746
30
0
41
1
10
49.9320642570673
20
-0.697771688711384
30
0
41
1
10
49.933994405692
20
-0.710873157986583
30
0
41
1
10
49.9356953160784
20
-0.724577675270609
30
0
41
1
10
49.9368886817981
20
-0.739594598501554
30
0
41
1
10
49.9377976567261
20
-0.755334826447381
30
0
41
1
10
49.9381042477208
20
-0.763527774852122
30
0
41
1
10
49.9385530434047
20
-0.788354588655494
30
0
41
1
10
49.9382400679052
20
-0.805540780324833
30
0
41
1
10
49.9364674989733
20
-0.84081172833487
30
0
41
1
10
49.9350500148889
20
-0.858212973196004
30
0
41
1
10
49.9313997662199
20
-0.892663530862308
30
0
41
1
10
49.9291444252381
20
-0.90982119511736
30
0
41
1
10
49.9241267600755
20
-0.942885624941226
30
0
41
1
10
49.9213559178137
20
-0.958908486487672
30
0
41
1
10
49.9124459829224
20
-1.00584077625896
30
0
41
1
10
49.9056908113013
20
-1.03572711975258
30
0
41
1
10
49.8985143057306
20
-1.06425152796467
30
0
0
SPLINE
5
110
100
AcDbEntity
8
1
62
256
6
ByLayer
370
18
48
1
60
0
100
AcDbSpline
70
4
71
3
72
8
73
4
40
0
40
0
40
0
40
0
40
1
40
1
40
1
40
1
41
1
10
49.8910527685878
20
-1.09368084192846
30
0
41
1
10
49.8935560068664
20
-1.08388320201232
30
0
41
1
10
49.8960431944792
20
-1.07407343716128
30
0
41
1
10
49.8985143057305
20
-1.06425152796419
30
0
0
SPLINE
5
111
100
AcDbEntity
8
1
62
256
6
ByLayer
370
18
48
1
60
0
100
AcDbSpline
70
4
71
3
72
13
73
9
40
0
40
0
40
0
40
0
40
0.499999999999996
40
0.499999999999996
40
0.624999999999997
40
0.624999999999997
40
0.749999999999998
40
1
40
1
40
1
40
1
41
1
10
49.6105139288115
20
-2.60025680367377
30
0
41
1
10
49.6747220831369
20
-2.35291206981901
30
0
41
1
10
49.7303552299626
20
-2.10344949368374
30
0
41
1
10
49.7889738940042
20
-1.78892358455658
30
0
41
1
10
49.8001565366177
20
-1.72585920434372
30
0
41
1
10
49.8213845438307
20
-1.59967567409947
30
0
41
1
10
49.8515332268844
20
-1.41026033512875
30
0
41
1
10
49.8765949571133
20
-1.22042428894281
30
0
41
1
10
49.8910527685878
20
-1.09368084192846
30
0
0
SPLINE
5
112
100
AcDbEntity
8
1
62
256
6
ByLayer
370
18
48
1
60
0
100
AcDbSpline
70
4
71
3
72
48
73
44
40
0
40
0
40
0
40
0
40
0.124999999999977
40
0.124999999999977
40
0.249999999999954
40
0.249999999999954
40
0.312499999999948
40
0.312499999999948
40
0.374999999999941
40
0.374999999999941
40
0.437499999999935
40
0.437499999999935
40
0.499999999999928
40
0.499999999999928
40
0.531249999999925
40
0.531249999999925
40
0.562499999999922
40
0.562499999999922
40
0.624999999999926
40
0.624999999999926
40
0.656249999999923
40
0.656249999999923
40
0.687499999999919
40
0.687499999999919
40
0.718749999999916
40
0.718749999999916
40
0.734374999999919
40
0.734374999999919
40
0.749999999999923
40
0.781249999999929
40
0.781249999999929
40
0.796874999999933
40
0.796874999999933
40
0.812499999999936
40
0.843749999999942
40
0.843749999999942
40
0.859374999999948
40
0.859374999999948
40
0.874999999999953
40
0.874999999999953
40
0.937499999999976
40
0.937499999999976
40
1
40
1
40
1
40
1
41
1
10
49.6105139288115
20
-2.60025680367377
30
0
41
1
10
49.5953092964649
20
-2.65882858136519
30
0
41
1
10
49.5792752321911
20
-2.71679990710885
30
0
41
1
10
49.5453955427977
20
-2.83134493677753
30
0
41
1
10
49.5275525758909
20
-2.88792216166507
30
0
41
1
10
49.4992242321687
20
-2.9714841191597
30
0
41
1
10
49.4895197038969
20
-2.99911941953479
30
0
41
1
10
49.4695305948457
20
-3.05388183344456
30
0
41
1
10
49.459235229791
20
-3.0810379920475
30
0
41
1
10
49.4380290172885
20
-3.13461958862075
30
0
41
1
10
49.4272066538929
20
-3.16082338168613
30
0
41
1
10
49.4050934966578
20
-3.21182728936881
30
0
41
1
10
49.3938031541477
20
-3.23663043036814
30
0
41
1
10
49.3764790035533
20
-3.27251097559048
30
0
41
1
10
49.3706393218029
20
-3.2842491805232
30
0
41
1
10
49.3588201577575
20
-3.30721201239191
30
0
41
1
10
49.3528285448672
20
-3.31845892943261
30
0
41
1
10
49.3347035762221
20
-3.351141443063
30
0
41
1
10
49.3225803264146
20
-3.37125595443879
30
0
41
1
10
49.3044177676982
20
-3.39804109176461
30
0
41
1
10
49.2983296058501
20
-3.40644485870706
30
0
41
1
10
49.2864327460292
20
-3.42155783224649
30
0
41
1
10
49.2806160069952
20
-3.42828765621229
30
0
41
1
10
49.2692982143213
20
-3.43989154117679
30
0
41
1
10
49.2637968703994
20
-3.44476705546793
30
0
41
1
10
49.2558341686676
20
-3.45046993031468
30
0
41
1
10
49.2532172273951
20
-3.45210715736772
30
0
41
1
10
49.2481449938048
20
-3.45476642901102
30
0
41
1
10
49.2408196632464
20
-3.45781750245749
30
0
41
1
10
49.2343523600437
20
-3.45806040118987
30
0
41
1
10
49.2284800519518
20
-3.456392398144
30
0
41
1
10
49.2266139251192
20
-3.45551105307692
30
0
41
1
10
49.2231296117691
20
-3.45313071769499
30
0
41
1
10
49.2182799430555
20
-3.44864969498082
30
0
41
1
10
49.2144981061966
20
-3.44160035130301
30
0
41
1
10
49.2113679354808
20
-3.43298964953976
30
0
41
1
10
49.2104306269467
20
-3.42984496533572
30
0
41
1
10
49.2087855017616
20
-3.42313961976851
30
0
41
1
10
49.2080754815483
20
-3.41957794262544
30
0
41
1
10
49.2050366948093
20
-3.40081835787072
30
0
41
1
10
49.2042185603798
20
-3.38281251162852
30
0
41
1
10
49.2049640841435
20
-3.34228234976234
30
0
41
1
10
49.20652427061
20
-3.32016069265109
30
0
41
1
10
49.2089334855824
20
-3.29670270253371
30
0
0
SPLINE
5
113
100
AcDbEntity
8
1
62
256
6
ByLayer
370
18
48
1
60
0
100
AcDbSpline
70
4
71
3
72
31
73
27
40
0
40
0
40
0
40
0
40
0.0044748538679679
40
0.0089607762317466
40
0.017366914285708
40
0.034760069096972
40
0.0549819593587195
40
0.0605616862916804
40
0.0772197607500774
40
0.0849977235852221
40
0.25006104472733
40
0.429903534451185
40
0.511258327164876
40
0.640448833008307
40
0.688134439465415
40
0.720302467578683
40
0.728004747257659
40
0.730830193378267
40
0.732893648375065
40
0.736201213594327
40
0.739550896480953
40
0.742924449716389
40
0.764103118285987
40
0.781567972152475
40
0.8779961851219
40
1
40
1
40
1
40
1
41
1
10
40.4750002863912
20
-7.79423572659962
30
0
41
1
10
40.4780555663588
20
-7.79525021263183
30
0
41
1
10
40.4841825148622
20
-7.79728388687721
30
0
41
1
10
40.4960196879126
20
-7.80120983972958
30
0
41
1
10
40.51665597579
20
-7.80804613584351
30
0
41
1
10
40.5480587011363
20
-7.81842610961456
30
0
41
1
10
40.5773309273447
20
-7.82806792516297
30
0
41
1
10
40.6064040377481
20
-7.83762688496026
30
0
41
1
10
40.627131379498
20
-7.84436471902845
30
0
41
1
10
40.7575464246851
20
-7.88625721446183
30
0
41
1
10
40.9995839396026
20
-7.95730323463459
30
0
41
1
10
41.2899407021487
20
-8.0275178625721
30
0
41
1
10
41.5546413692296
20
-8.08189370666753
30
0
41
1
10
41.7292128765367
20
-8.11277807927274
30
0
41
1
10
41.8704105979018
20
-8.13455053588476
30
0
41
1
10
41.9293919528129
20
-8.14304912941043
30
0
41
1
10
41.9580593568726
20
-8.14703702074752
30
0
41
1
10
41.9665838268614
20
-8.14821851321426
30
0
41
1
10
41.9720765308423
20
-8.14896377409687
30
0
41
1
10
41.9784184840034
20
-8.14983431044041
30
0
41
1
10
41.9854141401873
20
-8.15077729943522
30
0
41
1
10
42.0049833919286
20
-8.15340209370632
30
0
41
1
10
42.0344951306267
20
-8.15723423977718
30
0
41
1
10
42.1286583486196
20
-8.16886574131215
30
0
41
1
10
42.2925170848617
20
-8.18596859871275
30
0
41
1
10
42.4427929149207
20
-8.19628313833695
30
0
41
1
10
42.5263536930303
20
-8.20037539756018
30
0
0
SPLINE
5
114
100
AcDbEntity
8
1
62
256
6
ByLayer
370
18
48
1
60
0
100
AcDbSpline
70
4
71
3
72
8
73
4
40
0
40
0
40
0
40
0
40
1
40
1
40
1
40
1
41
1
10
42.5263536930303
20
-8.20037539756018
30
0
41
1
10
42.5425945440816
20
-8.20059641422642
30
0
41
1
10
42.5587000048346
20
-8.20102570629811
30
0
41
1
10
42.574667954088
20
-8.20166726759823
30
0
0
SPLINE
5
115
100
AcDbEntity
8
1
62
256
6
ByLayer
370
18
48
1
60
0
100
AcDbSpline
70
4
71
3
72
50
73
46
40
0
40
0
40
0
40
0
40
0.0312499999999984
40
0.0312499999999984
40
0.0468749999999976
40
0.0468749999999976
40
0.0624999999999968
40
0.0624999999999968
40
0.124999999999998
40
0.124999999999998
40
0.187499999999999
40
0.187499999999999
40
0.250000000000001
40
0.250000000000001
40
0.312500000000002
40
0.312500000000002
40
0.328125000000001
40
0.328125000000001
40
0.34375
40
0.375000000000001
40
0.375000000000001
40
0.437500000000003
40
0.437500000000003
40
0.500000000000004
40
0.500000000000004
40
0.562500000000006
40
0.562500000000006
40
0.593750000000005
40
0.593750000000005
40
0.625000000000005
40
0.625000000000005
40
0.687500000000003
40
0.687500000000003
40
0.750000000000002
40
0.750000000000002
40
0.812500000000001
40
0.812500000000001
40
0.843750000000002
40
0.859375000000002
40
0.859375000000002
40
0.875000000000003
40
0.875000000000003
40
0.937500000000001
40
0.937500000000001
40
1
40
1
40
1
40
1
41
1
10
49.5218950459403
20
-2.96105340606249
30
0
41
1
10
49.4886578290549
20
-3.06055172321229
30
0
41
1
10
49.4537103714109
20
-3.15936145571524
30
0
41
1
10
49.3986969953476
20
-3.30652708135346
30
0
41
1
10
49.3799122617829
20
-3.3554452782916
30
0
41
1
10
49.3415503597836
20
-3.45274000074045
30
0
41
1
10
49.3219857962593
20
-3.50108689488721
30
0
41
1
10
49.2222647873886
20
-3.74133376242043
30
0
41
1
10
49.1364341736189
20
-3.92878220007688
30
0
41
1
10
48.9529164016567
20
-4.29441620191918
30
0
41
1
10
48.8552230421959
20
-4.47259836404751
30
0
41
1
10
48.6481296438558
20
-4.8198819671436
30
0
41
1
10
48.5387304362824
20
-4.98899049146945
30
0
41
1
10
48.3080806405549
20
-5.31801403483246
30
0
41
1
10
48.1868256519761
20
-5.47792630287785
30
0
41
1
10
48.0276211716883
20
-5.6718803252576
30
0
41
1
10
47.9953975664159
20
-5.71037239451945
30
0
41
1
10
47.9304672983866
20
-5.78642693318864
30
0
41
1
10
47.8322435491291
20
-5.89924246332936
30
0
41
1
10
47.7315584424388
20
-6.00829131602273
30
0
41
1
10
47.5269476331586
20
-6.22142300929227
30
0
41
1
10
47.3862260154844
20
-6.35688958908054
30
0
41
1
10
47.096260426638
20
-6.61477820593601
30
0
41
1
10
46.9470153330598
20
-6.73720956386944
30
0
41
1
10
46.6399809812539
20
-6.96903242628272
30
0
41
1
10
46.4821926457846
20
-7.07841856052463
30
0
41
1
10
46.238958372757
20
-7.2324797178141
30
0
41
1
10
46.156761164476
20
-7.28217837170484
30
0
41
1
10
45.9902489256973
20
-7.37811819336559
30
0
41
1
10
45.9064284291349
20
-7.42407616371079
30
0
41
1
10
45.6533023002372
20
-7.55601862751487
30
0
41
1
10
45.4823339561296
20
-7.63608087636084
30
0
41
1
10
45.1360573274007
20
-7.78071682916419
30
0
41
1
10
44.9607480602228
20
-7.84528857833902
30
0
41
1
10
44.6058200804387
20
-7.95895469808374
30
0
41
1
10
44.4262073686967
20
-8.00805161748923
30
0
41
1
10
44.1535082151455
20
-8.06986516672197
30
0
41
1
10
44.0163373198385
20
-8.09781498266301
30
0
41
1
10
43.8779180599897
20
-8.12128294063518
30
0
41
1
10
43.785359079527
20
-8.13592601049231
30
0
41
1
10
43.7389006285372
20
-8.14275103734192
30
0
41
1
10
43.5066385967327
20
-8.17425139305857
30
0
41
1
10
43.3206035975341
20
-8.19113093731366
30
0
41
1
10
42.9480291363285
20
-8.20859070031176
30
0
41
1
10
42.7614894638785
20
-8.20917339432881
30
0
41
1
10
42.5746679540926
20
-8.20166726759842
30
0
0
SPLINE
5
116
100
AcDbEntity
8
1
62
256
6
ByLayer
370
18
48
1
60
0
100
AcDbSpline
70
4
71
3
72
8
73
4
40
0
40
0
40
0
40
0
40
1
40
1
40
1
40
1
41
1
10
49.9986945705869
20
-0.0412471278144437
30
0
41
1
10
49.9931239081374
20
-0.269803131639321
30
0
41
1
10
49.9803818580221
20
-0.497680899223951
30
0
41
1
10
49.96043810656
20
-0.724877563642366
30
0
0
SPLINE
5
117
100
AcDbEntity
8
1
62
256
6
ByLayer
370
18
48
1
60
0
100
AcDbSpline
70
4
71
3
72
14
73
10
40
0
40
0
40
0
40
0
40
0.339841042016502
40
0.339841042016502
40
0.603232868489525
40
0.603232868489525
40
0.866624694962548
40
0.866624694962548
40
1
40
1
40
1
40
1
41
1
10
49.9277007591805
20
-1.04348508179319
30
0
41
1
10
49.9090470314155
20
-1.20185856481305
30
0
41
1
10
49.8868635564379
20
-1.35989822088197
30
0
41
1
10
49.8411472603141
20
-1.63982602062893
30
0
41
1
10
49.8190768641643
20
-1.76164091482383
30
0
41
1
10
49.770812180941
20
-2.00419639806978
30
0
41
1
10
49.7446059686916
20
-2.12497793635592
30
0
41
1
10
49.702009494571
20
-2.30617382918442
30
0
41
1
10
49.687159707161
20
-2.36695676436722
30
0
41
1
10
49.6717802977778
20
-2.42761297988602
30
0
0
SPLINE
5
118
100
AcDbEntity
8
1
62
256
6
ByLayer
370
18
48
1
60
0
100
AcDbSpline
70
4
71
3
72
8
73
4
40
0
40
0
40
0
40
0
40
1
40
1
40
1
40
1
41
1
10
49.6142050328087
20
-2.64515070139993
30
0
41
1
10
49.5850529269821
20
-2.7508387063254
30
0
41
1
10
49.5542808865696
20
-2.8561391186343
30
0
41
1
10
49.5218950459402
20
-2.96105340606249
30
0
0
SPLINE
5
119
100
AcDbEntity
8
1
62
256
6
ByLayer
370
18
48
1
60
0
100
AcDbSpline
70
4
71
3
72
8
73
4
40
0
40
0
40
0
40
0
40
1
40
1
40
1
40
1
41
1
10
49.9986945705868
20
-0.0412471278144437
30
0
41
1
10
49.9923167551561
20
-0.0604543341894725
30
0
41
1
10
49.9859162626078
20
-0.0796590447958465
30
0
41
1
10
49.9794925399062
20
-0.0988611987682759
30
0
0
SPLINE
5
11A
100
AcDbEntity
8
1
62
256
6
ByLayer
370
18
48
1
60
0
100
AcDbSpline
70
4
71
3
72
8
73
4
40
0
40
0
40
0
40
0
40
1
40
1
40
1
40
1
41
1
10
49.9792785411398
20
0.0427496530116684
30
0
41
1
10
49.9796550884449
20
-0.0044527912520778
30
0
41
1
10
49.979726352994
20
-0.0516564279949421
30
0
41
1
10
49.9794925399062
20
-0.0988611987682759
30
0
0
SPLINE
5
11B
100
AcDbEntity
8
1
62
256
6
ByLayer
370
18
48
1
60
0
100
AcDbSpline
70
4
71
3
72
26
73
22
40
0
40
0
40
0
40
0
40
0.249999999999939
40
0.249999999999939
40
0.374999999999922
40
0.374999999999922
40
0.437499999999929
40
0.437499999999929
40
0.499999999999935
40
0.499999999999935
40
0.624999999999946
40
0.624999999999946
40
0.687499999999948
40
0.687499999999948
40
0.749999999999949
40
0.749999999999949
40
0.874999999999962
40
0.874999999999962
40
0.937499999999981
40
0.937499999999981
40
1
40
1
40
1
40
1
41
1
10
45.0964964755551
20
-3.14490720158264
30
0
41
1
10
45.1153137601163
20
-3.1754780991948
30
0
41
1
10
45.1323000403741
20
-3.20739530589245
30
0
41
1
10
45.1539349583702
20
-3.2580979091918
30
0
41
1
10
45.1604995464834
20
-3.27547454273179
30
0
41
1
10
45.1691305600795
20
-3.3024335005571
30
0
41
1
10
45.1718039066504
20
-3.31156956607268
30
0
41
1
10
45.176685227768
20
-3.33018387725062
30
0
41
1
10
45.17890083752
20
-3.33970357079326
30
0
41
1
10
45.1846658839953
20
-3.36847973473365
30
0
41
1
10
45.1873511121978
20
-3.38794883888863
30
0
41
1
10
45.1892867773906
20
-3.41766733937686
30
0
41
1
10
45.1895818861588
20
-3.42765966222376
30
0
41
1
10
45.1893894796576
20
-3.44783689653158
30
0
41
1
10
45.188894338127
20
-3.4580665567579
30
0
41
1
10
45.1861618490331
20
-3.48840108085466
30
0
41
1
10
45.1826926985347
20
-3.50832624341058
30
0
41
1
10
45.1748482411424
20
-3.53773656361256
30
0
41
1
10
45.1717747511684
20
-3.54750272158563
30
0
41
1
10
45.1648239686666
20
-3.56656761874362
30
0
41
1
10
45.1609464058391
20
-3.5758849797696
30
0
41
1
10
45.1566793241667
20
-3.58499401814274
30
0
0
SPLINE
5
11C
100
AcDbEntity
8
1
62
256
6
ByLayer
370
18
48
1
60
0
100
AcDbSpline
70
4
71
3
72
8
73
4
40
0
40
0
40
0
40
0
40
1
40
1
40
1
40
1
41
1
10
21.56243529947
20
-9.07270883652848
30
0
41
1
10
21.5165671680898
20
-9.07539022834482
30
0
41
1
10
21.470755041537
20
-9.07794316800835
30
0
41
1
10
21.425
20
-9.08036491032587
30
0
0
SPLINE
5
11D
100
AcDbEntity
8
1
62
256
6
ByLayer
370
18
48
1
60
0
100
AcDbSpline
70
4
71
3
72
43
73
39
40
0
40
0
40
0
40
0
40
0.0188479326603359
40
0.0379882840037985
40
0.0574213627705383
40
0.0771474675630739
40
0.0971668873371093
40
0.117479901847443
40
0.138086782052411
40
0.158987790480055
40
0.180183181558866
40
0.201673201915673
40
0.223458090643149
40
0.245538079538956
40
0.267913393318611
40
0.292598426570534
40
0.317938185058433
40
0.343933128269571
40
0.370583688794171
40
0.397890274068442
40
0.425853267812503
40
0.454473031201643
40
0.483749903803371
40
0.513684204307934
40
0.544276231075744
40
0.57552626252193
40
0.607434557355234
40
0.640001354686195
40
0.673226874017417
40
0.707111315127134
40
0.741654857855749
40
0.776857661803792
40
0.812719865948725
40
0.849241588187095
40
0.88642292480775
40
0.924263949901193
40
0.962764714709541
40
1
40
1
40
1
40
1
41
1
10
21.5641523179705
20
-9.07391472453466
30
0
41
1
10
21.5625511316453
20
-9.06456280480521
30
0
41
1
10
21.5593239171831
20
-9.04571387378098
30
0
41
1
10
21.5546362443874
20
-9.01699343457423
30
0
41
1
10
21.5500122791472
20
-8.98766536004243
30
0
41
1
10
21.5454663362139
20
-8.95770788522245
30
0
41
1
10
21.540994493353
20
-8.9271207596118
30
0
41
1
10
21.5365978273759
20
-8.89589779005414
30
0
41
1
10
21.532276041492
20
-8.86403436882608
30
0
41
1
10
21.5280292300112
20
-8.83152540693482
30
0
41
1
10
21.523857323169
20
-8.79836592627251
30
0
41
1
10
21.5197605130196
20
-8.76455080781358
30
0
41
1
10
21.5157380933634
20
-8.73007521233927
30
0
41
1
10
21.5117927518609
20
-8.69493313568236
30
0
41
1
10
21.5077978829583
20
-8.65804836093048
30
0
41
1
10
21.5037892859195
20
-8.61918726630637
30
0
41
1
10
21.4998015763313
20
-8.57811242848479
30
0
41
1
10
21.4959149323115
20
-8.53570264635752
30
0
41
1
10
21.4921325635984
20
-8.4919430429135
30
0
41
1
10
21.4884535873752
20
-8.44681989884162
30
0
41
1
10
21.4848782586289
20
-8.40031892646249
30
0
41
1
10
21.4814065152351
20
-8.3524257633448
30
0
41
1
10
21.4780383824165
20
-8.30312584904544
30
0
41
1
10
21.4747738604974
20
-8.25240447376498
30
0
41
1
10
21.4716129561142
20
-8.20024677977133
30
0
41
1
10
21.4685556736185
20
-8.14663777643483
30
0
41
1
10
21.4656020175109
20
-8.09156235200456
30
0
41
1
10
21.4627519918114
20
-8.0350052868092
30
0
41
1
10
21.4600056002746
20
-7.97695126659164
30
0
41
1
10
21.4573628463658
20
-7.91738489634173
30
0
41
1
10
21.4548237333001
20
-7.85629071453272
30
0
41
1
10
21.4523882640602
20
-7.79365320779343
30
0
41
1
10
21.450056441417
20
-7.72945682601369
30
0
41
1
10
21.4478282679479
20
-7.66368599788873
30
0
41
1
10
21.4457037460517
20
-7.59632514690628
30
0
41
1
10
21.4436828779641
20
-7.52735870778005
30
0
41
1
10
21.4417976227626
20
-7.45794772999002
30
0
41
1
10
21.4406263095797
20
-7.41139429091342
30
0
41
1
10
21.4400702113884
20
-7.3884425008408
30
0
0
SPLINE
5
11E
100
AcDbEntity
8
1
62
256
6
ByLayer
370
18
48
1
60
0
100
AcDbSpline
70
4
71
3
72
10
73
6
40
0
40
0
40
0
40
0
40
0.5
40
0.5
40
1
40
1
40
1
40
1
41
1
10
21.425
20
-9.08036491032587
30
0
41
1
10
21.2294556493184
20
-9.13931359024323
30
0
41
1
10
21.0345189987458
20
-9.20438634327223
30
0
41
1
10
20.6455285035737
20
-9.34622311926441
30
0
41
1
10
20.4514755973086
20
-9.42298891980303
30
0
41
1
10
20.2576672404609
20
-9.5054110166806
30
0
0
SPLINE
5
11F
100
AcDbEntity
8
1
62
256
6
ByLayer
370
18
48
1
60
0
100
AcDbSpline
70
4
71
3
72
36
73
32
40
0
40
0
40
0
40
0
40
0.125000000000006
40
0.125000000000006
40
0.156250000000006
40
0.156250000000006
40
0.187500000000006
40
0.187500000000006
40
0.250000000000011
40
0.250000000000011
40
0.375000000000021
40
0.375000000000021
40
0.437500000000027
40
0.437500000000027
40
0.468750000000032
40
0.468750000000032
40
0.484375000000034
40
0.484375000000034
40
0.500000000000037
40
0.500000000000037
40
0.625000000000048
40
0.625000000000048
40
0.750000000000059
40
0.750000000000059
40
0.765625000000057
40
0.765625000000057
40
0.781250000000055
40
0.812500000000048
40
0.875000000000033
40
0.875000000000033
40
1
40
1
40
1
40
1
41
1
10
44.1740854572405
20
-6.28012720811125
30
0
41
1
10
44.3901216949609
20
-6.30167452009059
30
0
41
1
10
44.6082750993082
20
-6.30435297244935
30
0
41
1
10
44.8837510757925
20
-6.28288717796141
30
0
41
1
10
44.938986170906
20
-6.27734718758273
30
0
41
1
10
45.0497425335862
20
-6.26371674727386
30
0
41
1
10
45.1053594395412
20
-6.25560630711877
30
0
41
1
10
45.2713020713147
20
-6.22759604616891
30
0
41
1
10
45.3810632990932
20
-6.20399704366287
30
0
41
1
10
45.7077782611679
20
-6.11861018317546
30
0
41
1
10
45.9221781743614
20
-6.04231710231832
30
0
41
1
10
46.2385521159528
20
-5.89819519311556
30
0
41
1
10
46.3431353708046
20
-5.84518627960534
30
0
41
1
10
46.4986523300538
20
-5.75796016228955
30
0
41
1
10
46.5502647864874
20
-5.72759814221388
30
0
41
1
10
46.6273357763055
20
-5.6800802709368
30
0
41
1
10
46.6529751293764
20
-5.66390615344466
30
0
41
1
10
46.7038961453208
20
-5.63104943012607
30
0
41
1
10
46.7292078894865
20
-5.61434864481444
30
0
41
1
10
46.9556839272735
20
-5.46160663828792
30
0
41
1
10
47.1475985717716
20
-5.3086270013699
30
0
41
1
10
47.5129097514646
20
-4.96875644838963
30
0
41
1
10
47.6863133642801
20
-4.78187849321654
30
0
41
1
10
47.8705100202547
20
-4.55171238819096
30
0
41
1
10
47.8908266203879
20
-4.52585536958816
30
0
41
1
10
47.9309665815788
20
-4.47382312070795
30
0
41
1
10
47.9905084054708
20
-4.39520889799391
30
0
41
1
10
48.1248001365355
20
-4.20784663921015
30
0
41
1
10
48.2320730571658
20
-4.04061532923382
30
0
41
1
10
48.4364189187197
20
-3.69751403580477
30
0
41
1
10
48.5590672175587
20
-3.45727659736079
30
0
41
1
10
48.6679494126322
20
-3.20538022636072
30
0
0
SPLINE
5
120
100
AcDbEntity
8
1
62
256
6
ByLayer
370
18
48
1
60
0
100
AcDbSpline
70
4
71
3
72
43
73
39
40
0
40
0
40
0
40
0
40
0.0008507130292257
40
0.001703530286629
40
0.003301618487713
40
0.0066082255532975
40
0.0104526026053356
40
0.0115133626974963
40
0.0146802238736814
40
0.0161588898860076
40
0.0475390247654993
40
0.0817288226294326
40
0.0971951560994275
40
0.121755521603199
40
0.130821016905733
40
0.136936470381509
40
0.138400748293364
40
0.138937892946373
40
0.139330175711977
40
0.139958975871728
40
0.140595783007671
40
0.141237128127948
40
0.145263397996284
40
0.148583635746191
40
0.166915572291705
40
0.20872252088487
40
0.275419594798873
40
0.316036740251626
40
0.400086201344275
40
0.443180168552311
40
0.530634474774729
40
0.618872672988985
40
0.706731701224614
40
0.750130821539283
40
0.835085004138499
40
0.876342463306655
40
0.955708692588676
40
1
40
1
40
1
40
1
41
1
10
40.4750000583144
20
-7.22376046092626
30
0
41
1
10
40.4780055903612
20
-7.22487320741846
30
0
41
1
10
40.4840290935152
20
-7.22710398392081
30
0
41
1
10
40.4956550038936
20
-7.23141129292532
30
0
41
1
10
40.5159667949159
20
-7.23891306475693
30
0
41
1
10
40.5467879620972
20
-7.25030928807328
30
0
41
1
10
40.5756556799402
20
-7.26090126592504
30
0
41
1
10
40.6040933224269
20
-7.27140781422514
30
0
41
1
10
40.6241964626941
20
-7.27882570657965
30
0
41
1
10
40.7509836270257
20
-7.32501053144335
30
0
41
1
10
40.9860264982534
20
-7.40422081573541
30
0
41
1
10
41.267464424576
20
-7.48480346049007
30
0
41
1
10
41.5236828206987
20
-7.54898392975406
30
0
41
1
10
41.6924724858053
20
-7.58660382927005
30
0
41
1
10
41.8288305485864
20
-7.61410726643945
30
0
41
1
10
41.885803754123
20
-7.62492585264826
30
0
41
1
10
41.9135185741177
20
-7.62995388195242
30
0
41
1
10
41.9217475285264
20
-7.63142059107716
30
0
41
1
10
41.9269963503583
20
-7.63241800886976
30
0
41
1
10
41.932888522275
20
-7.63363075555722
30
0
41
1
10
41.9394777486238
20
-7.63491970750127
30
0
41
1
10
41.9578698309221
20
-7.63849555385514
30
0
41
1
10
41.9855889036996
20
-7.64373609433665
30
0
41
1
10
42.0742090960765
20
-7.65958728372183
30
0
41
1
10
42.2925410946261
20
-7.69455354161488
30
0
41
1
10
42.7238223731615
20
-7.74105083495581
30
0
41
1
10
43.2239418398378
20
-7.74905832300632
30
0
41
1
10
43.8561184324406
20
-7.70301934980827
30
0
41
1
10
44.4003886051791
20
-7.60658808718463
30
0
41
1
10
45.0820243793543
20
-7.41161081389922
30
0
41
1
10
45.7607635466971
20
-7.13756854367779
30
0
41
1
10
46.5416745130398
20
-6.6864323906062
30
0
41
1
10
47.1525812272323
20
-6.21019090486766
30
0
41
1
10
47.718496073131
20
-5.66710978546689
30
0
41
1
10
48.1322283231708
20
-5.18407476058016
30
0
41
1
10
48.5902730047975
20
-4.5295587694113
30
0
41
1
10
48.9214208330782
20
-3.95083081206767
30
0
41
1
10
49.1366367171671
20
-3.47340696760401
30
0
41
1
10
49.2089334855824
20
-3.29670270253371
30
0
0
SPLINE
5
121
100
AcDbEntity
8
1
62
256
6
ByLayer
370
18
48
1
60
0
100
AcDbSpline
70
4
71
3
72
10
73
6
40
0
40
0
40
0
40
0
40
0.5
40
0.5
40
1
40
1
40
1
40
1
41
1
10
49.2089334855824
20
-3.29670270253371
30
0
41
1
10
49.2098562032143
20
-3.25881992333004
30
0
41
1
10
49.2119914202449
20
-3.22000354156563
30
0
41
1
10
49.2179426070506
20
-3.14095649035596
30
0
41
1
10
49.2217670064279
20
-3.10072011478084
30
0
41
1
10
49.2262232752971
20
-3.059893828892
30
0
0
SPLINE
5
122
100
AcDbEntity
8
1
62
256
6
ByLayer
370
18
48
1
60
0
100
AcDbSpline
70
4
71
3
72
8
73
4
40
0
40
0
40
0
40
0
40
1
40
1
40
1
40
1
41
1
10
49.2868245278996
20
-2.44416323732338
30
0
41
1
10
49.2688503225536
20
-2.65076992327346
30
0
41
1
10
49.2484880352924
20
-2.85591433763929
30
0
41
1
10
49.2262232752971
20
-3.05989382889203
30
0
0
SPLINE
5
123
100
AcDbEntity
8
1
62
256
6
ByLayer
370
18
48
1
60
0
100
AcDbSpline
70
4
71
3
72
12
73
8
40
0
40
0
40
0
40
0
40
0.25
40
0.25
40
0.5
40
0.5
40
1
40
1
40
1
40
1
41
1
10
48.6679494126322
20
-3.20538022636072
30
0
41
1
10
48.7230110927402
20
-3.14720196720043
30
0
41
1
10
48.7772292929077
20
-3.08767028727456
30
0
41
1
10
48.8839817785718
20
-2.96590497213748
30
0
41
1
10
48.9365087646516
20
-2.90367724331699
30
0
41
1
10
49.0913032785176
20
-2.71326366640113
30
0
41
1
10
49.1908838436974
20
-2.58124424263633
30
0
41
1
10
49.2868245278997
20
-2.44416323732335
30
0
0
SPLINE
5
124
100
AcDbEntity
8
1
62
256
6
ByLayer
370
13
48
1
60
0
100
AcDbSpline
70
4
71
3
72
10
73
6
40
0
40
0
40
0
40
0
40
0.111431592734362
40
0.407621061822908
40
1
40
1
40
1
40
1
41
1
10
33.4844260524913
20
-4.86015144294976
30
0
41
1
10
33.0364923683276
20
-4.75932008650159
30
0
41
1
10
31.3979336841637
20
-4.37092123003842
30
0
41
1
10
27.378125
20
-3.25462975630401
30
0
41
1
10
23.80625
20
-2.00756384857027
30
0
41
1
10
21.425
20
-1.14119194646364
30
0
0
SPLINE
5
125
100
AcDbEntity
8
1
62
256
6
ByLayer
370
18
48
1
60
0
100
AcDbSpline
70
4
71
3
72
51
73
47
40
0
40
0
40
0
40
0
40
0.0412481640051663
40
0.0412481640051663
40
0.0824963280103325
40
0.0824963280103325
40
0.164992656020678
40
0.164992656020678
40
0.329985312041382
40
0.329985312041382
40
0.412481640051734
40
0.412481640051734
40
0.45372980405691
40
0.45372980405691
40
0.474353886059498
40
0.474353886059498
40
0.494977968062086
40
0.494977968062086
40
0.505290009063387
40
0.505290009063387
40
0.510446029564044
40
0.510446029564044
40
0.513024039814373
40
0.513024039814373
40
0.515602050064701
40
0.515602050064701
40
0.520758070565372
40
0.520758070565372
40
0.525914091066044
40
0.525914091066044
40
0.5362261320674
40
0.5362261320674
40
0.5568502140701
40
0.5568502140701
40
0.5774742960728
40
0.5774742960728
40
0.659970624083572
40
0.659970624083572
40
0.701218788088958
40
0.701218788088958
40
0.742466952094344
40
0.742466952094344
40
0.824963280105102
40
0.989955936126604
40
0.989955936126604
40
1
40
1
40
1
40
1
41
1
10
40.4750000101325
20
-8.86742820812566
30
0
41
1
10
40.5097785359896
20
-8.86283821862804
30
0
41
1
10
40.544544333107
20
-8.85821203937206
30
0
41
1
10
40.6140757026831
20
-8.84880902148285
30
0
41
1
10
40.648913447952
20
-8.84380812821362
30
0
41
1
10
40.7536317845698
20
-8.82798431283609
30
0
41
1
10
40.8237227564181
20
-8.81632464147319
30
0
41
1
10
41.0348357797322
20
-8.77831116143497
30
0
41
1
10
41.1766967236163
20
-8.74893361451737
30
0
41
1
10
41.3912348807568
20
-8.69966337764447
30
0
41
1
10
41.4630316749385
20
-8.68239128883002
30
0
41
1
10
41.5710820568927
20
-8.65550055826793
30
0
41
1
10
41.6071574914916
20
-8.64637432953569
30
0
41
1
10
41.6613479186719
20
-8.63247871002886
30
0
41
1
10
41.6794253462836
20
-8.62780954070391
30
0
41
1
10
41.7156356779956
20
-8.61832750642802
30
0
41
1
10
41.7337637863481
20
-8.61352689533237
30
0
41
1
10
41.7610429955335
20
-8.60610464710771
30
0
41
1
10
41.7701515036242
20
-8.60359132562309
30
0
41
1
10
41.7838475230662
20
-8.59973744360238
30
0
41
1
10
41.788421614354
20
-8.59843065309292
30
0
41
1
10
41.7952867089382
20
-8.59646073851073
30
0
41
1
10
41.7975698044031
20
-8.59581760767364
30
0
41
1
10
41.8020853906927
20
-8.59466022789479
30
0
41
1
10
41.8043232497255
20
-8.59413225756566
30
0
41
1
10
41.8110889178541
20
-8.59241564543029
30
0
41
1
10
41.815621485618
20
-8.59121489863142
30
0
41
1
10
41.8246813033158
20
-8.58882699346972
30
0
41
1
10
41.8292152469054
20
-8.58762279526022
30
0
41
1
10
41.8428321211568
20
-8.58397220549239
30
0
41
1
10
41.8519327106339
20
-8.58148120367949
30
0
41
1
10
41.8792980410282
20
-8.5738495242617
30
0
41
1
10
41.8975850302042
20
-8.56865470252689
30
0
41
1
10
41.9341654154941
20
-8.55825579282009
30
0
41
1
10
41.9524708377266
20
-8.55302130680349
30
0
41
1
10
42.0440829599643
20
-8.52665552777148
30
0
41
1
10
42.117658503478
20
-8.50490931460251
30
0
41
1
10
42.2285222037453
20
-8.47122158184064
30
0
41
1
10
42.2655587038073
20
-8.45981796278107
30
0
41
1
10
42.3398019249101
20
-8.43666151712657
30
0
41
1
10
42.3770516083111
20
-8.42489495895398
30
0
41
1
10
42.4887180514053
20
-8.38918384583388
30
0
41
1
10
42.7115031384606
20
-8.31618663442839
30
0
41
1
10
42.9327330818424
20
-8.23869057368054
30
0
41
1
10
43.0885421040666
20
-8.18195928667799
30
0
41
1
10
43.0974805540872
20
-8.17869721680307
30
0
41
1
10
43.1064167362289
20
-8.17542849286207
30
0
0
SPLINE
5
126
100
AcDbEntity
8
1
62
256
6
ByLayer
370
18
48
1
60
0
100
AcDbSpline
70
4
71
3
72
13
73
9
40
0
40
0
40
0
40
0
40
0.279217494524754
40
0.418826241787132
40
0.558434989049509
40
0.698043736311886
40
0.837652483574263
40
1
40
1
40
1
40
1
41
1
10
21.425
20
-6.76976919946904
30
0
41
1
10
23.0125000000001
20
-7.39636760186511
30
0
41
1
10
25.39375
20
-8.19295308731375
30
0
41
1
10
28.56875
20
-8.90915091597628
30
0
41
1
10
30.95
20
-9.25834971595881
30
0
41
1
10
33.33125
20
-9.4164552070591
30
0
41
1
10
35.8417819997123
20
-9.37808098831863
30
0
41
1
10
37.5585639994247
20
-9.19760869499831
30
0
41
1
10
38.4815959991371
20
-9.05832421324834
30
0
0
SPLINE
5
127
100
AcDbEntity
8
1
62
256
6
ByLayer
370
18
48
1
60
0
100
AcDbSpline
70
4
71
3
72
34
73
30
40
0
40
0
40
0
40
0
40
0.125000000000003
40
0.125000000000003
40
0.156250000000005
40
0.156250000000005
40
0.187500000000006
40
0.187500000000006
40
0.250000000000009
40
0.250000000000009
40
0.375000000000016
40
0.375000000000016
40
0.437500000000018
40
0.437500000000018
40
0.468750000000019
40
0.468750000000019
40
0.500000000000019
40
0.500000000000019
40
0.625000000000018
40
0.625000000000018
40
0.687500000000016
40
0.687500000000016
40
0.718750000000015
40
0.718750000000015
40
0.750000000000013
40
0.750000000000013
40
0.875000000000006
40
0.875000000000006
40
1
40
1
40
1
40
1
41
1
10
40.475
20
-8.8674282402803
30
0
41
1
10
39.6852661497818
20
-8.96868965970299
30
0
41
1
10
38.8967526375837
20
-9.03954356175558
30
0
41
1
10
37.910296666868
20
-9.08947655965665
30
0
41
1
10
37.7129660046122
20
-9.09752857123144
30
0
41
1
10
37.3181688972992
20
-9.10973569124849
30
0
41
1
10
37.1206600671021
20
-9.11388991029293
30
0
41
1
10
36.528712402551
20
-9.12045663194178
30
0
41
1
10
36.1345896791356
20
-9.11698698948527
30
0
41
1
10
34.953083355531
20
-9.08288233138484
30
0
41
1
10
34.1665604233741
20
-9.02856801525058
30
0
41
1
10
32.9855447439815
20
-8.90140348743057
30
0
41
1
10
32.5916685981298
20
-8.85138914328886
30
0
41
1
10
32.0001718984601
20
-8.7650786931591
30
0
41
1
10
31.8028923102669
20
-8.73442686230302
30
0
41
1
10
31.4080476049594
20
-8.66937436728108
30
0
41
1
10
31.2106748419662
20
-8.63500472116505
30
0
41
1
10
30.2244540671686
20
-8.45412472720588
30
0
41
1
10
29.4369858214888
20
-8.28047237044032
30
0
41
1
10
28.2554096723921
20
-7.9777538327846
30
0
41
1
10
27.8614893565886
20
-7.86978535109157
30
0
41
1
10
27.2701507915468
20
-7.69767148125098
30
0
41
1
10
27.0729615702462
20
-7.63860641513185
30
0
41
1
10
26.6783692063917
20
-7.5171555629251
30
0
41
1
10
26.4808918931279
20
-7.45474492276304
30
0
41
1
10
25.4943202322591
20
-7.13504259712659
30
0
41
1
10
24.706895781738
20
-6.85461436700223
30
0
41
1
10
23.1317021283894
20
-6.24957531479345
30
0
41
1
10
22.3439363872482
20
-5.92496232657388
30
0
41
1
10
21.5540237111999
20
-5.58044864092321
30
0
0
SPLINE
5
128
100
AcDbEntity
8
1
62
256
6
ByLayer
370
18
48
1
60
0
100
AcDbSpline
70
4
71
3
72
18
73
14
40
0
40
0
40
0
40
0
40
0.125
40
0.125
40
0.249999999999999
40
0.249999999999999
40
0.374999999999999
40
0.374999999999999
40
0.499999999999998
40
0.499999999999998
40
0.749999999999999
40
0.749999999999999
40
1
40
1
40
1
40
1
41
1
10
48.3397592819949
20
-1.96838527604623
30
0
41
1
10
48.3405411800123
20
-1.97489976212418
30
0
41
1
10
48.3409090352141
20
-1.98141868458561
30
0
41
1
10
48.340905938481
20
-1.99398860644024
30
0
41
1
10
48.3405454360792
20
-2.00010498867712
30
0
41
1
10
48.3392293232291
20
-2.01205826740812
30
0
41
1
10
48.3382663355086
20
-2.01792453396806
30
0
41
1
10
48.3358688069997
20
-2.02926282772987
30
0
41
1
10
48.3344409187984
20
-2.0347234838631
30
0
41
1
10
48.3296098576745
20
-2.05060735020339
30
0
41
1
10
48.3256664244495
20
-2.06053895193406
30
0
41
1
10
48.3167759080951
20
-2.07948888673937
30
0
41
1
10
48.3118208417963
20
-2.08850095670422
30
0
41
1
10
48.306539256268
20
-2.09708609584055
30
0
0
SPLINE
5
129
100
AcDbEntity
8
1
62
256
6
ByLayer
370
13
48
1
60
0
100
AcDbSpline
70
4
71
3
72
27
73
23
40
0
40
0
40
0
40
0
40
0.125000000000003
40
0.125000000000003
40
0.250000000000007
40
0.250000000000007
40
0.37500000000001
40
0.37500000000001
40
0.500000000000014
40
0.500000000000014
40
0.625000000000017
40
0.625000000000017
40
0.75000000000002
40
0.75000000000002
40
0.812500000000022
40
0.84375000000002
40
0.84375000000002
40
0.875000000000018
40
0.875000000000018
40
0.937500000000009
40
0.937500000000009
40
1
40
1
40
1
40
1
41
1
10
48.306539256268
20
-2.09708609584052
30
0
41
1
10
48.1328549938163
20
-2.12801688451705
30
0
41
1
10
47.9601219482947
20
-2.15602130159263
30
0
41
1
10
47.6170414551628
20
-2.2057985916444
30
0
41
1
10
47.446691347693
20
-2.22756196668269
30
0
41
1
10
47.1089200567723
20
-2.26479031775446
30
0
41
1
10
46.941529124483
20
-2.28036540938933
30
0
41
1
10
46.6096833490399
20
-2.3048461746709
30
0
41
1
10
46.4452214715032
20
-2.31373588038514
30
0
41
1
10
46.119149651413
20
-2.32400075437786
30
0
41
1
10
45.9575388212279
20
-2.32537451224263
30
0
41
1
10
45.6371364981104
20
-2.31968083677299
30
0
41
1
10
45.4783162801748
20
-2.31253320618404
30
0
41
1
10
45.2424202519305
20
-2.29527540650352
30
0
41
1
10
45.1250612542193
20
-2.28502564159922
30
0
41
1
10
45.0086570436742
20
-2.27237877585841
30
0
41
1
10
44.9312749744127
20
-2.26341994529966
30
0
41
1
10
44.8926847160168
20
-2.25867496565076
30
0
41
1
10
44.7776178011461
20
-2.24370595180267
30
0
41
1
10
44.7017349890958
20
-2.23272994058323
30
0
41
1
10
44.5515871452128
20
-2.20897247777759
30
0
41
1
10
44.4773100331462
20
-2.1961739777781
30
0
41
1
10
44.403767781655
20
-2.18247055579854
30
0
0
SPLINE
5
12A
100
AcDbEntity
8
1
62
256
6
ByLayer
370
18
48
1
60
0
100
AcDbSpline
70
4
71
3
72
8
73
4
40
0
40
0
40
0
40
0
40
1
40
1
40
1
40
1
41
1
10
44.7163257635341
20
3.37875299420736
30
0
41
1
10
44.7657543707721
20
3.28957028236127
30
0
41
1
10
44.8129063327884
20
3.20021956819727
30
0
41
1
10
44.8570645360024
20
3.11064796278094
30
0
0
SPLINE
5
12B
100
AcDbEntity
8
1
62
256
6
ByLayer
370
18
48
1
60
0
100
AcDbSpline
70
4
71
3
72
18
73
14
40
0
40
0
40
0
40
0
40
0.250000000000009
40
0.250000000000009
40
0.500000000000018
40
0.500000000000018
40
0.625000000000015
40
0.625000000000015
40
0.687500000000015
40
0.687500000000015
40
0.750000000000016
40
0.750000000000016
40
1
40
1
40
1
40
1
41
1
10
44.8570645200117
20
3.11064797164093
30
0
41
1
10
44.8700897056605
20
3.08422717968301
30
0
41
1
10
44.8814512369553
20
3.05829524546627
30
0
41
1
10
44.8997600204807
20
3.00772847623307
30
0
41
1
10
44.9067487273637
20
2.98304637227437
30
0
41
1
10
44.912305215421
20
2.94757759007925
30
0
41
1
10
44.9132830153559
20
2.93626190398663
30
0
41
1
10
44.9132613200867
20
2.9201518328457
30
0
41
1
10
44.9130054443214
20
2.91492605419703
30
0
41
1
10
44.9119582827167
20
2.90478510265777
30
0
41
1
10
44.9111617294544
20
2.89984917436021
30
0
41
1
10
44.9057944248972
20
2.87628578611211
30
0
41
1
10
44.8971827403701
20
2.86113770622288
30
0
41
1
10
44.8840652468346
20
2.8498534432882
30
0
0
SPLINE
5
12C
100
AcDbEntity
8
1
62
256
6
ByLayer
370
18
48
1
60
0
100
AcDbSpline
70
4
71
3
72
18
73
14
40
0
40
0
40
0
40
0
40
0.249999999999995
40
0.249999999999995
40
0.49999999999999
40
0.49999999999999
40
0.624999999999992
40
0.624999999999992
40
0.687499999999993
40
0.687499999999993
40
0.749999999999995
40
0.749999999999995
40
1
40
1
40
1
40
1
41
1
10
45.7231026902727
20
2.87578557578638
30
0
41
1
10
45.9254439954342
20
2.7070267024254
30
0
41
1
10
46.1300976110963
20
2.54431784544661
30
0
41
1
10
46.5437105722923
20
2.23016580547909
30
0
41
1
10
46.7526702635406
20
2.07872352703004
30
0
41
1
10
47.0691516485812
20
1.85951891560092
30
0
41
1
10
47.1751529180154
20
1.78777848700028
30
0
41
1
10
47.3348968226965
20
1.68210924226369
30
0
41
1
10
47.3882688055675
20
1.64721063727558
30
0
41
1
10
47.495253101293
20
1.57804223572953
30
0
41
1
10
47.5488820484498
20
1.54376228154629
30
0
41
1
10
47.8168315802954
20
1.37436366249696
30
0
41
1
10
48.0311721383136
20
1.24484510895834
30
0
41
1
10
48.2454972338394
20
1.12019244980772
30
0
0
SPLINE
5
12D
100
AcDbEntity
8
1
62
256
6
ByLayer
370
18
48
1
60
0
100
AcDbSpline
70
4
71
3
72
8
73
4
40
0
40
0
40
0
40
0
40
1
40
1
40
1
40
1
41
1
10
44.7434392964635
20
-2.46640349437593
30
0
41
1
10
44.6953492937443
20
-2.46425449778843
30
0
41
1
10
44.6472144946469
20
-2.46220613466696
30
0
41
1
10
44.5990367539447
20
-2.46025423832867
30
0
0
SPLINE
5
12E
100
AcDbEntity
8
1
62
256
6
ByLayer
370
18
48
1
60
0
100
AcDbSpline
70
4
71
3
72
8
73
4
40
0
40
0
40
0
40
0
40
1
40
1
40
1
40
1
41
1
10
44.4037677816511
20
-2.18247055581583
30
0
41
1
10
44.5154820673243
20
-2.27732409153254
30
0
41
1
10
44.6286219548052
20
-2.37213527399626
30
0
41
1
10
44.7434392964635
20
-2.4664034943759
30
0
0
SPLINE
5
12F
100
AcDbEntity
8
1
62
256
6
ByLayer
370
18
48
1
60
0
100
AcDbSpline
70
4
71
3
72
36
73
32
40
0
40
0
40
0
40
0
40
0.135791102420038
40
0.135791102420038
40
0.271582204840077
40
0.271582204840077
40
0.407373307260115
40
0.407373307260115
40
0.543164409680154
40
0.543164409680154
40
0.577112185285165
40
0.577112185285165
40
0.611059960890176
40
0.611059960890176
40
0.678955512100193
40
0.678955512100193
40
0.74685106331021
40
0.74685106331021
40
0.814746614520227
40
0.814746614520227
40
0.848694390125236
40
0.848694390125236
40
0.882642165730245
40
0.882642165730245
40
0.916589941335254
40
0.916589941335254
40
0.950537716940263
40
0.950537716940263
40
0.984485492545272
40
0.984485492545272
40
1
40
1
40
1
40
1
41
1
10
44.4037677816241
20
-2.18247055579286
30
0
41
1
10
44.3426852604911
20
-2.13060706255158
30
0
41
1
10
44.2870130171261
20
-2.07708080003366
30
0
41
1
10
44.1850415394228
20
-1.96835676206433
30
0
41
1
10
44.1387577549209
20
-1.91315264644041
30
0
41
1
10
44.0546450947173
20
-1.8026772726098
30
0
41
1
10
44.0175894173372
20
-1.74843950728777
30
0
41
1
10
43.9519184685236
20
-1.64349984271192
30
0
41
1
10
43.9232791881849
20
-1.59276435088398
30
0
41
1
10
43.8920041990318
20
-1.53231544593245
30
0
41
1
10
43.885976910288
20
-1.52037420673005
30
0
41
1
10
43.8743666729465
20
-1.49680944235993
30
0
41
1
10
43.868775914763
20
-1.48516901810939
30
0
41
1
10
43.8527289381175
20
-1.45090645767212
30
0
41
1
10
43.8429922870738
20
-1.42894272434319
30
0
41
1
10
43.8253624713383
20
-1.38688066113417
30
0
41
1
10
43.8174666644422
20
-1.36678109043376
30
0
41
1
10
43.8035833291425
20
-1.32859813651695
30
0
41
1
10
43.797588525982
20
-1.31051166318969
30
0
41
1
10
43.7902850818328
20
-1.28508293370285
30
0
41
1
10
43.7881346849951
20
-1.27689117315939
30
0
41
1
10
43.7845024859764
20
-1.26113057468009
30
0
41
1
10
43.7830204392374
20
-1.25355986998497
30
0
41
1
10
43.7809040935455
20
-1.23921357372632
30
0
41
1
10
43.7802639408281
20
-1.23242468836762
30
0
41
1
10
43.7800966480713
20
-1.2197427901655
30
0
41
1
10
43.7805668644611
20
-1.21385125815664
30
0
41
1
10
43.7831041715208
20
-1.20327479796734
30
0
41
1
10
43.7851521721887
20
-1.19857030186347
30
0
41
1
10
43.7900325017347
20
-1.19291174800142
30
0
41
1
10
43.7918463341487
20
-1.19130656319487
30
0
41
1
10
43.7940207832568
20
-1.18992897723268
30
0
0
SPLINE
5
130
100
AcDbEntity
8
1
62
256
6
ByLayer
370
13
48
1
60
0
100
AcDbSpline
70
4
71
3
72
13
73
9
40
0
40
0
40
0
40
0
40
0.301787003945103
40
0.452680505917655
40
0.603574007890206
40
0.754467509862758
40
0.90536101183531
40
1
40
1
40
1
40
1
41
1
10
21.425
20
4.63690378900506
30
0
41
1
10
23.80625
20
4.08923109297319
30
0
41
1
10
27.3781250000001
20
3.04076632402865
30
0
41
1
10
32.140625
20
1.40088200712512
30
0
41
1
10
35.7125
20
0.102869237271705
30
0
41
1
10
39.284375
20
-1.19703857023166
30
0
41
1
10
42.4123738249035
20
-2.28896031478646
30
0
41
1
10
44.3497476498071
20
-2.91372120168231
30
0
41
1
10
45.0964964747106
20
-3.14490720170278
30
0
0
SPLINE
5
131
100
AcDbEntity
8
1
62
256
6
ByLayer
370
18
48
1
60
0
100
AcDbSpline
70
4
71
3
72
10
73
6
40
0
40
0
40
0
40
0
40
0.5
40
0.5
40
1
40
1
40
1
40
1
41
1
10
44.5990367539448
20
-2.46025423832867
30
0
41
1
10
44.6878177106687
20
-2.56684327018488
30
0
41
1
10
44.7741501096185
20
-2.67656850462095
30
0
41
1
10
44.9405648929354
20
-2.90402422134341
30
0
41
1
10
45.0206723747192
20
-3.02172258081149
30
0
41
1
10
45.0964964924195
20
-3.14490720718524
30
0
0
SPLINE
5
132
100
AcDbEntity
8
1
62
256
6
ByLayer
370
13
48
1
60
0
100
AcDbSpline
70
4
71
3
72
10
73
6
40
0
40
0
40
0
40
0
40
0.65693831553356
40
0.98540747330034
40
1
40
1
40
1
40
1
41
1
10
21.425
20
-0.77299079130259
30
0
41
1
10
23.80625
20
-1.63125771725396
30
0
41
1
10
27.378125
20
-2.88316910977491
30
0
41
1
10
31.0028945463858
20
-3.92117346706325
30
0
41
1
10
32.2464140927715
20
-4.24159486187236
30
0
41
1
10
32.2993086391572
20
-4.2551591863332
30
0
0
SPLINE
5
133
100
AcDbEntity
8
1
62
256
6
ByLayer
370
18
48
1
60
0
100
AcDbSpline
70
4
71
3
72
10
73
6
40
0
40
0
40
0
40
0
40
0.5
40
0.5
40
1
40
1
40
1
40
1
41
1
10
21.425
20
3.7693267698765
30
0
41
1
10
21.2294556493185
20
3.85325562680671
30
0
41
1
10
21.0345189987458
20
3.93337616256292
30
0
41
1
10
20.6455285035737
20
4.08523856830084
30
0
41
1
10
20.4514755973086
20
4.15698237785986
30
0
41
1
10
20.2576672404608
20
4.22394298794572
30
0
0
SPLINE
5
134
100
AcDbEntity
8
1
62
256
6
ByLayer
370
18
48
1
60
0
100
AcDbSpline
70
4
71
3
72
24
73
20
40
0
40
0
40
0
40
0
40
0.249999999999991
40
0.249999999999991
40
0.374999999999989
40
0.374999999999989
40
0.43749999999999
40
0.43749999999999
40
0.499999999999991
40
0.499999999999991
40
0.624999999999993
40
0.624999999999993
40
0.749999999999995
40
0.749999999999995
40
0.812499999999996
40
0.812499999999996
40
0.874999999999997
40
0.874999999999997
40
1
40
1
40
1
40
1
41
1
10
44.8840652284236
20
2.84985345114288
30
0
41
1
10
44.7761704080078
20
2.75701047331751
30
0
41
1
10
44.6732405980102
20
2.65924741594577
30
0
41
1
10
44.5284603019961
20
2.50307539638158
30
0
41
1
10
44.4818102114532
20
2.44942261626147
30
0
41
1
10
44.414609463995
20
2.36619416126885
30
0
41
1
10
44.3926730416241
20
2.33799208514571
30
0
41
1
10
44.3498638146232
20
2.28069635340776
30
0
41
1
10
44.3289821534501
20
2.25159204422189
30
0
41
1
10
44.2680151932293
20
2.16281450415568
30
0
41
1
10
44.2296035868766
20
2.10168044060444
30
0
41
1
10
44.1579213807233
20
1.97492513951008
30
0
41
1
10
44.1246492753053
20
1.9093052161
30
0
41
1
10
44.0792185690238
20
1.80696732089589
30
0
41
1
10
44.0648064479142
20
1.77215769437837
30
0
41
1
10
44.0376983149923
20
1.70139114249986
30
0
41
1
10
44.0250003456942
20
1.66543742720003
30
0
41
1
10
43.9896289487322
20
1.55576220287239
30
0
41
1
10
43.969673327654
20
1.48022975004244
30
0
41
1
10
43.9538056123304
20
1.40197342141175
30
0
0
SPLINE
5
135
100
AcDbEntity
8
1
62
256
6
ByLayer
370
13
48
1
60
0
100
AcDbSpline
70
4
71
3
72
10
73
6
40
0
40
0
40
0
40
0
40
0.265855982323214
40
0.734145358869556
40
1
40
1
40
1
40
1
41
1
10
44.8840652450609
20
2.8498534417624
30
0
41
1
10
44.2081268300406
20
3.07139952334356
30
0
41
1
10
42.3415634150203
20
3.66350408832682
30
0
41
1
10
39.7990649949602
20
4.37946552960878
30
0
41
1
10
37.9325049899204
20
4.8177727219703
30
0
41
1
10
37.2565699848805
20
4.96401798193165
30
0
0
SPLINE
5
136
100
AcDbEntity
8
1
62
256
6
ByLayer
370
18
48
1
60
0
100
AcDbSpline
70
4
71
3
72
8
73
4
40
0
40
0
40
0
40
0
40
1
40
1
40
1
40
1
41
1
10
21.5526808389897
20
9.03504940230764
30
0
41
1
10
21.5100640341742
20
9.03828675825557
30
0
41
1
10
21.4675033891275
20
9.04141409389612
30
0
41
1
10
21.425
20
9.0444289967451
30
0
0
SPLINE
5
137
100
AcDbEntity
8
1
62
256
6
ByLayer
370
18
48
1
60
0
100
AcDbSpline
70
4
71
3
72
34
73
30
40
0
40
0
40
0
40
0
40
0.125
40
0.125
40
0.15625
40
0.15625
40
0.1875
40
0.1875
40
0.249999999999997
40
0.249999999999997
40
0.374999999999992
40
0.374999999999992
40
0.43749999999999
40
0.43749999999999
40
0.468749999999989
40
0.468749999999989
40
0.499999999999988
40
0.499999999999988
40
0.624999999999988
40
0.624999999999988
40
0.687499999999988
40
0.687499999999988
40
0.718749999999988
40
0.718749999999988
40
0.749999999999989
40
0.749999999999989
40
0.874999999999994
40
0.874999999999994
40
1
40
1
40
1
40
1
41
1
10
40.475
20
2.5977823555275
30
0
41
1
10
39.685266149775
20
3.01622401097171
30
0
41
1
10
38.8967526375639
20
3.42502942497362
30
0
41
1
10
37.9102966668206
20
3.9200464768345
30
0
41
1
10
37.7129660045588
20
4.01825126792389
30
0
41
1
10
37.3181688972341
20
4.21296299625141
30
0
41
1
10
37.1206600670309
20
4.30948980256548
30
0
41
1
10
36.5287124024631
20
4.59595101576798
30
0
41
1
10
36.134589679038
20
4.78289865134849
30
0
41
1
10
34.953083355422
20
5.33051049785459
30
0
41
1
10
34.1665604232848
20
5.67795189963294
30
0
41
1
10
32.9855447439293
20
6.1690035171859
30
0
41
1
10
32.5916685980908
20
6.32766393423043
30
0
41
1
10
32.0001718984348
20
6.55761444719823
30
0
41
1
10
31.8028923102451
20
6.63292404458971
30
0
41
1
10
31.408047604943
20
6.78077971090121
30
0
41
1
10
31.2106748419523
20
6.85325321850578
30
0
41
1
10
30.224454067162
20
7.20799008318798
30
0
41
1
10
29.4369858214757
20
7.46760869150552
30
0
41
1
10
28.2554096723701
20
7.81725285479013
30
0
41
1
10
27.861489356564
20
7.9271508479811
30
0
41
1
10
27.2701507915187
20
8.08178196106354
30
0
41
1
10
27.072961570217
20
8.13162275513039
30
0
41
1
10
26.6783692063604
20
8.22785313680689
30
0
41
1
10
26.4808918930956
20
8.27425858013223
30
0
41
1
10
25.4943202322223
20
8.49720317678666
30
0
41
1
10
24.7068957816955
20
8.64673539818233
30
0
41
1
10
23.1317021283266
20
8.88626111170706
30
0
41
1
10
22.3439363871706
20
8.97625926939602
30
0
41
1
10
21.5540237111002
20
9.03509751855847
30
0
0
SPLINE
5
138
100
AcDbEntity
8
1
62
256
6
ByLayer
370
18
48
1
60
0
100
AcDbSpline
70
4
71
3
72
20
73
16
40
0
40
0
40
0
40
0
40
0.250000000000009
40
0.250000000000009
40
0.375000000000011
40
0.375000000000011
40
0.500000000000013
40
0.500000000000013
40
0.750000000000011
40
0.750000000000011
40
0.812500000000009
40
0.812500000000009
40
0.875000000000008
40
0.875000000000008
40
1
40
1
40
1
40
1
41
1
10
45.1566793068101
20
-3.58499401160583
30
0
41
1
10
45.0560147205976
20
-3.79991516645967
30
0
41
1
10
44.9585216698393
20
-4.01673799358142
30
0
41
1
10
44.8183169684039
20
-4.34559078666189
30
0
41
1
10
44.7725920068865
20
-4.45581395039511
30
0
41
1
10
44.6834369917235
20
-4.67763631970683
30
0
41
1
10
44.6400084568713
20
-4.78923560280293
30
0
41
1
10
44.5138983914091
20
-5.125726077509
30
0
41
1
10
44.4352678162713
20
-5.35249002238896
30
0
41
1
10
44.3459334162757
20
-5.63995393908638
30
0
41
1
10
44.3285175779851
20
-5.69764867197699
30
0
41
1
10
44.2946568377862
20
-5.81347286510808
30
0
41
1
10
44.2782153941976
20
-5.87159417928453
30
0
41
1
10
44.2305975320216
20
-6.04613815553364
30
0
41
1
10
44.2010755546131
20
-6.16290342712355
30
0
41
1
10
44.1740854572242
20
-6.2801272081083
30
0
0
SPLINE
5
139
100
AcDbEntity
8
1
62
256
6
ByLayer
370
13
48
1
60
0
100
AcDbSpline
70
4
71
3
72
13
73
9
40
0
40
0
40
0
40
0
40
0.0969349574079109
40
0.247445797839926
40
0.397956638271941
40
0.548467478703955
40
0.69897831913597
40
1
40
1
40
1
40
1
41
1
10
45.1566793245427
20
-3.58499401734025
30
0
41
1
10
44.3898695496951
20
-3.35264527397231
30
0
41
1
10
42.4324347748476
20
-2.72999969651477
30
0
41
1
10
39.284375
20
-1.62888534037276
30
0
41
1
10
35.7125
20
-0.307059585810748
30
0
41
1
10
32.140625
20
1.03271281156401
30
0
41
1
10
27.3781250000001
20
2.75039980606357
30
0
41
1
10
23.80625
20
3.87959028060826
30
0
41
1
10
21.425
20
4.48561153527788
30
0
0
SPLINE
5
13A
100
AcDbEntity
8
1
62
256
6
ByLayer
370
18
48
1
60
0
100
AcDbSpline
70
4
71
3
72
60
73
56
40
0
40
0
40
0
40
0
40
0.0106576195774979
40
0.0214805881688604
40
0.0324690803521232
40
0.0436232649729687
40
0.0549433054222574
40
0.0664293598881733
40
0.0780815815849111
40
0.0899001189597352
40
0.101885115879987
40
0.114036711801547
40
0.126355041920073
40
0.138840237306243
40
0.151492425026114
40
0.165450650497849
40
0.179779092302337
40
0.194478010258018
40
0.209547648974321
40
0.224988238837263
40
0.240799996822527
40
0.256983127157754
40
0.273537821852406
40
0.290464261110828
40
0.307762613641805
40
0.325433036875997
40
0.343475677101037
40
0.361890669522687
40
0.380678138259349
40
0.39983819627622
40
0.419370945264591
40
0.439276475471055
40
0.459554865480834
40
0.480206181958881
40
0.501230479352009
40
0.522627799554916
40
0.54439817154261
40
0.566541610971538
40
0.589058119751394
40
0.611947685589452
40
0.635210281509007
40
0.658845865343445
40
0.682854379207223
40
0.707235748945032
40
0.73198988356021
40
0.757116674623469
40
0.782615995662868
40
0.808487701535935
40
0.834731627784755
40
0.861347589974824
40
0.888335383018401
40
0.915694780483082
40
0.94342553388626
40
0.971527371976148
40
1
40
1
40
1
40
1
41
1
10
21.5641523179993
20
3.69854040875884
30
0
41
1
10
21.562551131675
20
3.70394383237667
30
0
41
1
10
21.5593239172145
20
3.71483451172509
30
0
41
1
10
21.5546362444211
20
3.73104379955689
30
0
41
1
10
21.5500122791831
20
3.7473127273972
30
0
41
1
10
21.5454663362516
20
3.76361603444118
30
0
41
1
10
21.5409944933924
20
3.77995189398857
30
0
41
1
10
21.5365978274167
20
3.79631191999229
30
0
41
1
10
21.5322760415341
20
3.81268938796316
30
0
41
1
10
21.5280292300543
20
3.82907697592685
30
0
41
1
10
21.523857323213
20
3.8454674076853
30
0
41
1
10
21.5197605130641
20
3.8618531816532
30
0
41
1
10
21.5157380934083
20
3.87822700586742
30
0
41
1
10
21.5117927519061
20
3.89458030352503
30
0
41
1
10
21.5077978830025
20
3.91139881036031
30
0
41
1
10
21.5037892859621
20
3.92871916676074
30
0
41
1
10
21.4998015763717
20
3.94657158159254
30
0
41
1
10
21.4959149323498
20
3.96454433054097
30
0
41
1
10
21.4921325636347
20
3.98261610971406
30
0
41
1
10
21.4884535874094
20
4.00076651332014
30
0
41
1
10
21.4848782586612
20
4.01897421599716
30
0
41
1
10
21.4814065152656
20
4.03721747661453
30
0
41
1
10
21.4780383824452
20
4.05547399660426
30
0
41
1
10
21.4747738605244
20
4.07372095788136
30
0
41
1
10
21.4716129561393
20
4.09193501114106
30
0
41
1
10
21.4685556736421
20
4.11009227818232
30
0
41
1
10
21.4656020175328
20
4.12816835062142
30
0
41
1
10
21.4627519918318
20
4.14613828990375
30
0
41
1
10
21.4600056002935
20
4.16397662727456
30
0
41
1
10
21.4573628463834
20
4.18165736409986
30
0
41
1
10
21.4548237333162
20
4.19915397244986
30
0
41
1
10
21.452388264075
20
4.2164393959909
30
0
41
1
10
21.4500564414306
20
4.2334860511944
30
0
41
1
10
21.4478282679602
20
4.2502658288827
30
0
41
1
10
21.445703746063
20
4.26675009612822
30
0
41
1
10
21.4436828779742
20
4.28290969852455
30
0
41
1
10
21.4417656657789
20
4.29871496284664
30
0
41
1
10
21.439952111423
20
4.31413570011898
30
0
41
1
10
21.4382422167241
20
4.32914120910931
30
0
41
1
10
21.4366359833814
20
4.34370028026842
30
0
41
1
10
21.4351334129844
20
4.35778120012799
30
0
41
1
10
21.4337345070192
20
4.37135175619989
30
0
41
1
10
21.4324392668822
20
4.38437924230214
30
0
41
1
10
21.4312476938637
20
4.39683046468937
30
0
41
1
10
21.4301597892394
20
4.40867174763443
30
0
41
1
10
21.429175553951
20
4.41986894372073
30
0
41
1
10
21.4282949898494
20
4.43038742886205
30
0
41
1
10
21.4275180949777
20
4.4401921583885
30
0
41
1
10
21.4268448815801
20
4.44924749310439
30
0
41
1
10
21.4262753074608
20
4.45751790540328
30
0
41
1
10
21.4258095376281
20
4.4649653338974
30
0
41
1
10
21.4254469473565
20
4.47155931230336
30
0
41
1
10
21.4251899197495
20
4.4772384387274
30
0
41
1
10
21.425029384217
20
4.48205716053636
30
0
41
1
10
21.4250098374423
20
4.48442157822058
30
0
41
1
10
21.425
20
4.48561153527788
30
0
0
SPLINE
5
13B
100
AcDbEntity
8
1
62
256
6
ByLayer
370
18
48
1
60
0
100
AcDbSpline
70
4
71
3
72
51
73
47
40
0
40
0
40
0
40
0
40
0.0156250000000298
40
0.0156250000000298
40
0.0312500000000597
40
0.0312500000000597
40
0.0625000000001286
40
0.0625000000001286
40
0.125000000000257
40
0.125000000000257
40
0.187500000000385
40
0.187500000000385
40
0.250000000000514
40
0.250000000000514
40
0.312500000000642
40
0.312500000000642
40
0.343750000000707
40
0.343750000000707
40
0.359375000000734
40
0.359375000000734
40
0.363281250000738
40
0.363281250000738
40
0.36523437500074
40
0.36523437500074
40
0.367187500000743
40
0.367187500000743
40
0.371093750000738
40
0.371093750000738
40
0.375000000000733
40
0.375000000000733
40
0.390625000000714
40
0.390625000000714
40
0.406250000000695
40
0.437500000000657
40
0.437500000000657
40
0.500000000000582
40
0.500000000000582
40
0.53125000000054
40
0.53125000000054
40
0.562500000000498
40
0.562500000000498
40
0.625000000000423
40
0.625000000000423
40
0.750000000000282
40
0.750000000000282
40
1
40
1
40
1
40
1
41
1
10
40.4750000086689
20
-6.07558608402107
30
0
41
1
10
40.4935980914782
20
-6.08313467735957
30
0
41
1
10
40.5121946877923
20
-6.09066860699426
30
0
41
1
10
40.5493817802113
20
-6.10572688839045
30
0
41
1
10
40.5679675326751
20
-6.11328069057393
30
0
41
1
10
40.6237485433295
20
-6.13572301974958
30
0
41
1
10
40.661010152599
20
-6.15012907516041
30
0
41
1
10
40.7729747424947
20
-6.19200545024035
30
0
41
1
10
40.8478785142698
20
-6.21800448957111
30
0
41
1
10
40.9982146223409
20
-6.26639571654411
30
0
41
1
10
41.0736458926374
20
-6.28879364015853
30
0
41
1
10
41.2250581212103
20
-6.33009771937594
30
0
41
1
10
41.3010438502223
20
-6.34897692841915
30
0
41
1
10
41.4535516210824
20
-6.38353467370197
30
0
41
1
10
41.5300696537226
20
-6.39923725255724
30
0
41
1
10
41.6451685038303
20
-6.42096820117169
30
0
41
1
10
41.6835708409516
20
-6.42800389592844
30
0
41
1
10
41.741349922915
20
-6.43758962242475
30
0
41
1
10
41.7606385987014
20
-6.44062504954508
30
0
41
1
10
41.7848464895714
20
-6.44388993078152
30
0
41
1
10
41.7896926528138
20
-6.44451792456684
30
0
41
1
10
41.7969732158172
20
-6.44539824030446
30
0
41
1
10
41.7994051687105
20
-6.44566380002826
30
0
41
1
10
41.8042390778412
20
-6.44635951408941
30
0
41
1
10
41.8066319902404
20
-6.44683920826921
30
0
41
1
10
41.8138080901255
20
-6.44829251849151
30
0
41
1
10
41.8186270631669
20
-6.44907002419899
30
0
41
1
10
41.8282544761236
20
-6.45068289505784
30
0
41
1
10
41.833071827191
20
-6.45146939762463
30
0
41
1
10
41.8571814469892
20
-6.45527727074341
30
0
41
1
10
41.8765698485656
20
-6.45777506118293
30
0
41
1
10
41.9153650425491
20
-6.46267994112512
30
0
41
1
10
41.9736010193199
20
-6.46981393937858
30
0
41
1
10
42.0319832157078
20
-6.47619621837086
30
0
41
1
10
42.148982529331
20
-6.48777105906603
30
0
41
1
10
42.2272896067071
20
-6.49393236880528
30
0
41
1
10
42.3452554938299
20
-6.50072546159194
30
0
41
1
10
42.3846615689063
20
-6.50258224563106
30
0
41
1
10
42.4636486089507
20
-6.50546513455126
30
0
41
1
10
42.5032603552908
20
-6.50649039451682
30
0
41
1
10
42.6218115059401
20
-6.50828465450184
30
0
41
1
10
42.7006284743853
20
-6.50778024879469
30
0
41
1
10
42.9364625661177
20
-6.50115266898592
30
0
41
1
10
43.0928650683047
20
-6.48992576694243
30
0
41
1
10
43.5598581337315
20
-6.43569179344198
30
0
41
1
10
43.8682493220419
20
-6.37212937000695
30
0
41
1
10
44.1740854572418
20
-6.28012720810418
30
0
0
SPLINE
5
13C
100
AcDbEntity
8
1
62
256
6
ByLayer
370
18
48
1
60
0
100
AcDbSpline
70
4
71
3
72
48
73
44
40
0
40
0
40
0
40
0
40
0.0624999999999944
40
0.0624999999999944
40
0.124999999999989
40
0.124999999999989
40
0.187499999999983
40
0.187499999999983
40
0.203124999999979
40
0.203124999999979
40
0.218749999999976
40
0.249999999999972
40
0.249999999999972
40
0.312499999999966
40
0.312499999999966
40
0.37499999999996
40
0.437499999999954
40
0.437499999999954
40
0.468749999999953
40
0.468749999999953
40
0.499999999999952
40
0.499999999999952
40
0.562499999999951
40
0.562499999999951
40
0.624999999999949
40
0.624999999999949
40
0.687499999999947
40
0.687499999999947
40
0.718749999999947
40
0.718749999999947
40
0.734374999999948
40
0.734374999999948
40
0.749999999999949
40
0.812499999999962
40
0.812499999999962
40
0.874999999999976
40
0.874999999999976
40
0.937499999999989
40
0.953124999999992
40
0.953124999999992
40
0.968749999999995
40
0.968749999999995
40
1
40
1
40
1
40
1
41
1
10
43.9538056123507
20
1.4019734213982
30
0
41
1
10
44.0725853319746
20
1.3117707127027
30
0
41
1
10
44.1920137155938
20
1.22489135100483
30
0
41
1
10
44.4321804239787
20
1.05784394349629
30
0
41
1
10
44.5529185679398
20
0.977674971355441
30
0
41
1
10
44.7957411514548
20
0.824234600317084
30
0
41
1
10
44.9178254375521
20
0.750962415204441
30
0
41
1
10
45.0713124768608
20
0.66388936714506
30
0
41
1
10
45.1020716305536
20
0.646691929985934
30
0
41
1
10
45.1633881038881
20
0.612914623752346
30
0
41
1
10
45.2551629176802
20
0.563115825037215
30
0
41
1
10
45.3463415284109
20
0.515903387640321
30
0
41
1
10
45.5279096046121
20
0.424901867931709
30
0
41
1
10
45.6479039568243
20
0.368793621795334
30
0
41
1
10
45.8857926882899
20
0.26568692648317
30
0
41
1
10
46.1215822422689
20
0.171686577332366
30
0
41
1
10
46.3530894716684
20
0.0962631852258653
30
0
41
1
10
46.5250514387718
20
0.0469334894900442
30
0
41
1
10
46.5821338662044
20
0.0316879625687534
30
0
41
1
10
46.6955601337093
20
0.0037181577166621
30
0
41
1
10
46.7515413519537
20
-0.0089180618359137
30
0
41
1
10
46.9173222155349
20
-0.0428413979340405
30
0
41
1
10
47.0249648837531
20
-0.0601539052983071
30
0
41
1
10
47.2345671614487
20
-0.0843068861526888
30
0
41
1
10
47.3365250131488
20
-0.0911441206294512
30
0
41
1
10
47.5347255256812
20
-0.0942873466217975
30
0
41
1
10
47.6309708217784
20
-0.0905981940758522
30
0
41
1
10
47.7709520583256
20
-0.076981186046936
30
0
41
1
10
47.8168806103559
20
-0.0710936025003832
30
0
41
1
10
47.884653874626
20
-0.0601992342895414
30
0
41
1
10
47.9070150175157
20
-0.0562297182997042
30
0
41
1
10
47.9511533906692
20
-0.047641128625088
30
0
41
1
10
48.0601373584958
20
-0.024529234898921
30
0
41
1
10
48.1623790801233
20
0.0067033608574434
30
0
41
1
10
48.3175814371123
20
0.066774106246271
30
0
41
1
10
48.3910033960483
20
0.101843142166672
30
0
41
1
10
48.5295014933943
20
0.182033341990803
30
0
41
1
10
48.6108406726914
20
0.238442016004257
30
0
41
1
10
48.6855863708287
20
0.30279221191671
30
0
41
1
10
48.7149523906816
20
0.329173370402373
30
0
41
1
10
48.7293816929918
20
0.342697100425426
30
0
41
1
10
48.7717446904405
20
0.384120654061348
30
0
41
1
10
48.7987637547055
20
0.412876858613657
30
0
41
1
10
48.8245752226905
20
0.442759261381951
30
0
0
SPLINE
5
13D
100
AcDbEntity
8
1
62
256
6
ByLayer
370
18
48
1
60
0
100
AcDbSpline
70
4
71
3
72
52
73
48
40
0
40
0
40
0
40
0
40
0.0312499999998623
40
0.0312499999998623
40
0.0624999999997246
40
0.0624999999997246
40
0.124999999999459
40
0.124999999999459
40
0.249999999998918
40
0.249999999998918
40
0.312499999998647
40
0.312499999998647
40
0.343749999998517
40
0.343749999998517
40
0.359374999998457
40
0.359374999998457
40
0.374999999998397
40
0.374999999998397
40
0.382812499998362
40
0.382812499998362
40
0.38671874999835
40
0.38671874999835
40
0.388671874998349
40
0.388671874998349
40
0.390624999998348
40
0.390624999998348
40
0.394531249998355
40
0.394531249998355
40
0.398437499998363
40
0.398437499998363
40
0.406249999998389
40
0.406249999998389
40
0.42187499999843
40
0.42187499999843
40
0.437499999998471
40
0.437499999998471
40
0.499999999998645
40
0.499999999998645
40
0.531249999998732
40
0.531249999998732
40
0.56249999999882
40
0.56249999999882
40
0.624999999998984
40
0.624999999998984
40
0.749999999999323
40
0.749999999999323
40
1
40
1
40
1
40
1
41
1
10
40.4749999938786
20
2.59778238858073
30
0
41
1
10
40.5097785199003
20
2.57948136933533
30
0
41
1
10
40.5445443172029
20
2.56115197243889
30
0
41
1
10
40.6140756871031
20
2.52449737883433
30
0
41
1
10
40.6489134325036
20
2.50634653696903
30
0
41
1
10
40.7536317695667
20
2.45239527244558
30
0
41
1
10
40.8237227417148
20
2.41710884102113
30
0
41
1
10
41.0348357659384
20
2.31329243922718
30
0
41
1
10
41.1766967104383
20
2.24680220734655
30
0
41
1
10
41.3912348685223
20
2.15127977870534
30
0
41
1
10
41.4630316630233
20
2.12012419629139
30
0
41
1
10
41.5710820454665
20
2.07424512889645
30
0
41
1
10
41.6071574802311
20
2.05909316254147
30
0
41
1
10
41.6613479076599
20
2.03655084091346
30
0
41
1
10
41.6794253353519
20
2.02907025008787
30
0
41
1
10
41.7156356672182
20
2.01424219442646
30
0
41
1
10
41.7337637756462
20
2.00688322658661
30
0
41
1
10
41.761042984925
20
1.99605352953955
30
0
41
1
10
41.7701514930447
20
1.99248065420227
30
0
41
1
10
41.7838475125235
20
1.98720107787773
30
0
41
1
10
41.7884216037897
20
1.98546220396389
30
0
41
1
10
41.7952866984499
20
1.98286337409729
30
0
41
1
10
41.7975697939907
20
1.98198445716048
30
0
41
1
10
41.8020853804407
20
1.98010525694116
30
0
41
1
10
41.8043232394519
20
1.97911784965692
30
0
41
1
10
41.8110889075301
20
1.97628056011882
30
0
41
1
10
41.8156214753338
20
1.97444209038872
30
0
41
1
10
41.8246812930629
20
1.97075239552834
30
0
41
1
10
41.8292152366672
20
1.96891722376591
30
0
41
1
10
41.8428321109608
20
1.96344777765276
30
0
41
1
10
41.85193270046
20
1.95985584345146
30
0
41
1
10
41.8792980309495
20
1.94923238258502
30
0
41
1
10
41.8975850202205
20
1.94225413558766
30
0
41
1
10
41.9341654056782
20
1.92831278649231
30
0
41
1
10
41.9524708279942
20
1.92137851972842
30
0
41
1
10
42.0440829506486
20
1.88691034425673
30
0
41
1
10
42.1176584944931
20
1.8600190227528
30
0
41
1
10
42.2285221952623
20
1.82087567104415
30
0
41
1
10
42.265558695492
20
1.80802331505234
30
0
41
1
10
42.3398019169318
20
1.78272420593333
30
0
41
1
10
42.3770516004993
20
1.77026337304943
30
0
41
1
10
42.4887180441513
20
1.73362291429515
30
0
41
1
10
42.5629799058903
20
1.710207736835
30
0
41
1
10
42.7852464471412
20
1.64307887160209
30
0
41
1
10
42.9327330767906
20
1.60248093777204
30
0
41
1
10
43.3733379604521
20
1.49366677076691
30
0
41
1
10
43.664615343691
20
1.4384571735811
30
0
41
1
10
43.9538056123522
20
1.40197342141067
30
0
0
SPLINE
5
13E
100
AcDbEntity
8
1
62
256
6
ByLayer
370
18
48
1
60
0
100
AcDbSpline
70
4
71
3
72
8
73
4
40
0
40
0
40
0
40
0
40
1
40
1
40
1
40
1
41
1
10
49.512287883058
20
-0.0968191675063963
30
0
41
1
10
49.5372679966346
20
-0.217897522540056
30
0
41
1
10
49.5623753158861
20
-0.338920158707026
30
0
41
1
10
49.5875940319009
20
-0.459894000560723
30
0
0
SPLINE
5
13F
100
AcDbEntity
8
1
62
256
6
ByLayer
370
18
48
1
60
0
100
AcDbSpline
70
4
71
3
72
14
73
10
40
0
40
0
40
0
40
0
40
0.25
40
0.25
40
0.5
40
0.5
40
0.75
40
0.75
40
1
40
1
40
1
40
1
41
1
10
48.8245752226903
20
0.442759261382093
30
0
41
1
10
48.8862234506272
20
0.393031841157182
30
0
41
1
10
48.9468142265914
20
0.344478795859885
30
0
41
1
10
49.0657802410033
20
0.249792626051516
30
0
41
1
10
49.124175082614
20
0.203643666093427
30
0
41
1
10
49.2388124828503
20
0.113707606187148
30
0
41
1
10
49.295072045265
20
0.0699072955945041
30
0
41
1
10
49.4053599364428
20
-0.0152742531284389
30
0
41
1
10
49.4593821809354
20
-0.0566509548655461
30
0
41
1
10
49.5122878830605
20
-0.0968191675257799
30
0
0
SPLINE
5
140
100
AcDbEntity
8
1
62
256
6
ByLayer
370
18
48
1
60
0
100
AcDbSpline
70
4
71
3
72
13
73
9
40
0
40
0
40
0
40
0
40
0.25
40
0.375
40
0.5
40
0.625
40
0.75
40
1
40
1
40
1
40
1
41
1
10
21.425
20
9.02517949538114
30
0
41
1
10
23.0125000000001
20
8.77430691902157
30
0
41
1
10
25.39375
20
8.20726261360124
30
0
41
1
10
28.5687500000001
20
7.12352672043014
30
0
41
1
10
30.95
20
6.16061607473458
30
0
41
1
10
33.33125
20
5.07024922851977
30
0
41
1
10
36.50625
20
3.47686377136614
30
0
41
1
10
38.8875000000001
20
2.15952524145874
30
0
41
1
10
40.475
20
1.26380014790851
30
0
0
SPLINE
5
141
100
AcDbEntity
8
1
62
256
6
ByLayer
370
18
48
1
60
0
100
AcDbSpline
70
4
71
3
72
8
73
4
40
0
40
0
40
0
40
0
40
1
40
1
40
1
40
1
41
1
10
49.6581480936144
20
-1.11480348752963
30
0
41
1
10
49.6112373371961
20
-1.19099991844766
30
0
41
1
10
49.5596036897205
20
-1.26657615614155
30
0
41
1
10
49.5032751598687
20
-1.34153587861152
30
0
0
SPLINE
5
142
100
AcDbEntity
8
1
62
256
6
ByLayer
370
18
48
1
60
0
100
AcDbSpline
70
4
71
3
72
8
73
4
40
0
40
0
40
0
40
0
40
1
40
1
40
1
40
1
41
1
10
49.5875940322294
20
-0.459894001677611
30
0
41
1
10
49.610102834306
20
-0.678269744298603
30
0
41
1
10
49.6337112062466
20
-0.896575550058969
30
0
41
1
10
49.6581480936144
20
-1.11480348752963
30
0
0
SPLINE
5
143
100
AcDbEntity
8
1
62
256
6
ByLayer
370
18
48
1
60
0
100
AcDbSpline
70
4
71
3
72
45
73
41
40
0
40
0
40
0
40
0
40
0.0007800186734885
40
0.0015619667135306
40
0.0030272535915648
40
0.0060590812094938
40
0.0095839900633307
40
0.0105566008624421
40
0.0134602954847834
40
0.0148160841694095
40
0.0435885259777399
40
0.0749371474281288
40
0.089118226681614
40
0.111637622789644
40
0.119949774315693
40
0.125557032841643
40
0.126899629083104
40
0.127392136965249
40
0.127751821021559
40
0.128328367803415
40
0.128912256188844
40
0.129500305456889
40
0.133191991801455
40
0.136236317391066
40
0.153044867786461
40
0.191377653871323
40
0.252532192843368
40
0.289774048575204
40
0.366838989245529
40
0.406351842547605
40
0.486538685310069
40
0.567444278548389
40
0.648002210882385
40
0.68779485903644
40
0.76568933876147
40
0.803518298071029
40
0.876289184078823
40
0.944466312828616
40
0.976650575906494
40
1
40
1
40
1
40
1
41
1
10
40.4750000583144
20
1.26379998563917
30
0
41
1
10
40.4780055903625
20
1.26207614287691
30
0
41
1
10
40.484029093519
20
1.25861909037516
30
0
41
1
10
40.4956550039022
20
1.25193958473599
30
0
41
1
10
40.515966794932
20
1.24029382898945
30
0
41
1
10
40.5467879621301
20
1.22256831656367
30
0
41
1
10
40.5756556799776
20
1.20604083819725
30
0
41
1
10
40.604093322446
20
1.18962180848919
30
0
41
1
10
40.6241964626828
20
1.17791976631182
30
0
41
1
10
40.7509836267999
20
1.10431653212066
30
0
41
1
10
40.986026497576
20
0.968063445474684
30
0
41
1
10
41.2674644234182
20
0.806118133787123
30
0
41
1
10
41.5236828190993
20
0.659979758574082
30
0
41
1
10
41.6924724838943
20
0.564524767860462
30
0
41
1
10
41.8288305463658
20
0.488085217830275
30
0
41
1
10
41.8858037518271
20
0.456279923320409
30
0
41
1
10
41.9135185718842
20
0.4408349730015
30
0
41
1
10
41.9217475261953
20
0.436256838628026
30
0
41
1
10
41.9269963484203
20
0.433287080380239
30
0
41
1
10
41.9328885203083
20
0.429901223398673
30
0
41
1
10
41.9394777467003
20
0.426147776780596
30
0
41
1
10
41.957869829009
20
0.415660527686526
30
0
41
1
10
41.9855889017485
20
0.399904001241225
30
0
41
1
10
42.0742090941488
20
0.349818300878638
30
0
41
1
10
42.2925410926507
20
0.228526457751485
30
0
41
1
10
42.7238223712448
20
0.0002389304981421
30
0
41
1
10
43.2239418379829
20
-0.241513500113143
30
0
41
1
10
43.8561184306369
20
-0.518997842157518
30
0
41
1
10
44.400388603461
20
-0.729482444360627
30
0
41
1
10
45.082024377758
20
-0.95596305610681
30
0
41
1
10
45.7607635452584
20
-1.14151019652837
30
0
41
1
10
46.541674511809
20
-1.28702528610299
30
0
41
1
10
47.1525812261848
20
-1.33916510241093
30
0
41
1
10
47.7184960722744
20
-1.33647674532787
30
0
41
1
10
48.1322283224655
20
-1.29148681638992
30
0
41
1
10
48.5902730042687
20
-1.18176849950675
30
0
41
1
10
48.9817907307755
20
-1.02555769611757
30
0
41
1
10
49.2981388605718
20
-0.803130179368679
30
0
41
1
10
49.4853546186888
20
-0.603944493820535
30
0
41
1
10
49.5587479924425
20
-0.503914247438644
30
0
41
1
10
49.5875940355191
20
-0.459894002452955
30
0
0
SPLINE
5
144
100
AcDbEntity
8
1
62
256
6
ByLayer
370
18
48
1
60
0
100
AcDbSpline
70
4
71
3
72
8
73
4
40
0
40
0
40
0
40
0
40
1
40
1
40
1
40
1
41
1
10
42.5263536957216
20
-0.622698748530496
30
0
41
1
10
42.5425945458538
20
-0.629954989053147
30
0
41
1
10
42.5587000056973
20
-0.637526316262893
30
0
41
1
10
42.5746679540614
20
-0.64541802314946
30
0
0
SPLINE
5
145
100
AcDbEntity
8
1
62
256
6
ByLayer
370
18
48
1
60
0
100
AcDbSpline
70
4
71
3
72
34
73
30
40
0
40
0
40
0
40
0
40
0.125000000000006
40
0.125000000000006
40
0.250000000000011
40
0.250000000000011
40
0.375000000000017
40
0.375000000000017
40
0.406250000000017
40
0.406250000000017
40
0.437500000000017
40
0.437500000000017
40
0.500000000000018
40
0.500000000000018
40
0.625000000000015
40
0.625000000000015
40
0.687500000000015
40
0.687500000000015
40
0.718750000000014
40
0.718750000000014
40
0.734375000000012
40
0.734375000000012
40
0.750000000000011
40
0.750000000000011
40
0.875000000000005
40
0.875000000000005
40
0.937500000000003
40
0.937500000000003
40
1
40
1
40
1
40
1
41
1
10
20.2576672404608
20
-9.50541101668077
30
0
41
1
10
19.8495808648587
20
-9.52162220636657
30
0
41
1
10
19.4472116296161
20
-9.52828829385339
30
0
41
1
10
18.6556445902815
20
-9.51865347965844
30
0
41
1
10
18.2664465493833
20
-9.50237297323932
30
0
41
1
10
17.5032190917548
20
-9.44134052715339
30
0
41
1
10
17.1291897603524
20
-9.39662247199041
30
0
41
1
10
16.6725461901278
20
-9.31796571634197
30
0
41
1
10
16.5817627667153
20
-9.30108882820844
30
0
41
1
10
16.4013243555209
20
-9.2648853302037
30
0
41
1
10
16.311560507102
20
-9.24553124145081
30
0
41
1
10
16.0453177891415
20
-9.18384624822079
30
0
41
1
10
15.871619711277
20
-9.13785623207252
30
0
41
1
10
15.362301767823
20
-8.98385311783457
30
0
41
1
10
15.0384676551721
20
-8.85989042027347
30
0
41
1
10
14.5776546520717
20
-8.63498558687868
30
0
41
1
10
14.4282041677549
20
-8.55350486713388
30
0
41
1
10
14.2104129776969
20
-8.42042188302904
30
0
41
1
10
14.1388799086688
20
-8.37424882776978
30
0
41
1
10
14.0331950327024
20
-8.30211655330803
30
0
41
1
10
13.9982026236855
20
-8.27756894598349
30
0
41
1
10
13.9289872811925
20
-8.22765537318503
30
0
41
1
10
13.8947526735282
20
-8.20228290709596
30
0
41
1
10
13.5899730628909
20
-7.97014525438428
30
0
41
1
10
13.3427408210964
20
-7.73694966411659
30
0
41
1
10
13.0052761039008
20
-7.34246928010796
30
0
41
1
10
12.8983535201211
20
-7.20351580309503
30
0
41
1
10
12.695346119028
20
-6.90973497156034
30
0
41
1
10
12.5992598964213
20
-6.75491056854011
30
0
41
1
10
12.5084888626749
20
-6.59155783314083
30
0
0
SPLINE
5
146
100
AcDbEntity
8
1
62
256
6
ByLayer
370
18
48
1
60
0
100
AcDbSpline
70
4
71
3
72
26
73
22
40
0
40
0
40
0
40
0
40
0.125000000000019
40
0.125000000000019
40
0.187500000000019
40
0.187500000000019
40
0.250000000000019
40
0.250000000000019
40
0.375000000000028
40
0.375000000000028
40
0.437500000000033
40
0.437500000000033
40
0.500000000000038
40
0.500000000000038
40
0.625000000000028
40
0.625000000000028
40
0.750000000000019
40
0.750000000000019
40
0.875000000000009
40
0.875000000000009
40
1
40
1
40
1
40
1
41
1
10
12.5084888626749
20
-6.59155783314085
30
0
41
1
10
12.5014585718207
20
-6.57890603008997
30
0
41
1
10
12.4954247084073
20
-6.56602808780178
30
0
41
1
10
12.4882158060363
20
-6.54629936568651
30
0
41
1
10
12.4861211797205
20
-6.53965421097058
30
0
41
1
10
12.4826289856855
20
-6.52620935722234
30
0
41
1
10
12.4812276534714
20
-6.51938181065159
30
0
41
1
10
12.4782501779416
20
-6.49884391772164
30
0
41
1
10
12.4778972829312
20
-6.48518199562068
30
0
41
1
10
12.4801907711555
20
-6.46475151390152
30
0
41
1
10
12.4814271088355
20
-6.45795181362124
30
0
41
1
10
12.4849272864776
20
-6.44437716871329
30
0
41
1
10
12.4872149600474
20
-6.43755343904371
30
0
41
1
10
12.4955492104058
20
-6.41761351818442
30
0
41
1
10
12.5030416810097
20
-6.40497141163584
30
0
41
1
10
12.521698109512
20
-6.3809378588524
30
0
41
1
10
12.5330105032614
20
-6.36945766637237
30
0
41
1
10
12.5579749520146
20
-6.34862123443989
30
0
41
1
10
12.5716849236876
20
-6.33913609572059
30
0
41
1
10
12.6011190364622
20
-6.32170746339742
30
0
41
1
10
12.6168723643077
20
-6.31376464916565
30
0
41
1
10
12.6331908117516
20
-6.30659829010199
30
0
0
SPLINE
5
147
100
AcDbEntity
8
1
62
256
6
ByLayer
370
18
48
1
60
0
100
AcDbSpline
70
4
71
3
72
46
73
42
40
0
40
0
40
0
40
0
40
0.0312500000000012
40
0.0312500000000012
40
0.0625000000000025
40
0.0625000000000025
40
0.0937500000000037
40
0.0937500000000037
40
0.125000000000005
40
0.125000000000005
40
0.140625000000008
40
0.140625000000008
40
0.156250000000012
40
0.156250000000012
40
0.187500000000018
40
0.187500000000018
40
0.250000000000026
40
0.250000000000026
40
0.28125000000003
40
0.28125000000003
40
0.312500000000034
40
0.312500000000034
40
0.375000000000042
40
0.375000000000042
40
0.406250000000043
40
0.406250000000043
40
0.437500000000044
40
0.437500000000044
40
0.500000000000041
40
0.500000000000041
40
0.562500000000038
40
0.562500000000038
40
0.625000000000035
40
0.625000000000035
40
0.750000000000023
40
0.750000000000023
40
0.812500000000017
40
0.812500000000017
40
0.875000000000012
40
0.875000000000012
40
1
40
1
40
1
40
1
41
1
10
12.6331908117517
20
-6.30659829010196
30
0
41
1
10
12.7019501007776
20
-6.27640217274376
30
0
41
1
10
12.7722804205244
20
-6.2496684860364
30
0
41
1
10
12.9152629534051
20
-6.2014101011018
30
0
41
1
10
12.9879230872707
20
-6.1799017339184
30
0
41
1
10
13.1350930831948
20
-6.1410984311178
30
0
41
1
10
13.2096063293457
20
-6.1238104930506
30
0
41
1
10
13.3601728719216
20
-6.09278997062873
30
0
41
1
10
13.4362278281569
20
-6.07906082872361
30
0
41
1
10
13.55130453392
20
-6.06078882649356
30
0
41
1
10
13.589829761289
20
-6.05508638799878
30
0
41
1
10
13.6671917772402
20
-6.04441238171387
30
0
41
1
10
13.7060631410068
20
-6.03943687081301
30
0
41
1
10
13.8228556280372
20
-6.02557838436454
30
0
41
1
10
13.9008476797155
20
-6.01776961027653
30
0
41
1
10
14.135165281652
20
-5.99811423560098
30
0
41
1
10
14.2918297599313
20
-5.99001336468436
30
0
41
1
10
14.5273758568354
20
-5.98398049848191
30
0
41
1
10
14.6059835396607
20
-5.98299683400404
30
0
41
1
10
14.7633688363238
20
-5.9829223302095
30
0
41
1
10
14.8420953071333
20
-5.98383286619861
30
0
41
1
10
15.0779176431586
20
-5.98918000683742
30
0
41
1
10
15.2348423149194
20
-5.99622223625596
30
0
41
1
10
15.4698492728185
20
-6.01130687160344
30
0
41
1
10
15.5481213439992
20
-6.01709123269916
30
0
41
1
10
15.704545212809
20
-6.03008150170922
30
0
41
1
10
15.7827196929115
20
-6.0372901688211
30
0
41
1
10
16.016742924512
20
-6.06089500872906
30
0
41
1
10
16.1721814257923
20
-6.0792717953249
30
0
41
1
10
16.4820093937314
20
-6.12072458757857
30
0
41
1
10
16.636437228157
20
-6.14380866388495
30
0
41
1
10
16.9441544387841
20
-6.19417695269695
30
0
41
1
10
17.0972902229519
20
-6.22143547433984
30
0
41
1
10
17.5546849264863
20
-6.30878038180717
30
0
41
1
10
17.8571164227515
20
-6.37447263922809
30
0
41
1
10
18.3059916554481
20
-6.48159629054641
30
0
41
1
10
18.4548622815313
20
-6.51874559084169
30
0
41
1
10
18.751185037027
20
-6.59558030614565
30
0
41
1
10
18.8985875397396
20
-6.63525389582176
30
0
41
1
10
19.3382243047604
20
-6.75741450190563
30
0
41
1
10
19.6280659463483
20
-6.84308269585566
30
0
41
1
10
19.9150535479965
20
-6.93168689046027
30
0
0
SPLINE
5
148
100
AcDbEntity
8
1
62
256
6
ByLayer
370
18
48
1
60
0
100
AcDbSpline
70
4
71
3
72
28
73
24
40
0
40
0
40
0
40
0
40
0.124999999999998
40
0.124999999999998
40
0.249999999999996
40
0.249999999999996
40
0.312499999999995
40
0.312499999999995
40
0.374999999999994
40
0.437499999999992
40
0.437499999999992
40
0.499999999999991
40
0.499999999999991
40
0.562499999999989
40
0.562499999999989
40
0.624999999999988
40
0.624999999999988
40
0.749999999999984
40
0.87499999999998
40
0.87499999999998
40
0.93749999999999
40
0.93749999999999
40
1
40
1
40
1
40
1
41
1
10
20.6151188102806
20
-6.53771365917694
30
0
41
1
10
20.623917783254
20
-6.58384674545741
30
0
41
1
10
20.6355609991868
20
-6.62923802877148
30
0
41
1
10
20.665102178407
20
-6.71810659319183
30
0
41
1
10
20.6830103902235
20
-6.76159719663042
30
0
41
1
10
20.7148994043704
20
-6.82497773717267
30
0
41
1
10
20.726374395719
20
-6.84580881014904
30
0
41
1
10
20.7509679780877
20
-6.88668141142392
30
0
41
1
10
20.7772283346476
20
-6.92681369873395
30
0
41
1
10
20.8069305198469
20
-6.96546201758798
30
0
41
1
10
20.8384145976186
20
-7.00336470207233
30
0
41
1
10
20.8550054045383
20
-7.02188897167946
30
0
41
1
10
20.8897881229326
20
-7.05796989273415
30
0
41
1
10
20.9079965632485
20
-7.07554667413186
30
0
41
1
10
20.9460614248522
20
-7.10978728670912
30
0
41
1
10
20.9659663340707
20
-7.12648826104018
30
0
41
1
10
21.027815559844
20
-7.17496063797202
30
0
41
1
10
21.1156039614457
20
-7.23501312433271
30
0
41
1
10
21.2133640697223
20
-7.28680011831844
30
0
41
1
10
21.2902172193542
20
-7.32281189510451
30
0
41
1
10
21.3164242192812
20
-7.3343438158565
30
0
41
1
10
21.3699871238239
20
-7.35650240251857
30
0
41
1
10
21.3972980755208
20
-7.36710867883951
30
0
41
1
10
21.425
20
-7.37722565210828
30
0
0
SPLINE
5
149
100
AcDbEntity
8
1
62
256
6
ByLayer
370
18
48
1
60
0
100
AcDbSpline
70
4
71
3
72
20
73
16
40
0
40
0
40
0
40
0
40
0.125000000000001
40
0.125000000000001
40
0.250000000000002
40
0.250000000000002
40
0.375000000000003
40
0.375000000000003
40
0.500000000000004
40
0.500000000000004
40
0.625000000000006
40
0.625000000000006
40
0.750000000000007
40
0.750000000000007
40
1
40
1
40
1
40
1
41
1
10
20.2574425596036
20
-5.55242599909963
30
0
41
1
10
20.2615429456674
20
-5.59757685964186
30
0
41
1
10
20.2668408705621
20
-5.64240250847826
30
0
41
1
10
20.2799495025428
20
-5.73120829205612
30
0
41
1
10
20.2877561510501
20
-5.77517332208546
30
0
41
1
10
20.3060179155748
20
-5.86222284303963
30
0
41
1
10
20.3164779520859
20
-5.9053162938433
30
0
41
1
10
20.3401378020506
20
-5.99036398557286
30
0
41
1
10
20.3533431280025
20
-6.03234947028673
30
0
41
1
10
20.3826627858439
20
-6.11523626154926
30
0
41
1
10
20.3987438146507
20
-6.15604165957453
30
0
41
1
10
20.4338726906196
20
-6.23634264194195
30
0
41
1
10
20.4529482687306
20
-6.27588946592587
30
0
41
1
10
20.5146375906126
20
-6.39215183264133
30
0
41
1
10
20.561686966338
20
-6.46650023729364
30
0
41
1
10
20.6151188102803
20
-6.53771365917612
30
0
0
SPLINE
5
14A
100
AcDbEntity
8
1
62
256
6
ByLayer
370
18
48
1
60
0
100
AcDbSpline
70
4
71
3
72
23
73
19
40
0
40
0
40
0
40
0
40
0.249999999999971
40
0.249999999999971
40
0.312499999999964
40
0.312499999999964
40
0.374999999999957
40
0.499999999999925
40
0.499999999999925
40
0.562499999999924
40
0.562499999999924
40
0.624999999999923
40
0.749999999999924
40
0.749999999999924
40
0.812499999999923
40
0.812499999999923
40
0.874999999999922
40
1
40
1
40
1
40
1
41
1
10
12.9111763433184
20
2.63324269288023
30
0
41
1
10
12.9020712361597
20
2.66246110109239
30
0
41
1
10
12.8963251809722
20
2.69215865179623
30
0
41
1
10
12.8951159372777
20
2.73014701245683
30
0
41
1
10
12.8951821273364
20
2.73777072681432
30
0
41
1
10
12.8959598264515
20
2.7528440379553
30
0
41
1
10
12.8980910928435
20
2.77528570069634
30
0
41
1
10
12.9032098190603
20
2.79720807895637
30
0
41
1
10
12.9104953089763
20
2.81875681814901
30
0
41
1
10
12.9133039518256
20
2.82591231356781
30
0
41
1
10
12.9195446870448
20
2.83981062590431
30
0
41
1
10
12.9298541631819
20
2.86011147386176
30
0
41
1
10
12.942872886561
20
2.87885310617938
30
0
41
1
10
12.9575642659917
20
2.89663491287339
30
0
41
1
10
12.9627521416521
20
2.9024104735812
30
0
41
1
10
12.973499904437
20
2.91348942713211
30
0
41
1
10
12.9902321432563
20
2.92946679005394
30
0
41
1
10
13.0086300448845
20
2.94369723916304
30
0
41
1
10
13.0215285777835
20
2.95252137641279
30
0
0
SPLINE
5
14B
100
AcDbEntity
8
1
62
256
6
ByLayer
370
18
48
1
60
0
100
AcDbSpline
70
4
71
3
72
46
73
42
40
0
40
0
40
0
40
0
40
0.0312500000000095
40
0.0312500000000095
40
0.062500000000019
40
0.062500000000019
40
0.0937500000000285
40
0.0937500000000285
40
0.125000000000038
40
0.125000000000038
40
0.14062500000004
40
0.14062500000004
40
0.156250000000042
40
0.156250000000042
40
0.18750000000004
40
0.18750000000004
40
0.218750000000039
40
0.218750000000039
40
0.250000000000038
40
0.250000000000038
40
0.312500000000029
40
0.312500000000029
40
0.37500000000002
40
0.37500000000002
40
0.406250000000015
40
0.406250000000015
40
0.437500000000011
40
0.437500000000011
40
0.500000000000008
40
0.500000000000008
40
0.562500000000005
40
0.562500000000005
40
0.625000000000002
40
0.625000000000002
40
0.750000000000001
40
0.750000000000001
40
0.812500000000001
40
0.812500000000001
40
0.875
40
0.875
40
1
40
1
40
1
40
1
41
1
10
13.0215285777835
20
2.95252137641279
30
0
41
1
10
13.08340839582
20
2.99485456357601
30
0
41
1
10
13.1474221625882
20
3.03248193288022
30
0
41
1
10
13.2786237968906
20
3.10078597289393
30
0
41
1
10
13.3458218653944
20
3.13143959632427
30
0
41
1
10
13.4827556074415
20
3.18722523387643
30
0
41
1
10
13.5524957099113
20
3.21234725071955
30
0
41
1
10
13.6940941331419
20
3.25800943592566
30
0
41
1
10
13.7659546502815
20
3.27854465120748
30
0
41
1
10
13.8751158987584
20
3.30639889327455
30
0
41
1
10
13.911707032733
20
3.31518260752222
30
0
41
1
10
13.9849777237877
20
3.33175821991185
30
0
41
1
10
14.0216994779464
20
3.33956102062237
30
0
41
1
10
14.1321045438585
20
3.36162652639624
30
0
41
1
10
14.2060269087788
20
3.37455071146653
30
0
41
1
10
14.354428476075
20
3.39729378328823
30
0
41
1
10
14.4289079587127
20
3.40711103522224
30
0
41
1
10
14.5783642063755
20
3.42398134710044
30
0
41
1
10
14.6534017697885
20
3.43103783648837
30
0
41
1
10
14.8787627366326
20
3.44841714397799
30
0
41
1
10
15.0289817586431
20
3.45495882887866
30
0
41
1
10
15.3293838509689
20
3.45967623934385
30
0
41
1
10
15.4795668685644
20
3.45783915240986
30
0
41
1
10
15.7048178313882
20
3.4495959534913
30
0
41
1
10
15.7798975426624
20
3.44592977601573
30
0
41
1
10
15.9300495064937
20
3.43685748036074
30
0
41
1
10
16.0051561765586
20
3.43144826337584
30
0
41
1
10
16.2302190744232
20
3.41274985002681
30
0
41
1
10
16.3797366464691
20
3.39701523802026
30
0
41
1
10
16.6778221245672
20
3.35958749853324
30
0
41
1
10
16.8263896433207
20
3.3378918907932
30
0
41
1
10
17.1226468772075
20
3.28894370525563
30
0
41
1
10
17.2703915943517
20
3.26167827092439
30
0
41
1
10
17.7120280981878
20
3.1720549315512
30
0
41
1
10
18.0035957067211
20
3.10205598514034
30
0
41
1
10
18.4371596011341
20
2.98310011680533
30
0
41
1
10
18.5810739473523
20
2.94110596464711
30
0
41
1
10
18.8675890423286
20
2.85265181290336
30
0
41
1
10
19.0100308173425
20
2.80624163553725
30
0
41
1
10
19.4350418259259
20
2.66072075747482
30
0
41
1
10
19.7152985934366
20
2.55532461844635
30
0
41
1
10
19.992786413354
20
2.44213149028212
30
0
0
SPLINE
5
14C
100
AcDbEntity
8
1
62
256
6
ByLayer
370
18
48
1
60
0
100
AcDbSpline
70
4
71
3
72
28
73
24
40
0
40
0
40
0
40
0
40
0.125000000000004
40
0.125000000000004
40
0.250000000000007
40
0.250000000000007
40
0.312500000000009
40
0.312500000000009
40
0.37500000000001
40
0.437500000000012
40
0.437500000000012
40
0.500000000000013
40
0.500000000000013
40
0.562500000000014
40
0.562500000000014
40
0.625000000000016
40
0.625000000000016
40
0.750000000000018
40
0.87500000000002
40
0.87500000000002
40
0.93750000000001
40
0.93750000000001
40
1
40
1
40
1
40
1
41
1
10
20.6151188102755
20
3.04694531851211
30
0
41
1
10
20.6239177832487
20
2.98684342276195
30
0
41
1
10
20.6355609991867
20
2.92693603612113
30
0
41
1
10
20.6651021784069
20
2.80816263425842
30
0
41
1
10
20.6830103902233
20
2.74927784196578
30
0
41
1
10
20.7148994043702
20
2.66240202384148
30
0
41
1
10
20.7263743957188
20
2.63366718088255
30
0
41
1
10
20.7509679780875
20
2.57694322777363
30
0
41
1
10
20.7772283346473
20
2.52089781174124
30
0
41
1
10
20.8069305198467
20
2.46627004090803
30
0
41
1
10
20.8384145976185
20
2.4123845515775
30
0
41
1
10
20.8550054045381
20
2.38588978954203
30
0
41
1
10
20.8897881229324
20
2.33399522884579
30
0
41
1
10
20.9079965632483
20
2.30856683421294
30
0
41
1
10
20.946061424852
20
2.25876392659376
30
0
41
1
10
20.9659663340705
20
2.23433470156721
30
0
41
1
10
21.0278155598438
20
2.16306642524003
30
0
41
1
10
21.1156039614455
20
2.07377589015619
30
0
41
1
10
21.2133640697222
20
1.99531532460418
30
0
41
1
10
21.2902172193541
20
1.9403355450084
30
0
41
1
10
21.3164242192812
20
1.922653636891
30
0
41
1
10
21.3699871238238
20
1.88855100869918
30
0
41
1
10
21.3972980755208
20
1.872161540874
30
0
41
1
10
21.425
20
1.85647455423541
30
0
0
SPLINE
5
14D
100
AcDbEntity
8
1
62
256
6
ByLayer
370
18
48
1
60
0
100
AcDbSpline
70
4
71
3
72
20
73
16
40
0
40
0
40
0
40
0
40
0.125
40
0.125
40
0.25
40
0.25
40
0.375
40
0.375
40
0.5
40
0.5
40
0.625000000000001
40
0.625000000000001
40
0.750000000000001
40
0.750000000000001
40
1
40
1
40
1
40
1
41
1
10
20.2576672404605
20
4.22394298794575
30
0
41
1
10
20.2618016398932
20
4.17425275897568
30
0
41
1
10
20.2671295245696
20
4.12439221931274
30
0
41
1
10
20.2802879419334
20
4.0245685776795
30
0
41
1
10
20.2881148439186
20
3.97461937638866
30
0
41
1
10
20.3064072380155
20
3.87467324721757
30
0
41
1
10
20.3168771562698
20
3.8246673595047
30
0
41
1
10
20.3405456724972
20
3.72493696019259
30
0
41
1
10
20.3537499160741
20
3.67517657523183
30
0
41
1
10
20.38305577432
20
3.57591142573784
30
0
41
1
10
20.3991227195718
20
3.52652561230838
30
0
41
1
10
20.4342122314222
20
3.4283292366232
30
0
41
1
10
20.4532618197677
20
3.37945687003548
30
0
41
1
10
20.5148513809432
20
3.23431674677329
30
0
41
1
10
20.5618083155736
20
3.13951101355085
30
0
41
1
10
20.6151188102809
20
3.04694531850896
30
0
0
SPLINE
5
14E
100
AcDbEntity
8
1
62
256
6
ByLayer
370
18
48
1
60
0
100
AcDbSpline
70
4
71
3
72
34
73
30
40
0
40
0
40
0
40
0
40
0.124999999999998
40
0.124999999999998
40
0.249999999999996
40
0.249999999999996
40
0.374999999999994
40
0.374999999999994
40
0.406249999999995
40
0.406249999999995
40
0.437499999999996
40
0.437499999999996
40
0.499999999999997
40
0.499999999999997
40
0.625000000000003
40
0.625000000000003
40
0.687500000000005
40
0.687500000000005
40
0.718750000000004
40
0.718750000000004
40
0.734375000000003
40
0.734375000000003
40
0.750000000000002
40
0.750000000000002
40
0.875000000000001
40
0.875000000000001
40
0.937500000000001
40
0.937500000000001
40
1
40
1
40
1
40
1
41
1
10
20.2576672404607
20
4.22394298794569
30
0
41
1
10
19.8495808648588
20
4.45061648674775
30
0
41
1
10
19.447211629616
20
4.67914279771361
30
0
41
1
10
18.6556445902814
20
5.13993222861694
30
0
41
1
10
18.2664465493833
20
5.37220616343197
30
0
41
1
10
17.5032190917547
20
5.8399563390052
30
0
41
1
10
17.1291897603524
20
6.07545113794936
30
0
41
1
10
16.6725461901278
20
6.37085974990603
30
0
41
1
10
16.5817627667153
20
6.42999013557585
30
0
41
1
10
16.4013243555208
20
6.54830852208764
30
0
41
1
10
16.311560507102
20
6.60756953444368
30
0
41
1
10
16.0453177891415
20
6.78450149907292
30
0
41
1
10
15.871619711277
20
6.90149725363813
30
0
41
1
10
15.3623017678231
20
7.24871741038388
30
0
41
1
10
15.0384676551721
20
7.47525302923216
30
0
41
1
10
14.5776546520717
20
7.80285042934548
30
0
41
1
10
14.4282041677549
20
7.90999711835315
30
0
41
1
10
14.2104129776969
20
8.06684299743478
30
0
41
1
10
14.1388799086688
20
8.11847771405934
30
0
41
1
10
14.0331950327024
20
8.19484393488048
30
0
41
1
10
13.9982026236855
20
8.22014228662871
30
0
41
1
10
13.9289872811925
20
8.27019119808222
30
0
41
1
10
13.8947526735282
20
8.29495016387486
30
0
41
1
10
13.5899730628909
20
8.51532402948794
30
0
41
1
10
13.3427408210964
20
8.6938146491951
30
0
41
1
10
13.0052761039009
20
8.92899765752784
30
0
41
1
10
12.8983535201211
20
9.0019532236318
30
0
41
1
10
12.695346119028
20
9.1356914953617
30
0
41
1
10
12.5992598964213
20
9.19647682829873
30
0
41
1
10
12.508488862675
20
9.25041935485629
30
0
0
SPLINE
5
14F
100
AcDbEntity
8
1
62
256
6
ByLayer
370
18
48
1
60
0
100
AcDbSpline
70
4
71
3
72
26
73
22
40
0
40
0
40
0
40
0
40
0.124999999999973
40
0.124999999999973
40
0.187499999999974
40
0.187499999999974
40
0.249999999999976
40
0.249999999999976
40
0.374999999999988
40
0.374999999999988
40
0.437499999999999
40
0.437499999999999
40
0.50000000000001
40
0.50000000000001
40
0.625000000000007
40
0.625000000000007
40
0.750000000000005
40
0.750000000000005
40
0.875000000000002
40
0.875000000000002
40
1
40
1
40
1
40
1
41
1
10
12.5084888626749
20
9.25041935485629
30
0
41
1
10
12.5014585718208
20
9.25459724768683
30
0
41
1
10
12.4954247084073
20
9.25879193795521
30
0
41
1
10
12.4882158060363
20
9.26512379766726
30
0
41
1
10
12.4861211797205
20
9.26724111912853
30
0
41
1
10
12.4826289856855
20
9.27149267537212
30
0
41
1
10
12.4812276534714
20
9.27363556452212
30
0
41
1
10
12.4782501779416
20
9.28003167799278
30
0
41
1
10
12.4778972829313
20
9.28422058319916
30
0
41
1
10
12.4801907711556
20
9.29038898376066
30
0
41
1
10
12.4814271088355
20
9.29242594463642
30
0
41
1
10
12.4849272864777
20
9.2964609491774
30
0
41
1
10
12.4872149600474
20
9.29847316990922
30
0
41
1
10
12.4955492104058
20
9.30430836728286
30
0
41
1
10
12.5030416810097
20
9.30794815728964
30
0
41
1
10
12.521698109512
20
9.31477622620136
30
0
41
1
10
12.5330105032614
20
9.31798835728188
30
0
41
1
10
12.5579749520147
20
9.32375139902337
30
0
41
1
10
12.5716849236877
20
9.32633959921225
30
0
41
1
10
12.6011190364622
20
9.3310507971097
30
0
41
1
10
12.6168723643078
20
9.33317322611072
30
0
41
1
10
12.6331908117517
20
9.33507334470141
30
0
0
SPLINE
5
150
100
AcDbEntity
8
1
62
256
6
ByLayer
370
18
48
1
60
0
100
AcDbSpline
70
4
71
3
72
46
73
42
40
0
40
0
40
0
40
0
40
0.0312499999999974
40
0.0312499999999974
40
0.0624999999999948
40
0.0624999999999948
40
0.0937499999999922
40
0.0937499999999922
40
0.12499999999999
40
0.12499999999999
40
0.140624999999988
40
0.140624999999988
40
0.156249999999987
40
0.156249999999987
40
0.187499999999985
40
0.187499999999985
40
0.249999999999985
40
0.249999999999985
40
0.281249999999985
40
0.281249999999985
40
0.312499999999985
40
0.312499999999985
40
0.374999999999986
40
0.374999999999986
40
0.406249999999983
40
0.406249999999983
40
0.437499999999981
40
0.437499999999981
40
0.499999999999981
40
0.499999999999981
40
0.562499999999981
40
0.562499999999981
40
0.624999999999982
40
0.624999999999982
40
0.749999999999988
40
0.749999999999988
40
0.812499999999991
40
0.812499999999991
40
0.874999999999994
40
0.874999999999994
40
1
40
1
40
1
40
1
41
1
10
12.6331908117517
20
9.33507334470124
30
0
41
1
10
12.7019501007777
20
9.34307967029139
30
0
41
1
10
12.7722804205245
20
9.34988154668815
30
0
41
1
10
12.9152629534051
20
9.36184437501973
30
0
41
1
10
12.9879230872707
20
9.36699754620352
30
0
41
1
10
13.1350930831948
20
9.3760933347107
30
0
41
1
10
13.2096063293457
20
9.38003265839444
30
0
41
1
10
13.3601728719216
20
9.38697524181015
30
0
41
1
10
13.4362278281569
20
9.38997690177138
30
0
41
1
10
13.55130453392
20
9.39391503199855
30
0
41
1
10
13.5898297612891
20
9.39513309782583
30
0
41
1
10
13.6671917772403
20
9.39739746467347
30
0
41
1
10
13.7060631410069
20
9.39844457786796
30
0
41
1
10
13.8228556280372
20
9.40134376674004
30
0
41
1
10
13.9008476797156
20
9.40295306742991
30
0
41
1
10
14.135165281652
20
9.40697425061165
30
0
41
1
10
14.2918297599313
20
9.40858943452764
30
0
41
1
10
14.5273758568354
20
9.40979414216906
30
0
41
1
10
14.6059835396607
20
9.4099897050651
30
0
41
1
10
14.7633688363239
20
9.41000453916783
30
0
41
1
10
14.8420953071334
20
9.40982347976822
30
0
41
1
10
15.0779176431586
20
9.4087560937848
30
0
41
1
10
15.2348423149194
20
9.40734928171818
30
0
41
1
10
15.4698492728186
20
9.40427770207552
30
0
41
1
10
15.5481213439993
20
9.40309261360025
30
0
41
1
10
15.7045452128091
20
9.40040364493311
30
0
41
1
10
15.7827196929116
20
9.39889915950218
30
0
41
1
10
16.016742924512
20
9.39391303176373
30
0
41
1
10
16.1721814257923
20
9.3899591797406
30
0
41
1
10
16.4820093937315
20
9.38075095669893
30
0
41
1
10
16.6364372281571
20
9.3754945362322
30
0
41
1
10
16.9441544387842
20
9.36360002955308
30
0
41
1
10
17.097290222952
20
9.35696787928256
30
0
41
1
10
17.5546849264864
20
9.33485560671866
30
0
41
1
10
17.8571164227515
20
9.31715065484204
30
0
41
1
10
18.3059916554481
20
9.28543751949476
30
0
41
1
10
18.4548622815314
20
9.27400410322096
30
0
41
1
10
18.7511850370271
20
9.24926586471321
30
0
41
1
10
18.8985875397397
20
9.23596433781094
30
0
41
1
10
19.3382243047604
20
9.19308669470158
30
0
41
1
10
19.6280659463483
20
9.16052211337478
30
0
41
1
10
19.9150535479966
20
9.12340532199875
30
0
0
SPLINE
5
151
100
AcDbEntity
8
1
62
256
6
ByLayer
370
18
48
1
60
0
100
AcDbSpline
70
4
71
3
72
28
73
24
40
0
40
0
40
0
40
0
40
0.124999999999997
40
0.124999999999997
40
0.249999999999993
40
0.249999999999993
40
0.312499999999992
40
0.312499999999992
40
0.374999999999991
40
0.43749999999999
40
0.43749999999999
40
0.499999999999989
40
0.499999999999989
40
0.562499999999987
40
0.562499999999987
40
0.624999999999986
40
0.624999999999986
40
0.749999999999984
40
0.874999999999981
40
0.874999999999981
40
0.937499999999991
40
0.937499999999991
40
1
40
1
40
1
40
1
41
1
10
20.615118810282
20
9.26785206487187
30
0
41
1
10
20.6239177832555
20
9.25321168004086
30
0
41
1
10
20.6355609991869
20
9.23804959407508
30
0
41
1
10
20.6651021784071
20
9.20690848596797
30
0
41
1
10
20.6830103902236
20
9.190923842384
30
0
41
1
10
20.7148994043705
20
9.16658840174887
30
0
41
1
10
20.726374395719
20
9.15841197966441
30
0
41
1
10
20.7509679780878
20
9.1420322388777
30
0
41
1
10
20.7772283346477
20
9.12560697839868
30
0
41
1
10
20.806930519847
20
9.10914688021464
30
0
41
1
10
20.8384145976187
20
9.09269867495667
30
0
41
1
10
20.8550054045384
20
9.08450377700868
30
0
41
1
10
20.8897881229327
20
9.06825858693264
30
0
41
1
10
20.9079965632486
20
9.06019958118173
30
0
41
1
10
20.9460614248523
20
9.04423838825579
30
0
41
1
10
20.9659663340708
20
9.03631821265432
30
0
41
1
10
21.0278155598441
20
9.01297228479095
30
0
41
1
10
21.1156039614458
20
8.98307189751318
30
0
41
1
10
21.2133640697223
20
8.95585512779505
30
0
41
1
10
21.2902172193542
20
8.93651743751778
30
0
41
1
10
21.3164242192813
20
8.93025052176532
30
0
41
1
10
21.3699871238239
20
8.91808423329641
30
0
41
1
10
21.3972980755208
20
8.9121959301946
30
0
41
1
10
21.425
20
8.90652668203208
30
0
0
SPLINE
5
152
100
AcDbEntity
8
1
62
256
6
ByLayer
370
18
48
1
60
0
100
AcDbSpline
70
4
71
3
72
20
73
16
40
0
40
0
40
0
40
0
40
0.124999999999999
40
0.124999999999999
40
0.249999999999997
40
0.249999999999997
40
0.374999999999996
40
0.374999999999996
40
0.499999999999994
40
0.499999999999994
40
0.624999999999993
40
0.624999999999993
40
0.749999999999991
40
0.749999999999991
40
1
40
1
40
1
40
1
41
1
10
20.2574425596036
20
9.47861129369727
30
0
41
1
10
20.2615429456674
20
9.47313368970876
30
0
41
1
10
20.2668408705622
20
9.4671764999238
30
0
41
1
10
20.279949502543
20
9.45434113818482
30
0
41
1
10
20.2877561510502
20
9.44746587261011
30
0
41
1
10
20.306017915575
20
9.43282219249059
30
0
41
1
10
20.3164779520861
20
9.42505116616232
30
0
41
1
10
20.3401378020509
20
9.40869088289699
30
0
41
1
10
20.3533431280028
20
9.40009669202433
30
0
41
1
10
20.3826627858444
20
9.38211840742676
30
0
41
1
10
20.3987438146512
20
9.37275498622833
30
0
41
1
10
20.4338726906202
20
9.3533407352933
30
0
41
1
10
20.4529482687313
20
9.34327606943762
30
0
41
1
10
20.5146375906136
20
9.31224740742977
30
0
41
1
10
20.561686966339
20
9.29045172133462
30
0
41
1
10
20.6151188102815
20
9.26785206487207
30
0
0
SPLINE
5
153
100
AcDbEntity
8
1
62
256
6
ByLayer
370
18
48
1
60
0
100
AcDbSpline
70
4
71
3
72
10
73
6
40
0
40
0
40
0
40
0
40
0.848086631631344
40
0.848086631631344
40
1
40
1
40
1
40
1
41
1
10
20.2574425596036
20
9.47861129369727
30
0
41
1
10
19.8507743181724
20
9.50367120670359
30
0
41
1
10
19.4508844353343
20
9.5194253127587
30
0
41
1
10
18.9887008522898
20
9.5245577691295
30
0
41
1
10
18.9187430200401
20
9.52497243404775
30
0
41
1
10
18.8490468961965
20
9.52500449805291
30
0
0
SPLINE
5
154
100
AcDbEntity
8
1
62
256
6
ByLayer
370
18
48
1
60
0
100
AcDbSpline
70
4
71
3
72
14
73
10
40
0
40
0
40
0
40
0
40
0.500000000000029
40
0.500000000000029
40
0.625000000000022
40
0.625000000000022
40
0.750000000000014
40
0.750000000000014
40
1
40
1
40
1
40
1
41
1
10
21.425
20
-5.52400763547934
30
0
41
1
10
21.2300693261829
20
-5.50757748680985
30
0
41
1
10
21.035281712834
20
-5.50156342405313
30
0
41
1
10
20.7917463845822
20
-5.50736457260692
30
0
41
1
10
20.7430365470453
20
-5.50919239946481
30
0
41
1
10
20.645604592086
20
-5.51419740387556
30
0
41
1
10
20.5968813839749
20
-5.5173757148261
30
0
41
1
10
20.4510265933212
20
-5.52892648865606
30
0
41
1
10
20.3540954503488
20
-5.53931840352195
30
0
41
1
10
20.2574425596036
20
-5.55242599909965
30
0
0
SPLINE
5
155
100
AcDbEntity
8
1
62
256
6
ByLayer
370
18
48
1
60
0
100
AcDbSpline
70
4
71
3
72
8
73
4
40
0
40
0
40
0
40
0
40
1
40
1
40
1
40
1
41
1
10
21.5526808390895
20
-5.58589111168737
30
0
41
1
10
21.5100640342407
20
-5.56541278545763
30
0
41
1
10
21.4675033891607
20
-5.54478598002646
30
0
41
1
10
21.425
20
-5.52400763547931
30
0
0
SPLINE
5
156
100
AcDbEntity
8
1
62
256
6
ByLayer
370
18
48
1
60
0
100
AcDbSpline
70
4
71
3
72
69
73
65
40
0
40
0
40
0
40
0
40
0.0093600058179238
40
0.0188563047355364
40
0.0284890715413784
40
0.0382584758951472
40
0.0481646825681771
40
0.0582078516637335
40
0.068388138818561
40
0.0787056953870366
40
0.0891606686091238
40
0.0997532017632723
40
0.110483434305272
40
0.121351501993993
40
0.132357537004887
40
0.143501668032034
40
0.154784020379461
40
0.166204716042398
40
0.178857025192434
40
0.191751986467674
40
0.20488970026736
40
0.218270262018733
40
0.231893762247846
40
0.24576028662455
40
0.259869915983882
40
0.274222726325828
40
0.288818788795212
40
0.303658169643269
40
0.318740930172267
40
0.334067126664432
40
0.349636810296262
40
0.365450027039214
40
0.381506817547665
40
0.397807217034934
40
0.41435125513808
40
0.431138955772142
40
0.448170336974387
40
0.465445410739124
40
0.482964182843563
40
0.500726652665163
40
0.518732812990877
40
0.536982649818681
40
0.555476142151723
40
0.574213261785413
40
0.593193973087761
40
0.612418232773233
40
0.631885989670389
40
0.651597184483544
40
0.671551749548691
40
0.691749608583889
40
0.712190676434347
40
0.732874858812374
40
0.753802052032419
40
0.774972142741354
40
0.796385007644197
40
0.818040513225449
40
0.839938515466199
40
0.862078859557184
40
0.88446137960795
40
0.907085898352288
40
0.929952226850099
40
0.953060164185848
40
0.976409497163773
40
1
40
1
40
1
40
1
41
1
10
21.554275634663
20
-5.58295039397564
30
0
41
1
10
21.5528453324988
20
-5.56861304198091
30
0
41
1
10
21.5499639012266
20
-5.53972956866139
30
0
41
1
10
21.5458044721405
20
-5.49609114985526
30
0
41
1
10
21.5417234457153
20
-5.45182819829139
30
0
41
1
10
21.5377353619247
20
-5.40694173543562
30
0
41
1
10
21.5338362421012
20
-5.36143299187211
30
0
41
1
10
21.5300271760294
20
-5.31530320604605
30
0
41
1
10
21.5263078665888
20
-5.26855368115878
30
0
41
1
10
21.5226783960832
20
-5.22118577143624
30
0
41
1
10
21.5191387427197
20
-5.17320088774062
30
0
41
1
10
21.5156889142438
20
-5.12460049791017
30
0
41
1
10
21.5123289060498
20
-5.07538612856294
30
0
41
1
10
21.5090587330085
20
-5.02555936650808
30
0
41
1
10
21.5058783432578
20
-4.97512186032483
30
0
41
1
10
21.5027879365581
20
-4.92407532175363
30
0
41
1
10
21.4997867563859
20
-4.87242152776469
30
0
41
1
10
21.4967848657979
20
-4.81849496611952
30
0
41
1
10
21.4937760866176
20
-4.76214232203605
30
0
41
1
10
21.4907521963691
20
-4.70321136860784
30
0
41
1
10
21.4877969298661
20
-4.64321329034257
30
0
41
1
10
21.4849093979994
20
-4.582151760128
30
0
41
1
10
21.4820898483119
20
-4.52003062942484
30
0
41
1
10
21.4793382150693
20
-4.45685393809782
30
0
41
1
10
21.4766545186319
20
-4.39262591947028
30
0
41
1
10
21.4740387555203
20
-4.32735100679398
30
0
41
1
10
21.4714909286782
20
-4.26103383942583
30
0
41
1
10
21.4690110391578
20
-4.19367926917795
30
0
41
1
10
21.4665990884165
20
-4.12529236670849
30
0
41
1
10
21.4642550776931
20
-4.05587842798636
30
0
41
1
10
21.4619790081879
20
-3.98544298081572
30
0
41
1
10
21.4597708810197
20
-3.91399179142039
30
0
41
1
10
21.4576306972447
20
-3.84153087108297
30
0
41
1
10
21.4555584578567
20
-3.76806648283559
30
0
41
1
10
21.4535541637933
20
-3.69360514819798
30
0
41
1
10
21.4516178159381
20
-3.6181536539587
30
0
41
1
10
21.449749415126
20
-3.54171905899526
30
0
41
1
10
21.4479489621449
20
-3.46430870112854
30
0
41
1
10
21.4462164577396
20
-3.3859302040068
30
0
41
1
10
21.4445519026145
20
-3.30659148401426
30
0
41
1
10
21.4429552974356
20
-3.22630075719948
30
0
41
1
10
21.4414266428337
20
-3.14506654621761
30
0
41
1
10
21.4399659394054
20
-3.06289768728155
30
0
41
1
10
21.4385731877165
20
-2.97980333711618
30
0
41
1
10
21.4372483883027
20
-2.89579297990949
30
0
41
1
10
21.4359915416718
20
-2.81087643425459
30
0
41
1
10
21.4348026483052
20
-2.72506386007649
30
0
41
1
10
21.4336817086596
20
-2.63836576553678
30
0
41
1
10
21.4326287231678
20
-2.55079301390896
30
0
41
1
10
21.4316436922408
20
-2.46235683042019
30
0
41
1
10
21.4307266162673
20
-2.37306880904231
30
0
41
1
10
21.4298774956195
20
-2.28294091926026
30
0
41
1
10
21.4290963306381
20
-2.1919855126776
30
0
41
1
10
21.4283831216923
20
-2.10021532995321
30
0
41
1
10
21.4277378689575
20
-2.00764350615563
30
0
41
1
10
21.4271605732632
20
-1.91428358176029
30
0
41
1
10
21.4266512328776
20
-1.82014949182488
30
0
41
1
10
21.4262098557144
20
-1.72525563753095
30
0
41
1
10
21.425836413022
20
-1.62961664472445
30
0
41
1
10
21.425531015059
20
-1.53324830928901
30
0
41
1
10
21.4252932448258
20
-1.43616404056016
30
0
41
1
10
21.4251246845082
20
-1.33838837587143
30
0
41
1
10
21.4250193371209
20
-1.23990577119395
30
0
41
1
10
21.4250064677472
20
-1.1742090679866
30
0
41
1
10
21.425
20
-1.14119194646364
30
0
0
SPLINE
5
157
100
AcDbEntity
8
1
62
256
6
ByLayer
370
18
48
1
60
0
100
AcDbSpline
70
4
71
3
72
38
73
34
40
0
40
0
40
0
40
0
40
0.124999999999991
40
0.124999999999991
40
0.249999999999982
40
0.249999999999982
40
0.312499999999977
40
0.312499999999977
40
0.374999999999972
40
0.374999999999972
40
0.437499999999968
40
0.437499999999968
40
0.468749999999964
40
0.484374999999964
40
0.484374999999964
40
0.499999999999963
40
0.499999999999963
40
0.624999999999966
40
0.624999999999966
40
0.687499999999968
40
0.687499999999968
40
0.74999999999997
40
0.74999999999997
40
0.765624999999971
40
0.765624999999971
40
0.781249999999971
40
0.812499999999975
40
0.812499999999975
40
0.874999999999983
40
0.874999999999983
40
0.937499999999992
40
0.937499999999992
40
1
40
1
40
1
40
1
41
1
10
20.2574425596036
20
-5.55242599909965
30
0
41
1
10
19.8507743181724
20
-5.3458618444576
30
0
41
1
10
19.4508844353342
20
-5.12715329510621
30
0
41
1
10
18.6669409990551
20
-4.660875095015
30
0
41
1
10
18.2828865972206
20
-4.4133178378128
30
0
41
1
10
17.7206842634185
20
-4.01592078008724
30
0
41
1
10
17.5355998318806
20
-3.87910005116456
30
0
41
1
10
17.1704360795642
20
-3.59584830523502
30
0
41
1
10
16.990356723749
20
-3.44941812150503
30
0
41
1
10
16.6356022070623
20
-3.14591490004867
30
0
41
1
10
16.4609269771326
20
-2.98884303919618
30
0
41
1
10
16.203287720209
20
-2.74435630182032
30
0
41
1
10
16.0755618276762
20
-2.61989112225314
30
0
41
1
10
15.9495398884983
20
-2.49190365965225
30
0
41
1
10
15.8659111995315
20
-2.40577322726404
30
0
41
1
10
15.8243694691943
20
-2.36238667972577
30
0
41
1
10
15.453580429365
20
-1.96962841099136
30
0
41
1
10
15.144584671162
20
-1.60287675808135
30
0
41
1
10
14.7130803295813
20
-1.02451625254358
30
0
41
1
10
14.5745717496442
20
-0.827025183502656
30
0
41
1
10
14.3083436315303
20
-0.422331561708802
30
0
41
1
10
14.1806231849749
20
-0.215130029263918
30
0
41
1
10
14.0277964790376
20
0.0501500128129919
30
0
41
1
10
13.9976182742489
20
0.103442068080028
30
0
41
1
10
13.9381976673516
20
0.210190875105695
30
0
41
1
10
13.8503921796862
20
0.370696656035591
30
0
41
1
10
13.7665092679389
20
0.532318212787629
30
0
41
1
10
13.6038367040101
20
0.856965245417427
30
0
41
1
10
13.5021758954118
20
1.07526770830449
30
0
41
1
10
13.3117693604981
20
1.51518374047353
30
0
41
1
10
13.2230222295035
20
1.73679704462691
30
0
41
1
10
13.0579072788018
20
2.18293130557666
30
0
41
1
10
12.9815377472204
20
2.40745202553484
30
0
41
1
10
12.9111763433183
20
2.63324269288026
30
0
0
SPLINE
5
158
100
AcDbEntity
8
1
62
256
6
ByLayer
370
18
48
1
60
0
100
AcDbSpline
70
4
71
3
72
12
73
8
40
0
40
0
40
0
40
0
40
0.249999999999996
40
0.249999999999996
40
0.499999999999993
40
0.499999999999993
40
1
40
1
40
1
40
1
41
1
10
42.6109732999398
20
-0.663947867478356
30
0
41
1
10
42.5982717289981
20
-0.657694501021922
30
0
41
1
10
42.5859091485586
20
-0.651784814233821
30
0
41
1
10
42.5615859003679
20
-0.640355594502552
30
0
41
1
10
42.5496305008258
20
-0.634841710405482
30
0
41
1
10
42.514191105905
20
-0.618695088928092
30
0
41
1
10
42.4911260781723
20
-0.608448911604029
30
0
41
1
10
42.4683940907974
20
-0.598473650800855
30
0
0
SPLINE
5
159
100
AcDbEntity
8
1
62
256
6
ByLayer
370
18
48
1
60
0
100
AcDbSpline
70
4
71
3
72
25
73
21
40
0
40
0
40
0
40
0
40
0.125000000000008
40
0.125000000000008
40
0.187500000000012
40
0.187500000000012
40
0.250000000000016
40
0.250000000000016
40
0.31250000000002
40
0.31250000000002
40
0.375000000000024
40
0.500000000000032
40
0.500000000000032
40
0.750000000000032
40
0.750000000000032
40
0.875000000000024
40
0.875000000000024
40
0.937500000000012
40
0.937500000000012
40
1
40
1
40
1
40
1
41
1
10
42.4683940908004
20
-0.598473650804124
30
0
41
1
10
42.3852090922264
20
-0.554989884016749
30
0
41
1
10
42.3021045418795
20
-0.51103927723284
30
0
41
1
10
42.1775314171058
20
-0.444487293601526
30
0
41
1
10
42.1360209968545
20
-0.422198745576537
30
0
41
1
10
42.0530218732482
20
-0.377423150834943
30
0
41
1
10
42.0115319587917
20
-0.35492752310833
30
0
41
1
10
41.9285729279144
20
-0.309785652797018
30
0
41
1
10
41.8870999731706
20
-0.287111811257063
30
0
41
1
10
41.8041687718775
20
-0.241616804112226
30
0
41
1
10
41.6797903373623
20
-0.173127422242231
30
0
41
1
10
41.5554398857276
20
-0.103921680519818
30
0
41
1
10
41.3066974681886
20
0.0353680563972603
30
0
41
1
10
41.1408169273805
20
0.129402339539752
30
0
41
1
10
40.8915532345336
20
0.271842995990568
30
0
41
1
10
40.8083908996894
20
0.319553594918261
30
0
41
1
10
40.6834830529797
20
0.391409398999002
30
0
41
1
10
40.6418197733193
20
0.415409368110488
30
0
41
1
10
40.558428518869
20
0.463496297184008
30
0
41
1
10
40.5167181611503
20
0.487549943862689
30
0
41
1
10
40.474999834117
20
0.511600594198654
30
0
0
SPLINE
5
15A
100
AcDbEntity
8
1
62
256
6
ByLayer
370
13
48
1
60
0
100
AcDbSpline
70
4
71
3
72
12
73
8
40
0
40
0
40
0
40
0
40
0.0034403641851266
40
0.202752291348101
40
0.402064218511076
40
0.601376145674051
40
1
40
1
40
1
40
1
41
1
10
39.3460298693229
20
1.16077273431347
30
0
41
1
10
39.3254782462152
20
1.1717199814716
30
0
41
1
10
38.1143016231076
20
1.81672055239792
30
0
41
1
10
35.7125
20
3.07681500486279
30
0
41
1
10
32.140625
20
4.80534958211339
30
0
41
1
10
27.3781250000001
20
6.81452623710058
30
0
41
1
10
23.80625
20
7.87378426278593
30
0
41
1
10
21.425
20
8.31651969702219
30
0
0
SPLINE
5
15B
100
AcDbEntity
8
1
62
256
6
ByLayer
370
18
48
1
60
0
100
AcDbSpline
70
4
71
3
72
25
73
21
40
0
40
0
40
0
40
0
40
0.125000000000011
40
0.125000000000011
40
0.187500000000009
40
0.187500000000009
40
0.250000000000008
40
0.250000000000008
40
0.312500000000006
40
0.312500000000006
40
0.375000000000004
40
0.5
40
0.5
40
0.749999999999993
40
0.749999999999993
40
0.874999999999988
40
0.874999999999988
40
0.937499999999994
40
0.937499999999994
40
1
40
1
40
1
40
1
41
1
10
42.4683940880716
20
-8.19967076730293
30
0
41
1
10
42.3851938534408
20
-8.19410751397822
30
0
41
1
10
42.3020760620126
20
-8.18704793156772
30
0
41
1
10
42.1774859698739
20
-8.17428246806202
30
0
41
1
10
42.1359703775139
20
-8.16966374536185
30
0
41
1
10
42.052961872752
20
-8.15970259589159
30
0
41
1
10
42.011467798504
20
-8.15431324897202
30
0
41
1
10
41.9285011932106
20
-8.14301817738257
30
0
41
1
10
41.8870249650041
20
-8.13696125785026
30
0
41
1
10
41.8040879754937
20
-8.12430181620948
30
0
41
1
10
41.6797021377124
20
-8.10435208544467
30
0
41
1
10
41.5553482406973
20
-8.08143763785293
30
0
41
1
10
41.3066045436346
20
-8.03144283849841
30
0
41
1
10
41.1407306103935
20
-7.99256481467992
30
0
41
1
10
40.8914896157795
20
-7.92501573147047
30
0
41
1
10
40.8083369798145
20
-7.90096144276205
30
0
41
1
10
40.6834471241577
20
-7.86244969299639
30
0
41
1
10
40.641790413589
20
-7.84920906662515
30
0
41
1
10
40.5584134965328
20
-7.82189080576708
30
0
41
1
10
40.5167107017596
20
-7.8080853524981
30
0
41
1
10
40.4749998338774
20
-7.7942355762641
30
0
0
SPLINE
5
15C
100
AcDbEntity
8
1
62
256
6
ByLayer
370
13
48
1
60
0
100
AcDbSpline
70
4
71
3
72
8
73
4
40
0
40
0
40
0
40
0
40
1
40
1
40
1
40
1
41
1
10
22.6455845229449
20
1.16080742549491
30
0
41
1
10
22.2387230152966
20
1.37753240333799
30
0
41
1
10
21.8318615076483
20
1.59319307692402
30
0
41
1
10
21.425
20
1.80718803944697
30
0
0
SPLINE
5
15D
100
AcDbEntity
8
1
62
256
6
ByLayer
370
18
48
1
60
0
100
AcDbSpline
70
4
71
3
72
8
73
4
40
0
40
0
40
0
40
0
40
1
40
1
40
1
40
1
41
1
10
21.5624352994987
20
3.69441071646412
30
0
41
1
10
21.5165671681089
20
3.71935418892863
30
0
41
1
10
21.4707550415466
20
3.74432606113675
30
0
41
1
10
21.425
20
3.7693267698765
30
0
0
SPLINE
5
15E
100
AcDbEntity
8
1
62
256
6
ByLayer
370
18
48
1
60
0
100
AcDbSpline
70
4
71
3
72
13
73
9
40
0
40
0
40
0
40
0
40
0.25
40
0.375
40
0.5
40
0.625
40
0.75
40
1
40
1
40
1
40
1
41
1
10
21.425
20
2.5722924752597
30
0
41
1
10
23.0125000000001
20
1.70292661569314
30
0
41
1
10
25.39375
20
0.34475259029827
30
0
41
1
10
28.5687500000001
20
-1.46149027094179
30
0
41
1
10
30.95
20
-2.78516623851902
30
0
41
1
10
33.33125
20
-4.05166239228907
30
0
41
1
10
36.50625
20
-5.62865931338098
30
0
41
1
10
38.8875000000001
20
-6.64553299927928
30
0
41
1
10
40.475
20
-7.22376035394035
30
0
0
SPLINE
5
15F
100
AcDbEntity
8
1
62
256
6
ByLayer
370
18
48
1
60
0
100
AcDbSpline
70
4
71
3
72
34
73
30
40
0
40
0
40
0
40
0
40
0.125000000000002
40
0.125000000000002
40
0.156250000000003
40
0.156250000000003
40
0.187500000000005
40
0.187500000000005
40
0.250000000000007
40
0.250000000000007
40
0.375000000000008
40
0.375000000000008
40
0.437500000000008
40
0.437500000000008
40
0.468750000000008
40
0.468750000000008
40
0.500000000000008
40
0.500000000000008
40
0.625000000000005
40
0.625000000000005
40
0.687500000000002
40
0.687500000000002
40
0.718750000000001
40
0.718750000000001
40
0.75
40
0.75
40
0.875
40
0.875
40
1
40
1
40
1
40
1
41
1
10
40.475
20
-6.07558613870296
30
0
41
1
10
39.6856700282288
20
-5.74966883224133
30
0
41
1
10
38.8975660707507
20
-5.40367122911726
30
0
41
1
10
37.9116279092764
20
-4.94946766564638
30
0
41
1
10
37.7144010048696
20
-4.85753808113978
30
0
41
1
10
37.3198116040254
20
-4.67157647716729
30
0
41
1
10
37.1224061460972
20
-4.57752310106389
30
0
41
1
10
36.530767318262
20
-4.29274152188498
30
0
41
1
10
36.1368501240396
20
-4.0992713868558
30
0
41
1
10
34.9559575506961
20
-3.50903623402584
30
0
41
1
10
34.1698403119336
20
-3.10245308041246
30
0
41
1
10
32.9894342478347
20
-2.47829218093457
30
0
41
1
10
32.5957614237262
20
-2.26785229193192
30
0
41
1
10
32.0045716704424
20
-1.94927039017725
30
0
41
1
10
31.8073947287275
20
-1.84258977679639
30
0
41
1
10
31.4127559753111
20
-1.62835319055424
30
0
41
1
10
31.2154842565425
20
-1.52090028175974
30
0
41
1
10
30.2297748467261
20
-0.98251842731446
30
0
41
1
10
29.4427197394006
20
-0.54793196203326
30
0
41
1
10
28.2617608469986
20
0.105008914209577
30
0
41
1
10
27.8680459319285
20
0.322835026364857
30
0
41
1
10
27.2770161351476
20
0.649175961168169
30
0
41
1
10
27.0799299437141
20
0.757889870438902
30
0
41
1
10
26.6855440195938
20
0.975073445733301
30
0
41
1
10
26.4881685319319
20
1.0835845523531
30
0
41
1
10
25.5020918764228
20
1.62443474719035
30
0
41
1
10
24.7150682279338
20
2.05206060273946
30
0
41
1
10
23.1407050064815
20
2.89025790211807
30
0
41
1
10
22.353369126651
20
3.30083668123484
30
0
41
1
10
21.5639128185449
20
3.69934234261714
30
0
0
SPLINE
5
160
100
AcDbEntity
8
1
62
256
6
ByLayer
370
18
48
1
60
0
100
AcDbSpline
70
4
71
3
72
51
73
47
40
0
40
0
40
0
40
0
40
0.0312499999999991
40
0.0312499999999991
40
0.046874999999998
40
0.046874999999998
40
0.0624999999999969
40
0.0624999999999969
40
0.124999999999996
40
0.124999999999996
40
0.187499999999994
40
0.187499999999994
40
0.249999999999993
40
0.249999999999993
40
0.312499999999992
40
0.312499999999992
40
0.343749999999991
40
0.343749999999991
40
0.37499999999999
40
0.37499999999999
40
0.437499999999989
40
0.437499999999989
40
0.499999999999988
40
0.499999999999988
40
0.562499999999986
40
0.562499999999986
40
0.578124999999987
40
0.578124999999987
40
0.593749999999988
40
0.593749999999988
40
0.624999999999985
40
0.624999999999985
40
0.687499999999984
40
0.687499999999984
40
0.749999999999983
40
0.749999999999983
40
0.812499999999983
40
0.812499999999983
40
0.843749999999984
40
0.859374999999986
40
0.859374999999986
40
0.874999999999989
40
0.874999999999989
40
0.937499999999994
40
0.937499999999994
40
1
40
1
40
1
40
1
41
1
10
49.5032751598692
20
-1.34153587861383
30
0
41
1
10
49.4696004040157
20
-1.37498588499747
30
0
41
1
10
49.4342317568399
20
-1.40728381755636
30
0
41
1
10
49.3786121219067
20
-1.45396479347582
30
0
41
1
10
49.3596367871556
20
-1.46923625613189
30
0
41
1
10
49.3209596799796
20
-1.49908943517542
30
0
41
1
10
49.3012433408701
20
-1.51368395345355
30
0
41
1
10
49.2007919442664
20
-1.5850109641998
30
0
41
1
10
49.1144646246208
20
-1.63681028224829
30
0
41
1
10
48.9300982572962
20
-1.7302046250791
30
0
41
1
10
48.8320575426846
20
-1.77179947303156
30
0
41
1
10
48.6244096543748
20
-1.84509685295816
30
0
41
1
10
48.5147987396928
20
-1.87680648838358
30
0
41
1
10
48.2838432223696
20
-1.93016533707413
30
0
41
1
10
48.1624939063016
20
-1.95181381897984
30
0
41
1
10
47.9713917500118
20
-1.97645837081271
30
0
41
1
10
47.906528654701
20
-1.98332025459925
30
0
41
1
10
47.7747053006545
20
-1.9943527826988
30
0
41
1
10
47.7077141207995
20
-1.99852710368427
30
0
41
1
10
47.5035413765656
20
-2.00706075156046
30
0
41
1
10
47.3631667724598
20
-2.00742097222499
30
0
41
1
10
47.0739945512404
20
-1.9976809745784
30
0
41
1
10
46.9251962075373
20
-1.98759588236322
30
0
41
1
10
46.6191498377858
20
-1.95698321727102
30
0
41
1
10
46.4619017712793
20
-1.93644346915426
30
0
41
1
10
46.2599380605821
20
-1.90406711521385
30
0
41
1
10
46.2192747972523
20
-1.89725681479175
30
0
41
1
10
46.1374027573935
20
-1.88296113473368
30
0
41
1
10
46.0961559003979
20
-1.87546849652838
30
0
41
1
10
45.9718671433849
20
-1.85202183590204
30
0
41
1
10
45.8884509163896
20
-1.83513474003718
30
0
41
1
10
45.6365583903143
20
-1.78076983189811
30
0
41
1
10
45.4664401869346
20
-1.73959504698175
30
0
41
1
10
45.1219155049682
20
-1.64755636053729
30
0
41
1
10
44.9475079232405
20
-1.59669183797382
30
0
41
1
10
44.5944334343138
20
-1.48523554646488
30
0
41
1
10
44.4157720503817
20
-1.4246368037019
30
0
41
1
10
44.1445359096357
20
-1.32628210377604
30
0
41
1
10
44.0081056291331
20
-1.27524356833362
30
0
41
1
10
43.8704408952228
20
-1.22138907618267
30
0
41
1
10
43.778388006549
20
-1.18485681468454
30
0
41
1
10
43.732188905278
20
-1.16626169924987
30
0
41
1
10
43.5012629435334
20
-1.07201937291646
30
0
41
1
10
43.3162991624127
20
-0.992405426554512
30
0
41
1
10
42.9458725376763
20
-0.825002661201609
30
0
41
1
10
42.7604095449905
20
-0.737215551476936
30
0
41
1
10
42.5746679540711
20
-0.645418023154235
30
0
0
SPLINE
5
161
100
AcDbEntity
8
1
62
256
6
ByLayer
370
18
48
1
60
0
100
AcDbSpline
70
4
71
3
72
8
73
4
40
0
40
0
40
0
40
0
40
1
40
1
40
1
40
1
41
1
10
42.5746679540721
20
-0.645418023154662
30
0
41
1
10
42.5867604808982
20
-0.65161645990716
30
0
41
1
10
42.5988621223169
20
-0.65779313425287
30
0
41
1
10
42.6109732999711
20
-0.663947867495807
30
0
0
SPLINE
5
162
100
AcDbEntity
8
1
62
256
6
ByLayer
370
18
48
1
60
0
100
AcDbSpline
70
4
71
3
72
12
73
8
40
0
40
0
40
0
40
0
40
0.314199724453559
40
0.314199724453559
40
0.628399448907118
40
0.628399448907118
40
1
40
1
40
1
40
1
41
1
10
42.6109732999781
20
-0.663947867498536
30
0
41
1
10
42.6893127954182
20
-0.702516763837707
30
0
41
1
10
42.7677643498317
20
-0.740420895265686
30
0
41
1
10
42.9238412326715
20
-0.814364254588753
30
0
41
1
10
43.0015873067403
20
-0.850464059121975
30
0
41
1
10
43.1708000692028
20
-0.927412032981579
30
0
41
1
10
43.262181643158
20
-0.967924892798152
30
0
41
1
10
43.3533427736344
20
-1.00727804616579
30
0
0
SPLINE
5
163
100
AcDbEntity
8
1
62
256
6
ByLayer
370
18
48
1
60
0
100
AcDbSpline
70
4
71
3
72
13
73
9
40
0
40
0
40
0
40
0
40
0.317460310796114
40
0.47619046619417
40
0.634920621592227
40
0.793650776990284
40
0.952380932388341
40
1
40
1
40
1
40
1
41
1
10
40.475
20
8.6374353641867
30
0
41
1
10
38.8875000000001
20
9.02320814565476
30
0
41
1
10
36.5062499999999
20
9.42298619280066
30
0
41
1
10
33.3312500000001
20
9.55717023773076
30
0
41
1
10
30.95
20
9.46042164601388
30
0
41
1
10
28.5687500000001
20
9.16832647916453
30
0
41
1
10
26.7431248950257
20
8.7961851608186
30
0
41
1
10
25.7112497900514
20
8.5353067785264
30
0
41
1
10
25.4731246850771
20
8.47247517343826
30
0
0
SPLINE
5
164
100
AcDbEntity
8
1
62
256
6
ByLayer
370
18
48
1
60
0
100
AcDbSpline
70
4
71
3
72
13
73
9
40
0
40
0
40
0
40
0
40
0.0315942257650061
40
0.192995188137505
40
0.354396150510004
40
0.515797112882503
40
0.677198075255002
40
1
40
1
40
1
40
1
41
1
10
36.1786295013179
20
-9.31683623214099
30
0
41
1
10
36.0232530008786
20
-9.33551640380855
30
0
41
1
10
35.0741265004393
20
-9.44197576631461
30
0
41
1
10
33.33125
20
-9.55070038033153
30
0
41
1
10
30.95
20
-9.50200162483219
30
0
41
1
10
28.56875
20
-9.25708961436021
30
0
41
1
10
25.39375
20
-8.67030034103038
30
0
41
1
10
23.0125000000001
20
-7.95693237831347
30
0
41
1
10
21.425
20
-7.37722565210828
30
0
0
SPLINE
5
165
100
AcDbEntity
8
1
62
256
6
ByLayer
370
18
48
1
60
0
100
AcDbSpline
70
4
71
3
72
8
73
4
40
0
40
0
40
0
40
0
40
1
40
1
40
1
40
1
41
1
10
42.4683940908018
20
-0.598473650801509
30
0
41
1
10
42.4879090264486
20
-0.60608609131819
30
0
41
1
10
42.5072271545102
20
-0.614165878348132
30
0
41
1
10
42.5263536957216
20
-0.622698748530524
30
0
0
SPLINE
5
166
100
AcDbEntity
8
1
62
256
6
ByLayer
370
18
48
1
60
0
100
AcDbSpline
70
4
71
3
72
31
73
27
40
0
40
0
40
0
40
0
40
0.0044748538639001
40
0.008960776223556
40
0.0173669142696731
40
0.0347600690644067
40
0.054981959309602
40
0.0605616862320484
40
0.0772197606371875
40
0.0849977234478693
40
0.250061044078415
40
0.429903533230412
40
0.511258325684192
40
0.640448831132006
40
0.688134437435907
40
0.720302465373642
40
0.72800474505355
40
0.730830191256729
40
0.732893646458339
40
0.736201211625936
40
0.739550894507168
40
0.742924447767763
40
0.764103116259642
40
0.781567970103096
40
0.877996182964976
40
1
40
1
40
1
40
1
41
1
10
40.4750002863912
20
0.511600333090797
30
0
41
1
10
40.4780555663601
20
0.509838955525908
30
0
41
1
10
40.4841825148662
20
0.506306703917886
30
0
41
1
10
40.4960196879213
20
0.499482229107059
30
0
41
1
10
40.5166559758064
20
0.487584384817893
30
0
41
1
10
40.5480587011707
20
0.46947762263369
30
0
41
1
10
40.5773309273818
20
0.452597625082973
30
0
41
1
10
40.6064040377674
20
0.43583092432786
30
0
41
1
10
40.6271313794867
20
0.423882238126453
30
0
41
1
10
40.7575464244513
20
0.348736985793408
30
0
41
1
10
40.9995839389038
20
0.209761926914268
30
0
41
1
10
41.2899407009498
20
0.0448931707591953
30
0
41
1
10
41.5546413675731
20
-0.103632115488239
30
0
41
1
10
41.7292128745579
20
-0.200520686723053
30
0
41
1
10
41.8704105955889
20
-0.278035045481715
30
0
41
1
10
41.9293919504292
20
-0.310245141404749
30
0
41
1
10
41.9580593546083
20
-0.325858530538397
30
0
41
1
10
41.9665838243995
20
-0.330497005319529
30
0
41
1
10
41.972076528724
20
-0.333486413410327
30
0
41
1
10
41.9784184819036
20
-0.336933023240988
30
0
41
1
10
41.9854141381191
20
-0.34073153319784
30
0
41
1
10
42.0049833898634
20
-0.351347985051092
30
0
41
1
10
42.0344951285443
20
-0.367292753902774
30
0
41
1
10
42.1286583465522
20
-0.41787510690537
30
0
41
1
10
42.2925170843776
20
-0.504328295377519
30
0
41
1
10
42.4427929160317
20
-0.580927829771611
30
0
41
1
10
42.5263536957216
20
-0.622698748530524
30
0
0
SPLINE
5
167
100
AcDbEntity
8
1
62
256
6
ByLayer
370
18
48
1
60
0
100
AcDbSpline
70
4
71
3
72
13
73
9
40
0
40
0
40
0
40
0
40
0.25
40
0.375
40
0.5
40
0.625
40
0.75
40
1
40
1
40
1
40
1
41
1
10
40.475
20
0.511600498485677
30
0
41
1
10
38.8875000000001
20
1.42679665366006
30
0
41
1
10
36.50625
20
2.78922590220734
30
0
41
1
10
33.33125
20
4.4704282725223
30
0
41
1
10
30.95
20
5.63916401765334
30
0
41
1
10
28.5687500000001
20
6.69125267809943
30
0
41
1
10
25.39375
20
7.90586670981145
30
0
41
1
10
23.0125000000001
20
8.58156776141948
30
0
41
1
10
21.425
20
8.90652668203205
30
0
0
SPLINE
5
168
100
AcDbEntity
8
1
62
256
6
ByLayer
370
18
48
1
60
0
100
AcDbSpline
70
4
71
3
72
13
73
9
40
0
40
0
40
0
40
0
40
0.25
40
0.375
40
0.5
40
0.625
40
0.75
40
1
40
1
40
1
40
1
41
1
10
40.475
20
-7.79423563042988
30
0
41
1
10
38.8875000000001
20
-7.26710440461466
30
0
41
1
10
36.5062499999999
20
-6.31476325191977
30
0
41
1
10
33.33125
20
-4.79466234360575
30
0
41
1
10
30.95
20
-3.55540158393805
30
0
41
1
10
28.5687500000001
20
-2.24292701967897
30
0
41
1
10
25.39375
20
-0.429970892997147
30
0
41
1
10
23.0125000000001
20
0.957492978460778
30
0
41
1
10
21.425
20
1.85647455423546
30
0
0
SPLINE
5
169
100
AcDbEntity
8
1
62
256
6
ByLayer
370
18
48
1
60
0
100
AcDbSpline
70
4
71
1
72
4
73
2
40
0
40
0
40
1
40
1
41
1
10
20.9511461594773
20
-9.23558943236085
30
0
41
1
10
20.9971598201211
20
-9.22046329068894
30
0
0
SPLINE
5
16A
100
AcDbEntity
8
1
62
256
6
ByLayer
370
18
48
1
60
0
100
AcDbSpline
70
4
71
1
72
4
73
2
40
0
40
0
40
1
40
1
41
1
10
43.3498847505261
20
-1.00578451769743
30
0
41
1
10
43.3832842914382
20
-1.02020494391252
30
0
0
SPLINE
5
16B
100
AcDbEntity
8
1
62
256
6
ByLayer
370
18
48
1
60
0
100
AcDbSpline
70
4
71
3
72
21
73
17
40
0
40
0
40
0
40
0
40
0.116684993455909
40
0.203973019097559
40
0.269135032980706
40
0.324590023252956
40
0.375722216284405
40
0.433562371715483
40
0.503348451275531
40
0.577325137187263
40
0.626418083501041
40
0.673931190558257
40
0.723253624010257
40
0.788201013521816
40
0.879657882370063
40
1
40
1
40
1
40
1
41
1
10
37.2759780816809
20
4.95981541889529
30
0
41
1
10
37.1028266209674
20
4.99654213445575
30
0
41
1
10
36.7755155136798
20
5.07052104734163
30
0
41
1
10
36.2998498099807
20
5.18552578650454
30
0
41
1
10
35.8820324806735
20
5.29435124650502
30
0
41
1
10
35.5504456269314
20
5.38366126109565
30
0
41
1
10
35.270507815256
20
5.46196824796405
30
0
41
1
10
34.9621063662333
20
5.55079997873295
30
0
41
1
10
34.6010183216673
20
5.65871993706318
30
0
41
1
10
34.2505564764335
20
5.76795134421729
30
0
41
1
10
33.9635131011673
20
5.86014318069357
30
0
41
1
10
33.6968777927072
20
5.94793747723557
30
0
41
1
10
33.3823542281866
20
6.05414687825501
30
0
41
1
10
32.9851406963847
20
6.19152972604454
30
0
41
1
10
32.5035729373775
20
6.36598891960983
30
0
41
1
10
32.1495064339889
20
6.49919753020907
30
0
41
1
10
31.9569202374369
20
6.57377150639715
30
0
0
LINE
5
79
100
AcDbEntity
8
81
62
256
6
ByLayer
370
18
48
1
60
0
100
AcDbLine
10
50.05
20
0
30
0
11
55.05
21
0
31
0
39
0
210
0
220
0
230
1
0
LINE
5
7A
100
AcDbEntity
8
SK4
62
256
6
ByLayer
370
18
48
0.05
60
0
100
AcDbLine
10
-51.6
20
0
30
0
11
50.05
21
0
31
0
39
0
210
0
220
0
230
1
0
LINE
5
7C
100
AcDbEntity
8
80
62
256
6
ByLayer
370
18
48
1
60
0
100
AcDbLine
10
0
20
0
30
0
11
-5
21
0
31
0
39
0
210
0
220
0
230
1
0
LINE
5
7D
100
AcDbEntity
8
4
62
256
6
ByLayer
370
18
48
0.05
60
0
100
AcDbLine
10
0
20
0
30
0
11
50.05
21
0
31
0
39
0
210
0
220
0
230
1
0
LINE
5
7F
100
AcDbEntity
8
1
62
256
6
ByLayer
370
18
48
1
60
0
100
AcDbLine
10
0
20
9.525
30
0
11
0
21
0
31
0
39
0
210
0
220
0
230
1
0
LINE
5
80
100
AcDbEntity
8
1
62
256
6
ByLayer
370
18
48
1
60
0
100
AcDbLine
10
0
20
0
30
0
11
0
21
-9.525
31
0
39
0
210
0
220
0
230
1
0
LINE
5
81
100
AcDbEntity
8
1
62
256
6
ByLayer
370
18
48
1
60
0
100
AcDbLine
10
21.425
20
-9.110642
30
0
11
21.425
21
-9.080365
31
0
39
0
210
0
220
0
230
1
0
LINE
5
82
100
AcDbEntity
8
1
62
256
6
ByLayer
370
18
48
1
60
0
100
AcDbLine
10
49.998695
20
-0.041247
30
0
11
49.979266
21
-0.04164
31
0
39
0
210
0
220
0
230
1
0
LINE
5
83
100
AcDbEntity
8
1
62
256
6
ByLayer
370
13
48
1
60
0
100
AcDbLine
10
49.898514
20
-1.064252
30
0
11
49.884846
21
-1.07218
31
0
39
0
210
0
220
0
230
1
0
LINE
5
84
100
AcDbEntity
8
1
62
256
6
ByLayer
370
18
48
1
60
0
100
AcDbLine
10
49.998597
20
0.042392
30
0
11
49.960435
21
0.043083
31
0
39
0
210
0
220
0
230
1
0
LINE
5
85
100
AcDbEntity
8
1
62
256
6
ByLayer
370
18
48
1
60
0
100
AcDbLine
10
49.891053
20
-1.093681
30
0
11
49.884846
21
-1.07218
31
0
39
0
210
0
220
0
230
1
0
LINE
5
86
100
AcDbEntity
8
1
62
256
6
ByLayer
370
13
48
1
60
0
100
AcDbLine
10
49.403534
20
-1.430951
30
0
11
49.610514
21
-2.600257
31
0
39
0
210
0
220
0
230
1
0
LINE
5
87
100
AcDbEntity
8
1
62
256
6
ByLayer
370
18
48
1
60
0
100
AcDbLine
10
49.452958
20
1.760162
30
0
11
49.194948
21
1.405311
31
0
39
0
210
0
220
0
230
1
0
LINE
5
88
100
AcDbEntity
8
1
62
256
6
ByLayer
370
18
48
1
60
0
100
AcDbLine
10
49.101267
20
-1.611351
30
0
11
49.286825
21
-2.444163
31
0
39
0
210
0
220
0
230
1
0
LINE
5
89
100
AcDbEntity
8
1
62
256
6
ByLayer
370
13
48
1
60
0
100
AcDbLine
10
48.502382
20
-1.874058
30
0
11
48.339759
21
-1.968385
31
0
39
0
210
0
220
0
230
1
0
LINE
5
8A
100
AcDbEntity
8
1
62
256
6
ByLayer
370
13
48
1
60
0
100
AcDbLine
10
48.894315
20
1.670076
30
0
11
49.194948
21
1.405311
31
0
39
0
210
0
220
0
230
1
0
LINE
5
8B
100
AcDbEntity
8
1
62
256
6
ByLayer
370
18
48
1
60
0
100
AcDbLine
10
49.219404
20
0.238204
30
0
11
49.512288
21
-0.096819
31
0
39
0
210
0
220
0
230
1
0
LINE
5
8C
100
AcDbEntity
8
1
62
256
6
ByLayer
370
13
48
1
60
0
100
AcDbLine
10
49.219404
20
0.238204
30
0
11
48.339765
21
1.012891
31
0
39
0
210
0
220
0
230
1
0
LINE
5
8D
100
AcDbEntity
8
1
62
256
6
ByLayer
370
13
48
1
60
0
100
AcDbLine
10
19.915054
20
9.123405
30
0
11
21.425
21
8.31652
31
0
39
0
210
0
220
0
230
1
0
LINE
5
8E
100
AcDbEntity
8
1
62
256
6
ByLayer
370
13
48
1
60
0
100
AcDbLine
10
12.633191
20
9.335073
30
0
11
21.425
21
4.636904
31
0
39
0
210
0
220
0
230
1
0
LINE
5
8F
100
AcDbEntity
8
1
62
256
6
ByLayer
370
18
48
1
60
0
100
AcDbLine
10
40.475
20
8.931746
30
0
11
40.475
21
8.811629
31
0
39
0
210
0
220
0
230
1
0
LINE
5
90
100
AcDbEntity
8
1
62
256
6
ByLayer
370
18
48
1
60
0
100
AcDbLine
10
40.475
20
8.811629
30
0
11
40.475
21
8.637435
31
0
39
0
210
0
220
0
230
1
0
LINE
5
91
100
AcDbEntity
8
1
62
256
6
ByLayer
370
18
48
1
60
0
100
AcDbLine
10
48.44751
20
-3.084388
30
0
11
48.667949
21
-3.20538
31
0
39
0
210
0
220
0
230
1
0
LINE
5
92
100
AcDbEntity
8
1
62
256
6
ByLayer
370
18
48
1
60
0
100
AcDbLine
10
48.44751
20
-3.084388
30
0
11
48.369889
21
-2.692178
31
0
39
0
210
0
220
0
230
1
0
LINE
5
93
100
AcDbEntity
8
1
62
256
6
ByLayer
370
18
48
1
60
0
100
AcDbLine
10
21.425
20
4.485612
30
0
11
21.425
21
4.636904
31
0
39
0
210
0
220
0
230
1
0
LINE
5
94
100
AcDbEntity
8
1
62
256
6
ByLayer
370
13
48
1
60
0
100
AcDbLine
10
12.508489
20
-6.591558
30
0
11
17.10913
21
-6.230753
31
0
39
0
210
0
220
0
230
1
0
LINE
5
95
100
AcDbEntity
8
1
62
256
6
ByLayer
370
13
48
1
60
0
100
AcDbLine
10
12.633191
20
-6.306598
30
0
11
15.883825
21
-6.051668
31
0
39
0
210
0
220
0
230
1
0
LINE
5
96
100
AcDbEntity
8
1
62
256
6
ByLayer
370
18
48
1
60
0
100
AcDbLine
10
21.425
20
-6.769769
30
0
11
21.425
21
-5.524008
31
0
39
0
210
0
220
0
230
1
0
LINE
5
97
100
AcDbEntity
8
1
62
256
6
ByLayer
370
18
48
1
60
0
100
AcDbLine
10
48.269892
20
0.996721
30
0
11
48.824575
21
0.442759
31
0
39
0
210
0
220
0
230
1
0
LINE
5
98
100
AcDbEntity
8
1
62
256
6
ByLayer
370
18
48
1
60
0
100
AcDbLine
10
48.269892
20
0.996721
30
0
11
48.245497
21
1.120192
31
0
39
0
210
0
220
0
230
1
0
LINE
5
99
100
AcDbEntity
8
1
62
256
6
ByLayer
370
18
48
1
60
0
100
AcDbLine
10
45.723103
20
2.875786
30
0
11
44.716326
21
3.378753
31
0
39
0
210
0
220
0
230
1
0
LINE
5
9A
100
AcDbEntity
8
1
62
256
6
ByLayer
370
13
48
1
60
0
100
AcDbLine
10
12.508489
20
9.250419
30
0
11
21.425
21
4.485612
31
0
39
0
210
0
220
0
230
1
0
LINE
5
9B
100
AcDbEntity
8
1
62
256
6
ByLayer
370
18
48
1
60
0
100
AcDbLine
10
21.425
20
4.636904
30
0
11
21.425
21
8.31652
31
0
39
0
210
0
220
0
230
1
0
LINE
5
9C
100
AcDbEntity
8
1
62
256
6
ByLayer
370
18
48
1
60
0
100
AcDbLine
10
21.425
20
-1.141192
30
0
11
21.425
21
-0.772991
31
0
39
0
210
0
220
0
230
1
0
LINE
5
9D
100
AcDbEntity
8
1
62
256
6
ByLayer
370
18
48
1
60
0
100
AcDbLine
10
21.425
20
9.025179
30
0
11
21.425
21
9.044429
31
0
39
0
210
0
220
0
230
1
0
LINE
5
9E
100
AcDbEntity
8
1
62
256
6
ByLayer
370
18
48
1
60
0
100
AcDbLine
10
40.475
20
2.597782
30
0
11
40.475
21
1.2638
31
0
39
0
210
0
220
0
230
1
0
LINE
5
9F
100
AcDbEntity
8
1
62
256
6
ByLayer
370
13
48
1
60
0
100
AcDbLine
10
13.021529
20
2.952521
30
0
11
21.425
21
-0.772991
31
0
39
0
210
0
220
0
230
1
0
LINE
5
A0
100
AcDbEntity
8
1
62
256
6
ByLayer
370
18
48
1
60
0
100
AcDbLine
10
21.425
20
-0.772991
30
0
11
21.425
21
1.807188
31
0
39
0
210
0
220
0
230
1
0
LINE
5
A1
100
AcDbEntity
8
1
62
256
6
ByLayer
370
13
48
1
60
0
100
AcDbLine
10
19.992786
20
2.442131
30
0
11
21.425
21
1.807188
31
0
39
0
210
0
220
0
230
1
0
LINE
5
A2
100
AcDbEntity
8
1
62
256
6
ByLayer
370
18
48
1
60
0
100
AcDbLine
10
40.475
20
1.2638
30
0
11
40.475
21
0.5116
31
0
39
0
210
0
220
0
230
1
0
LINE
5
A3
100
AcDbEntity
8
1
62
256
6
ByLayer
370
13
48
1
60
0
100
AcDbLine
10
12.911176
20
2.633243
30
0
11
21.425
21
-1.141192
31
0
39
0
210
0
220
0
230
1
0
LINE
5
A4
100
AcDbEntity
8
1
62
256
6
ByLayer
370
18
48
1
60
0
100
AcDbLine
10
21.425
20
8.906527
30
0
11
21.425
21
8.31652
31
0
39
0
210
0
220
0
230
1
0
LINE
5
A5
100
AcDbEntity
8
1
62
256
6
ByLayer
370
18
48
1
60
0
100
AcDbLine
10
40.475
20
-7.22376
30
0
11
40.475
21
-7.794236
31
0
39
0
210
0
220
0
230
1
0
LINE
5
A6
100
AcDbEntity
8
1
62
256
6
ByLayer
370
18
48
1
60
0
100
AcDbLine
10
21.425
20
2.572292
30
0
11
21.425
21
3.769327
31
0
39
0
210
0
220
0
230
1
0
LINE
5
A7
100
AcDbEntity
8
1
62
256
6
ByLayer
370
18
48
1
60
0
100
AcDbLine
10
40.475
20
-6.075586
30
0
11
40.475
21
-7.22376
31
0
39
0
210
0
220
0
230
1
0
LINE
5
A8
100
AcDbEntity
8
1
62
256
6
ByLayer
370
18
48
1
60
0
100
AcDbLine
10
21.425
20
-7.377226
30
0
11
21.425
21
-6.769769
31
0
39
0
210
0
220
0
230
1
0
LINE
5
A9
100
AcDbEntity
8
1
62
256
6
ByLayer
370
18
48
1
60
0
100
AcDbLine
10
21.425
20
8.906527
30
0
11
21.425
21
9.025179
31
0
39
0
210
0
220
0
230
1
0
LINE
5
AA
100
AcDbEntity
8
1
62
256
6
ByLayer
370
18
48
1
60
0
100
AcDbLine
10
21.425
20
1.856475
30
0
11
21.425
21
1.807188
31
0
39
0
210
0
220
0
230
1
0
LINE
5
AB
100
AcDbEntity
8
1
62
256
6
ByLayer
370
18
48
1
60
0
100
AcDbLine
10
21.425
20
1.856475
30
0
11
21.425
21
2.572292
31
0
39
0
210
0
220
0
230
1
0
LINE
5
AC
100
AcDbEntity
8
SK1
62
256
6
ByLayer
370
18
48
1
60
0
100
AcDbLine
10
-51.6
20
-8.525
30
0
11
-51.6
21
8.525
31
0
39
0
210
0
220
0
230
1
0
LINE
5
AE
100
AcDbEntity
8
SK1
62
256
6
ByLayer
370
18
48
1
60
0
100
AcDbLine
10
0
20
9.525
30
0
11
0
21
0
31
0
39
0
210
0
220
0
230
1
0
LINE
5
AF
100
AcDbEntity
8
SK1
62
256
6
ByLayer
370
18
48
1
60
0
100
AcDbLine
10
0
20
0
30
0
11
0
21
-9.525
31
0
39
0
210
0
220
0
230
1
0
LINE
5
B0
100
AcDbEntity
8
SK1
62
256
6
ByLayer
370
18
48
1
60
0
100
AcDbLine
10
-50.6
20
9.525
30
0
11
-50.6
21
-9.525
31
0
39
0
210
0
220
0
230
1
0
LINE
5
B1
100
AcDbEntity
8
1
62
256
6
ByLayer
370
18
48
1
60
0
100
AcDbLine
10
18.852967
20
9.525
30
0
11
0
21
9.525
31
0
39
0
210
0
220
0
230
1
0
LINE
5
B2
100
AcDbEntity
8
1
62
256
6
ByLayer
370
18
48
1
60
0
100
AcDbLine
10
0
20
-9.525
30
0
11
19.307692
21
-9.525
31
0
39
0
210
0
220
0
230
1
0
LINE
5
B3
100
AcDbEntity
8
SK1
62
256
6
ByLayer
370
18
48
1
60
0
100
AcDbLine
10
-51.6
20
-8.525
30
0
11
-50.6
21
-9.525
31
0
39
0
210
0
220
0
230
1
0
LINE
5
B4
100
AcDbEntity
8
SK1
62
256
6
ByLayer
370
18
48
1
60
0
100
AcDbLine
10
-50.6
20
9.525
30
0
11
-51.6
21
8.525
31
0
39
0
210
0
220
0
230
1
0
LINE
5
B5
100
AcDbEntity
8
SK1
62
256
6
ByLayer
370
18
48
1
60
0
100
AcDbLine
10
0
20
9.525
30
0
11
-50.6
21
9.525
31
0
39
0
210
0
220
0
230
1
0
LINE
5
B6
100
AcDbEntity
8
SK1
62
256
6
ByLayer
370
18
48
1
60
0
100
AcDbLine
10
-50.6
20
-9.525
30
0
11
0
21
-9.525
31
0
39
0
210
0
220
0
230
1
0
LINE
5
B7
100
AcDbEntity
8
SK2
62
256
6
ByLayer
370
18
48
1
60
0
100
AcDbLine
10
-58.85
20
9.525
30
0
11
-58.85
21
-34.229998
31
0
39
0
210
0
220
0
230
1
0
LINE
5
B9
100
AcDbEntity
8
SK2
62
256
6
ByLayer
370
18
48
1
60
0
100
AcDbLine
10
-52.1875
20
9.525
30
0
11
-60.85
21
9.525
31
0
39
0
210
0
220
0
230
1
0
LINE
5
BA
100
AcDbEntity
8
SK2
62
256
6
ByLayer
370
18
48
1
60
0
100
AcDbLine
10
-52.1875
20
-9.525
30
0
11
-60.85
21
-9.525
31
0
39
0
210
0
220
0
230
1
0
LINE
5
BB
100
AcDbEntity
8
1
62
256
6
ByLayer
370
18
48
1
60
1
100
AcDbLine
10
-58.85
20
9.525
30
0
11
-58.389216
21
6.025002
31
0
39
0
210
0
220
0
230
1
0
LINE
5
BC
100
AcDbEntity
8
1
62
256
6
ByLayer
370
18
48
1
60
1
100
AcDbLine
10
-58.389216
20
6.025002
30
0
11
-59.310784
21
6.024998
31
0
39
0
210
0
220
0
230
1
0
LINE
5
BD
100
AcDbEntity
8
1
62
256
6
ByLayer
370
18
48
1
60
1
100
AcDbLine
10
-59.310784
20
6.024998
30
0
11
-58.85
21
9.525
31
0
39
0
210
0
220
0
230
1
0
LINE
5
BE
100
AcDbEntity
8
1
62
256
6
ByLayer
370
18
48
1
60
1
100
AcDbLine
10
-58.85
20
-9.525
30
0
11
-59.310784
21
-6.025002
31
0
39
0
210
0
220
0
230
1
0
LINE
5
BF
100
AcDbEntity
8
1
62
256
6
ByLayer
370
18
48
1
60
1
100
AcDbLine
10
-59.310784
20
-6.025002
30
0
11
-58.389216
21
-6.024998
31
0
39
0
210
0
220
0
230
1
0
LINE
5
C0
100
AcDbEntity
8
1
62
256
6
ByLayer
370
18
48
1
60
1
100
AcDbLine
10
-58.389216
20
-6.024998
30
0
11
-58.85
21
-9.525
31
0
39
0
210
0
220
0
230
1
0
LINE
5
C1
100
AcDbEntity
8
2
62
256
6
ByLayer
370
18
48
1
60
0
100
AcDbLine
10
62
20
-9.5251
30
0
11
62
21
34.230098
31
0
39
0
210
0
220
0
230
1
0
LINE
5
C3
100
AcDbEntity
8
2
62
256
6
ByLayer
370
18
48
1
60
0
100
AcDbLine
10
43.038766
20
9.5251
30
0
11
64
21
9.5251
31
0
39
0
210
0
220
0
230
1
0
LINE
5
C4
100
AcDbEntity
8
2
62
256
6
ByLayer
370
18
48
1
60
0
100
AcDbLine
10
43.038766
20
-9.5251
30
0
11
64
21
-9.5251
31
0
39
0
210
0
220
0
230
1
0
LINE
5
C5
100
AcDbEntity
8
1
62
256
6
ByLayer
370
18
48
1
60
1
100
AcDbLine
10
62
20
9.5251
30
0
11
62.460784
21
6.025102
31
0
39
0
210
0
220
0
230
1
0
LINE
5
C6
100
AcDbEntity
8
1
62
256
6
ByLayer
370
18
48
1
60
1
100
AcDbLine
10
62.460784
20
6.025102
30
0
11
61.539216
21
6.025098
31
0
39
0
210
0
220
0
230
1
0
LINE
5
C7
100
AcDbEntity
8
1
62
256
6
ByLayer
370
18
48
1
60
1
100
AcDbLine
10
61.539216
20
6.025098
30
0
11
62
21
9.5251
31
0
39
0
210
0
220
0
230
1
0
LINE
5
C8
100
AcDbEntity
8
1
62
256
6
ByLayer
370
18
48
1
60
1
100
AcDbLine
10
62
20
-9.5251
30
0
11
61.539216
21
-6.025102
31
0
39
0
210
0
220
0
230
1
0
LINE
5
C9
100
AcDbEntity
8
1
62
256
6
ByLayer
370
18
48
1
60
1
100
AcDbLine
10
61.539216
20
-6.025102
30
0
11
62.460784
21
-6.025098
31
0
39
0
210
0
220
0
230
1
0
LINE
5
CA
100
AcDbEntity
8
1
62
256
6
ByLayer
370
18
48
1
60
1
100
AcDbLine
10
62.460784
20
-6.025098
30
0
11
62
21
-9.5251
31
0
39
0
210
0
220
0
230
1
0
LINE
5
CB
100
AcDbEntity
8
SK2
62
256
6
ByLayer
370
18
48
1
60
0
100
AcDbLine
10
50
20
-53.7527
30
0
11
-51.6
21
-53.7527
31
0
39
0
210
0
220
0
230
1
0
LINE
5
CC
100
AcDbEntity
8
SK2
62
256
6
ByLayer
370
18
48
1
60
0
100
AcDbLine
10
-51.6
20
-10.1125
30
0
11
-51.6
21
-55.7527
31
0
39
0
210
0
220
0
230
1
0
LINE
5
CD
100
AcDbEntity
8
SK2
62
256
6
ByLayer
370
18
48
1
60
0
100
AcDbLine
10
50
20
-1.5875
30
0
11
50
21
-55.7527
31
0
39
0
210
0
220
0
230
1
0
LINE
5
CE
100
AcDbEntity
8
1
62
256
6
ByLayer
370
18
48
1
60
1
100
AcDbLine
10
-51.6
20
-53.7527
30
0
11
-48.100002
21
-53.291916
31
0
39
0
210
0
220
0
230
1
0
LINE
5
CF
100
AcDbEntity
8
1
62
256
6
ByLayer
370
18
48
1
60
1
100
AcDbLine
10
-48.100002
20
-53.291916
30
0
11
-48.099998
21
-54.213484
31
0
39
0
210
0
220
0
230
1
0
LINE
5
D0
100
AcDbEntity
8
1
62
256
6
ByLayer
370
18
48
1
60
1
100
AcDbLine
10
-48.099998
20
-54.213484
30
0
11
-51.6
21
-53.7527
31
0
39
0
210
0
220
0
230
1
0
LINE
5
D1
100
AcDbEntity
8
1
62
256
6
ByLayer
370
18
48
1
60
1
100
AcDbLine
10
50
20
-53.7527
30
0
11
46.500002
21
-54.213484
31
0
39
0
210
0
220
0
230
1
0
LINE
5
D2
100
AcDbEntity
8
1
62
256
6
ByLayer
370
18
48
1
60
1
100
AcDbLine
10
46.500002
20
-54.213484
30
0
11
46.499998
21
-53.291916
31
0
39
0
210
0
220
0
230
1
0
LINE
5
D3
100
AcDbEntity
8
1
62
256
6
ByLayer
370
18
48
1
60
1
100
AcDbLine
10
46.499998
20
-53.291916
30
0
11
50
21
-53.7527
31
0
39
0
210
0
220
0
230
1
0
LINE
5
D4
100
AcDbEntity
8
SK2
62
256
6
ByLayer
370
13
48
1
60
0
100
AcDbLine
10
46.797595
20
-7.123933
30
0
11
60.146168
21
-22.164332
31
0
39
0
210
0
220
0
230
1
0
LINE
5
D5
100
AcDbEntity
8
1
62
256
6
ByLayer
370
18
48
1
60
1
100
AcDbLine
10
46.797595
20
-7.123933
30
0
11
49.465486
21
-9.435786
31
0
39
0
210
0
220
0
230
1
0
LINE
5
D6
100
AcDbEntity
8
1
62
256
6
ByLayer
370
18
48
1
60
1
100
AcDbLine
10
49.465486
20
-9.435786
30
0
11
48.77623
21
-10.047516
31
0
39
0
210
0
220
0
230
1
0
LINE
5
D7
100
AcDbEntity
8
1
62
256
6
ByLayer
370
18
48
1
60
1
100
AcDbLine
10
48.77623
20
-10.047516
30
0
11
46.797595
21
-7.123933
31
0
39
0
210
0
220
0
230
1
0
LINE
5
170
100
AcDbEntity
8
1
62
256
6
ByLayer
370
18
48
1
60
1
100
AcDbLine
10
-58.85
20
9.525
30
0
11
-58.389216
21
6.025002
31
0
39
0
210
0
220
0
230
1
0
LINE
5
171
100
AcDbEntity
8
1
62
256
6
ByLayer
370
18
48
1
60
1
100
AcDbLine
10
-58.389216
20
6.025002
30
0
11
-59.310784
21
6.024998
31
0
39
0
210
0
220
0
230
1
0
LINE
5
172
100
AcDbEntity
8
1
62
256
6
ByLayer
370
18
48
1
60
1
100
AcDbLine
10
-59.310784
20
6.024998
30
0
11
-58.85
21
9.525
31
0
39
0
210
0
220
0
230
1
0
LINE
5
174
100
AcDbEntity
8
1
62
256
6
ByLayer
370
18
48
1
60
1
100
AcDbLine
10
-58.85
20
-9.525
30
0
11
-59.310784
21
-6.025002
31
0
39
0
210
0
220
0
230
1
0
LINE
5
175
100
AcDbEntity
8
1
62
256
6
ByLayer
370
18
48
1
60
1
100
AcDbLine
10
-59.310784
20
-6.025002
30
0
11
-58.389216
21
-6.024998
31
0
39
0
210
0
220
0
230
1
0
LINE
5
176
100
AcDbEntity
8
1
62
256
6
ByLayer
370
18
48
1
60
1
100
AcDbLine
10
-58.389216
20
-6.024998
30
0
11
-58.85
21
-9.525
31
0
39
0
210
0
220
0
230
1
0
LINE
5
17A
100
AcDbEntity
8
1
62
256
6
ByLayer
370
18
48
1
60
1
100
AcDbLine
10
62
20
9.5251
30
0
11
62.460784
21
6.025102
31
0
39
0
210
0
220
0
230
1
0
LINE
5
17B
100
AcDbEntity
8
1
62
256
6
ByLayer
370
18
48
1
60
1
100
AcDbLine
10
62.460784
20
6.025102
30
0
11
61.539216
21
6.025098
31
0
39
0
210
0
220
0
230
1
0
LINE
5
17C
100
AcDbEntity
8
1
62
256
6
ByLayer
370
18
48
1
60
1
100
AcDbLine
10
61.539216
20
6.025098
30
0
11
62
21
9.5251
31
0
39
0
210
0
220
0
230
1
0
LINE
5
17E
100
AcDbEntity
8
1
62
256
6
ByLayer
370
18
48
1
60
1
100
AcDbLine
10
62
20
-9.5251
30
0
11
61.539216
21
-6.025102
31
0
39
0
210
0
220
0
230
1
0
LINE
5
17F
100
AcDbEntity
8
1
62
256
6
ByLayer
370
18
48
1
60
1
100
AcDbLine
10
61.539216
20
-6.025102
30
0
11
62.460784
21
-6.025098
31
0
39
0
210
0
220
0
230
1
0
LINE
5
180
100
AcDbEntity
8
1
62
256
6
ByLayer
370
18
48
1
60
1
100
AcDbLine
10
62.460784
20
-6.025098
30
0
11
62
21
-9.5251
31
0
39
0
210
0
220
0
230
1
0
LINE
5
183
100
AcDbEntity
8
1
62
256
6
ByLayer
370
18
48
1
60
1
100
AcDbLine
10
-51.6
20
-53.7527
30
0
11
-48.100002
21
-53.291916
31
0
39
0
210
0
220
0
230
1
0
LINE
5
184
100
AcDbEntity
8
1
62
256
6
ByLayer
370
18
48
1
60
1
100
AcDbLine
10
-48.100002
20
-53.291916
30
0
11
-48.099998
21
-54.213484
31
0
39
0
210
0
220
0
230
1
0
LINE
5
185
100
AcDbEntity
8
1
62
256
6
ByLayer
370
18
48
1
60
1
100
AcDbLine
10
-48.099998
20
-54.213484
30
0
11
-51.6
21
-53.7527
31
0
39
0
210
0
220
0
230
1
0
LINE
5
187
100
AcDbEntity
8
1
62
256
6
ByLayer
370
18
48
1
60
1
100
AcDbLine
10
50
20
-53.7527
30
0
11
46.500002
21
-54.213484
31
0
39
0
210
0
220
0
230
1
0
LINE
5
188
100
AcDbEntity
8
1
62
256
6
ByLayer
370
18
48
1
60
1
100
AcDbLine
10
46.500002
20
-54.213484
30
0
11
46.499998
21
-53.291916
31
0
39
0
210
0
220
0
230
1
0
LINE
5
189
100
AcDbEntity
8
1
62
256
6
ByLayer
370
18
48
1
60
1
100
AcDbLine
10
46.499998
20
-53.291916
30
0
11
50
21
-53.7527
31
0
39
0
210
0
220
0
230
1
0
LINE
5
18D
100
AcDbEntity
8
1
62
256
6
ByLayer
370
18
48
1
60
1
100
AcDbLine
10
46.797595
20
-7.123933
30
0
11
49.465486
21
-9.435786
31
0
39
0
210
0
220
0
230
1
0
LINE
5
18E
100
AcDbEntity
8
1
62
256
6
ByLayer
370
18
48
1
60
1
100
AcDbLine
10
49.465486
20
-9.435786
30
0
11
48.77623
21
-10.047516
31
0
39
0
210
0
220
0
230
1
0
LINE
5
18F
100
AcDbEntity
8
1
62
256
6
ByLayer
370
18
48
1
60
1
100
AcDbLine
10
48.77623
20
-10.047516
30
0
11
46.797595
21
-7.123933
31
0
39
0
210
0
220
0
230
1
0
MTEXT
5
16C
100
AcDbEntity
8
SK2
62
256
6
ByLayer
370
18
48
1
60
0
100
AcDbMText
10
-60.414634
20
-32.295154
30
0
210
0
220
0
230
1
1
%%c
40
3.5
41
0
44
1.084337
50
90
71
7
72
5
7
iso_b_vert
0
MTEXT
5
16F
100
AcDbEntity
8
SK2
62
256
6
ByLayer
370
18
48
1
60
0
100
AcDbMText
10
-60.414634
20
-25.322498
30
0
210
0
220
0
230
1
1
\W0.6864;19.05
40
3.5
41
0
44
1.084337
50
90
71
7
72
5
7
iso_b_vert
0
MTEXT
5
178
100
AcDbEntity
8
2
62
256
6
ByLayer
370
18
48
1
60
0
100
AcDbMText
10
60.435366
20
17.459944
30
0
210
0
220
0
230
1
1
%%c
40
3.5
41
0
44
1.084337
50
90
71
7
72
5
7
iso_b_vert
0
MTEXT
5
179
100
AcDbEntity
8
2
62
256
6
ByLayer
370
18
48
1
60
0
100
AcDbMText
10
60.435366
20
24.4326
30
0
210
0
220
0
230
1
1
\W0.6864;19.05
40
3.5
41
0
44
1.084337
50
90
71
7
72
5
7
iso_b_vert
0
MTEXT
5
182
100
AcDbEntity
8
SK2
62
256
6
ByLayer
370
18
48
1
60
0
100
AcDbMText
10
-5.154566
20
-52.720067
30
0
210
0
220
0
230
1
1
\W0.6261;101.6
40
3.5
41
0
44
1.084337
50
0
71
7
72
5
7
iso_b_vert
0
MTEXT
5
18B
100
AcDbEntity
8
SK2
62
256
6
ByLayer
370
18
48
1
60
0
100
AcDbMText
10
53.088167
20
-12.526884
30
0
210
0
220
0
230
1
1
\W0.6380;R
40
3.5
41
0
44
1.084337
50
311.589523690511
71
7
72
5
7
iso_b_vert
0
MTEXT
5
18C
100
AcDbEntity
8
SK2
62
256
6
ByLayer
370
18
48
1
60
0
100
AcDbMText
10
55.533567
20
-15.282219
30
0
210
0
220
0
230
1
1
\W0.7346;9.52
40
3.5
41
0
44
1.084337
50
311.589523690511
71
7
72
5
7
iso_b_vert
0
MTEXT
5
191
100
AcDbEntity
8
SK6
62
256
6
ByLayer
370
18
48
1
60
0
100
AcDbMText
10
-26.113826
20
-62.108795
30
0
210
0
220
0
230
1
1
\W0.7307;2B256-1905-TA       T2CH
40
3
41
0
44
1.084337
50
0
71
7
72
5
7
iso_b_vert
0
HATCH
5
173
100
AcDbEntity
8
SK2
62
256
6
ByLayer
370
13
48
1
60
0
100
AcDbHatch
10
0
20
0
30
0
210
0
220
0
230
1
2
ANSI31
70
0
71
0
91
1
92
5
93
3
72
1
10
-58.85
20
9.52499999999992
11
-58.3892162584472
21
6.0250016925531
72
1
10
-58.3892162584472
20
6.0250016925531
11
-59.3107837415528
21
6.02499830744674
72
1
10
-59.3107837415528
20
6.02499830744674
11
-58.85
21
9.52499999999992
97
0
75
0
76
1
52
0
41
0.0062
77
0
78
1
53
45
43
0
44
0
45
-0.0139193969876572
46
0.0139193969876572
79
0
47
0
98
1
10
0
20
0
0
HATCH
5
177
100
AcDbEntity
8
SK2
62
256
6
ByLayer
370
13
48
1
60
0
100
AcDbHatch
10
0
20
0
30
0
210
0
220
0
230
1
2
ANSI31
70
0
71
0
91
1
92
5
93
3
72
1
10
-58.85
20
-9.52500000000009
11
-59.3107837415528
21
-6.02500169255327
72
1
10
-59.3107837415528
20
-6.02500169255327
11
-58.3892162584472
21
-6.02499830744691
72
1
10
-58.3892162584472
20
-6.02499830744691
11
-58.85
21
-9.52500000000009
97
0
75
0
76
1
52
0
41
0.0062
77
0
78
1
53
45
43
0
44
0
45
-0.0139193969876572
46
0.0139193969876572
79
0
47
0
98
1
10
0
20
0
0
HATCH
5
17D
100
AcDbEntity
8
2
62
256
6
ByLayer
370
13
48
1
60
0
100
AcDbHatch
10
0
20
0
30
0
210
0
220
0
230
1
2
ANSI31
70
0
71
0
91
1
92
5
93
3
72
1
10
62
20
9.52509999999984
11
62.4607837415528
21
6.02510169255302
72
1
10
62.4607837415528
20
6.02510169255302
11
61.5392162584472
21
6.02509830744665
72
1
10
61.5392162584472
20
6.02509830744665
11
62
21
9.52509999999984
97
0
75
0
76
1
52
0
41
0.0062
77
0
78
1
53
45
43
0
44
0
45
-0.0139193969876572
46
0.0139193969876572
79
0
47
0
98
1
10
0
20
0
0
HATCH
5
181
100
AcDbEntity
8
2
62
256
6
ByLayer
370
13
48
1
60
0
100
AcDbHatch
10
0
20
0
30
0
210
0
220
0
230
1
2
ANSI31
70
0
71
0
91
1
92
5
93
3
72
1
10
62
20
-9.52510000000015
11
61.5392162584472
21
-6.02510169255333
72
1
10
61.5392162584472
20
-6.02510169255333
11
62.4607837415528
21
-6.02509830744697
72
1
10
62.4607837415528
20
-6.02509830744697
11
62
21
-9.52510000000015
97
0
75
0
76
1
52
0
41
0.0062
77
0
78
1
53
45
43
0
44
0
45
-0.0139193969876572
46
0.0139193969876572
79
0
47
0
98
1
10
0
20
0
0
HATCH
5
186
100
AcDbEntity
8
SK2
62
256
6
ByLayer
370
13
48
1
60
0
100
AcDbHatch
10
0
20
0
30
0
210
0
220
0
230
1
2
ANSI31
70
0
71
0
91
1
92
5
93
3
72
1
10
-51.6
20
-53.752700089886
11
-48.1000016925532
21
-53.2919163483333
72
1
10
-48.1000016925532
20
-53.2919163483333
11
-48.0999983074468
21
-54.2134838314388
72
1
10
-48.0999983074468
20
-54.2134838314388
11
-51.6
21
-53.752700089886
97
0
75
0
76
1
52
0
41
0.0062
77
0
78
1
53
45
43
0
44
0
45
-0.0139193969876572
46
0.0139193969876572
79
0
47
0
98
1
10
0
20
0
0
HATCH
5
18A
100
AcDbEntity
8
SK2
62
256
6
ByLayer
370
13
48
1
60
0
100
AcDbHatch
10
0
20
0
30
0
210
0
220
0
230
1
2
ANSI31
70
0
71
0
91
1
92
5
93
3
72
1
10
50
20
-53.752700089886
11
46.5000016925532
21
-54.2134838314388
72
1
10
46.5000016925532
20
-54.2134838314388
11
46.4999983074468
21
-53.2919163483333
72
1
10
46.4999983074468
20
-53.2919163483333
11
50
21
-53.752700089886
97
0
75
0
76
1
52
0
41
0.0062
77
0
78
1
53
45
43
0
44
0
45
-0.0139193969876572
46
0.0139193969876572
79
0
47
0
98
1
10
0
20
0
0
HATCH
5
190
100
AcDbEntity
8
SK2
62
256
6
ByLayer
370
13
48
1
60
0
100
AcDbHatch
10
0
20
0
30
0
210
0
220
0
230
1
2
ANSI31
70
0
71
0
91
1
92
5
93
3
72
1
10
46.7975946978886
20
-7.12393299282303
11
49.4654858517245
21
-9.43578649161881
72
1
10
49.4654858517245
20
-9.43578649161881
11
48.776229831215
21
-10.0475158142121
72
1
10
48.776229831215
20
-10.0475158142121
11
46.7975946978886
21
-7.12393299282303
97
0
75
0
76
1
52
0
41
0.0062
77
0
78
1
53
45
43
0
44
0
45
-0.0139193969876572
46
0.0139193969876572
79
0
47
0
98
1
10
0
20
0
0
DIMENSION
5
194
100
AcDbEntity
8
SK2
62
256
6
ByLayer
370
18
48
1
60
0
100
AcDbDimension
2
_U0
10
0
20
-43.7527
30
0
11
25
21
-43.7527
31
0
70
32
71
1
72
1
41
1
210
0
220
0
230
1
3
Standard
100
AcDbAlignedDimension
13
50
23
0
33
0
14
0
24
0
34
0
50
0
100
AcDbRotatedDimension
1001
ACAD
1000
DSTYLE
1002
{
1070
   371
1070
    13
1070
   372
1070
    13
1070
   170
1070
     0
1070
   144
1040
1.0
1070
   277
1070
     2
1070
   284
1070
     8
1070
   278
1070
    46
1070
   146
1040
1.0
1070
   345
1005
16
1070
   347
1005
16
1070
   346
1005
16
1070
   344
1005
0
1070
   343
1005
0
1070
   172
1070
     1
1070
    76
1070
     0
1070
    75
1070
     0
1070
   282
1070
     0
1070
   281
1070
     0
1070
    71
1070
     0
1070
    74
1070
     0
1070
   279
1070
     0
1070
   173
1070
     1
1070
   340
1005
16D
1070
   271
1070
     2
1070
   272
1070
     2
1070
    77
1070
     1
1070
    73
1070
     1
1070
   171
1070
     3
1070
   274
1070
     4
1070
   177
1070
     2
1070
   176
1070
     2
1070
   178
1070
     2
1070
    78
1070
     8
1070
    48
1040
-0.1
1070
    41
1040
3.5
1070
   147
1040
1.75
1070
    42
1040
1.5875
1070
    44
1040
2.0
1070
   140
1040
3.5
1002
}
1001
ACAD_DSTYLE_DIM_LINETYPE
1070
   380
1005
16
1001
ACAD_DSTYLE_DIM_EXT1_LINETYPE
1070
   381
1005
16
1001
ACAD_DSTYLE_DIM_EXT2_LINETYPE
1070
   382
1005
16
0
DIMENSION
5
1AD
100
AcDbEntity
8
2
62
256
6
ByLayer
370
18
48
1
60
0
100
AcDbDimension
2
_U1
10
21.425
20
-27.2527
30
0
11
66.86996
21
-27.2527
31
0
70
32
71
1
72
1
41
1
210
0
220
0
230
1
3
Standard
100
AcDbAlignedDimension
13
50
23
0
33
0
14
21.425
24
0
34
0
50
0
100
AcDbRotatedDimension
1001
ACAD
1000
DSTYLE
1002
{
1070
   371
1070
    13
1070
   372
1070
    13
1070
   170
1070
     0
1070
   144
1040
1.0
1070
   277
1070
     2
1070
   284
1070
     8
1070
   278
1070
    46
1070
   146
1040
1.0
1070
   345
1005
16
1070
   347
1005
16
1070
   346
1005
16
1070
   344
1005
0
1070
   343
1005
0
1070
   172
1070
     1
1070
    76
1070
     0
1070
    75
1070
     0
1070
   282
1070
     0
1070
   281
1070
     0
1070
    71
1070
     0
1070
    74
1070
     0
1070
   279
1070
     0
1070
   173
1070
     1
1070
   340
1005
16D
1070
   271
1070
     2
1070
   272
1070
     2
1070
    77
1070
     1
1070
    73
1070
     1
1070
   171
1070
     3
1070
   274
1070
     4
1070
   177
1070
     2
1070
   176
1070
     2
1070
   178
1070
     2
1070
    78
1070
     8
1070
    48
1040
-0.1
1070
    41
1040
3.5
1070
   147
1040
1.75
1070
    42
1040
1.5875
1070
    44
1040
2.0
1070
   140
1040
3.5
1002
}
1001
ACAD_DSTYLE_DIM_LINETYPE
1070
   380
1005
16
1001
ACAD_DSTYLE_DIM_EXT1_LINETYPE
1070
   381
1005
16
1001
ACAD_DSTYLE_DIM_EXT2_LINETYPE
1070
   382
1005
16
0
ENDSEC
0
SECTION
2
OBJECTS
0
DICTIONARY
5
236
330
0
100
AcDbDictionary
280
0
281
1
3
ACAD_GROUP
350
237
3
ACAD_MLINESTYLE
350
238
0
DICTIONARY
5
237
330
0
100
AcDbDictionary
280
0
281
1
0
DICTIONARY
5
238
330
0
100
AcDbDictionary
280
0
281
1
3
Standard
350
18
0
MLINESTYLE
5
18
330
238
100
AcDbMlineStyle
2
Standard
70
0
3

62
256
51
90
52
90
71
2
49
-0.5
62
256
6
ByLayer
49
0.5
62
256
6
ByLayer
0
RASTERVARIABLES
5
224
330

100
AcDbRasterVariables
90
0
70
1
71
1
72
1
0
ENDSEC
0
EOF
