0
SECTION
2
HEADER
9
$ACADVER
1
AC1015
9
$DWGCODEPAGE
3
ANSI_1252
9
$HANDSEED
5
237
9
$ANGBASE
50
0
9
$ANGDIR
70
0
9
$ATTMODE
70
1
9
$AUNITS
70
0
9
$AUPREC
70
0
9
$CECOLOR
62
256
9
$CELTSCALE
40
1
9
$CELTYPE
6
ByLayer
9
$CELWEIGHT
370
18
9
$CLAYER
8
0
9
$CMLJUST
70
0
9
$CMLSCALE
40
1
9
$CMLSTYLE
2
Standard
9
$DIMSTYLE
2
Standard
9
$TEXTSIZE
40
0.2
9
$TEXTSTYLE
7
Standard
9
$LUNITS
70
2
9
$LUPREC
70
4
9
$EXTNAMES
290
1
9
$INSUNITS
70
4
9
$LTSCALE
40
1
9
$LWDISPLAY
290
1
9
$PDMODE
70
0
9
$PDSIZE
40
0
9
$PLINEGEN
70
0
0
ENDSEC
0
SECTION
2
CLASSES
0
CLASS
1
RASTERVARIABLES
2
AcDbRasterVariables
3
ISM
90
0
280
0
281
0
0
ENDSEC
0
SECTION
2
TABLES
0
TABLE
2
VPORT
5
22d
100
AcDbSymbolTable
0
VPORT
5
1
100
AcDbSymbolTableRecord
100
AcDbViewportTableRecord
2
*Active
70
0
10
0
20
0
11
1
21
1
12
-1
22
1
13
0
23
0
14
0.5
24
0.5
15
10
25
10
16
0
26
0
36
1
17
0
27
0
37
0
0
ENDTAB
0
TABLE
2
LTYPE
5
22e
100
AcDbSymbolTable
0
LTYPE
5
14
100
AcDbSymbolTableRecord
100
AcDbLinetypeTableRecord
70
0
2
ByBlock
3

72
65
73
0
40
0
0
LTYPE
5
15
100
AcDbSymbolTableRecord
100
AcDbLinetypeTableRecord
70
0
2
ByLayer
3

72
65
73
0
40
0
0
LTYPE
5
16
100
AcDbSymbolTableRecord
100
AcDbLinetypeTableRecord
70
0
2
Continuous
3
Solid line
72
65
73
0
40
0
0
LTYPE
5
6E
100
AcDbSymbolTableRecord
100
AcDbLinetypeTableRecord
70
0
2
CENTER
3
____ _ ____ _ ____ _ ____
72
65
73
4
40
47.5
49
22
74
0
49
-8.5
74
0
49
8.5
74
0
49
-8.5
74
0
0
LTYPE
5
6F
100
AcDbSymbolTableRecord
100
AcDbLinetypeTableRecord
70
0
2
DASHED
3
__ __ __ __ __ __ __ __ __
72
65
73
2
40
25.72
49
12.86
74
0
49
-12.86
74
0
0
ENDTAB
0
TABLE
2
LAYER
5
22f
100
AcDbSymbolTable
0
LAYER
5
10
100
AcDbSymbolTableRecord
100
AcDbLayerTableRecord
2
0
70
0
62
7
6
Continuous
290
1
370
-3
390
0
0
LAYER
5
71
100
AcDbSymbolTableRecord
100
AcDbLayerTableRecord
2
81
70
0
62
-3
6
Continuous
290
1
370
-3
390
0
0
LAYER
5
73
100
AcDbSymbolTableRecord
100
AcDbLayerTableRecord
2
80
70
0
62
-6
6
Continuous
290
1
370
-3
390
0
0
LAYER
5
75
100
AcDbSymbolTableRecord
100
AcDbLayerTableRecord
2
1
70
0
62
4
6
Continuous
290
1
370
-3
390
0
0
LAYER
5
7E
100
AcDbSymbolTableRecord
100
AcDbLayerTableRecord
2
4
70
0
62
-2
6
CENTER
290
1
370
-3
390
0
0
LAYER
5
C1
100
AcDbSymbolTableRecord
100
AcDbLayerTableRecord
2
2
70
0
62
7
6
Continuous
290
1
370
-3
390
0
0
LAYER
5
18B
100
AcDbSymbolTableRecord
100
AcDbLayerTableRecord
2
Defpoints
70
0
62
7
6
Continuous
290
0
370
-3
390
0
0
LAYER
5
219
100
AcDbSymbolTableRecord
100
AcDbLayerTableRecord
2
SK4
70
0
62
2
6
CENTER
290
1
370
-3
390
0
0
LAYER
5
21a
100
AcDbSymbolTableRecord
100
AcDbLayerTableRecord
2
SK1
70
0
62
4
6
Continuous
290
1
370
-3
390
0
0
LAYER
5
21b
100
AcDbSymbolTableRecord
100
AcDbLayerTableRecord
2
SK2
70
0
62
7
6
Continuous
290
1
370
-3
390
0
0
LAYER
5
21c
100
AcDbSymbolTableRecord
100
AcDbLayerTableRecord
2
SK6
70
0
62
5
6
Continuous
290
1
370
-3
390
0
0
ENDTAB
0
TABLE
2
STYLE
5
230
100
AcDbSymbolTable
0
STYLE
5
11
100
AcDbSymbolTableRecord
100
AcDbTextStyleTableRecord
2
Standard
3
txt
70
0
71
0
40
0
41
1
42
0
50
0
0
STYLE
5
161
100
AcDbSymbolTableRecord
100
AcDbTextStyleTableRecord
2
iso_b_vert
3
simplex.shx
70
0
71
0
40
0
41
1
42
0
50
0
0
STYLE
5
162
100
AcDbSymbolTableRecord
100
AcDbTextStyleTableRecord
2
DWGDirectTextStyle
3
simplex
70
0
71
0
40
0
41
1
42
0
50
0
0
ENDTAB
0
TABLE
2
DIMSTYLE
5
231
100
AcDbSymbolTable
100
AcDbDimStyleTable
0
DIMSTYLE
105
27
100
AcDbSymbolTableRecord
100
AcDbDimStyleTableRecord
2
Standard
70
0
3
<>
41
0.18
42
0.0625
44
0.18
140
0.18
147
0.09
73
0
74
0
77
1
271
2
275
0
278
52
280
0
340
11
0
ENDTAB
0
TABLE
2
VIEW
5
232
100
AcDbSymbolTable
0
ENDTAB
0
TABLE
2
UCS
5
233
100
AcDbSymbolTable
0
ENDTAB
0
TABLE
2
APPID
5
234
100
AcDbSymbolTable
0
APPID
5
12
100
AcDbSymbolTableRecord
100
AcDbRegAppTableRecord
2
ACAD
70
0
0
APPID
5
187
100
AcDbSymbolTableRecord
100
AcDbRegAppTableRecord
2
ACAD_DSTYLE_DIMBREAK
70
0
0
APPID
5
1D8
100
AcDbSymbolTableRecord
100
AcDbRegAppTableRecord
2
ACAD_DSTYLE_DIM_LINETYPE
70
0
0
APPID
5
1D9
100
AcDbSymbolTableRecord
100
AcDbRegAppTableRecord
2
ACAD_DSTYLE_DIM_EXT1_LINETYPE
70
0
0
APPID
5
1DA
100
AcDbSymbolTableRecord
100
AcDbRegAppTableRecord
2
ACAD_DSTYLE_DIM_EXT2_LINETYPE
70
0
0
APPID
5
215
100
AcDbSymbolTableRecord
100
AcDbRegAppTableRecord
2
ACAD_MLEADERVER
70
0
0
ENDTAB
0
TABLE
2
BLOCK_RECORD
5
235
100
AcDbSymbolTable
0
BLOCK_RECORD
5
1F
100
AcDbSymbolTableRecord
100
AcDbBlockTableRecord
2
*Model_Space
340
0
70
0
0
BLOCK_RECORD
5
1B
100
AcDbSymbolTableRecord
100
AcDbBlockTableRecord
2
*Paper_Space
340
0
70
0
0
BLOCK_RECORD
5
23
100
AcDbSymbolTableRecord
100
AcDbBlockTableRecord
2
*Paper_Space0
340
0
70
0
0
BLOCK_RECORD
5
18C
100
AcDbSymbolTableRecord
100
AcDbBlockTableRecord
2
*D1
340
0
70
0
0
BLOCK_RECORD
5
198
100
AcDbSymbolTableRecord
100
AcDbBlockTableRecord
2
_U0
340
0
70
0
0
BLOCK_RECORD
5
1A4
100
AcDbSymbolTableRecord
100
AcDbBlockTableRecord
2
*D3
340
0
70
0
0
BLOCK_RECORD
5
1B1
100
AcDbSymbolTableRecord
100
AcDbBlockTableRecord
2
_U1
340
0
70
0
0
ENDTAB
0
ENDSEC
0
SECTION
2
BLOCKS
0
BLOCK
5
20
100
AcDbEntity
8
0
100
AcDbBlockBegin
2
*Model_Space
70
0
10
0
20
0
30
0
3
*Model_Space
0
ENDBLK
5
21
100
AcDbEntity
8
0
100
AcDbBlockEnd
0
BLOCK
5
1C
100
AcDbEntity
8
0
100
AcDbBlockBegin
2
*Paper_Space
70
0
10
0
20
0
30
0
3
*Paper_Space
0
ENDBLK
5
1D
100
AcDbEntity
8
0
100
AcDbBlockEnd
0
BLOCK
5
24
100
AcDbEntity
8
0
100
AcDbBlockBegin
2
*Paper_Space0
70
0
10
0
20
0
30
0
3
*Paper_Space0
0
ENDBLK
5
25
100
AcDbEntity
8
0
100
AcDbBlockEnd
0
BLOCK
5
18D
100
AcDbEntity
8
0
100
AcDbBlockBegin
2
*D1
70
1
10
0
20
0
30
0
3
*D1
0
LINE
5
18F
100
AcDbEntity
8
0
62
256
6
ByLayer
370
-2
48
1
60
0
100
AcDbLine
10
100
20
-1.5875
30
0
11
100
21
-46.238829
31
0
39
0
210
0
220
0
230
1
0
LINE
5
190
100
AcDbEntity
8
0
62
256
6
ByLayer
370
-2
48
1
60
0
100
AcDbLine
10
0
20
-1.5875
30
0
11
0
21
-46.238829
31
0
39
0
210
0
220
0
230
1
0
LINE
5
191
100
AcDbEntity
8
0
62
256
6
ByLayer
370
-2
48
1
60
0
100
AcDbLine
10
96.5
20
-44.238829
30
0
11
3.5
21
-44.238829
31
0
39
0
210
0
220
0
230
1
0
SOLID
5
192
100
AcDbEntity
8
0
62
256
6
ByLayer
370
-1
48
1
60
0
100
AcDbTrace
10
96.5
20
-44.822162
30
0
11
96.5
21
-43.655495
31
0
12
100
22
-44.238829
32
0
13
100
23
-44.238829
33
0
39
0
210
0
220
0
230
1
0
SOLID
5
193
100
AcDbEntity
8
0
62
256
6
ByLayer
370
-1
48
1
60
0
100
AcDbTrace
10
3.5
20
-43.655495
30
0
11
3.5
21
-44.822162
31
0
12
0
22
-44.238829
32
0
13
0
23
-44.238829
33
0
39
0
210
0
220
0
230
1
0
MTEXT
5
194
100
AcDbEntity
8
0
62
256
6
ByLayer
370
18
48
1
60
0
100
AcDbMText
10
50
20
-37.238829
30
0
210
0
220
0
230
1
1
\A1;100
40
3.5
41
0
44
1
50
0
71
5
72
5
7
iso_b_vert
0
POINT
5
195
100
AcDbEntity
8
Defpoints
62
0
6
ByLayer
370
-1
48
1
60
0
100
AcDbPoint
10
100
20
0
30
0
39
0
210
0
220
0
230
1
50
360
0
POINT
5
196
100
AcDbEntity
8
Defpoints
62
0
6
ByLayer
370
-1
48
1
60
0
100
AcDbPoint
10
0
20
0
30
0
39
0
210
0
220
0
230
1
50
360
0
POINT
5
197
100
AcDbEntity
8
Defpoints
62
0
6
ByLayer
370
-1
48
1
60
0
100
AcDbPoint
10
0
20
-44.238829
30
0
39
0
210
0
220
0
230
1
50
360
0
ENDBLK
5
18E
100
AcDbEntity
8
0
100
AcDbBlockEnd
0
BLOCK
5
19F
100
AcDbEntity
8
0
100
AcDbBlockBegin
2
_U0
70
0
10
0
20
0
30
0
3
_U0
0
MTEXT
5
199
100
AcDbEntity
8
SK2
62
256
6
ByLayer
370
18
48
1
60
0
100
AcDbMText
10
47.224734
20
-43.206195
30
0
210
0
220
0
230
1
1
\W0.6217;100
40
3.5
41
0
44
1.084337
50
0
71
7
72
5
7
iso_b_vert
0
LINE
5
19A
100
AcDbEntity
8
SK2
62
256
6
ByLayer
370
13
48
1
60
0
100
AcDbLine
10
100
20
-1.5875
30
0
11
100
21
-46.238829
31
0
39
0
210
0
220
0
230
1
0
LINE
5
19B
100
AcDbEntity
8
SK2
62
256
6
ByLayer
370
13
48
1
60
0
100
AcDbLine
10
0
20
-1.5875
30
0
11
0
21
-46.238829
31
0
39
0
210
0
220
0
230
1
0
LINE
5
19C
100
AcDbEntity
8
SK2
62
256
6
ByLayer
370
13
48
1
60
0
100
AcDbLine
10
100
20
-44.238829
30
0
11
0
21
-44.238829
31
0
39
0
210
0
220
0
230
1
0
SOLID
5
19D
100
AcDbEntity
8
SK2
62
256
6
ByLayer
370
18
48
1
60
0
100
AcDbTrace
10
100
20
-44.238829
30
0
11
96.500002
21
-44.699612
31
0
12
96.499998
22
-43.778045
32
0
13
96.499998
23
-43.778045
33
0
39
0
210
0
220
0
230
1
0
SOLID
5
19E
100
AcDbEntity
8
SK2
62
256
6
ByLayer
370
18
48
1
60
0
100
AcDbTrace
10
0
20
-44.238829
30
0
11
3.499998
21
-43.778045
31
0
12
3.500002
22
-44.699612
32
0
13
3.500002
23
-44.699612
33
0
39
0
210
0
220
0
230
1
0
ENDBLK
5
1A0
100
AcDbEntity
8
0
100
AcDbBlockEnd
0
BLOCK
5
1A5
100
AcDbEntity
8
0
100
AcDbBlockBegin
2
*D3
70
1
10
0
20
0
30
0
3
*D3
0
LINE
5
1A7
100
AcDbEntity
8
0
62
256
6
ByLayer
370
-2
48
1
60
0
100
AcDbLine
10
100
20
-1.5875
30
0
11
100
21
-29.738829
31
0
39
0
210
0
220
0
230
1
0
LINE
5
1A8
100
AcDbEntity
8
0
62
256
6
ByLayer
370
-2
48
1
60
0
100
AcDbLine
10
70
20
-1.5875
30
0
11
70
21
-29.738829
31
0
39
0
210
0
220
0
230
1
0
LINE
5
1A9
100
AcDbEntity
8
0
62
256
6
ByLayer
370
-2
48
1
60
0
100
AcDbLine
10
100
20
-27.738829
30
0
11
121.634642
21
-27.738829
31
0
39
0
210
0
220
0
230
1
0
LINE
5
1AA
100
AcDbEntity
8
0
62
256
6
ByLayer
370
-2
48
1
60
0
100
AcDbLine
10
96.5
20
-27.738829
30
0
11
73.5
21
-27.738829
31
0
39
0
210
0
220
0
230
1
0
SOLID
5
1AB
100
AcDbEntity
8
0
62
256
6
ByLayer
370
-1
48
1
60
0
100
AcDbTrace
10
96.5
20
-28.322162
30
0
11
96.5
21
-27.155495
31
0
12
100
22
-27.738829
32
0
13
100
23
-27.738829
33
0
39
0
210
0
220
0
230
1
0
SOLID
5
1AC
100
AcDbEntity
8
0
62
256
6
ByLayer
370
-1
48
1
60
0
100
AcDbTrace
10
73.5
20
-27.155495
30
0
11
73.5
21
-28.322162
31
0
12
70
22
-27.738829
32
0
13
70
23
-27.738829
33
0
39
0
210
0
220
0
230
1
0
MTEXT
5
1AD
100
AcDbEntity
8
0
62
256
6
ByLayer
370
18
48
1
60
0
100
AcDbMText
10
113.551309
20
-20.738829
30
0
210
0
220
0
230
1
1
\A1;30
40
3.5
41
0
44
1
50
0
71
5
72
5
7
iso_b_vert
0
POINT
5
1AE
100
AcDbEntity
8
Defpoints
62
0
6
ByLayer
370
-1
48
1
60
0
100
AcDbPoint
10
100
20
0
30
0
39
0
210
0
220
0
230
1
50
360
0
POINT
5
1AF
100
AcDbEntity
8
Defpoints
62
0
6
ByLayer
370
-1
48
1
60
0
100
AcDbPoint
10
70
20
0
30
0
39
0
210
0
220
0
230
1
50
360
0
POINT
5
1B0
100
AcDbEntity
8
Defpoints
62
0
6
ByLayer
370
-1
48
1
60
0
100
AcDbPoint
10
70
20
-27.738829
30
0
39
0
210
0
220
0
230
1
50
360
0
ENDBLK
5
1A6
100
AcDbEntity
8
0
100
AcDbBlockEnd
0
BLOCK
5
1B8
100
AcDbEntity
8
0
100
AcDbBlockBegin
2
_U1
70
0
10
0
20
0
30
0
3
_U1
0
MTEXT
5
1B2
100
AcDbEntity
8
2
62
256
6
ByLayer
370
18
48
1
60
0
100
AcDbMText
10
111.646343
20
-26.706195
30
0
210
0
220
0
230
1
1
\W0.6740;30
40
3.5
41
0
44
1.084337
50
0
71
7
72
5
7
iso_b_vert
0
LINE
5
1B3
100
AcDbEntity
8
2
62
256
6
ByLayer
370
13
48
1
60
0
100
AcDbLine
10
100
20
-1.5875
30
0
11
100
21
-29.738829
31
0
39
0
210
0
220
0
230
1
0
LINE
5
1B4
100
AcDbEntity
8
2
62
256
6
ByLayer
370
13
48
1
60
0
100
AcDbLine
10
70
20
-1.5875
30
0
11
70
21
-29.738829
31
0
39
0
210
0
220
0
230
1
0
LINE
5
1B5
100
AcDbEntity
8
2
62
256
6
ByLayer
370
13
48
1
60
0
100
AcDbLine
10
70
20
-27.738829
30
0
11
115.641775
21
-27.738829
31
0
39
0
210
0
220
0
230
1
0
SOLID
5
1B6
100
AcDbEntity
8
2
62
256
6
ByLayer
370
18
48
1
60
0
100
AcDbTrace
10
100
20
-27.738829
30
0
11
96.500002
21
-28.199612
31
0
12
96.499998
22
-27.278045
32
0
13
96.499998
23
-27.278045
33
0
39
0
210
0
220
0
230
1
0
SOLID
5
1B7
100
AcDbEntity
8
2
62
256
6
ByLayer
370
18
48
1
60
0
100
AcDbTrace
10
70
20
-27.738829
30
0
11
73.499998
21
-27.278045
31
0
12
73.500002
22
-28.199612
32
0
13
73.500002
23
-28.199612
33
0
39
0
210
0
220
0
230
1
0
ENDBLK
5
1B9
100
AcDbEntity
8
0
100
AcDbBlockEnd
0
ENDSEC
0
SECTION
2
ENTITIES
0
ELLIPSE
5
D7
100
AcDbEntity
8
1
62
256
6
ByLayer
370
18
48
1
60
0
100
AcDbEllipse
10
100.568156
20
-0.802317
30
0
11
0.623579664442711
21
0.443199861987848
31
0
210
0
220
0
230
1
40
0.729272
41
2.25061971943726
42
2.89153475830552
0
ELLIPSE
5
D8
100
AcDbEntity
8
1
62
256
6
ByLayer
370
18
48
1
60
0
100
AcDbEllipse
10
99.323504
20
0.831678
30
0
11
0.00342216717304161
21
-0.692747145755052
31
0
210
0
220
0
230
1
40
0.441746
41
-2.6190623272499
42
-0.481033993558037
0
ELLIPSE
5
D9
100
AcDbEntity
8
1
62
256
6
ByLayer
370
18
48
1
60
0
100
AcDbEllipse
10
70.34641
20
18.914049
30
0
11
-5.32522093308269
21
8.67362913591536
31
0
210
0
220
0
230
1
40
0.809793
41
2.35670166977255
42
2.4535765384957
0
ELLIPSE
5
DA
100
AcDbEntity
8
1
62
256
6
ByLayer
370
18
48
1
60
0
100
AcDbEllipse
10
70.34641
20
-15.110702
30
0
11
-7.51744441790901
21
6.86133003121046
31
0
210
0
220
0
230
1
40
0.670747
41
-0.982140008285153
42
-0.88526513956215
0
ELLIPSE
5
DB
100
AcDbEntity
8
1
62
256
6
ByLayer
370
18
48
1
60
0
100
AcDbEllipse
10
70.34641
20
4.145606
30
0
11
-8.77859545997394
21
5.15034776725482
31
0
210
0
220
0
230
1
40
0.153943
41
1.52468355643028
42
1.62155842515277
0
ELLIPSE
5
DC
100
AcDbEntity
8
1
62
256
6
ByLayer
370
18
48
1
60
0
100
AcDbEllipse
10
69.058266
20
0
30
0
11
26.9201793155024
21
-7.09397987155596
31
0
210
0
220
0
230
1
40
0.261814
41
-1.52591883347561
42
-1.46700590839569
0
ELLIPSE
5
DD
100
AcDbEntity
8
1
62
256
6
ByLayer
370
18
48
1
60
0
100
AcDbEllipse
10
69.016698
20
0
30
0
11
28.1675270431939
21
-9.81963122603526
31
0
210
0
220
0
230
1
40
0.067124
41
1.55928608912775
42
1.61420667393847
0
ELLIPSE
5
DE
100
AcDbEntity
8
1
62
256
6
ByLayer
370
18
48
1
60
0
100
AcDbEllipse
10
69.058266
20
0
30
0
11
26.9546304819194
21
-3.65561170000676
31
0
210
0
220
0
230
1
40
0.345316
41
1.58268766153125
42
1.64160058737798
0
POINT
5
70
100
AcDbEntity
8
81
62
256
6
ByLayer
370
18
48
1
60
0
100
AcDbPoint
10
100.05
20
0
30
0
39
0
210
0
220
0
230
1
50
360
0
POINT
5
72
100
AcDbEntity
8
80
62
256
6
ByLayer
370
18
48
1
60
0
100
AcDbPoint
10
0
20
0
30
0
39
0
210
0
220
0
230
1
50
360
0
POINT
5
74
100
AcDbEntity
8
1
62
256
6
ByLayer
370
18
48
1
60
1
100
AcDbPoint
10
100
20
0
30
0
39
0
210
0
220
0
230
1
50
360
0
POINT
5
76
100
AcDbEntity
8
1
62
256
6
ByLayer
370
18
48
1
60
1
100
AcDbPoint
10
0
20
0
30
0
39
0
210
0
220
0
230
1
50
360
0
POINT
5
77
100
AcDbEntity
8
1
62
256
6
ByLayer
370
18
48
1
60
1
100
AcDbPoint
10
100
20
0
30
0
39
0
210
0
220
0
230
1
50
360
0
POINT
5
78
100
AcDbEntity
8
1
62
256
6
ByLayer
370
18
48
1
60
1
100
AcDbPoint
10
70
20
0
30
0
39
0
210
0
220
0
230
1
50
360
0
SPLINE
5
DF
100
AcDbEntity
8
1
62
256
6
ByLayer
370
18
48
1
60
0
100
AcDbSpline
70
4
71
3
72
8
73
4
40
0
40
0
40
0
40
0
40
1
40
1
40
1
40
1
41
1
10
70
20
-9.52156669954209
30
0
41
1
10
70.023958327306
20
-9.51800986308012
30
0
41
1
10
70.047916654612
20
-9.51442530495797
30
0
41
1
10
70.0718749819179
20
-9.51081307928209
30
0
0
SPLINE
5
E0
100
AcDbEntity
8
1
62
256
6
ByLayer
370
18
48
1
60
0
100
AcDbSpline
70
4
71
3
72
14
73
10
40
0
40
0
40
0
40
0
40
0.5
40
0.5
40
0.625
40
0.625
40
0.75
40
0.75
40
1
40
1
40
1
40
1
41
1
10
99.9985633184767
20
0.041393669326709
30
0
41
1
10
99.9857708541185
20
0.565351310489035
30
0
41
1
10
99.9374299576063
20
1.08596555988572
30
0
41
1
10
99.8317321506573
20
1.73247549093045
30
0
41
1
10
99.8083669329242
20
1.86132893882529
30
0
41
1
10
99.7572861853732
20
2.11791011232208
30
0
41
1
10
99.7295562947103
20
2.24567499192742
30
0
41
1
10
99.6397813575927
20
2.62738849613905
30
0
41
1
10
99.5711385931602
20
2.8797529961885
30
0
41
1
10
99.4937872164734
20
3.13002654197552
30
0
0
SPLINE
5
E1
100
AcDbEntity
8
1
62
256
6
ByLayer
370
18
48
1
60
0
100
AcDbSpline
70
4
71
3
72
8
73
4
40
0
40
0
40
0
40
0
40
1
40
1
40
1
40
1
41
1
10
99.0193090803277
20
2.95366076109246
30
0
41
1
10
99.177466678562
20
3.01245413673769
30
0
41
1
10
99.3356262682408
20
3.07124216414158
30
0
41
1
10
99.4937872164734
20
3.13002654197552
30
0
0
SPLINE
5
E2
100
AcDbEntity
8
1
62
256
6
ByLayer
370
18
48
1
60
0
100
AcDbSpline
70
4
71
3
72
48
73
44
40
0
40
0
40
0
40
0
40
0.031249999999995
40
0.031249999999995
40
0.0468749999999939
40
0.0468749999999939
40
0.0624999999999928
40
0.124999999999985
40
0.124999999999985
40
0.187499999999978
40
0.187499999999978
40
0.249999999999971
40
0.249999999999971
40
0.312499999999963
40
0.312499999999963
40
0.328124999999964
40
0.328124999999964
40
0.343749999999964
40
0.37499999999997
40
0.437499999999982
40
0.437499999999982
40
0.499999999999993
40
0.499999999999993
40
0.562500000000005
40
0.562500000000005
40
0.593750000000008
40
0.593750000000008
40
0.62500000000001
40
0.62500000000001
40
0.68750000000001
40
0.68750000000001
40
0.750000000000009
40
0.750000000000009
40
0.812500000000009
40
0.812500000000009
40
0.843750000000012
40
0.859375000000013
40
0.859375000000013
40
0.875000000000015
40
0.875000000000015
40
0.937500000000007
40
0.937500000000007
40
1
40
1
40
1
40
1
41
1
10
99.4937872164734
20
3.13002654197552
30
0
41
1
10
99.4587800313709
20
3.23502368870129
30
0
41
1
10
99.4219869406078
20
3.33933479398013
30
0
41
1
10
99.3641088563126
20
3.49476276707893
30
0
41
1
10
99.3443508787447
20
3.5464391131045
30
0
41
1
10
99.3040085952277
20
3.64923500283828
30
0
41
1
10
99.2011498374028
20
3.90469279768453
30
0
41
1
10
99.0883027547666
20
4.15252167286386
30
0
41
1
10
98.8953938014635
20
4.53961025314564
30
0
41
1
10
98.7927745258452
20
4.72844254703807
30
0
41
1
10
98.5752216001927
20
5.09677853649734
30
0
41
1
10
98.4602974715402
20
5.2762927239217
30
0
41
1
10
98.2180678454516
20
5.6259309564669
30
0
41
1
10
98.0907430378613
20
5.79604397490925
30
0
41
1
10
97.9236001978862
20
6.00262424066784
30
0
41
1
10
97.8897697538313
20
6.04363768417718
30
0
41
1
10
97.8216047395823
20
6.12470376337083
30
0
41
1
10
97.7184935060074
20
6.24499830952757
30
0
41
1
10
97.4719085139993
20
6.51663096261322
30
0
41
1
10
97.250374424555
20
6.73408465045884
30
0
41
1
10
96.9460561074588
20
7.01053118465171
30
0
41
1
10
96.7894272574273
20
7.14201419431549
30
0
41
1
10
96.4672581370535
20
7.39147154986517
30
0
41
1
10
96.3017177859367
20
7.50943244139515
30
0
41
1
10
96.0465404927185
20
7.67594379808085
30
0
41
1
10
95.9603247047032
20
7.7297179462941
30
0
41
1
10
95.7856082243984
20
7.83371446603849
30
0
41
1
10
95.6976588235999
20
7.88360940432477
30
0
41
1
10
95.4320676996948
20
8.02711492014836
30
0
41
1
10
95.2526904956657
20
8.11456571073415
30
0
41
1
10
94.8893877265926
20
8.27343096817501
30
0
41
1
10
94.7054557491732
20
8.34483332563906
30
0
41
1
10
94.3330204782544
20
8.47162286242386
30
0
41
1
10
94.1445156909549
20
8.52701514929365
30
0
41
1
10
93.858297663462
20
8.59791520038226
30
0
41
1
10
93.7143239073175
20
8.63031179851379
30
0
41
1
10
93.5690450142227
20
8.65805889315422
30
0
41
1
10
93.4719010389326
20
8.67551455387175
30
0
41
1
10
93.4231341286205
20
8.68372845301101
30
0
41
1
10
93.1793975109167
20
8.72203375653916
30
0
41
1
10
92.9844833229386
20
8.74390324897053
30
0
41
1
10
92.594815626209
20
8.77041171108067
30
0
41
1
10
92.4000564324476
20
8.77506019388028
30
0
41
1
10
92.2053912545514
20
8.77114080414663
30
0
0
SPLINE
5
E3
100
AcDbEntity
8
1
62
256
6
ByLayer
370
18
48
1
60
0
100
AcDbSpline
70
4
71
3
72
10
73
6
40
0
40
0
40
0
40
0
40
0.355410496722723
40
0.355410496722723
40
1
40
1
40
1
40
1
41
1
10
73.99835120558
20
-9.0007564615396
30
0
41
1
10
73.5425205974786
20
-9.08733213987429
30
0
41
1
10
73.0869923439762
20
-9.1645537683811
30
0
41
1
10
71.8051610520057
20
-9.35505699950372
30
0
41
1
10
70.9787520584862
20
-9.44656167086004
30
0
41
1
10
70.1501310132671
20
-9.50532493721181
30
0
0
SPLINE
5
E4
100
AcDbEntity
8
1
62
256
6
ByLayer
370
18
48
1
60
0
100
AcDbSpline
70
4
71
3
72
10
73
6
40
0
40
0
40
0
40
0
40
0.5
40
0.5
40
1
40
1
40
1
40
1
41
1
10
70.0000000000001
20
9.49457092569537
30
0
41
1
10
69.7947582197738
20
9.5585969839513
30
0
41
1
10
69.5901300309799
20
9.62881724502995
30
0
41
1
10
69.1817610552864
20
9.78108265415742
30
0
41
1
10
68.9780212110225
20
9.86312952464093
30
0
41
1
10
68.7745228951945
20
9.95089246633722
30
0
0
SPLINE
5
E5
100
AcDbEntity
8
1
62
256
6
ByLayer
370
18
48
1
60
0
100
AcDbSpline
70
4
71
3
72
8
73
4
40
0
40
0
40
0
40
0
40
1
40
1
40
1
40
1
41
1
10
90.0000000000001
20
9.33721015293324
30
0
41
1
10
89.4029475479775
20
9.41142394463299
30
0
41
1
10
88.8065661192605
20
9.46904003425186
30
0
41
1
10
88.2101189573507
20
9.50987055708057
30
0
0
SPLINE
5
E6
100
AcDbEntity
8
1
62
256
6
ByLayer
370
18
48
1
60
0
100
AcDbSpline
70
4
71
3
72
8
73
4
40
0
40
0
40
0
40
0
40
1
40
1
40
1
40
1
41
1
10
85.7987502083415
20
9.78084736332588
30
0
41
1
10
87.1991668055609
20
9.67815404377097
30
0
41
1
10
88.5995834027805
20
9.47888162146913
30
0
41
1
10
90.0000000000001
20
9.19002460094384
30
0
0
SPLINE
5
E7
100
AcDbEntity
8
1
62
256
6
ByLayer
370
18
48
1
60
0
100
AcDbSpline
70
4
71
3
72
42
73
38
40
0
40
0
40
0
40
0
40
0.062499999999985
40
0.062499999999985
40
0.12499999999997
40
0.12499999999997
40
0.156249999999963
40
0.156249999999963
40
0.187499999999955
40
0.187499999999955
40
0.24999999999995
40
0.24999999999995
40
0.374999999999949
40
0.374999999999949
40
0.437499999999949
40
0.437499999999949
40
0.453124999999951
40
0.453124999999951
40
0.468749999999953
40
0.499999999999958
40
0.499999999999958
40
0.624999999999975
40
0.624999999999975
40
0.687499999999987
40
0.687499999999987
40
0.718749999999989
40
0.734374999999987
40
0.734374999999987
40
0.749999999999985
40
0.749999999999985
40
0.812499999999989
40
0.812499999999989
40
0.874999999999992
40
0.874999999999992
40
0.937499999999996
40
0.937499999999996
40
1
40
1
40
1
40
1
41
1
10
94.1149801597289
20
7.9907207083273
30
0
41
1
10
94.2261657778171
20
7.91715454242538
30
0
41
1
10
94.3378602540224
20
7.84152096830178
30
0
41
1
10
94.5622918479383
20
7.6860177362652
30
0
41
1
10
94.6750294783987
20
7.60614599513275
30
0
41
1
10
94.8449536338534
20
7.48301616092684
30
0
41
1
10
94.9017988317401
20
7.44136691040805
30
0
41
1
10
95.0148296851626
20
7.35763309752801
30
0
41
1
10
95.0711224470897
20
7.31547207391051
30
0
41
1
10
95.2393381261208
20
7.18811376798854
30
0
41
1
10
95.3505990797572
20
7.10204210032589
30
0
41
1
10
95.6817524052647
20
6.84035375271196
30
0
41
1
10
95.899037070685
20
6.66129256192158
30
0
41
1
10
96.21952290462
20
6.3855135599203
30
0
41
1
10
96.3254411105835
20
6.29238467450236
30
0
41
1
10
96.45665445752
20
6.17440908378845
30
0
41
1
10
96.48286564249
20
6.15071032731029
30
0
41
1
10
96.5350254264338
20
6.10328419130784
30
0
41
1
10
96.6128143869176
20
6.03215469532628
30
0
41
1
10
96.6892625666629
20
5.96105407860742
30
0
41
1
10
96.9411525753138
20
5.7241152888667
30
0
41
1
10
97.133304136494
20
5.53476587301353
30
0
41
1
10
97.4074856272003
20
5.25104428476891
30
0
41
1
10
97.4965397133259
20
5.15652081809344
30
0
41
1
10
97.6265347241818
20
5.01481285998096
30
0
41
1
10
97.6906335902912
20
4.94397823684216
30
0
41
1
10
97.7533616126492
20
4.87317314049648
30
0
41
1
10
97.7948728667625
20
4.8259763646555
30
0
41
1
10
97.8154530390198
20
4.80240563542654
30
0
41
1
10
97.9171395103391
20
4.68508235804094
30
0
41
1
10
97.9949383133177
20
4.59254867992695
30
0
41
1
10
98.1436565432334
20
4.41004859869568
30
0
41
1
10
98.2145561898227
20
4.32008957729317
30
0
41
1
10
98.3494982450625
20
4.14273054789288
30
0
41
1
10
98.413551823816
20
4.05532637138825
30
0
41
1
10
98.5348994018004
20
3.88304058719788
30
0
41
1
10
98.5921736858696
20
3.79816633690061
30
0
41
1
10
98.6459564989322
20
3.71459504869787
30
0
0
SPLINE
5
E8
100
AcDbEntity
8
1
62
256
6
ByLayer
370
18
48
1
60
0
100
AcDbSpline
70
4
71
3
72
46
73
42
40
0
40
0
40
0
40
0
40
0.0156249999999666
40
0.0156249999999666
40
0.0312499999999332
40
0.0312499999999332
40
0.0624999999998664
40
0.0624999999998664
40
0.124999999999749
40
0.124999999999749
40
0.187499999999631
40
0.187499999999631
40
0.218749999999581
40
0.218749999999581
40
0.234374999999547
40
0.234374999999547
40
0.249999999999514
40
0.249999999999514
40
0.253906249999505
40
0.253906249999505
40
0.255859374999501
40
0.255859374999501
40
0.257812499999496
40
0.257812499999496
40
0.265624999999496
40
0.265624999999496
40
0.281249999999512
40
0.281249999999512
40
0.312499999999528
40
0.312499999999528
40
0.374999999999577
40
0.374999999999577
40
0.499999999999675
40
0.499999999999675
40
0.562499999999724
40
0.562499999999724
40
0.624999999999773
40
0.624999999999773
40
0.749999999999854
40
0.749999999999854
40
1
40
1
40
1
40
1
41
1
10
90.0000012259194
20
9.33720460460577
30
0
41
1
10
90.0207974196348
20
9.33455470887534
30
0
41
1
10
90.0415961306686
20
9.33186397752434
30
0
41
1
10
90.0831905136101
20
9.32643835612123
30
0
41
1
10
90.1039826842881
20
9.32371881710833
30
0
41
1
10
90.166379984386
20
9.31538274719597
30
0
41
1
10
90.2080232441695
20
9.30951163426354
30
0
41
1
10
90.3332254364694
20
9.29043390229972
30
0
41
1
10
90.4170066995622
20
9.27598926121732
30
0
41
1
10
90.5851318900813
20
9.2442930053235
30
0
41
1
10
90.6694786515418
20
9.2270285641024
30
0
41
1
10
90.7963854675563
20
9.19938579720343
30
0
41
1
10
90.838751998865
20
9.18988062288111
30
0
41
1
10
90.9023914471817
20
9.17523506543719
30
0
41
1
10
90.9236188950002
20
9.1702909963283
30
0
41
1
10
90.9661050711689
20
9.16027153086219
30
0
41
1
10
90.9873600876957
20
9.15520945154438
30
0
41
1
10
91.0140298970111
20
9.14849587348411
30
0
41
1
10
91.0193788174424
20
9.1470965277625
30
0
41
1
10
91.027402065126
20
9.14499804401061
30
0
41
1
10
91.0300855597947
20
9.14426439543652
30
0
41
1
10
91.03537845832
20
9.14307588750469
30
0
41
1
10
91.0380255643196
20
9.14247901766893
30
0
41
1
10
91.0512809483004
20
9.13941941847301
30
0
41
1
10
91.0619147265265
20
9.13685914563948
30
0
41
1
10
91.0938783801284
20
9.12894265158735
30
0
41
1
10
91.1152771399066
20
9.12332699657679
30
0
41
1
10
91.1794925975633
20
9.10641114209716
30
0
41
1
10
91.2223175516386
20
9.09507679900543
30
0
41
1
10
91.3510516279417
20
9.0601401193278
30
0
41
1
10
91.4371643299145
20
9.0358127334631
30
0
41
1
10
91.6964543833733
20
8.95974649451384
30
0
41
1
10
91.8705768980161
20
8.90494354195843
30
0
41
1
10
92.1340561304539
20
8.81647504622254
30
0
41
1
10
92.2217176974743
20
8.78612289645764
30
0
41
1
10
92.3965082094281
20
8.72383353226741
30
0
41
1
10
92.4836753106364
20
8.69188354002858
30
0
41
1
10
92.7445345622772
20
8.59370653070428
30
0
41
1
10
92.917587805839
20
8.52516144353112
30
0
41
1
10
93.4344758681609
20
8.31082024082585
30
0
41
1
10
93.776044957091
20
8.15631611193672
30
0
41
1
10
94.1149801597289
20
7.9907207083273
30
0
0
SPLINE
5
E9
100
AcDbEntity
8
1
62
256
6
ByLayer
370
18
48
1
60
0
100
AcDbSpline
70
4
71
3
72
10
73
6
40
0
40
0
40
0
40
0
40
0.5
40
0.5
40
1
40
1
40
1
40
1
41
1
10
98.6459564989379
20
3.7145950486902
30
0
41
1
10
98.7408126137953
20
3.51404882343076
30
0
41
1
10
98.8370386347185
20
3.31561631537625
30
0
41
1
10
99.0316643641849
20
2.92242596107553
30
0
41
1
10
99.1300671917056
20
2.72766297754029
30
0
41
1
10
99.2293758774611
20
2.53442271358259
30
0
0
SPLINE
5
EA
100
AcDbEntity
8
1
62
256
6
ByLayer
370
18
48
1
60
0
100
AcDbSpline
70
4
71
3
72
20
73
16
40
0
40
0
40
0
40
0
40
0.249999999999954
40
0.249999999999954
40
0.374999999999946
40
0.374999999999946
40
0.499999999999938
40
0.499999999999938
40
0.749999999999954
40
0.749999999999954
40
0.874999999999978
40
0.874999999999978
40
0.937499999999989
40
0.937499999999989
40
1
40
1
40
1
40
1
41
1
10
91.991176278111
20
8.26097892096226
30
0
41
1
10
91.8261802507727
20
8.33994577524527
30
0
41
1
10
91.6611776108873
20
8.41461333187959
30
0
41
1
10
91.4134102640238
20
8.51998427620768
30
0
41
1
10
91.3307756181266
20
8.55398803050687
30
0
41
1
10
91.1653836360706
20
8.61981399393218
30
0
41
1
10
91.0826164461256
20
8.65155398706239
30
0
41
1
10
90.8341407513401
20
8.74403624851888
30
0
41
1
10
90.6682269530622
20
8.80171438390013
30
0
41
1
10
90.4184453708428
20
8.88002416056142
30
0
41
1
10
90.3350326860438
20
8.90476346181703
30
0
41
1
10
90.2095899249437
20
8.93939843573236
30
0
41
1
10
90.167713566932
20
8.95047502181131
30
0
41
1
10
90.0838850154771
20
8.97207802515007
30
0
41
1
10
90.0419468129668
20
8.98270212105652
30
0
41
1
10
89.9999995302724
20
8.9932567680402
30
0
0
SPLINE
5
EB
100
AcDbEntity
8
1
62
256
6
ByLayer
370
18
48
1
60
0
100
AcDbSpline
70
4
71
3
72
8
73
4
40
0
40
0
40
0
40
0
40
1
40
1
40
1
40
1
41
1
10
94.7474135462314
20
3.66434311480961
30
0
41
1
10
94.9220722948027
20
3.48352806793147
30
0
41
1
10
95.1026244925114
20
3.30511750920729
30
0
41
1
10
95.289475809
20
3.12927694916013
30
0
0
SPLINE
5
EC
100
AcDbEntity
8
1
62
256
6
ByLayer
370
18
48
1
60
0
100
AcDbSpline
70
4
71
3
72
8
73
4
40
0
40
0
40
0
40
0
40
1
40
1
40
1
40
1
41
1
10
91.9912142814179
20
-8.69664669784919
30
0
41
1
10
92.0588342838665
20
-8.69384381677853
30
0
41
1
10
92.1243557411645
20
-8.69338873515903
30
0
41
1
10
92.1879751335434
20
-8.69491216673214
30
0
0
SPLINE
5
ED
100
AcDbEntity
8
1
62
256
6
ByLayer
370
18
48
1
60
0
100
AcDbSpline
70
4
71
3
72
8
73
4
40
0
40
0
40
0
40
0
40
1
40
1
40
1
40
1
41
1
10
99.229375877907
20
2.53442272046362
30
0
41
1
10
99.3093251564762
20
2.29976916873244
30
0
41
1
10
99.3897060448693
20
2.06553787677439
30
0
41
1
10
99.4704786080737
20
1.83169645382594
30
0
0
SPLINE
5
EE
100
AcDbEntity
8
1
62
256
6
ByLayer
370
18
48
1
60
0
100
AcDbSpline
70
4
71
3
72
32
73
28
40
0
40
0
40
0
40
0
40
0.0016681299990589
40
0.0033359438762293
40
0.0066744006449772
40
0.0167237863791142
40
0.040251942478105
40
0.0882746819397036
40
0.0946149138996335
40
0.095733092966097
40
0.0971646872497863
40
0.0974639691472477
40
0.0976388094918133
40
0.0987591574724376
40
0.102404235246941
40
0.108733497180199
40
0.117240181196027
40
0.163953613131835
40
0.304045559678802
40
0.472979168360538
40
0.606032234490699
40
0.739076385484723
40
0.825039122878397
40
0.906908679441592
40
0.945882613881976
40
0.983367912548381
40
1
40
1
40
1
40
1
41
1
10
89.9999980977139
20
9.1900198527533
30
0
41
1
10
90.0062941657443
20
9.18870486036954
30
0
41
1
10
90.0189026610491
20
9.18606553084018
30
0
41
1
10
90.0442039832424
20
9.18074500840422
30
0
41
1
10
90.1011092797636
20
9.1686795892148
30
0
41
1
10
90.2403350438183
20
9.13891248134601
30
0
41
1
10
90.5464619127464
20
9.06325174268767
30
0
41
1
10
90.8369142941026
20
8.97441271387325
30
0
41
1
10
91.0419085108815
20
8.90539889034238
30
0
41
1
10
91.0747274648861
20
8.89411456524886
30
0
41
1
10
91.0850874965729
20
8.89048116380096
30
0
41
1
10
91.0922073892012
20
8.88799632897323
30
0
41
1
10
91.0982463938632
20
8.88591859659905
30
0
41
1
10
91.1168926788272
20
8.8794483910965
30
0
41
1
10
91.158552324187
20
8.86474177285268
30
0
41
1
10
91.2276439477784
20
8.83964807916718
30
0
41
1
10
91.4578926118804
20
8.75480747070688
30
0
41
1
10
92.1868926362024
20
8.46671136909171
30
0
41
1
10
93.4884936181448
20
7.83963578890999
30
0
41
1
10
95.0138370352007
20
6.89576099359348
30
0
41
1
10
96.3875602212346
20
5.84649863429416
30
0
41
1
10
97.3897592413294
20
4.92433042616568
30
0
41
1
10
98.1514918751926
20
4.09173211742353
30
0
41
1
10
98.6175454346142
20
3.49651329074615
30
0
41
1
10
98.936655425452
20
3.02871852764901
30
0
41
1
10
99.1085591943498
20
2.74934575311741
30
0
41
1
10
99.2015139785927
20
2.58507010559802
30
0
41
1
10
99.2293758748109
20
2.5344227181279
30
0
0
SPLINE
5
EF
100
AcDbEntity
8
1
62
256
6
ByLayer
370
18
48
1
60
0
100
AcDbSpline
70
4
71
3
72
24
73
20
40
0
40
0
40
0
40
0
40
0.008882497375728
40
0.0177604071421818
40
0.0355312857503127
40
0.0890249884812928
40
0.21426728900242
40
0.469896261463857
40
0.503645835087829
40
0.509597993773331
40
0.517218487310852
40
0.518811589345057
40
0.519742278808573
40
0.525705982801663
40
0.545109030118098
40
0.578800209392283
40
0.624081984617937
40
0.872741405962417
40
1
40
1
40
1
40
1
41
1
10
89.9999999663015
20
8.99325667695706
30
0
41
1
10
90.0063930753894
20
8.9916480342477
30
0
41
1
10
90.019208140668
20
8.98842055683426
30
0
41
1
10
90.0449823226239
20
8.9819177499011
30
0
41
1
10
90.1028869882286
20
8.96719579283538
30
0
41
1
10
90.2442189429877
20
8.93093580090493
30
0
41
1
10
90.555532975441
20
8.84092061670307
30
0
41
1
10
90.8518716511134
20
8.73823472383728
30
0
41
1
10
91.0615529478993
20
8.65922740280993
30
0
41
1
10
91.0951219051472
20
8.64646117718834
30
0
41
1
10
91.1056466481686
20
8.6424294705875
30
0
41
1
10
91.1129682496223
20
8.63963361496036
30
0
41
1
10
91.1194362172498
20
8.63715748233554
30
0
41
1
10
91.1393473844126
20
8.62951507423955
30
0
41
1
10
91.1838455576601
20
8.61235006856552
30
0
41
1
10
91.2574168815773
20
8.58359366824493
30
0
41
1
10
91.5026703002665
20
8.48606652468064
30
0
41
1
10
91.8165688065276
20
8.35296878864338
30
0
41
1
10
92.0939035866442
20
8.22648586270026
30
0
41
1
10
92.1874389227306
20
8.18282070932554
30
0
0
SPLINE
5
F0
100
AcDbEntity
8
1
62
256
6
ByLayer
370
18
48
1
60
0
100
AcDbSpline
70
4
71
3
72
8
73
4
40
0
40
0
40
0
40
0
40
1
40
1
40
1
40
1
41
1
10
99.9247812861023
20
-0.727277805790209
30
0
41
1
10
99.9453205913677
20
-0.471697555570046
30
0
41
1
10
99.9571946775791
20
-0.215233033520292
30
0
41
1
10
99.9604406176943
20
0.0421119771227154
30
0
0
SPLINE
5
F1
100
AcDbEntity
8
1
62
256
6
ByLayer
370
18
48
1
60
0
100
AcDbSpline
70
4
71
3
72
23
73
19
40
0
40
0
40
0
40
0
40
0.124999999999992
40
0.124999999999992
40
0.187499999999988
40
0.187499999999988
40
0.249999999999984
40
0.31249999999998
40
0.31249999999998
40
0.374999999999976
40
0.374999999999976
40
0.499999999999981
40
0.499999999999981
40
0.624999999999986
40
0.624999999999986
40
0.74999999999999
40
0.74999999999999
40
1
40
1
40
1
40
1
41
1
10
99.9247812861025
20
-0.727277805789612
30
0
41
1
10
99.9269059032991
20
-0.74015433175785
30
0
41
1
10
99.9285840157798
20
-0.754170147415749
30
0
41
1
10
99.9302941617024
20
-0.777186158874258
30
0
41
1
10
99.9307305332528
20
-0.785234423189081
30
0
41
1
10
99.9312961876022
20
-0.801871821108165
30
0
41
1
10
99.9315493449465
20
-0.818796014922299
30
0
41
1
10
99.9312020967934
20
-0.836263405971835
30
0
41
1
10
99.9305644164506
20
-0.853990027344338
30
0
41
1
10
99.9300954927885
20
-0.863043576552315
30
0
41
1
10
99.9283108253969
20
-0.889955871423496
30
0
41
1
10
99.9266264336763
20
-0.907656305894278
30
0
41
1
10
99.9224895067835
20
-0.942690042024992
30
0
41
1
10
99.9200208796045
20
-0.960079964988324
30
0
41
1
10
99.9146281971149
20
-0.993579268814472
30
0
41
1
10
99.9116881639695
20
-1.00983597768362
30
0
41
1
10
99.902306060247
20
-1.05749144263001
30
0
41
1
10
99.8952830082633
20
-1.0878871363893
30
0
41
1
10
99.8878572536912
20
-1.11695341339461
30
0
0
SPLINE
5
F2
100
AcDbEntity
8
1
62
256
6
ByLayer
370
18
48
1
60
0
100
AcDbSpline
70
4
71
3
72
8
73
4
40
0
40
0
40
0
40
0
40
1
40
1
40
1
40
1
41
1
10
99.8857344812134
20
-1.12524599252222
30
0
41
1
10
99.8864432496066
20
-1.12248268541015
30
0
41
1
10
99.8871508405949
20
-1.11971849248965
30
0
41
1
10
99.8878572536912
20
-1.11695341339427
30
0
0
SPLINE
5
F3
100
AcDbEntity
8
1
62
256
6
ByLayer
370
18
48
1
60
0
100
AcDbSpline
70
4
71
3
72
14
73
10
40
0
40
0
40
0
40
0
40
0.249999999999997
40
0.249999999999997
40
0.374999999999996
40
0.374999999999996
40
0.499999999999994
40
0.499999999999994
40
1
40
1
40
1
40
1
41
1
10
99.5872808530877
20
-2.708774570477
30
0
41
1
10
99.6214345130223
20
-2.57868596706695
30
0
41
1
10
99.6533190140918
20
-2.44795183157555
30
0
41
1
10
99.6977096751557
20
-2.25087312662302
30
0
41
1
10
99.7119409567188
20
-2.18498318024268
30
0
41
1
10
99.7392139841094
20
-2.05308228175517
30
0
41
1
10
99.7522566089154
20
-1.98707122709436
30
0
41
1
10
99.8145237805205
20
-1.65671532402843
30
0
41
1
10
99.8548729938057
20
-1.39146476194702
30
0
41
1
10
99.8857344812134
20
-1.12524599252217
30
0
0
SPLINE
5
F4
100
AcDbEntity
8
1
62
256
6
ByLayer
370
18
48
1
60
0
100
AcDbSpline
70
4
71
3
72
53
73
49
40
0
40
0
40
0
40
0
40
0.125000000000013
40
0.125000000000013
40
0.250000000000025
40
0.250000000000025
40
0.375000000000038
40
0.375000000000038
40
0.406250000000036
40
0.406250000000036
40
0.437500000000034
40
0.437500000000034
40
0.500000000000051
40
0.500000000000051
40
0.562500000000068
40
0.562500000000068
40
0.593750000000065
40
0.593750000000065
40
0.625000000000063
40
0.65625000000006
40
0.65625000000006
40
0.671875000000048
40
0.671875000000048
40
0.687500000000036
40
0.687500000000036
40
0.750000000000009
40
0.750000000000009
40
0.765625000000007
40
0.765625000000007
40
0.781250000000006
40
0.781250000000006
40
0.812500000000002
40
0.812500000000002
40
0.828125000000001
40
0.828125000000001
40
0.843749999999999
40
0.843749999999999
40
0.874999999999996
40
0.874999999999996
40
0.890624999999998
40
0.890624999999998
40
0.906250000000001
40
0.906250000000001
40
0.937500000000001
40
0.937500000000001
40
0.96875
40
0.96875
40
1
40
1
40
1
40
1
41
1
10
99.5872808530876
20
-2.70877457047769
30
0
41
1
10
99.5719171297786
20
-2.76729378371249
30
0
41
1
10
99.5557639781463
20
-2.82523271223221
30
0
41
1
10
99.5217489413875
20
-2.93977438674807
30
0
41
1
10
99.50388913142
20
-2.99637986987636
30
0
41
1
10
99.4662401315731
20
-3.10796138597479
30
0
41
1
10
99.4464568381296
20
-3.16294527079876
30
0
41
1
10
99.4202604152708
20
-3.23031131371337
30
0
41
1
10
99.414939996818
20
-3.24373175423568
30
0
41
1
10
99.4042110638568
20
-3.27024704633061
30
0
41
1
10
99.3987960811491
20
-3.28335920325912
30
0
41
1
10
99.3823957041312
20
-3.32222203112423
30
0
41
1
10
99.3712554103791
20
-3.34750310838072
30
0
41
1
10
99.3485306913763
20
-3.39653564787469
30
0
41
1
10
99.3369468505958
20
-3.42029140568695
30
0
41
1
10
99.3191979562105
20
-3.4544424073616
30
0
41
1
10
99.3132033585436
20
-3.4656055135994
30
0
41
1
10
99.3011520246979
20
-3.48721321900419
30
0
41
1
10
99.2890945094142
20
-3.50800593580359
30
0
41
1
10
99.2770497327868
20
-3.52694798638407
30
0
41
1
10
99.2680329568881
20
-3.54034755559556
30
0
41
1
10
99.2650302046092
20
-3.54467913349745
30
0
41
1
10
99.2590328918203
20
-3.553047616312
30
0
41
1
10
99.2560339565742
20
-3.55708932124355
30
0
41
1
10
99.2412436607954
20
-3.57626636337636
30
0
41
1
10
99.2299269442087
20
-3.58853792600405
30
0
41
1
10
99.2166954352872
20
-3.59900932989058
30
0
41
1
10
99.2140954713099
20
-3.60085723794072
30
0
41
1
10
99.2089980286679
20
-3.60401983723332
30
0
41
1
10
99.2065056192001
20
-3.60532834528104
30
0
41
1
10
99.1993404914419
20
-3.60834524553687
30
0
41
1
10
99.1949290193259
20
-3.60918028926676
30
0
41
1
10
99.1888771588239
20
-3.60864623562662
30
0
41
1
10
99.186954200474
20
-3.60817002037001
30
0
41
1
10
99.1833011991535
20
-3.60661202640011
30
0
41
1
10
99.1815688502786
20
-3.60552472212416
30
0
41
1
10
99.1767501006096
20
-3.60142516486132
30
0
41
1
10
99.1740073183806
20
-3.59757013406747
30
0
41
1
10
99.1705350830481
20
-3.59026191745784
30
0
41
1
10
99.1694848986924
20
-3.58757089209527
30
0
41
1
10
99.1675909935565
20
-3.58169817288413
30
0
41
1
10
99.1667453926587
20
-3.57850467608628
30
0
41
1
10
99.1645346190204
20
-3.56835112170145
30
0
41
1
10
99.1634823884615
20
-3.56080014680353
30
0
41
1
10
99.1620875573876
20
-3.54437501901785
30
0
41
1
10
99.1617455880985
20
-3.53549963799097
30
0
41
1
10
99.1616776885258
20
-3.51658841957504
30
0
41
1
10
99.1619539010846
20
-3.50652537035009
30
0
41
1
10
99.162498247301
20
-3.49602010211134
30
0
0
SPLINE
5
F5
100
AcDbEntity
8
1
62
256
6
ByLayer
370
18
48
1
60
0
100
AcDbSpline
70
4
71
3
72
24
73
20
40
0
40
0
40
0
40
0
40
0.0088803378324499
40
0.0177560891853603
40
0.0355226473290453
40
0.0890033445239215
40
0.214215195676163
40
0.469782018526472
40
0.503523387097832
40
0.509474098420435
40
0.517092739297962
40
0.518685454348404
40
0.519615917548807
40
0.525578171642483
40
0.544976501556929
40
0.578659489832156
40
0.623930256127465
40
0.872529223089938
40
1
40
1
40
1
40
1
41
1
10
89.9999999663014
20
-8.28196744719449
30
0
41
1
10
90.0063930753891
20
-8.28404008706616
30
0
41
1
10
90.0192081406793
20
-8.28819200813342
30
0
41
1
10
90.0449823226938
20
-8.29653180869701
30
0
41
1
10
90.1028869880843
20
-8.31516509679952
30
0
41
1
10
90.2442189428679
20
-8.36034489779684
30
0
41
1
10
90.5555329740323
20
-8.45058801835796
30
0
41
1
10
90.851871649633
20
-8.52027408240735
30
0
41
1
10
91.0615529456554
20
-8.56271585794519
30
0
41
1
10
91.0951219021359
20
-8.56937846368879
30
0
41
1
10
91.1056466464993
20
-8.57143833247071
30
0
41
1
10
91.1129682474503
20
-8.57287706234152
30
0
41
1
10
91.1194362155121
20
-8.57414299138864
30
0
41
1
10
91.1393473824497
20
-8.57800147476453
30
0
41
1
10
91.1838455560215
20
-8.58645661688723
30
0
41
1
10
91.2574168796742
20
-8.59970699343387
30
0
41
1
10
91.5026702984829
20
-8.64064782301818
30
0
41
1
10
91.8167500353274
20
-8.6770115176202
30
0
41
1
10
92.0942623994552
20
-8.69186028018586
30
0
41
1
10
92.1879751335461
20
-8.69491216673225
30
0
0
SPLINE
5
F6
100
AcDbEntity
8
1
62
256
6
ByLayer
370
18
48
1
60
0
100
AcDbSpline
70
4
71
3
72
8
73
4
40
0
40
0
40
0
40
0
40
1
40
1
40
1
40
1
41
1
10
92.1879751335434
20
-8.69491216673217
30
0
41
1
10
92.1937971136281
20
-8.69503286367603
30
0
41
1
10
92.1996018101437
20
-8.69517954869386
30
0
41
1
10
92.2053883344944
20
-8.69535241198471
30
0
0
SPLINE
5
F7
100
AcDbEntity
8
1
62
256
6
ByLayer
370
18
48
1
60
0
100
AcDbSpline
70
4
71
3
72
48
73
44
40
0
40
0
40
0
40
0
40
0.0312499999999985
40
0.0312499999999985
40
0.0468749999999964
40
0.0468749999999964
40
0.0624999999999943
40
0.124999999999986
40
0.124999999999986
40
0.187499999999978
40
0.187499999999978
40
0.24999999999997
40
0.24999999999997
40
0.312499999999962
40
0.312499999999962
40
0.328124999999961
40
0.328124999999961
40
0.34374999999996
40
0.374999999999963
40
0.437499999999969
40
0.437499999999969
40
0.499999999999975
40
0.499999999999975
40
0.56249999999998
40
0.56249999999998
40
0.59374999999998
40
0.59374999999998
40
0.62499999999998
40
0.62499999999998
40
0.68749999999998
40
0.68749999999998
40
0.74999999999998
40
0.74999999999998
40
0.81249999999998
40
0.81249999999998
40
0.843749999999984
40
0.859374999999985
40
0.859374999999985
40
0.874999999999987
40
0.874999999999987
40
0.937499999999994
40
0.937499999999994
40
1
40
1
40
1
40
1
41
1
10
99.4937853613465
20
-3.12603401696919
30
0
41
1
10
99.4587781531052
20
-3.23067607721475
30
0
41
1
10
99.4219850435731
20
-3.3346147314335
30
0
41
1
10
99.3641069367782
20
-3.48945725198899
30
0
41
1
10
99.3443489516345
20
-3.54093383458138
30
0
41
1
10
99.3040066634243
20
-3.64332202672691
30
0
41
1
10
99.2011478985301
20
-3.8977408146672
30
0
41
1
10
99.0883008324074
20
-4.14443267875652
30
0
41
1
10
98.8953919350516
20
-4.52958071253457
30
0
41
1
10
98.7927727004166
20
-4.71738205873339
30
0
41
1
10
98.5752198814432
20
-5.08353945553938
30
0
41
1
10
98.4602958187638
20
-5.26190626441536
30
0
41
1
10
98.2180663498714
20
-5.60913182995986
30
0
41
1
10
98.0907416334161
20
-5.77797957061907
30
0
41
1
10
97.9235989251816
20
-5.98290198210643
30
0
41
1
10
97.8897685097451
20
-6.02358001041551
30
0
41
1
10
97.8216035537564
20
-6.10397051273713
30
0
41
1
10
97.7184924093719
20
-6.22324349271818
30
0
41
1
10
97.4719076367667
20
-6.49243548814613
30
0
41
1
10
97.2503737543241
20
-6.7077004401377
30
0
41
1
10
96.9460557301506
20
-6.98114406794599
30
0
41
1
10
96.7894270350795
20
-7.11108347595894
30
0
41
1
10
96.4672582423519
20
-7.35736767593053
30
0
41
1
10
96.3017180636643
20
-7.4736986501276
30
0
41
1
10
96.0465410428708
20
-7.63769833154342
30
0
41
1
10
95.9603253597057
20
-7.690624078767
30
0
41
1
10
95.7856090461877
20
-7.79290204386433
30
0
41
1
10
95.697659729639
20
-7.84193223771433
30
0
41
1
10
95.4320688597441
20
-7.98282765626769
30
0
41
1
10
95.2526918267395
20
-8.06851721947359
30
0
41
1
10
94.889389395858
20
-8.22381966737774
30
0
41
1
10
94.7054575856253
20
-8.29342050531355
30
0
41
1
10
94.3330226379846
20
-8.41656763757902
30
0
41
1
10
94.1445180058175
20
-8.47011914787956
30
0
41
1
10
93.8583002007734
20
-8.53822751930625
30
0
41
1
10
93.7143265539401
20
-8.56922055972399
30
0
41
1
10
93.5690477696477
20
-8.59555197340902
30
0
41
1
10
93.4719038670531
20
-8.61206108958223
30
0
41
1
10
93.4231370013476
20
-8.61979985740447
30
0
41
1
10
93.1794003821445
20
-8.65573065831805
30
0
41
1
10
92.9844856935856
20
-8.67570185645096
30
0
41
1
10
92.5948160495466
20
-8.69841556845935
30
0
41
1
10
92.4000554023428
20
-8.70116778368811
30
0
41
1
10
92.2053883344944
20
-8.69535241198471
30
0
0
SPLINE
5
F8
100
AcDbEntity
8
1
62
256
6
ByLayer
370
18
48
1
60
0
100
AcDbSpline
70
4
71
3
72
8
73
4
40
0
40
0
40
0
40
0
40
1
40
1
40
1
40
1
41
1
10
99.998611740464
20
-0.0408261588091818
30
0
41
1
10
99.9926389213591
20
-0.286781167588259
30
0
41
1
10
99.9788068500169
20
-0.531994635849856
30
0
41
1
10
99.9570459479636
20
-0.776459998687301
30
0
0
SPLINE
5
F9
100
AcDbEntity
8
1
62
256
6
ByLayer
370
18
48
1
60
0
100
AcDbSpline
70
4
71
3
72
14
73
10
40
0
40
0
40
0
40
0
40
0.263283833498081
40
0.263283833498081
40
0.44746287512356
40
0.44746287512356
40
0.63164191674904
40
0.63164191674904
40
1
40
1
40
1
40
1
41
1
10
99.9298336550557
20
-1.04572320266089
30
0
41
1
10
99.9088440203393
20
-1.23122588591784
30
0
41
1
10
99.8832535920637
20
-1.41629447255411
30
0
41
1
10
99.8318902174851
20
-1.73008429577021
30
0
41
1
10
99.808519615858
20
-1.85879593941993
30
0
41
1
10
99.7574229784239
20
-2.11508947216686
30
0
41
1
10
99.7296823789912
20
-2.2427097459591
30
0
41
1
10
99.6398669489831
20
-2.62398705745309
30
0
41
1
10
99.5711860030983
20
-2.87605758724263
30
0
41
1
10
99.4937853613465
20
-3.12603401696919
30
0
0
SPLINE
5
FA
100
AcDbEntity
8
1
62
256
6
ByLayer
370
18
48
1
60
0
100
AcDbSpline
70
4
71
3
72
8
73
4
40
0
40
0
40
0
40
0
40
1
40
1
40
1
40
1
41
1
10
99.998611740464
20
-0.0408261588091818
30
0
41
1
10
99.9921655874928
20
-0.0599690803267947
30
0
41
1
10
99.9857011114851
20
-0.0791099594082993
30
0
41
1
10
99.9792178817964
20
-0.0982487480505938
30
0
0
SPLINE
5
FB
100
AcDbEntity
8
1
62
256
6
ByLayer
370
18
48
1
60
0
100
AcDbSpline
70
4
71
3
72
8
73
4
40
0
40
0
40
0
40
0
40
1
40
1
40
1
40
1
41
1
10
99.979275582068
20
0.0417633773513444
30
0
41
1
10
99.9795401372349
20
-0.0049067848271136
30
0
41
1
10
99.9795208723517
20
-0.0515775079152263
30
0
41
1
10
99.9792178817964
20
-0.0982487480505938
30
0
0
SPLINE
5
FC
100
AcDbEntity
8
1
62
256
6
ByLayer
370
18
48
1
60
0
100
AcDbSpline
70
4
71
3
72
8
73
4
40
0
40
0
40
0
40
0
40
1
40
1
40
1
40
1
41
1
10
98.9334481668222
20
1.71613618228076
30
0
41
1
10
99.109990244027
20
1.75079991363859
30
0
41
1
10
99.2865307995135
20
1.78546609580059
30
0
41
1
10
99.4630699018888
20
1.82013461778652
30
0
0
SPLINE
5
FD
100
AcDbEntity
8
1
62
256
6
ByLayer
370
18
48
1
60
0
100
AcDbSpline
70
4
71
3
72
8
73
4
40
0
40
0
40
0
40
0
40
1
40
1
40
1
40
1
41
1
10
99.463069901884
20
1.82013461779442
30
0
41
1
10
99.4655402813997
20
1.82398680055405
30
0
41
1
10
99.4680098493361
20
1.82784074762316
30
0
41
1
10
99.4704786080737
20
1.83169645382597
30
0
0
SPLINE
5
FE
100
AcDbEntity
8
1
62
256
6
ByLayer
370
18
48
1
60
0
100
AcDbSpline
70
4
71
3
72
48
73
44
40
0
40
0
40
0
40
0
40
0.0312499999999983
40
0.0312499999999983
40
0.0468749999999975
40
0.0468749999999975
40
0.0624999999999967
40
0.124999999999997
40
0.124999999999997
40
0.187499999999997
40
0.187499999999997
40
0.249999999999997
40
0.249999999999997
40
0.312499999999996
40
0.312499999999996
40
0.374999999999996
40
0.374999999999996
40
0.437499999999996
40
0.437499999999996
40
0.499999999999996
40
0.499999999999996
40
0.562499999999996
40
0.562499999999996
40
0.578124999999995
40
0.578124999999995
40
0.593749999999993
40
0.593749999999993
40
0.624999999999996
40
0.624999999999996
40
0.687500000000002
40
0.687500000000002
40
0.750000000000008
40
0.750000000000008
40
0.812500000000014
40
0.812500000000014
40
0.843750000000017
40
0.859375000000016
40
0.859375000000016
40
0.875000000000014
40
0.875000000000014
40
0.937500000000007
40
0.937500000000007
40
1
40
1
40
1
40
1
41
1
10
99.4704786080737
20
1.83169645382594
30
0
41
1
10
99.4349322993524
20
1.9021581346945
30
0
41
1
10
99.3976264572473
20
1.97312377776694
30
0
41
1
10
99.3390043443549
20
2.08035138378079
30
0
41
1
10
99.3190169815059
20
2.11622441180737
30
0
41
1
10
99.2782854924302
20
2.18798522378324
30
0
41
1
10
99.1744844738149
20
2.36757630955284
30
0
41
1
10
99.0608609289096
20
2.54809284960263
30
0
41
1
10
98.8669232434635
20
2.83807114970199
30
0
41
1
10
98.7638750653516
20
2.98363300368865
30
0
41
1
10
98.5456334114293
20
3.27572491739548
30
0
41
1
10
98.4304518425176
20
3.42225667568977
30
0
41
1
10
98.1878502109321
20
3.71633543506439
30
0
41
1
10
98.0604106888558
20
3.86387574158695
30
0
41
1
10
97.7928984760264
20
4.16002170437704
30
0
41
1
10
97.6545100700669
20
4.30679575622068
30
0
41
1
10
97.3689070756539
20
4.59760916483461
30
0
41
1
10
97.2216499846931
20
4.74168110580027
30
0
41
1
10
96.9183223025598
20
5.02717086310653
30
0
41
1
10
96.7622521635213
20
5.16858542654398
30
0
41
1
10
96.4413199688207
20
5.44882166751441
30
0
41
1
10
96.2764536464817
20
5.58765248675664
30
0
41
1
10
96.0647177623125
20
5.75953084829771
30
0
41
1
10
96.0220876893721
20
5.79382289353259
30
0
41
1
10
95.9362569280107
20
5.86223726390753
30
0
41
1
10
95.8930164772678
20
5.8963906282747
30
0
41
1
10
95.7627209289957
20
5.9983663205231
30
0
41
1
10
95.6752750959805
20
6.06556340840382
30
0
41
1
10
95.4112208139026
20
6.26483351326618
30
0
41
1
10
95.232903331006
20
6.39459624446468
30
0
41
1
10
94.8717814596818
20
6.64805047849242
30
0
41
1
10
94.6889712552609
20
6.77173361443701
30
0
41
1
10
94.3188411237122
20
7.01299281330409
30
0
41
1
10
94.1315196239505
20
7.13056617451778
30
0
41
1
10
93.8471232867274
20
7.30230643965845
30
0
41
1
10
93.7040720339427
20
7.3870226195917
30
0
41
1
10
93.5597331398091
20
7.46999912593284
30
0
41
1
10
93.4632197163324
20
7.52492859884785
30
0
41
1
10
93.4147749559881
20
7.55222352745767
30
0
41
1
10
93.1727126223101
20
7.68722455167233
30
0
41
1
10
92.9791369386733
20
7.79077473669389
30
0
41
1
10
92.5921440720131
20
7.98915326155225
30
0
41
1
10
92.3987212625063
20
8.0839779378806
30
0
41
1
10
92.2053912546075
20
8.174486703078
30
0
0
SPLINE
5
FF
100
AcDbEntity
8
1
62
256
6
ByLayer
370
18
48
1
60
0
100
AcDbSpline
70
4
71
3
72
12
73
8
40
0
40
0
40
0
40
0
40
0.25
40
0.25
40
0.5
40
0.5
40
1
40
1
40
1
40
1
41
1
10
98.9334481668048
20
1.71613618228994
30
0
41
1
10
98.9253803244431
20
1.71455207540362
30
0
41
1
10
98.91710745777
20
1.71388721361271
30
0
41
1
10
98.90037961936
20
1.71337397480741
30
0
41
1
10
98.8918676639624
20
1.71356053318965
30
0
41
1
10
98.8665622374546
20
1.71487618460822
30
0
41
1
10
98.8500143082196
20
1.71671342600519
30
0
41
1
10
98.8336027776625
20
1.71895693330745
30
0
0
SPLINE
5
100
100
AcDbEntity
8
1
62
256
6
ByLayer
370
13
48
1
60
0
100
AcDbSpline
70
4
71
3
72
32
73
28
40
0
40
0
40
0
40
0
40
0.125000000000008
40
0.125000000000008
40
0.250000000000016
40
0.250000000000016
40
0.375000000000025
40
0.375000000000025
40
0.437500000000026
40
0.437500000000026
40
0.46875000000003
40
0.46875000000003
40
0.484375000000031
40
0.484375000000031
40
0.500000000000033
40
0.500000000000033
40
0.562500000000028
40
0.562500000000028
40
0.625000000000024
40
0.625000000000024
40
0.75000000000002
40
0.75000000000002
40
0.812500000000015
40
0.812500000000015
40
0.87500000000001
40
0.87500000000001
40
1
40
1
40
1
40
1
41
1
10
92.2053912546077
20
8.17448670307803
30
0
41
1
10
92.4301835103153
20
7.83240575498874
30
0
41
1
10
92.6582802553815
20
7.49419010100047
30
0
41
1
10
93.1262382885997
20
6.82931507786
30
0
41
1
10
93.3659809766425
20
6.50259807676699
30
0
41
1
10
93.8608433382723
20
5.86392326487911
30
0
41
1
10
94.1159263927143
20
5.55194834882525
30
0
41
1
10
94.5136983443881
20
5.0981098048639
30
0
41
1
10
94.6488246679118
20
4.94919099571882
30
0
41
1
10
94.8559169995096
20
4.72982226335174
30
0
41
1
10
94.9256827853467
20
4.65736830639284
30
0
41
1
10
95.0315218297504
20
4.54975687533673
30
0
41
1
10
95.0670007312278
20
4.51406512899402
30
0
41
1
10
95.1383553302002
20
4.44304064444143
30
0
41
1
10
95.1742148298201
20
4.40772461859123
30
0
41
1
10
95.3539067932007
20
4.23261786714784
30
0
41
1
10
95.499368185008
20
4.09680156632675
30
0
41
1
10
95.7933745428005
20
3.83337622531616
30
0
41
1
10
95.9419162780851
20
3.70578543550926
30
0
41
1
10
96.3917178198799
20
3.33456687601213
30
0
41
1
10
96.6971511895559
20
3.10233151882954
30
0
41
1
10
97.1633669304293
20
2.77381240817161
30
0
41
1
10
97.3201188725245
20
2.66761699989326
30
0
41
1
10
97.6364299488795
20
2.46162704704272
30
0
41
1
10
97.7959964433769
20
2.36186072881938
30
0
41
1
10
98.2782278183691
20
2.07134234421071
30
0
41
1
10
98.6044140970519
20
1.88941747282277
30
0
41
1
10
98.9334481668222
20
1.71613618228076
30
0
0
SPLINE
5
101
100
AcDbEntity
8
1
62
256
6
ByLayer
370
18
48
1
60
0
100
AcDbSpline
70
4
71
3
72
8
73
4
40
0
40
0
40
0
40
0
40
1
40
1
40
1
40
1
41
1
10
92.1874389227307
20
8.18282070932554
30
0
41
1
10
92.1934416999667
20
8.180057424138
30
0
41
1
10
92.1994261349218
20
8.17727931464867
30
0
41
1
10
92.2053912546078
20
8.17448670307792
30
0
0
SPLINE
5
102
100
AcDbEntity
8
1
62
256
6
ByLayer
370
18
48
1
60
0
100
AcDbSpline
70
4
71
3
72
8
73
4
40
0
40
0
40
0
40
0
40
1
40
1
40
1
40
1
41
1
10
91.991176278111
20
8.26097892096226
30
0
41
1
10
92.0586197291241
20
8.23793914305804
30
0
41
1
10
92.1239754774918
20
8.21181315869978
30
0
41
1
10
92.1874389227307
20
8.18282070932554
30
0
0
SPLINE
5
103
100
AcDbEntity
8
1
62
256
6
ByLayer
370
18
48
1
60
0
100
AcDbSpline
70
4
71
3
72
8
73
4
40
0
40
0
40
0
40
0
40
1
40
1
40
1
40
1
41
1
10
92.3570270045398
20
7.72237090860142
30
0
41
1
10
92.2323567571929
20
7.89985713057806
30
0
41
1
10
92.1104284507776
20
8.07942602580891
30
0
41
1
10
91.9911762781111
20
8.26097892096229
30
0
0
SPLINE
5
104
100
AcDbEntity
8
1
62
256
6
ByLayer
370
18
48
1
60
0
100
AcDbSpline
70
4
71
3
72
17
73
13
40
0
40
0
40
0
40
0
40
0.125000000000031
40
0.125000000000031
40
0.250000000000061
40
0.375000000000092
40
0.375000000000092
40
0.500000000000122
40
0.500000000000122
40
0.750000000000061
40
0.750000000000061
40
1
40
1
40
1
40
1
41
1
10
98.2552410619829
20
1.01724388010254
30
0
41
1
10
98.2561097705549
20
1.01552826859694
30
0
41
1
10
98.2565409905308
20
1.01422417121094
30
0
41
1
10
98.2566063724208
20
1.01240065103786
30
0
41
1
10
98.2558893810478
20
1.01136754416936
30
0
41
1
10
98.2539122950868
20
1.01160748122322
30
0
41
1
10
98.2514120412725
20
1.01237596245312
30
0
41
1
10
98.2498953597887
20
1.01302836117759
30
0
41
1
10
98.2447844633368
20
1.01559992031443
30
0
41
1
10
98.240616919349
20
1.01812723666131
30
0
41
1
10
98.2312579065713
20
1.02427672052383
30
0
41
1
10
98.226059975753
20
1.02790579768691
30
0
41
1
10
98.220478311701
20
1.03194518894586
30
0
0
SPLINE
5
105
100
AcDbEntity
8
1
62
256
6
ByLayer
370
18
48
1
60
0
100
AcDbSpline
70
4
71
3
72
52
73
48
40
0
40
0
40
0
40
0
40
0.0312500000000052
40
0.0312500000000052
40
0.0625000000000104
40
0.0625000000000104
40
0.125000000000022
40
0.125000000000022
40
0.156250000000025
40
0.156250000000025
40
0.187500000000029
40
0.187500000000029
40
0.250000000000039
40
0.250000000000039
40
0.312500000000048
40
0.312500000000048
40
0.343750000000053
40
0.343750000000053
40
0.375000000000058
40
0.375000000000058
40
0.437500000000046
40
0.437500000000046
40
0.468750000000041
40
0.468750000000041
40
0.500000000000035
40
0.500000000000035
40
0.624999999999982
40
0.624999999999982
40
0.656249999999969
40
0.656249999999969
40
0.687499999999956
40
0.687499999999956
40
0.74999999999993
40
0.74999999999993
40
0.781249999999916
40
0.781249999999916
40
0.812499999999903
40
0.812499999999903
40
0.874999999999935
40
0.874999999999935
40
0.906249999999951
40
0.906249999999951
40
0.937499999999968
40
0.937499999999968
40
0.968749999999984
40
0.968749999999984
40
1
40
1
40
1
40
1
41
1
10
98.2552410619821
20
1.01724388010325
30
0
41
1
10
98.253670790724
20
1.02034500690712
30
0
41
1
10
98.2520987497105
20
1.02394810949005
30
0
41
1
10
98.2490961742475
20
1.03210294767405
30
0
41
1
10
98.247661250373
20
1.03667099993265
30
0
41
1
10
98.2437747124135
20
1.05162994925965
30
0
41
1
10
98.2417598376446
20
1.06319629169363
30
0
41
1
10
98.2400259258362
20
1.08263738103824
30
0
41
1
10
98.239660701226
20
1.08946891205744
30
0
41
1
10
98.2394125107259
20
1.10381028076409
30
0
41
1
10
98.2395304168035
20
1.11133913218833
30
0
41
1
10
98.2406832284411
20
1.13479878436891
30
0
41
1
10
98.2425031522988
20
1.15142538145787
30
0
41
1
10
98.2484230260695
20
1.18641622580421
30
0
41
1
10
98.2525205594993
20
1.20478219554931
30
0
41
1
10
98.2605515118163
20
1.2335608981798
30
0
41
1
10
98.2635569785302
20
1.2433990039091
30
0
41
1
10
98.2701614610729
20
1.26325894707517
30
0
41
1
10
98.2737554902552
20
1.27327357922729
30
0
41
1
10
98.2854195083627
20
1.30354271796421
30
0
41
1
10
98.2943674576747
20
1.32402172064093
30
0
41
1
10
98.3096387855394
20
1.355097636929
30
0
41
1
10
98.3150383965235
20
1.36551608950714
30
0
41
1
10
98.3264843440026
20
1.38645884826562
30
0
41
1
10
98.3325555585898
20
1.39702241144121
30
0
41
1
10
98.3641857461308
20
1.44936044725617
30
0
41
1
10
98.3935859301088
20
1.49002465163946
30
0
41
1
10
98.4362382018134
20
1.5384786441513
30
0
41
1
10
98.4450955888223
20
1.54807001238623
30
0
41
1
10
98.4631809882444
20
1.56668732884412
30
0
41
1
10
98.4724356563664
20
1.57574616505707
30
0
41
1
10
98.500869188172
20
1.60213090556309
30
0
41
1
10
98.5207094053544
20
1.61867501975772
30
0
41
1
10
98.5520512391778
20
1.64160734852749
30
0
41
1
10
98.5627638898421
20
1.64893530738507
30
0
41
1
10
98.5847922341919
20
1.6628698459497
30
0
41
1
10
98.5961231546822
20
1.66947920752628
30
0
41
1
10
98.6305664502386
20
1.68774994399968
30
0
41
1
10
98.6542939289546
20
1.69798978176954
30
0
41
1
10
98.6914432378881
20
1.70971934535876
30
0
41
1
10
98.7041682651657
20
1.71303382919146
30
0
41
1
10
98.7298175394037
20
1.71819291468455
30
0
41
1
10
98.7426988402583
20
1.72003736401993
30
0
41
1
10
98.7685751634927
20
1.72223746939142
30
0
41
1
10
98.7815702242092
20
1.72259257779999
30
0
41
1
10
98.8076715375556
20
1.72183475139616
30
0
41
1
10
98.8207970374636
20
1.72070751784491
30
0
41
1
10
98.8336027776614
20
1.71895693330694
30
0
0
SPLINE
5
106
100
AcDbEntity
8
1
62
256
6
ByLayer
370
18
48
1
60
0
100
AcDbSpline
70
4
71
3
72
8
73
4
40
0
40
0
40
0
40
0
40
1
40
1
40
1
40
1
41
1
10
94.7474135462315
20
3.66434311480947
30
0
41
1
10
94.599862357991
20
3.64840494003354
30
0
41
1
10
94.4520214453677
20
3.63423748894812
30
0
41
1
10
94.3039235041479
20
3.62164093300194
30
0
0
SPLINE
5
107
100
AcDbEntity
8
1
62
256
6
ByLayer
370
18
48
1
60
0
100
AcDbSpline
70
4
71
3
72
10
73
6
40
0
40
0
40
0
40
0
40
0.5
40
0.5
40
1
40
1
40
1
40
1
41
1
10
93.8623989734626
20
4.52574727236666
30
0
41
1
10
94.0050747792634
20
4.37565261688664
30
0
41
1
10
94.1499254044779
20
4.22872774417229
30
0
41
1
10
94.4446961682797
20
3.94150431136353
30
0
41
1
10
94.5946681487106
20
3.80126679739232
30
0
41
1
10
94.7474135462315
20
3.66434311480961
30
0
0
SPLINE
5
108
100
AcDbEntity
8
1
62
256
6
ByLayer
370
18
48
1
60
0
100
AcDbSpline
70
4
71
3
72
30
73
26
40
0
40
0
40
0
40
0
40
0.0624999999999987
40
0.0624999999999987
40
0.124999999999997
40
0.124999999999997
40
0.249999999999995
40
0.249999999999995
40
0.374999999999993
40
0.374999999999993
40
0.49999999999999
40
0.49999999999999
40
0.624999999999988
40
0.624999999999988
40
0.68749999999999
40
0.68749999999999
40
0.749999999999992
40
0.749999999999992
40
0.812499999999994
40
0.812499999999994
40
0.874999999999996
40
0.874999999999996
40
0.937499999999998
40
0.937499999999998
40
1
40
1
40
1
40
1
41
1
10
93.8623989733287
20
4.52574727250754
30
0
41
1
10
93.8114808932864
20
4.57931298842507
30
0
41
1
10
93.7635038362623
20
4.63501600610391
30
0
41
1
10
93.6724979306595
20
4.75014582947526
30
0
41
1
10
93.6294754994946
20
4.80957722796859
30
0
41
1
10
93.5068096170086
20
4.99289768245538
30
0
41
1
10
93.4335580356855
20
5.12180939157105
30
0
41
1
10
93.2995822118249
20
5.39064704558436
30
0
41
1
10
93.2401871076437
20
5.52784133307219
30
0
41
1
10
93.130806212206
20
5.80550170458281
30
0
41
1
10
93.0808423324896
20
5.94599137147318
30
0
41
1
10
92.9852020230995
20
6.22835136061687
30
0
41
1
10
92.9395611326245
20
6.37023460239317
30
0
41
1
10
92.870324423474
20
6.58261609252344
30
0
41
1
10
92.847155218457
20
6.65319811427182
30
0
41
1
10
92.7999107751764
20
6.79339795773194
30
0
41
1
10
92.7758247751081
20
6.86306449579286
30
0
41
1
10
92.7256823695823
20
7.00126387991978
30
0
41
1
10
92.699630075298
20
7.06979733452326
30
0
41
1
10
92.644158245047
20
7.20540346221409
30
0
41
1
10
92.6147283544079
20
7.27247300432703
30
0
41
1
10
92.5507652001892
20
7.404783715371
30
0
41
1
10
92.5161685715854
20
7.47004129337967
30
0
41
1
10
92.4406948359905
20
7.59842114907622
30
0
41
1
10
92.4000985089118
20
7.66105340695975
30
0
41
1
10
92.3570270045396
20
7.72237090860142
30
0
0
SPLINE
5
109
100
AcDbEntity
8
1
62
256
6
ByLayer
370
13
48
1
60
0
100
AcDbSpline
70
4
71
3
72
12
73
8
40
0
40
0
40
0
40
0
40
0.214028694965637
40
0.436540920438577
40
0.659053145911518
40
0.881565371384459
40
1
40
1
40
1
40
1
41
1
10
92.3570270045398
20
7.72237090860139
30
0
41
1
10
91.1546846696932
20
8.081984974238
30
0
41
1
10
88.7023423348466
20
8.70001147730897
30
0
41
1
10
85
20
9.24493380710604
30
0
41
1
10
81.25
20
9.35974261659226
30
0
41
1
10
78.0846734748855
20
9.09237614433812
30
0
41
1
10
76.1693469497709
20
8.76333820296292
30
0
41
1
10
75.5040204246563
20
8.62997697595469
30
0
0
SPLINE
5
10A
100
AcDbEntity
8
1
62
256
6
ByLayer
370
13
48
1
60
0
100
AcDbSpline
70
4
71
3
72
10
73
6
40
0
40
0
40
0
40
0
40
0.35841675214439
40
0.747564538916015
40
1
40
1
40
1
40
1
41
1
10
85.296137826732
20
5.27788166359289
30
0
41
1
10
86.4474252178214
20
5.04931567022155
30
0
41
1
10
88.8487126089106
20
4.49990939411771
30
0
41
1
10
92.0608598765851
20
3.58917053035341
30
0
41
1
10
94.1217197531701
20
2.93260005571255
30
0
41
1
10
94.9325796297552
20
2.66555201820853
30
0
0
SPLINE
5
10B
100
AcDbEntity
8
1
62
256
6
ByLayer
370
18
48
1
60
0
100
AcDbSpline
70
4
71
3
72
8
73
4
40
0
40
0
40
0
40
0
40
1
40
1
40
1
40
1
41
1
10
94.4979635156407
20
-2.73442626598549
30
0
41
1
10
94.6164328040869
20
-2.67248426905468
30
0
41
1
10
94.7376821816698
20
-2.61111321597591
30
0
41
1
10
94.861829504454
20
-2.55033731071967
30
0
0
SPLINE
5
10C
100
AcDbEntity
8
1
62
256
6
ByLayer
370
18
48
1
60
0
100
AcDbSpline
70
4
71
3
72
19
73
15
40
0
40
0
40
0
40
0
40
0.250000000000011
40
0.250000000000011
40
0.500000000000022
40
0.500000000000022
40
0.562500000000021
40
0.593750000000021
40
0.593750000000021
40
0.62500000000002
40
0.62500000000002
40
0.750000000000019
40
0.750000000000019
40
1
40
1
40
1
40
1
41
1
10
94.861829504454
20
-2.55033731071967
30
0
41
1
10
95.1284163809258
20
-2.65127100822738
30
0
41
1
10
95.4001071324741
20
-2.72938107516643
30
0
41
1
10
95.9528686138445
20
-2.8436555979842
30
0
41
1
10
96.2339405559632
20
-2.87981463268665
30
0
41
1
10
96.5907633640366
20
-2.90049495031903
30
0
41
1
10
96.6982221537061
20
-2.90485689005902
30
0
41
1
10
96.8062902971351
20
-2.90649390709356
30
0
41
1
10
96.8784702722431
20
-2.90698358506955
30
0
41
1
10
96.914638706977
20
-2.90692714146868
30
0
41
1
10
97.0953779183902
20
-2.90515806531298
30
0
41
1
10
97.2399678159153
20
-2.89896367745399
30
0
41
1
10
97.6737334815146
20
-2.86730267042674
30
0
41
1
10
97.9629052697014
20
-2.82891112907663
30
0
41
1
10
98.2520729911724
20
-2.7773126853514
30
0
0
SPLINE
5
10D
100
AcDbEntity
8
1
62
256
6
ByLayer
370
18
48
1
60
0
100
AcDbSpline
70
4
71
3
72
8
73
4
40
0
40
0
40
0
40
0
40
1
40
1
40
1
40
1
41
1
10
98.03153011339
20
-2.50148108938305
30
0
41
1
10
98.1047539274934
20
-2.59372809215384
30
0
41
1
10
98.1782729422252
20
-2.68566702954976
30
0
41
1
10
98.2520729911724
20
-2.77731268535149
30
0
0
SPLINE
5
10E
100
AcDbEntity
8
1
62
256
6
ByLayer
370
18
48
1
60
0
100
AcDbSpline
70
4
71
3
72
8
73
4
40
0
40
0
40
0
40
0
40
1
40
1
40
1
40
1
41
1
10
98.0315301133899
20
-2.50148108938302
30
0
41
1
10
98.0952410106888
20
-2.4019344322073
30
0
41
1
10
98.1581928123846
20
-2.30146040511195
30
0
41
1
10
98.2204783117015
20
-2.20017237147914
30
0
0
SPLINE
5
10F
100
AcDbEntity
8
1
62
256
6
ByLayer
370
18
48
1
60
0
100
AcDbSpline
70
4
71
3
72
26
73
22
40
0
40
0
40
0
40
0
40
0.249999999999952
40
0.249999999999952
40
0.374999999999958
40
0.374999999999958
40
0.437499999999964
40
0.437499999999964
40
0.49999999999997
40
0.49999999999997
40
0.624999999999981
40
0.624999999999981
40
0.687499999999979
40
0.687499999999979
40
0.749999999999977
40
0.749999999999977
40
0.812499999999974
40
0.812499999999974
40
0.874999999999972
40
0.874999999999972
40
1
40
1
40
1
40
1
41
1
10
95.0936851502132
20
-3.74747980510506
30
0
41
1
10
95.1192768055777
20
-3.78152256548478
30
0
41
1
10
95.1428413661115
20
-3.8173900734933
30
0
41
1
10
95.1737664178639
20
-3.87517172390312
30
0
41
1
10
95.1833295968695
20
-3.89510306043809
30
0
41
1
10
95.196227518077
20
-3.92630248406334
30
0
41
1
10
95.200284187861
20
-3.93692070846865
30
0
41
1
10
95.2078305095939
20
-3.9586675737558
30
0
41
1
10
95.2113238603553
20
-3.96982151997309
30
0
41
1
10
95.220638836857
20
-4.00357771230128
30
0
41
1
10
95.2253735372684
20
-4.02663567932868
30
0
41
1
10
95.229643163456
20
-4.06228595506909
30
0
41
1
10
95.2305914058754
20
-4.07434768821386
30
0
41
1
10
95.2313820709896
20
-4.09888629213836
30
0
41
1
10
95.2312131246564
20
-4.11130697467354
30
0
41
1
10
95.2296651926663
20
-4.13591824076829
30
0
41
1
10
95.2282899558552
20
-4.14818387082016
30
0
41
1
10
95.2242637087089
20
-4.17263025276057
30
0
41
1
10
95.2215951587513
20
-4.18487282730558
30
0
41
1
10
95.211657828859
20
-4.22103615370176
30
0
41
1
10
95.2026200912703
20
-4.24393934007358
30
0
41
1
10
95.1913597412495
20
-4.26573189119108
30
0
0
SPLINE
5
110
100
AcDbEntity
8
1
62
256
6
ByLayer
370
18
48
1
60
0
100
AcDbSpline
70
4
71
3
72
8
73
4
40
0
40
0
40
0
40
0
40
1
40
1
40
1
40
1
41
1
10
70.1485500785568
20
-9.50540898802365
30
0
41
1
10
70.0989786768598
20
-9.50894894173575
30
0
41
1
10
70.0494616535469
20
-9.51235053424375
30
0
41
1
10
69.9999999999999
20
-9.51561098708765
30
0
0
SPLINE
5
111
100
AcDbEntity
8
1
62
256
6
ByLayer
370
18
48
1
60
0
100
AcDbSpline
70
4
71
3
72
44
73
40
40
0
40
0
40
0
40
0
40
0.0183184273865389
40
0.0369097785229198
40
0.0557742747589007
40
0.0749121298908349
40
0.09432355050736
40
0.114008736304404
40
0.133967880371794
40
0.154201169453544
40
0.17470878418383
40
0.195490899300247
40
0.216547683836097
40
0.237879301293041
40
0.26081019798581
40
0.284439363286349
40
0.308767445660872
40
0.333795050019667
40
0.359522741876615
40
0.385951050849246
40
0.413080473595827
40
0.440911476269374
40
0.469444496555089
40
0.498679945346713
40
0.528618208108446
40
0.559259645961624
40
0.590604596529455
40
0.62265337456796
40
0.65540627240722
40
0.688863560223457
40
0.723025486159653
40
0.757892276309922
40
0.793464134580746
40
0.829741242440545
40
0.866723758567467
40
0.904411818404072
40
0.942805533626511
40
0.981904991534849
40
1
40
1
40
1
40
1
41
1
10
70.1503654719222
20
-9.50661850000924
30
0
41
1
10
70.1486747304025
20
-9.49712662450014
30
0
41
1
10
70.145268057236
20
-9.47800145532401
30
0
41
1
10
70.1402840049572
20
-9.44889381588334
30
0
41
1
10
70.1353432924358
20
-9.41920595127806
30
0
41
1
10
70.1304582068303
20
-9.38891834312952
30
0
41
1
10
70.1256253862537
20
-9.35803093164839
30
0
41
1
10
70.1208457454968
20
-9.326538294199
30
0
41
1
10
70.1161190603823
20
-9.29443642881378
30
0
41
1
10
70.1114452972692
20
-9.26172095375873
30
0
41
1
10
70.1068248316524
20
-9.22838739344908
30
0
41
1
10
70.102256170491
20
-9.19443189582225
30
0
41
1
10
70.0977450187817
20
-9.15984801562266
30
0
41
1
10
70.0931770515799
20
-9.12391049917747
30
0
41
1
10
70.0886193339973
20
-9.08633618201139
30
0
41
1
10
70.0841361145059
20
-9.04683957021587
30
0
41
1
10
70.0797641343957
20
-9.00591505666483
30
0
41
1
10
70.0755100784262
20
-8.96354690717905
30
0
41
1
10
70.0713720943542
20
-8.91972217653327
30
0
41
1
10
70.0673507160464
20
-8.87442683796078
30
0
41
1
10
70.0634458091997
20
-8.827646878839
30
0
41
1
10
70.0596574246158
20
-8.77936800854778
30
0
41
1
10
70.0559855602777
20
-8.72957575441575
30
0
41
1
10
70.0524302277965
20
-8.67825544995713
30
0
41
1
10
70.0489914340229
20
-8.62539225367422
30
0
41
1
10
70.0456691862647
20
-8.57097115990794
30
0
41
1
10
70.0424634909247
20
-8.51497701246365
30
0
41
1
10
70.0393743539572
20
-8.45739451803584
30
0
41
1
10
70.0364017808106
20
-8.39820826026565
30
0
41
1
10
70.033545776505
20
-8.33740271420621
30
0
41
1
10
70.0308063456639
20
-8.27496226126553
30
0
41
1
10
70.0281834925548
20
-8.21087120461377
30
0
41
1
10
70.0256772211204
20
-8.14511378506555
30
0
41
1
10
70.023287535008
20
-8.07767419744008
30
0
41
1
10
70.0210144375964
20
-8.00853660740435
30
0
41
1
10
70.0188579320183
20
-7.93768516880351
30
0
41
1
10
70.016818021182
20
-7.86510404148214
30
0
41
1
10
70.0152506854524
20
-7.80453420073979
30
0
41
1
10
70.0143654152356
20
-7.76814702639223
30
0
41
1
10
70.0140904706839
20
-7.75662048903203
30
0
0
SPLINE
5
112
100
AcDbEntity
8
1
62
256
6
ByLayer
370
18
48
1
60
0
100
AcDbSpline
70
4
71
3
72
10
73
6
40
0
40
0
40
0
40
0
40
0.5
40
0.5
40
1
40
1
40
1
40
1
41
1
10
70
20
-9.51561098708765
30
0
41
1
10
69.7948310666243
20
-9.57818745475936
30
0
41
1
10
69.5902444781624
20
-9.64720265966648
30
0
41
1
10
69.1819133019284
20
-9.7976297815913
30
0
41
1
10
68.9781695802385
20
-9.8790430678751
30
0
41
1
10
68.7746533794395
20
-9.9665095161171
30
0
0
SPLINE
5
113
100
AcDbEntity
8
1
62
256
6
ByLayer
370
18
48
1
60
0
100
AcDbSpline
70
4
71
3
72
41
73
37
40
0
40
0
40
0
40
0
40
0.0624999999999777
40
0.0624999999999777
40
0.124999999999955
40
0.124999999999955
40
0.156249999999939
40
0.156249999999939
40
0.187499999999924
40
0.187499999999924
40
0.249999999999902
40
0.249999999999902
40
0.374999999999858
40
0.374999999999858
40
0.437499999999836
40
0.437499999999836
40
0.453124999999835
40
0.453124999999835
40
0.468749999999834
40
0.499999999999841
40
0.499999999999841
40
0.624999999999877
40
0.624999999999877
40
0.687499999999892
40
0.687499999999892
40
0.718749999999903
40
0.718749999999903
40
0.749999999999914
40
0.749999999999914
40
0.812499999999935
40
0.812499999999935
40
0.874999999999957
40
0.874999999999957
40
0.937499999999978
40
0.937499999999978
40
1
40
1
40
1
40
1
41
1
10
94.1149801598307
20
-6.70336732936221
30
0
41
1
10
94.2263636506104
20
-6.70621188047008
30
0
41
1
10
94.3382578080347
20
-6.70429215072244
30
0
41
1
10
94.5630925403597
20
-6.69069010577664
30
0
41
1
10
94.6760336307833
20
-6.67900298099127
30
0
41
1
10
94.8462660329427
20
-6.65381492617587
30
0
41
1
10
94.9032108454909
20
-6.64412402567748
30
0
41
1
10
95.0164349143402
20
-6.62232018393044
30
0
41
1
10
95.0728235100696
20
-6.61019413174941
30
0
41
1
10
95.2413243770311
20
-6.57017314303309
30
0
41
1
10
95.352772375623
20
-6.53863892219434
30
0
41
1
10
95.6844775010078
20
-6.42957894349709
30
0
41
1
10
95.9021176649439
20
-6.33771589207706
30
0
41
1
10
96.2231153446611
20
-6.1699940980541
30
0
41
1
10
96.3292005968144
20
-6.10907953283007
30
0
41
1
10
96.4606178540716
20
-6.02642058346188
30
0
41
1
10
96.4868715223166
20
-6.0095428964018
30
0
41
1
10
96.5390930709297
20
-5.97523684823017
30
0
41
1
10
96.6169732712164
20
-5.92297019977335
30
0
41
1
10
96.6935084744073
20
-5.86830113311686
30
0
41
1
10
96.9456791804477
20
-5.68080766045961
30
0
41
1
10
97.1380234915437
20
-5.51403654772921
30
0
41
1
10
97.4124418553582
20
-5.23869801100233
30
0
41
1
10
97.5015663953591
20
-5.14272408555098
30
0
41
1
10
97.6316517008796
20
-4.99233023187497
30
0
41
1
10
97.6744118638068
20
-4.94112436641339
30
0
41
1
10
97.7587084553087
20
-4.83652681539357
30
0
41
1
10
97.8003265127639
20
-4.78302130191227
30
0
41
1
10
97.9223389443738
20
-4.62049074944539
30
0
41
1
10
98.00012171737
20
-4.50922243174159
30
0
41
1
10
98.148784087316
20
-4.28103225133054
30
0
41
1
10
98.2196438061422
20
-4.16409410888986
30
0
41
1
10
98.3544842224047
20
-3.92458406112198
30
0
41
1
10
98.4184775626238
20
-3.80202250994799
30
0
41
1
10
98.5396772080416
20
-3.5513409794691
30
0
41
1
10
98.5968631334162
20
-3.4232043095495
30
0
41
1
10
98.6505423290445
20
-3.29219570730439
30
0
0
SPLINE
5
114
100
AcDbEntity
8
1
62
256
6
ByLayer
370
18
48
1
60
0
100
AcDbSpline
70
4
71
3
72
32
73
28
40
0
40
0
40
0
40
0
40
0.0016901909801996
40
0.0033800616604963
40
0.0067626694536895
40
0.0169449580913511
40
0.0407842735109372
40
0.0894421125624683
40
0.0958661939945298
40
0.0969991609052893
40
0.098449688002178
40
0.0987529279599903
40
0.0989300805658867
40
0.100065245126133
40
0.103758528958199
40
0.110171495257939
40
0.118790680000189
40
0.166121896110043
40
0.30806655577144
40
0.479234307965982
40
0.61404699817596
40
0.748850655353736
40
0.835950248198247
40
0.918902527981223
40
0.958391891911673
40
0.996372932890329
40
1
40
1
40
1
40
1
41
1
10
89.9999980977139
20
-7.69285688376277
30
0
41
1
10
90.0062941657396
20
-7.69513841121858
30
0
41
1
10
90.0189026610462
20
-7.69971004961599
30
0
41
1
10
90.0442039832745
20
-7.70889576771734
30
0
41
1
10
90.1011092796472
20
-7.7294364333045
30
0
41
1
10
90.2403350436768
20
-7.77930988708064
30
0
41
1
10
90.546461911446
20
-7.88008943154239
30
0
41
1
10
90.8369142926816
20
-7.96030073143916
30
0
41
1
10
91.0419085087397
20
-8.01056230730026
30
0
41
1
10
91.0747274621937
20
-8.01838444874699
30
0
41
1
10
91.0850874947041
20
-8.02077117199951
30
0
41
1
10
91.0922073873166
20
-8.02244725832568
30
0
41
1
10
91.0982463923228
20
-8.02403215483483
30
0
41
1
10
91.1168926771338
20
-8.02883233863105
30
0
41
1
10
91.1585523226708
20
-8.03927318334965
30
0
41
1
10
91.2276439461106
20
-8.05552688156155
30
0
41
1
10
91.4578926103258
20
-8.10701293574601
30
0
41
1
10
92.1868926349658
20
-8.2322079703973
30
0
41
1
10
93.4884936173091
20
-8.23693080277693
30
0
41
1
10
95.0138370349313
20
-7.83670539870059
30
0
41
1
10
96.3875602214395
20
-7.08954015294856
30
0
41
1
10
97.3897592418505
20
-6.24027855363107
30
0
41
1
10
98.1514918759224
20
-5.33912951135397
30
0
41
1
10
98.6175454354296
20
-4.62119622911243
30
0
41
1
10
98.936655426301
20
-4.01266933736736
30
0
41
1
10
99.0844565159105
20
-3.68513117918712
30
0
41
1
10
99.1562691900018
20
-3.51122455825887
30
0
41
1
10
99.1624982473011
20
-3.49602010211134
30
0
0
SPLINE
5
115
100
AcDbEntity
8
1
62
256
6
ByLayer
370
18
48
1
60
0
100
AcDbSpline
70
4
71
3
72
12
73
8
40
0
40
0
40
0
40
0
40
0.250000000000004
40
0.250000000000004
40
0.500000000000007
40
0.500000000000007
40
1
40
1
40
1
40
1
41
1
10
99.1624982473011
20
-3.4960201021114
30
0
41
1
10
99.1620102475626
20
-3.4715169119774
30
0
41
1
10
99.1622455437504
20
-3.44642193819979
30
0
41
1
10
99.1637954645769
20
-3.39530685705114
30
0
41
1
10
99.165113169413
20
-3.36928441288123
30
0
41
1
10
99.1703468971918
20
-3.29005735022454
30
0
41
1
10
99.1755270003625
20
-3.23570515737629
30
0
41
1
10
99.1818490490829
20
-3.18016407116465
30
0
0
SPLINE
5
116
100
AcDbEntity
8
1
62
256
6
ByLayer
370
18
48
1
60
0
100
AcDbSpline
70
4
71
3
72
8
73
4
40
0
40
0
40
0
40
0
40
1
40
1
40
1
40
1
41
1
10
99.2476930122982
20
-2.53779709457029
30
0
41
1
10
99.2281672188951
20
-2.7534576424986
30
0
41
1
10
99.2060583852534
20
-2.96747782231591
30
0
41
1
10
99.1818490490828
20
-3.18016407116483
30
0
0
SPLINE
5
117
100
AcDbEntity
8
1
62
256
6
ByLayer
370
18
48
1
60
0
100
AcDbSpline
70
4
71
3
72
10
73
6
40
0
40
0
40
0
40
0
40
0.5
40
0.5
40
1
40
1
40
1
40
1
41
1
10
98.6505423290445
20
-3.29219570730436
30
0
41
1
10
98.7562026760894
20
-3.1755078406805
30
0
41
1
10
98.8589618332384
20
-3.05405209767773
30
0
41
1
10
99.0580587331542
20
-2.80248484568168
30
0
41
1
10
99.1544500792581
20
-2.67232370320886
30
0
41
1
10
99.2476930122982
20
-2.53779709457029
30
0
0
SPLINE
5
118
100
AcDbEntity
8
1
62
256
6
ByLayer
370
13
48
1
60
0
100
AcDbSpline
70
4
71
3
72
10
73
6
40
0
40
0
40
0
40
0
40
0.16981210252778
40
0.446541401685187
40
1
40
1
40
1
40
1
41
1
10
83.5511491244985
20
-5.67720474998231
30
0
41
1
10
82.7840994163324
20
-5.53917955687365
30
0
41
1
10
80.7670497081661
20
-5.13232743435844
30
0
41
1
10
76.25
20
-3.98566339402291
30
0
41
1
10
72.5
20
-2.72759832063886
30
0
41
1
10
70
20
-1.83211069885871
30
0
0
SPLINE
5
119
100
AcDbEntity
8
1
62
256
6
ByLayer
370
18
48
1
60
0
100
AcDbSpline
70
4
71
3
72
45
73
41
40
0
40
0
40
0
40
0
40
0.0521675565662703
40
0.0521675565662703
40
0.104335113132541
40
0.104335113132541
40
0.208670226265081
40
0.208670226265081
40
0.313005339397621
40
0.313005339397621
40
0.365172895963892
40
0.391256674247027
40
0.391256674247027
40
0.417340452530162
40
0.417340452530162
40
0.43038234167173
40
0.43038234167173
40
0.436903286242514
40
0.436903286242514
40
0.443424230813297
40
0.443424230813297
40
0.446684703098674
40
0.446684703098674
40
0.449945175384051
40
0.449945175384051
40
0.456466119954836
40
0.469508009096404
40
0.469508009096404
40
0.49559178737957
40
0.49559178737957
40
0.521675565662737
40
0.521675565662737
40
0.626010678795433
40
0.626010678795433
40
0.834680905060797
40
0.834680905060797
40
0.886848461627138
40
0.886848461627138
40
0.939016018193479
40
1
40
1
40
1
40
1
41
1
10
90.0000013866892
20
-9.30152597817627
30
0
41
1
10
90.0398598570877
20
-9.29614259245525
30
0
41
1
10
90.0797188376854
20
-9.29065511999718
30
0
41
1
10
90.1594484879715
20
-9.27943852251275
30
0
41
1
10
90.1993544961081
20
-9.2735737935478
30
0
41
1
10
90.3193632960773
20
-9.25464177559701
30
0
41
1
10
90.3996999449979
20
-9.24045781412372
30
0
41
1
10
90.5609648188191
20
-9.20953444196425
30
0
41
1
10
90.6418953589506
20
-9.19278580347782
30
0
41
1
10
90.7636970294403
20
-9.16606168854051
30
0
41
1
10
90.8246990704096
20
-9.1522994691552
30
0
41
1
10
90.8858426735352
20
-9.13800036707804
30
0
41
1
10
90.9266352086939
20
-9.12835551519865
30
0
41
1
10
90.9470407040326
20
-9.1234961956103
30
0
41
1
10
90.977697572305
20
-9.11603973607663
30
0
41
1
10
90.9879259776779
20
-9.11352194118533
30
0
41
1
10
91.0032914225987
20
-9.10966918446454
30
0
41
1
10
91.0084155970625
20
-9.10837696862262
30
0
41
1
10
91.0186934474332
20
-9.1056959269981
30
0
41
1
10
91.0238539351516
20
-9.10428500250902
30
0
41
1
10
91.0315490469882
20
-9.10231730387054
30
0
41
1
10
91.0340769410826
20
-9.10178238357693
30
0
41
1
10
91.03916661184
20
-9.100601851162
30
0
41
1
10
91.0417144782568
20
-9.10000160370774
30
0
41
1
10
91.0493626750906
20
-9.09818562599523
30
0
41
1
10
91.0646797367804
20
-9.09448528522157
30
0
41
1
10
91.0800542538447
20
-9.09059604999987
30
0
41
1
10
91.1108562956938
20
-9.08264498894013
30
0
41
1
10
91.1314553720008
20
-9.07713504267531
30
0
41
1
10
91.1726353938643
20
-9.06617350792968
30
0
41
1
10
91.1932299309602
20
-9.0606775876079
30
0
41
1
10
91.296288955524
20
-9.0329231951855
30
0
41
1
10
91.3790266019927
20
-9.00979731554833
30
0
41
1
10
91.6281882328908
20
-8.93767661248967
30
0
41
1
10
91.7955530219811
20
-8.88596027809623
30
0
41
1
10
92.0066347535253
20
-8.81672782631699
30
0
41
1
10
92.0489081884155
20
-8.80266288508076
30
0
41
1
10
92.1332645540911
20
-8.7742041260303
30
0
41
1
10
92.224637718364
20
-8.74295279700311
30
0
41
1
10
92.3157769457366
20
-8.71087736280671
30
0
41
1
10
92.3648318523832
20
-8.69335647082002
30
0
0
SPLINE
5
11A
100
AcDbEntity
8
1
62
256
6
ByLayer
370
18
48
1
60
0
100
AcDbSpline
70
4
71
3
72
13
73
9
40
0
40
0
40
0
40
0
40
0.27921748796934
40
0.418826231954009
40
0.558434975938679
40
0.698043719923349
40
0.837652463908019
40
1
40
1
40
1
40
1
41
1
10
70.0000000000001
20
-7.10736923828787
30
0
41
1
10
71.6666666666666
20
-7.76521533005538
30
0
41
1
10
74.1666666666667
20
-8.60152555098946
30
0
41
1
10
77.5
20
-9.35343928183926
30
0
41
1
10
80.0000000000001
20
-9.7200521952237
30
0
41
1
10
82.5
20
-9.88604221213325
30
0
41
1
10
85.1357292736968
20
-9.84575431630739
30
0
41
1
10
86.9381252140603
20
-9.65628206501378
30
0
41
1
10
87.9071878210904
20
-9.51005160399208
30
0
0
SPLINE
5
11B
100
AcDbEntity
8
1
62
256
6
ByLayer
370
18
48
1
60
0
100
AcDbSpline
70
4
71
3
72
34
73
30
40
0
40
0
40
0
40
0
40
0.125000000000009
40
0.125000000000009
40
0.156250000000011
40
0.156250000000011
40
0.187500000000013
40
0.187500000000013
40
0.250000000000016
40
0.250000000000016
40
0.375000000000022
40
0.375000000000022
40
0.437500000000023
40
0.437500000000023
40
0.468750000000024
40
0.468750000000024
40
0.500000000000025
40
0.500000000000025
40
0.625000000000022
40
0.625000000000022
40
0.687500000000022
40
0.687500000000022
40
0.718750000000022
40
0.718750000000022
40
0.750000000000022
40
0.750000000000022
40
0.875000000000011
40
0.875000000000011
40
1
40
1
40
1
40
1
41
1
10
90.0000000000001
20
-9.30153136976779
30
0
41
1
10
89.1712003160229
20
-9.41099612790123
30
0
41
1
10
88.3436896058074
20
-9.48858594618011
30
0
41
1
10
87.3084516953143
20
-9.54503943163613
30
0
41
1
10
87.1013628383951
20
-9.55430043879176
30
0
41
1
10
86.6870426312271
20
-9.56873320581337
30
0
41
1
10
86.479766443253
20
-9.57390421679088
30
0
41
1
10
85.8585448259823
20
-9.58322560115107
30
0
41
1
10
85.444931201561
20
-9.58119987445696
30
0
41
1
10
84.2049922324347
20
-9.55023344090273
30
0
41
1
10
83.3795680707387
20
-9.49641911290718
30
0
41
1
10
82.1401371290461
20
-9.36766494668038
30
0
41
1
10
81.7267785882219
20
-9.31673037114894
30
0
41
1
10
81.106025082589
20
-9.22845567206522
30
0
41
1
10
80.8989876811422
20
-9.19705175045658
30
0
41
1
10
80.4846133823117
20
-9.13030022066636
30
0
41
1
10
80.2774796586181
20
-9.09498464065419
30
0
41
1
10
79.2424846304514
20
-8.90889679396514
30
0
41
1
10
78.4160751030784
20
-8.72954920829415
30
0
41
1
10
77.1760632379786
20
-8.41602614312589
30
0
41
1
10
76.7626605208339
20
-8.30407731888434
30
0
41
1
10
76.1420754812446
20
-8.12544086709141
30
0
41
1
10
75.9351336163661
20
-8.06410961349835
30
0
41
1
10
75.5210254021888
20
-7.93794494185204
30
0
41
1
10
75.3137801305235
20
-7.8730853435768
30
0
41
1
10
74.2784015355309
20
-7.54070763899884
30
0
41
1
10
73.4520277301449
20
-7.24876551948631
30
0
41
1
10
71.798945659198
20
-6.61814107889222
30
0
41
1
10
70.9722412885263
20
-6.27945640803202
30
0
41
1
10
70.1433083483674
20
-5.91965269573276
30
0
0
SPLINE
5
11C
100
AcDbEntity
8
1
62
256
6
ByLayer
370
18
48
1
60
0
100
AcDbSpline
70
4
71
3
72
10
73
6
40
0
40
0
40
0
40
0
40
0.5
40
0.5
40
1
40
1
40
1
40
1
41
1
10
94.303923504148
20
3.62164093300197
30
0
41
1
10
94.4145150570795
20
3.46324825655844
30
0
41
1
10
94.5226474813234
20
3.304451552458
30
0
41
1
10
94.7327381408427
20
2.98584374305273
30
0
41
1
10
94.8347146227308
20
2.82603563561307
30
0
41
1
10
94.93257963909
20
2.66555202640214
30
0
0
SPLINE
5
11D
100
AcDbEntity
8
1
62
256
6
ByLayer
370
18
48
1
60
0
100
AcDbSpline
70
4
71
3
72
26
73
22
40
0
40
0
40
0
40
0
40
0.249999999999972
40
0.249999999999972
40
0.374999999999958
40
0.374999999999958
40
0.437499999999952
40
0.437499999999952
40
0.499999999999947
40
0.499999999999947
40
0.624999999999964
40
0.624999999999964
40
0.68749999999998
40
0.68749999999998
40
0.749999999999996
40
0.749999999999996
40
0.875000000000016
40
0.875000000000016
40
0.937500000000008
40
0.937500000000008
40
1
40
1
40
1
40
1
41
1
10
94.932579630624
20
2.66555202185478
30
0
41
1
10
94.95427588924
20
2.6299732280593
30
0
41
1
10
94.9740095980732
20
2.59467795335379
30
0
41
1
10
94.9994316864317
20
2.54233867096721
30
0
41
1
10
95.0072021134126
20
2.52499388798395
30
0
41
1
10
95.0175201211616
20
2.49916995185942
30
0
41
1
10
95.0207353098371
20
2.49059435411979
30
0
41
1
10
95.026649449335
20
2.47351773587644
30
0
41
1
10
95.0293569283049
20
2.46498282538781
30
0
41
1
10
95.0364705296868
20
2.43989098319142
30
0
41
1
10
95.0399075762101
20
2.42377680950307
30
0
41
1
10
95.042657684268
20
2.40073649290579
30
0
41
1
10
95.0431715869912
20
2.39324576647255
30
0
41
1
10
95.0432872071635
20
2.37869318361962
30
0
41
1
10
95.0428802188271
20
2.3716171906276
30
0
41
1
10
95.0401911336662
20
2.35161506367345
30
0
41
1
10
95.0364588938613
20
2.33973647136986
30
0
41
1
10
95.0276928432033
20
2.3242968364672
30
0
41
1
10
95.0242345230076
20
2.31955465898281
30
0
41
1
10
95.0164016713505
20
2.31107157624734
30
0
41
1
10
95.0120129485912
20
2.30730104876963
30
0
41
1
10
95.0071674125676
20
2.30398609431128
30
0
0
SPLINE
5
11E
100
AcDbEntity
8
1
62
256
6
ByLayer
370
18
48
1
60
0
100
AcDbSpline
70
4
71
3
72
17
73
13
40
0
40
0
40
0
40
0
40
0.250000000000013
40
0.250000000000013
40
0.500000000000026
40
0.500000000000026
40
0.625000000000033
40
0.625000000000033
40
0.687500000000027
40
0.687500000000027
40
0.750000000000022
40
1
40
1
40
1
40
1
41
1
10
95.289475808995
20
3.12927694916314
30
0
41
1
10
95.5205834504325
20
2.93135086186905
30
0
41
1
10
95.7548256847755
20
2.74123960519466
30
0
41
1
10
96.2291273911208
20
2.3755200044574
30
0
41
1
10
96.4691874079711
20
2.19991301875075
30
0
41
1
10
96.8333813605557
20
1.94673401131433
30
0
41
1
10
96.9554641038001
20
1.86404817660772
30
0
41
1
10
97.1395895083077
20
1.74251573241983
30
0
41
1
10
97.2011839348397
20
1.70238903212677
30
0
41
1
10
97.3244294452541
20
1.62312528697052
30
0
41
1
10
97.6325339632265
20
1.42752617997846
30
0
41
1
10
97.9405946716161
20
1.24404232162976
30
0
41
1
10
98.1870209491659
20
1.10341915445201
30
0
0
SPLINE
5
11F
100
AcDbEntity
8
1
62
256
6
ByLayer
370
18
48
1
60
0
100
AcDbSpline
70
4
71
3
72
8
73
4
40
0
40
0
40
0
40
0
40
1
40
1
40
1
40
1
41
1
10
94.497963515643
20
-2.7344262659845
30
0
41
1
10
94.4005856732562
20
-2.72806900143999
30
0
41
1
10
94.3028391004602
20
-2.72213846786147
30
0
41
1
10
94.2047530476896
20
-2.71660081378269
30
0
0
SPLINE
5
120
100
AcDbEntity
8
1
62
256
6
ByLayer
370
18
48
1
60
0
100
AcDbSpline
70
4
71
3
72
8
73
4
40
0
40
0
40
0
40
0
40
1
40
1
40
1
40
1
41
1
10
93.8623989734625
20
-2.24129001060956
30
0
41
1
10
94.0693120656465
20
-2.40697961060709
30
0
41
1
10
94.2807895732977
20
-2.57217983093784
30
0
41
1
10
94.4979635156413
20
-2.73442626598137
30
0
0
SPLINE
5
121
100
AcDbEntity
8
1
62
256
6
ByLayer
370
13
48
1
60
0
100
AcDbSpline
70
4
71
3
72
13
73
9
40
0
40
0
40
0
40
0
40
0.298879975395353
40
0.44831996309303
40
0.597759950790707
40
0.747199938488383
40
0.89663992618606
40
1
40
1
40
1
40
1
41
1
10
70
20
4.5700918546539
30
0
41
1
10
72.5
20
3.94655616703165
30
0
41
1
10
76.25
20
2.78670674172019
30
0
41
1
10
81.25
20
1.02597769827418
30
0
41
1
10
85
20
-0.345786783150544
30
0
41
1
10
88.75
20
-1.6978910978188
30
0
41
1
10
92.1145617164316
20
-2.84293955363
30
0
41
1
10
94.2291234328633
20
-3.49486238820242
30
0
41
1
10
95.0936851492949
20
-3.74747980509932
30
0
0
SPLINE
5
122
100
AcDbEntity
8
1
62
256
6
ByLayer
370
18
48
1
60
0
100
AcDbSpline
70
4
71
3
72
12
73
8
40
0
40
0
40
0
40
0
40
0.500000000000014
40
0.500000000000014
40
0.750000000000007
40
0.750000000000007
40
1
40
1
40
1
40
1
41
1
10
94.2047530476897
20
-2.71660081378266
30
0
41
1
10
94.360511684336
20
-2.87779279758124
30
0
41
1
10
94.5131205069388
20
-3.04338481938513
30
0
41
1
10
94.7359620997439
20
-3.30025444853484
30
0
41
1
10
94.8092237549992
20
-3.38730094599251
30
0
41
1
10
94.953361583168
20
-3.56472626872693
30
0
41
1
10
95.024239710926
20
-3.65510236324261
30
0
41
1
10
95.0936851581652
20
-3.74747979772502
30
0
0
SPLINE
5
123
100
AcDbEntity
8
1
62
256
6
ByLayer
370
13
48
1
60
0
100
AcDbSpline
70
4
71
3
72
10
73
6
40
0
40
0
40
0
40
0
40
0.614920099763983
40
0.922380149645974
40
1
40
1
40
1
40
1
41
1
10
70
20
-1.3632386416426
30
0
41
1
10
72.5
20
-2.25032996543735
30
0
41
1
10
76.25
20
-3.51744340579859
30
0
41
1
10
80.3155688453825
20
-4.5949088065
30
0
41
1
10
81.8811376907651
20
-4.95129468162375
30
0
41
1
10
82.1967065361477
20
-5.02064588837985
30
0
0
SPLINE
5
124
100
AcDbEntity
8
1
62
256
6
ByLayer
370
18
48
1
60
0
100
AcDbSpline
70
4
71
3
72
10
73
6
40
0
40
0
40
0
40
0
40
0.5
40
0.5
40
1
40
1
40
1
40
1
41
1
10
70.0000000000001
20
3.7670739139532
30
0
41
1
10
69.7948310666244
20
3.85923307289485
30
0
41
1
10
69.5902444781626
20
3.94790513965018
30
0
41
1
10
69.1819133019285
20
4.11754637116454
30
0
41
1
10
68.9781695802386
20
4.1985174237372
30
0
41
1
10
68.7746533794396
20
4.27507677982163
30
0
0
SPLINE
5
125
100
AcDbEntity
8
1
62
256
6
ByLayer
370
18
48
1
60
0
100
AcDbSpline
70
4
71
3
72
20
73
16
40
0
40
0
40
0
40
0
40
0.249999999999988
40
0.249999999999988
40
0.374999999999988
40
0.374999999999988
40
0.499999999999989
40
0.499999999999989
40
0.749999999999989
40
0.749999999999989
40
0.812499999999994
40
0.812499999999994
40
0.874999999999999
40
0.874999999999999
40
1
40
1
40
1
40
1
41
1
10
95.0071673947438
20
2.30398610475342
30
0
41
1
10
94.9031849803241
20
2.23282812517911
30
0
41
1
10
94.8020460910623
20
2.15864380788636
30
0
41
1
10
94.6557196850845
20
2.04163937477085
30
0
41
1
10
94.6078447119492
20
2.00167950601434
30
0
41
1
10
94.5141341439424
20
1.91958927256104
30
0
41
1
10
94.4682945510406
20
1.8774536138603
30
0
41
1
10
94.3344675142864
20
1.74755007009705
30
0
41
1
10
94.2500669742301
20
1.65626259489878
30
0
41
1
10
94.1524439181187
20
1.53449208811841
30
0
41
1
10
94.1333159932143
20
1.50975220033752
30
0
41
1
10
94.0959124926019
20
1.45944349588541
30
0
41
1
10
94.0776291909204
20
1.43386246560883
30
0
41
1
10
94.0242744542683
20
1.35595974835004
30
0
41
1
10
93.9906611813186
20
1.30243886834796
30
0
41
1
10
93.9592789134678
20
1.24710981551661
30
0
0
SPLINE
5
126
100
AcDbEntity
8
1
62
256
6
ByLayer
370
13
48
1
60
0
100
AcDbSpline
70
4
71
3
72
10
73
6
40
0
40
0
40
0
40
0
40
0.321307399520863
40
0.801890683292389
40
1
40
1
40
1
40
1
41
1
10
95.0071674127893
20
2.30398609446294
30
0
41
1
10
94.1714449418595
20
2.59573231522037
30
0
41
1
10
92.0857224709298
20
3.30385762833589
30
0
41
1
10
89.4847164804795
20
4.10263744089229
30
0
41
1
10
87.719432960959
20
4.57673437456049
30
0
41
1
10
87.2041494414385
20
4.70886284660281
30
0
0
SPLINE
5
127
100
AcDbEntity
8
1
62
256
6
ByLayer
370
18
48
1
60
0
100
AcDbSpline
70
4
71
3
72
8
73
4
40
0
40
0
40
0
40
0
40
1
40
1
40
1
40
1
41
1
10
70.1417936091713
20
9.48361019384416
30
0
41
1
10
70.0944744605668
20
9.48739033568094
30
0
41
1
10
70.047209590924
20
9.49104476827014
30
0
41
1
10
70.0000000000001
20
9.49457092569537
30
0
0
SPLINE
5
128
100
AcDbEntity
8
1
62
256
6
ByLayer
370
18
48
1
60
0
100
AcDbSpline
70
4
71
3
72
34
73
30
40
0
40
0
40
0
40
0
40
0.124999999999997
40
0.124999999999997
40
0.156249999999997
40
0.156249999999997
40
0.187499999999997
40
0.187499999999997
40
0.249999999999998
40
0.249999999999998
40
0.374999999999995
40
0.374999999999995
40
0.437499999999995
40
0.437499999999995
40
0.468749999999997
40
0.468749999999997
40
0.499999999999998
40
0.499999999999998
40
0.625000000000005
40
0.625000000000005
40
0.687500000000007
40
0.687500000000007
40
0.718750000000006
40
0.718750000000006
40
0.750000000000006
40
0.750000000000006
40
0.875000000000003
40
0.875000000000003
40
1
40
1
40
1
40
1
41
1
10
90
20
2.66545458952373
30
0
41
1
10
89.171200316024
20
3.10584262932451
30
0
41
1
10
88.3436896058088
20
3.53634212183513
30
0
41
1
10
87.3084516953163
20
4.05794814041127
30
0
41
1
10
87.1013628383972
20
4.16144420726721
30
0
41
1
10
86.6870426312295
20
4.36667989940457
30
0
41
1
10
86.4797664432557
20
4.46844066194299
30
0
41
1
10
85.8585448259853
20
4.77048477236733
30
0
41
1
10
85.4449312015644
20
4.96766916695924
30
0
41
1
10
84.2049922324384
20
5.5454731232478
30
0
41
1
10
83.3795680707422
20
5.91235184771458
30
0
41
1
10
82.1401371290487
20
6.4313219716077
30
0
41
1
10
81.7267785882242
20
6.59908200919654
30
0
41
1
10
81.1060250825908
20
6.84234586486454
30
0
41
1
10
80.8989876811439
20
6.9220372014282
30
0
41
1
10
80.4846133823129
20
7.07853966303497
30
0
41
1
10
80.2774796586191
20
7.15527350795267
30
0
41
1
10
79.242484630451
20
7.53097852693099
30
0
41
1
10
78.4160751030772
20
7.80631480830385
30
0
41
1
10
77.1760632379765
20
8.17774398187095
30
0
41
1
10
76.7626605208314
20
8.29460373352345
30
0
41
1
10
76.1420754812416
20
8.45921200544214
30
0
41
1
10
75.935133616363
20
8.51230094620016
30
0
41
1
10
75.5210254021853
20
8.61486964964644
30
0
41
1
10
75.3137801305197
20
8.66436662701014
30
0
41
1
10
74.2784015355261
20
8.90234539378631
30
0
41
1
10
73.4520277301396
20
9.06255817120507
30
0
41
1
10
71.7989456591919
20
9.32061336002684
30
0
41
1
10
70.9722412885197
20
9.41846110057384
30
0
41
1
10
70.1433083483602
20
9.48363200704463
30
0
0
SPLINE
5
129
100
AcDbEntity
8
1
62
256
6
ByLayer
370
18
48
1
60
0
100
AcDbSpline
70
4
71
3
72
18
73
14
40
0
40
0
40
0
40
0
40
0.12499999999997
40
0.12499999999997
40
0.249999999999939
40
0.249999999999939
40
0.374999999999909
40
0.374999999999909
40
0.499999999999879
40
0.499999999999879
40
0.749999999999939
40
0.749999999999939
40
1
40
1
40
1
40
1
41
1
10
98.2552410619824
20
-2.06392928459405
30
0
41
1
10
98.2561112641727
20
-2.07081467524125
30
0
41
1
10
98.2565414337859
20
-2.07772354125967
30
0
41
1
10
98.2566059680993
20
-2.09104771561445
30
0
41
1
10
98.2562526671809
20
-2.09752694415582
30
0
41
1
10
98.2549094945976
20
-2.11018350264786
30
0
41
1
10
98.2539129467855
20
-2.11638808287125
30
0
41
1
10
98.2514083245122
20
-2.12840812958237
30
0
41
1
10
98.2499104343391
20
-2.13419349641654
30
0
41
1
10
98.2448322268885
20
-2.15101486058543
30
0
41
1
10
98.2406751302178
20
-2.16152321820792
30
0
41
1
10
98.2312946472636
20
-2.18156448816001
30
0
41
1
10
98.2260602006905
20
-2.19109516144027
30
0
41
1
10
98.2204783117012
20
-2.20017237147914
30
0
0
SPLINE
5
12A
100
AcDbEntity
8
1
62
256
6
ByLayer
370
18
48
1
60
0
100
AcDbSpline
70
4
71
3
72
30
73
26
40
0
40
0
40
0
40
0
40
0.0624999999999941
40
0.0624999999999941
40
0.124999999999988
40
0.124999999999988
40
0.24999999999999
40
0.24999999999999
40
0.374999999999991
40
0.374999999999991
40
0.499999999999992
40
0.499999999999992
40
0.624999999999993
40
0.624999999999993
40
0.687499999999994
40
0.687499999999994
40
0.749999999999995
40
0.749999999999995
40
0.812499999999996
40
0.812499999999996
40
0.874999999999998
40
0.874999999999998
40
0.937499999999999
40
0.937499999999999
40
1
40
1
40
1
40
1
41
1
10
93.8623989733287
20
-2.24129001050261
30
0
41
1
10
93.8114808932863
20
-2.20051638798361
30
0
41
1
10
93.7635038362624
20
-2.15927487570033
30
0
41
1
10
93.6724979306596
20
-2.07645523939459
30
0
41
1
10
93.6294754994939
20
-2.03487584460683
30
0
41
1
10
93.5068096170074
20
-1.91043846198934
30
0
41
1
10
93.4335580356855
20
-1.82789452481794
30
0
41
1
10
93.299582211825
20
-1.66754806785443
30
0
41
1
10
93.2401871076437
20
-1.59139420580931
30
0
41
1
10
93.1308062122061
20
-1.44902097743576
30
0
41
1
10
93.0808423324901
20
-1.38279494313255
30
0
41
1
10
92.9852020231
20
-1.26107382282825
30
0
41
1
10
92.9395611326244
20
-1.20559394875113
30
0
41
1
10
92.8703244234739
20
-1.13011550470361
30
0
41
1
10
92.8471552184569
20
-1.10628539654613
30
0
41
1
10
92.7999107751764
20
-1.06108425931768
30
0
41
1
10
92.7758247751082
20
-1.03969942256984
30
0
41
1
10
92.7256823695823
20
-0.998843053667201
30
0
41
1
10
92.6996300752979
20
-0.979375603572123
30
0
41
1
10
92.6441582450466
20
-0.941520065028243
30
0
41
1
10
92.6147283544079
20
-0.923129040471736
30
0
41
1
10
92.5507652001892
20
-0.886210845294073
30
0
41
1
10
92.5161685715853
20
-0.867648011335973
30
0
41
1
10
92.4406948359904
20
-0.829231907379068
30
0
41
1
10
92.4000985089117
20
-0.809507135248822
30
0
41
1
10
92.3570270045395
20
-0.789167886969267
30
0
0
SPLINE
5
12B
100
AcDbEntity
8
1
62
256
6
ByLayer
370
13
48
1
60
0
100
AcDbSpline
70
4
71
3
72
22
73
18
40
0
40
0
40
0
40
0
40
0.125000000000002
40
0.125000000000002
40
0.250000000000005
40
0.250000000000005
40
0.50000000000001
40
0.50000000000001
40
0.625000000000012
40
0.625000000000012
40
0.750000000000015
40
0.750000000000015
40
0.812500000000011
40
0.812500000000011
40
0.875000000000007
40
0.875000000000007
40
1
40
1
40
1
40
1
41
1
10
98.2204783117014
20
-2.20017237147908
30
0
41
1
10
98.0252330570325
20
-2.235068196463
30
0
41
1
10
97.8311444829191
20
-2.26644758087539
30
0
41
1
10
97.4458987470354
20
-2.32168559770469
30
0
41
1
10
97.2547394944795
20
-2.34551950734718
30
0
41
1
10
96.6867042597663
20
-2.40575148913422
30
0
41
1
10
96.3152207718216
20
-2.43125574182008
30
0
41
1
10
95.7682076964243
20
-2.4417869818503
30
0
41
1
10
95.5875732166308
20
-2.44064801859264
30
0
41
1
10
95.2297033722326
20
-2.42792973758978
30
0
41
1
10
95.052477897288
20
-2.41636919419233
30
0
41
1
10
94.7895893072295
20
-2.39124875739017
30
0
41
1
10
94.7024339718752
20
-2.38157861664206
30
0
41
1
10
94.5292604894821
20
-2.35968284323005
30
0
41
1
10
94.4436715703505
20
-2.34750353255376
30
0
41
1
10
94.1898434141846
20
-2.30764848814948
30
0
41
1
10
94.0244739653962
20
-2.2765794121116
30
0
41
1
10
93.8623989734736
20
-2.24129001053382
30
0
0
SPLINE
5
12C
100
AcDbEntity
8
1
62
256
6
ByLayer
370
18
48
1
60
0
100
AcDbSpline
70
4
71
3
72
18
73
14
40
0
40
0
40
0
40
0
40
0.249999999999988
40
0.249999999999988
40
0.374999999999988
40
0.374999999999988
40
0.499999999999988
40
0.499999999999988
40
0.75
40
0.75
40
0.875
40
0.875
40
1
40
1
40
1
40
1
41
1
10
95.1913597224194
20
-4.26573188596859
30
0
41
1
10
95.09014149424
20
-4.46164812644227
30
0
41
1
10
94.9909335010209
20
-4.6589410804045
30
0
41
1
10
94.8458874556568
20
-4.95745963085079
30
0
41
1
10
94.7981686515868
20
-5.05739718781112
30
0
41
1
10
94.7041483443474
20
-5.25824294413059
30
0
41
1
10
94.6578392309524
20
-5.3591684424344
30
0
41
1
10
94.5214417721586
20
-5.66330531719927
30
0
41
1
10
94.4338261663943
20
-5.86793774169175
30
0
41
1
10
94.3088260209912
20
-6.1785173605877
30
0
41
1
10
94.2682272487016
20
-6.2826719065599
30
0
41
1
10
94.1895288761759
20
-6.49229289535575
30
0
41
1
10
94.1515012944326
20
-6.59756629069671
30
0
41
1
10
94.1149801598303
20
-6.70336732936198
30
0
0
SPLINE
5
12D
100
AcDbEntity
8
1
62
256
6
ByLayer
370
13
48
1
60
0
100
AcDbSpline
70
4
71
3
72
13
73
9
40
0
40
0
40
0
40
0
40
0.106836620522075
40
0.255697183768396
40
0.404557747014717
40
0.553418310261038
40
0.702278873507359
40
1
40
1
40
1
40
1
41
1
10
95.1913597410944
20
-4.2657318914905
30
0
41
1
10
94.2942398273963
20
-4.01178636099084
30
0
41
1
10
92.1471199136982
20
-3.36316429842728
30
0
41
1
10
88.75
20
-2.20739164042632
30
0
41
1
10
85
20
-0.832781840255535
30
0
41
1
10
81.25
20
0.585081875838909
30
0
41
1
10
76.25
20
2.43375231546722
30
0
41
1
10
72.5
20
3.68664700831158
30
0
41
1
10
70
20
4.37796789835846
30
0
0
SPLINE
5
12E
100
AcDbEntity
8
1
62
256
6
ByLayer
370
18
48
1
60
0
100
AcDbSpline
70
4
71
3
72
59
73
55
40
0
40
0
40
0
40
0
40
0.0107537775032751
40
0.0216677740700231
40
0.0327421196429577
40
0.0439769397305757
40
0.0553723556101163
40
0.0669284845124718
40
0.0786454397904364
40
0.0905233310715294
40
0.102562264396489
40
0.114762342344498
40
0.127123664146043
40
0.139646325784283
40
0.15310783947296
40
0.166979269640415
40
0.181260996966792
40
0.195953376562845
40
0.211056740411792
40
0.226571399424003
40
0.242497645161219
40
0.25883575127716
40
0.275585974713599
40
0.292748556684474
40
0.310323723475374
40
0.328311687081493
40
0.346712645703515
40
0.365526784118012
40
0.384754273936477
40
0.404395273765043
40
0.424449929275304
40
0.44491837319512
40
0.465800725227181
40
0.487097091901975
40
0.508807566371029
40
0.530932228145489
40
0.553471142784502
40
0.576424361537309
40
0.599791920942518
40
0.623573842387593
40
0.647770131631293
40
0.672380778291471
40
0.697405755300399
40
0.722845018329585
40
0.748698505185816
40
0.774966135180043
40
0.801647808470562
40
0.828743405381815
40
0.856252785700057
40
0.884175787947019
40
0.912512228632628
40
0.941261901487795
40
0.970424576678203
40
1
40
1
40
1
40
1
41
1
10
70.1503654719319
20
3.68998004497459
30
0
41
1
10
70.1486747304127
20
3.69492636174931
30
0
41
1
10
70.145268057247
20
3.70489268979736
30
0
41
1
10
70.1402840049694
20
3.71971693896569
30
0
41
1
10
70.1353432924488
20
3.73458332109425
30
0
41
1
10
70.1304582068443
20
3.74946845813605
30
0
41
1
10
70.1256253862685
20
3.76437084119272
30
0
41
1
10
70.1208457455122
20
3.77928285838149
30
0
41
1
10
70.1161190603984
20
3.79419843878037
30
0
41
1
10
70.1114452972856
20
3.8091110161202
30
0
41
1
10
70.1068248316691
20
3.82401387157748
30
0
41
1
10
70.1022561705082
20
3.83890085569956
30
0
41
1
10
70.0977450187988
20
3.85376308469952
30
0
41
1
10
70.0931770515969
20
3.86890872983443
30
0
41
1
10
70.0886193340134
20
3.88437842869203
30
0
41
1
10
70.0841361145214
20
3.90020733455256
30
0
41
1
10
70.0797641344103
20
3.9161795021466
30
0
41
1
10
70.0755100784401
20
3.93227264005813
30
0
41
1
10
70.0713720943674
20
3.94846703596318
30
0
41
1
10
70.0673507160589
20
3.96474152647579
30
0
41
1
10
70.0634458092114
20
3.98107462209154
30
0
41
1
10
70.0596574246267
20
3.99744419112469
30
0
41
1
10
70.055985560288
20
4.01382754623592
30
0
41
1
10
70.052430227806
20
4.03020141887117
30
0
41
1
10
70.048991434032
20
4.04654196516859
30
0
41
1
10
70.0456691862732
20
4.06282476335787
30
0
41
1
10
70.0424634909325
20
4.07902481379989
30
0
41
1
10
70.0393743539645
20
4.09511653858766
30
0
41
1
10
70.0364017808174
20
4.11107378158542
30
0
41
1
10
70.0335457765111
20
4.12686980868514
30
0
41
1
10
70.0308063456696
20
4.14247730836357
30
0
41
1
10
70.0281834925601
20
4.15786839254019
30
0
41
1
10
70.025677221125
20
4.17301459775888
30
0
41
1
10
70.0232875350123
20
4.18788688671148
30
0
41
1
10
70.0210144376002
20
4.20245565012155
30
0
41
1
10
70.0188579320218
20
4.21669070900865
30
0
41
1
10
70.0168180211853
20
4.23056131735189
30
0
41
1
10
70.0148947077934
20
4.24403616517293
30
0
41
1
10
70.0130879943599
20
4.25708338205962
30
0
41
1
10
70.0113978832259
20
4.26967054114488
30
0
41
1
10
70.0098243765711
20
4.2817646635844
30
0
41
1
10
70.0083674764334
20
4.29333222346415
30
0
41
1
10
70.007027184696
20
4.30433915350417
30
0
41
1
10
70.0058035031901
20
4.31475085025468
30
0
41
1
10
70.0046964333471
20
4.32453218387514
30
0
41
1
10
70.0037059775773
20
4.33364749313128
30
0
41
1
10
70.0028321340369
20
4.34206063973366
30
0
41
1
10
70.0020749166594
20
4.3497348388936
30
0
41
1
10
70.0014342786877
20
4.35663334761423
30
0
41
1
10
70.0009104046299
20
4.36271688135699
30
0
41
1
10
70.0005025960921
20
4.36795352042088
30
0
41
1
10
70.0002135223892
20
4.3722809676535
30
0
41
1
10
70.000033009675
20
4.37575054351322
30
0
41
1
10
70.0000110546504
20
4.37722532568282
30
0
41
1
10
70
20
4.37796789835846
30
0
0
SPLINE
5
12F
100
AcDbEntity
8
1
62
256
6
ByLayer
370
18
48
1
60
0
100
AcDbSpline
70
4
71
3
72
46
73
42
40
0
40
0
40
0
40
0
40
0.0156249999999537
40
0.0156249999999537
40
0.0312499999999074
40
0.0312499999999074
40
0.0624999999998145
40
0.0624999999998145
40
0.124999999999629
40
0.124999999999629
40
0.187499999999443
40
0.187499999999443
40
0.21874999999935
40
0.21874999999935
40
0.234374999999304
40
0.234374999999304
40
0.249999999999258
40
0.249999999999258
40
0.253906249999246
40
0.253906249999246
40
0.255859374999248
40
0.255859374999248
40
0.257812499999251
40
0.257812499999251
40
0.265624999999261
40
0.265624999999261
40
0.281249999999281
40
0.281249999999281
40
0.312499999999321
40
0.312499999999321
40
0.374999999999401
40
0.374999999999401
40
0.499999999999545
40
0.499999999999545
40
0.562499999999608
40
0.562499999999608
40
0.624999999999672
40
0.624999999999672
40
0.749999999999781
40
0.749999999999781
40
1
40
1
40
1
40
1
41
1
10
90.0000012253121
20
-6.53734664534659
30
0
41
1
10
90.020797418485
20
-6.54566183409503
30
0
41
1
10
90.0415961255479
20
-6.55393004135516
30
0
41
1
10
90.0831904977653
20
-6.57042823093082
30
0
41
1
10
90.1039826633915
20
-6.57868145324917
30
0
41
1
10
90.1663799318223
20
-6.60321545550883
30
0
41
1
10
90.2080231399844
20
-6.61915434849115
30
0
41
1
10
90.3332250237212
20
-6.66488855113883
30
0
41
1
10
90.4170059008589
20
-6.69294071038362
30
0
41
1
10
90.5851300110948
20
-6.74496492615589
30
0
41
1
10
90.6694760767676
20
-6.76891776443557
30
0
41
1
10
90.7963816475323
20
-6.80222892428981
30
0
41
1
10
90.838747730224
20
-6.81289680171159
30
0
41
1
10
90.9023864599259
20
-6.82830892002971
30
0
41
1
10
90.9236136616713
20
-6.83335186454414
30
0
41
1
10
90.9660993265433
20
-6.8432360645522
30
0
41
1
10
90.9873540917233
20
-6.84809887956519
30
0
41
1
10
91.014023494104
20
-6.85356495461545
30
0
41
1
10
91.0193723207974
20
-6.85456801188369
30
0
41
1
10
91.0273954504441
20
-6.856073295985
30
0
41
1
10
91.0300789397947
20
-6.85652030838605
30
0
41
1
10
91.0353718416861
20
-6.8578594429633
30
0
41
1
10
91.038018882954
20
-6.85852531618889
30
0
41
1
10
91.0512740985076
20
-6.86173389925349
30
0
41
1
10
91.0619077373017
20
-6.86412198199537
30
0
41
1
10
91.093870935587
20
-6.87091079220949
30
0
41
1
10
91.1152693566823
20
-6.87489750771681
30
0
41
1
10
91.1794838236615
20
-6.88674559403438
30
0
41
1
10
91.2223081053494
20
-6.89455434951648
30
0
41
1
10
91.351040035231
20
-6.91646623763799
30
0
41
1
10
91.4371511686281
20
-6.92938832571591
30
0
41
1
10
91.6964360789473
20
-6.96294321275002
30
0
41
1
10
91.8705545853876
20
-6.97839974342568
30
0
41
1
10
92.1340267884411
20
-6.99020968617836
30
0
41
1
10
92.2217019155379
20
-6.9922203565757
30
0
41
1
10
92.3965025785648
20
-6.99235717128929
30
0
41
1
10
92.483674093398
20
-6.99048553973617
30
0
41
1
10
92.7445446233988
20
-6.97902610773824
30
0
41
1
10
92.9176027747964
20
-6.96360695932768
30
0
41
1
10
93.4344978235437
20
-6.89367817909658
30
0
41
1
10
93.7760612229472
20
-6.81540165672226
30
0
41
1
10
94.1149801598307
20
-6.70336732936198
30
0
0
SPLINE
5
130
100
AcDbEntity
8
1
62
256
6
ByLayer
370
18
48
1
60
0
100
AcDbSpline
70
4
71
3
72
46
73
42
40
0
40
0
40
0
40
0
40
0.0624999999999997
40
0.0624999999999997
40
0.124999999999999
40
0.124999999999999
40
0.156249999999995
40
0.156249999999995
40
0.18749999999999
40
0.18749999999999
40
0.249999999999981
40
0.249999999999981
40
0.312499999999972
40
0.312499999999972
40
0.374999999999962
40
0.437499999999953
40
0.437499999999953
40
0.453124999999953
40
0.453124999999953
40
0.468749999999953
40
0.499999999999953
40
0.499999999999953
40
0.624999999999935
40
0.624999999999935
40
0.68749999999993
40
0.68749999999993
40
0.718749999999928
40
0.718749999999928
40
0.734374999999929
40
0.734374999999929
40
0.749999999999931
40
0.749999999999931
40
0.874999999999966
40
0.874999999999966
40
0.937499999999983
40
0.937499999999983
40
0.968749999999992
40
0.968749999999992
40
0.984374999999996
40
0.984374999999996
40
1
40
1
40
1
40
1
41
1
10
93.95927891348
20
1.2471098155068
30
0
41
1
10
94.0770690915544
20
1.16385756941418
30
0
41
1
10
94.1954320004566
20
1.08369854806486
30
0
41
1
10
94.4333240555279
20
0.929679160504151
30
0
41
1
10
94.5528527042351
20
0.855816107582825
30
0
41
1
10
94.7330561133568
20
0.749938643213426
30
0
41
1
10
94.793275819143
20
0.715466556767012
30
0
41
1
10
94.9140271521403
20
0.648207020046044
30
0
41
1
10
94.9742384828125
20
0.615599409335942
30
0
41
1
10
95.1539913108275
20
0.521030332611758
30
0
41
1
10
95.2728232298515
20
0.462223807644506
30
0
41
1
10
95.5085018794969
20
0.352999336525187
30
0
41
1
10
95.6253495618528
20
0.302577368739065
30
0
41
1
10
95.8570496051664
20
0.210164829796838
30
0
41
1
10
96.0867509796532
20
0.126197832323129
30
0
41
1
10
96.3123421151873
20
0.0595989916215842
30
0
41
1
10
96.4519972727825
20
0.0236340487294342
30
0
41
1
10
96.4798907408203
20
0.0167174321481696
30
0
41
1
10
96.5353967435201
20
0.0034922487736821
30
0
41
1
10
96.6181454675705
20
-0.0154141463481778
30
0
41
1
10
96.6993770462838
20
-0.0315513975984629
30
0
41
1
10
96.9668278686233
20
-0.0792804412457428
30
0
41
1
10
97.1702008357731
20
-0.0981386727105473
30
0
41
1
10
97.4593417535599
20
-0.097370986845533
30
0
41
1
10
97.553070606962
20
-0.0922755726684557
30
0
41
1
10
97.689569035683
20
-0.0771583931614828
30
0
41
1
10
97.7343850891116
20
-0.0708719273955296
30
0
41
1
10
97.8005646935693
20
-0.0595358171639475
30
0
41
1
10
97.8224071246935
20
-0.055446199912069
30
0
41
1
10
97.8655555412178
20
-0.0466704808466147
30
0
41
1
10
97.8868781369836
20
-0.0419815740153524
30
0
41
1
10
98.0765427831786
20
0.0028971480415692
30
0
41
1
10
98.2293210199049
20
0.0617086300746053
30
0
41
1
10
98.4353680707695
20
0.177588649015945
30
0
41
1
10
98.500230163398
20
0.220786153195888
30
0
41
1
10
98.5916929054313
20
0.292558315929313
30
0
41
1
10
98.6212058910307
20
0.31764844586462
30
0
41
1
10
98.6639919338048
20
0.35705852990921
30
0
41
1
10
98.6780178701409
20
0.370502489338662
30
0
41
1
10
98.7055054312439
20
0.397919580502418
30
0
41
1
10
98.7189669494184
20
0.411891427903299
30
0
41
1
10
98.73214820485
20
0.426124711811383
30
0
0
SPLINE
5
131
100
AcDbEntity
8
1
62
256
6
ByLayer
370
18
48
1
60
0
100
AcDbSpline
70
4
71
3
72
48
73
44
40
0
40
0
40
0
40
0
40
0.0312500000000205
40
0.0312500000000205
40
0.062500000000041
40
0.062500000000041
40
0.125000000000065
40
0.125000000000065
40
0.187500000000089
40
0.187500000000089
40
0.218750000000101
40
0.234375000000107
40
0.234375000000107
40
0.250000000000113
40
0.250000000000113
40
0.257812500000116
40
0.257812500000116
40
0.261718750000118
40
0.261718750000118
40
0.265625000000119
40
0.265625000000119
40
0.267578125000111
40
0.267578125000111
40
0.269531250000103
40
0.269531250000103
40
0.273437500000105
40
0.281250000000107
40
0.281250000000107
40
0.296875000000113
40
0.296875000000113
40
0.312500000000119
40
0.312500000000119
40
0.375000000000124
40
0.375000000000124
40
0.500000000000117
40
0.500000000000117
40
0.531250000000111
40
0.531250000000111
40
0.562500000000104
40
0.625000000000092
40
0.750000000000068
40
0.750000000000068
40
1
40
1
40
1
40
1
41
1
10
89.999999403383
20
2.66545886015825
30
0
41
1
10
90.0398578942015
20
2.64437027926635
30
0
41
1
10
90.0797168962645
20
2.62328556807446
30
0
41
1
10
90.159446586105
20
2.58114844569772
30
0
41
1
10
90.199352611831
20
2.56017807779824
30
0
41
1
10
90.3193614663105
20
2.49794789754049
30
0
41
1
10
90.3996981521723
20
2.45723678622451
30
0
41
1
10
90.5609631009554
20
2.37719551107685
30
0
41
1
10
90.641893679038
20
2.33787073132615
30
0
41
1
10
90.7636954072167
20
2.27982698905288
30
0
41
1
10
90.8246974772207
20
2.25104039542595
30
0
41
1
10
90.8858411096753
20
2.22258229765333
30
0
41
1
10
90.9266336644528
20
2.20368009961376
30
0
41
1
10
90.9470391698868
20
2.19425046410834
30
0
41
1
10
90.977696051231
20
2.18021839623569
30
0
41
1
10
90.9879244606904
20
2.17556287403568
30
0
41
1
10
91.003289911329
20
2.16863230573435
30
0
41
1
10
91.0084140866805
20
2.16632756328011
30
0
41
1
10
91.0186919373069
20
2.16178613173014
30
0
41
1
10
91.0238524123279
20
2.15956512350223
30
0
41
1
10
91.0315475588916
20
2.15612851355394
30
0
41
1
10
91.0340754570521
20
2.15489729120625
30
0
41
1
10
91.0391651280489
20
2.15251298502639
30
0
41
1
10
91.0417129950051
20
2.15132782665845
30
0
41
1
10
91.0493611937841
20
2.1477829631844
30
0
41
1
10
91.0646782595877
20
2.14074093426021
30
0
41
1
10
91.0800527813506
20
2.13383146995585
30
0
41
1
10
91.1108548342892
20
2.12013480255519
30
0
41
1
10
91.1314539208228
20
2.11115217778402
30
0
41
1
10
91.1726339636132
20
2.09314513020138
30
0
41
1
10
91.1932285108876
20
2.08415205585041
30
0
41
1
10
91.2962875849304
20
2.03938564763735
30
0
41
1
10
91.3790252708429
20
2.00424175204662
30
0
41
1
10
91.6281870211112
20
1.90098905067364
30
0
41
1
10
91.7955518905609
20
1.83504114704621
30
0
41
1
10
92.0066337237781
20
1.75689256372843
30
0
41
1
10
92.0489071821856
20
1.74149222428949
30
0
41
1
10
92.133263593137
20
1.71127458946583
30
0
41
1
10
92.2596441268503
20
1.666773579096
30
0
41
1
10
92.5534878029174
20
1.56881462039505
30
0
41
1
10
92.8036808634963
20
1.49523723474405
30
0
41
1
10
93.3021126997305
20
1.36270271886005
30
0
41
1
10
93.6318024728467
20
1.29391353120917
30
0
41
1
10
93.9592789134674
20
1.24710981551593
30
0
0
SPLINE
5
132
100
AcDbEntity
8
1
62
256
6
ByLayer
370
18
48
1
60
0
100
AcDbSpline
70
4
71
3
72
8
73
4
40
0
40
0
40
0
40
0
40
1
40
1
40
1
40
1
41
1
10
99.4998347036417
20
-0.151492935141022
30
0
41
1
10
99.5223815852709
20
-0.260468822911008
30
0
41
1
10
99.5450264772614
20
-0.369401671438823
30
0
41
1
10
99.5677587180613
20
-0.478296162621945
30
0
0
SPLINE
5
133
100
AcDbEntity
8
1
62
256
6
ByLayer
370
18
48
1
60
0
100
AcDbSpline
70
4
71
3
72
14
73
10
40
0
40
0
40
0
40
0
40
0.25
40
0.25
40
0.5
40
0.5
40
0.75
40
0.75
40
1
40
1
40
1
40
1
41
1
10
98.7321482048499
20
0.426124711811354
30
0
41
1
10
98.8014249392522
20
0.372073475839528
30
0
41
1
10
98.8693940235731
20
0.319494556732991
30
0
41
1
10
99.0026561768775
20
0.217315648880287
30
0
41
1
10
99.0679648940834
20
0.167703451021907
30
0
41
1
10
99.1959613241823
20
0.0714070750172198
30
0
41
1
10
99.2586696840996
20
0.0247079006575177
30
0
41
1
10
99.3813123035907
20
-0.0656539730681232
30
0
41
1
10
99.4412599238183
20
-0.1093269620184
30
0
41
1
10
99.4998347036442
20
-0.151492935161542
30
0
0
SPLINE
5
134
100
AcDbEntity
8
1
62
256
6
ByLayer
370
18
48
1
60
0
100
AcDbSpline
70
4
71
3
72
13
73
9
40
0
40
0
40
0
40
0
40
0.25
40
0.375
40
0.5
40
0.625
40
0.75
40
1
40
1
40
1
40
1
41
1
10
70.0000000000001
20
9.4752540633921
30
0
41
1
10
71.6666666666667
20
9.21187078117975
30
0
41
1
10
74.1666666666667
20
8.61654867588723
30
0
41
1
10
77.5
20
7.47876821067266
30
0
41
1
10
80.0000000000001
20
6.46783839885398
30
0
41
1
10
82.5
20
5.32309630304326
30
0
41
1
10
85.8333333333333
20
3.65025067852918
30
0
41
1
10
88.3333333333334
20
2.26721810115066
30
0
41
1
10
90
20
1.32682430211466
30
0
0
SPLINE
5
135
100
AcDbEntity
8
1
62
256
6
ByLayer
370
18
48
1
60
0
100
AcDbSpline
70
4
71
3
72
8
73
4
40
0
40
0
40
0
40
0
40
1
40
1
40
1
40
1
41
1
10
99.6419688516038
20
-1.1651975383339
30
0
41
1
10
99.5915644943411
20
-1.24715301428191
30
0
41
1
10
99.5359221824615
20
-1.32841984583513
30
0
41
1
10
99.4751099192001
20
-1.4090069735152
30
0
0
SPLINE
5
136
100
AcDbEntity
8
1
62
256
6
ByLayer
370
18
48
1
60
0
100
AcDbSpline
70
4
71
3
72
8
73
4
40
0
40
0
40
0
40
0
40
1
40
1
40
1
40
1
41
1
10
99.5677587177321
20
-0.478296161500936
30
0
41
1
10
99.5914411931882
20
-0.707340256404706
30
0
41
1
10
99.6162785754472
20
-0.936309463558416
30
0
41
1
10
99.6419688516038
20
-1.1651975383339
30
0
0
SPLINE
5
137
100
AcDbEntity
8
1
62
256
6
ByLayer
370
18
48
1
60
0
100
AcDbSpline
70
4
71
3
72
32
73
28
40
0
40
0
40
0
40
0
40
0.0015482821514936
40
0.0030962708936738
40
0.0061948741402714
40
0.0155222554240339
40
0.0373600163077168
40
0.0819325317324954
40
0.0878172457744496
40
0.0888550885164135
40
0.0901838290166046
40
0.0904616088762892
40
0.0906238877077204
40
0.0916637435844568
40
0.0950469384371745
40
0.100921470577796
40
0.108816986541478
40
0.152174262612655
40
0.282201215260415
40
0.438997682723476
40
0.562491467759732
40
0.685976978180923
40
0.765763668728495
40
0.841751255594322
40
0.877925083242916
40
0.912717227089265
40
1
40
1
40
1
40
1
41
1
10
89.9999980977141
20
1.32682052261933
30
0
41
1
10
90.0062941657464
20
1.32321481159011
30
0
41
1
10
90.0189026610578
20
1.31598547168804
30
0
41
1
10
90.0442039832682
20
1.30144249422685
30
0
41
1
10
90.1011092796705
20
1.26875597763643
30
0
41
1
10
90.2403350435906
20
1.18892495107161
30
0
41
1
10
90.5464619111861
20
1.01225844010543
30
0
41
1
10
90.8369142922433
20
0.843320793012765
30
0
41
1
10
91.0419085081809
20
0.724252510603549
30
0
41
1
10
91.0747274616141
20
0.705183839735952
30
0
41
1
10
91.08508749412
20
0.699177193468529
30
0
41
1
10
91.0922073867282
20
0.69502505505622
30
0
41
1
10
91.0982463917326
20
0.691367949796103
30
0
41
1
10
91.1168926765375
20
0.680116104467658
30
0
41
1
10
91.1585523220589
20
0.655015454130648
30
0
41
1
10
91.2276439454754
20
0.613763432802443
30
0
41
1
10
91.4578926096119
20
0.47779361885037
30
0
41
1
10
92.1868926340264
20
0.0662068444563886
30
0
41
1
10
93.488493616051
20
-0.559224421957225
30
0
41
1
10
95.0138370334168
20
-1.08924765617152
30
0
41
1
10
96.3875602198225
20
-1.37319768291925
30
0
41
1
10
97.3897592402561
20
-1.4282439932708
30
0
41
1
10
98.1514918744262
20
-1.34223420001331
30
0
41
1
10
98.6175454340428
20
-1.20630691530857
30
0
41
1
10
98.936655425024
20
-1.05475104114225
30
0
41
1
10
99.2515000371389
20
-0.856550242179566
30
0
41
1
10
99.4531516091938
20
-0.653867031504291
30
0
41
1
10
99.5677587144426
20
-0.478296160724369
30
0
0
SPLINE
5
138
100
AcDbEntity
8
1
62
256
6
ByLayer
370
18
48
1
60
0
100
AcDbSpline
70
4
71
3
72
8
73
4
40
0
40
0
40
0
40
0
40
1
40
1
40
1
40
1
41
1
10
92.187438928269
20
-0.682058400530963
30
0
41
1
10
92.1934417036406
20
-0.684917411468831
30
0
41
1
10
92.1994261367423
20
-0.68781897997394
30
0
41
1
10
92.2053912545868
20
-0.690762997018169
30
0
0
SPLINE
5
139
100
AcDbEntity
8
1
62
256
6
ByLayer
370
18
48
1
60
0
100
AcDbSpline
70
4
71
3
72
10
73
6
40
0
40
0
40
0
40
0
40
0.5
40
0.5
40
1
40
1
40
1
40
1
41
1
10
70.0000000000001
20
-5.85724830583916
30
0
41
1
10
69.7947582197738
20
-5.83237809569326
30
0
41
1
10
69.5901300309799
20
-5.81779928067203
30
0
41
1
10
69.1817610552865
20
-5.8094305561136
30
0
41
1
10
68.9780212110225
20
-5.81564040249512
30
0
41
1
10
68.7745228951945
20
-5.83265352579926
30
0
0
SPLINE
5
13A
100
AcDbEntity
8
1
62
256
6
ByLayer
370
18
48
1
60
0
100
AcDbSpline
70
4
71
3
72
8
73
4
40
0
40
0
40
0
40
0
40
1
40
1
40
1
40
1
41
1
10
70.1417936091785
20
-5.9246074767795
30
0
41
1
10
70.0944744605716
20
-5.90231274172805
30
0
41
1
10
70.0472095909264
20
-5.87986070210019
30
0
41
1
10
70.0000000000001
20
-5.85724830583916
30
0
0
SPLINE
5
13B
100
AcDbEntity
8
1
62
256
6
ByLayer
370
18
48
1
60
0
100
AcDbSpline
70
4
71
3
72
66
73
62
40
0
40
0
40
0
40
0
40
0.0103708034992696
40
0.0208948681309302
40
0.0315723521110352
40
0.0424034086733943
40
0.0533881863031123
40
0.0645268289499715
40
0.0758194762231494
40
0.0872662635686258
40
0.0988673224305444
40
0.110622780397637
40
0.122532761335761
40
0.1345973855075
40
0.146816769679675
40
0.158759544627632
40
0.170994333874073
40
0.183521325762147
40
0.196340698498963
40
0.209452620847549
40
0.222857252717136
40
0.236554745663909
40
0.250545243312571
40
0.264828881707674
40
0.279405789602371
40
0.294276088691253
40
0.309439893793021
40
0.324897312988009
40
0.340648447714923
40
0.356693392830611
40
0.373032236636215
40
0.389665060872642
40
0.40659194068795
40
0.423812944578935
40
0.441328134308951
40
0.459137564803736
40
0.477241284026891
40
0.495639332836395
40
0.514331744823455
40
0.53331854613483
40
0.552599755279666
40
0.572175382921751
40
0.592045431658047
40
0.612209895784254
40
0.63266876104809
40
0.653422004390926
40
0.67446959367835
40
0.695811487420192
40
0.717447634480495
40
0.739377973777891
40
0.761602433976795
40
0.784120933169817
40
0.806933378551753
40
0.830039666085509
40
0.853439680160275
40
0.877133293242271
40
0.901120365518362
40
0.925400744532812
40
0.949974264817473
40
0.974840747515665
40
1
40
1
40
1
40
1
41
1
10
70.1435455673267
20
-5.92178734895711
30
0
41
1
10
70.1419292473078
20
-5.90706508923873
30
0
41
1
10
70.1386727210747
20
-5.87740300226287
30
0
41
1
10
70.1339349058632
20
-5.83259989333953
30
0
41
1
10
70.1292581960303
20
-5.78715831452618
30
0
41
1
10
70.1246563043844
20
-5.74108097104431
30
0
41
1
10
70.120125477333
20
-5.69436925111646
30
0
41
1
10
70.1156667442993
20
-5.64702497887089
30
0
41
1
10
70.1112798211919
20
-5.59904993633128
30
0
41
1
10
70.1069647998672
20
-5.55044599618483
30
0
41
1
10
70.1027216061472
20
-5.50121508720457
30
0
41
1
10
70.0985504516588
20
-5.45135920629335
30
0
41
1
10
70.0944505546275
20
-5.40088041468127
30
0
41
1
10
70.0904248876951
20
-5.34978085032304
30
0
41
1
10
70.0865087892682
20
-5.29867143442149
30
0
41
1
10
70.0827247077273
20
-5.24735976339082
30
0
41
1
10
70.0790901854038
20
-5.19565445777184
30
0
41
1
10
70.0755348942009
20
-5.14275783155165
30
0
41
1
10
70.0720619606689
20
-5.08867378755019
30
0
41
1
10
70.0686705239328
20
-5.03340639248529
30
0
41
1
10
70.065360828929
20
-4.97695990482069
30
0
41
1
10
70.0621328135163
20
-4.91933877501899
30
0
41
1
10
70.0589865001794
20
-4.86054765359543
30
0
41
1
10
70.0559218875691
20
-4.80059139715303
30
0
41
1
10
70.0529389805619
20
-4.73947507511488
30
0
41
1
10
70.0500377819779
20
-4.67720397639789
30
0
41
1
10
70.0472182949002
20
-4.61378361623207
30
0
41
1
10
70.0444805220613
20
-4.54921974306455
30
0
41
1
10
70.0418244660356
20
-4.48351834556021
30
0
41
1
10
70.0392501292093
20
-4.41668565969093
30
0
41
1
10
70.0367575138062
20
-4.34872817591048
30
0
41
1
10
70.0343466219003
20
-4.2796526464106
30
0
41
1
10
70.0320174554266
20
-4.20946609245388
30
0
41
1
10
70.0297700161931
20
-4.13817581177935
30
0
41
1
10
70.0276043058904
20
-4.06578938607538
30
0
41
1
10
70.0255203261012
20
-3.99231468851573
30
0
41
1
10
70.0235180783076
20
-3.9177598913532
30
0
41
1
10
70.0215975638997
20
-3.84213347356555
30
0
41
1
10
70.0197587841818
20
-3.76544422854855
30
0
41
1
10
70.0180017403788
20
-3.68770127184993
30
0
41
1
10
70.0163264336414
20
-3.6089140489388
30
0
41
1
10
70.0147328650522
20
-3.52909234300358
30
0
41
1
10
70.0132210356298
20
-3.44824628277288
30
0
41
1
10
70.0117909463335
20
-3.36638635035172
30
0
41
1
10
70.010442598067
20
-3.28352338906703
30
0
41
1
10
70.0091759916822
20
-3.19966861131408
30
0
41
1
10
70.007991127983
20
-3.11483360639898
30
0
41
1
10
70.006888007727
20
-3.02903034836052
30
0
41
1
10
70.005866631633
20
-2.9422712037975
30
0
41
1
10
70.0049270003661
20
-2.8545689395628
30
0
41
1
10
70.0040691146081
20
-2.76593673081336
30
0
41
1
10
70.0032929747988
20
-2.67638816751096
30
0
41
1
10
70.0025985821343
20
-2.58593726658466
30
0
41
1
10
70.0019859347746
20
-2.49459846226816
30
0
41
1
10
70.0014550422828
20
-2.4023866791442
30
0
41
1
10
70.0010058707159
20
-2.30931709024261
30
0
41
1
10
70.0006385514173
20
-2.21540607231921
30
0
41
1
10
70.0003525873095
20
-2.12066760941352
30
0
41
1
10
70.000149869437
20
-2.02512699584506
30
0
41
1
10
70.0000232150196
20
-1.92876880286286
30
0
41
1
10
70.0000077684729
20
-1.86445552884089
30
0
41
1
10
70
20
-1.83211069885871
30
0
0
SPLINE
5
13C
100
AcDbEntity
8
1
62
256
6
ByLayer
370
18
48
1
60
0
100
AcDbSpline
70
4
71
3
72
34
73
30
40
0
40
0
40
0
40
0
40
0.125000000000002
40
0.125000000000002
40
0.250000000000005
40
0.250000000000005
40
0.375000000000007
40
0.375000000000007
40
0.437500000000007
40
0.437500000000007
40
0.468750000000006
40
0.468750000000006
40
0.500000000000005
40
0.500000000000005
40
0.625000000000002
40
0.625000000000002
40
0.687500000000001
40
0.687500000000001
40
0.749999999999999
40
0.749999999999999
40
0.781249999999999
40
0.781249999999999
40
0.812499999999998
40
0.812499999999998
40
0.874999999999999
40
0.874999999999999
40
0.937499999999999
40
0.937499999999999
40
1
40
1
40
1
40
1
41
1
10
68.7746533794393
20
-9.96650951611738
30
0
41
1
10
68.3443900038027
20
-9.98815539240985
30
0
41
1
10
67.9195785694725
20
-9.99991446904602
30
0
41
1
10
67.0823120210509
20
-10.0000846054821
30
0
41
1
10
66.6698573072271
20
-9.98851183019153
30
0
41
1
10
65.8589306922746
20
-9.93702991681675
30
0
41
1
10
65.4604597496252
20
-9.89714678731278
30
0
41
1
10
64.8745759372277
20
-9.81079277496323
30
0
41
1
10
64.6812528768811
20
-9.77756823920311
30
0
41
1
10
64.3944009989524
20
-9.720203753806
30
0
41
1
10
64.2992461577949
20
-9.69980863043179
30
0
41
1
10
64.1109639109429
20
-9.65657314765602
30
0
41
1
10
64.0177245294664
20
-9.63371233187345
30
0
41
1
10
63.5560998989772
20
-9.51292283111698
30
0
41
1
10
63.2014435003995
20
-9.39561725383371
30
0
41
1
10
62.6925039354672
20
-9.18257270914177
30
0
41
1
10
62.5266957679383
20
-9.10536150179541
30
0
41
1
10
62.2029081731419
20
-8.93730875056133
30
0
41
1
10
62.044928551334
20
-8.84646889567844
30
0
41
1
10
61.8139336241361
20
-8.69891009619991
30
0
41
1
10
61.7379192202475
20
-8.64783062548381
30
0
41
1
10
61.5879457733757
20
-8.5417322097241
30
0
41
1
10
61.5143370819456
20
-8.48696144333636
30
0
41
1
10
61.2975928776694
20
-8.31735027400114
30
0
41
1
10
61.1585389139901
20
-8.19721466939987
30
0
41
1
10
60.8910375604031
20
-7.94202870738491
30
0
41
1
10
60.7625893649108
20
-7.80697996244837
30
0
41
1
10
60.5160402310499
20
-7.52104200737881
30
0
41
1
10
60.3979382825074
20
-7.37015515297412
30
0
41
1
10
60.2849036638486
20
-7.2107879150675
30
0
0
SPLINE
5
13D
100
AcDbEntity
8
1
62
256
6
ByLayer
370
18
48
1
60
0
100
AcDbSpline
70
4
71
3
72
27
73
23
40
0
40
0
40
0
40
0
40
0.124999999999984
40
0.124999999999984
40
0.187499999999976
40
0.187499999999976
40
0.249999999999968
40
0.249999999999968
40
0.374999999999953
40
0.374999999999953
40
0.437499999999945
40
0.437499999999945
40
0.499999999999937
40
0.562499999999929
40
0.562499999999929
40
0.624999999999921
40
0.624999999999921
40
0.749999999999947
40
0.749999999999947
40
0.874999999999974
40
0.874999999999974
40
1
40
1
40
1
40
1
41
1
10
60.2849036638486
20
-7.21078791506753
30
0
41
1
10
60.2748570377438
20
-7.19662320100377
30
0
41
1
10
60.265944855966
20
-7.18213351713442
30
0
41
1
10
60.2547482407971
20
-7.1597857719843
30
0
41
1
10
60.2513800214316
20
-7.15223378227981
30
0
41
1
10
60.2454857314779
20
-7.13689393405514
30
0
41
1
10
60.2429518414754
20
-7.12907178470542
30
0
41
1
10
60.2369114230433
20
-7.10550047686905
30
0
41
1
10
60.2349322038969
20
-7.08965505940981
30
0
41
1
10
60.2358164030831
20
-7.06565756669423
30
0
41
1
10
60.2367689406283
20
-7.05756900693098
30
0
41
1
10
60.2400984140779
20
-7.04156172606244
30
0
41
1
10
60.2448151207721
20
-7.02581652033217
30
0
41
1
10
60.2523680866139
20
-7.01061412069859
30
0
41
1
10
60.2613833452338
20
-6.99569521648343
30
0
41
1
10
60.2666422124474
20
-6.98837165992811
30
0
41
1
10
60.2841081335276
20
-6.96744912917555
30
0
41
1
10
60.2981418940999
20
-6.95464476593611
30
0
41
1
10
60.3301664854122
20
-6.93114989363576
30
0
41
1
10
60.3476085662763
20
-6.9208333810393
30
0
41
1
10
60.3846095918683
20
-6.90233517753629
30
0
41
1
10
60.4041761221569
20
-6.8941608820777
30
0
41
1
10
60.4245921699913
20
-6.88684900374761
30
0
0
SPLINE
5
13E
100
AcDbEntity
8
1
62
256
6
ByLayer
370
18
48
1
60
0
100
AcDbSpline
70
4
71
3
72
43
73
39
40
0
40
0
40
0
40
0
40
0.0312500000000021
40
0.0312500000000021
40
0.0625000000000043
40
0.0625000000000043
40
0.0781250000000053
40
0.0781250000000053
40
0.0937500000000064
40
0.0937500000000064
40
0.125000000000004
40
0.125000000000004
40
0.187499999999998
40
0.187499999999998
40
0.218749999999998
40
0.218749999999998
40
0.249999999999997
40
0.249999999999997
40
0.312500000000002
40
0.312500000000002
40
0.343750000000002
40
0.343750000000002
40
0.375000000000001
40
0.375000000000001
40
0.437500000000001
40
0.437500000000001
40
0.5
40
0.5
40
0.625000000000004
40
0.625000000000004
40
0.656250000000005
40
0.656250000000005
40
0.687500000000006
40
0.750000000000003
40
0.750000000000003
40
0.875000000000001
40
0.875000000000001
40
1
40
1
40
1
40
1
41
1
10
60.4245921699913
20
-6.88684900374761
30
0
41
1
10
60.5014914230835
20
-6.85930802290522
30
0
41
1
10
60.5797448911824
20
-6.8343347836273
30
0
41
1
10
60.7384134085713
20
-6.78856533693636
30
0
41
1
10
60.8188318975539
20
-6.76777502611858
30
0
41
1
10
60.940813622474
20
-6.73924986709184
30
0
41
1
10
60.9817009711558
20
-6.73018677930642
30
0
41
1
10
61.0638946913172
20
-6.7128897656506
30
0
41
1
10
61.1052303919528
20
-6.70465045452303
30
0
41
1
10
61.229610061871
20
-6.68113768828508
30
0
41
1
10
61.3128867094675
20
-6.66708834477819
30
0
41
1
10
61.5636340233379
20
-6.62917015228865
30
0
41
1
10
61.7320142588478
20
-6.60949914761463
30
0
41
1
10
61.9860149949278
20
-6.58671542392574
30
0
41
1
10
62.0709226693056
20
-6.58025100551336
30
0
41
1
10
62.2411755828233
20
-6.5693890134402
30
0
41
1
10
62.3264873387015
20
-6.56499552891353
30
0
41
1
10
62.5822911014313
20
-6.55469814634873
30
0
41
1
10
62.7529012911588
20
-6.5516484849044
30
0
41
1
10
63.0089118295838
20
-6.55197816802269
30
0
41
1
10
63.0942646244462
20
-6.55290872468262
30
0
41
1
10
63.2650001045009
20
-6.55630641070707
30
0
41
1
10
63.3504264457767
20
-6.55877567088729
30
0
41
1
10
63.6062871109378
20
-6.56833440913647
30
0
41
1
10
63.7763765237435
20
-6.57756744687259
30
0
41
1
10
64.1156917591287
20
-6.60108118940295
30
0
41
1
10
64.2849171743813
20
-6.61536408496846
30
0
41
1
10
64.7914133836967
20
-6.66499468949564
30
0
41
1
10
65.1275092535784
20
-6.70709930246417
30
0
41
1
10
65.5459373308452
20
-6.76895666734356
30
0
41
1
10
65.6295344145339
20
-6.78179147426957
30
0
41
1
10
65.7963611289323
20
-6.8083104911438
30
0
41
1
10
66.046127772133
20
-6.84937482020845
30
0
41
1
10
66.2945230478658
20
-6.89408933966138
30
0
41
1
10
66.789599325467
20
-6.98787426858766
30
0
41
1
10
67.1175410154384
20
-7.05624265569455
30
0
41
1
10
67.7678425162387
20
-7.20173076845421
30
0
41
1
10
68.0903531752887
20
-7.2788773862373
30
0
41
1
10
68.4105368871416
20
-7.35923836290917
30
0
0
SPLINE
5
13F
100
AcDbEntity
8
1
62
256
6
ByLayer
370
18
48
1
60
0
100
AcDbSpline
70
4
71
3
72
28
73
24
40
0
40
0
40
0
40
0
40
0.124999999999997
40
0.124999999999997
40
0.249999999999994
40
0.249999999999994
40
0.312499999999993
40
0.312499999999993
40
0.374999999999992
40
0.437499999999991
40
0.437499999999991
40
0.49999999999999
40
0.49999999999999
40
0.562499999999989
40
0.562499999999989
40
0.624999999999987
40
0.624999999999987
40
0.749999999999984
40
0.874999999999981
40
0.874999999999981
40
0.937499999999991
40
0.937499999999991
40
1
40
1
40
1
40
1
41
1
10
69.1497310344139
20
-6.86374137446379
30
0
41
1
10
69.1589688013151
20
-6.91217506084757
30
0
41
1
10
69.1711926500647
20
-6.95982995146545
30
0
41
1
10
69.2022070114506
20
-7.05313028156567
30
0
41
1
10
69.2210082836989
20
-7.09878970774798
30
0
41
1
10
69.2544875636431
20
-7.16533095766118
30
0
41
1
10
69.2665347986548
20
-7.18720085054974
30
0
41
1
10
69.2923548326377
20
-7.23011171802997
30
0
41
1
10
69.3199247400136
20
-7.27224535732122
30
0
41
1
10
69.3511081573192
20
-7.31282101584011
30
0
41
1
10
69.3841623072108
20
-7.35261386044317
30
0
41
1
10
69.4015804772052
20
-7.37206191252415
30
0
41
1
10
69.4380977668581
20
-7.40994214460261
30
0
41
1
10
69.4572142396306
20
-7.42839545840601
30
0
41
1
10
69.4971773489258
20
-7.46434360809349
30
0
41
1
10
69.5180748914125
20
-7.48187743941219
30
0
41
1
10
69.5830084617782
20
-7.53276707398638
30
0
41
1
10
69.6751747626724
20
-7.59581430376139
30
0
41
1
10
69.7778100469524
20
-7.65018385125308
30
0
41
1
10
69.8584957683508
20
-7.68799149092351
30
0
41
1
10
69.8860096790354
20
-7.70009849433768
30
0
41
1
10
69.9422436995526
20
-7.72336210238186
30
0
41
1
10
69.97091661472
20
-7.7344973006191
30
0
41
1
10
70
20
-7.74511879486451
30
0
0
SPLINE
5
140
100
AcDbEntity
8
1
62
256
6
ByLayer
370
18
48
1
60
0
100
AcDbSpline
70
4
71
3
72
20
73
16
40
0
40
0
40
0
40
0
40
0.124999999999999
40
0.124999999999999
40
0.249999999999998
40
0.249999999999998
40
0.374999999999998
40
0.374999999999998
40
0.499999999999996
40
0.499999999999996
40
0.624999999999994
40
0.624999999999994
40
0.749999999999992
40
0.749999999999992
40
1
40
1
40
1
40
1
41
1
10
68.7745228951941
20
-5.8326535257994
30
0
41
1
10
68.7788738318741
20
-5.87989974839758
30
0
41
1
10
68.7844765307872
20
-5.92680729088721
30
0
41
1
10
68.7983062916527
20
-6.01973071701983
30
0
41
1
10
68.8065296704582
20
-6.06573538627424
30
0
41
1
10
68.8257435867799
20
-6.15682557184329
30
0
41
1
10
68.8367386151905
20
-6.20191758421649
30
0
41
1
10
68.8615900497421
20
-6.29091165670258
30
0
41
1
10
68.8754524193405
20
-6.33484675057736
30
0
41
1
10
68.9062154674644
20
-6.42158524043001
30
0
41
1
10
68.9230793265542
20
-6.46428354918115
30
0
41
1
10
68.9599066510293
20
-6.54831792922448
30
0
41
1
10
68.9798982628745
20
-6.58970497946353
30
0
41
1
10
69.0445287108587
20
-6.71137821530769
30
0
41
1
10
69.0937990793039
20
-6.78919582966907
30
0
41
1
10
69.1497310344147
20
-6.86374137446276
30
0
0
SPLINE
5
141
100
AcDbEntity
8
1
62
256
6
ByLayer
370
18
48
1
60
0
100
AcDbSpline
70
4
71
3
72
34
73
30
40
0
40
0
40
0
40
0
40
0.124999999999999
40
0.124999999999999
40
0.249999999999999
40
0.249999999999999
40
0.374999999999998
40
0.374999999999998
40
0.406249999999998
40
0.421874999999999
40
0.421874999999999
40
0.437500000000001
40
0.437500000000001
40
0.499999999999998
40
0.499999999999998
40
0.624999999999995
40
0.624999999999995
40
0.687499999999994
40
0.687499999999994
40
0.718749999999994
40
0.734374999999994
40
0.734374999999994
40
0.749999999999994
40
0.749999999999994
40
0.874999999999997
40
0.874999999999997
40
0.937499999999998
40
0.937499999999998
40
1
40
1
40
1
40
1
41
1
10
68.7745228951944
20
-5.83265352579949
30
0
41
1
10
68.3456536402111
20
-5.61731090643178
30
0
41
1
10
67.9225890422852
20
-5.39008897973031
30
0
41
1
10
67.0897569328357
20
-4.90795228715049
30
0
41
1
10
66.6799894269728
20
-4.65304690983197
30
0
41
1
10
65.8756749784362
20
-4.110549177949
30
0
41
1
10
65.4811284735175
20
-3.82297172266942
30
0
41
1
10
64.9988039924759
20
-3.43905889477614
30
0
41
1
10
64.8549218538604
20
-3.32204569052317
30
0
41
1
10
64.7123027442349
20
-3.20213964386298
30
0
41
1
10
64.6175085756227
20
-3.1215435644969
30
0
41
1
10
64.5702231073693
20
-3.08088909601895
30
0
41
1
10
64.3349520999378
20
-2.87630664479511
30
0
41
1
10
64.1505638518245
20
-2.70857145717207
30
0
41
1
10
63.6092558391125
20
-2.19259291141557
30
0
41
1
10
63.2642027491084
20
-1.83158299949142
30
0
41
1
10
62.7716627361648
20
-1.26218614430317
30
0
41
1
10
62.611653423165
20
-1.06773897929744
30
0
41
1
10
62.3780397775877
20
-0.768781323472126
30
0
41
1
10
62.2628328617561
20
-0.617480459631025
30
0
41
1
10
62.1500517329488
20
-0.463383835706367
30
0
41
1
10
62.0754062222291
20
-0.360024164000464
30
0
41
1
10
62.0383214431024
20
-0.307982857220424
30
0
41
1
10
61.7078030235147
20
0.16211784935112
30
0
41
1
10
61.4379989152833
20
0.59087581653975
30
0
41
1
10
61.0672548182487
20
1.2485145506092
30
0
41
1
10
60.9493344913928
20
1.47014325358657
30
0
41
1
10
60.7245268268996
20
1.91792735302917
30
0
41
1
10
60.6176381812372
20
2.14408233072757
30
0
41
1
10
60.5161580104548
20
2.37235563510265
30
0
0
SPLINE
5
142
100
AcDbEntity
8
1
62
256
6
ByLayer
370
18
48
1
60
0
100
AcDbSpline
70
4
71
3
72
29
73
25
40
0
40
0
40
0
40
0
40
0.124999999999988
40
0.124999999999988
40
0.187499999999984
40
0.187499999999984
40
0.249999999999979
40
0.249999999999979
40
0.374999999999975
40
0.374999999999975
40
0.437499999999972
40
0.437499999999972
40
0.499999999999968
40
0.499999999999968
40
0.624999999999961
40
0.624999999999961
40
0.687499999999957
40
0.687499999999957
40
0.749999999999952
40
0.812499999999947
40
0.812499999999947
40
0.874999999999943
40
0.874999999999943
40
1
40
1
40
1
40
1
41
1
10
60.5161580104548
20
2.37235563510265
30
0
41
1
10
60.5079143749924
20
2.39089917806828
30
0
41
1
10
60.5007490341771
20
2.40974283415693
30
0
41
1
10
60.4920199838508
20
2.4385727689172
30
0
41
1
10
60.4894484297645
20
2.44827729003342
30
0
41
1
10
60.4850761496606
20
2.46790237431003
30
0
41
1
10
60.4832699435449
20
2.47786855900213
30
0
41
1
10
60.4792359147487
20
2.50776744008351
30
0
41
1
10
60.4783759476037
20
2.52763524793957
30
0
41
1
10
60.4803215400649
20
2.5573271119066
30
0
41
1
10
60.4815112305396
20
2.56720604211657
30
0
41
1
10
60.4850855113592
20
2.5869242707399
30
0
41
1
10
60.4874953350239
20
2.59681943112238
30
0
41
1
10
60.4964082960906
20
2.62556167917029
30
0
41
1
10
60.5046073039264
20
2.64371558520932
30
0
41
1
10
60.5201562223074
20
2.66950116305688
30
0
41
1
10
60.5259130810527
20
2.67789421075682
30
0
41
1
10
60.5383553077237
20
2.69401778813901
30
0
41
1
10
60.5516245130298
20
2.70937100443757
30
0
41
1
10
60.5663752113873
20
2.72334583777317
30
0
41
1
10
60.5817982825424
20
2.73669584421515
30
0
41
1
10
60.589871739517
20
2.74307598123323
30
0
41
1
10
60.6147949066722
20
2.76119937700511
30
0
41
1
10
60.6323286982842
20
2.77194301146699
30
0
41
1
10
60.6505881844097
20
2.7816308389248
30
0
0
SPLINE
5
143
100
AcDbEntity
8
1
62
256
6
ByLayer
370
18
48
1
60
0
100
AcDbSpline
70
4
71
3
72
40
73
36
40
0
40
0
40
0
40
0
40
0.0312499999999968
40
0.0312499999999968
40
0.0624999999999935
40
0.0624999999999935
40
0.0937499999999903
40
0.0937499999999903
40
0.124999999999987
40
0.124999999999987
40
0.18749999999998
40
0.18749999999998
40
0.218749999999977
40
0.218749999999977
40
0.249999999999974
40
0.249999999999974
40
0.312499999999973
40
0.312499999999973
40
0.343749999999972
40
0.343749999999972
40
0.374999999999971
40
0.374999999999971
40
0.437499999999975
40
0.437499999999975
40
0.499999999999979
40
0.499999999999979
40
0.624999999999987
40
0.624999999999987
40
0.749999999999995
40
0.749999999999995
40
0.812499999999996
40
0.812499999999996
40
0.874999999999997
40
0.874999999999997
40
1
40
1
40
1
40
1
41
1
10
60.6505881844097
20
2.78163083892483
30
0
41
1
10
60.7239663164944
20
2.82056264006781
30
0
41
1
10
60.7988894066712
20
2.85575590699818
30
0
41
1
10
60.9511926659865
20
2.92023187782885
30
0
41
1
10
61.0285768766416
20
2.94950452387857
30
0
41
1
10
61.1853917056763
20
3.00315366527414
30
0
41
1
10
61.2648453618202
20
3.02753089503625
30
0
41
1
10
61.4254248710128
20
3.07207695234092
30
0
41
1
10
61.5061483252604
20
3.09213496391286
30
0
41
1
10
61.7494284232174
20
3.14666741733944
30
0
41
1
10
61.9130850159992
20
3.17555200360701
30
0
41
1
10
62.1602879950732
20
3.21021290590664
30
0
41
1
10
62.2429783156484
20
3.22030645921777
30
0
41
1
10
62.4088834705149
20
3.2378540520817
30
0
41
1
10
62.4920433848417
20
3.24529983798561
30
0
41
1
10
62.7415053563499
20
3.26397167037842
30
0
41
1
10
62.9080269318094
20
3.27157691167685
30
0
41
1
10
63.1580818865832
20
3.27681975085528
30
0
41
1
10
63.2414791892001
20
3.27753465151767
30
0
41
1
10
63.4083592377319
20
3.27703202829937
30
0
41
1
10
63.4918673847211
20
3.2758127175187
30
0
41
1
10
63.74197024739
20
3.26943902059941
30
0
41
1
10
63.9083172182979
20
3.26157908130122
30
0
41
1
10
64.2403200682797
20
3.2394156048488
30
0
41
1
10
64.4059756062649
20
3.22510877791692
30
0
41
1
10
64.9019983051506
20
3.17334427424098
30
0
41
1
10
65.2314690158537
20
3.12707798591623
30
0
41
1
10
65.8880660114811
20
3.01392688619603
30
0
41
1
10
66.2139833707538
20
2.947231411937
30
0
41
1
10
66.6997247490259
20
2.83357492251611
30
0
41
1
10
66.8611238725331
20
2.79341098329817
30
0
41
1
10
67.1828942153671
20
2.7087392372575
30
0
41
1
10
67.3431066623608
20
2.66427330076132
30
0
41
1
10
67.8218427312854
20
2.52477785732754
30
0
41
1
10
68.1384666711095
20
2.42365557081732
30
0
41
1
10
68.4528368071647
20
2.31508830068674
30
0
0
SPLINE
5
144
100
AcDbEntity
8
1
62
256
6
ByLayer
370
18
48
1
60
0
100
AcDbSpline
70
4
71
3
72
28
73
24
40
0
40
0
40
0
40
0
40
0.125000000000006
40
0.125000000000006
40
0.250000000000012
40
0.250000000000012
40
0.312500000000011
40
0.312500000000011
40
0.37500000000001
40
0.437500000000009
40
0.437500000000009
40
0.500000000000008
40
0.500000000000008
40
0.562500000000006
40
0.562500000000006
40
0.625000000000005
40
0.625000000000005
40
0.750000000000003
40
0.875000000000001
40
0.875000000000001
40
0.937500000000001
40
0.937500000000001
40
1
40
1
40
1
40
1
41
1
10
69.1497310344202
20
3.03305182995382
30
0
41
1
10
69.1589688013215
20
2.96959052834276
30
0
41
1
10
69.1711926500657
20
2.90634690342301
30
0
41
1
10
69.2022070114519
20
2.7809823639227
30
0
41
1
10
69.2210082837003
20
2.7188416453568
30
0
41
1
10
69.2544875636446
20
2.62717844612931
30
0
41
1
10
69.2665347986562
20
2.59686289033039
30
0
41
1
10
69.2923548326392
20
2.53702370032713
30
0
41
1
10
69.3199247400151
20
2.47790551873118
30
0
41
1
10
69.3511081573207
20
2.42029245613813
30
0
41
1
10
69.3841623072123
20
2.3634668044277
30
0
41
1
10
69.4015804772068
20
2.33552872801607
30
0
41
1
10
69.4380977668596
20
2.28081138021679
30
0
41
1
10
69.457214239632
20
2.25400195224393
30
0
41
1
10
69.4971773489273
20
2.20149804324427
30
0
41
1
10
69.5180748914138
20
2.17574589274216
30
0
41
1
10
69.5830084617794
20
2.10062338501464
30
0
41
1
10
69.6751747626734
20
2.00651802411204
30
0
41
1
10
69.7778100469531
20
1.92384699235944
30
0
41
1
10
69.8584957683512
20
1.86592255514316
30
0
41
1
10
69.8860096790357
20
1.84729465523023
30
0
41
1
10
69.9422436995528
20
1.81136923436395
30
0
41
1
10
69.9709166147201
20
1.79410463782293
30
0
41
1
10
70.0000000000001
20
1.77758075208962
30
0
0
SPLINE
5
145
100
AcDbEntity
8
1
62
256
6
ByLayer
370
18
48
1
60
0
100
AcDbSpline
70
4
71
3
72
20
73
16
40
0
40
0
40
0
40
0
40
0.125000000000001
40
0.125000000000001
40
0.250000000000001
40
0.250000000000001
40
0.375000000000001
40
0.375000000000001
40
0.5
40
0.5
40
0.625
40
0.625
40
0.75
40
0.75
40
1
40
1
40
1
40
1
41
1
10
68.7746533794389
20
4.27507677982172
30
0
41
1
10
68.7790237569376
20
4.22256219135662
30
0
41
1
10
68.7846435611217
20
4.16987744385111
30
0
41
1
10
68.7985017333233
20
4.06442603656524
30
0
41
1
10
68.8067366573887
20
4.01167079389037
30
0
41
1
10
68.8259679995048
20
3.90612933069366
30
0
41
1
10
68.8369686091088
20
3.85333592652876
30
0
41
1
10
68.8618248699441
20
3.74806505998367
30
0
41
1
10
68.8756865475697
20
3.69554950850656
30
0
41
1
10
68.9064415408272
20
3.59080593350086
30
0
41
1
10
68.923297240757
20
3.53870721323847
30
0
41
1
10
68.9601018538273
20
3.43512905609745
30
0
41
1
10
68.9800784869152
20
3.38358658664163
30
0
41
1
10
69.0446515327431
20
3.23054351642605
30
0
41
1
10
69.0938687714121
20
3.13060506316538
30
0
41
1
10
69.149731034417
20
3.03305182995428
30
0
0
SPLINE
5
146
100
AcDbEntity
8
1
62
256
6
ByLayer
370
18
48
1
60
0
100
AcDbSpline
70
4
71
3
72
34
73
30
40
0
40
0
40
0
40
0
40
0.125000000000003
40
0.125000000000003
40
0.250000000000007
40
0.250000000000007
40
0.37500000000001
40
0.37500000000001
40
0.437500000000011
40
0.437500000000011
40
0.46875000000001
40
0.46875000000001
40
0.500000000000009
40
0.500000000000009
40
0.625000000000006
40
0.625000000000006
40
0.687500000000005
40
0.687500000000005
40
0.750000000000005
40
0.750000000000005
40
0.781250000000003
40
0.781250000000003
40
0.812500000000002
40
0.812500000000002
40
0.875000000000001
40
0.875000000000001
40
0.937500000000001
40
0.937500000000001
40
1
40
1
40
1
40
1
41
1
10
68.7746533794394
20
4.27507677982157
30
0
41
1
10
68.344390003803
20
4.51437388549687
30
0
41
1
10
67.9195785694731
20
4.75515494187732
30
0
41
1
10
67.0823120210518
20
5.23957542375155
30
0
41
1
10
66.6698573072283
20
5.48322402528592
30
0
41
1
10
65.8589306922763
20
5.97272787079623
30
0
41
1
10
65.4604597496271
20
6.2185982703094
30
0
41
1
10
64.87457593723
20
6.58788966122199
30
0
41
1
10
64.6812528768835
20
6.71105930972064
30
0
41
1
10
64.3944009989549
20
6.89567515771509
30
0
41
1
10
64.2992461577975
20
6.95722943361758
30
0
41
1
10
64.1109639109456
20
7.07961530101829
30
0
41
1
10
64.0177245294692
20
7.14051853578255
30
0
41
1
10
63.5560998989802
20
7.44341003266209
30
0
41
1
10
63.2014435004027
20
7.68060232324501
30
0
41
1
10
62.6925039354706
20
8.02444638740641
30
0
41
1
10
62.526695767942
20
8.1370551314975
30
0
41
1
10
62.2029081731457
20
8.35733409749207
30
0
41
1
10
62.044928551338
20
8.46500559506853
30
0
41
1
10
61.8139336241402
20
8.62197808381669
30
0
41
1
10
61.7379192202516
20
8.67355285368043
30
0
41
1
10
61.5879457733799
20
8.77499596265417
30
0
41
1
10
61.5143370819499
20
8.82462701244225
30
0
41
1
10
61.2975928776737
20
8.9700587515764
30
0
41
1
10
61.1585389139946
20
9.06240207306129
30
0
41
1
10
60.8910375604077
20
9.23676591116808
30
0
41
1
10
60.7625893649155
20
9.31878776794983
30
0
41
1
10
60.5160402310547
20
9.47126504994992
30
0
41
1
10
60.3979382825123
20
9.54172254260939
30
0
41
1
10
60.2849036638535
20
9.60567755357593
30
0
0
SPLINE
5
147
100
AcDbEntity
8
1
62
256
6
ByLayer
370
18
48
1
60
0
100
AcDbSpline
70
4
71
3
72
27
73
23
40
0
40
0
40
0
40
0
40
0.125000000000003
40
0.125000000000003
40
0.187500000000004
40
0.187500000000004
40
0.250000000000005
40
0.250000000000005
40
0.375000000000006
40
0.375000000000006
40
0.437500000000004
40
0.437500000000004
40
0.500000000000003
40
0.562500000000002
40
0.562500000000002
40
0.625000000000001
40
0.625000000000001
40
0.750000000000001
40
0.750000000000001
40
0.875
40
0.875
40
1
40
1
40
1
40
1
41
1
10
60.2849036638535
20
9.60567755357593
30
0
41
1
10
60.2748570377487
20
9.61136193673514
30
0
41
1
10
60.2659448559709
20
9.61709869749077
30
0
41
1
10
60.254748240802
20
9.6258160045146
30
0
41
1
10
60.2513800214365
20
9.62874062531887
30
0
41
1
10
60.2454857314827
20
9.63463595644836
30
0
41
1
10
60.2429518414803
20
9.63761958637417
30
0
41
1
10
60.2369114230482
20
9.64653994458038
30
0
41
1
10
60.2349322039018
20
9.6524438859515
30
0
41
1
10
60.235816403088
20
9.66124280435997
30
0
41
1
10
60.2367689406331
20
9.66418467718819
30
0
41
1
10
60.2400984140828
20
9.66995982049787
30
0
41
1
10
60.2448151207769
20
9.67559376959713
30
0
41
1
10
60.2523680866187
20
9.68094865758425
30
0
41
1
10
60.2613833452385
20
9.68616468383308
30
0
41
1
10
60.2666422124522
20
9.68870496564003
30
0
41
1
10
60.2841081335324
20
9.69591211288011
30
0
41
1
10
60.2981418941047
20
9.70025472710367
30
0
41
1
10
60.3301664854169
20
9.70813617510598
30
0
41
1
10
60.347608566281
20
9.71155033363289
30
0
41
1
10
60.384609591873
20
9.71762190224177
30
0
41
1
10
60.4041761221617
20
9.72027624317491
30
0
41
1
10
60.424592169996
20
9.72263489010584
30
0
0
SPLINE
5
148
100
AcDbEntity
8
1
62
256
6
ByLayer
370
18
48
1
60
0
100
AcDbSpline
70
4
71
3
72
43
73
39
40
0
40
0
40
0
40
0
40
0.0312500000000024
40
0.0312500000000024
40
0.0625000000000048
40
0.0625000000000048
40
0.0781250000000036
40
0.0781250000000036
40
0.0937500000000024
40
0.0937500000000024
40
0.125
40
0.125
40
0.187499999999995
40
0.187499999999995
40
0.218749999999995
40
0.218749999999995
40
0.249999999999995
40
0.249999999999995
40
0.31249999999999
40
0.31249999999999
40
0.34374999999999
40
0.34374999999999
40
0.37499999999999
40
0.37499999999999
40
0.437499999999985
40
0.437499999999985
40
0.49999999999998
40
0.49999999999998
40
0.624999999999965
40
0.624999999999965
40
0.656249999999965
40
0.656249999999965
40
0.687499999999965
40
0.74999999999997
40
0.74999999999997
40
0.874999999999985
40
0.874999999999985
40
1
40
1
40
1
40
1
41
1
10
60.4245921699961
20
9.72263489010584
30
0
41
1
10
60.5014914230882
20
9.73151898896614
30
0
41
1
10
60.579744891187
20
9.73932159716361
30
0
41
1
10
60.7384134085759
20
9.75331311711815
30
0
41
1
10
60.8188318975584
20
9.75949838429443
30
0
41
1
10
60.9408136224785
20
9.76782842693669
30
0
41
1
10
60.9817009711602
20
9.77044597677661
30
0
41
1
10
61.0638946913215
20
9.77539616588544
30
0
41
1
10
61.1052303919571
20
9.77773029194478
30
0
41
1
10
61.2296100618752
20
9.78433587327092
30
0
41
1
10
61.3128867094717
20
9.7882064246399
30
0
41
1
10
61.563634023342
20
9.79852195683111
30
0
41
1
10
61.7320142588516
20
9.80368771277497
30
0
41
1
10
61.9860149949314
20
9.80960367769291
30
0
41
1
10
62.0709226693094
20
9.81126508832935
30
0
41
1
10
62.2411755828271
20
9.81404248019808
30
0
41
1
10
62.3264873387052
20
9.81515731444767
30
0
41
1
10
62.5822911014349
20
9.81776276238509
30
0
41
1
10
62.7529012911623
20
9.81852450008057
30
0
41
1
10
63.0089118295873
20
9.818441726575
30
0
41
1
10
63.0942646244496
20
9.81820827314124
30
0
41
1
10
63.2650001045042
20
9.81735334617147
30
0
41
1
10
63.3504264457799
20
9.81673130555916
30
0
41
1
10
63.606287110941
20
9.81431198132796
30
0
41
1
10
63.7763765237465
20
9.81196454896656
30
0
41
1
10
64.1156917591316
20
9.8058829046316
30
0
41
1
10
64.2849171743841
20
9.80214775939706
30
0
41
1
10
64.7914133836993
20
9.7888779147307
30
0
41
1
10
65.1275092535807
20
9.77729416534291
30
0
41
1
10
65.5459373308475
20
9.75912580921829
30
0
41
1
10
65.6295344145361
20
9.75530641449271
30
0
41
1
10
65.7963611289344
20
9.74729533251306
30
0
41
1
10
66.0461277721351
20
9.73471674864922
30
0
41
1
10
66.2945230478676
20
9.72040562036133
30
0
41
1
10
66.7895993254686
20
9.68932605163269
30
0
41
1
10
67.11754101544
20
9.66531531069532
30
0
41
1
10
67.7678425162398
20
9.60997311742378
30
0
41
1
10
68.0903531752898
20
9.57863253906555
30
0
41
1
10
68.4105368871425
20
9.54316828062758
30
0
0
SPLINE
5
149
100
AcDbEntity
8
1
62
256
6
ByLayer
370
18
48
1
60
0
100
AcDbSpline
70
4
71
3
72
28
73
24
40
0
40
0
40
0
40
0
40
0.125000000000001
40
0.125000000000001
40
0.250000000000001
40
0.250000000000001
40
0.312500000000001
40
0.312500000000001
40
0.375000000000001
40
0.437500000000001
40
0.437500000000001
40
0.5
40
0.5
40
0.5625
40
0.5625
40
0.625
40
0.625
40
0.75
40
0.875
40
0.875
40
0.9375
40
0.9375
40
1
40
1
40
1
40
1
41
1
10
69.1497310344118
20
9.73002841456523
30
0
41
1
10
69.158968801313
20
9.71465793180295
30
0
41
1
10
69.1711926500643
20
9.698739731313
30
0
41
1
10
69.2022070114502
20
9.66604565456007
30
0
41
1
10
69.2210082836984
20
9.64926387651914
30
0
41
1
10
69.2544875636426
20
9.6237148574796
30
0
41
1
10
69.2665347986542
20
9.61513068731216
30
0
41
1
10
69.292354832637
20
9.59793410905834
30
0
41
1
10
69.3199247400131
20
9.58068973518402
30
0
41
1
10
69.3511081573187
20
9.56340879812595
30
0
41
1
10
69.3841623072102
20
9.54614034116213
30
0
41
1
10
69.4015804772046
20
9.53753677376264
30
0
41
1
10
69.4380977668575
20
9.52048145609751
30
0
41
1
10
69.45721423963
20
9.51202055767132
30
0
41
1
10
69.4971773489253
20
9.49526339974378
30
0
41
1
10
69.518074891412
20
9.48694825475533
30
0
41
1
10
69.5830084617777
20
9.4624380942688
30
0
41
1
10
69.675174762672
20
9.43104661156238
30
0
41
1
10
69.777810046952
20
9.40247257511285
30
0
41
1
10
69.8584957683505
20
9.38217053807628
30
0
41
1
10
69.8860096790351
20
9.37559109896608
30
0
41
1
10
69.9422436995525
20
9.36281809269948
30
0
41
1
10
69.97091661472
20
9.35663614718572
30
0
41
1
10
70
20
9.35068418061087
30
0
0
SPLINE
5
14A
100
AcDbEntity
8
1
62
256
6
ByLayer
370
18
48
1
60
0
100
AcDbSpline
70
4
71
3
72
20
73
16
40
0
40
0
40
0
40
0
40
0.125
40
0.125
40
0.25
40
0.25
40
0.375
40
0.375
40
0.5
40
0.5
40
0.625
40
0.625
40
0.75
40
0.75
40
1
40
1
40
1
40
1
41
1
10
68.7745228951941
20
9.95089246633742
30
0
41
1
10
68.7788738318741
20
9.94513520877985
30
0
41
1
10
68.7844765307872
20
9.93887736630114
30
0
41
1
10
68.7983062916527
20
9.92540211994682
30
0
41
1
10
68.8065296704581
20
9.91818713709097
30
0
41
1
10
68.8257435867798
20
9.9028253859874
30
0
41
1
10
68.8367386151905
20
9.89467639182124
30
0
41
1
10
68.8615900497419
20
9.87752519901164
30
0
41
1
10
68.8754524193404
20
9.86851773489965
30
0
41
1
10
68.9062154674643
20
9.84967885069855
30
0
41
1
10
68.9230793265539
20
9.83987018076431
30
0
41
1
10
68.9599066510291
20
9.81953483359516
30
0
41
1
10
68.9798982628743
20
9.80899423577333
30
0
41
1
10
69.0445287108583
20
9.77650352153518
30
0
41
1
10
69.0937990793031
20
9.75368552383731
30
0
41
1
10
69.1497310344136
20
9.73002841456477
30
0
0
SPLINE
5
14B
100
AcDbEntity
8
1
62
256
6
ByLayer
370
18
48
1
60
0
100
AcDbSpline
70
4
71
3
72
10
73
6
40
0
40
0
40
0
40
0
40
0.834985637479783
40
0.834985637479783
40
1
40
1
40
1
40
1
41
1
10
68.7745228951944
20
9.95089246633739
30
0
41
1
10
68.3456536402111
20
9.97713335618306
30
0
41
1
10
67.9225890422852
20
9.99364131092378
30
0
41
1
10
67.4238786022091
20
9.99946561012098
30
0
41
1
10
67.3418438812185
20
9.99997266758547
30
0
41
1
10
67.2600762476426
20
10.0000046457153
30
0
0
SPLINE
5
14C
100
AcDbEntity
8
1
62
256
6
ByLayer
370
18
48
1
60
0
100
AcDbSpline
70
4
71
3
72
8
73
4
40
0
40
0
40
0
40
0
40
1
40
1
40
1
40
1
41
1
10
91.9911762781089
20
-0.606465775751275
30
0
41
1
10
92.0586197310851
20
-0.626445757272961
30
0
41
1
10
92.1239754812954
20
-0.651839400936979
30
0
41
1
10
92.187438928269
20
-0.682058400530991
30
0
0
SPLINE
5
14D
100
AcDbEntity
8
1
62
256
6
ByLayer
370
18
48
1
60
0
100
AcDbSpline
70
4
71
3
72
24
73
20
40
0
40
0
40
0
40
0
40
0.0088824973537275
40
0.0177604071020712
40
0.0355312856747892
40
0.08902498816064
40
0.214267288022715
40
0.469896258967636
40
0.503645832679458
40
0.509597991080269
40
0.517218484639578
40
0.518811587003303
40
0.51974227647168
40
0.525705980453111
40
0.545109027610409
40
0.57880020684
40
0.624081981979693
40
0.872741402688272
40
1
40
1
40
1
40
1
41
1
10
89.9999999663014
20
0.537113123719166
30
0
41
1
10
90.0063930753917
20
0.533427726506261
30
0
41
1
10
90.0192081406779
20
0.526040137104815
30
0
41
1
10
90.0449823226542
20
0.511181280382431
30
0
41
1
10
90.1028869881202
20
0.477791704216145
30
0
41
1
10
90.2442189427856
20
0.396274437629387
30
0
41
1
10
90.5555329737979
20
0.216041290771983
30
0
41
1
10
90.8518716492288
20
0.0440280983227694
30
0
41
1
10
91.0615529451362
20
-0.0770340606488276
30
0
41
1
10
91.0951219015969
20
-0.0963984316727817
30
0
41
1
10
91.1056466459569
20
-0.102469211196194
30
0
41
1
10
91.1129682469032
20
-0.106689476950464
30
0
41
1
10
91.1194362149632
20
-0.110418774649588
30
0
41
1
10
91.1393473818958
20
-0.121879787005867
30
0
41
1
10
91.1838455554537
20
-0.147408270941639
30
0
41
1
10
91.2574168790866
20
-0.189252408839224
30
0
41
1
10
91.5026702978272
20
-0.327129120442123
30
0
41
1
10
91.8165688068069
20
-0.495568845119152
30
0
41
1
10
92.093903589556
20
-0.635755960658514
30
0
41
1
10
92.187438928269
20
-0.682058400530963
30
0
0
SPLINE
5
14E
100
AcDbEntity
8
1
62
256
6
ByLayer
370
13
48
1
60
0
100
AcDbSpline
70
4
71
3
72
8
73
4
40
0
40
0
40
0
40
0
40
1
40
1
40
1
40
1
41
1
10
73.6997438241659
20
-0.349036759604331
30
0
41
1
10
72.4664958827773
20
0.312753634117257
30
0
41
1
10
71.2332479413886
20
0.977216261507891
30
0
41
1
10
70
20
1.62918531278461
30
0
0
SPLINE
5
14F
100
AcDbEntity
8
1
62
256
6
ByLayer
370
18
48
1
60
0
100
AcDbSpline
70
4
71
3
72
20
73
16
40
0
40
0
40
0
40
0
40
0.25
40
0.25
40
0.375
40
0.375
40
0.5
40
0.5
40
0.75
40
0.75
40
0.874999999999999
40
0.874999999999999
40
0.9375
40
0.9375
40
1
40
1
40
1
40
1
41
1
10
91.9912142814179
20
-8.69664669784922
30
0
41
1
10
91.8261899378888
20
-8.68266166976608
30
0
41
1
10
91.6611653455169
20
-8.66331970975165
30
0
41
1
10
91.413374426022
20
-8.6265435971352
30
0
41
1
10
91.3307335016321
20
-8.6129757066557
30
0
41
1
10
91.1653319968396
20
-8.58335663794193
30
0
41
1
10
91.0825616684737
20
-8.56722212270361
30
0
41
1
10
90.8340803511956
20
-8.51574204765834
30
0
41
1
10
90.6681682533286
20
-8.47697319467892
30
0
41
1
10
90.4184000999396
20
-8.41036034103223
30
0
41
1
10
90.3349936991729
20
-8.38675172963082
30
0
41
1
10
90.2095636262465
20
-8.3488855572333
30
0
41
1
10
90.1676921140559
20
-8.33580060505432
30
0
41
1
10
90.0838740054234
20
-8.30909287944164
30
0
41
1
10
90.0419412655431
20
-8.29556454759697
30
0
41
1
10
89.9999995367102
20
-8.28196733021358
30
0
0
SPLINE
5
150
100
AcDbEntity
8
1
62
256
6
ByLayer
370
13
48
1
60
0
100
AcDbSpline
70
4
71
3
72
12
73
8
40
0
40
0
40
0
40
0
40
0.129354919511639
40
0.303483935609311
40
0.477612951706983
40
0.651741967804656
40
1
40
1
40
1
40
1
41
1
10
91.5357559816255
20
-0.349137617828518
30
0
41
1
10
90.607170654417
20
0.149040751024899
30
0
41
1
10
88.4285853272084
20
1.32151910396976
30
0
41
1
10
85
20
3.12445259425724
30
0
41
1
10
81.25
20
4.94865798789226
30
0
41
1
10
76.2500000000001
20
7.07665184850611
30
0
41
1
10
72.5000000000001
20
8.20847613757573
30
0
41
1
10
70
20
8.68787551005749
30
0
0
SPLINE
5
151
100
AcDbEntity
8
1
62
256
6
ByLayer
370
18
48
1
60
0
100
AcDbSpline
70
4
71
3
72
8
73
4
40
0
40
0
40
0
40
0
40
1
40
1
40
1
40
1
41
1
10
92.3570270045398
20
-0.789167886969352
30
0
41
1
10
92.2323567571922
20
-0.730295499126129
30
0
41
1
10
92.1104284507768
20
-0.669363506967557
30
0
41
1
10
91.9911762781095
20
-0.606465775751559
30
0
0
SPLINE
5
152
100
AcDbEntity
8
1
62
256
6
ByLayer
370
18
48
1
60
0
100
AcDbSpline
70
4
71
3
72
20
73
16
40
0
40
0
40
0
40
0
40
0.25
40
0.25
40
0.375
40
0.375
40
0.5
40
0.5
40
0.75
40
0.75
40
0.875
40
0.875
40
0.9375
40
0.9375
40
1
40
1
40
1
40
1
41
1
10
91.9911762781089
20
-0.606465775751104
30
0
41
1
10
91.8261858433018
20
-0.514187535665997
30
0
41
1
10
91.6611873946384
20
-0.420755137113815
30
0
41
1
10
91.413424259452
20
-0.279327778658001
30
0
41
1
10
91.3307906672457
20
-0.231971405490697
30
0
41
1
10
91.1654001165512
20
-0.13690924412947
30
0
41
1
10
91.0826332806902
20
-0.0892006426340402
30
0
41
1
10
90.8341578014627
20
0.0543237622256925
30
0
41
1
10
90.6682429329114
20
0.150565081263153
30
0
41
1
10
90.4184572969001
20
0.2953520967543
30
0
41
1
10
90.3350428539489
20
0.343683523162014
30
0
41
1
10
90.209596717962
20
0.41621143552004
30
0
41
1
10
90.1677190955814
20
0.440391626998263
30
0
41
1
10
90.0838878444217
20
0.488751243654235
30
0
41
1
10
90.0419482372448
20
0.512931848129767
30
0
41
1
10
89.999999529299
20
0.537113331441617
30
0
0
SPLINE
5
153
100
AcDbEntity
8
1
62
256
6
ByLayer
370
18
48
1
60
0
100
AcDbSpline
70
4
71
3
72
13
73
9
40
0
40
0
40
0
40
0
40
0.25
40
0.375
40
0.5
40
0.625
40
0.75
40
1
40
1
40
1
40
1
41
1
10
90
20
0.537113384082147
30
0
41
1
10
88.3333333333334
20
1.49794924256605
30
0
41
1
10
85.8333333333333
20
2.92832115709791
30
0
41
1
10
82.5
20
4.69336301591474
30
0
41
1
10
80.0000000000001
20
5.92038217096152
30
0
41
1
10
77.5
20
7.02493719512785
30
0
41
1
10
74.1666666666667
20
8.30012253020635
30
0
41
1
10
71.6666666666667
20
9.00951995956675
30
0
41
1
10
70.0000000000001
20
9.3506841806109
30
0
0
SPLINE
5
154
100
AcDbEntity
8
1
62
256
6
ByLayer
370
18
48
1
60
0
100
AcDbSpline
70
4
71
3
72
8
73
4
40
0
40
0
40
0
40
0
40
1
40
1
40
1
40
1
41
1
10
70.1485500785664
20
3.68593599706858
30
0
41
1
10
70.0989786768663
20
3.71295640045767
30
0
41
1
10
70.0494616535502
20
3.74000225178921
30
0
41
1
10
70.0000000000001
20
3.76707391395317
30
0
0
SPLINE
5
155
100
AcDbEntity
8
1
62
256
6
ByLayer
370
18
48
1
60
0
100
AcDbSpline
70
4
71
3
72
13
73
9
40
0
40
0
40
0
40
0
40
0.25
40
0.375
40
0.5
40
0.625
40
0.75
40
1
40
1
40
1
40
1
41
1
10
70.0000000000001
20
2.53461321033663
30
0
41
1
10
71.6666666666667
20
1.61749881131098
30
0
41
1
10
74.1666666666667
20
0.188512762635241
30
0
41
1
10
77.5
20
-1.70478167559133
30
0
41
1
10
80.0000000000001
20
-3.0886068292825
30
0
41
1
10
82.5
20
-4.40900136551693
30
0
41
1
10
85.8333333333334
20
-6.04801822516782
30
0
41
1
10
88.3333333333334
20
-7.098619936407
30
0
41
1
10
90.0000000000001
20
-7.69285779484932
30
0
0
SPLINE
5
156
100
AcDbEntity
8
1
62
256
6
ByLayer
370
18
48
1
60
0
100
AcDbSpline
70
4
71
3
72
34
73
30
40
0
40
0
40
0
40
0
40
0.125000000000003
40
0.125000000000003
40
0.156250000000003
40
0.156250000000003
40
0.187500000000003
40
0.187500000000003
40
0.250000000000003
40
0.250000000000003
40
0.375000000000003
40
0.375000000000003
40
0.437500000000004
40
0.437500000000004
40
0.468750000000004
40
0.468750000000004
40
0.500000000000003
40
0.500000000000003
40
0.625000000000007
40
0.625000000000007
40
0.687500000000008
40
0.687500000000008
40
0.718750000000007
40
0.718750000000007
40
0.750000000000007
40
0.750000000000007
40
0.875000000000003
40
0.875000000000003
40
1
40
1
40
1
40
1
41
1
10
90.0000000000001
20
-6.53735495868224
30
0
41
1
10
89.1714798091959
20
-6.20185451427349
30
0
41
1
10
88.3442517858448
20
-5.84472272307374
30
0
41
1
10
87.3093709990289
20
-5.37477472079925
30
0
41
1
10
87.1023536949727
20
-5.27960479147609
30
0
41
1
10
86.6881767365184
20
-5.08698186054426
30
0
41
1
10
86.4809718283876
20
-4.98950660338477
30
0
41
1
10
85.8599631239692
20
-4.69420732313293
30
0
41
1
10
85.4464912054145
20
-4.49338527762038
30
0
41
1
10
84.2069756275977
20
-3.88010946013395
30
0
41
1
10
83.381831595226
20
-3.45685231296741
30
0
41
1
10
82.1428221307342
20
-2.80594981871411
30
0
41
1
10
81.7296042642346
20
-2.58630732671114
30
0
41
1
10
81.1090631733067
20
-2.25351503939521
30
0
41
1
10
80.9020968124843
20
-2.14202988569664
30
0
41
1
10
80.4878650656918
20
-1.91805267875523
30
0
41
1
10
80.2808007796609
20
-1.80566920717297
30
0
41
1
10
79.2461582200546
20
-1.24235335230659
30
0
41
1
10
78.420033328568
20
-0.786912893380759
30
0
41
1
10
77.180447617888
20
-0.101546045243651
30
0
41
1
10
76.7671868491051
20
0.127280399189345
30
0
41
1
10
76.1468153428721
20
0.4703747496186
30
0
41
1
10
75.9399447552121
20
0.584715280178159
30
0
41
1
10
75.5259794046827
20
0.81323067694106
30
0
41
1
10
75.3188046285212
20
0.927449478300701
30
0
41
1
10
74.2837680116
20
1.49697872765421
30
0
41
1
10
73.4576710435513
20
1.94800899568145
30
0
41
1
10
71.8051610520059
20
2.83356554044147
30
0
41
1
10
70.9787520584913
20
3.26809978685162
30
0
41
1
10
70.1501310132768
20
3.690658526996
30
0
0
SPLINE
5
157
100
AcDbEntity
8
1
62
256
6
ByLayer
370
18
48
1
60
0
100
AcDbSpline
70
4
71
3
72
8
73
4
40
0
40
0
40
0
40
0
40
1
40
1
40
1
40
1
41
1
10
92.205391254587
20
-0.690762997018197
30
0
41
1
10
92.3925309293961
20
-0.78625225429127
30
0
41
1
10
92.5819608041925
20
-0.876442334516923
30
0
41
1
10
92.7751681831384
20
-0.960736245572463
30
0
0
SPLINE
5
158
100
AcDbEntity
8
1
62
256
6
ByLayer
370
18
48
1
60
0
100
AcDbSpline
70
4
71
3
72
50
73
46
40
0
40
0
40
0
40
0
40
0.0312499999999959
40
0.0312499999999959
40
0.0468749999999939
40
0.0468749999999939
40
0.0624999999999918
40
0.124999999999981
40
0.124999999999981
40
0.187499999999969
40
0.187499999999969
40
0.249999999999958
40
0.249999999999958
40
0.312499999999947
40
0.312499999999947
40
0.328124999999942
40
0.328124999999942
40
0.343749999999937
40
0.374999999999932
40
0.437499999999927
40
0.437499999999927
40
0.499999999999922
40
0.499999999999922
40
0.562499999999917
40
0.562499999999917
40
0.57812499999992
40
0.57812499999992
40
0.593749999999923
40
0.593749999999923
40
0.624999999999929
40
0.624999999999929
40
0.687499999999942
40
0.687499999999942
40
0.749999999999954
40
0.749999999999954
40
0.812499999999967
40
0.812499999999967
40
0.843749999999977
40
0.859374999999982
40
0.859374999999982
40
0.874999999999987
40
0.874999999999987
40
0.937499999999993
40
0.937499999999993
40
1
40
1
40
1
40
1
41
1
10
99.4751099192007
20
-1.40900697351788
30
0
41
1
10
99.4396689496089
20
-1.44406364134775
30
0
41
1
10
99.4024632834578
20
-1.47791813320453
30
0
41
1
10
99.343986863284
20
-1.52685919437056
30
0
41
1
10
99.3240399936117
20
-1.54287203801527
30
0
41
1
10
99.2833843125149
20
-1.57417704818167
30
0
41
1
10
99.1797668597463
20
-1.65070441478952
30
0
41
1
10
99.0662937155358
20
-1.7186134044654
30
0
41
1
10
98.8725559187828
20
-1.8166040710733
30
0
41
1
10
98.7695910192562
20
-1.8602663215008
30
0
41
1
10
98.5514826137282
20
-1.93719953344927
30
0
41
1
10
98.4363506417329
20
-1.97047941649112
30
0
41
1
10
98.1938204105422
20
-2.026518303611
30
0
41
1
10
98.0664025783246
20
-2.04927295743556
30
0
41
1
10
97.8992166527023
20
-2.07091368592495
30
0
41
1
10
97.8654523811659
20
-2.07489194717749
30
0
41
1
10
97.7973916719
20
-2.08214001991635
30
0
41
1
10
97.6944491173862
20
-2.09195682477116
30
0
41
1
10
97.4483300962647
20
-2.10752830434873
30
0
41
1
10
97.2273157516915
20
-2.10841753030741
30
0
41
1
10
96.9237917353451
20
-2.09868282650552
30
0
41
1
10
96.767610956068
20
-2.08836389822793
30
0
41
1
10
96.4464341888926
20
-2.05671316739984
30
0
41
1
10
96.2814346699967
20
-2.03535329473291
30
0
41
1
10
96.0695186725534
20
-2.00155521332013
30
0
41
1
10
96.0268518948925
20
-1.99444163985208
30
0
41
1
10
95.940946355953
20
-1.97950292362447
30
0
41
1
10
95.8976723458288
20
-1.97167110144332
30
0
41
1
10
95.7672305116121
20
-1.94714804443328
30
0
41
1
10
95.6796853842242
20
-1.92947745522758
30
0
41
1
10
95.4153280911357
20
-1.87258972111647
30
0
41
1
10
95.2368017098347
20
-1.8295059391603
30
0
41
1
10
94.8752499854488
20
-1.73330861969822
30
0
41
1
10
94.6922187047286
20
-1.68019227376172
30
0
41
1
10
94.3216343245509
20
-1.56398243491742
30
0
41
1
10
94.1340796674532
20
-1.50089713028666
30
0
41
1
10
93.8493244095595
20
-1.39864331466759
30
0
41
1
10
93.7060914068911
20
-1.34560265652954
30
0
41
1
10
93.5615673261642
20
-1.28963017308044
30
0
41
1
10
93.4649296830482
20
-1.25165601177059
30
0
41
1
10
93.416421225576
20
-1.23232065804453
30
0
41
1
10
93.1740291566146
20
-1.13433287314842
30
0
41
1
10
92.9801898662627
20
-1.05159897831285
30
0
41
1
10
92.5926702140927
20
-0.877580177253719
30
0
41
1
10
92.3989842142744
20
-0.786308632128453
30
0
41
1
10
92.2053912545869
20
-0.690762997018226
30
0
0
SPLINE
5
159
100
AcDbEntity
8
1
62
256
6
ByLayer
370
18
48
1
60
0
100
AcDbSpline
70
4
71
3
72
13
73
9
40
0
40
0
40
0
40
0
40
0.313516480197265
40
0.470274720295898
40
0.62703296039453
40
0.783791200493163
40
0.940549440591795
40
1
40
1
40
1
40
1
41
1
10
90.0000000000001
20
8.99325999966538
30
0
41
1
10
88.3333333333334
20
9.41344271853259
30
0
41
1
10
85.8333333333333
20
9.85747132833629
30
0
41
1
10
82.5
20
10.0319061850922
30
0
41
1
10
80.0000000000001
20
9.9555442413203
30
0
41
1
10
77.5
20
9.67360776968795
30
0
41
1
10
75.517291683408
20
9.2882506107637
30
0
41
1
10
74.3679167001493
20
9.00466663523389
30
0
41
1
10
74.0518750502239
20
8.92226731788421
30
0
0
SPLINE
5
15A
100
AcDbEntity
8
1
62
256
6
ByLayer
370
18
48
1
60
0
100
AcDbSpline
70
4
71
3
72
13
73
9
40
0
40
0
40
0
40
0
40
0.0315942578606959
40
0.192995214883913
40
0.354396171907131
40
0.515797128930348
40
0.677198085953565
40
1
40
1
40
1
40
1
41
1
10
85.4893753178947
20
-9.78145530010696
30
0
41
1
10
85.3262502119298
20
-9.80106705222411
30
0
41
1
10
84.3297917726316
20
-9.91283543952844
30
0
41
1
10
82.5
20
-10.0269820265983
30
0
41
1
10
80.0000000000001
20
-9.97585472422855
30
0
41
1
10
77.5
20
-9.7187292539015
30
0
41
1
10
74.1666666666667
20
-9.1026775233934
30
0
41
1
10
71.6666666666666
20
-8.35373478039418
30
0
41
1
10
70.0000000000001
20
-7.74511879486448
30
0
0
SPLINE
5
15B
100
AcDbEntity
8
1
62
256
6
ByLayer
370
18
48
1
60
0
100
AcDbSpline
70
4
71
3
72
13
73
9
40
0
40
0
40
0
40
0
40
0.25
40
0.375
40
0.5
40
0.625
40
0.75
40
1
40
1
40
1
40
1
41
1
10
90.0000000000001
20
-8.28197044579557
30
0
41
1
10
88.3333333333334
20
-7.74237435036818
30
0
41
1
10
85.8333333333334
20
-6.76122608459758
30
0
41
1
10
82.5
20
-5.18448224697738
30
0
41
1
10
80.0000000000001
20
-3.89468199285349
30
0
41
1
10
77.5
20
-2.52467006007865
30
0
41
1
10
74.1666666666667
20
-0.627079508910384
30
0
41
1
10
71.6666666666667
20
0.830640086367936
30
0
41
1
10
70.0000000000001
20
1.7775807520897
30
0
0
SPLINE
5
15C
100
AcDbEntity
8
1
62
256
6
ByLayer
370
18
48
1
60
0
100
AcDbSpline
70
4
71
1
72
4
73
2
40
0
40
0
40
1
40
1
41
1
10
69.8036867685441
20
-9.57748070594991
30
0
41
1
10
69.8141378606871
20
-9.56792717894183
30
0
0
SPLINE
5
15D
100
AcDbEntity
8
1
62
256
6
ByLayer
370
18
48
1
60
0
100
AcDbSpline
70
4
71
1
72
4
73
2
40
0
40
0
40
1
40
1
41
1
10
99.2193479504739
20
2.55258964367655
30
0
41
1
10
99.2207280796869
20
2.55105252944637
30
0
0
SPLINE
5
15E
100
AcDbEntity
8
1
62
256
6
ByLayer
370
18
48
1
60
0
100
AcDbSpline
70
4
71
3
72
20
73
16
40
0
40
0
40
0
40
0
40
0.0952257093343557
40
0.167863800423536
40
0.251367781661111
40
0.323594338788899
40
0.403644436081313
40
0.504042069261946
40
0.57120985530967
40
0.618462908347901
40
0.660038944950453
40
0.717557007999411
40
0.792026646421917
40
0.885368837750695
40
1
40
1
40
1
40
1
41
1
10
87.2190633806604
20
4.70503688207828
30
0
41
1
10
87.1010007259292
20
4.73460828477661
30
0
41
1
10
86.86779186931
20
4.79581399328552
30
0
41
1
10
86.461538846467
20
4.90682743441815
30
0
41
1
10
86.0185426662932
20
5.0369165891573
30
0
41
1
10
85.6123844730851
20
5.16037442047332
30
0
41
1
10
85.2001525791222
20
5.29106239178054
30
0
41
1
10
84.7852966187396
20
5.42842652995679
30
0
41
1
10
84.4278344933666
20
5.55168986066829
30
0
41
1
10
84.1792153166171
20
5.63953389741314
30
0
41
1
10
83.9386191098079
20
5.7261149604511
30
0
41
1
10
83.6281281029515
20
5.84047074248764
30
0
41
1
10
83.2199153723213
20
5.99459982727905
30
0
41
1
10
82.752699922532
20
6.17821630777607
30
0
41
1
10
82.4300732229449
20
6.3093947988728
30
0
41
1
10
82.2605536453906
20
6.38003131489478
30
0
0
SPLINE
5
15F
100
AcDbEntity
8
1
62
256
6
ByLayer
370
18
48
1
60
0
100
AcDbSpline
70
4
71
1
72
4
73
2
40
0
40
0
40
1
40
1
41
1
10
92.7754704490756
20
-0.960864009385688
30
0
41
1
10
92.9454558820802
20
-1.0350337586309
30
0
0
LINE
5
79
100
AcDbEntity
8
81
62
256
6
ByLayer
370
18
48
1
60
0
100
AcDbLine
10
100.05
20
0
30
0
11
105.05
21
0
31
0
39
0
210
0
220
0
230
1
0
LINE
5
7A
100
AcDbEntity
8
SK4
62
256
6
ByLayer
370
18
48
0.05
60
0
100
AcDbLine
10
-50
20
0
30
0
11
100.05
21
0
31
0
39
0
210
0
220
0
230
1
0
LINE
5
7C
100
AcDbEntity
8
80
62
256
6
ByLayer
370
18
48
1
60
0
100
AcDbLine
10
0
20
0
30
0
11
-5
21
0
31
0
39
0
210
0
220
0
230
1
0
LINE
5
7D
100
AcDbEntity
8
4
62
256
6
ByLayer
370
18
48
0.05
60
0
100
AcDbLine
10
0
20
0
30
0
11
100.05
21
0
31
0
39
0
210
0
220
0
230
1
0
LINE
5
7F
100
AcDbEntity
8
1
62
256
6
ByLayer
370
18
48
1
60
0
100
AcDbLine
10
0
20
10
30
0
11
0
21
0
31
0
39
0
210
0
220
0
230
1
0
LINE
5
80
100
AcDbEntity
8
1
62
256
6
ByLayer
370
18
48
1
60
0
100
AcDbLine
10
0
20
0
30
0
11
0
21
-10
31
0
39
0
210
0
220
0
230
1
0
LINE
5
81
100
AcDbEntity
8
1
62
256
6
ByLayer
370
18
48
1
60
0
100
AcDbLine
10
99.998612
20
-0.040826
30
0
11
99.979104
21
-0.041214
31
0
39
0
210
0
220
0
230
1
0
LINE
5
82
100
AcDbEntity
8
1
62
256
6
ByLayer
370
13
48
1
60
0
100
AcDbLine
10
99.887857
20
-1.116953
30
0
11
99.883988
21
-1.119197
31
0
39
0
210
0
220
0
230
1
0
LINE
5
83
100
AcDbEntity
8
1
62
256
6
ByLayer
370
18
48
1
60
0
100
AcDbLine
10
99.998563
20
0.041394
30
0
11
99.960441
21
0.042112
31
0
39
0
210
0
220
0
230
1
0
LINE
5
84
100
AcDbEntity
8
1
62
256
6
ByLayer
370
18
48
1
60
0
100
AcDbLine
10
99.885734
20
-1.125246
30
0
11
99.883988
21
-1.119197
31
0
39
0
210
0
220
0
230
1
0
LINE
5
85
100
AcDbEntity
8
1
62
256
6
ByLayer
370
13
48
1
60
0
100
AcDbLine
10
99.373307
20
-1.499963
30
0
11
99.587281
21
-2.708775
31
0
39
0
210
0
220
0
230
1
0
LINE
5
86
100
AcDbEntity
8
1
62
256
6
ByLayer
370
18
48
1
60
0
100
AcDbLine
10
99.46307
20
1.820135
30
0
11
99.167813
21
1.43123
31
0
39
0
210
0
220
0
230
1
0
LINE
5
87
100
AcDbEntity
8
1
62
256
6
ByLayer
370
18
48
1
60
0
100
AcDbLine
10
99.064589
20
-1.715994
30
0
11
99.247693
21
-2.537797
31
0
39
0
210
0
220
0
230
1
0
LINE
5
88
100
AcDbEntity
8
1
62
256
6
ByLayer
370
13
48
1
60
0
100
AcDbLine
10
98.418868
20
-1.96902
30
0
11
98.255241
21
-2.063929
31
0
39
0
210
0
220
0
230
1
0
LINE
5
89
100
AcDbEntity
8
1
62
256
6
ByLayer
370
13
48
1
60
0
100
AcDbLine
10
98.833603
20
1.718957
30
0
11
99.167813
21
1.43123
31
0
39
0
210
0
220
0
230
1
0
LINE
5
8A
100
AcDbEntity
8
1
62
256
6
ByLayer
370
18
48
1
60
0
100
AcDbLine
10
99.184945
20
0.216846
30
0
11
99.499835
21
-0.151493
31
0
39
0
210
0
220
0
230
1
0
LINE
5
8B
100
AcDbEntity
8
1
62
256
6
ByLayer
370
13
48
1
60
0
100
AcDbLine
10
99.184945
20
0.216846
30
0
11
98.255241
21
1.017244
31
0
39
0
210
0
220
0
230
1
0
LINE
5
8C
100
AcDbEntity
8
1
62
256
6
ByLayer
370
13
48
1
60
0
100
AcDbLine
10
68.410537
20
9.543168
30
0
11
70
21
8.687876
31
0
39
0
210
0
220
0
230
1
0
LINE
5
8D
100
AcDbEntity
8
1
62
256
6
ByLayer
370
13
48
1
60
0
100
AcDbLine
10
60.424592
20
9.722635
30
0
11
70
21
4.570092
31
0
39
0
210
0
220
0
230
1
0
LINE
5
8E
100
AcDbEntity
8
1
62
256
6
ByLayer
370
18
48
1
60
0
100
AcDbLine
10
90
20
9.33721
30
0
11
90
21
9.190025
31
0
39
0
210
0
220
0
230
1
0
LINE
5
8F
100
AcDbEntity
8
1
62
256
6
ByLayer
370
18
48
1
60
0
100
AcDbLine
10
90
20
9.190025
30
0
11
90
21
8.99326
31
0
39
0
210
0
220
0
230
1
0
LINE
5
90
100
AcDbEntity
8
1
62
256
6
ByLayer
370
18
48
1
60
0
100
AcDbLine
10
98.314911
20
-3.115027
30
0
11
98.650542
21
-3.292196
31
0
39
0
210
0
220
0
230
1
0
LINE
5
91
100
AcDbEntity
8
1
62
256
6
ByLayer
370
18
48
1
60
0
100
AcDbLine
10
98.314911
20
-3.115027
30
0
11
98.252073
21
-2.777313
31
0
39
0
210
0
220
0
230
1
0
LINE
5
92
100
AcDbEntity
8
1
62
256
6
ByLayer
370
18
48
1
60
0
100
AcDbLine
10
70
20
4.377968
30
0
11
70
21
4.570092
31
0
39
0
210
0
220
0
230
1
0
LINE
5
93
100
AcDbEntity
8
1
62
256
6
ByLayer
370
13
48
1
60
0
100
AcDbLine
10
60.284904
20
-7.210788
30
0
11
65.437244
21
-6.755367
31
0
39
0
210
0
220
0
230
1
0
LINE
5
94
100
AcDbEntity
8
1
62
256
6
ByLayer
370
13
48
1
60
0
100
AcDbLine
10
60.424592
20
-6.886849
30
0
11
63.797679
21
-6.588698
31
0
39
0
210
0
220
0
230
1
0
LINE
5
95
100
AcDbEntity
8
1
62
256
6
ByLayer
370
18
48
1
60
0
100
AcDbLine
10
70
20
-7.107369
30
0
11
70
21
-5.857248
31
0
39
0
210
0
220
0
230
1
0
LINE
5
96
100
AcDbEntity
8
1
62
256
6
ByLayer
370
18
48
1
60
0
100
AcDbLine
10
98.222465
20
0.936334
30
0
11
98.732148
21
0.426125
31
0
39
0
210
0
220
0
230
1
0
LINE
5
97
100
AcDbEntity
8
1
62
256
6
ByLayer
370
18
48
1
60
0
100
AcDbLine
10
98.222465
20
0.936334
30
0
11
98.187021
21
1.103419
31
0
39
0
210
0
220
0
230
1
0
LINE
5
98
100
AcDbEntity
8
1
62
256
6
ByLayer
370
18
48
1
60
0
100
AcDbLine
10
95.289476
20
3.129277
30
0
11
94.303924
21
3.621641
31
0
39
0
210
0
220
0
230
1
0
LINE
5
99
100
AcDbEntity
8
1
62
256
6
ByLayer
370
18
48
1
60
0
100
AcDbLine
10
60.284904
20
9.605678
30
0
11
70
21
4.377968
31
0
39
0
210
0
220
0
230
1
0
LINE
5
9A
100
AcDbEntity
8
1
62
256
6
ByLayer
370
18
48
1
60
0
100
AcDbLine
10
70
20
4.570092
30
0
11
70
21
8.687876
31
0
39
0
210
0
220
0
230
1
0
LINE
5
9B
100
AcDbEntity
8
1
62
256
6
ByLayer
370
18
48
1
60
0
100
AcDbLine
10
70
20
-1.832111
30
0
11
70
21
-1.363239
31
0
39
0
210
0
220
0
230
1
0
LINE
5
9C
100
AcDbEntity
8
1
62
256
6
ByLayer
370
18
48
1
60
0
100
AcDbLine
10
70
20
9.475254
30
0
11
70
21
9.494571
31
0
39
0
210
0
220
0
230
1
0
LINE
5
9D
100
AcDbEntity
8
1
62
256
6
ByLayer
370
18
48
1
60
0
100
AcDbLine
10
90
20
2.665461
30
0
11
90
21
1.326824
31
0
39
0
210
0
220
0
230
1
0
LINE
5
9E
100
AcDbEntity
8
1
62
256
6
ByLayer
370
13
48
1
60
0
100
AcDbLine
10
60.650588
20
2.781631
30
0
11
70
21
-1.363239
31
0
39
0
210
0
220
0
230
1
0
LINE
5
9F
100
AcDbEntity
8
1
62
256
6
ByLayer
370
18
48
1
60
0
100
AcDbLine
10
70
20
-1.363239
30
0
11
70
21
1.629185
31
0
39
0
210
0
220
0
230
1
0
LINE
5
A0
100
AcDbEntity
8
1
62
256
6
ByLayer
370
13
48
1
60
0
100
AcDbLine
10
68.452837
20
2.315088
30
0
11
70
21
1.629185
31
0
39
0
210
0
220
0
230
1
0
LINE
5
A1
100
AcDbEntity
8
1
62
256
6
ByLayer
370
18
48
1
60
0
100
AcDbLine
10
90
20
1.326824
30
0
11
90
21
0.537113
31
0
39
0
210
0
220
0
230
1
0
LINE
5
A2
100
AcDbEntity
8
1
62
256
6
ByLayer
370
13
48
1
60
0
100
AcDbLine
10
60.516158
20
2.372356
30
0
11
70
21
-1.832111
31
0
39
0
210
0
220
0
230
1
0
LINE
5
A3
100
AcDbEntity
8
1
62
256
6
ByLayer
370
18
48
1
60
0
100
AcDbLine
10
70
20
9.350684
30
0
11
70
21
8.687876
31
0
39
0
210
0
220
0
230
1
0
LINE
5
A4
100
AcDbEntity
8
1
62
256
6
ByLayer
370
18
48
1
60
0
100
AcDbLine
10
90
20
-7.692858
30
0
11
90
21
-8.28197
31
0
39
0
210
0
220
0
230
1
0
LINE
5
A5
100
AcDbEntity
8
1
62
256
6
ByLayer
370
18
48
1
60
0
100
AcDbLine
10
70
20
2.534613
30
0
11
70
21
3.767074
31
0
39
0
210
0
220
0
230
1
0
LINE
5
A6
100
AcDbEntity
8
1
62
256
6
ByLayer
370
18
48
1
60
0
100
AcDbLine
10
90
20
-6.537355
30
0
11
90
21
-7.692858
31
0
39
0
210
0
220
0
230
1
0
LINE
5
A7
100
AcDbEntity
8
1
62
256
6
ByLayer
370
18
48
1
60
0
100
AcDbLine
10
70
20
-7.745119
30
0
11
70
21
-7.107369
31
0
39
0
210
0
220
0
230
1
0
LINE
5
A8
100
AcDbEntity
8
1
62
256
6
ByLayer
370
18
48
1
60
0
100
AcDbLine
10
70
20
9.350684
30
0
11
70
21
9.475254
31
0
39
0
210
0
220
0
230
1
0
LINE
5
A9
100
AcDbEntity
8
1
62
256
6
ByLayer
370
18
48
1
60
0
100
AcDbLine
10
70
20
1.777581
30
0
11
70
21
1.629185
31
0
39
0
210
0
220
0
230
1
0
LINE
5
AA
100
AcDbEntity
8
1
62
256
6
ByLayer
370
18
48
1
60
0
100
AcDbLine
10
70
20
1.777581
30
0
11
70
21
2.534613
31
0
39
0
210
0
220
0
230
1
0
LINE
5
AB
100
AcDbEntity
8
SK1
62
256
6
ByLayer
370
18
48
1
60
0
100
AcDbLine
10
-50
20
-9
30
0
11
-50
21
9
31
0
39
0
210
0
220
0
230
1
0
LINE
5
AD
100
AcDbEntity
8
SK1
62
256
6
ByLayer
370
18
48
1
60
0
100
AcDbLine
10
0
20
10
30
0
11
0
21
0
31
0
39
0
210
0
220
0
230
1
0
LINE
5
AE
100
AcDbEntity
8
SK1
62
256
6
ByLayer
370
18
48
1
60
0
100
AcDbLine
10
0
20
0
30
0
11
0
21
-10
31
0
39
0
210
0
220
0
230
1
0
LINE
5
AF
100
AcDbEntity
8
SK1
62
256
6
ByLayer
370
18
48
1
60
0
100
AcDbLine
10
-49
20
10
30
0
11
-49
21
-10
31
0
39
0
210
0
220
0
230
1
0
LINE
5
B0
100
AcDbEntity
8
1
62
256
6
ByLayer
370
18
48
1
60
0
100
AcDbLine
10
67.263795
20
10
30
0
11
0
21
10
31
0
39
0
210
0
220
0
230
1
0
LINE
5
B1
100
AcDbEntity
8
1
62
256
6
ByLayer
370
18
48
1
60
0
100
AcDbLine
10
0
20
-10
30
0
11
67.501411
21
-10
31
0
39
0
210
0
220
0
230
1
0
LINE
5
B2
100
AcDbEntity
8
SK1
62
256
6
ByLayer
370
18
48
1
60
0
100
AcDbLine
10
-50
20
-9
30
0
11
-49
21
-10
31
0
39
0
210
0
220
0
230
1
0
LINE
5
B3
100
AcDbEntity
8
SK1
62
256
6
ByLayer
370
18
48
1
60
0
100
AcDbLine
10
-49
20
10
30
0
11
-50
21
9
31
0
39
0
210
0
220
0
230
1
0
LINE
5
B4
100
AcDbEntity
8
SK1
62
256
6
ByLayer
370
18
48
1
60
0
100
AcDbLine
10
0
20
10
30
0
11
-49
21
10
31
0
39
0
210
0
220
0
230
1
0
LINE
5
B5
100
AcDbEntity
8
SK1
62
256
6
ByLayer
370
18
48
1
60
0
100
AcDbLine
10
-49
20
-10
30
0
11
0
21
-10
31
0
39
0
210
0
220
0
230
1
0
LINE
5
B6
100
AcDbEntity
8
SK2
62
256
6
ByLayer
370
18
48
1
60
0
100
AcDbLine
10
-57.25
20
10
30
0
11
-57.25
21
-28.930932
31
0
39
0
210
0
220
0
230
1
0
LINE
5
B8
100
AcDbEntity
8
SK2
62
256
6
ByLayer
370
18
48
1
60
0
100
AcDbLine
10
-50.5875
20
10
30
0
11
-59.25
21
10
31
0
39
0
210
0
220
0
230
1
0
LINE
5
B9
100
AcDbEntity
8
SK2
62
256
6
ByLayer
370
18
48
1
60
0
100
AcDbLine
10
-50.5875
20
-10
30
0
11
-59.25
21
-10
31
0
39
0
210
0
220
0
230
1
0
LINE
5
BA
100
AcDbEntity
8
1
62
256
6
ByLayer
370
18
48
1
60
1
100
AcDbLine
10
-57.25
20
10
30
0
11
-56.789216
21
6.500002
31
0
39
0
210
0
220
0
230
1
0
LINE
5
BB
100
AcDbEntity
8
1
62
256
6
ByLayer
370
18
48
1
60
1
100
AcDbLine
10
-56.789216
20
6.500002
30
0
11
-57.710784
21
6.499998
31
0
39
0
210
0
220
0
230
1
0
LINE
5
BC
100
AcDbEntity
8
1
62
256
6
ByLayer
370
18
48
1
60
1
100
AcDbLine
10
-57.710784
20
6.499998
30
0
11
-57.25
21
10
31
0
39
0
210
0
220
0
230
1
0
LINE
5
BD
100
AcDbEntity
8
1
62
256
6
ByLayer
370
18
48
1
60
1
100
AcDbLine
10
-57.25
20
-10
30
0
11
-57.710784
21
-6.500002
31
0
39
0
210
0
220
0
230
1
0
LINE
5
BE
100
AcDbEntity
8
1
62
256
6
ByLayer
370
18
48
1
60
1
100
AcDbLine
10
-57.710784
20
-6.500002
30
0
11
-56.789216
21
-6.499998
31
0
39
0
210
0
220
0
230
1
0
LINE
5
BF
100
AcDbEntity
8
1
62
256
6
ByLayer
370
18
48
1
60
1
100
AcDbLine
10
-56.789216
20
-6.499998
30
0
11
-57.25
21
-10
31
0
39
0
210
0
220
0
230
1
0
LINE
5
C0
100
AcDbEntity
8
2
62
256
6
ByLayer
370
18
48
1
60
0
100
AcDbLine
10
112
20
-10.0001
30
0
11
112
21
28.931032
31
0
39
0
210
0
220
0
230
1
0
LINE
5
C2
100
AcDbEntity
8
2
62
256
6
ByLayer
370
18
48
1
60
0
100
AcDbLine
10
92.58775
20
10.0001
30
0
11
114
21
10.0001
31
0
39
0
210
0
220
0
230
1
0
LINE
5
C3
100
AcDbEntity
8
2
62
256
6
ByLayer
370
18
48
1
60
0
100
AcDbLine
10
92.58775
20
-10.0001
30
0
11
114
21
-10.0001
31
0
39
0
210
0
220
0
230
1
0
LINE
5
C4
100
AcDbEntity
8
1
62
256
6
ByLayer
370
18
48
1
60
1
100
AcDbLine
10
112
20
10.0001
30
0
11
112.460784
21
6.500102
31
0
39
0
210
0
220
0
230
1
0
LINE
5
C5
100
AcDbEntity
8
1
62
256
6
ByLayer
370
18
48
1
60
1
100
AcDbLine
10
112.460784
20
6.500102
30
0
11
111.539216
21
6.500098
31
0
39
0
210
0
220
0
230
1
0
LINE
5
C6
100
AcDbEntity
8
1
62
256
6
ByLayer
370
18
48
1
60
1
100
AcDbLine
10
111.539216
20
6.500098
30
0
11
112
21
10.0001
31
0
39
0
210
0
220
0
230
1
0
LINE
5
C7
100
AcDbEntity
8
1
62
256
6
ByLayer
370
18
48
1
60
1
100
AcDbLine
10
112
20
-10.0001
30
0
11
111.539216
21
-6.500102
31
0
39
0
210
0
220
0
230
1
0
LINE
5
C8
100
AcDbEntity
8
1
62
256
6
ByLayer
370
18
48
1
60
1
100
AcDbLine
10
111.539216
20
-6.500102
30
0
11
112.460784
21
-6.500098
31
0
39
0
210
0
220
0
230
1
0
LINE
5
C9
100
AcDbEntity
8
1
62
256
6
ByLayer
370
18
48
1
60
1
100
AcDbLine
10
112.460784
20
-6.500098
30
0
11
112
21
-10.0001
31
0
39
0
210
0
220
0
230
1
0
LINE
5
CA
100
AcDbEntity
8
SK2
62
256
6
ByLayer
370
18
48
1
60
0
100
AcDbLine
10
100
20
-54.238829
30
0
11
-50
21
-54.238829
31
0
39
0
210
0
220
0
230
1
0
LINE
5
CB
100
AcDbEntity
8
SK2
62
256
6
ByLayer
370
18
48
1
60
0
100
AcDbLine
10
-50
20
-10.5875
30
0
11
-50
21
-56.238829
31
0
39
0
210
0
220
0
230
1
0
LINE
5
CC
100
AcDbEntity
8
SK2
62
256
6
ByLayer
370
18
48
1
60
0
100
AcDbLine
10
100
20
-1.5875
30
0
11
100
21
-56.238829
31
0
39
0
210
0
220
0
230
1
0
LINE
5
CD
100
AcDbEntity
8
1
62
256
6
ByLayer
370
18
48
1
60
1
100
AcDbLine
10
-50
20
-54.238829
30
0
11
-46.500002
21
-53.778045
31
0
39
0
210
0
220
0
230
1
0
LINE
5
CE
100
AcDbEntity
8
1
62
256
6
ByLayer
370
18
48
1
60
1
100
AcDbLine
10
-46.500002
20
-53.778045
30
0
11
-46.499998
21
-54.699612
31
0
39
0
210
0
220
0
230
1
0
LINE
5
CF
100
AcDbEntity
8
1
62
256
6
ByLayer
370
18
48
1
60
1
100
AcDbLine
10
-46.499998
20
-54.699612
30
0
11
-50
21
-54.238829
31
0
39
0
210
0
220
0
230
1
0
LINE
5
D0
100
AcDbEntity
8
1
62
256
6
ByLayer
370
18
48
1
60
1
100
AcDbLine
10
100
20
-54.238829
30
0
11
96.500002
21
-54.699612
31
0
39
0
210
0
220
0
230
1
0
LINE
5
D1
100
AcDbEntity
8
1
62
256
6
ByLayer
370
18
48
1
60
1
100
AcDbLine
10
96.500002
20
-54.699612
30
0
11
96.499998
21
-53.778045
31
0
39
0
210
0
220
0
230
1
0
LINE
5
D2
100
AcDbEntity
8
1
62
256
6
ByLayer
370
18
48
1
60
1
100
AcDbLine
10
96.499998
20
-53.778045
30
0
11
100
21
-54.238829
31
0
39
0
210
0
220
0
230
1
0
LINE
5
D3
100
AcDbEntity
8
SK2
62
256
6
ByLayer
370
13
48
1
60
0
100
AcDbLine
10
96.646998
20
-7.471105
30
0
11
110.153399
21
-22.652053
31
0
39
0
210
0
220
0
230
1
0
LINE
5
D4
100
AcDbEntity
8
1
62
256
6
ByLayer
370
18
48
1
60
1
100
AcDbLine
10
96.646998
20
-7.471105
30
0
11
99.317703
21
-9.779708
31
0
39
0
210
0
220
0
230
1
0
LINE
5
D5
100
AcDbEntity
8
1
62
256
6
ByLayer
370
18
48
1
60
1
100
AcDbLine
10
99.317703
20
-9.779708
30
0
11
98.629193
21
-10.392276
31
0
39
0
210
0
220
0
230
1
0
LINE
5
D6
100
AcDbEntity
8
1
62
256
6
ByLayer
370
18
48
1
60
1
100
AcDbLine
10
98.629193
20
-10.392276
30
0
11
96.646998
21
-7.471105
31
0
39
0
210
0
220
0
230
1
0
LINE
5
164
100
AcDbEntity
8
1
62
256
6
ByLayer
370
18
48
1
60
1
100
AcDbLine
10
-57.25
20
10
30
0
11
-56.789216
21
6.500002
31
0
39
0
210
0
220
0
230
1
0
LINE
5
165
100
AcDbEntity
8
1
62
256
6
ByLayer
370
18
48
1
60
1
100
AcDbLine
10
-56.789216
20
6.500002
30
0
11
-57.710784
21
6.499998
31
0
39
0
210
0
220
0
230
1
0
LINE
5
166
100
AcDbEntity
8
1
62
256
6
ByLayer
370
18
48
1
60
1
100
AcDbLine
10
-57.710784
20
6.499998
30
0
11
-57.25
21
10
31
0
39
0
210
0
220
0
230
1
0
LINE
5
168
100
AcDbEntity
8
1
62
256
6
ByLayer
370
18
48
1
60
1
100
AcDbLine
10
-57.25
20
-10
30
0
11
-57.710784
21
-6.500002
31
0
39
0
210
0
220
0
230
1
0
LINE
5
169
100
AcDbEntity
8
1
62
256
6
ByLayer
370
18
48
1
60
1
100
AcDbLine
10
-57.710784
20
-6.500002
30
0
11
-56.789216
21
-6.499998
31
0
39
0
210
0
220
0
230
1
0
LINE
5
16A
100
AcDbEntity
8
1
62
256
6
ByLayer
370
18
48
1
60
1
100
AcDbLine
10
-56.789216
20
-6.499998
30
0
11
-57.25
21
-10
31
0
39
0
210
0
220
0
230
1
0
LINE
5
16E
100
AcDbEntity
8
1
62
256
6
ByLayer
370
18
48
1
60
1
100
AcDbLine
10
112
20
10.0001
30
0
11
112.460784
21
6.500102
31
0
39
0
210
0
220
0
230
1
0
LINE
5
16F
100
AcDbEntity
8
1
62
256
6
ByLayer
370
18
48
1
60
1
100
AcDbLine
10
112.460784
20
6.500102
30
0
11
111.539216
21
6.500098
31
0
39
0
210
0
220
0
230
1
0
LINE
5
170
100
AcDbEntity
8
1
62
256
6
ByLayer
370
18
48
1
60
1
100
AcDbLine
10
111.539216
20
6.500098
30
0
11
112
21
10.0001
31
0
39
0
210
0
220
0
230
1
0
LINE
5
172
100
AcDbEntity
8
1
62
256
6
ByLayer
370
18
48
1
60
1
100
AcDbLine
10
112
20
-10.0001
30
0
11
111.539216
21
-6.500102
31
0
39
0
210
0
220
0
230
1
0
LINE
5
173
100
AcDbEntity
8
1
62
256
6
ByLayer
370
18
48
1
60
1
100
AcDbLine
10
111.539216
20
-6.500102
30
0
11
112.460784
21
-6.500098
31
0
39
0
210
0
220
0
230
1
0
LINE
5
174
100
AcDbEntity
8
1
62
256
6
ByLayer
370
18
48
1
60
1
100
AcDbLine
10
112.460784
20
-6.500098
30
0
11
112
21
-10.0001
31
0
39
0
210
0
220
0
230
1
0
LINE
5
177
100
AcDbEntity
8
1
62
256
6
ByLayer
370
18
48
1
60
1
100
AcDbLine
10
-50
20
-54.238829
30
0
11
-46.500002
21
-53.778045
31
0
39
0
210
0
220
0
230
1
0
LINE
5
178
100
AcDbEntity
8
1
62
256
6
ByLayer
370
18
48
1
60
1
100
AcDbLine
10
-46.500002
20
-53.778045
30
0
11
-46.499998
21
-54.699612
31
0
39
0
210
0
220
0
230
1
0
LINE
5
179
100
AcDbEntity
8
1
62
256
6
ByLayer
370
18
48
1
60
1
100
AcDbLine
10
-46.499998
20
-54.699612
30
0
11
-50
21
-54.238829
31
0
39
0
210
0
220
0
230
1
0
LINE
5
17B
100
AcDbEntity
8
1
62
256
6
ByLayer
370
18
48
1
60
1
100
AcDbLine
10
100
20
-54.238829
30
0
11
96.500002
21
-54.699612
31
0
39
0
210
0
220
0
230
1
0
LINE
5
17C
100
AcDbEntity
8
1
62
256
6
ByLayer
370
18
48
1
60
1
100
AcDbLine
10
96.500002
20
-54.699612
30
0
11
96.499998
21
-53.778045
31
0
39
0
210
0
220
0
230
1
0
LINE
5
17D
100
AcDbEntity
8
1
62
256
6
ByLayer
370
18
48
1
60
1
100
AcDbLine
10
96.499998
20
-53.778045
30
0
11
100
21
-54.238829
31
0
39
0
210
0
220
0
230
1
0
LINE
5
181
100
AcDbEntity
8
1
62
256
6
ByLayer
370
18
48
1
60
1
100
AcDbLine
10
96.646998
20
-7.471105
30
0
11
99.317703
21
-9.779708
31
0
39
0
210
0
220
0
230
1
0
LINE
5
182
100
AcDbEntity
8
1
62
256
6
ByLayer
370
18
48
1
60
1
100
AcDbLine
10
99.317703
20
-9.779708
30
0
11
98.629193
21
-10.392276
31
0
39
0
210
0
220
0
230
1
0
LINE
5
183
100
AcDbEntity
8
1
62
256
6
ByLayer
370
18
48
1
60
1
100
AcDbLine
10
98.629193
20
-10.392276
30
0
11
96.646998
21
-7.471105
31
0
39
0
210
0
220
0
230
1
0
MTEXT
5
160
100
AcDbEntity
8
SK2
62
256
6
ByLayer
370
18
48
1
60
0
100
AcDbMText
10
-58.814634
20
-26.996089
30
0
210
0
220
0
230
1
1
%%c
40
3.5
41
0
44
1.084337
50
90
71
7
72
5
7
iso_b_vert
0
MTEXT
5
163
100
AcDbEntity
8
SK2
62
256
6
ByLayer
370
18
48
1
60
0
100
AcDbMText
10
-58.814634
20
-20.023432
30
0
210
0
220
0
230
1
1
\W0.6740;20
40
3.5
41
0
44
1.084337
50
90
71
7
72
5
7
iso_b_vert
0
MTEXT
5
16C
100
AcDbEntity
8
2
62
256
6
ByLayer
370
18
48
1
60
0
100
AcDbMText
10
110.435366
20
17.934944
30
0
210
0
220
0
230
1
1
%%c
40
3.5
41
0
44
1.084337
50
90
71
7
72
5
7
iso_b_vert
0
MTEXT
5
16D
100
AcDbEntity
8
2
62
256
6
ByLayer
370
18
48
1
60
0
100
AcDbMText
10
110.435366
20
24.9076
30
0
210
0
220
0
230
1
1
\W0.6740;20
40
3.5
41
0
44
1.084337
50
90
71
7
72
5
7
iso_b_vert
0
MTEXT
5
176
100
AcDbEntity
8
SK2
62
256
6
ByLayer
370
18
48
1
60
0
100
AcDbMText
10
22.224734
20
-53.206195
30
0
210
0
220
0
230
1
1
\W0.6217;150
40
3.5
41
0
44
1.084337
50
0
71
7
72
5
7
iso_b_vert
0
MTEXT
5
17F
100
AcDbEntity
8
SK2
62
256
6
ByLayer
370
18
48
1
60
0
100
AcDbMText
10
106.346425
20
-16.690501
30
0
210
0
220
0
230
1
1
\W0.6380;R
40
3.5
41
0
44
1.084337
50
311.659302484679
71
7
72
5
7
iso_b_vert
0
MTEXT
5
180
100
AcDbEntity
8
SK2
62
256
6
ByLayer
370
18
48
1
60
0
100
AcDbMText
10
108.795179
20
-19.442856
30
0
210
0
220
0
230
1
1
\W0.5321;10
40
3.5
41
0
44
1.084337
50
311.659302484679
71
7
72
5
7
iso_b_vert
0
MTEXT
5
185
100
AcDbEntity
8
SK6
62
256
6
ByLayer
370
18
48
1
60
0
100
AcDbMText
10
-1.021432
20
-62.110509
30
0
210
0
220
0
230
1
1
\W0.7403;2B286-2000-RA       R2AH
40
3
41
0
44
1.084337
50
0
71
7
72
5
7
iso_b_vert
0
HATCH
5
167
100
AcDbEntity
8
SK2
62
256
6
ByLayer
370
13
48
1
60
0
100
AcDbHatch
10
0
20
0
30
0
210
0
220
0
230
1
2
ANSI31
70
0
71
0
91
1
92
5
93
3
72
1
10
-57.25
20
9.99999999999977
11
-56.7892162584472
21
6.50000169255296
72
1
10
-56.7892162584472
20
6.50000169255296
11
-57.7107837415528
21
6.49999830744659
72
1
10
-57.7107837415528
20
6.49999830744659
11
-57.25
21
9.99999999999977
97
0
75
0
76
1
52
0
41
0.0062
77
0
78
1
53
45
43
0
44
0
45
-0.0139193969876572
46
0.0139193969876572
79
0
47
0
98
1
10
0
20
0
0
HATCH
5
16B
100
AcDbEntity
8
SK2
62
256
6
ByLayer
370
13
48
1
60
0
100
AcDbHatch
10
0
20
0
30
0
210
0
220
0
230
1
2
ANSI31
70
0
71
0
91
1
92
5
93
3
72
1
10
-57.25
20
-10.0000000000003
11
-57.7107837415528
21
-6.50000169255344
72
1
10
-57.7107837415528
20
-6.50000169255344
11
-56.7892162584472
21
-6.49999830744707
72
1
10
-56.7892162584472
20
-6.49999830744707
11
-57.25
21
-10.0000000000003
97
0
75
0
76
1
52
0
41
0.0062
77
0
78
1
53
45
43
0
44
0
45
-0.0139193969876572
46
0.0139193969876572
79
0
47
0
98
1
10
0
20
0
0
HATCH
5
171
100
AcDbEntity
8
2
62
256
6
ByLayer
370
13
48
1
60
0
100
AcDbHatch
10
0
20
0
30
0
210
0
220
0
230
1
2
ANSI31
70
0
71
0
91
1
92
5
93
3
72
1
10
112
20
10.0000999999997
11
112.460783741553
21
6.50010169255288
72
1
10
112.460783741553
20
6.50010169255288
11
111.539216258447
21
6.50009830744651
72
1
10
111.539216258447
20
6.50009830744651
11
112
21
10.0000999999997
97
0
75
0
76
1
52
0
41
0.0062
77
0
78
1
53
45
43
0
44
0
45
-0.0139193969876572
46
0.0139193969876572
79
0
47
0
98
1
10
0
20
0
0
HATCH
5
175
100
AcDbEntity
8
2
62
256
6
ByLayer
370
13
48
1
60
0
100
AcDbHatch
10
0
20
0
30
0
210
0
220
0
230
1
2
ANSI31
70
0
71
0
91
1
92
5
93
3
72
1
10
112
20
-10.0001000000003
11
111.539216258447
21
-6.5001016925535
72
1
10
111.539216258447
20
-6.5001016925535
11
112.460783741553
21
-6.50009830744713
72
1
10
112.460783741553
20
-6.50009830744713
11
112
21
-10.0001000000003
97
0
75
0
76
1
52
0
41
0.0062
77
0
78
1
53
45
43
0
44
0
45
-0.0139193969876572
46
0.0139193969876572
79
0
47
0
98
1
10
0
20
0
0
HATCH
5
17A
100
AcDbEntity
8
SK2
62
256
6
ByLayer
370
13
48
1
60
0
100
AcDbHatch
10
0
20
0
30
0
210
0
220
0
230
1
2
ANSI31
70
0
71
0
91
1
92
5
93
3
72
1
10
-50
20
-54.2388287463022
11
-46.5000016925532
21
-53.7780450047495
72
1
10
-46.5000016925532
20
-53.7780450047495
11
-46.4999983074468
21
-54.699612487855
72
1
10
-46.4999983074468
20
-54.699612487855
11
-50
21
-54.2388287463022
97
0
75
0
76
1
52
0
41
0.0062
77
0
78
1
53
45
43
0
44
0
45
-0.0139193969876572
46
0.0139193969876572
79
0
47
0
98
1
10
0
20
0
0
HATCH
5
17E
100
AcDbEntity
8
SK2
62
256
6
ByLayer
370
13
48
1
60
0
100
AcDbHatch
10
0
20
0
30
0
210
0
220
0
230
1
2
ANSI31
70
0
71
0
91
1
92
5
93
3
72
1
10
100
20
-54.2388287463022
11
96.5000016925532
21
-54.699612487855
72
1
10
96.5000016925532
20
-54.699612487855
11
96.4999983074468
21
-53.7780450047495
72
1
10
96.4999983074468
20
-53.7780450047495
11
100
21
-54.2388287463022
97
0
75
0
76
1
52
0
41
0.0062
77
0
78
1
53
45
43
0
44
0
45
-0.0139193969876572
46
0.0139193969876572
79
0
47
0
98
1
10
0
20
0
0
HATCH
5
184
100
AcDbEntity
8
SK2
62
256
6
ByLayer
370
13
48
1
60
0
100
AcDbHatch
10
0
20
0
30
0
210
0
220
0
230
1
2
ANSI31
70
0
71
0
91
1
92
5
93
3
72
1
10
96.6469984557155
20
-7.47110510766115
11
99.3177031666803
21
-9.77970774896613
72
1
10
99.3177031666803
20
-9.77970774896613
11
98.6291926637516
21
-10.3922760417187
72
1
10
98.6291926637516
20
-10.3922760417187
11
96.6469984557155
21
-7.47110510766115
97
0
75
0
76
1
52
0
41
0.0062
77
0
78
1
53
45
43
0
44
0
45
-0.0139193969876572
46
0.0139193969876572
79
0
47
0
98
1
10
0
20
0
0
DIMENSION
5
188
100
AcDbEntity
8
SK2
62
256
6
ByLayer
370
18
48
1
60
0
100
AcDbDimension
2
_U0
10
0
20
-44.238829
30
0
11
50
21
-44.238829
31
0
70
32
71
1
72
1
41
1
210
0
220
0
230
1
3
Standard
100
AcDbAlignedDimension
13
100
23
0
33
0
14
0
24
0
34
0
50
0
100
AcDbRotatedDimension
1001
ACAD
1000
DSTYLE
1002
{
1070
   371
1070
    13
1070
   372
1070
    13
1070
   170
1070
     0
1070
   144
1040
1.0
1070
   277
1070
     2
1070
   284
1070
     8
1070
   278
1070
    46
1070
   146
1040
1.0
1070
   345
1005
16
1070
   347
1005
16
1070
   346
1005
16
1070
   344
1005
0
1070
   343
1005
0
1070
   172
1070
     1
1070
    76
1070
     0
1070
    75
1070
     0
1070
   282
1070
     0
1070
   281
1070
     0
1070
    71
1070
     0
1070
    74
1070
     0
1070
   279
1070
     0
1070
   173
1070
     1
1070
   340
1005
161
1070
   271
1070
     2
1070
   272
1070
     2
1070
    77
1070
     1
1070
    73
1070
     1
1070
   171
1070
     3
1070
   274
1070
     4
1070
   177
1070
     2
1070
   176
1070
     2
1070
   178
1070
     2
1070
    78
1070
     8
1070
    48
1040
-0.1
1070
    41
1040
3.5
1070
   147
1040
1.75
1070
    42
1040
1.5875
1070
    44
1040
2.0
1070
   140
1040
3.5
1002
}
1001
ACAD_DSTYLE_DIM_LINETYPE
1070
   380
1005
16
1001
ACAD_DSTYLE_DIM_EXT1_LINETYPE
1070
   381
1005
16
1001
ACAD_DSTYLE_DIM_EXT2_LINETYPE
1070
   382
1005
16
0
DIMENSION
5
1A1
100
AcDbEntity
8
2
62
256
6
ByLayer
370
18
48
1
60
0
100
AcDbDimension
2
_U1
10
70
20
-27.738829
30
0
11
113.551309
21
-27.738829
31
0
70
32
71
1
72
1
41
1
210
0
220
0
230
1
3
Standard
100
AcDbAlignedDimension
13
100
23
0
33
0
14
70
24
0
34
0
50
0
100
AcDbRotatedDimension
1001
ACAD
1000
DSTYLE
1002
{
1070
   371
1070
    13
1070
   372
1070
    13
1070
   170
1070
     0
1070
   144
1040
1.0
1070
   277
1070
     2
1070
   284
1070
     8
1070
   278
1070
    46
1070
   146
1040
1.0
1070
   345
1005
16
1070
   347
1005
16
1070
   346
1005
16
1070
   344
1005
0
1070
   343
1005
0
1070
   172
1070
     1
1070
    76
1070
     0
1070
    75
1070
     0
1070
   282
1070
     0
1070
   281
1070
     0
1070
    71
1070
     0
1070
    74
1070
     0
1070
   279
1070
     0
1070
   173
1070
     1
1070
   340
1005
161
1070
   271
1070
     2
1070
   272
1070
     2
1070
    77
1070
     1
1070
    73
1070
     1
1070
   171
1070
     3
1070
   274
1070
     4
1070
   177
1070
     2
1070
   176
1070
     2
1070
   178
1070
     2
1070
    78
1070
     8
1070
    48
1040
-0.1
1070
    41
1040
3.5
1070
   147
1040
1.75
1070
    42
1040
1.5875
1070
    44
1040
2.0
1070
   140
1040
3.5
1002
}
1001
ACAD_DSTYLE_DIM_LINETYPE
1070
   380
1005
16
1001
ACAD_DSTYLE_DIM_EXT1_LINETYPE
1070
   381
1005
16
1001
ACAD_DSTYLE_DIM_EXT2_LINETYPE
1070
   382
1005
16
0
ENDSEC
0
SECTION
2
OBJECTS
0
DICTIONARY
5
22a
330
0
100
AcDbDictionary
280
0
281
1
3
ACAD_GROUP
350
22b
3
ACAD_MLINESTYLE
350
22c
0
DICTIONARY
5
22b
330
0
100
AcDbDictionary
280
0
281
1
0
DICTIONARY
5
22c
330
0
100
AcDbDictionary
280
0
281
1
3
Standard
350
18
0
MLINESTYLE
5
18
330
22c
100
AcDbMlineStyle
2
Standard
70
0
3

62
256
51
90
52
90
71
2
49
-0.5
62
256
6
ByLayer
49
0.5
62
256
6
ByLayer
0
RASTERVARIABLES
5
218
330

100
AcDbRasterVariables
90
0
70
1
71
1
72
1
0
ENDSEC
0
EOF
