0
SECTION
2
HEADER
9
$ACADVER
1
AC1015
9
$DWGCODEPAGE
3
ANSI_1252
9
$HANDSEED
5
254
9
$ANGBASE
50
0
9
$ANGDIR
70
0
9
$ATTMODE
70
1
9
$AUNITS
70
0
9
$AUPREC
70
0
9
$CECOLOR
62
256
9
$CELTSCALE
40
1
9
$CELTYPE
6
ByLayer
9
$CELWEIGHT
370
18
9
$CLAYER
8
0
9
$CMLJUST
70
0
9
$CMLSCALE
40
1
9
$CMLSTYLE
2
Standard
9
$DIMSTYLE
2
Standard
9
$TEXTSIZE
40
0.2
9
$TEXTSTYLE
7
Standard
9
$LUNITS
70
2
9
$LUPREC
70
4
9
$EXTNAMES
290
1
9
$INSUNITS
70
4
9
$LTSCALE
40
1
9
$LWDISPLAY
290
1
9
$PDMODE
70
0
9
$PDSIZE
40
0
9
$PLINEGEN
70
0
0
ENDSEC
0
SECTION
2
CLASSES
0
CLASS
1
RASTERVARIABLES
2
AcDbRasterVariables
3
ISM
90
0
280
0
281
0
0
ENDSEC
0
SECTION
2
TABLES
0
TABLE
2
VPORT
5
24a
100
AcDbSymbolTable
0
VPORT
5
1
100
AcDbSymbolTableRecord
100
AcDbViewportTableRecord
2
*Active
70
0
10
0
20
0
11
1
21
1
12
-1
22
1
13
0
23
0
14
0.5
24
0.5
15
10
25
10
16
0
26
0
36
1
17
0
27
0
37
0
0
ENDTAB
0
TABLE
2
LTYPE
5
24b
100
AcDbSymbolTable
0
LTYPE
5
14
100
AcDbSymbolTableRecord
100
AcDbLinetypeTableRecord
70
0
2
ByBlock
3

72
65
73
0
40
0
0
LTYPE
5
15
100
AcDbSymbolTableRecord
100
AcDbLinetypeTableRecord
70
0
2
ByLayer
3

72
65
73
0
40
0
0
LTYPE
5
16
100
AcDbSymbolTableRecord
100
AcDbLinetypeTableRecord
70
0
2
Continuous
3
Solid line
72
65
73
0
40
0
0
LTYPE
5
6E
100
AcDbSymbolTableRecord
100
AcDbLinetypeTableRecord
70
0
2
CENTER
3
____ _ ____ _ ____ _ ____
72
65
73
4
40
47.5
49
22
74
0
49
-8.5
74
0
49
8.5
74
0
49
-8.5
74
0
0
LTYPE
5
6F
100
AcDbSymbolTableRecord
100
AcDbLinetypeTableRecord
70
0
2
DASHED
3
__ __ __ __ __ __ __ __ __
72
65
73
2
40
25.72
49
12.86
74
0
49
-12.86
74
0
0
ENDTAB
0
TABLE
2
LAYER
5
24c
100
AcDbSymbolTable
0
LAYER
5
10
100
AcDbSymbolTableRecord
100
AcDbLayerTableRecord
2
0
70
0
62
7
6
Continuous
290
1
370
-3
390
0
0
LAYER
5
71
100
AcDbSymbolTableRecord
100
AcDbLayerTableRecord
2
81
70
0
62
-3
6
Continuous
290
1
370
-3
390
0
0
LAYER
5
73
100
AcDbSymbolTableRecord
100
AcDbLayerTableRecord
2
80
70
0
62
-6
6
Continuous
290
1
370
-3
390
0
0
LAYER
5
75
100
AcDbSymbolTableRecord
100
AcDbLayerTableRecord
2
1
70
0
62
4
6
Continuous
290
1
370
-3
390
0
0
LAYER
5
7E
100
AcDbSymbolTableRecord
100
AcDbLayerTableRecord
2
4
70
0
62
-2
6
CENTER
290
1
370
-3
390
0
0
LAYER
5
C3
100
AcDbSymbolTableRecord
100
AcDbLayerTableRecord
2
2
70
0
62
7
6
Continuous
290
1
370
-3
390
0
0
LAYER
5
1A7
100
AcDbSymbolTableRecord
100
AcDbLayerTableRecord
2
Defpoints
70
0
62
7
6
Continuous
290
0
370
-3
390
0
0
LAYER
5
236
100
AcDbSymbolTableRecord
100
AcDbLayerTableRecord
2
SK4
70
0
62
2
6
CENTER
290
1
370
-3
390
0
0
LAYER
5
237
100
AcDbSymbolTableRecord
100
AcDbLayerTableRecord
2
SK1
70
0
62
4
6
Continuous
290
1
370
-3
390
0
0
LAYER
5
238
100
AcDbSymbolTableRecord
100
AcDbLayerTableRecord
2
SK2
70
0
62
7
6
Continuous
290
1
370
-3
390
0
0
LAYER
5
239
100
AcDbSymbolTableRecord
100
AcDbLayerTableRecord
2
SK6
70
0
62
5
6
Continuous
290
1
370
-3
390
0
0
ENDTAB
0
TABLE
2
STYLE
5
24d
100
AcDbSymbolTable
0
STYLE
5
11
100
AcDbSymbolTableRecord
100
AcDbTextStyleTableRecord
2
Standard
3
txt
70
0
71
0
40
0
41
1
42
0
50
0
0
STYLE
5
17D
100
AcDbSymbolTableRecord
100
AcDbTextStyleTableRecord
2
iso_b_vert
3
simplex.shx
70
0
71
0
40
0
41
1
42
0
50
0
0
STYLE
5
17E
100
AcDbSymbolTableRecord
100
AcDbTextStyleTableRecord
2
DWGDirectTextStyle
3
simplex
70
0
71
0
40
0
41
1
42
0
50
0
0
ENDTAB
0
TABLE
2
DIMSTYLE
5
24e
100
AcDbSymbolTable
100
AcDbDimStyleTable
0
DIMSTYLE
105
27
100
AcDbSymbolTableRecord
100
AcDbDimStyleTableRecord
2
Standard
70
0
3
<>
41
0.18
42
0.0625
44
0.18
140
0.18
147
0.09
73
0
74
0
77
1
271
2
275
0
278
52
280
0
340
11
0
ENDTAB
0
TABLE
2
VIEW
5
24f
100
AcDbSymbolTable
0
ENDTAB
0
TABLE
2
UCS
5
250
100
AcDbSymbolTable
0
ENDTAB
0
TABLE
2
APPID
5
251
100
AcDbSymbolTable
0
APPID
5
12
100
AcDbSymbolTableRecord
100
AcDbRegAppTableRecord
2
ACAD
70
0
0
APPID
5
1A3
100
AcDbSymbolTableRecord
100
AcDbRegAppTableRecord
2
ACAD_DSTYLE_DIMBREAK
70
0
0
APPID
5
1F5
100
AcDbSymbolTableRecord
100
AcDbRegAppTableRecord
2
ACAD_DSTYLE_DIM_LINETYPE
70
0
0
APPID
5
1F6
100
AcDbSymbolTableRecord
100
AcDbRegAppTableRecord
2
ACAD_DSTYLE_DIM_EXT1_LINETYPE
70
0
0
APPID
5
1F7
100
AcDbSymbolTableRecord
100
AcDbRegAppTableRecord
2
ACAD_DSTYLE_DIM_EXT2_LINETYPE
70
0
0
APPID
5
232
100
AcDbSymbolTableRecord
100
AcDbRegAppTableRecord
2
ACAD_MLEADERVER
70
0
0
ENDTAB
0
TABLE
2
BLOCK_RECORD
5
252
100
AcDbSymbolTable
0
BLOCK_RECORD
5
1F
100
AcDbSymbolTableRecord
100
AcDbBlockTableRecord
2
*Model_Space
340
0
70
0
0
BLOCK_RECORD
5
1B
100
AcDbSymbolTableRecord
100
AcDbBlockTableRecord
2
*Paper_Space
340
0
70
0
0
BLOCK_RECORD
5
23
100
AcDbSymbolTableRecord
100
AcDbBlockTableRecord
2
*Paper_Space0
340
0
70
0
0
BLOCK_RECORD
5
1A8
100
AcDbSymbolTableRecord
100
AcDbBlockTableRecord
2
*D1
340
0
70
0
0
BLOCK_RECORD
5
1B4
100
AcDbSymbolTableRecord
100
AcDbBlockTableRecord
2
_U0
340
0
70
0
0
BLOCK_RECORD
5
1C0
100
AcDbSymbolTableRecord
100
AcDbBlockTableRecord
2
*D3
340
0
70
0
0
BLOCK_RECORD
5
1CE
100
AcDbSymbolTableRecord
100
AcDbBlockTableRecord
2
_U1
340
0
70
0
0
ENDTAB
0
ENDSEC
0
SECTION
2
BLOCKS
0
BLOCK
5
20
100
AcDbEntity
8
0
100
AcDbBlockBegin
2
*Model_Space
70
0
10
0
20
0
30
0
3
*Model_Space
0
ENDBLK
5
21
100
AcDbEntity
8
0
100
AcDbBlockEnd
0
BLOCK
5
1C
100
AcDbEntity
8
0
100
AcDbBlockBegin
2
*Paper_Space
70
0
10
0
20
0
30
0
3
*Paper_Space
0
ENDBLK
5
1D
100
AcDbEntity
8
0
100
AcDbBlockEnd
0
BLOCK
5
24
100
AcDbEntity
8
0
100
AcDbBlockBegin
2
*Paper_Space0
70
0
10
0
20
0
30
0
3
*Paper_Space0
0
ENDBLK
5
25
100
AcDbEntity
8
0
100
AcDbBlockEnd
0
BLOCK
5
1A9
100
AcDbEntity
8
0
100
AcDbBlockBegin
2
*D1
70
1
10
0
20
0
30
0
3
*D1
0
LINE
5
1AB
100
AcDbEntity
8
0
62
256
6
ByLayer
370
-2
48
1
60
0
100
AcDbLine
10
27.5
20
-1.5875
30
0
11
27.5
21
-40.122763
31
0
39
0
210
0
220
0
230
1
0
LINE
5
1AC
100
AcDbEntity
8
0
62
256
6
ByLayer
370
-2
48
1
60
0
100
AcDbLine
10
0
20
-1.5875
30
0
11
0
21
-40.122763
31
0
39
0
210
0
220
0
230
1
0
LINE
5
1AD
100
AcDbEntity
8
0
62
256
6
ByLayer
370
-2
48
1
60
0
100
AcDbLine
10
24
20
-38.122763
30
0
11
3.5
21
-38.122763
31
0
39
0
210
0
220
0
230
1
0
SOLID
5
1AE
100
AcDbEntity
8
0
62
256
6
ByLayer
370
-1
48
1
60
0
100
AcDbTrace
10
24
20
-38.706096
30
0
11
24
21
-37.539429
31
0
12
27.5
22
-38.122763
32
0
13
27.5
23
-38.122763
33
0
39
0
210
0
220
0
230
1
0
SOLID
5
1AF
100
AcDbEntity
8
0
62
256
6
ByLayer
370
-1
48
1
60
0
100
AcDbTrace
10
3.5
20
-37.539429
30
0
11
3.5
21
-38.706096
31
0
12
0
22
-38.122763
32
0
13
0
23
-38.122763
33
0
39
0
210
0
220
0
230
1
0
MTEXT
5
1B0
100
AcDbEntity
8
0
62
256
6
ByLayer
370
18
48
1
60
0
100
AcDbMText
10
13.75
20
-31.122763
30
0
210
0
220
0
230
1
1
\A1;27.5
40
3.5
41
0
44
1
50
0
71
5
72
5
7
iso_b_vert
0
POINT
5
1B1
100
AcDbEntity
8
Defpoints
62
0
6
ByLayer
370
-1
48
1
60
0
100
AcDbPoint
10
27.5
20
0
30
0
39
0
210
0
220
0
230
1
50
360
0
POINT
5
1B2
100
AcDbEntity
8
Defpoints
62
0
6
ByLayer
370
-1
48
1
60
0
100
AcDbPoint
10
0
20
0
30
0
39
0
210
0
220
0
230
1
50
360
0
POINT
5
1B3
100
AcDbEntity
8
Defpoints
62
0
6
ByLayer
370
-1
48
1
60
0
100
AcDbPoint
10
0
20
-38.122763
30
0
39
0
210
0
220
0
230
1
50
360
0
ENDBLK
5
1AA
100
AcDbEntity
8
0
100
AcDbBlockEnd
0
BLOCK
5
1BB
100
AcDbEntity
8
0
100
AcDbBlockBegin
2
_U0
70
0
10
0
20
0
30
0
3
_U0
0
MTEXT
5
1B5
100
AcDbEntity
8
SK2
62
256
6
ByLayer
370
18
48
1
60
0
100
AcDbMText
10
9.828301
20
-37.090129
30
0
210
0
220
0
230
1
1
\W0.7346;27.5
40
3.5
41
0
44
1.084337
50
0
71
7
72
5
7
iso_b_vert
0
LINE
5
1B6
100
AcDbEntity
8
SK2
62
256
6
ByLayer
370
13
48
1
60
0
100
AcDbLine
10
27.5
20
-1.5875
30
0
11
27.5
21
-40.122763
31
0
39
0
210
0
220
0
230
1
0
LINE
5
1B7
100
AcDbEntity
8
SK2
62
256
6
ByLayer
370
13
48
1
60
0
100
AcDbLine
10
0
20
-1.5875
30
0
11
0
21
-40.122763
31
0
39
0
210
0
220
0
230
1
0
LINE
5
1B8
100
AcDbEntity
8
SK2
62
256
6
ByLayer
370
13
48
1
60
0
100
AcDbLine
10
27.5
20
-38.122763
30
0
11
0
21
-38.122763
31
0
39
0
210
0
220
0
230
1
0
SOLID
5
1B9
100
AcDbEntity
8
SK2
62
256
6
ByLayer
370
18
48
1
60
0
100
AcDbTrace
10
27.5
20
-38.122763
30
0
11
24.000002
21
-38.583547
31
0
12
23.999998
22
-37.661979
32
0
13
23.999998
23
-37.661979
33
0
39
0
210
0
220
0
230
1
0
SOLID
5
1BA
100
AcDbEntity
8
SK2
62
256
6
ByLayer
370
18
48
1
60
0
100
AcDbTrace
10
0
20
-38.122763
30
0
11
3.499998
21
-37.661979
31
0
12
3.500002
22
-38.583547
32
0
13
3.500002
23
-38.583547
33
0
39
0
210
0
220
0
230
1
0
ENDBLK
5
1BC
100
AcDbEntity
8
0
100
AcDbBlockEnd
0
BLOCK
5
1C1
100
AcDbEntity
8
0
100
AcDbBlockBegin
2
*D3
70
1
10
0
20
0
30
0
3
*D3
0
LINE
5
1C3
100
AcDbEntity
8
0
62
256
6
ByLayer
370
-2
48
1
60
0
100
AcDbLine
10
27.5
20
-1.5875
30
0
11
27.5
21
-23.622763
31
0
39
0
210
0
220
0
230
1
0
LINE
5
1C4
100
AcDbEntity
8
0
62
256
6
ByLayer
370
-2
48
1
60
0
100
AcDbLine
10
15.592
20
-1.5875
30
0
11
15.592
21
-23.622763
31
0
39
0
210
0
220
0
230
1
0
LINE
5
1C5
100
AcDbEntity
8
0
62
256
6
ByLayer
370
-2
48
1
60
0
100
AcDbLine
10
27.5
20
-21.622763
30
0
11
57.5
21
-21.622763
31
0
39
0
210
0
220
0
230
1
0
LINE
5
1C6
100
AcDbEntity
8
0
62
256
6
ByLayer
370
-2
48
1
60
0
100
AcDbLine
10
31
20
-21.622763
30
0
11
34.5
21
-21.622763
31
0
39
0
210
0
220
0
230
1
0
LINE
5
1C7
100
AcDbEntity
8
0
62
256
6
ByLayer
370
-2
48
1
60
0
100
AcDbLine
10
12.092
20
-21.622763
30
0
11
8.592
21
-21.622763
31
0
39
0
210
0
220
0
230
1
0
SOLID
5
1C8
100
AcDbEntity
8
0
62
256
6
ByLayer
370
-1
48
1
60
0
100
AcDbTrace
10
31
20
-21.039429
30
0
11
31
21
-22.206096
31
0
12
27.5
22
-21.622763
32
0
13
27.5
23
-21.622763
33
0
39
0
210
0
220
0
230
1
0
SOLID
5
1C9
100
AcDbEntity
8
0
62
256
6
ByLayer
370
-1
48
1
60
0
100
AcDbTrace
10
12.092
20
-22.206096
30
0
11
12.092
21
-21.039429
31
0
12
15.592
22
-21.622763
32
0
13
15.592
23
-21.622763
33
0
39
0
210
0
220
0
230
1
0
MTEXT
5
1CA
100
AcDbEntity
8
0
62
256
6
ByLayer
370
18
48
1
60
0
100
AcDbMText
10
46
20
-14.622763
30
0
210
0
220
0
230
1
1
\A1;11.91
40
3.5
41
0
44
1
50
0
71
5
72
5
7
iso_b_vert
0
POINT
5
1CB
100
AcDbEntity
8
Defpoints
62
0
6
ByLayer
370
-1
48
1
60
0
100
AcDbPoint
10
27.5
20
0
30
0
39
0
210
0
220
0
230
1
50
360
0
POINT
5
1CC
100
AcDbEntity
8
Defpoints
62
0
6
ByLayer
370
-1
48
1
60
0
100
AcDbPoint
10
15.592
20
0
30
0
39
0
210
0
220
0
230
1
50
360
0
POINT
5
1CD
100
AcDbEntity
8
Defpoints
62
0
6
ByLayer
370
-1
48
1
60
0
100
AcDbPoint
10
15.592
20
-21.622763
30
0
39
0
210
0
220
0
230
1
50
360
0
ENDBLK
5
1C2
100
AcDbEntity
8
0
100
AcDbBlockEnd
0
BLOCK
5
1D5
100
AcDbEntity
8
0
100
AcDbBlockBegin
2
_U1
70
0
10
0
20
0
30
0
3
_U1
0
MTEXT
5
1CF
100
AcDbEntity
8
2
62
256
6
ByLayer
370
18
48
1
60
0
100
AcDbMText
10
39.082359
20
-20.590129
30
0
210
0
220
0
230
1
1
\W0.6076;11.91
40
3.5
41
0
44
1.084337
50
0
71
7
72
5
7
iso_b_vert
0
LINE
5
1D0
100
AcDbEntity
8
2
62
256
6
ByLayer
370
13
48
1
60
0
100
AcDbLine
10
27.5
20
-1.5875
30
0
11
27.5
21
-23.622763
31
0
39
0
210
0
220
0
230
1
0
LINE
5
1D1
100
AcDbEntity
8
2
62
256
6
ByLayer
370
13
48
1
60
0
100
AcDbLine
10
15.592
20
-1.5875
30
0
11
15.592
21
-23.622763
31
0
39
0
210
0
220
0
230
1
0
LINE
5
1D2
100
AcDbEntity
8
2
62
256
6
ByLayer
370
13
48
1
60
0
100
AcDbLine
10
15.592
20
-21.622763
30
0
11
47.102124
21
-21.622763
31
0
39
0
210
0
220
0
230
1
0
SOLID
5
1D3
100
AcDbEntity
8
2
62
256
6
ByLayer
370
18
48
1
60
0
100
AcDbTrace
10
27.5
20
-21.622763
30
0
11
24.000002
21
-22.083547
31
0
12
23.999998
22
-21.161979
32
0
13
23.999998
23
-21.161979
33
0
39
0
210
0
220
0
230
1
0
SOLID
5
1D4
100
AcDbEntity
8
2
62
256
6
ByLayer
370
18
48
1
60
0
100
AcDbTrace
10
15.592
20
-21.622763
30
0
11
19.091998
21
-21.161979
31
0
12
19.092002
22
-22.083547
32
0
13
19.092002
23
-22.083547
33
0
39
0
210
0
220
0
230
1
0
ENDBLK
5
1D6
100
AcDbEntity
8
0
100
AcDbBlockEnd
0
ENDSEC
0
SECTION
2
ENTITIES
0
ELLIPSE
5
D9
100
AcDbEntity
8
1
62
256
6
ByLayer
370
18
48
1
60
0
100
AcDbEllipse
10
15.72949
20
-7.593179
30
0
11
1.9652182651683
21
3.52935988157384
31
0
210
0
220
0
230
1
40
0.820054
41
0.635806508913323
42
0.689341897730955
0
ELLIPSE
5
DA
100
AcDbEntity
8
1
62
256
6
ByLayer
370
18
48
1
60
0
100
AcDbEllipse
10
27.689933
20
-0.36468
30
0
11
0.247498768849183
21
0.175906025220636
31
0
210
0
220
0
230
1
40
0.729272
41
2.07456911235906
42
2.89153475836189
0
ELLIPSE
5
DB
100
AcDbEntity
8
1
62
256
6
ByLayer
370
18
48
1
60
0
100
AcDbEllipse
10
27.224427
20
0.328968
30
0
11
0.00178615938352385
21
-0.277532010986554
31
0
210
0
220
0
230
1
40
0.436777
41
-2.60658835557992
42
-0.468560021886569
0
ELLIPSE
5
DC
100
AcDbEntity
8
1
62
256
6
ByLayer
370
18
48
1
60
0
100
AcDbEllipse
10
15.72949
20
7.507363
30
0
11
-2.11299106088966
21
3.44292503258704
31
0
210
0
220
0
230
1
40
0.809838
41
2.35691297902288
42
2.45378784774507
0
ELLIPSE
5
DD
100
AcDbEntity
8
1
62
256
6
ByLayer
370
18
48
1
60
0
100
AcDbEllipse
10
15.72949
20
-5.99668
30
0
11
-2.98391515038193
21
2.72299731522734
31
0
210
0
220
0
230
1
40
0.670667
41
-0.982272212594841
42
-0.885397343871517
0
ELLIPSE
5
DE
100
AcDbEntity
8
1
62
256
6
ByLayer
370
18
48
1
60
0
100
AcDbEllipse
10
15.72949
20
1.781858
30
0
11
-3.48123916832752
21
2.04925299958702
31
0
210
0
220
0
230
1
40
0.168917
41
1.5337185832728
42
1.63059345199539
0
ELLIPSE
5
DF
100
AcDbEntity
8
1
62
256
6
ByLayer
370
18
48
1
60
0
100
AcDbEllipse
10
16.674414
20
0
30
0
11
8.83970690011102
21
-2.4339973560826
31
0
210
0
220
0
230
1
40
0.354657
41
-1.66762912301387
42
-1.59562390523092
0
ELLIPSE
5
E0
100
AcDbEntity
8
1
62
256
6
ByLayer
370
18
48
1
60
0
100
AcDbEllipse
10
16.743498
20
0
30
0
11
9.44804580835738
21
-3.96111591101282
31
0
210
0
220
0
230
1
40
0.026464
41
1.70406408083097
42
1.7681647573353
0
ELLIPSE
5
E1
100
AcDbEntity
8
1
62
256
6
ByLayer
370
18
48
1
60
0
100
AcDbEllipse
10
16.674414
20
0
30
0
11
8.84440596840939
21
-2.16218594892429
31
0
210
0
220
0
230
1
40
0.376323
41
1.78471045961886
42
1.85671567721225
0
POINT
5
70
100
AcDbEntity
8
81
62
256
6
ByLayer
370
18
48
1
60
0
100
AcDbPoint
10
27.55
20
0
30
0
39
0
210
0
220
0
230
1
50
360
0
POINT
5
72
100
AcDbEntity
8
80
62
256
6
ByLayer
370
18
48
1
60
0
100
AcDbPoint
10
0
20
0
30
0
39
0
210
0
220
0
230
1
50
360
0
POINT
5
74
100
AcDbEntity
8
1
62
256
6
ByLayer
370
18
48
1
60
1
100
AcDbPoint
10
27.5
20
0
30
0
39
0
210
0
220
0
230
1
50
360
0
POINT
5
76
100
AcDbEntity
8
1
62
256
6
ByLayer
370
18
48
1
60
1
100
AcDbPoint
10
0
20
0
30
0
39
0
210
0
220
0
230
1
50
360
0
POINT
5
77
100
AcDbEntity
8
1
62
256
6
ByLayer
370
18
48
1
60
1
100
AcDbPoint
10
27.5
20
0
30
0
39
0
210
0
220
0
230
1
50
360
0
POINT
5
78
100
AcDbEntity
8
1
62
256
6
ByLayer
370
18
48
1
60
1
100
AcDbPoint
10
15.592
20
0
30
0
39
0
210
0
220
0
230
1
50
360
0
SPLINE
5
E2
100
AcDbEntity
8
1
62
256
6
ByLayer
370
18
48
1
60
0
100
AcDbSpline
70
4
71
3
72
8
73
4
40
0
40
0
40
0
40
0
40
1
40
1
40
1
40
1
41
1
10
27.4994163182936
20
-0.0299622449191759
30
0
41
1
10
27.499394404474
20
-0.0330400598615768
30
0
41
1
10
27.4993689289913
20
-0.0361178404746454
30
0
41
1
10
27.499339888488
20
-0.0391955745186294
30
0
0
SPLINE
5
E3
100
AcDbEntity
8
1
62
256
6
ByLayer
370
18
48
1
60
0
100
AcDbSpline
70
4
71
3
72
8
73
4
40
0
40
0
40
0
40
0
40
1
40
1
40
1
40
1
41
1
10
27.4994163182936
20
-0.029962244915879
30
0
41
1
10
27.4994137951707
20
-0.0301474907044224
30
0
41
1
10
27.4994112660104
20
-0.0303327364750885
30
0
41
1
10
27.4994087308101
20
-0.0305179822316575
30
0
0
SPLINE
5
E4
100
AcDbEntity
8
1
62
256
6
ByLayer
370
18
48
1
60
0
100
AcDbSpline
70
4
71
3
72
8
73
4
40
0
40
0
40
0
40
0
40
1
40
1
40
1
40
1
41
1
10
27.4993160961262
20
0.0314533844679943
30
0
41
1
10
27.4993258553656
20
0.0332680981203453
30
0
41
1
10
27.4993345423295
20
0.0350828178395375
30
0
41
1
10
27.4993421567624
20
0.0368975417306956
30
0
0
SPLINE
5
E5
100
AcDbEntity
8
1
62
256
6
ByLayer
370
13
48
1
60
0
100
AcDbSpline
70
4
71
3
72
8
73
4
40
0
40
0
40
0
40
0
40
1
40
1
40
1
40
1
41
1
10
24.8573076607
20
3.41084635385718
30
0
41
1
10
24.824348238931
20
3.40406884566627
30
0
41
1
10
24.791388817162
20
3.39717354974417
30
0
41
1
10
24.758429395393
20
3.39016091726921
30
0
0
SPLINE
5
E6
100
AcDbEntity
8
1
62
256
6
ByLayer
370
18
48
1
60
0
100
AcDbSpline
70
4
71
3
72
8
73
4
40
0
40
0
40
0
40
0
40
1
40
1
40
1
40
1
41
1
10
27.4863729742984
20
0.0311573871977373
30
0
41
1
10
27.4861473815375
20
0.0322379923199776
30
0
41
1
10
27.485921809586
20
0.0333186018020797
30
0
41
1
10
27.4856962584894
20
0.0343992156523711
30
0
0
SPLINE
5
E7
100
AcDbEntity
8
1
62
256
6
ByLayer
370
18
48
1
60
0
100
AcDbSpline
70
4
71
3
72
14
73
10
40
0
40
0
40
0
40
0
40
0.500000000000006
40
0.500000000000006
40
0.625000000000004
40
0.625000000000004
40
0.750000000000003
40
0.750000000000003
40
1
40
1
40
1
40
1
41
1
10
27.4993442492286
20
0.0368984361410014
30
0
41
1
10
27.4938927197709
20
0.23146547086921
30
0
41
1
10
27.476027599829
20
0.424762841914316
30
0
41
1
10
27.4380762889719
20
0.664785150206654
30
0
41
1
10
27.4297004848089
20
0.712734898824209
30
0
41
1
10
27.4114535874018
20
0.808228115668612
30
0
41
1
10
27.4015789025774
20
0.855796574161559
30
0
41
1
10
27.3696804619009
20
0.997962596261999
30
0
41
1
10
27.3453789057704
20
1.09201999686815
30
0
41
1
10
27.3180205434132
20
1.18535249914058
30
0
0
SPLINE
5
E8
100
AcDbEntity
8
1
62
256
6
ByLayer
370
18
48
1
60
0
100
AcDbSpline
70
4
71
3
72
8
73
4
40
0
40
0
40
0
40
0
40
1
40
1
40
1
40
1
41
1
10
27.1726599383241
20
1.11429747530858
30
0
41
1
10
27.2210117296724
20
1.13818138821813
30
0
41
1
10
27.2694746077543
20
1.1618481308563
30
0
41
1
10
27.3180205434133
20
1.18535249914061
30
0
0
SPLINE
5
E9
100
AcDbEntity
8
1
62
256
6
ByLayer
370
18
48
1
60
0
100
AcDbSpline
70
4
71
3
72
29
73
25
40
0
40
0
40
0
40
0
40
0.0625000000000029
40
0.0625000000000029
40
0.0937500000000042
40
0.0937500000000042
40
0.125000000000005
40
0.125000000000005
40
0.250000000000005
40
0.250000000000005
40
0.375000000000004
40
0.375000000000004
40
0.500000000000003
40
0.500000000000003
40
0.531250000000003
40
0.531250000000003
40
0.562500000000003
40
0.625000000000002
40
0.625000000000002
40
0.750000000000002
40
0.750000000000002
40
0.875000000000001
40
0.875000000000001
40
1
40
1
40
1
40
1
41
1
10
27.3180205434132
20
1.18535249914058
30
0
41
1
10
27.3014344144336
20
1.23800969595501
30
0
41
1
10
27.283718688975
20
1.29025208294672
30
0
41
1
10
27.2554394131353
20
1.36798780238937
30
0
41
1
10
27.2457265103383
20
1.39379849580359
30
0
41
1
10
27.225819140901
20
1.44499068034517
30
0
41
1
10
27.2156147458648
20
1.47040019795864
30
0
41
1
10
27.1633594248333
20
1.59652885830911
30
0
41
1
10
27.1176369957103
20
1.69450860253639
30
0
41
1
10
27.0184691245083
20
1.884728195918
30
0
41
1
10
26.9650213236876
20
1.97696669779248
30
0
41
1
10
26.850343771203
20
2.15567355312734
30
0
41
1
10
26.7891120064103
20
2.24214071656161
30
0
41
1
10
26.7075634542546
20
2.34651402453778
30
0
41
1
10
26.6909935765371
20
2.36721320235617
30
0
41
1
10
26.6574873522045
20
2.4080686687966
30
0
41
1
10
26.606631451705
20
2.46859835286941
30
0
41
1
10
26.5540012050437
20
2.52688598492028
30
0
41
1
10
26.4463785047016
20
2.64048109446839
30
0
41
1
10
26.371484909732
20
2.71224417794079
30
0
41
1
10
26.2153156121941
20
2.84772624940945
30
0
41
1
10
26.1346901012654
20
2.91087754806014
30
0
41
1
10
25.9685943740461
20
3.02797757716905
30
0
41
1
10
25.8830981828602
20
3.08194997308902
30
0
41
1
10
25.7951257094346
20
3.13126617996525
30
0
0
SPLINE
5
EA
100
AcDbEntity
8
1
62
256
6
ByLayer
370
18
48
1
60
0
100
AcDbSpline
70
4
71
3
72
10
73
6
40
0
40
0
40
0
40
0
40
0.5
40
0.5
40
1
40
1
40
1
40
1
41
1
10
25.7951257094338
20
3.13126617996571
30
0
41
1
10
25.6654201781833
20
3.20390900130801
30
0
41
1
10
25.5311668483157
20
3.26623907153754
30
0
41
1
10
25.255340688907
20
3.36797346922006
30
0
41
1
10
25.1137295840036
20
3.40733520369173
30
0
41
1
10
24.9691687228811
20
3.43388628931737
30
0
0
SPLINE
5
EB
100
AcDbEntity
8
1
62
256
6
ByLayer
370
18
48
1
60
0
100
AcDbSpline
70
4
71
3
72
10
73
6
40
0
40
0
40
0
40
0
40
0.655589538636286
40
0.655589538636286
40
1
40
1
40
1
40
1
41
1
10
24.9691687228812
20
3.43388628931737
30
0
41
1
10
24.8753549947597
20
3.4513881437517
30
0
41
1
10
24.7813697880878
20
3.46346255100289
30
0
41
1
10
24.6374526968872
20
3.47430925431288
30
0
41
1
10
24.5877832163014
20
3.47666668066202
30
0
41
1
10
24.5379901716704
20
3.47769320472165
30
0
0
SPLINE
5
EC
100
AcDbEntity
8
1
62
256
6
ByLayer
370
18
48
1
60
0
100
AcDbSpline
70
4
71
3
72
10
73
6
40
0
40
0
40
0
40
0
40
0.168354375161744
40
0.168354375161744
40
1
40
1
40
1
40
1
41
1
10
24.597694640805
20
3.44698666118001
30
0
41
1
10
24.6123593475076
20
3.44571922524514
30
0
41
1
10
24.627011531649
20
3.44432714476494
30
0
41
1
10
24.7139041335879
20
3.43531343386172
30
0
41
1
10
24.7857792643607
20
3.42475941712169
30
0
41
1
10
24.8573076607004
20
3.41084635385724
30
0
0
SPLINE
5
ED
100
AcDbEntity
8
1
62
256
6
ByLayer
370
18
48
1
60
0
100
AcDbSpline
70
4
71
3
72
28
73
24
40
0
40
0
40
0
40
0
40
0.203308821828727
40
0.203308821828727
40
0.304963232743106
40
0.304963232743106
40
0.406617643657484
40
0.406617643657484
40
0.609926465486241
40
0.609926465486241
40
0.660753670943437
40
0.660753670943437
40
0.711580876400633
40
0.711580876400633
40
0.813235287315027
40
0.813235287315027
40
0.864062492772215
40
0.864062492772215
40
0.914889698229403
40
0.914889698229403
40
0.96571690368659
40
0.96571690368659
40
1
40
1
40
1
40
1
41
1
10
24.8573076607
20
3.41084635385718
30
0
41
1
10
24.8900867368164
20
3.40447063842578
30
0
41
1
10
24.922383700757
20
3.39672856270889
30
0
41
1
10
24.969828178409
20
3.38247442557119
30
0
41
1
10
24.9854759938523
20
3.37728375869415
30
0
41
1
10
25.016372692122
20
3.36589628507534
30
0
41
1
10
25.0316407083202
20
3.35968911764547
30
0
41
1
10
25.0762816390073
20
3.33947582023842
30
0
41
1
10
25.1046769634019
20
3.32391596866773
30
0
41
1
10
25.1373232370285
20
3.30042156987565
30
0
41
1
10
25.1437051568541
20
3.29551411083491
30
0
41
1
10
25.1561170480495
20
3.28520911947774
30
0
41
1
10
25.1621676446884
20
3.27979185080946
30
0
41
1
10
25.1795238540284
20
3.26279472546491
30
0
41
1
10
25.1899537919822
20
3.25059534224701
30
0
41
1
10
25.203159475141
20
3.23049456177262
30
0
41
1
10
25.2071506818676
20
3.22349110722553
30
0
41
1
10
25.2140962370341
20
3.2087283730541
30
0
41
1
10
25.2170623892165
20
3.20090104167303
30
0
41
1
10
25.2214925784587
20
3.18484701036556
30
0
41
1
10
25.2229853632434
20
3.1765834930244
30
0
41
1
10
25.2240727438692
20
3.16229019626658
30
0
41
1
10
25.2241144164299
20
3.1563988172376
30
0
41
1
10
25.2237479687533
20
3.1504945670134
30
0
0
SPLINE
5
EE
100
AcDbEntity
8
1
62
256
6
ByLayer
370
18
48
1
60
0
100
AcDbSpline
70
4
71
3
72
14
73
10
40
0
40
0
40
0
40
0
40
0.232582005054822
40
0.232582005054822
40
0.465164010109644
40
0.465164010109644
40
0.930328020220503
40
0.930328020220503
40
1
40
1
40
1
40
1
41
1
10
27.1726599383189
20
1.11429747531866
30
0
41
1
10
27.1702289924726
20
1.11309668218851
30
0
41
1
10
27.1676764073895
20
1.11238877750927
30
0
41
1
10
27.1624509557418
20
1.11146035490754
30
0
41
1
10
27.1597592785971
20
1.1112543554045
30
0
41
1
10
27.151795108235
20
1.11110688600914
30
0
41
1
10
27.1465456468009
20
1.11159963537537
30
0
41
1
10
27.1405397476871
20
1.11246005133515
30
0
41
1
10
27.1397579788553
20
1.11257801684007
30
0
41
1
10
27.1389768606567
20
1.11270156245735
30
0
0
SPLINE
5
EF
100
AcDbEntity
8
1
62
256
6
ByLayer
370
13
48
1
60
0
100
AcDbSpline
70
4
71
3
72
8
73
4
40
0
40
0
40
0
40
0
40
1
40
1
40
1
40
1
41
1
10
27.1178535235506
20
1.15376268538847
30
0
41
1
10
27.1361076329145
20
1.14060245355259
30
0
41
1
10
27.1543769841385
20
1.12744788341845
30
0
41
1
10
27.1726599383189
20
1.11429747531864
30
0
0
SPLINE
5
F0
100
AcDbEntity
8
1
62
256
6
ByLayer
370
18
48
1
60
0
100
AcDbSpline
70
4
71
3
72
10
73
6
40
0
40
0
40
0
40
0
40
0.357119927093219
40
0.357119927093219
40
1
40
1
40
1
40
1
41
1
10
17.2392450664154
20
-3.58771583640302
30
0
41
1
10
17.0586089384248
20
-3.62078335497179
30
0
41
1
10
16.8780630077926
20
-3.65009903285298
30
0
41
1
10
16.3723172776957
20
-3.72155882786564
30
0
41
1
10
16.0469710913744
20
-3.75521463437138
30
0
41
1
10
15.720708117429
20
-3.77617704024539
30
0
0
SPLINE
5
F1
100
AcDbEntity
8
1
62
256
6
ByLayer
370
18
48
1
60
0
100
AcDbSpline
70
4
71
3
72
12
73
8
40
0
40
0
40
0
40
0
40
0.499999999999981
40
0.499999999999981
40
0.749999999999991
40
0.749999999999991
40
1
40
1
40
1
40
1
41
1
10
15.5919999999999
20
3.76881639901333
30
0
41
1
10
15.5107829143716
20
3.79434008092318
30
0
41
1
10
15.4296368332263
20
3.82225793866965
30
0
41
1
10
15.3079081597625
20
3.86756089415206
30
0
41
1
10
15.2672822179
20
3.88325290879655
30
0
41
1
10
15.1862664846784
20
3.91565140890489
30
0
41
1
10
15.1458915448511
20
3.93235031005901
30
0
41
1
10
15.1056381211601
20
3.94952675354082
30
0
0
SPLINE
5
F2
100
AcDbEntity
8
1
62
256
6
ByLayer
370
18
48
1
60
0
100
AcDbSpline
70
4
71
3
72
8
73
4
40
0
40
0
40
0
40
0
40
1
40
1
40
1
40
1
41
1
10
22.963610024929
20
3.77096622580032
30
0
41
1
10
23.1527400166193
20
3.74210470773559
30
0
41
1
10
23.3418700083097
20
3.70899591692324
30
0
41
1
10
23.531
20
3.67174316701738
30
0
0
SPLINE
5
F3
100
AcDbEntity
8
1
62
256
6
ByLayer
370
18
48
1
60
0
100
AcDbSpline
70
4
71
3
72
8
73
4
40
0
40
0
40
0
40
0
40
1
40
1
40
1
40
1
41
1
10
24.3413797783751
20
-3.4152863362533
30
0
41
1
10
24.3421382486893
20
-3.41528130074423
30
0
41
1
10
24.3428962000357
20
-3.41527702217798
30
0
41
1
10
24.3436536336719
20
-3.41527349715133
30
0
0
SPLINE
5
F4
100
AcDbEntity
8
1
62
256
6
ByLayer
370
18
48
1
60
0
100
AcDbSpline
70
4
71
3
72
34
73
30
40
0
40
0
40
0
40
0
40
0.12499999999999
40
0.12499999999999
40
0.156249999999989
40
0.156249999999989
40
0.187499999999988
40
0.187499999999988
40
0.24999999999998
40
0.24999999999998
40
0.374999999999964
40
0.374999999999964
40
0.437499999999959
40
0.437499999999959
40
0.468749999999959
40
0.468749999999959
40
0.499999999999959
40
0.499999999999959
40
0.624999999999966
40
0.624999999999966
40
0.687499999999972
40
0.687499999999972
40
0.718749999999975
40
0.718749999999975
40
0.749999999999978
40
0.749999999999978
40
0.874999999999989
40
0.874999999999989
40
1
40
1
40
1
40
1
41
1
10
25.0743784540438
20
3.25047069300453
30
0
41
1
10
25.164146177277
20
3.19369045710027
30
0
41
1
10
25.254852916572
20
3.13330279169142
30
0
41
1
10
25.3694739259278
20
3.05306376356847
30
0
41
1
10
25.3924603365363
20
3.03677696987597
30
0
41
1
10
25.4385605614551
20
3.00371393412908
30
0
41
1
10
25.4616146539275
20
2.98697977048676
30
0
41
1
10
25.5304052920301
20
2.93645033760578
30
0
41
1
10
25.5759243323185
20
2.90221865896731
30
0
41
1
10
25.7114676266385
20
2.79790395397592
30
0
41
1
10
25.8004832372677
20
2.72620953903035
30
0
41
1
10
25.9319337915483
20
2.61535635414765
30
0
41
1
10
25.9754038892544
20
2.577851325691
30
0
41
1
10
26.0400699155665
20
2.52073249524452
30
0
41
1
10
26.0615728186534
20
2.50151518185515
30
0
41
1
10
26.1042194160237
20
2.46294486565128
30
0
41
1
10
26.1253008678111
20
2.44364904253237
30
0
41
1
10
26.2295165155452
20
2.34711737900832
30
0
41
1
10
26.3091029072297
20
2.26972508676079
30
0
41
1
10
26.4228429881659
20
2.15338795620392
30
0
41
1
10
26.4598121902127
20
2.11456727698865
30
0
41
1
10
26.5138230290768
20
2.05627262601732
30
0
41
1
10
26.5315859474996
20
2.03683046149405
30
0
41
1
10
26.5666235174935
20
1.99792460074946
30
0
41
1
10
26.5839261385416
20
1.97842887473874
30
0
41
1
10
26.6688750975215
20
1.88126421495951
30
0
41
1
10
26.7310110655106
20
1.80550378814013
30
0
41
1
10
26.8443280434792
20
1.65769146635819
30
0
41
1
10
26.8954801599948
20
1.58564935256786
30
0
41
1
10
26.9409093711419
20
1.51554458777099
30
0
0
SPLINE
5
F5
100
AcDbEntity
8
1
62
256
6
ByLayer
370
18
48
1
60
0
100
AcDbSpline
70
4
71
3
72
40
73
36
40
0
40
0
40
0
40
0
40
0.0625000000000627
40
0.0625000000000627
40
0.125000000000125
40
0.125000000000125
40
0.250000000000251
40
0.250000000000251
40
0.312500000000314
40
0.312500000000314
40
0.375000000000376
40
0.375000000000376
40
0.406250000000408
40
0.406250000000408
40
0.414062500000421
40
0.414062500000421
40
0.417968750000422
40
0.417968750000422
40
0.419921875000423
40
0.419921875000423
40
0.421875000000423
40
0.421875000000423
40
0.437500000000404
40
0.437500000000404
40
0.468750000000375
40
0.468750000000375
40
0.500000000000348
40
0.500000000000348
40
0.562500000000303
40
0.562500000000303
40
0.625000000000257
40
0.625000000000257
40
0.750000000000168
40
0.750000000000168
40
1
40
1
40
1
40
1
41
1
10
23.530999288756
20
3.72174503871631
30
0
41
1
10
23.5619992454046
20
3.71816133416436
30
0
41
1
10
23.5929736973691
20
3.71450870154934
30
0
41
1
10
23.655198171463
20
3.70587182008433
30
0
41
1
10
23.6864218039588
20
3.70099753369325
30
0
41
1
10
23.7804146929592
20
3.68492164256367
30
0
41
1
10
23.8435150276423
20
3.6722352883765
30
0
41
1
10
23.9388891296239
20
3.65059269788952
30
0
41
1
10
23.9708011343084
20
3.64294196595535
30
0
41
1
10
24.0348756160085
20
3.62682031174177
30
0
41
1
10
24.0670372673266
20
3.61835359186477
30
0
41
1
10
24.1154064292784
20
3.60528321691081
30
0
41
1
10
24.1315204913597
20
3.60095632297441
30
0
41
1
10
24.1518613114534
20
3.59494415456632
30
0
41
1
10
24.155940175332
20
3.59370925779481
30
0
41
1
10
24.1620800739998
20
3.59179169521624
30
0
41
1
10
24.1641348962476
20
3.59112761528203
30
0
41
1
10
24.1671255312853
20
3.59041386600256
30
0
41
1
10
24.1681133850478
20
3.59020371676976
30
0
41
1
10
24.1701077987039
20
3.58972575675438
30
0
41
1
10
24.1711181390018
20
3.58944634557076
30
0
41
1
10
24.1802140510159
20
3.58692322541387
30
0
41
1
10
24.1883397156784
20
3.58455793438665
30
0
41
1
10
24.2127673265078
20
3.57731686009396
30
0
41
1
10
24.2290930347469
20
3.57237723782697
30
0
41
1
10
24.2617973373095
20
3.56236764251338
30
0
41
1
10
24.2781814570147
20
3.55728079250568
30
0
41
1
10
24.3274417561956
20
3.54175007005759
30
0
41
1
10
24.3605061173346
20
3.53100961509776
30
0
41
1
10
24.4264327438219
20
3.50896741732024
30
0
41
1
10
24.4593086364044
20
3.49766323326048
30
0
41
1
10
24.5576886325431
20
3.46293473713573
30
0
41
1
10
24.6229476158595
20
3.43870206665187
30
0
41
1
10
24.8178496154575
20
3.36301652059205
30
0
41
1
10
24.9466249031939
20
3.30859391427961
30
0
41
1
10
25.0743784540438
20
3.25047069300442
30
0
0
SPLINE
5
F6
100
AcDbEntity
8
1
62
256
6
ByLayer
370
18
48
1
60
0
100
AcDbSpline
70
4
71
3
72
8
73
4
40
0
40
0
40
0
40
0
40
1
40
1
40
1
40
1
41
1
10
26.940909371142
20
1.51554458777082
30
0
41
1
10
27.0109221919647
20
1.36790319616645
30
0
41
1
10
27.0825989435586
20
1.22289996773682
30
0
41
1
10
27.155433325087
20
1.07987269077819
30
0
0
SPLINE
5
F7
100
AcDbEntity
8
1
62
256
6
ByLayer
370
18
48
1
60
0
100
AcDbSpline
70
4
71
3
72
8
73
4
40
0
40
0
40
0
40
0
40
1
40
1
40
1
40
1
41
1
10
24.3413797783743
20
3.31204470282992
30
0
41
1
10
24.3421382491864
20
3.31175880268884
30
0
41
1
10
24.3428962005397
20
3.31147186725761
30
0
41
1
10
24.3436536336958
20
3.31118389844843
30
0
0
SPLINE
5
F8
100
AcDbEntity
8
1
62
256
6
ByLayer
370
18
48
1
60
0
100
AcDbSpline
70
4
71
3
72
8
73
4
40
0
40
0
40
0
40
0
40
1
40
1
40
1
40
1
41
1
10
25.4775715573307
20
1.4152791891639
30
0
41
1
10
25.5405360774372
20
1.34970614778359
30
0
41
1
10
25.6054573086904
20
1.28493158413465
30
0
41
1
10
25.6724464305406
20
1.22100086736381
30
0
0
SPLINE
5
F9
100
AcDbEntity
8
1
62
256
6
ByLayer
370
18
48
1
60
0
100
AcDbSpline
70
4
71
3
72
12
73
8
40
0
40
0
40
0
40
0
40
0.250000000000039
40
0.250000000000039
40
0.500000000000078
40
0.500000000000078
40
1
40
1
40
1
40
1
41
1
10
24.4242968595598
20
3.25281450359486
30
0
41
1
10
24.4167700487407
20
3.25667632176518
30
0
41
1
10
24.4095333652118
20
3.26104667836671
30
0
41
1
10
24.3953404716932
20
3.27027493906479
30
0
41
1
10
24.3883931089165
20
3.27514846058836
30
0
41
1
10
24.367834797929
20
3.29025824242422
30
0
41
1
10
24.3545030582152
20
3.30097563574387
30
0
41
1
10
24.3413797783743
20
3.31204470282992
30
0
0
SPLINE
5
FA
100
AcDbEntity
8
1
62
256
6
ByLayer
370
18
48
1
60
0
100
AcDbSpline
70
4
71
3
72
8
73
4
40
0
40
0
40
0
40
0
40
1
40
1
40
1
40
1
41
1
10
24.3413797783743
20
3.31204470282992
30
0
41
1
10
24.321096472881
20
3.32136737012516
30
0
41
1
10
24.3008021764789
20
3.33054113596984
30
0
41
1
10
24.280495527877
20
3.33956829517604
30
0
0
SPLINE
5
FB
100
AcDbEntity
8
1
62
256
6
ByLayer
370
18
48
1
60
0
100
AcDbSpline
70
4
71
3
72
12
73
8
40
0
40
0
40
0
40
0
40
0.250000000000044
40
0.250000000000044
40
0.500000000000087
40
0.500000000000087
40
1
40
1
40
1
40
1
41
1
10
26.8077580182748
20
0.401144189807411
30
0
41
1
10
26.8079343381563
20
0.400430779617181
30
0
41
1
10
26.8075695132477
20
0.400251516967927
30
0
41
1
10
26.8061101522521
20
0.400643915459454
30
0
41
1
10
26.805001903255
20
0.401219682704806
30
0
41
1
10
26.8009897804075
20
0.403685262774019
30
0
41
1
10
26.7974231459247
20
0.406275795582928
30
0
41
1
10
26.793385099511
20
0.409366772253264
30
0
0
SPLINE
5
FC
100
AcDbEntity
8
1
62
256
6
ByLayer
370
18
48
1
60
0
100
AcDbSpline
70
4
71
3
72
40
73
36
40
0
40
0
40
0
40
0
40
0.0625000000000107
40
0.0625000000000107
40
0.125000000000022
40
0.125000000000022
40
0.187500000000032
40
0.187500000000032
40
0.250000000000043
40
0.250000000000043
40
0.375000000000075
40
0.375000000000075
40
0.437500000000092
40
0.437500000000092
40
0.500000000000108
40
0.500000000000108
40
0.562500000000125
40
0.562500000000125
40
0.625000000000141
40
0.625000000000141
40
0.687500000000158
40
0.687500000000158
40
0.750000000000174
40
0.750000000000174
40
0.812500000000191
40
0.812500000000191
40
0.843750000000199
40
0.843750000000199
40
0.875000000000207
40
0.875000000000207
40
0.937500000000144
40
0.937500000000144
40
0.968750000000072
40
0.968750000000072
40
1
40
1
40
1
40
1
41
1
10
26.8077580182748
20
0.401144189807354
30
0
41
1
10
26.8073974941912
20
0.402602911041413
30
0
41
1
10
26.8068776198298
20
0.404947785253626
30
0
41
1
10
26.8060564979357
20
0.411160159647295
30
0
41
1
10
26.8057507474773
20
0.415057781610358
30
0
41
1
10
26.8057137327056
20
0.424126934621
30
0
41
1
10
26.8059777728992
20
0.429256861710627
30
0
41
1
10
26.8072760746561
20
0.440553852590995
30
0
41
1
10
26.8083122213577
20
0.446740367560977
30
0
41
1
10
26.8128139877971
20
0.466647988948211
30
0
41
1
10
26.8175489706444
20
0.481248406142385
30
0
41
1
10
26.8277767987467
20
0.50465345001723
30
0
41
1
10
26.831722606371
20
0.512717298105883
30
0
41
1
10
26.8404977223232
20
0.52878920589464
30
0
41
1
10
26.8453513230012
20
0.536859742082356
30
0
41
1
10
26.8560544790161
20
0.552995273014545
30
0
41
1
10
26.8619507975961
20
0.561118728669214
30
0
41
1
10
26.8746268182646
20
0.576975321956894
30
0
41
1
10
26.8813653871943
20
0.584669355666449
30
0
41
1
10
26.8957037008168
20
0.599493115344558
30
0
41
1
10
26.9033024408752
20
0.60662429873156
30
0
41
1
10
26.919494414929
20
0.620157000903816
30
0
41
1
10
26.9280226582332
20
0.626491643243725
30
0
41
1
10
26.9456644408658
20
0.637823767842065
30
0
41
1
10
26.9548308909601
20
0.642869516935292
30
0
41
1
10
26.9692239202541
20
0.649278520815471
30
0
41
1
10
26.9741295437235
20
0.651220269860431
30
0
41
1
10
26.9841877760277
20
0.654657654962477
30
0
41
1
10
26.9893230479461
20
0.656143291485989
30
0
41
1
10
27.0047683246699
20
0.659767944021439
30
0
41
1
10
27.0152242370171
20
0.66110744509416
30
0
41
1
10
27.0311492617008
20
0.661425105165051
30
0
41
1
10
27.0364852239553
20
0.661245701590445
30
0
41
1
10
27.0469528316406
20
0.660378432330049
30
0
41
1
10
27.0521201074251
20
0.659692400645696
30
0
41
1
10
27.0572263798458
20
0.658791214189932
30
0
0
SPLINE
5
FD
100
AcDbEntity
8
1
62
256
6
ByLayer
370
18
48
1
60
0
100
AcDbSpline
70
4
71
3
72
12
73
8
40
0
40
0
40
0
40
0
40
0.250000000000177
40
0.250000000000177
40
0.500000000000353
40
0.500000000000353
40
1
40
1
40
1
40
1
41
1
10
27.1150270459356
20
0.655721890182633
30
0
41
1
10
27.1104961303603
20
0.654524950665802
30
0
41
1
10
27.1056087393766
20
0.654192871442632
30
0
41
1
10
27.0957354463874
20
0.654100521401091
30
0
41
1
10
27.0908598567016
20
0.654380070625621
30
0
41
1
10
27.0763160158403
20
0.655661121440801
30
0
41
1
10
27.0666937600835
20
0.657120352510361
30
0
41
1
10
27.0572263798451
20
0.658791214175352
30
0
0
SPLINE
5
FE
100
AcDbEntity
8
1
62
256
6
ByLayer
370
13
48
1
60
0
100
AcDbSpline
70
4
71
3
72
23
73
19
40
0
40
0
40
0
40
0
40
0.0625
40
0.0625
40
0.125
40
0.25
40
0.25
40
0.375
40
0.375
40
0.5
40
0.5
40
0.625
40
0.625
40
0.6875
40
0.6875
40
0.75
40
0.75
40
1
40
1
40
1
40
1
41
1
10
24.9775891924551
20
2.46716107921142
30
0
41
1
10
25.0149200387591
20
2.41817882758787
30
0
41
1
10
25.0526221632354
20
2.36969140546637
30
0
41
1
10
25.128703225169
20
2.27401744245824
30
0
41
1
10
25.2439188230475
20
2.13235517544308
30
0
41
1
10
25.3629054444466
20
1.99666240012209
30
0
41
1
10
25.5258468052079
20
1.82184046349781
30
0
41
1
10
25.6095827246757
20
1.73756595649922
30
0
41
1
10
25.7814567150534
20
1.57522964907113
30
0
41
1
10
25.8695464819779
20
1.49713229213776
30
0
41
1
10
26.0496835493663
20
1.34677674478087
30
0
41
1
10
26.1417299531221
20
1.27451821390139
30
0
41
1
10
26.2826017055963
20
1.17029839997457
30
0
41
1
10
26.3300270015162
20
1.13625334810862
30
0
41
1
10
26.4258019680833
20
1.06951830660287
30
0
41
1
10
26.4741685424006
20
1.03682068684913
30
0
41
1
10
26.7168803847949
20
0.877542783229899
30
0
41
1
10
26.9150235279918
20
0.762774688577309
30
0
41
1
10
27.1150270459472
20
0.655721890176522
30
0
0
SPLINE
5
FF
100
AcDbEntity
8
1
62
256
6
ByLayer
370
18
48
1
60
0
100
AcDbSpline
70
4
71
3
72
8
73
4
40
0
40
0
40
0
40
0
40
1
40
1
40
1
40
1
41
1
10
27.1150270459474
20
0.655721890176267
30
0
41
1
10
27.160427796194
20
0.667715482014415
30
0
41
1
10
27.205883460691
20
0.679639068066962
30
0
41
1
10
27.2513823304055
20
0.691507575243378
30
0
0
SPLINE
5
100
100
AcDbEntity
8
1
62
256
6
ByLayer
370
18
48
1
60
0
100
AcDbSpline
70
4
71
3
72
8
73
4
40
0
40
0
40
0
40
0
40
1
40
1
40
1
40
1
41
1
10
27.2513823304055
20
0.691507575243435
30
0
41
1
10
27.2614929256586
20
0.707752922329973
30
0
41
1
10
27.2715645257966
20
0.724080611433578
30
0
41
1
10
27.2815984637502
20
0.740487827940569
30
0
0
SPLINE
5
101
100
AcDbEntity
8
1
62
256
6
ByLayer
370
13
48
1
60
0
100
AcDbSpline
70
4
71
3
72
8
73
4
40
0
40
0
40
0
40
0
40
1
40
1
40
1
40
1
41
1
10
24.402706251891
20
3.2853567221
30
0
41
1
10
24.4098959362385
20
3.27450280845804
30
0
41
1
10
24.4170926854793
20
3.26365529718945
30
0
41
1
10
24.4242968595689
20
3.25281450358122
30
0
0
SPLINE
5
102
100
AcDbEntity
8
1
62
256
6
ByLayer
370
18
48
1
60
0
100
AcDbSpline
70
4
71
3
72
12
73
8
40
0
40
0
40
0
40
0
40
0.25
40
0.25
40
0.5
40
0.5
40
1
40
1
40
1
40
1
41
1
10
24.4242968595704
20
3.25281450358943
30
0
41
1
10
24.4605015972647
20
3.23423875919525
30
0
41
1
10
24.4967262170636
20
3.2151859138167
30
0
41
1
10
24.5692391239242
20
3.17612627803035
30
0
41
1
10
24.6055147013324
20
3.15612481173616
30
0
41
1
10
24.7139135415494
20
3.09498993931353
30
0
41
1
10
24.7857910341059
20
3.05263634063343
30
0
41
1
10
24.8573221669691
20
3.00864161830958
30
0
0
SPLINE
5
103
100
AcDbEntity
8
1
62
256
6
ByLayer
370
18
48
1
60
0
100
AcDbSpline
70
4
71
3
72
12
73
8
40
0
40
0
40
0
40
0
40
0.260431794529994
40
0.260431794529994
40
0.520863585548918
40
0.520863585548918
40
1
40
1
40
1
40
1
41
1
10
27.1846874357924
20
1.02264903104668
30
0
41
1
10
27.1930731506814
20
0.998127638051074
30
0
41
1
10
27.2014661641946
20
0.973613405844674
30
0
41
1
10
27.2182664399018
20
0.924598990432486
30
0
41
1
10
27.2266737051032
20
0.900098798851531
30
0
41
1
10
27.250568216273
20
0.830543282482381
30
0
41
1
10
27.2660720659768
20
0.785504330729054
30
0
41
1
10
27.2815984637502
20
0.740487827940569
30
0
0
SPLINE
5
104
100
AcDbEntity
8
1
62
256
6
ByLayer
370
18
48
1
60
0
100
AcDbSpline
70
4
71
3
72
26
73
22
40
0
40
0
40
0
40
0
40
0.0051310522282946
40
0.0111139225053594
40
0.0145014035231618
40
0.0365345205352862
40
0.115617963472214
40
0.145151967071032
40
0.15805071141906
40
0.159145999727634
40
0.160411770185769
40
0.161045997433276
40
0.170249147670812
40
0.194352228897636
40
0.282411428731954
40
0.357563249986325
40
0.442691222233848
40
0.745977945094362
40
0.870485342131441
40
0.949012618094215
40
1
40
1
40
1
40
1
41
1
10
23.5309998355238
20
3.67173731583867
30
0
41
1
10
23.5385096357813
20
3.67023985193754
30
0
41
1
10
23.5548009110648
20
3.66697316463205
30
0
41
1
10
23.5761374975285
20
3.66264261606972
30
0
41
1
10
23.6222267897619
20
3.65302773858252
30
0
41
1
10
23.7752201003352
20
3.61783027292685
30
0
41
1
10
23.9660300402051
20
3.55926365038897
30
0
41
1
10
24.141256825853
20
3.49418251655581
30
0
41
1
10
24.2039488196029
20
3.46964502078097
30
0
41
1
10
24.2257101109228
20
3.46069151134952
30
0
41
1
10
24.230176803554
20
3.45899091603928
30
0
41
1
10
24.2463689843779
20
3.45245777473582
30
0
41
1
10
24.2954854811561
20
3.43215203233669
30
0
41
1
10
24.4698998316128
20
3.35737361404725
30
0
41
1
10
24.7321005626312
20
3.23138975101625
30
0
41
1
10
25.070387325078
20
3.04456489877222
30
0
41
1
10
25.6866347677231
20
2.6601161535375
30
0
41
1
10
26.3310340779307
20
2.13487991506946
30
0
41
1
10
26.8410006169692
20
1.54900596581535
30
0
41
1
10
27.0561555255909
20
1.24378435776518
30
0
41
1
10
27.1503667848533
20
1.08535171850013
30
0
41
1
10
27.1846874359803
20
1.02264903119055
30
0
0
SPLINE
5
105
100
AcDbEntity
8
1
62
256
6
ByLayer
370
18
48
1
60
0
100
AcDbSpline
70
4
71
3
72
9
73
5
40
0
40
0
40
0
40
0
40
0.292176724685333
40
1
40
1
40
1
40
1
41
1
10
24.2804955278772
20
3.33956829517595
30
0
41
1
10
24.286673259046
20
3.33683181725493
30
0
41
1
10
24.3077751724821
20
3.32744611514721
30
0
41
1
10
24.3288051581232
20
3.31795364378382
30
0
41
1
10
24.3436536336959
20
3.31118389844841
30
0
0
SPLINE
5
106
100
AcDbEntity
8
1
62
256
6
ByLayer
370
18
48
1
60
0
100
AcDbSpline
70
4
71
3
72
8
73
4
40
0
40
0
40
0
40
0
40
1
40
1
40
1
40
1
41
1
10
24.3436536336959
20
3.31118389844841
30
0
41
1
10
24.3637811091489
20
3.30295426908006
30
0
41
1
10
24.3834683755359
20
3.29434721345501
30
0
41
1
10
24.4027062518903
20
3.28535672209665
30
0
0
SPLINE
5
107
100
AcDbEntity
8
1
62
256
6
ByLayer
370
18
48
1
60
0
100
AcDbSpline
70
4
71
3
72
10
73
6
40
0
40
0
40
0
40
0
40
0.5
40
0.5
40
1
40
1
40
1
40
1
41
1
10
24.9689837168691
20
2.98655491231111
30
0
41
1
10
24.8751999835613
20
3.04152780732389
30
0
41
1
10
24.7812450716548
20
3.09398030916114
30
0
41
1
10
24.5926054602934
20
3.19366010388902
30
0
41
1
10
24.4979131764604
20
3.24086339981724
30
0
41
1
10
24.4027062518852
20
3.28535672209904
30
0
0
SPLINE
5
108
100
AcDbEntity
8
1
62
256
6
ByLayer
370
18
48
1
60
0
100
AcDbSpline
70
4
71
3
72
10
73
6
40
0
40
0
40
0
40
0
40
0.5
40
0.5
40
1
40
1
40
1
40
1
41
1
10
25.795331636689
20
2.42787062871207
30
0
41
1
10
25.6655690098167
20
2.52855276087598
30
0
41
1
10
25.5312536193452
20
2.62604988856316
30
0
41
1
10
25.2552963792734
20
2.81287143758351
30
0
41
1
10
25.113616160601
20
2.90219915120591
30
0
41
1
10
24.9689837168704
20
2.98655491231034
30
0
0
SPLINE
5
109
100
AcDbEntity
8
1
62
256
6
ByLayer
370
18
48
1
60
0
100
AcDbSpline
70
4
71
3
72
27
73
23
40
0
40
0
40
0
40
0
40
0.0625000000000066
40
0.0625000000000066
40
0.125000000000013
40
0.125000000000013
40
0.25000000000002
40
0.25000000000002
40
0.31250000000002
40
0.31250000000002
40
0.375000000000019
40
0.375000000000019
40
0.500000000000019
40
0.500000000000019
40
0.625000000000018
40
0.625000000000018
40
0.687500000000015
40
0.687500000000015
40
0.750000000000012
40
0.750000000000012
40
0.875000000000006
40
1
40
1
40
1
40
1
41
1
10
27.2815984637502
20
0.740487827940598
30
0
41
1
10
27.2642238974554
20
0.775240198636965
30
0
41
1
10
27.2457889434038
20
0.810327921119523
30
0
41
1
10
27.2070408544778
20
0.880739990755387
30
0
41
1
10
27.1867127812996
20
0.916100013830089
30
0
41
1
10
27.1229105032286
20
1.02264398796513
30
0
41
1
10
27.0766093721682
20
1.0942870402281
30
0
41
1
10
27.0014062393046
20
1.20265402660951
30
0
41
1
10
26.9754693724092
20
1.23879530750526
30
0
41
1
10
26.9220505445595
20
1.31088186035353
30
0
41
1
10
26.8945428499284
20
1.34686371377029
30
0
41
1
10
26.8096574481021
20
1.45462434010486
30
0
41
1
10
26.7499209796091
20
1.52621846537778
30
0
41
1
10
26.6242439242276
20
1.66891516147641
30
0
41
1
10
26.5583110721156
20
1.74002052620577
30
0
41
1
10
26.4546949246641
20
1.84629714543874
30
0
41
1
10
26.4193679676797
20
1.88165868854838
30
0
41
1
10
26.3471081687935
20
1.95225028565727
30
0
41
1
10
26.3101251231731
20
1.9875240376272
30
0
41
1
10
26.1976460725597
20
2.09228901691941
30
0
41
1
10
26.043086336531
20
2.22968129607497
30
0
41
1
10
25.8794505781541
20
2.36256179278507
30
0
41
1
10
25.7953316366876
20
2.42787062871318
30
0
0
SPLINE
5
10A
100
AcDbEntity
8
1
62
256
6
ByLayer
370
18
48
1
60
0
100
AcDbSpline
70
4
71
3
72
8
73
4
40
0
40
0
40
0
40
0
40
1
40
1
40
1
40
1
41
1
10
25.2950867021298
20
-1.02708406138225
30
0
41
1
10
25.3121636823035
20
-1.01862576551656
30
0
41
1
10
25.3293915596306
20
-1.01019684166394
30
0
41
1
10
25.3467733256191
20
-1.00179787211908
30
0
0
SPLINE
5
10B
100
AcDbEntity
8
1
62
256
6
ByLayer
370
18
48
1
60
0
100
AcDbSpline
70
4
71
3
72
18
73
14
40
0
40
0
40
0
40
0
40
0.249999999999994
40
0.249999999999994
40
0.499999999999988
40
0.499999999999988
40
0.562499999999986
40
0.562499999999986
40
0.624999999999985
40
0.624999999999985
40
0.74999999999999
40
0.74999999999999
40
1
40
1
40
1
40
1
41
1
10
25.346773325619
20
-1.00179787211908
30
0
41
1
10
25.4613371153841
20
-1.05617748675977
30
0
41
1
10
25.5788350031594
20
-1.09868794536982
30
0
41
1
10
25.8191294203833
20
-1.16227453948522
30
0
41
1
10
25.9419271652398
20
-1.18334575836369
30
0
41
1
10
26.0984869511404
20
-1.19729578389095
30
0
41
1
10
26.1299524062375
20
-1.19946485175399
30
0
41
1
10
26.1931854800833
20
-1.20258066037513
30
0
41
1
10
26.224859308386
20
-1.20352191389301
30
0
41
1
10
26.319823977692
20
-1.20455953001047
30
0
41
1
10
26.3831540580381
20
-1.20286387037572
30
0
41
1
10
26.5731996012158
20
-1.1912732819838
30
0
41
1
10
26.6999695882316
20
-1.17496623233936
30
0
41
1
10
26.8267930049287
20
-1.15237577690974
30
0
0
SPLINE
5
10C
100
AcDbEntity
8
1
62
256
6
ByLayer
370
18
48
1
60
0
100
AcDbSpline
70
4
71
3
72
8
73
4
40
0
40
0
40
0
40
0
40
1
40
1
40
1
40
1
41
1
10
26.7162346826113
20
-1.01374720863765
30
0
41
1
10
26.7529068840939
20
-1.06014158084244
30
0
41
1
10
26.7897637856874
20
-1.10634687835989
30
0
41
1
10
26.8267930049347
20
-1.15237577692258
30
0
0
SPLINE
5
10D
100
AcDbEntity
8
1
62
256
6
ByLayer
370
18
48
1
60
0
100
AcDbSpline
70
4
71
3
72
8
73
4
40
0
40
0
40
0
40
0
40
1
40
1
40
1
40
1
41
1
10
26.7162346826113
20
-1.01374720863765
30
0
41
1
10
26.7422534884154
20
-0.973674284292315
30
0
41
1
10
26.7679568349353
20
-0.933212470290869
30
0
41
1
10
26.7933850995117
20
-0.892411542724744
30
0
0
SPLINE
5
10E
100
AcDbEntity
8
1
62
256
6
ByLayer
370
18
48
1
60
0
100
AcDbSpline
70
4
71
3
72
8
73
4
40
0
40
0
40
0
40
0
40
1
40
1
40
1
40
1
41
1
10
25.4775715573189
20
1.41527918915858
30
0
41
1
10
25.4179044840919
20
1.41219501464656
30
0
41
1
10
25.35816290608
20
1.40974722200514
30
0
41
1
10
25.2983519952797
20
1.40789163467926
30
0
0
SPLINE
5
10F
100
AcDbEntity
8
1
62
256
6
ByLayer
370
18
48
1
60
0
100
AcDbSpline
70
4
71
3
72
10
73
6
40
0
40
0
40
0
40
0
40
0.5
40
0.5
40
1
40
1
40
1
40
1
41
1
10
25.170785903299
20
1.70078451451107
30
0
41
1
10
25.2203684323783
20
1.65109985162184
30
0
41
1
10
25.2706468286042
20
1.6024696528153
30
0
41
1
10
25.3728618669479
20
1.5073377705726
30
0
41
1
10
25.4247911286363
20
1.46082694878623
30
0
41
1
10
25.4775715573266
20
1.41527918916671
30
0
0
SPLINE
5
110
100
AcDbEntity
8
1
62
256
6
ByLayer
370
18
48
1
60
0
100
AcDbSpline
70
4
71
3
72
36
73
32
40
0
40
0
40
0
40
0
40
0.125000000000003
40
0.125000000000003
40
0.250000000000006
40
0.250000000000006
40
0.312500000000007
40
0.312500000000007
40
0.375000000000008
40
0.375000000000008
40
0.500000000000011
40
0.500000000000011
40
0.625000000000014
40
0.625000000000014
40
0.750000000000017
40
0.750000000000017
40
0.812500000000019
40
0.812500000000019
40
0.87500000000002
40
0.87500000000002
40
0.90625000000002
40
0.90625000000002
40
0.937500000000019
40
0.937500000000019
40
0.953125000000014
40
0.953125000000014
40
0.96875000000001
40
0.96875000000001
40
0.984375000000005
40
0.984375000000005
40
1
40
1
40
1
40
1
41
1
10
25.1707857716613
20
1.70078464641998
30
0
41
1
10
25.1460987681519
20
1.72552250361406
30
0
41
1
10
25.1236127189812
20
1.75190683723636
30
0
41
1
10
25.0824841214266
20
1.80779477048063
30
0
41
1
10
25.0638473071262
20
1.83730230243398
30
0
41
1
10
25.0385162461098
20
1.88391085200649
30
0
41
1
10
25.0305562777965
20
1.89976083289233
30
0
41
1
10
25.0156336749782
20
1.93184698961207
30
0
41
1
10
25.0086524711366
20
1.94811699310088
30
0
41
1
10
24.9890343655128
20
1.99758412502175
30
0
41
1
10
24.9777144863773
20
2.03143485846832
30
0
41
1
10
24.9581620584128
20
2.10082624542477
30
0
41
1
10
24.9499045575284
20
2.13652105469075
30
0
41
1
10
24.9366874042675
20
2.20799761200604
30
0
41
1
10
24.9316180815927
20
2.24393754086509
30
0
41
1
10
24.9269931687276
20
2.2982396237862
30
0
41
1
10
24.9259573929942
20
2.31644530298058
30
0
41
1
10
24.9254238445636
20
2.35258391492431
30
0
41
1
10
24.925886061474
20
2.37062164239839
30
0
41
1
10
24.9287568277681
20
2.39698306816959
30
0
41
1
10
24.9300805797557
20
2.40566663613308
30
0
41
1
10
24.9339886436209
20
2.42271195720468
30
0
41
1
10
24.9365390755039
20
2.43099547873669
30
0
41
1
10
24.9420345141645
20
2.44250863971652
30
0
41
1
10
24.9441202796591
20
2.44612259107185
30
0
41
1
10
24.9489770133
20
2.45276157702659
30
0
41
1
10
24.9517936640599
20
2.45582362705369
30
0
41
1
10
24.9581597026081
20
2.46095092374409
30
0
41
1
10
24.9616606561282
20
2.46299262683837
30
0
41
1
10
24.9693583019222
20
2.4659555363406
30
0
41
1
10
24.9733982498637
20
2.4668173781354
30
0
41
1
10
24.9775891924802
20
2.46716107917851
30
0
0
SPLINE
5
111
100
AcDbEntity
8
1
62
256
6
ByLayer
370
18
48
1
60
0
100
AcDbSpline
70
4
71
3
72
48
73
44
40
0
40
0
40
0
40
0
40
0.125000000000019
40
0.125000000000019
40
0.187500000000029
40
0.187500000000029
40
0.250000000000039
40
0.250000000000039
40
0.375000000000041
40
0.375000000000041
40
0.406250000000038
40
0.406250000000038
40
0.437500000000035
40
0.437500000000035
40
0.50000000000003
40
0.50000000000003
40
0.531250000000028
40
0.531250000000028
40
0.562500000000025
40
0.562500000000025
40
0.593750000000023
40
0.593750000000023
40
0.625000000000021
40
0.625000000000021
40
0.656250000000018
40
0.656250000000018
40
0.671875000000019
40
0.671875000000019
40
0.687500000000021
40
0.687500000000021
40
0.718750000000024
40
0.718750000000024
40
0.750000000000027
40
0.750000000000027
40
0.78125000000003
40
0.78125000000003
40
0.812500000000033
40
0.812500000000033
40
0.875000000000022
40
0.875000000000022
40
0.937500000000011
40
0.937500000000011
40
1
40
1
40
1
40
1
41
1
10
24.8573221669687
20
3.00864161830967
30
0
41
1
10
24.8901012928179
20
2.98848122670341
30
0
41
1
10
24.922398279137
20
2.96747642764393
30
0
41
1
10
24.9698427446762
20
2.93424471863139
30
0
41
1
10
24.9854905489416
20
2.92287994997344
30
0
41
1
10
25.0163872062197
20
2.89946990451395
30
0
41
1
10
25.0316551775593
20
2.8874074408308
30
0
41
1
10
25.0762959239351
20
2.85032444969852
30
0
41
1
10
25.1046910875111
20
2.82437552364166
30
0
41
1
10
25.1373370299725
20
2.78933795676016
30
0
41
1
10
25.143718876596
20
2.78219576688309
30
0
41
1
10
25.1561306023541
20
2.76758853929135
30
0
41
1
10
25.1621811312885
20
2.76009675808109
30
0
41
1
10
25.1795368463093
20
2.73721834259456
30
0
41
1
10
25.1899664303879
20
2.72158055593474
30
0
41
1
10
25.2031714817518
20
2.69727236548158
30
0
41
1
10
25.2071624606216
20
2.6890261895403
30
0
41
1
10
25.2141075013658
20
2.67216681104821
30
0
41
1
10
25.2170733311964
20
2.66348310680999
30
0
41
1
10
25.2215027977496
20
2.64624684472898
30
0
41
1
10
25.2229952090338
20
2.63764809626005
30
0
41
1
10
25.2242931580936
20
2.62048918190877
30
0
41
1
10
25.2240709517801
20
2.61191682959745
30
0
41
1
10
25.2218074739435
20
2.59557373132481
30
0
41
1
10
25.2197808870983
20
2.58770618646085
30
0
41
1
10
25.2153981387768
20
2.57635821458911
30
0
41
1
10
25.2137065285953
20
2.57264387511606
30
0
41
1
10
25.2099601525376
20
2.56551264972899
30
0
41
1
10
25.207899091514
20
2.56207581444417
30
0
41
1
10
25.2011964511362
20
2.55212126254872
30
0
41
1
10
25.1960182414351
20
2.54593964681953
30
0
41
1
10
25.1845435342345
20
2.53447887876388
30
0
41
1
10
25.17834286074
20
2.52928425647519
30
0
41
1
10
25.1652126378124
20
2.51974130096201
30
0
41
1
10
25.158281824234
20
2.51539444546137
30
0
41
1
10
25.1438203605732
20
2.50740180497186
30
0
41
1
10
25.1362566116313
20
2.50374372332925
30
0
41
1
10
25.1130763747199
20
2.49378061911645
30
0
41
1
10
25.0970072616578
20
2.48846051498265
30
0
41
1
10
25.064041494594
20
2.47965167918042
30
0
41
1
10
25.0471394776894
20
2.47617412573103
30
0
41
1
10
25.0127147555224
20
2.47064659651451
30
0
41
1
10
24.9951592116872
20
2.46860200416305
30
0
41
1
10
24.9775891924608
20
2.46716107917646
30
0
0
SPLINE
5
112
100
AcDbEntity
8
1
62
256
6
ByLayer
370
13
48
1
60
0
100
AcDbSpline
70
4
71
3
72
12
73
8
40
0
40
0
40
0
40
0
40
0.0480058779268003
40
0.368610176806836
40
0.689214475686871
40
0.902950674940228
40
1
40
1
40
1
40
1
41
1
10
24.8573221669687
20
3.00864161830967
30
0
41
1
10
24.7458814446458
20
3.04340014621226
30
0
41
1
10
23.8901907223229
20
3.30119264424883
30
0
41
1
10
22.29025
20
3.64731484277055
30
0
41
0.999999999999999
10
20.3055833333333
20
3.73488250808603
30
0
41
1
10
18.8398766115175
20
3.58793629718639
30
0
41
1
10
18.1184198897017
20
3.45636032463514
30
0
41
1
10
17.8931298345525
20
3.40978356500375
30
0
0
SPLINE
5
113
100
AcDbEntity
8
1
62
256
6
ByLayer
370
13
48
1
60
0
100
AcDbSpline
70
4
71
3
72
10
73
6
40
0
40
0
40
0
40
0
40
0.172965578834746
40
0.775094058305992
40
1
40
1
40
1
40
1
41
1
10
21.6488770882214
20
2.21036916718086
30
0
41
1
10
21.8626680588143
20
2.17403384095695
30
0
41
1
10
22.8207090294071
20
1.99686072069983
30
0
41
1
10
24.0567409152491
20
1.68879195844286
30
0
41
1
10
25.0789818304982
20
1.38264586070315
30
0
41
1
10
25.3569727457473
20
1.29621989855178
30
0
0
SPLINE
5
114
100
AcDbEntity
8
1
62
256
6
ByLayer
370
18
48
1
60
0
100
AcDbSpline
70
4
71
3
72
8
73
4
40
0
40
0
40
0
40
0
40
1
40
1
40
1
40
1
41
1
10
27.458110871317
20
-0.291525204859028
30
0
41
1
10
27.4664348764078
20
-0.18431876155816
30
0
41
1
10
27.4708437515133
20
-0.0766661166958329
30
0
41
1
10
27.4713711020202
20
0.0314288997718393
30
0
0
SPLINE
5
115
100
AcDbEntity
8
1
62
256
6
ByLayer
370
18
48
1
60
0
100
AcDbSpline
70
4
71
3
72
24
73
20
40
0
40
0
40
0
40
0
40
0.125000000000003
40
0.125000000000003
40
0.250000000000007
40
0.250000000000007
40
0.37500000000001
40
0.37500000000001
40
0.437500000000013
40
0.437500000000013
40
0.500000000000015
40
0.500000000000015
40
0.562500000000017
40
0.562500000000017
40
0.625000000000019
40
0.625000000000019
40
0.750000000000023
40
0.750000000000023
40
1
40
1
40
1
40
1
41
1
10
27.4581108713167
20
-0.291525204854452
30
0
41
1
10
27.4596354858368
20
-0.295450563182868
30
0
41
1
10
27.4610770263865
20
-0.300030437679538
30
0
41
1
10
27.4636165822796
20
-0.310852418781337
30
0
41
1
10
27.4646938929785
20
-0.316987390176223
30
0
41
1
10
27.4662888936011
20
-0.331257015459443
30
0
41
1
10
27.4667626094251
20
-0.339066330528936
30
0
41
1
10
27.466915467824
20
-0.35176959777155
30
0
41
1
10
27.4668712230248
20
-0.356197239425256
30
0
41
1
10
27.4666019322456
20
-0.365045452603937
30
0
41
1
10
27.4663783789485
20
-0.369506486268193
30
0
41
1
10
27.4657690815268
20
-0.378494608116227
30
0
41
1
10
27.4653806012205
20
-0.383039597287706
30
0
41
1
10
27.4644815247272
20
-0.39194721672385
30
0
41
1
10
27.4639694394109
20
-0.396340598997057
30
0
41
1
10
27.4622753441017
20
-0.409370476468979
30
0
41
1
10
27.4609259204698
20
-0.417916371812311
30
0
41
1
10
27.4564907555324
20
-0.442637548123599
30
0
41
1
10
27.4530520870791
20
-0.457898888671366
30
0
41
1
10
27.4493374219187
20
-0.472497999310974
30
0
0
SPLINE
5
116
100
AcDbEntity
8
1
62
256
6
ByLayer
370
18
48
1
60
0
100
AcDbSpline
70
4
71
3
72
8
73
4
40
0
40
0
40
0
40
0
40
1
40
1
40
1
40
1
41
1
10
27.4320444898262
20
-0.537762600484598
30
0
41
1
10
27.437999104372
20
-0.516156513086372
30
0
41
1
10
27.4437653940601
20
-0.494396783638166
30
0
41
1
10
27.4493374219187
20
-0.472497999310946
30
0
0
SPLINE
5
117
100
AcDbEntity
8
1
62
256
6
ByLayer
370
18
48
1
60
0
100
AcDbSpline
70
4
71
3
72
12
73
8
40
0
40
0
40
0
40
0
40
0.25
40
0.25
40
0.5
40
0.5
40
1
40
1
40
1
40
1
41
1
10
27.3324735909042
20
-1.05138158129728
30
0
41
1
10
27.3432724852501
20
-1.00893556657905
30
0
41
1
10
27.3534622499909
20
-0.966306244826995
30
0
41
1
10
27.3725600898734
20
-0.880982888183269
30
0
41
1
10
27.3814785752953
20
-0.838249360173563
30
0
41
1
10
27.40637151278
20
-0.709836507639864
30
0
41
1
10
27.4204799049545
20
-0.6239445110362
30
0
41
1
10
27.4320444898262
20
-0.537762600484598
30
0
0
SPLINE
5
118
100
AcDbEntity
8
1
62
256
6
ByLayer
370
18
48
1
60
0
100
AcDbSpline
70
4
71
3
72
35
73
31
40
0
40
0
40
0
40
0
40
0.249999999999911
40
0.249999999999911
40
0.374999999999878
40
0.374999999999878
40
0.499999999999846
40
0.499999999999846
40
0.56249999999983
40
0.56249999999983
40
0.624999999999814
40
0.624999999999814
40
0.65624999999982
40
0.65624999999982
40
0.687499999999826
40
0.687499999999826
40
0.749999999999838
40
0.749999999999838
40
0.781249999999858
40
0.781249999999858
40
0.812499999999878
40
0.812499999999878
40
0.843749999999899
40
0.843749999999899
40
0.874999999999919
40
0.906249999999939
40
0.906249999999939
40
0.937499999999959
40
0.937499999999959
40
1
40
1
40
1
40
1
41
1
10
27.3324735909042
20
-1.05138158129728
30
0
41
1
10
27.3212688126885
20
-1.09542295866714
30
0
41
1
10
27.3089970025094
20
-1.13859041523446
30
0
41
1
10
27.288704270622
20
-1.2015606188611
30
0
41
1
10
27.2816239754011
20
-1.22225088021494
30
0
41
1
10
27.2667257328088
20
-1.26285936814838
30
0
41
1
10
27.2589114920505
20
-1.28278374514625
30
0
41
1
10
27.2464795718515
20
-1.31183383388276
30
0
41
1
10
27.2422192261521
20
-1.32136159538112
30
0
41
1
10
27.233613679015
20
-1.33963560516386
30
0
41
1
10
27.2292486641146
20
-1.34843092173816
30
0
41
1
10
27.2226048685762
20
-1.36097103798235
30
0
41
1
10
27.2203742003865
20
-1.36504160296809
30
0
41
1
10
27.2158797804692
20
-1.37292799068086
30
0
41
1
10
27.2136114840345
20
-1.37674992187757
30
0
41
1
10
27.2068642491338
20
-1.3875916785002
30
0
41
1
10
27.2024104492094
20
-1.39405565220753
30
0
41
1
10
27.1958570185545
20
-1.40221830964811
30
0
41
1
10
27.1936902758027
20
-1.40468107255799
30
0
41
1
10
27.1895270980656
20
-1.40888483212012
30
0
41
1
10
27.1875169933273
20
-1.41064434379552
30
0
41
1
10
27.1836611006236
20
-1.4134074473659
30
0
41
1
10
27.1818002406924
20
-1.41441501664906
30
0
41
1
10
27.1783494234397
20
-1.41555276635134
30
0
41
1
10
27.1751836580223
20
-1.41582361153604
30
0
41
1
10
27.1725872795973
20
-1.41439144556804
30
0
41
1
10
27.1702798448889
20
-1.41210473584212
30
0
41
1
10
27.1692878737294
20
-1.41054535667754
30
0
41
1
10
27.1668014000119
20
-1.40482369907909
30
0
41
1
10
27.1657654356123
20
-1.39955096029169
30
0
41
1
10
27.1652559921251
20
-1.39325160398019
30
0
0
SPLINE
5
119
100
AcDbEntity
8
1
62
256
6
ByLayer
370
18
48
1
60
0
100
AcDbSpline
70
4
71
3
72
9
73
5
40
0
40
0
40
0
40
0
40
0.292176709699567
40
1
40
1
40
1
40
1
41
1
10
24.2804955290869
20
-3.41014855636308
30
0
41
1
10
24.2866732598176
20
-3.41072508066168
30
0
41
1
10
24.3077751728435
20
-3.41262186968521
30
0
41
1
10
24.3288051580774
20
-3.41425065880168
30
0
41
1
10
24.3436536336768
20
-3.41527349715167
30
0
0
SPLINE
5
11A
100
AcDbEntity
8
1
62
256
6
ByLayer
370
18
48
1
60
0
100
AcDbSpline
70
4
71
3
72
8
73
4
40
0
40
0
40
0
40
0
40
1
40
1
40
1
40
1
41
1
10
24.3436536336716
20
-3.4152734971513
30
0
41
1
10
24.3637811091329
20
-3.4147100008694
30
0
41
1
10
24.3834683755295
20
-3.41486696268899
30
0
41
1
10
24.4027062518915
20
-3.41576303060418
30
0
0
SPLINE
5
11B
100
AcDbEntity
8
1
62
256
6
ByLayer
370
18
48
1
60
0
100
AcDbSpline
70
4
71
3
72
10
73
6
40
0
40
0
40
0
40
0
40
0.5
40
0.5
40
1
40
1
40
1
40
1
41
1
10
24.9689837172209
20
-3.38381058375745
30
0
41
1
10
24.875199983856
20
-3.39940818021006
30
0
41
1
10
24.7812450718919
20
-3.40957084223271
30
0
41
1
10
24.5926054604137
20
-3.41998069247896
30
0
41
1
10
24.4979131765214
20
-3.42019760897824
30
0
41
1
10
24.4027062518858
20
-3.41576303060393
30
0
0
SPLINE
5
11C
100
AcDbEntity
8
1
62
256
6
ByLayer
370
18
48
1
60
0
100
AcDbSpline
70
4
71
3
72
10
73
6
40
0
40
0
40
0
40
0
40
0.5
40
0.5
40
1
40
1
40
1
40
1
41
1
10
25.7953316361859
20
-3.09761319551211
30
0
41
1
10
25.6655690094378
20
-3.16769943448403
30
0
41
1
10
25.5312536191016
20
-3.22737579870028
30
0
41
1
10
25.2552963793157
20
-3.3236310247992
30
0
41
1
10
25.1136161607942
20
-3.36016614464538
30
0
41
1
10
24.9689837172202
20
-3.38381058375756
30
0
0
SPLINE
5
11D
100
AcDbEntity
8
1
62
256
6
ByLayer
370
18
48
1
60
0
100
AcDbSpline
70
4
71
3
72
29
73
25
40
0
40
0
40
0
40
0
40
0.062500000000007
40
0.062500000000007
40
0.0937500000000106
40
0.0937500000000106
40
0.125000000000014
40
0.125000000000014
40
0.250000000000022
40
0.250000000000022
40
0.375000000000031
40
0.375000000000031
40
0.500000000000039
40
0.500000000000039
40
0.531250000000041
40
0.531250000000041
40
0.562500000000043
40
0.625000000000037
40
0.625000000000037
40
0.750000000000024
40
0.750000000000024
40
0.875000000000012
40
0.875000000000012
40
1
40
1
40
1
40
1
41
1
10
27.318020248525
20
-1.18312313866738
30
0
41
1
10
27.3014357453691
20
-1.23541450104815
30
0
41
1
10
27.2837218693153
20
-1.28726915632851
30
0
41
1
10
27.2554457065873
20
-1.36438988425456
30
0
41
1
10
27.2457338843306
20
-1.38999000657867
30
0
41
1
10
27.2258287659025
20
-1.44075179112804
30
0
41
1
10
27.2156255447863
20
-1.46594125784083
30
0
41
1
10
27.1633763296884
20
-1.59094568050935
30
0
41
1
10
27.1176595399552
20
-1.68794942456651
30
0
41
1
10
27.0185044803721
20
-1.87606841714458
30
0
41
1
10
26.9650638439904
20
-1.96718231249474
30
0
41
1
10
26.8504022030718
20
-2.14349171996008
30
0
41
1
10
26.7891791846209
20
-2.22868603606565
30
0
41
1
10
26.7076426315042
20
-2.33137326828944
30
0
41
1
10
26.6910750897794
20
-2.35173042925552
30
0
41
1
10
26.6575734897048
20
-2.39189528148356
30
0
41
1
10
26.606724622889
20
-2.45137801397203
30
0
41
1
10
26.5541017134919
20
-2.5085858449234
30
0
41
1
10
26.4464941087319
20
-2.61997793815809
30
0
41
1
10
26.3716111326345
20
-2.69021459232471
30
0
41
1
10
26.2154642576416
20
-2.82252707193476
30
0
41
1
10
26.1348496257233
20
-2.88404904784935
30
0
41
1
10
25.9687767209826
20
-2.99780336531254
30
0
41
1
10
25.8832921880738
20
-3.05005907832211
30
0
41
1
10
25.7953316361868
20
-3.09761319551163
30
0
0
SPLINE
5
11E
100
AcDbEntity
8
1
62
256
6
ByLayer
370
18
48
1
60
0
100
AcDbSpline
70
4
71
3
72
8
73
4
40
0
40
0
40
0
40
0
40
1
40
1
40
1
40
1
41
1
10
27.4993398877554
20
-0.0391956658717731
30
0
41
1
10
27.4962484276405
20
-0.148990728193866
30
0
41
1
10
27.489174645659
20
-0.258376011140825
30
0
41
1
10
27.4781035885481
20
-0.367349976195044
30
0
0
SPLINE
5
11F
100
AcDbEntity
8
1
62
256
6
ByLayer
370
18
48
1
60
0
100
AcDbSpline
70
4
71
3
72
14
73
10
40
0
40
0
40
0
40
0
40
0.26350476881313
40
0.26350476881313
40
0.447628576609847
40
0.447628576609847
40
0.631752384406565
40
0.631752384406565
40
1
40
1
40
1
40
1
41
1
10
27.47344782349
20
-0.41104424241226
30
0
41
1
10
27.4657799663914
20
-0.479802731454385
30
0
41
1
10
27.456516723071
20
-0.548397055948897
30
0
41
1
10
27.4380642321131
20
-0.664642092853256
30
0
41
1
10
27.4296888142423
20
-0.712402092798527
30
0
41
1
10
27.411443118187
20
-0.807515943757181
30
0
41
1
10
27.4015692297705
20
-0.854894729045611
30
0
41
1
10
27.3696737761108
20
-0.996491762251281
30
0
41
1
10
27.3453750101177
20
-1.09016987813089
30
0
41
1
10
27.318020248525
20
-1.18312313866738
30
0
0
SPLINE
5
120
100
AcDbEntity
8
1
62
256
6
ByLayer
370
18
48
1
60
0
100
AcDbSpline
70
4
71
3
72
8
73
4
40
0
40
0
40
0
40
0
40
1
40
1
40
1
40
1
41
1
10
27.4993398882644
20
-0.0391955991985071
30
0
41
1
10
27.4993659588367
20
-0.0363053146373602
30
0
41
1
10
27.4993889103854
20
-0.033412778231849
30
0
41
1
10
27.4994087307525
20
-0.030517986454015
30
0
0
SPLINE
5
121
100
AcDbEntity
8
1
62
256
6
ByLayer
370
18
48
1
60
0
100
AcDbSpline
70
4
71
3
72
8
73
4
40
0
40
0
40
0
40
0
40
1
40
1
40
1
40
1
41
1
10
27.4994087308362
20
-0.030517978201658
30
0
41
1
10
27.4946737671358
20
-0.0450790084190089
30
0
41
1
10
27.4899067684178
20
-0.0596365917722324
30
0
41
1
10
27.4851062947613
20
-0.0741905564746901
30
0
0
SPLINE
5
122
100
AcDbEntity
8
1
62
256
6
ByLayer
370
18
48
1
60
0
100
AcDbSpline
70
4
71
3
72
8
73
4
40
0
40
0
40
0
40
0
40
1
40
1
40
1
40
1
41
1
10
27.4852355133002
20
0.0268182933495495
30
0
41
1
10
27.4855656253703
20
-0.0068499593950264
30
0
41
1
10
27.4855224526228
20
-0.0405194806102998
30
0
41
1
10
27.4851062947614
20
-0.0741905564747753
30
0
0
SPLINE
5
123
100
AcDbEntity
8
1
62
256
6
ByLayer
370
18
48
1
60
0
100
AcDbSpline
70
4
71
3
72
22
73
18
40
0
40
0
40
0
40
0
40
0.249999999999995
40
0.249999999999995
40
0.374999999999994
40
0.374999999999994
40
0.499999999999993
40
0.499999999999993
40
0.624999999999991
40
0.624999999999991
40
0.687499999999992
40
0.687499999999992
40
0.749999999999992
40
0.749999999999992
40
0.874999999999996
40
0.874999999999996
40
1
40
1
40
1
40
1
41
1
10
25.4567372443109
20
-1.31041309058222
30
0
41
1
10
25.4645788961433
20
-1.32314770857687
30
0
41
1
10
25.4716579933175
20
-1.33644279664568
30
0
41
1
10
25.4806760250089
20
-1.35756185433826
30
0
41
1
10
25.4834126477976
20
-1.36479953659253
30
0
41
1
10
25.4882111266908
20
-1.37977084550221
30
0
41
1
10
25.4902844421714
20
-1.38755392821412
30
0
41
1
10
25.4934939279048
20
-1.40354014787712
30
0
41
1
10
25.4946162281041
20
-1.41165158767993
30
0
41
1
10
25.4954285497925
20
-1.42403241137052
30
0
41
1
10
25.4955535476279
20
-1.42819510747532
30
0
41
1
10
25.4954777771671
20
-1.43660040119366
30
0
41
1
10
25.4952738418541
20
-1.44086242281355
30
0
41
1
10
25.4941423333214
20
-1.45350297049629
30
0
41
1
10
25.4927017185365
20
-1.46180553232878
30
0
41
1
10
25.4883544016453
20
-1.47814475147823
30
0
41
1
10
25.4854343991986
20
-1.48616223600709
30
0
41
1
10
25.481883148274
20
-1.49375560848679
30
0
0
SPLINE
5
124
100
AcDbEntity
8
1
62
256
6
ByLayer
370
18
48
1
60
0
100
AcDbSpline
70
4
71
3
72
8
73
4
40
0
40
0
40
0
40
0
40
1
40
1
40
1
40
1
41
1
10
15.7191585075825
20
-3.7762949858427
30
0
41
1
10
15.6766606513627
20
-3.77904990657112
30
0
41
1
10
15.6342728188725
20
-3.78154994830359
30
0
41
1
10
15.592
20
-3.78378276309306
30
0
0
SPLINE
5
125
100
AcDbEntity
8
1
62
256
6
ByLayer
370
18
48
1
60
0
100
AcDbSpline
70
4
71
3
72
34
73
30
40
0
40
0
40
0
40
0
40
0.034226880456176
40
0.0695964213680359
40
0.10610748532384
40
0.143758805476415
40
0.182548992985623
40
0.222476543443748
40
0.263539842461195
40
0.305737170556915
40
0.333767783020888
40
0.36277806319288
40
0.392771924541096
40
0.423752955992517
40
0.455724460909181
40
0.488689490066612
40
0.52265086959105
40
0.557611224639778
40
0.593572999470085
40
0.63053847443045
40
0.668509780316521
40
0.707488910460613
40
0.747477730862925
40
0.788477988623218
40
0.830491318890742
40
0.873519250516701
40
0.917563210565424
40
0.962624527817323
40
1
40
1
40
1
40
1
41
1
10
15.7209718726561
20
-3.77726305459359
30
0
41
1
10
15.7192870933653
20
-3.77029185888461
30
0
41
1
10
15.7158612886214
20
-3.75611673490207
30
0
41
1
10
15.7104470238957
20
-3.73434546452867
30
0
41
1
10
15.7047267257341
20
-3.71173862234738
30
0
41
1
10
15.6986847429537
20
-3.68826716465233
30
0
41
1
10
15.6923272651059
20
-3.66391507757604
30
0
41
1
10
15.6856454965407
20
-3.63866591275496
30
0
41
1
10
15.6786693388701
20
-3.61248866069573
30
0
41
1
10
15.6721762435292
20
-3.58868392844076
30
0
41
1
10
15.6665340449167
20
-3.56722042178348
30
0
41
1
10
15.6619596069635
20
-3.54812219990268
30
0
41
1
10
15.6575134241891
20
-3.52813612657511
30
0
41
1
10
15.6532176776453
20
-3.5072423385077
30
0
41
1
10
15.6490661437863
20
-3.48543246821834
30
0
41
1
10
15.6450605913302
20
-3.46269467125987
30
0
41
1
10
15.6412005415625
20
-3.43901785421639
30
0
41
1
10
15.6374861451804
20
-3.41439050328992
30
0
41
1
10
15.6339173751581
20
-3.38880103020381
30
0
41
1
10
15.6304942529966
20
-3.36223769329908
30
0
41
1
10
15.6272167854732
20
-3.33468863845829
30
0
41
1
10
15.6240849824042
20
-3.30614190732044
30
0
41
1
10
15.6210988517657
20
-3.27658545546984
30
0
41
1
10
15.6182584011346
20
-3.24600716868116
30
0
41
1
10
15.6155636373656
20
-3.21439488055685
30
0
41
1
10
15.6130145667561
20
-3.18173639063622
30
0
41
1
10
15.610611195073
20
-3.14801948324194
30
0
41
1
10
15.6084988965054
20
-3.11547188077188
30
0
41
1
10
15.6072282734336
20
-3.09409829916873
30
0
41
1
10
15.6066728760083
20
-3.08437574279628
30
0
0
SPLINE
5
126
100
AcDbEntity
8
1
62
256
6
ByLayer
370
18
48
1
60
0
100
AcDbSpline
70
4
71
3
72
12
73
8
40
0
40
0
40
0
40
0
40
0.5
40
0.5
40
0.75
40
0.75
40
1
40
1
40
1
40
1
41
1
10
15.592
20
-3.78378276309317
30
0
41
1
10
15.5108628773223
20
-3.80824117286593
30
0
41
1
10
15.4297595778351
20
-3.83529033105751
30
0
41
1
10
15.3080480665605
20
-3.87963945652851
30
0
41
1
10
15.2674269300289
20
-3.8950690996254
30
0
41
1
10
15.186415915278
20
-3.92706707768573
30
0
41
1
10
15.1460151111965
20
-3.9436379468134
30
0
41
1
10
15.1057085359394
20
-3.96076516309657
30
0
0
SPLINE
5
127
100
AcDbEntity
8
1
62
256
6
ByLayer
370
18
48
1
60
0
100
AcDbSpline
70
4
71
3
72
31
73
27
40
0
40
0
40
0
40
0
40
0.124999999999995
40
0.124999999999995
40
0.156249999999994
40
0.156249999999994
40
0.187499999999992
40
0.187499999999992
40
0.249999999999995
40
0.249999999999995
40
0.375000000000002
40
0.375000000000002
40
0.437500000000002
40
0.437500000000002
40
0.500000000000002
40
0.500000000000002
40
0.624999999999997
40
0.624999999999997
40
0.749999999999992
40
0.749999999999992
40
0.781249999999993
40
0.781249999999993
40
0.812499999999994
40
0.874999999999996
40
0.874999999999996
40
1
40
1
40
1
40
1
41
1
10
25.074378454044
20
-2.61684145079823
30
0
41
1
10
25.1630731402714
20
-2.62542382924016
30
0
41
1
10
25.2526846594063
20
-2.62633194058671
30
0
41
1
10
25.3659061625199
20
-2.61736312306431
30
0
41
1
10
25.3886111319962
20
-2.61506153639695
30
0
41
1
10
25.434145256939
20
-2.60941887544178
30
0
41
1
10
25.4569415883941
20
-2.60607946433785
30
0
41
1
10
25.5249462861784
20
-2.59457938061476
30
0
41
1
10
25.5699492503844
20
-2.58491808722562
30
0
41
1
10
25.7039682532158
20
-2.55001396851463
30
0
41
1
10
25.7919993289887
20
-2.51888037119289
30
0
41
1
10
25.9220260848901
20
-2.4600998023694
30
0
41
1
10
25.9650304777897
20
-2.43848564410899
30
0
41
1
10
26.0503400080183
20
-2.39107528647676
30
0
41
1
10
26.0927903207082
20
-2.36516623452272
30
0
41
1
10
26.216895489356
20
-2.28237685453683
30
0
41
1
10
26.2959266563491
20
-2.22021006975399
30
0
41
1
10
26.4466597970404
20
-2.08208315063604
30
0
41
1
10
26.5183566681943
20
-2.00611341344683
30
0
41
1
10
26.6031727417025
20
-1.90210832893811
30
0
41
1
10
26.6198334448486
20
-1.88092598844693
30
0
41
1
10
26.6524016355862
20
-1.83800846502052
30
0
41
1
10
26.7001985164011
20
-1.77271138781825
30
0
41
1
10
26.744885103352
20
-1.70470072378282
30
0
41
1
10
26.8302234887821
20
-1.56515923030298
30
0
41
1
10
26.8817529873609
20
-1.46745281055669
30
0
41
1
10
26.9277195233656
20
-1.36489296452518
30
0
0
SPLINE
5
128
100
AcDbEntity
8
1
62
256
6
ByLayer
370
18
48
1
60
0
100
AcDbSpline
70
4
71
3
72
26
73
22
40
0
40
0
40
0
40
0
40
0.0051801680727276
40
0.011220308030957
40
0.0146402149491041
40
0.0368842390189896
40
0.116724690429038
40
0.146541401635689
40
0.159563616313097
40
0.160669389023559
40
0.16194727578492
40
0.162587574030276
40
0.171878819355358
40
0.196212621910837
40
0.285114748647062
40
0.360985943822718
40
0.446928784455598
40
0.753118651321753
40
0.878817867440566
40
0.958096828107787
40
1
40
1
40
1
40
1
41
1
10
23.5309998355238
20
-3.01009747021109
30
0
41
1
10
23.5385096357813
20
-3.01286993760095
30
0
41
1
10
23.5548009110646
20
-3.01888238025916
30
0
41
1
10
23.5761374975274
20
-3.02675353501977
30
0
41
1
10
23.6222267897553
20
-3.04375124672842
30
0
41
1
10
23.7752201003043
20
-3.09701026124208
30
0
41
1
10
23.9660300401455
20
-3.14828979269436
30
0
41
1
10
24.141256825766
20
-3.18193734876991
30
0
41
1
10
24.2039488195075
20
-3.19230278879849
30
0
41
1
10
24.2257101108258
20
-3.19545339545132
30
0
41
1
10
24.2301768034574
20
-3.19631206753414
30
0
41
1
10
24.2463689842815
20
-3.19894006841426
30
0
41
1
10
24.2954854810602
20
-3.20630015486373
30
0
41
1
10
24.4698998315191
20
-3.22724288059948
30
0
41
1
10
24.7321005625421
20
-3.23317680702922
30
0
41
1
10
25.0703873249964
20
-3.19500791951543
30
0
41
1
10
25.6866347676587
20
-3.04228500391952
30
0
41
1
10
26.3310340778887
20
-2.65018698459067
30
0
41
1
10
26.8410006169453
20
-2.01888187014788
30
0
41
1
10
27.0481247480046
20
-1.65709800537033
30
0
41
1
10
27.1364897396298
20
-1.4626044694223
30
0
41
1
10
27.1652559921251
20
-1.39325160398016
30
0
0
SPLINE
5
129
100
AcDbEntity
8
1
62
256
6
ByLayer
370
18
48
1
60
0
100
AcDbSpline
70
4
71
3
72
14
73
10
40
0
40
0
40
0
40
0
40
0.25
40
0.25
40
0.5
40
0.5
40
0.75
40
0.75
40
1
40
1
40
1
40
1
41
1
10
27.1652559921251
20
-1.39325160398016
30
0
41
1
10
27.1638937058318
20
-1.38172628263371
30
0
41
1
10
27.1632350262049
20
-1.36947860039041
30
0
41
1
10
27.1628190287936
20
-1.34401549441239
30
0
41
1
10
27.1630700720397
20
-1.33079171316834
30
0
41
1
10
27.1642350855474
20
-1.30358801814876
30
0
41
1
10
27.1651545937142
20
-1.2895850297848
30
0
41
1
10
27.1674775785306
20
-1.26125819885078
30
0
41
1
10
27.1688830964996
20
-1.24689467337862
30
0
41
1
10
27.1704754093026
20
-1.23236178483074
30
0
0
SPLINE
5
12A
100
AcDbEntity
8
1
62
256
6
ByLayer
370
18
48
1
60
0
100
AcDbSpline
70
4
71
3
72
8
73
4
40
0
40
0
40
0
40
0
40
1
40
1
40
1
40
1
41
1
10
27.1896535168918
20
-1.0432611431103
30
0
41
1
10
27.1837631069486
20
-1.10661290927695
30
0
41
1
10
27.1773484135186
20
-1.16963252455613
30
0
41
1
10
27.1704754093026
20
-1.23236178483074
30
0
0
SPLINE
5
12B
100
AcDbEntity
8
1
62
256
6
ByLayer
370
18
48
1
60
0
100
AcDbSpline
70
4
71
3
72
10
73
6
40
0
40
0
40
0
40
0
40
0.5
40
0.5
40
1
40
1
40
1
40
1
41
1
10
26.927719523365
20
-1.36489296452558
30
0
41
1
10
26.9744241894466
20
-1.31589487294761
30
0
41
1
10
27.0196868617716
20
-1.26447664452616
30
0
41
1
10
27.1070533657395
20
-1.15717753351171
30
0
41
1
10
27.1491459039959
20
-1.10131953948402
30
0
41
1
10
27.1896535168918
20
-1.04326114311027
30
0
0
SPLINE
5
12C
100
AcDbEntity
8
1
62
256
6
ByLayer
370
13
48
1
60
0
100
AcDbSpline
70
4
71
3
72
10
73
6
40
0
40
0
40
0
40
0
40
0.104321463408402
40
0.402880975605601
40
1
40
1
40
1
40
1
41
1
10
20.5776056805747
20
-2.01585904263993
30
0
41
1
10
20.4042371203832
20
-1.9765236296459
30
0
41
1
10
19.7347018935249
20
-1.81725834876681
30
0
41
1
10
18.0728333333333
20
-1.35563246095279
30
0
41
1
10
16.5843333333333
20
-0.836647537889263
30
0
41
1
10
15.592
20
-0.475143734915093
30
0
0
SPLINE
5
12D
100
AcDbEntity
8
1
62
256
6
ByLayer
370
18
48
1
60
0
100
AcDbSpline
70
4
71
3
72
37
73
33
40
0
40
0
40
0
40
0
40
0.0838047381773037
40
0.0838047381773037
40
0.167609476354607
40
0.167609476354607
40
0.33521895270923
40
0.33521895270923
40
0.419023690886534
40
0.419023690886534
40
0.502828429063837
40
0.502828429063837
40
0.544730798152489
40
0.544730798152489
40
0.586633167241141
40
0.586633167241141
40
0.591870963377226
40
0.591870963377226
40
0.597108759513312
40
0.597108759513312
40
0.602346555649397
40
0.602346555649397
40
0.607584351785483
40
0.628535536329825
40
0.628535536329825
40
0.670437905418509
40
0.670437905418509
40
0.754242643595894
40
0.754242643595894
40
0.838047381773279
40
0.838047381773279
40
1
40
1
40
1
40
1
41
1
10
23.5309993007581
20
-3.69491128859303
30
0
41
1
10
23.5599967116347
20
-3.69110348988275
30
0
41
1
10
23.5889663670945
20
-3.68724661912171
30
0
41
1
10
23.6471912556131
20
-3.67844553016107
30
0
41
1
10
23.6764245094188
20
-3.67357444354747
30
0
41
1
10
23.7644650304815
20
-3.65774189224948
30
0
41
1
10
23.8236217859582
20
-3.64553663550947
30
0
41
1
10
23.9131055201569
20
-3.62504164254273
30
0
41
1
10
23.9430581157484
20
-3.61784503469482
30
0
41
1
10
24.0032208348993
20
-3.60276512812209
30
0
41
1
10
24.0334371035208
20
-3.59486679413661
30
0
41
1
10
24.0789158843571
20
-3.58264529490779
30
0
41
1
10
24.0941005666533
20
-3.57851056033039
30
0
41
1
10
24.1245080267105
20
-3.57015405089638
30
0
41
1
10
24.1397267081582
20
-3.56593975880355
30
0
41
1
10
24.1571102040963
20
-3.56056843952942
30
0
41
1
10
24.1590561960692
20
-3.55993646927158
30
0
41
1
10
24.1628958793841
20
-3.55880047625476
30
0
41
1
10
24.1647401529939
20
-3.55841674726548
30
0
41
1
10
24.1684925394174
20
-3.55749342490432
30
0
41
1
10
24.1704111153198
20
-3.55692863306061
30
0
41
1
10
24.1742259680503
20
-3.55585354979763
30
0
41
1
10
24.1837757088623
20
-3.55313559098551
30
0
41
1
10
24.1933802825877
20
-3.55028751321535
30
0
41
1
10
24.2164578618832
20
-3.54339573820838
30
0
41
1
10
24.2318721373138
20
-3.53874041799722
30
0
41
1
10
24.2782124673526
20
-3.52457688582575
30
0
41
1
10
24.3093115733662
20
-3.51483996759774
30
0
41
1
10
24.3714348268489
20
-3.49489748347708
30
0
41
1
10
24.4024207295321
20
-3.48470973352201
30
0
41
1
10
24.4930754219819
20
-3.45422614191574
30
0
41
1
10
24.5525469701695
20
-3.43336303666777
30
0
41
1
10
24.6117816077228
20
-3.41181040622669
30
0
0
SPLINE
5
12E
100
AcDbEntity
8
1
62
256
6
ByLayer
370
18
48
1
60
0
100
AcDbSpline
70
4
71
3
72
11
73
7
40
0
40
0
40
0
40
0
40
0.418913990802333
40
0.698189984670555
40
0.837827981604667
40
1
40
1
40
1
40
1
41
1
10
15.592
20
-2.82052004953619
30
0
41
1
10
16.584375
20
-3.21228484597074
30
0
41
1
10
18.2383333333334
20
-3.71590980446302
30
0
41
1
10
20.2230833333334
20
-3.92880986407653
30
0
41
1
10
21.5996313623765
20
-3.90780692032649
30
0
41
1
10
22.3145960580862
20
-3.83270239236984
30
0
41
1
10
22.6987690871293
20
-3.77477960217331
30
0
0
SPLINE
5
12F
100
AcDbEntity
8
1
62
256
6
ByLayer
370
18
48
1
60
0
100
AcDbSpline
70
4
71
3
72
34
73
30
40
0
40
0
40
0
40
0
40
0.124999999999999
40
0.124999999999999
40
0.156249999999999
40
0.156249999999999
40
0.187499999999998
40
0.187499999999998
40
0.249999999999998
40
0.249999999999998
40
0.374999999999997
40
0.374999999999997
40
0.437499999999996
40
0.437499999999996
40
0.468749999999996
40
0.468749999999996
40
0.499999999999996
40
0.499999999999996
40
0.624999999999997
40
0.624999999999997
40
0.687499999999997
40
0.687499999999997
40
0.718749999999997
40
0.718749999999997
40
0.749999999999998
40
0.749999999999998
40
0.874999999999999
40
0.874999999999999
40
1
40
1
40
1
40
1
41
1
10
23.531
20
-3.69491715621569
30
0
41
1
10
23.2048614359237
20
-3.73686542587987
30
0
41
1
10
22.8792296702382
20
-3.76622778401099
30
0
41
1
10
22.4715488565736
20
-3.78706219741289
30
0
41
1
10
22.3899813842228
20
-3.79043580431019
30
0
41
1
10
22.2267550197903
20
-3.79559294406101
30
0
41
1
10
22.1450677507794
20
-3.79737678365905
30
0
41
1
10
21.9001743271649
20
-3.80032784220228
30
0
41
1
10
21.7370759250541
20
-3.79910103537102
30
0
41
1
10
21.2481527394101
20
-3.78576201965612
30
0
41
1
10
20.9227033370787
20
-3.76397957308384
30
0
41
1
10
20.4341424721729
20
-3.71261563337944
30
0
41
1
10
20.2712253292423
20
-3.69237418721468
30
0
41
1
10
20.0266144745733
20
-3.65737531004385
30
0
41
1
10
19.9450380461813
20
-3.64493624993011
30
0
41
1
10
19.7817867927621
20
-3.61851333805785
30
0
41
1
10
19.7001201380115
20
-3.60452986916275
30
0
41
1
10
19.2922170270516
20
-3.53088617314572
30
0
41
1
10
18.9667059948362
20
-3.45997009776599
30
0
41
1
10
18.4786276839329
20
-3.33589221075397
30
0
41
1
10
18.3159682736741
20
-3.29156452638173
30
0
41
1
10
18.071821490361
20
-3.22084171658278
30
0
41
1
10
17.9904128471635
20
-3.19656286328726
30
0
41
1
10
17.8275090715103
20
-3.14663419705121
30
0
41
1
10
17.7459845637406
20
-3.12097484989627
30
0
41
1
10
17.3384232837658
20
-2.98946031081158
30
0
41
1
10
17.0130593887973
20
-2.87415118057538
30
0
41
1
10
16.3618186260377
20
-2.62596440673332
30
0
41
1
10
16.035942658715
20
-2.49309861239161
30
0
41
1
10
15.7090894205417
20
-2.35232969232908
30
0
0
SPLINE
5
130
100
AcDbEntity
8
1
62
256
6
ByLayer
370
18
48
1
60
0
100
AcDbSpline
70
4
71
3
72
12
73
8
40
0
40
0
40
0
40
0
40
0.249999999999958
40
0.249999999999958
40
0.499999999999916
40
0.499999999999916
40
1
40
1
40
1
40
1
41
1
10
26.807758018275
20
-0.844637034679238
30
0
41
1
10
26.8079346201253
20
-0.84950507459348
30
0
41
1
10
26.8075764072365
20
-0.85410929019028
30
0
41
1
10
26.8061110197696
20
-0.862948258293102
30
0
41
1
10
26.8050057955376
20
-0.867129856682737
30
0
41
1
10
26.8010146127445
20
-0.878905123732039
30
0
41
1
10
26.7974252110401
20
-0.885928980876315
30
0
41
1
10
26.7933850995112
20
-0.892411542725398
30
0
0
SPLINE
5
131
100
AcDbEntity
8
1
62
256
6
ByLayer
370
13
48
1
60
0
100
AcDbSpline
70
4
71
3
72
19
73
15
40
0
40
0
40
0
40
0
40
0.249999999999996
40
0.249999999999996
40
0.312499999999999
40
0.312499999999999
40
0.375000000000001
40
0.5
40
0.5
40
0.749999999999996
40
0.749999999999996
40
0.874999999999998
40
0.874999999999998
40
1
40
1
40
1
40
1
41
1
10
26.7933850995121
20
-0.892411542725227
30
0
41
1
10
26.6473837245447
20
-0.917744229140396
30
0
41
1
10
26.5027146383669
20
-0.938464595250366
30
0
41
1
10
26.3243467537171
20
-0.957339866772656
30
0
41
1
10
26.2887647040072
20
-0.960774135228547
30
0
41
1
10
26.2180434960481
20
-0.966897023737261
30
0
41
1
10
26.1126292184915
20
-0.974966545813203
30
0
41
1
10
26.0092063196099
20
-0.979574595489169
30
0
41
1
10
25.8050667173206
20
-0.984005898351228
30
0
41
1
10
25.6725682393816
20
-0.980560772838061
30
0
41
1
10
25.479753854293
20
-0.965637271912101
30
0
41
1
10
25.416475133234
20
-0.959042289854466
30
0
41
1
10
25.292037634754
20
-0.942661325336417
30
0
41
1
10
25.2309193511134
20
-0.932905597311361
30
0
41
1
10
25.1707859231185
20
-0.921642893501343
30
0
0
SPLINE
5
132
100
AcDbEntity
8
1
62
256
6
ByLayer
370
18
48
1
60
0
100
AcDbSpline
70
4
71
3
72
8
73
4
40
0
40
0
40
0
40
0
40
1
40
1
40
1
40
1
41
1
10
25.2983519952757
20
1.40789163467562
30
0
41
1
10
25.3189397281006
20
1.37074510777381
30
0
41
1
10
25.3385794757879
20
1.33352853545981
30
0
41
1
10
25.356972762494
20
1.29621989334532
30
0
0
SPLINE
5
133
100
AcDbEntity
8
1
62
256
6
ByLayer
370
18
48
1
60
0
100
AcDbSpline
70
4
71
3
72
16
73
12
40
0
40
0
40
0
40
0
40
0.249999999999997
40
0.249999999999997
40
0.499999999999993
40
0.499999999999993
40
0.624999999999992
40
0.624999999999992
40
0.74999999999999
40
0.74999999999999
40
1
40
1
40
1
40
1
41
1
10
25.3569727464941
20
1.29621990220716
30
0
41
1
10
25.3624005899395
20
1.28521420867116
30
0
41
1
10
25.3671359590059
20
1.27441201600283
30
0
41
1
10
25.3747698057787
20
1.25334742914313
30
0
41
1
10
25.377684985081
20
1.24306876620267
30
0
41
1
10
25.3800102660048
20
1.22828692181221
30
0
41
1
10
25.3804213614275
20
1.22357086804527
30
0
41
1
10
25.3804176009093
20
1.21461805902197
30
0
41
1
10
25.3799978990335
20
1.21035885159122
30
0
41
1
10
25.3773291831738
20
1.19856811771737
30
0
41
1
10
25.3737517629976
20
1.1922488276897
30
0
41
1
10
25.3682972022621
20
1.18753832693292
30
0
0
SPLINE
5
134
100
AcDbEntity
8
1
62
256
6
ByLayer
370
18
48
1
60
0
100
AcDbSpline
70
4
71
3
72
16
73
12
40
0
40
0
40
0
40
0
40
0.249999999999994
40
0.249999999999994
40
0.499999999999989
40
0.499999999999989
40
0.624999999999991
40
0.624999999999991
40
0.749999999999994
40
0.749999999999994
40
1
40
1
40
1
40
1
41
1
10
25.6724464305403
20
1.22100086736395
30
0
41
1
10
25.7603693763518
20
1.14610863150486
30
0
41
1
10
25.8494278862242
20
1.07400342832273
30
0
41
1
10
26.0296390154362
20
0.934932627653581
30
0
41
1
10
26.1207918866259
20
0.867967648286253
30
0
41
1
10
26.258990784741
20
0.771127020276793
30
0
41
1
10
26.3053023185194
20
0.739448693589253
30
0
41
1
10
26.3984023937124
20
0.677262767533705
30
0
41
1
10
26.44526288582
20
0.646714549897268
30
0
41
1
10
26.5857615384589
20
0.557187690090672
30
0
41
1
10
26.679439656702
20
0.500229049883131
30
0
41
1
10
26.7731275834565
20
0.445435408955376
30
0
0
SPLINE
5
135
100
AcDbEntity
8
1
62
256
6
ByLayer
370
13
48
1
60
0
100
AcDbSpline
70
4
71
3
72
10
73
6
40
0
40
0
40
0
40
0
40
0.661761335426498
40
0.992642003139747
40
1
40
1
40
1
40
1
41
1
10
15.592
20
-0.321739081175451
30
0
41
1
10
16.5843333333333
20
-0.679427393356178
30
0
41
1
10
18.0728333333333
20
-1.20110614843446
30
0
41
1
10
19.5723668965836
20
-1.63062106365479
30
0
41
1
10
20.0795671265005
20
-1.76160048136208
30
0
41
1
10
20.0906006897507
20
-1.76444299311638
30
0
0
SPLINE
5
136
100
AcDbEntity
8
1
62
256
6
ByLayer
370
18
48
1
60
0
100
AcDbSpline
70
4
71
3
72
8
73
4
40
0
40
0
40
0
40
0
40
1
40
1
40
1
40
1
41
1
10
25.2950867021302
20
-1.02708406138234
30
0
41
1
10
25.2798945027612
20
-1.02642075248721
30
0
41
1
10
25.2646921368466
20
-1.02578130625736
30
0
41
1
10
25.2494799232388
20
-1.02516497429028
30
0
0
SPLINE
5
137
100
AcDbEntity
8
1
62
256
6
ByLayer
370
18
48
1
60
0
100
AcDbSpline
70
4
71
3
72
8
73
4
40
0
40
0
40
0
40
0
40
1
40
1
40
1
40
1
41
1
10
25.1707859032989
20
-0.921642978375502
30
0
41
1
10
25.2117202677334
20
-0.956856768238964
30
0
41
1
10
25.253128692594
20
-0.99205291184353
30
0
41
1
10
25.2950867021299
20
-1.02708406138251
30
0
0
SPLINE
5
138
100
AcDbEntity
8
1
62
256
6
ByLayer
370
18
48
1
60
0
100
AcDbSpline
70
4
71
3
72
36
73
32
40
0
40
0
40
0
40
0
40
0.124999999999993
40
0.124999999999993
40
0.249999999999985
40
0.249999999999985
40
0.312499999999987
40
0.312499999999987
40
0.374999999999989
40
0.374999999999989
40
0.499999999999992
40
0.499999999999992
40
0.624999999999995
40
0.624999999999995
40
0.749999999999999
40
0.749999999999999
40
0.8125
40
0.8125
40
0.875
40
0.875
40
0.90625
40
0.90625
40
0.9375
40
0.9375
40
0.953125
40
0.953125
40
0.96875
40
0.96875
40
0.984375
40
0.984375
40
1
40
1
40
1
40
1
41
1
10
25.1707857716612
20
-0.921642865134089
30
0
41
1
10
25.1460987681518
20
-0.90040586808945
30
0
41
1
10
25.123612718981
20
-0.878484284477025
30
0
41
1
10
25.0824841214264
20
-0.833921890979923
30
0
41
1
10
25.0638473071261
20
-0.811278600499577
30
0
41
1
10
25.0385162461096
20
-0.777247195586568
30
0
41
1
10
25.0305562777962
20
-0.765951312495162
30
0
41
1
10
25.0156336749779
20
-0.74368637549469
30
0
41
1
10
25.0086524711364
20
-0.732692483191357
30
0
41
1
10
24.9890343655125
20
-0.700226013489328
30
0
41
1
10
24.9777144863771
20
-0.679268332339348
30
0
41
1
10
24.9581620584125
20
-0.639243603971977
30
0
41
1
10
24.9499045575282
20
-0.620109505529683
30
0
41
1
10
24.9366874042673
20
-0.585084142123804
30
0
41
1
10
24.9316180815926
20
-0.569064781270328
30
0
41
1
10
24.9269931687274
20
-0.547820907151305
30
0
41
1
10
24.925957392994
20
-0.541196246580796
30
0
41
1
10
24.9254238445633
20
-0.529276269773504
30
0
41
1
10
24.9258860614737
20
-0.52393323779026
30
0
41
1
10
24.9287568277678
20
-0.517475947529533
30
0
41
1
10
24.9300805797554
20
-0.515580231977168
30
0
41
1
10
24.9339886436206
20
-0.512538077956407
30
0
41
1
10
24.9365390755037
20
-0.511401299383465
30
0
41
1
10
24.9420345141642
20
-0.510696350147612
30
0
41
1
10
24.9441202796588
20
-0.510636014440706
30
0
41
1
10
24.9489770132997
20
-0.510956683283894
30
0
41
1
10
24.9517936640597
20
-0.511347262393286
30
0
41
1
10
24.9581597026079
20
-0.512667243661838
30
0
41
1
10
24.9616606561279
20
-0.513582334389042
30
0
41
1
10
24.9693583019219
20
-0.515941198770747
30
0
41
1
10
24.9733982498634
20
-0.517336340732101
30
0
41
1
10
24.9775891924799
20
-0.518900620909108
30
0
0
SPLINE
5
139
100
AcDbEntity
8
1
62
256
6
ByLayer
370
13
48
1
60
0
100
AcDbSpline
70
4
71
3
72
12
73
8
40
0
40
0
40
0
40
0
40
0.301781986334368
40
0.452672979501552
40
0.679009469252328
40
0.905345959003104
40
1
40
1
40
1
40
1
41
1
10
15.592
20
1.93239580513856
30
0
41
1
10
16.5843333333333
20
1.70419005848404
30
0
41
1
10
18.0728333333334
20
1.26735525617062
30
0
41
0.999999999999999
10
20.3055833333333
20
0.498482920969622
30
0
41
1
10
22.29025
20
-0.231797015857722
30
0
41
1
10
24.0899957478223
20
-0.873671030187268
30
0
41
1
10
25.1454914956445
20
-1.21403733936211
30
0
41
1
10
25.4567372434667
20
-1.31041309070238
30
0
0
SPLINE
5
13A
100
AcDbEntity
8
1
62
256
6
ByLayer
370
18
48
1
60
0
100
AcDbSpline
70
4
71
3
72
10
73
6
40
0
40
0
40
0
40
0
40
0.5
40
0.5
40
1
40
1
40
1
40
1
41
1
10
25.2494799232389
20
-1.02516497429028
30
0
41
1
10
25.2864688270735
20
-1.06957330154307
30
0
41
1
10
25.3224375396313
20
-1.11528835969628
30
0
41
1
10
25.3917710787099
20
-1.21005371168167
30
0
41
1
10
25.425146361408
20
-1.25909063539473
30
0
41
1
10
25.456737261171
20
-1.31041309618442
30
0
0
SPLINE
5
13B
100
AcDbEntity
8
1
62
256
6
ByLayer
370
18
48
1
60
0
100
AcDbSpline
70
4
71
3
72
19
73
15
40
0
40
0
40
0
40
0
40
0.250000000000004
40
0.250000000000004
40
0.375000000000003
40
0.375000000000003
40
0.500000000000002
40
0.500000000000002
40
0.75
40
0.75
40
0.812500000000001
40
0.812500000000001
40
0.875000000000002
40
1
40
1
40
1
40
1
41
1
10
25.368297183867
20
1.18753833477839
30
0
41
1
10
25.3234130421349
20
1.14879370984423
30
0
41
1
10
25.2806249485722
20
1.10797524461515
30
0
41
1
10
25.2204894325826
20
1.04274377670833
30
0
41
1
10
25.2011218600859
20
1.02032953191838
30
0
41
1
10
25.1639414761161
20
0.973962749828729
30
0
41
1
10
25.1461464712344
20
0.950029894642512
30
0
41
1
10
25.0956110218929
20
0.875826057506032
30
0
41
1
10
25.065639754992
20
0.823121892527922
30
0
41
1
10
25.034384274746
20
0.751841233385761
30
0
41
1
10
25.0284396435462
20
0.737294627102784
30
0
41
1
10
25.0172635531362
20
0.707710465281707
30
0
41
1
10
25.0015755850227
20
0.662621062879424
30
0
41
1
10
24.9893002439724
20
0.615270164948356
30
0
41
1
10
24.9828237371287
20
0.58257166129485
30
0
0
SPLINE
5
13C
100
AcDbEntity
8
1
62
256
6
ByLayer
370
13
48
1
60
0
100
AcDbSpline
70
4
71
3
72
10
73
6
40
0
40
0
40
0
40
0
40
0.264744625757133
40
0.964035434736859
40
1
40
1
40
1
40
1
41
1
10
25.3682972004904
20
1.18753832540295
30
0
41
1
10
25.0865314669937
20
1.27992193913562
30
0
41
1
10
24.0605157334968
20
1.60545005952773
30
0
41
1
10
22.996223181038
20
1.89250917380633
30
0
41
1
10
22.2136963620761
20
2.063355864828
30
0
41
1
10
22.1754195431141
20
2.07161561942334
30
0
0
SPLINE
5
13D
100
AcDbEntity
8
1
62
256
6
ByLayer
370
18
48
1
60
0
100
AcDbSpline
70
4
71
3
72
12
73
8
40
0
40
0
40
0
40
0
40
0.5
40
0.5
40
0.75
40
0.75
40
1
40
1
40
1
40
1
41
1
10
15.592
20
1.5709535016428
30
0
41
1
10
15.5108628773224
20
1.60558997316176
30
0
41
1
10
15.4297595778351
20
1.63873858126144
30
0
41
1
10
15.3080480665605
20
1.68594839064303
30
0
41
1
10
15.267426930029
20
1.70127937727324
30
0
41
1
10
15.186415915278
20
1.73093847551837
30
0
41
1
10
15.1460151111965
20
1.74527185540882
30
0
41
1
10
15.1057085359394
20
1.75907907479612
30
0
0
SPLINE
5
13E
100
AcDbEntity
8
1
62
256
6
ByLayer
370
18
48
1
60
0
100
AcDbSpline
70
4
71
3
72
32
73
28
40
0
40
0
40
0
40
0
40
0.186345482282563
40
0.186345482282563
40
0.279518223423845
40
0.279518223423845
40
0.372690964565127
40
0.372690964565127
40
0.559036446847715
40
0.559036446847715
40
0.605622817418352
40
0.605622817418352
40
0.652209187988989
40
0.652209187988989
40
0.745381929130282
40
0.745381929130282
40
0.79196829970092
40
0.79196829970092
40
0.838554670271559
40
0.838554670271559
40
0.885141040842198
40
0.885141040842198
40
0.931727411412837
40
0.931727411412837
40
0.978313781983476
40
0.978313781983476
40
1
40
1
40
1
40
1
41
1
10
24.8573221669683
20
-0.47879494221354
30
0
41
1
10
24.8901012928174
20
-0.492744235293259
30
0
41
1
10
24.9223982791365
20
-0.506133199131369
30
0
41
1
10
24.9698427446757
20
-0.525227947349094
30
0
41
1
10
24.9854905489411
20
-0.53142911734119
30
0
41
1
10
25.0163872062191
20
-0.543478823647973
30
0
41
1
10
25.0316551775588
20
-0.549334129730454
30
0
41
1
10
25.0762959239345
20
-0.566157303154569
30
0
41
1
10
25.1046910875105
20
-0.576455553467071
30
0
41
1
10
25.1373370299718
20
-0.587773731099873
30
0
41
1
10
25.1437188765954
20
-0.589957726556037
30
0
41
1
10
25.1561306023534
20
-0.594145144273853
30
0
41
1
10
25.1621811312878
20
-0.596155300230407
30
0
41
1
10
25.1795368463085
20
-0.601821618391739
30
0
41
1
10
25.1899664303872
20
-0.605089128597285
30
0
41
1
10
25.2031714817511
20
-0.608983999802973
30
0
41
1
10
25.2071624606209
20
-0.610113087371275
30
0
41
1
10
25.2141075013651
20
-0.611959083989746
30
0
41
1
10
25.2170733311957
20
-0.612677200636824
30
0
41
1
10
25.2215027977489
20
-0.613563864087524
30
0
41
1
10
25.2229952090329
20
-0.613741152540825
30
0
41
1
10
25.2242931580928
20
-0.613489214883401
30
0
41
1
10
25.2240709517794
20
-0.61304966695792
30
0
41
1
10
25.2218074739428
20
-0.611560444652611
30
0
41
1
10
25.2197808870974
20
-0.610511992685417
30
0
41
1
10
25.2154989255227
20
-0.608535050934904
30
0
41
1
10
25.2139388346948
20
-0.607839578262059
30
0
41
1
10
25.2122184183984
20
-0.607093434774185
30
0
0
SPLINE
5
13F
100
AcDbEntity
8
1
62
256
6
ByLayer
370
13
48
1
60
0
100
AcDbSpline
70
4
71
3
72
8
73
4
40
0
40
0
40
0
40
0
40
1
40
1
40
1
40
1
41
1
10
24.4027062518783
20
-0.26534929722672
30
0
41
1
10
24.4098959362298
20
-0.269146230441208
30
0
41
1
10
24.4170926854747
20
-0.272930253824001
30
0
41
1
10
24.4242968595683
20
-0.27670078076747
30
0
0
SPLINE
5
140
100
AcDbEntity
8
1
62
256
6
ByLayer
370
18
48
1
60
0
100
AcDbSpline
70
4
71
3
72
8
73
4
40
0
40
0
40
0
40
0
40
1
40
1
40
1
40
1
41
1
10
15.7075906873517
20
3.76001830623912
30
0
41
1
10
15.6689532329465
20
3.76316304868143
30
0
41
1
10
15.6304214230565
20
3.76609913306135
30
0
41
1
10
15.5919999999987
20
3.76881639901441
30
0
0
SPLINE
5
141
100
AcDbEntity
8
1
62
256
6
ByLayer
370
18
48
1
60
0
100
AcDbSpline
70
4
71
3
72
34
73
30
40
0
40
0
40
0
40
0
40
0.124999999999997
40
0.124999999999997
40
0.156249999999996
40
0.156249999999996
40
0.187499999999995
40
0.187499999999995
40
0.249999999999993
40
0.249999999999993
40
0.37499999999999
40
0.37499999999999
40
0.437499999999988
40
0.437499999999988
40
0.468749999999988
40
0.468749999999988
40
0.499999999999988
40
0.499999999999988
40
0.624999999999989
40
0.624999999999989
40
0.68749999999999
40
0.68749999999999
40
0.718749999999991
40
0.718749999999991
40
0.749999999999991
40
0.749999999999991
40
0.874999999999996
40
0.874999999999996
40
1
40
1
40
1
40
1
41
1
10
23.531
20
1.08188705050767
30
0
41
1
10
23.2048614359137
20
1.25547246445663
30
0
41
1
10
22.8792296702174
20
1.42505146199869
30
0
41
1
10
22.4715488565395
20
1.62995101970785
30
0
41
1
10
22.389981384186
20
1.67057845783015
30
0
41
1
10
22.2267550197483
20
1.75108153041964
30
0
41
1
10
22.1450677507347
20
1.79096976642813
30
0
41
1
10
21.9001743271122
20
1.90932292268974
30
0
41
1
10
21.7370759249963
20
1.98651047510185
30
0
41
1
10
21.2481527393364
20
2.2126917422016
30
0
41
1
10
20.9227033369938
20
2.35630222222079
30
0
41
1
10
20.4341424720712
20
2.55954031968872
30
0
41
1
10
20.2712253291351
20
2.62525509798371
30
0
41
1
10
20.0266144744579
20
2.720584335833
30
0
41
1
10
19.9450380460631
20
2.7518198134797
30
0
41
1
10
19.7817867926384
20
2.81317836457447
30
0
41
1
10
19.7001201378851
20
2.84329783139677
30
0
41
1
10
19.2922170269121
20
2.99077639939628
30
0
41
1
10
18.9667059946862
20
3.09902627667535
30
0
41
1
10
18.4786276837672
20
3.2452762588683
30
0
41
1
10
18.3159682735031
20
3.29132575468384
30
0
41
1
10
18.071821490182
20
3.35619112470127
30
0
41
1
10
17.9904128469818
20
3.37711183943026
30
0
41
1
10
17.8275090713233
20
3.41752755831681
30
0
41
1
10
17.7459845635509
20
3.43702925432845
30
0
41
1
10
17.3384232835633
20
3.53083558250674
30
0
41
1
10
17.0130593885847
20
3.59392424666595
30
0
41
1
10
16.3618186258042
20
3.69557671682128
30
0
41
1
10
16.0359426584708
20
3.73415827431128
30
0
41
1
10
15.7090894202864
20
3.76007778212988
30
0
0
SPLINE
5
142
100
AcDbEntity
8
1
62
256
6
ByLayer
370
18
48
1
60
0
100
AcDbSpline
70
4
71
3
72
18
73
14
40
0
40
0
40
0
40
0
40
0.249999999999991
40
0.249999999999991
40
0.374999999999989
40
0.374999999999989
40
0.499999999999988
40
0.499999999999988
40
0.749999999999991
40
0.749999999999991
40
0.874999999999995
40
0.874999999999995
40
1
40
1
40
1
40
1
41
1
10
25.4818831309336
20
-1.49375560194659
30
0
41
1
10
25.4400080111436
20
-1.58328618776602
30
0
41
1
10
25.3994763025933
20
-1.67361924903699
30
0
41
1
10
25.3412270749115
20
-1.81064107177642
30
0
41
1
10
25.3222371016705
20
-1.85656974104469
30
0
41
1
10
25.2852247120769
20
-1.9490050424705
30
0
41
1
10
25.2672021660394
20
-1.99551373262142
30
0
41
1
10
25.2148939759112
20
-2.13574366695983
30
0
41
1
10
25.1823149348225
20
-2.2302464496687
30
0
41
1
10
25.1379593199598
20
-2.37400049457656
30
0
41
1
10
25.1239111779357
20
-2.42232740096213
30
0
41
1
10
25.0976817276171
20
-2.51932828529479
30
0
41
1
10
25.0854998269467
20
-2.5679920355806
30
0
41
1
10
25.0743784540442
20
-2.61684145079857
30
0
0
SPLINE
5
143
100
AcDbEntity
8
1
62
256
6
ByLayer
370
13
48
1
60
0
100
AcDbSpline
70
4
71
3
72
12
73
8
40
0
40
0
40
0
40
0
40
0.0969559634060138
40
0.32271697255451
40
0.548477981703007
40
0.698985321135338
40
1
40
1
40
1
40
1
41
1
10
25.4818831486503
20
-1.49375560768215
30
0
41
1
10
25.1622554324335
20
-1.39680968882146
30
0
41
1
10
24.0983777162168
20
-1.05816979007631
30
0
41
1
10
22.29025
20
-0.410295354169818
30
0
41
0.999999999999999
10
20.3055833333333
20
0.341237703805263
30
0
41
1
10
18.0728333333333
20
1.14643878076649
30
0
41
1
10
16.5843333333333
20
1.61674636388395
30
0
41
1
10
15.592
20
1.8693785931531
30
0
0
SPLINE
5
144
100
AcDbEntity
8
1
62
256
6
ByLayer
370
18
48
1
60
0
100
AcDbSpline
70
4
71
3
72
48
73
44
40
0
40
0
40
0
40
0
40
0.0194333476527962
40
0.0395154734172434
40
0.0602457314956992
40
0.0816234026002625
40
0.103647698178441
40
0.126317764061278
40
0.149632683634786
40
0.173591480616607
40
0.189506738144012
40
0.20597823267654
40
0.223008186208266
40
0.240598636464827
40
0.258751459033422
40
0.277468386087345
40
0.296751022248238
40
0.316600858031313
40
0.337019281240163
40
0.358007586614007
40
0.379566983978775
40
0.401698605111277
40
0.424403509491538
40
0.447682689090131
40
0.471537072314226
40
0.495967527216945
40
0.520974864058731
40
0.546559837296251
40
0.572723147063371
40
0.599465440199496
40
0.626787310872858
40
0.654689300839834
40
0.683171899375838
40
0.712235542908752
40
0.741880614381869
40
0.772107442370003
40
0.802916299969566
40
0.834307403480995
40
0.866280910899852
40
0.898836920231128
40
0.931975467639828
40
0.965696525449586
40
1
40
1
40
1
40
1
41
1
10
15.7209717782404
20
1.50554328057569
30
0
41
1
10
15.7192870010536
20
1.50997072477921
30
0
41
1
10
15.7158612007576
20
1.5189734224542
30
0
41
1
10
15.7104469441014
20
1.53248206749907
30
0
41
1
10
15.7047266554665
20
1.54624839620044
30
0
41
1
10
15.6986846837584
20
1.56023269438262
30
0
41
1
10
15.6923272184979
20
1.57441337198216
30
0
41
1
10
15.6856454640655
20
1.58876535844598
30
0
41
1
10
15.6786693219773
20
1.60325275293428
30
0
41
1
10
15.6721762379091
20
1.61611493501513
30
0
41
1
10
15.6665340450234
20
1.62732289061188
30
0
41
1
10
15.6619596070516
20
1.63688240975983
30
0
41
1
10
15.6575134242751
20
1.64651276182468
30
0
41
1
10
15.6532176777246
20
1.65619131494358
30
0
41
1
10
15.6490661438605
20
1.66590374506535
30
0
41
1
10
15.6450605913992
20
1.67563274399228
30
0
41
1
10
15.6412005416264
20
1.68536119415242
30
0
41
1
10
15.6374861452397
20
1.69507127483618
30
0
41
1
10
15.6339173752125
20
1.70474471142299
30
0
41
1
10
15.6304942530466
20
1.71436270431297
30
0
41
1
10
15.6272167855189
20
1.72390594795533
30
0
41
1
10
15.6240849824459
20
1.73335462507239
30
0
41
1
10
15.6210988518035
20
1.74268840826778
30
0
41
1
10
15.6182584011688
20
1.75188646006734
30
0
41
1
10
15.6155636373962
20
1.76092743393539
30
0
41
1
10
15.6130145667834
20
1.76978947560093
30
0
41
1
10
15.6106111950971
20
1.77845022492375
30
0
41
1
10
15.608353527635
20
1.78688681828174
30
0
41
1
10
15.6062415692738
20
1.79507589152681
30
0
41
1
10
15.6042753245173
20
1.80299358355489
30
0
41
1
10
15.6024547975482
20
1.81061554047292
30
0
41
1
10
15.6007799922433
20
1.81791692061117
30
0
41
1
10
15.5992509123252
20
1.82487239959937
30
0
41
1
10
15.5978675609769
20
1.83145617869644
30
0
41
1
10
15.5966299425122
20
1.83764198428088
30
0
41
1
10
15.5955380561342
20
1.84340310518326
30
0
41
1
10
15.5945919200853
20
1.84871228864481
30
0
41
1
10
15.5937914790773
20
1.85354218343332
30
0
41
1
10
15.5931369597318
20
1.85786368712601
30
0
41
1
10
15.5926275072302
20
1.86165233858824
30
0
41
1
10
15.5922664128119
20
1.86486386521861
30
0
41
1
10
15.5920410802092
20
1.86752795706983
30
0
41
1
10
15.5920137713414
20
1.86875820339176
30
0
41
1
10
15.592
20
1.8693785931531
30
0
0
SPLINE
5
145
100
AcDbEntity
8
1
62
256
6
ByLayer
370
18
48
1
60
0
100
AcDbSpline
70
4
71
3
72
40
73
36
40
0
40
0
40
0
40
0
40
0.0624999999999586
40
0.0624999999999586
40
0.124999999999917
40
0.124999999999917
40
0.249999999999845
40
0.249999999999845
40
0.312499999999809
40
0.312499999999809
40
0.374999999999773
40
0.374999999999773
40
0.406249999999755
40
0.406249999999755
40
0.414062499999748
40
0.414062499999748
40
0.417968749999744
40
0.417968749999744
40
0.419921874999743
40
0.419921874999743
40
0.421874999999741
40
0.421874999999741
40
0.437499999999748
40
0.437499999999748
40
0.468749999999761
40
0.468749999999761
40
0.499999999999775
40
0.499999999999775
40
0.562499999999801
40
0.562499999999801
40
0.624999999999828
40
0.624999999999828
40
0.749999999999881
40
0.749999999999881
40
1
40
1
40
1
40
1
41
1
10
23.5309992887555
20
-2.53206077088777
30
0
41
1
10
23.561998744101
20
-2.54476098186939
30
0
41
1
10
23.5929726959395
20
-2.55744884138028
30
0
41
1
10
23.6551962457773
20
-2.5808801430895
30
0
41
1
10
23.6864194489219
20
-2.59179221079191
30
0
41
1
10
23.7804111380601
20
-2.62235939879332
30
0
41
1
10
23.8435107923134
20
-2.63979358879843
30
0
41
1
10
23.938884048071
20
-2.6617232624416
30
0
41
1
10
23.9707957995741
20
-2.66832844419386
30
0
41
1
10
24.0348698335891
20
-2.68016187367672
30
0
41
1
10
24.0670312918389
20
-2.68539615100394
30
0
41
1
10
24.1154001965773
20
-2.69259568857862
30
0
41
1
10
24.1315141678207
20
-2.69504543563298
30
0
41
1
10
24.1518548743335
20
-2.69706369177942
30
0
41
1
10
24.1559337161214
20
-2.69741110790656
30
0
41
1
10
24.1620735836493
20
-2.69781901561149
30
0
41
1
10
24.1641285045624
20
-2.69791132189039
30
0
41
1
10
24.1671192302395
20
-2.69853593559083
30
0
41
1
10
24.1681070745943
20
-2.69879216495903
30
0
41
1
10
24.1701013934649
20
-2.69920581028501
30
0
41
1
10
24.1711116858732
20
-2.69934302929141
30
0
41
1
10
24.1802075343731
20
-2.70056130468694
30
0
41
1
10
24.1883331574575
20
-2.70143185376031
30
0
41
1
10
24.21276067578
20
-2.70378569349151
30
0
41
1
10
24.2290863483997
20
-2.70515228360796
30
0
41
1
10
24.261790574705
20
-2.7076376739476
30
0
41
1
10
24.2781746624655
20
-2.70872727718856
30
0
41
1
10
24.3274348870151
20
-2.71148605441775
30
0
41
1
10
24.360499440878
20
-2.71264687326274
30
0
41
1
10
24.4264288901085
20
-2.71352769916317
30
0
41
1
10
24.459306023358
20
-2.71325244076962
30
0
41
1
10
24.5576892356466
20
-2.71027320221941
30
0
41
1
10
24.622949692332
20
-2.70543031098089
30
0
41
1
10
24.8178541549802
20
-2.6823427789416
30
0
41
1
10
24.9466284774184
20
-2.65554784571643
30
0
41
1
10
25.074378454044
20
-2.61684145079792
30
0
0
SPLINE
5
146
100
AcDbEntity
8
1
62
256
6
ByLayer
370
18
48
1
60
0
100
AcDbSpline
70
4
71
3
72
8
73
4
40
0
40
0
40
0
40
0
40
1
40
1
40
1
40
1
41
1
10
24.3413797783725
20
-0.23872930747163
30
0
41
1
10
24.3421382563819
20
-0.23900414148261
30
0
41
1
10
24.3428962078665
20
-0.239280758507647
30
0
41
1
10
24.3436536341374
20
-0.239559153109639
30
0
0
SPLINE
5
147
100
AcDbEntity
8
1
62
256
6
ByLayer
370
18
48
1
60
0
100
AcDbSpline
70
4
71
3
72
37
73
33
40
0
40
0
40
0
40
0
40
0.124999999999997
40
0.124999999999997
40
0.187499999999998
40
0.187499999999998
40
0.25
40
0.25
40
0.374999999999997
40
0.374999999999997
40
0.437499999999995
40
0.437499999999995
40
0.468749999999994
40
0.468749999999994
40
0.499999999999994
40
0.499999999999994
40
0.624999999999996
40
0.624999999999996
40
0.687499999999999
40
0.687499999999999
40
0.718750000000003
40
0.718750000000003
40
0.750000000000006
40
0.812500000000006
40
0.812500000000006
40
0.875000000000006
40
0.875000000000006
40
0.937500000000006
40
0.937500000000006
40
0.968750000000003
40
0.968750000000003
40
1
40
1
40
1
40
1
41
1
10
24.9828237371416
20
0.582571661285954
30
0
41
1
10
25.0805518709763
20
0.5085229920318
30
0
41
1
10
25.179405656911
20
0.439845967867086
30
0
41
1
10
25.329436076044
20
0.345180243724599
30
0
41
1
10
25.3797659819842
20
0.315008610192763
30
0
41
1
10
25.4809328951727
20
0.257662895656921
30
0
41
1
10
25.531102558426
20
0.23086582029606
30
0
41
1
10
25.6803912143614
20
0.156006534638607
30
0
41
1
10
25.7782972821844
20
0.113442678912747
30
0
41
1
10
25.9226734953145
20
0.0608521695380659
30
0
41
1
10
25.9703832501368
20
0.0452061961206027
30
0
41
1
10
26.0413000040619
20
0.0246741571362463
30
0
41
1
10
26.06488485336
20
0.0183070997913433
30
0
41
1
10
26.1115602247155
20
0.0066457407562552
30
0
41
1
10
26.1346075270157
20
0.0013596935209534
30
0
41
1
10
26.2484145601744
20
-0.0223894661454551
30
0
41
1
10
26.3349219140085
20
-0.0328769780999494
30
0
41
1
10
26.457879152438
20
-0.0358473057451079
30
0
41
1
10
26.4977254098364
20
-0.0347002321740888
30
0
41
1
10
26.5557418770736
20
-0.0296919122804127
30
0
41
1
10
26.5747909473638
20
-0.0274736258998303
30
0
41
1
10
26.6122825311075
20
-0.0219211660168526
30
0
41
1
10
26.6671982082993
20
-0.0119786842180645
30
0
41
1
10
26.71823593692
20
0.002698767501272
30
0
41
1
10
26.7829526369787
20
0.0263390300068522
30
0
41
1
10
26.813653751747
20
0.0401826432549228
30
0
41
1
10
26.8717139421308
20
0.0719504950021985
30
0
41
1
10
26.8990683660443
20
0.0898804132232556
30
0
41
1
10
26.9375305912
20
0.119912537535669
30
0
41
1
10
26.9499374300133
20
0.130459823536626
30
0
41
1
10
26.9738182978431
20
0.152551212866371
30
0
41
1
10
26.9852625587854
20
0.164065299111002
30
0
41
1
10
26.996220491348
20
0.176038483554493
30
0
0
SPLINE
5
148
100
AcDbEntity
8
1
62
256
6
ByLayer
370
18
48
1
60
0
100
AcDbSpline
70
4
71
3
72
39
73
35
40
0
40
0
40
0
40
0
40
0.0624999999999273
40
0.0624999999999273
40
0.124999999999855
40
0.124999999999855
40
0.249999999999697
40
0.249999999999697
40
0.312499999999619
40
0.312499999999619
40
0.37499999999954
40
0.37499999999954
40
0.406249999999495
40
0.406249999999495
40
0.43749999999945
40
0.43749999999945
40
0.441406249999446
40
0.441406249999446
40
0.445312499999442
40
0.445312499999442
40
0.449218749999438
40
0.449218749999438
40
0.453124999999434
40
0.468749999999442
40
0.468749999999442
40
0.499999999999471
40
0.499999999999471
40
0.562499999999542
40
0.562499999999542
40
0.624999999999613
40
0.624999999999613
40
0.749999999999742
40
0.749999999999742
40
1
40
1
40
1
40
1
41
1
10
23.5310014264944
20
1.0818920695323
30
0
41
1
10
23.5599987930829
20
1.0665341699364
30
0
41
1
10
23.5889684067903
20
1.05111381545379
30
0
41
1
10
23.6471932174849
20
1.0209528607397
30
0
41
1
10
23.6764264317262
20
1.00616018232677
30
0
41
1
10
23.7644668331672
20
0.962591411724674
30
0
41
1
10
23.8236235078928
20
0.934645157384523
30
0
41
1
10
23.9131071191364
20
0.894492172098211
30
0
41
1
10
23.9430596734388
20
0.881402063578264
30
0
41
1
10
24.0032223093582
20
0.855827978691451
30
0
41
1
10
24.0334385359161
20
0.843358433992165
30
0
41
1
10
24.0789172518798
20
0.825016589515315
30
0
41
1
10
24.0941019122745
20
0.818961551341147
30
0
41
1
10
24.1245093281533
20
0.806940799371858
30
0
41
1
10
24.1397279929427
20
0.800965537540776
30
0
41
1
10
24.1571114771391
20
0.794859550006038
30
0
41
1
10
24.1590574740877
20
0.794215150770697
30
0
41
1
10
24.1628971170735
20
0.792803404262997
30
0
41
1
10
24.1647413567573
20
0.791920038344273
30
0
41
1
10
24.1684937770007
20
0.790303466743921
30
0
41
1
10
24.170412349388
20
0.789594657398226
30
0
41
1
10
24.174227198477
20
0.78812467767051
30
0
41
1
10
24.1837769297678
20
0.784479326167173
30
0
41
1
10
24.1933814917846
20
0.780962652955509
30
0
41
1
10
24.216459038499
20
0.772584900962983
30
0
41
1
10
24.2318732916803
20
0.767068113172712
30
0
41
1
10
24.2782135557343
20
0.75074578896718
30
0
41
1
10
24.3093126186388
20
0.740152403001161
30
0
41
1
10
24.3714357740085
20
0.719811865424361
30
0
41
1
10
24.4024216279011
20
0.710069826432942
30
0
41
1
10
24.4951628701049
20
0.682168368524884
30
0
41
1
10
24.5567018728292
20
0.665337348885714
30
0
41
1
10
24.7405612747751
20
0.62027851792044
30
0
41
1
10
24.862125900256
20
0.597509431358731
30
0
41
1
10
24.9828237371289
20
0.582571661295987
30
0
0
SPLINE
5
149
100
AcDbEntity
8
1
62
256
6
ByLayer
370
18
48
1
60
0
100
AcDbSpline
70
4
71
3
72
8
73
4
40
0
40
0
40
0
40
0
40
1
40
1
40
1
40
1
41
1
10
27.2882072480551
20
-0.0527561419199003
30
0
41
1
10
27.2996614644407
20
-0.110001700044819
30
0
41
1
10
27.3112030593183
20
-0.167211008390922
30
0
41
1
10
27.3228190862146
20
-0.224389438036695
30
0
0
SPLINE
5
14A
100
AcDbEntity
8
1
62
256
6
ByLayer
370
18
48
1
60
0
100
AcDbSpline
70
4
71
3
72
10
73
6
40
0
40
0
40
0
40
0
40
0.5
40
0.5
40
1
40
1
40
1
40
1
41
1
10
26.9962204913475
20
0.17603848355489
30
0
41
1
10
27.0487426804488
20
0.133669788428477
30
0
41
1
10
27.0993652093954
20
0.0934071370870981
30
0
41
1
10
27.196699552455
20
0.0171471259650673
30
0
41
1
10
27.2434643277588
20
-0.0188923760764794
30
0
41
1
10
27.288207248059
20
-0.0527561419321216
30
0
0
SPLINE
5
14B
100
AcDbEntity
8
1
62
256
6
ByLayer
370
18
48
1
60
0
100
AcDbSpline
70
4
71
1
72
4
73
2
40
0
40
0
40
1
40
1
41
1
10
23.5309999992684
20
0.526614653457926
30
0
41
1
10
23.531000000732
20
0.526602846693436
30
0
0
SPLINE
5
14C
100
AcDbEntity
8
1
62
256
6
ByLayer
370
18
48
1
60
0
100
AcDbSpline
70
4
71
3
72
11
73
7
40
0
40
0
40
0
40
0
40
0.375
40
0.625
40
0.75
40
1
40
1
40
1
40
1
41
1
10
15.592
20
3.760886280785
30
0
41
1
10
16.584375
20
3.60418238847507
30
0
41
1
10
18.2383333333334
20
3.1440531548096
30
0
41
1
10
20.2230833333333
20
2.27892517498569
30
0
41
1
10
21.8770416666667
20
1.44889890118813
30
0
41
1
10
22.8694166666666
20
0.89990597318436
30
0
41
1
10
23.531
20
0.526616535440411
30
0
0
SPLINE
5
14D
100
AcDbEntity
8
1
62
256
6
ByLayer
370
18
48
1
60
0
100
AcDbSpline
70
4
71
3
72
12
73
8
40
0
40
0
40
0
40
0
40
0.499999999999982
40
0.499999999999982
40
0.749999999999991
40
0.749999999999991
40
1
40
1
40
1
40
1
41
1
10
15.592
20
-2.30158099541256
30
0
41
1
10
15.5107829143717
20
-2.29496392965422
30
0
41
1
10
15.4296368332264
20
-2.29268930267313
30
0
41
1
10
15.3079081597625
20
-2.29594232548365
30
0
41
1
10
15.2672822179
20
-2.29814428318261
30
0
41
1
10
15.1862664846784
20
-2.30480189369354
30
0
41
1
10
15.1458915448511
20
-2.30925307274643
30
0
41
1
10
15.1056381211601
20
-2.31483626204459
30
0
0
SPLINE
5
14E
100
AcDbEntity
8
1
62
256
6
ByLayer
370
18
48
1
60
0
100
AcDbSpline
70
4
71
3
72
8
73
4
40
0
40
0
40
0
40
0
40
1
40
1
40
1
40
1
41
1
10
15.7075906876093
20
-2.35674591609421
30
0
41
1
10
15.6689532331177
20
-2.33864507096609
30
0
41
1
10
15.6304214231419
20
-2.32026116240004
30
0
41
1
10
15.5919999999987
20
-2.30158099541515
30
0
0
SPLINE
5
14F
100
AcDbEntity
8
1
62
256
6
ByLayer
370
18
48
1
60
0
100
AcDbSpline
70
4
71
3
72
44
73
40
40
0
40
0
40
0
40
0
40
0.020395658732065
40
0.0415368205742236
40
0.0634227355180087
40
0.0860526006509219
40
0.109425561118242
40
0.133540710859158
40
0.15839709316065
40
0.183993701064031
40
0.201998907000675
40
0.220716342813827
40
0.240148106451826
40
0.260296106185713
40
0.281162084657963
40
0.30274763848783
40
0.325054234227902
40
0.348083221302628
40
0.371835842432571
40
0.396313241949404
40
0.421516472329018
40
0.447446499209017
40
0.474104205108324
40
0.501490392027881
40
0.529605783080426
40
0.558451023272252
40
0.588026679539654
40
0.61833324012628
40
0.649371113374172
40
0.681140625990304
40
0.713642020841395
40
0.746875454322306
40
0.780840993337285
40
0.815538611928183
40
0.850968187579646
40
0.887129497227814
40
0.92402221299623
40
0.961645897680336
40
1
40
1
40
1
40
1
41
1
10
15.7093419961448
20
-2.35433483133252
30
0
41
1
10
15.7076830473583
20
-2.34114536325964
30
0
41
1
10
15.7043045118085
20
-2.31428432503529
30
0
41
1
10
15.6990251735752
20
-2.27330508768085
30
0
41
1
10
15.6934774940314
20
-2.23091142185947
30
0
41
1
10
15.6876513429327
20
-2.18711227235951
30
0
41
1
10
15.6815513473252
20
-2.14191387129893
30
0
41
1
10
15.6751692298528
20
-2.09532507538452
30
0
41
1
10
15.6685345325566
20
-2.04735165659614
30
0
41
1
10
15.6622923320108
20
-2.0033670756078
30
0
41
1
10
15.6567960904594
20
-1.9633448833593
30
0
41
1
10
15.6522618803083
20
-1.92727592371881
30
0
41
1
10
15.6478745364307
20
-1.88984318981565
30
0
41
1
10
15.6436576640149
20
-1.85105110912366
30
0
41
1
10
15.6396046189389
20
-1.81090760639984
30
0
41
1
10
15.6357173157662
20
-1.76942038458085
30
0
41
1
10
15.6319952468336
20
-1.72659802168758
30
0
41
1
10
15.6284385843238
20
-1.68244970697836
30
0
41
1
10
15.6250473058793
20
-1.63698536268146
30
0
41
1
10
15.621821441109
20
-1.59021565829153
30
0
41
1
10
15.6187610025902
20
-1.54215205625607
30
0
41
1
10
15.6158660055083
20
-1.49280684989174
30
0
41
1
10
15.6131364623965
20
-1.44219320443219
30
0
41
1
10
15.6105723848288
20
-1.39032519804522
30
0
41
1
10
15.6081737831473
20
-1.33721786360098
30
0
41
1
10
15.6059406667166
20
-1.28288723085373
30
0
41
1
10
15.6038730440251
20
-1.22735036904447
30
0
41
1
10
15.6019709227767
20
-1.17062542968338
30
0
41
1
10
15.6002343101138
20
-1.11273168989979
30
0
41
1
10
15.5986632122508
20
-1.05368959436961
30
0
41
1
10
15.5972576363528
20
-0.993520802973137
30
0
41
1
10
15.5960175837042
20
-0.932248215989404
30
0
41
1
10
15.5949430764645
20
-0.869896085043536
30
0
41
1
10
15.5940340548727
20
-0.806489791813817
30
0
41
1
10
15.5932907736541
20
-0.742056904788626
30
0
41
1
10
15.5927122760398
20
-0.676623311494041
30
0
41
1
10
15.5923022658115
20
-0.610228298445577
30
0
41
1
10
15.5920465269382
20
-0.542866754776213
30
0
41
1
10
15.5920156080597
20
-0.497862292690371
30
0
41
1
10
15.592
20
-0.475143734915093
30
0
0
SPLINE
5
150
100
AcDbEntity
8
1
62
256
6
ByLayer
370
18
48
1
60
0
100
AcDbSpline
70
4
71
3
72
30
73
26
40
0
40
0
40
0
40
0
40
0.124999999999999
40
0.124999999999999
40
0.249999999999997
40
0.249999999999997
40
0.374999999999995
40
0.374999999999995
40
0.406249999999996
40
0.406249999999996
40
0.437499999999996
40
0.437499999999996
40
0.499999999999997
40
0.499999999999997
40
0.625000000000002
40
0.625000000000002
40
0.687500000000005
40
0.687500000000005
40
0.718750000000006
40
0.718750000000006
40
0.750000000000006
40
0.750000000000006
40
0.875000000000003
40
0.875000000000003
40
1
40
1
40
1
40
1
41
1
10
15.1057085359394
20
-3.96076516309657
30
0
41
1
10
14.9343295055996
20
-3.96756962129317
30
0
41
1
10
14.765346467309
20
-3.97037656488124
30
0
41
1
10
14.4329267976196
20
-3.96635196663891
30
0
41
1
10
14.2694899757135
20
-3.95952945059463
30
0
41
1
10
13.9490369175198
20
-3.93389650612346
30
0
41
1
10
13.7920206129273
20
-3.91510117821608
30
0
41
1
10
13.6003870379827
20
-3.8819798593477
30
0
41
1
10
13.5622924681368
20
-3.87487091006676
30
0
41
1
10
13.4865844446597
20
-3.85961507243241
30
0
41
1
10
13.4489420460438
20
-3.85145991722345
30
0
41
1
10
13.3373624520734
20
-3.82547279655219
30
0
41
1
10
13.2645900528419
20
-3.8060877559119
30
0
41
1
10
13.0512894946422
20
-3.74112792261431
30
0
41
1
10
12.915781923543
20
-3.68878581994858
30
0
41
1
10
12.7231883074564
20
-3.5936481834739
30
0
41
1
10
12.6607673403336
20
-3.55915640240005
30
0
41
1
10
12.569872562536
20
-3.50276907123168
30
0
41
1
10
12.5400303774202
20
-3.48319756629155
30
0
41
1
10
12.4812698129429
20
-3.4424121679034
30
0
41
1
10
12.4525001752634
20
-3.42129998006328
30
0
41
1
10
12.3118986386194
20
-3.31222627055894
30
0
41
1
10
12.2095491594388
20
-3.21358012396291
30
0
41
1
10
12.023875159503
20
-2.990984227594
30
0
41
1
10
11.940534330149
20
-2.86706371713393
30
0
41
1
10
11.8662611852376
20
-2.72867387651166
30
0
0
SPLINE
5
151
100
AcDbEntity
8
1
62
256
6
ByLayer
370
18
48
1
60
0
100
AcDbSpline
70
4
71
3
72
24
73
20
40
0
40
0
40
0
40
0
40
0.12500000000001
40
0.12500000000001
40
0.25000000000002
40
0.25000000000002
40
0.375000000000029
40
0.375000000000029
40
0.437500000000026
40
0.437500000000026
40
0.500000000000024
40
0.500000000000024
40
0.625000000000018
40
0.625000000000018
40
0.750000000000012
40
0.750000000000012
40
0.875000000000006
40
0.875000000000006
40
1
40
1
40
1
40
1
41
1
10
11.8662611852376
20
-2.72867387651169
30
0
41
1
10
11.8634084466885
20
-2.72335849591732
30
0
41
1
10
11.8609772042524
20
-2.71795061798571
30
0
41
1
10
11.8571535279976
20
-2.70691042555464
30
0
41
1
10
11.8557551907711
20
-2.70124603339013
30
0
41
1
10
11.8543177149436
20
-2.6897770315492
30
0
41
1
10
11.8542852208278
20
-2.68406100267714
30
0
41
1
10
11.855420680623
20
-2.67552326517782
30
0
41
1
10
11.8559971003108
20
-2.67268343330377
30
0
41
1
10
11.8575804278072
20
-2.66701782533164
30
0
41
1
10
11.8585974229684
20
-2.66417360926226
30
0
41
1
10
11.8622494921656
20
-2.65588458467209
30
0
41
1
10
11.8654849251643
20
-2.65063607513773
30
0
41
1
10
11.8734707581482
20
-2.64067069996239
30
0
41
1
10
11.8782766220301
20
-2.6359252798747
30
0
41
1
10
11.8888224068383
20
-2.62732944405869
30
0
41
1
10
11.8945956153428
20
-2.62341968297235
30
0
41
1
10
11.9069635767293
20
-2.61624197260531
30
0
41
1
10
11.9135652916924
20
-2.61297700368158
30
0
41
1
10
11.9203937489016
20
-2.61003419855896
30
0
0
SPLINE
5
152
100
AcDbEntity
8
1
62
256
6
ByLayer
370
18
48
1
60
0
100
AcDbSpline
70
4
71
3
72
34
73
30
40
0
40
0
40
0
40
0
40
0.0312500000000058
40
0.0312500000000058
40
0.0625000000000117
40
0.0625000000000117
40
0.125000000000017
40
0.125000000000017
40
0.156250000000016
40
0.156250000000016
40
0.187500000000016
40
0.187500000000016
40
0.250000000000015
40
0.250000000000015
40
0.312500000000013
40
0.312500000000013
40
0.375000000000012
40
0.375000000000012
40
0.437500000000011
40
0.437500000000011
40
0.50000000000001
40
0.50000000000001
40
0.625000000000008
40
0.625000000000008
40
0.750000000000005
40
0.750000000000005
40
0.875000000000003
40
0.875000000000003
40
1
40
1
40
1
40
1
41
1
10
11.9203937489017
20
-2.61003419855893
30
0
41
1
10
11.9492766741746
20
-2.59758675723444
30
0
41
1
10
11.9787925789276
20
-2.58658040226743
30
0
41
1
10
12.0387620286526
20
-2.56673996664449
30
0
41
1
10
12.0692187175892
20
-2.55791258413399
30
0
41
1
10
12.1617109241812
20
-2.53406919454596
30
0
41
1
10
12.2248535144214
20
-2.52165950258618
30
0
41
1
10
12.3211506227565
20
-2.50686616134496
30
0
41
1
10
12.3535608066761
20
-2.50257831949017
30
0
41
1
10
12.4186651927571
20
-2.49517853525566
30
0
41
1
10
12.451266754585
20
-2.49207532821299
30
0
41
1
10
12.5492008506645
20
-2.48434000914349
30
0
41
1
10
12.6146618502283
20
-2.48127176024658
30
0
41
1
10
12.7458619047318
20
-2.47854375251185
30
0
41
1
10
12.8116847503941
20
-2.47889427351984
30
0
41
1
10
12.9429915899171
20
-2.4825043248415
30
0
41
1
10
13.008511835798
20
-2.48576132111143
30
0
41
1
10
13.139319697735
20
-2.49479160629787
30
0
41
1
10
13.204650938492
20
-2.5005716105581
30
0
41
1
10
13.3348839733575
20
-2.51434291357401
30
0
41
1
10
13.3997500182879
20
-2.52232931651119
30
0
41
1
10
13.5936652381016
20
-2.54922409337129
30
0
41
1
10
13.7221127316914
20
-2.57107744675199
30
0
41
1
10
13.976481660051
20
-2.62089357663609
30
0
41
1
10
14.10260074312
20
-2.6488996134369
30
0
41
1
10
14.3521601029887
20
-2.70963976298532
30
0
41
1
10
14.4757395428846
20
-2.7424096550379
30
0
41
1
10
14.7201279417394
20
-2.81140676539368
30
0
41
1
10
14.8409556393739
20
-2.84763677525703
30
0
41
1
10
14.9605873867145
20
-2.88505342005814
30
0
0
SPLINE
5
153
100
AcDbEntity
8
1
62
256
6
ByLayer
370
18
48
1
60
0
100
AcDbSpline
70
4
71
3
72
21
73
17
40
0
40
0
40
0
40
0
40
0.249999999999978
40
0.249999999999978
40
0.374999999999972
40
0.374999999999972
40
0.499999999999967
40
0.499999999999967
40
0.562499999999964
40
0.562499999999964
40
0.624999999999961
40
0.624999999999961
40
0.749999999999974
40
0.874999999999987
40
0.874999999999987
40
1
40
1
40
1
40
1
41
1
10
15.2545282475585
20
-2.7237990455219
30
0
41
1
10
15.2618611869246
20
-2.76225098367669
30
0
41
1
10
15.273959570327
20
-2.79949351851539
30
0
41
1
10
15.3005354227467
20
-2.8523218047568
30
0
41
1
10
15.3107770804902
20
-2.86938705541988
30
0
41
1
10
15.3340962833003
20
-2.9022194323222
30
0
41
1
10
15.3472404352713
20
-2.91806270991333
30
0
41
1
10
15.3689810036661
20
-2.94061830538598
30
0
41
1
10
15.3765683317095
20
-2.94794360472741
30
0
41
1
10
15.3924296897888
20
-2.96221374060292
30
0
41
1
10
15.4007239244018
20
-2.96917405698372
30
0
41
1
10
15.4264960584799
20
-2.98937548306435
30
0
41
1
10
15.4630768633048
20
-3.01440312263708
30
0
41
1
10
15.5038128076354
20
-3.03598611306222
30
0
41
1
10
15.5465116913995
20
-3.05599740072918
30
0
41
1
10
15.5689136087647
20
-3.0652395651027
30
0
41
1
10
15.592
20
-3.07367240884065
30
0
0
SPLINE
5
154
100
AcDbEntity
8
1
62
256
6
ByLayer
370
18
48
1
60
0
100
AcDbSpline
70
4
71
3
72
16
73
12
40
0
40
0
40
0
40
0
40
0.249999999999997
40
0.249999999999997
40
0.499999999999993
40
0.499999999999993
40
0.624999999999991
40
0.624999999999991
40
0.74999999999999
40
0.74999999999999
40
1
40
1
40
1
40
1
41
1
10
15.1056381211601
20
-2.31483626204459
30
0
41
1
10
15.1091008447035
20
-2.35231377410182
30
0
41
1
10
15.1145442141597
20
-2.38921675498276
30
0
41
1
10
15.1298042473273
20
-2.46147371317161
30
0
41
1
10
15.139616915794
20
-2.49681524703851
30
0
41
1
10
15.1579289215954
20
-2.54842003390482
30
0
41
1
10
15.1646203118799
20
-2.56535522475465
30
0
41
1
10
15.1792318544203
20
-2.59868620178528
30
0
41
1
10
15.1871630803582
20
-2.61510194254822
30
0
41
1
10
15.212801701548
20
-2.66336254987124
30
0
41
1
10
15.232344888394
20
-2.69422922975846
30
0
41
1
10
15.2545282475587
20
-2.72379904552096
30
0
0
SPLINE
5
155
100
AcDbEntity
8
1
62
256
6
ByLayer
370
18
48
1
60
0
100
AcDbSpline
70
4
71
3
72
30
73
26
40
0
40
0
40
0
40
0
40
0.124999999999998
40
0.124999999999998
40
0.249999999999996
40
0.249999999999996
40
0.374999999999993
40
0.374999999999993
40
0.437499999999991
40
0.437499999999991
40
0.46874999999999
40
0.46874999999999
40
0.499999999999988
40
0.499999999999988
40
0.624999999999989
40
0.624999999999989
40
0.687499999999991
40
0.687499999999991
40
0.718749999999992
40
0.718749999999992
40
0.749999999999993
40
0.749999999999993
40
0.874999999999996
40
0.874999999999996
40
1
40
1
40
1
40
1
41
1
10
15.1056381211601
20
-2.31483626204459
30
0
41
1
10
14.934863789704
20
-2.22863803592153
30
0
41
1
10
14.7669294265086
20
-2.13734603621938
30
0
41
1
10
14.4377282235816
20
-1.94261150261326
30
0
41
1
10
14.2764609011766
20
-1.83917454594027
30
0
41
1
10
13.961759199769
20
-1.61760792440484
30
0
41
1
10
13.8083243475781
20
-1.49948730224745
30
0
41
1
10
13.5850652971989
20
-1.30878204283101
30
0
41
1
10
13.5117960188643
20
-1.24295256527955
30
0
41
1
10
13.4037598044962
20
-1.14042455222815
30
0
41
1
10
13.3680591235927
20
-1.10561729940468
30
0
41
1
10
13.2973055839233
20
-1.03466661644549
30
0
41
1
10
13.2621921718512
20
-0.998456131387627
30
0
41
1
10
13.0896041177801
20
-0.815264879481703
30
0
41
1
10
12.9603463882759
20
-0.661188933172468
30
0
41
1
10
12.780182947038
20
-0.417996816280919
30
0
41
1
10
12.7224132694599
20
-0.334920323251652
30
0
41
1
10
12.6392333996174
20
-0.207185899068435
30
0
41
1
10
12.6120858090719
20
-0.164087759248332
30
0
41
1
10
12.5589561770143
20
-0.0768335030054459
30
0
41
1
10
12.532952884821
20
-0.032639938343209
30
0
41
1
10
12.4060933833212
20
0.190626224040869
30
0
41
1
10
12.3168532729512
20
0.372729498468772
30
0
41
1
10
12.1603801611293
20
0.742387938326772
30
0
41
1
10
12.0931269341416
20
0.929939484417332
30
0
41
1
10
12.0360721671782
20
1.11954750793569
30
0
0
SPLINE
5
156
100
AcDbEntity
8
1
62
256
6
ByLayer
370
18
48
1
60
0
100
AcDbSpline
70
4
71
3
72
20
73
16
40
0
40
0
40
0
40
0
40
0.25
40
0.25
40
0.375
40
0.375
40
0.5
40
0.5
40
0.625
40
0.625
40
0.75
40
0.75
40
0.875
40
0.875
40
1
40
1
40
1
40
1
41
1
10
12.0360721671782
20
1.11954750793566
30
0
41
1
10
12.0324095184181
20
1.13171945480715
30
0
41
1
10
12.0301636434959
20
1.14407786176574
30
0
41
1
10
12.0298119994946
20
1.16302006348244
30
0
41
1
10
12.0302140068039
20
1.16930802423519
30
0
41
1
10
12.0321289699969
20
1.1816140715477
30
0
41
1
10
12.0336406725624
20
1.18766439223197
30
0
41
1
10
12.0378661279929
20
1.19954399321037
30
0
41
1
10
12.0405833321697
20
1.20533545144545
30
0
41
1
10
12.0469671455947
20
1.216202990483
30
0
41
1
10
12.0506546277362
20
1.2213452890619
30
0
41
1
10
12.058945446688
20
1.23109281313882
30
0
41
1
10
12.0635178244311
20
1.23565294612254
30
0
41
1
10
12.0732117243208
20
1.24406724930395
30
0
41
1
10
12.0783599563595
20
1.24795265681087
30
0
41
1
10
12.0837658528489
20
1.25156345345229
30
0
0
SPLINE
5
157
100
AcDbEntity
8
1
62
256
6
ByLayer
370
18
48
1
60
0
100
AcDbSpline
70
4
71
3
72
34
73
30
40
0
40
0
40
0
40
0
40
0.0312500000000036
40
0.0312500000000036
40
0.0625000000000072
40
0.0625000000000072
40
0.125000000000014
40
0.125000000000014
40
0.156250000000018
40
0.156250000000018
40
0.187500000000022
40
0.187500000000022
40
0.250000000000022
40
0.250000000000022
40
0.312500000000022
40
0.312500000000022
40
0.375000000000023
40
0.375000000000023
40
0.437500000000023
40
0.437500000000023
40
0.500000000000024
40
0.500000000000024
40
0.625000000000018
40
0.625000000000018
40
0.750000000000012
40
0.750000000000012
40
0.875000000000006
40
0.875000000000006
40
1
40
1
40
1
40
1
41
1
10
12.0837658528489
20
1.25156345345229
30
0
41
1
10
12.1097901148109
20
1.26894601300981
30
0
41
1
10
12.1366772326518
20
1.28437929065461
30
0
41
1
10
12.1917359439865
20
1.31236463886012
30
0
41
1
10
12.219911643026
20
1.32490720186593
30
0
41
1
10
12.3059800124858
20
1.35909985262128
30
0
41
1
10
12.3653933879866
20
1.37736235570418
30
0
41
1
10
12.4566962922702
20
1.3999501107626
30
0
41
1
10
12.4873988603282
20
1.40663483817789
30
0
41
1
10
12.5489496631604
20
1.41849821706583
30
0
41
1
10
12.5798506037958
20
1.42368900270856
30
0
41
1
10
12.6728823273322
20
1.43732805489395
30
0
41
1
10
12.7353790743193
20
1.44386077239562
30
0
41
1
10
12.8609141537078
20
1.45278467527564
30
0
41
1
10
12.9236532108919
20
1.45515140653933
30
0
41
1
10
13.0490839453131
20
1.45640749426983
30
0
41
1
10
13.1117755534957
20
1.45529155883389
30
0
41
1
10
13.2371173593945
20
1.45001696760835
30
0
41
1
10
13.2997806072828
20
1.44585454569861
30
0
41
1
10
13.425016077567
20
1.43477783991514
30
0
41
1
10
13.4874024510801
20
1.42787976083031
30
0
41
1
10
13.6739332942851
20
1.40346779294143
30
0
41
1
10
13.7974620811388
20
1.38225427306327
30
0
41
1
10
14.0430395934751
20
1.33112152281058
30
0
41
1
10
14.1646041812836
20
1.30129243296497
30
0
41
1
10
14.405573646738
20
1.2339035383701
30
0
41
1
10
14.5250531730206
20
1.19630384399028
30
0
41
1
10
14.7612205772542
20
1.11420074090941
30
0
41
1
10
14.8780053876359
20
1.06967152309599
30
0
41
1
10
14.9936275922321
20
1.02191447937057
30
0
0
SPLINE
5
158
100
AcDbEntity
8
1
62
256
6
ByLayer
370
18
48
1
60
0
100
AcDbSpline
70
4
71
3
72
21
73
17
40
0
40
0
40
0
40
0
40
0.250000000000034
40
0.250000000000034
40
0.375000000000051
40
0.375000000000051
40
0.500000000000067
40
0.500000000000067
40
0.562500000000067
40
0.562500000000067
40
0.625000000000066
40
0.625000000000066
40
0.750000000000044
40
0.875000000000022
40
0.875000000000022
40
1
40
1
40
1
40
1
41
1
10
15.2545282475582
20
1.27018752162448
30
0
41
1
10
15.2618611869243
20
1.22010191406605
30
0
41
1
10
15.273959570327
20
1.17029002840971
30
0
41
1
10
15.3005354227467
20
1.09789205592207
30
0
41
1
10
15.3107770804903
20
1.07420212233731
30
0
41
1
10
15.3340962833004
20
1.02808723560332
30
0
41
1
10
15.3472404352714
20
1.00555394907479
30
0
41
1
10
15.3689810036661
20
0.973119012537722
30
0
41
1
10
15.3765683317096
20
0.962523567915213
30
0
41
1
10
15.3924296897888
20
0.941771794971061
30
0
41
1
10
15.4007239244018
20
0.931592669316757
30
0
41
1
10
15.4264960584799
20
0.901896714641168
30
0
41
1
10
15.4630768633048
20
0.864691226668526
30
0
41
1
10
15.5038128076355
20
0.831998291820184
30
0
41
1
10
15.5465116913995
20
0.801452979762161
30
0
41
1
10
15.5689136087648
20
0.787218994599414
30
0
41
1
10
15.592
20
0.774146060309079
30
0
0
SPLINE
5
159
100
AcDbEntity
8
1
62
256
6
ByLayer
370
18
48
1
60
0
100
AcDbSpline
70
4
71
3
72
16
73
12
40
0
40
0
40
0
40
0
40
0.25
40
0.25
40
0.500000000000001
40
0.500000000000001
40
0.625
40
0.625
40
0.75
40
0.75
40
1
40
1
40
1
40
1
41
1
10
15.1057085359394
20
1.75907907479612
30
0
41
1
10
15.1091921123946
20
1.71779233971139
30
0
41
1
10
15.1146509745766
20
1.67626476962639
30
0
41
1
10
15.1299296652531
20
1.5932307940981
30
0
41
1
10
15.1397450013699
20
1.55174159615044
30
0
41
1
10
15.1580504744426
20
1.48989506158259
30
0
41
1
10
15.1647374658182
20
1.46938438969127
30
0
41
1
10
15.1793367832411
20
1.42859893949577
30
0
41
1
10
15.1872599497708
20
1.40829985571904
30
0
41
1
10
15.2128677048201
20
1.34801742417056
30
0
41
1
10
15.232382335516
20
1.30863869432929
30
0
41
1
10
15.2545282475599
20
1.27018752162317
30
0
0
SPLINE
5
15A
100
AcDbEntity
8
1
62
256
6
ByLayer
370
18
48
1
60
0
100
AcDbSpline
70
4
71
3
72
30
73
26
40
0
40
0
40
0
40
0
40
0.125000000000001
40
0.125000000000001
40
0.250000000000003
40
0.250000000000003
40
0.375000000000004
40
0.375000000000004
40
0.406250000000005
40
0.406250000000005
40
0.437500000000006
40
0.437500000000006
40
0.500000000000008
40
0.500000000000008
40
0.62500000000001
40
0.62500000000001
40
0.687500000000011
40
0.687500000000011
40
0.718750000000011
40
0.718750000000011
40
0.750000000000011
40
0.750000000000011
40
0.875000000000006
40
0.875000000000006
40
1
40
1
40
1
40
1
41
1
10
15.1057085359394
20
1.75907907479612
30
0
41
1
10
14.9343295055996
20
1.85381806593111
30
0
41
1
10
14.765346467309
20
1.94935179515426
30
0
41
1
10
14.4329267976196
20
2.14204971177799
30
0
41
1
10
14.2694899757135
20
2.23921857184982
30
0
41
1
10
13.9490369175198
20
2.43499217238747
30
0
41
1
10
13.7920206129274
20
2.53360504071972
30
0
41
1
10
13.6003870379828
20
2.65738068231002
30
0
41
1
10
13.5622924681369
20
2.68215985646134
30
0
41
1
10
13.4865844446597
20
2.73174985386311
30
0
41
1
10
13.4489420460438
20
2.7565803515626
30
0
41
1
10
13.3373624520734
20
2.83068854622923
30
0
41
1
10
13.264590052842
20
2.87970337412796
30
0
41
1
10
13.0512894946423
20
3.0251964798756
30
0
41
1
10
12.915781923543
20
3.1201581233116
30
0
41
1
10
12.7231883074565
20
3.25748943233489
30
0
41
1
10
12.6607673403337
20
3.3024066611674
30
0
41
1
10
12.5698725625361
20
3.36814758194592
30
0
41
1
10
12.5400303774203
20
3.38978804354761
30
0
41
1
10
12.481269812943
20
3.43245581796819
30
0
41
1
10
12.4525001752635
20
3.45337497871421
30
0
41
1
10
12.3118986386195
20
3.5555934382327
30
0
41
1
10
12.2095491594389
20
3.62997496605775
30
0
41
1
10
12.0238751595032
20
3.7602459809186
30
0
41
1
10
11.9405343301491
20
3.81616019282913
30
0
41
1
10
11.8662611852378
20
3.8604288649949
30
0
0
SPLINE
5
15B
100
AcDbEntity
8
1
62
256
6
ByLayer
370
18
48
1
60
0
100
AcDbSpline
70
4
71
3
72
24
73
20
40
0
40
0
40
0
40
0
40
0.125000000000009
40
0.125000000000009
40
0.250000000000017
40
0.250000000000017
40
0.375000000000026
40
0.375000000000026
40
0.437500000000024
40
0.437500000000024
40
0.500000000000022
40
0.500000000000022
40
0.625000000000016
40
0.625000000000016
40
0.750000000000011
40
0.750000000000011
40
0.875000000000005
40
0.875000000000005
40
1
40
1
40
1
40
1
41
1
10
11.8662611852377
20
3.8604288649949
30
0
41
1
10
11.8634084466887
20
3.86212916929406
30
0
41
1
10
11.8609772042525
20
3.86383497756484
30
0
41
1
10
11.8571535279977
20
3.86726518801669
30
0
41
1
10
11.8557551907712
20
3.86899926494453
30
0
41
1
10
11.8543177149437
20
3.87245476967166
30
0
41
1
10
11.8542852208279
20
3.8741497253869
30
0
41
1
10
11.8554206806231
20
3.87664196586781
30
0
41
1
10
11.8559971003109
20
3.87746434094836
30
0
41
1
10
11.8575804278073
20
3.87909208400913
30
0
41
1
10
11.8585974229685
20
3.87990261198445
30
0
41
1
10
11.8622494921657
20
3.88224653583222
30
0
41
1
10
11.8654849251644
20
3.883706310984
30
0
41
1
10
11.8734707581484
20
3.88644094999737
30
0
41
1
10
11.8782766220302
20
3.88772311753792
30
0
41
1
10
11.8888224068384
20
3.89001882566814
30
0
41
1
10
11.8945956153429
20
3.89104885440057
30
0
41
1
10
11.9069635767295
20
3.89292200840882
30
0
41
1
10
11.9135652916925
20
3.89376420760152
30
0
41
1
10
11.9203937489017
20
3.89451741049106
30
0
0
SPLINE
5
15C
100
AcDbEntity
8
1
62
256
6
ByLayer
370
18
48
1
60
0
100
AcDbSpline
70
4
71
3
72
34
73
30
40
0
40
0
40
0
40
0
40
0.0312499999999999
40
0.0312499999999999
40
0.0624999999999998
40
0.0624999999999998
40
0.125000000000006
40
0.125000000000006
40
0.156250000000006
40
0.156250000000006
40
0.187500000000005
40
0.187500000000005
40
0.250000000000005
40
0.250000000000005
40
0.312500000000005
40
0.312500000000005
40
0.375000000000004
40
0.375000000000004
40
0.437500000000004
40
0.437500000000004
40
0.500000000000003
40
0.500000000000003
40
0.625000000000002
40
0.625000000000002
40
0.750000000000002
40
0.750000000000002
40
0.875000000000001
40
0.875000000000001
40
1
40
1
40
1
40
1
41
1
10
11.9203937489018
20
3.89451741049098
30
0
41
1
10
11.9492766741748
20
3.89770329891456
30
0
41
1
10
11.9787925789278
20
3.90040540618824
30
0
41
1
10
12.0387620286527
20
3.90515044384796
30
0
41
1
10
12.0692187175893
20
3.90719026854075
30
0
41
1
10
12.1617109241813
20
3.91258056030537
30
0
41
1
10
12.2248535144215
20
3.91521620515027
30
0
41
1
10
12.3211506227566
20
3.91829099569341
30
0
41
1
10
12.3535608066763
20
3.91916548285582
30
0
41
1
10
12.4186651927573
20
3.92065881726569
30
0
41
1
10
12.4512667545851
20
3.92127585709625
30
0
41
1
10
12.5492008506646
20
3.92280326382422
30
0
41
1
10
12.6146618502285
20
3.92339395305098
30
0
41
1
10
12.7458619047319
20
3.92392058496438
30
0
41
1
10
12.8116847503942
20
3.92385342971889
30
0
41
1
10
12.9429915899173
20
3.92315521212299
30
0
41
1
10
13.0085118357981
20
3.92252409914474
30
0
41
1
10
13.1393196977351
20
3.92073773750428
30
0
41
1
10
13.2046509384921
20
3.91958087025964
30
0
41
1
10
13.3348839733576
20
3.91674655692924
30
0
41
1
10
13.3997500182879
20
3.91506998230258
30
0
41
1
10
13.5936652381017
20
3.90923148033201
30
0
41
1
10
13.7221127316914
20
3.90426064767766
30
0
41
1
10
13.9764816600511
20
3.89186531108348
30
0
41
1
10
14.10260074312
20
3.88442827684881
30
0
41
1
10
14.3521601029887
20
3.86666798701521
30
0
41
1
10
14.4757395428846
20
3.85633284258583
30
0
41
1
10
14.7201279417394
20
3.83231898635722
30
0
41
1
10
14.8409556393739
20
3.81864003430644
30
0
41
1
10
14.9605873867145
20
3.80305013134012
30
0
0
SPLINE
5
15D
100
AcDbEntity
8
1
62
256
6
ByLayer
370
18
48
1
60
0
100
AcDbSpline
70
4
71
3
72
21
73
17
40
0
40
0
40
0
40
0
40
0.249999999999992
40
0.249999999999992
40
0.374999999999982
40
0.374999999999982
40
0.499999999999972
40
0.499999999999972
40
0.562499999999976
40
0.562499999999976
40
0.62499999999998
40
0.62499999999998
40
0.749999999999986
40
0.874999999999993
40
0.874999999999993
40
1
40
1
40
1
40
1
41
1
10
15.2545282475614
20
3.86198148535874
30
0
41
1
10
15.2618611869277
20
3.84978787879484
30
0
41
1
10
15.2739595703272
20
3.83670114780966
30
0
41
1
10
15.300535422747
20
3.81643091214525
30
0
41
1
10
15.3107770804905
20
3.80958573694801
30
0
41
1
10
15.3340962833006
20
3.79588930832892
30
0
41
1
10
15.3472404352716
20
3.78900493918226
30
0
41
1
10
15.3689810036664
20
3.77885569670684
30
0
41
1
10
15.3765683317098
20
3.7754990784079
30
0
41
1
10
15.3924296897891
20
3.76885111761209
30
0
41
1
10
15.400723924402
20
3.7655522826947
30
0
41
1
10
15.4264960584801
20
3.75582840974818
30
0
41
1
10
15.463076863305
20
3.74337437992526
30
0
41
1
10
15.5038128076356
20
3.73203792208287
30
0
41
1
10
15.5465116913995
20
3.72129834718865
30
0
41
1
10
15.5689136087648
20
3.7162140218187
30
0
41
1
10
15.592
20
3.7114911637986
30
0
0
SPLINE
5
15E
100
AcDbEntity
8
1
62
256
6
ByLayer
370
18
48
1
60
0
100
AcDbSpline
70
4
71
3
72
16
73
12
40
0
40
0
40
0
40
0
40
0.250000000000004
40
0.250000000000004
40
0.500000000000008
40
0.500000000000008
40
0.625000000000009
40
0.625000000000009
40
0.750000000000011
40
0.750000000000011
40
1
40
1
40
1
40
1
41
1
10
15.1056381211601
20
3.94952675354082
30
0
41
1
10
15.1091008447036
20
3.94496207236921
30
0
41
1
10
15.1145442141597
20
3.93960665926014
30
0
41
1
10
15.1298042473275
20
3.9274280630747
30
0
41
1
10
15.1396169157944
20
3.92060750423107
30
0
41
1
10
15.1579289215959
20
3.90940665232094
30
0
41
1
10
15.1646203118805
20
3.90551888136173
30
0
41
1
10
15.1792318544211
20
3.8974586511824
30
0
41
1
10
15.1871630803591
20
3.89328073150241
30
0
41
1
10
15.2128017015492
20
3.88040267545091
30
0
41
1
10
15.2323448883941
20
3.87135845611536
30
0
41
1
10
15.2545282475589
20
3.86198148535965
30
0
0
SPLINE
5
15F
100
AcDbEntity
8
1
62
256
6
ByLayer
370
18
48
1
60
0
100
AcDbSpline
70
4
71
3
72
8
73
4
40
0
40
0
40
0
40
0
40
1
40
1
40
1
40
1
41
1
10
15.7191581942285
20
1.50212758896154
30
0
41
1
10
15.676660443001
20
1.52501104804492
30
0
41
1
10
15.6342727149744
20
1.54795225351611
30
0
41
1
10
15.5920000000001
20
1.5709535016428
30
0
0
SPLINE
5
160
100
AcDbEntity
8
1
62
256
6
ByLayer
370
18
48
1
60
0
100
AcDbSpline
70
4
71
3
72
34
73
30
40
0
40
0
40
0
40
0
40
0.124999999999994
40
0.124999999999994
40
0.156249999999993
40
0.156249999999993
40
0.187499999999992
40
0.187499999999992
40
0.249999999999987
40
0.249999999999987
40
0.374999999999979
40
0.374999999999979
40
0.437499999999976
40
0.437499999999976
40
0.468749999999976
40
0.468749999999976
40
0.499999999999976
40
0.499999999999976
40
0.62499999999998
40
0.62499999999998
40
0.687499999999983
40
0.687499999999983
40
0.718749999999985
40
0.718749999999985
40
0.749999999999987
40
0.749999999999987
40
0.874999999999993
40
0.874999999999993
40
1
40
1
40
1
40
1
41
1
10
23.531
20
-2.53207219642533
30
0
41
1
10
23.2053097463428
20
-2.39699029709195
30
0
41
1
10
22.8801189807469
20
-2.25365086077073
30
0
41
1
10
22.4730222255979
20
-2.06605185412116
30
0
41
1
10
22.3915731918411
20
-2.02810963626237
30
0
41
1
10
22.2285879197399
20
-1.95142256936137
30
0
41
1
10
22.1470230054143
20
-1.91266499957169
30
0
41
1
10
21.90249738219
20
-1.79536101396235
30
0
41
1
10
21.7396492330135
20
-1.71575675474247
30
0
41
1
10
21.251476547848
20
-1.47293109459568
30
0
41
1
10
20.9265272343818
20
-1.3056867179142
30
0
41
1
10
20.4387222167429
20
-1.04883535019212
30
0
41
1
10
20.2760578784669
20
-0.962217623383424
30
0
41
1
10
20.0318280061721
20
-0.831031083643495
30
0
41
1
10
19.9503788954129
20
-0.787092662241832
30
0
41
1
10
19.7873823365112
20
-0.698829546565577
30
0
41
1
10
19.7058396895627
20
-0.654507066070266
30
0
41
1
10
19.2985552129509
20
-0.432408267881243
30
0
41
1
10
18.973530907465
20
-0.252845432581495
30
0
41
1
10
18.4861494263747
20
0.0174431523179521
30
0
41
1
10
18.3237166017402
20
0.107700680078438
30
0
41
1
10
18.07990855476
20
0.242964344441873
30
0
41
1
10
17.9986126212447
20
0.288031561686949
30
0
41
1
10
17.8359350170846
20
0.378065288994606
30
0
41
1
10
17.7545267906631
20
0.42304642449588
30
0
41
1
10
17.3475051203089
20
0.647384886991318
30
0
41
1
10
17.0225849814752
20
0.824654938049264
30
0
41
1
10
16.3723172778102
20
1.17169190064806
30
0
41
1
10
16.0469710914931
20
1.34146578358025
30
0
41
1
10
15.7207081175511
20
1.50623757714766
30
0
0
SPLINE
5
161
100
AcDbEntity
8
1
62
256
6
ByLayer
370
18
48
1
60
0
100
AcDbSpline
70
4
71
1
72
4
73
2
40
0
40
0
40
1
40
1
41
1
10
23.5309999992684
20
-3.01008700813642
30
0
41
1
10
23.531000000732
20
-3.01009753120263
30
0
0
SPLINE
5
162
100
AcDbEntity
8
1
62
256
6
ByLayer
370
18
48
1
60
0
100
AcDbSpline
70
4
71
3
72
11
73
7
40
0
40
0
40
0
40
0
40
0.375
40
0.625
40
0.75
40
1
40
1
40
1
40
1
41
1
10
15.592
20
1.0724036805349
30
0
41
1
10
16.584375
20
0.529005400895898
30
0
41
1
10
18.2383333333334
20
-0.433285292670888
30
0
41
1
10
20.2230833333334
20
-1.52379851922683
30
0
41
1
10
21.8770416666667
20
-2.34533182299094
30
0
41
1
10
22.8694166666667
20
-2.76911533939619
30
0
41
1
10
23.531
20
-3.0100897563531
30
0
0
SPLINE
5
163
100
AcDbEntity
8
1
62
256
6
ByLayer
370
18
48
1
60
0
100
AcDbSpline
70
4
71
3
72
8
73
4
40
0
40
0
40
0
40
0
40
1
40
1
40
1
40
1
41
1
10
24.3413797783751
20
-3.4152863362533
30
0
41
1
10
24.3210964732844
20
-3.41379078729616
30
0
41
1
10
24.3008021772852
20
-3.41207579095038
30
0
41
1
10
24.2804955290866
20
-3.41014855636306
30
0
0
SPLINE
5
164
100
AcDbEntity
8
1
62
256
6
ByLayer
370
18
48
1
60
0
100
AcDbSpline
70
4
71
3
72
16
73
12
40
0
40
0
40
0
40
0
40
0.25
40
0.25
40
0.5
40
0.5
40
0.75
40
0.75
40
0.875
40
0.875
40
1
40
1
40
1
40
1
41
1
10
24.2804955290874
20
-3.41014855636314
30
0
41
1
10
24.2179980054037
20
-3.40417756754246
30
0
41
1
10
24.1555797872696
20
-3.39639971626829
30
0
41
1
10
24.0307880371905
20
-3.37718936247839
30
0
41
1
10
23.9684137561501
20
-3.36572311372666
30
0
41
1
10
23.8435767763714
20
-3.33885946614473
30
0
41
1
10
23.7811143428575
20
-3.32346375167012
30
0
41
1
10
23.6872416477452
20
-3.29722630630033
30
0
41
1
10
23.6559568193937
20
-3.28796585122001
30
0
41
1
10
23.5934562626039
20
-3.26840560111751
30
0
41
1
10
23.5622319696415
20
-3.25802305007528
30
0
41
1
10
23.5309998633074
20
-3.24764461678493
30
0
0
SPLINE
5
165
100
AcDbEntity
8
1
62
256
6
ByLayer
370
13
48
1
60
0
100
AcDbSpline
70
4
71
3
72
8
73
4
40
0
40
0
40
0
40
0
40
1
40
1
40
1
40
1
41
1
10
16.1285196228082
20
0.469353501574091
30
0
41
1
10
15.9496797485388
20
0.564666427403182
30
0
41
1
10
15.7708398742694
20
0.659502443461861
30
0
41
1
10
15.592
20
0.753568415138488
30
0
0
SPLINE
5
166
100
AcDbEntity
8
1
62
256
6
ByLayer
370
18
48
1
60
0
100
AcDbSpline
70
4
71
3
72
12
73
8
40
0
40
0
40
0
40
0
40
0.25
40
0.25
40
0.5
40
0.5
40
1
40
1
40
1
40
1
41
1
10
24.4242968595697
20
-0.27670078076801
30
0
41
1
10
24.4605015972641
20
-0.294887370112434
30
0
41
1
10
24.496726217063
20
-0.312805322255031
30
0
41
1
10
24.5692391239237
20
-0.34804999842126
30
0
41
1
10
24.6055147013319
20
-0.365369506146749
30
0
41
1
10
24.7139135415489
20
-0.416092426776885
30
0
41
1
10
24.7857910341056
20
-0.448354572252782
30
0
41
1
10
24.8573221669687
20
-0.478794942213739
30
0
0
SPLINE
5
167
100
AcDbEntity
8
1
62
256
6
ByLayer
370
18
48
1
60
0
100
AcDbSpline
70
4
71
3
72
12
73
8
40
0
40
0
40
0
40
0
40
0.249999999999961
40
0.249999999999961
40
0.499999999999922
40
0.499999999999922
40
1
40
1
40
1
40
1
41
1
10
24.4242968595593
20
-0.276700780762781
30
0
41
1
10
24.41677004874
20
-0.272919866270342
30
0
41
1
10
24.4095333652112
20
-0.269444839700327
30
0
41
1
10
24.3953404716923
20
-0.262772190860375
30
0
41
1
10
24.3883931089156
20
-0.259584390760637
30
0
41
1
10
24.3678347979277
20
-0.250283340556535
30
0
41
1
10
24.3545030582136
20
-0.244427281954984
30
0
41
1
10
24.3413797783725
20
-0.23872930747163
30
0
0
SPLINE
5
168
100
AcDbEntity
8
1
62
256
6
ByLayer
370
18
48
1
60
0
100
AcDbSpline
70
4
71
3
72
8
73
4
40
0
40
0
40
0
40
0
40
1
40
1
40
1
40
1
41
1
10
24.3413797783725
20
-0.23872930747163
30
0
41
1
10
24.3210964657146
20
-0.228075388028202
30
0
41
1
10
24.3008021622367
20
-0.217343543660633
30
0
41
1
10
24.280495506455
20
-0.206538877115889
30
0
0
SPLINE
5
169
100
AcDbEntity
8
1
62
256
6
ByLayer
370
13
48
1
60
0
100
AcDbSpline
70
4
71
3
72
11
73
7
40
0
40
0
40
0
40
0
40
0.10333314709269
40
0.402222098061794
40
0.601481398707862
40
1
40
1
40
1
40
1
41
1
10
23.0621657346671
20
0.48306441220322
30
0
41
1
10
22.804860489778
20
0.620150368759652
30
0
41
1
10
21.803305244889
20
1.14974501640719
30
0
41
0.999999999999999
10
20.3055833333333
20
1.89804888542634
30
0
41
1
10
18.0728333333333
20
2.83982489081973
30
0
41
1
10
16.5843333333333
20
3.2812090968186
30
0
41
1
10
15.592
20
3.46562061257052
30
0
0
SPLINE
5
16A
100
AcDbEntity
8
1
62
256
6
ByLayer
370
18
48
1
60
0
100
AcDbSpline
70
4
71
3
72
8
73
4
40
0
40
0
40
0
40
0
40
1
40
1
40
1
40
1
41
1
10
27.3510248126534
20
-0.499293005297318
30
0
41
1
10
27.3351098457297
20
-0.524613155221232
30
0
41
1
10
27.3179325778825
20
-0.549767348816943
30
0
41
1
10
27.2994958253512
20
-0.574755956338578
30
0
0
SPLINE
5
16B
100
AcDbEntity
8
1
62
256
6
ByLayer
370
18
48
1
60
0
100
AcDbSpline
70
4
71
3
72
8
73
4
40
0
40
0
40
0
40
0
40
1
40
1
40
1
40
1
41
1
10
27.3228190858963
20
-0.224389437016015
30
0
41
1
10
27.3317703861347
20
-0.316047930062695
30
0
41
1
10
27.341218572179
20
-0.407684182377011
30
0
41
1
10
27.3510248126534
20
-0.499293005297602
30
0
0
SPLINE
5
16C
100
AcDbEntity
8
1
62
256
6
ByLayer
370
18
48
1
60
0
100
AcDbSpline
70
4
71
3
72
26
73
22
40
0
40
0
40
0
40
0
40
0.0047556476194135
40
0.0103007914857911
40
0.0134404332843638
40
0.0338615352070978
40
0.107158974136631
40
0.134532173187483
40
0.146487203103066
40
0.147502356527555
40
0.14867551906755
40
0.149263344169567
40
0.157793161752487
40
0.180132782506778
40
0.261749282476218
40
0.33140275001413
40
0.410302480619119
40
0.691399752144559
40
0.806797779665175
40
0.879579742571172
40
1
40
1
40
1
40
1
41
1
10
23.5309998355238
20
0.526602941135678
30
0
41
1
10
23.5385096357816
20
0.522309920628118
30
0
41
1
10
23.5548009110662
20
0.512981118392986
30
0
41
1
10
23.5761374975338
20
0.500715507513974
30
0
41
1
10
23.6222267897886
20
0.473970371523649
30
0
41
1
10
23.7752201004519
20
0.385203850227356
30
0
41
1
10
23.9660300404303
20
0.275571440789548
30
0
41
1
10
24.141256826178
20
0.177536256191189
30
0
41
1
10
24.2039488199641
20
0.142940138362178
30
0
41
1
10
24.2257101112942
20
0.130960319819536
30
0
41
1
10
24.2301768039266
20
0.128419575570462
30
0
41
1
10
24.2463689847499
20
0.119342699696631
30
0
41
1
10
24.2954854815247
20
0.0919545691782275
30
0
41
1
10
24.4698998319715
20
-0.0026235161347756
30
0
41
1
10
24.73210056297
20
-0.132042030569693
30
0
41
1
10
25.070387325386
20
-0.276073986594781
30
0
41
1
10
25.6866347679614
20
-0.496835057660405
30
0
41
1
10
26.331034078085
20
-0.611408590099956
30
0
41
1
10
26.8410006170563
20
-0.541479874786603
30
0
41
1
10
27.123016048245
20
-0.431023956399002
30
0
41
1
10
27.2594564900287
20
-0.317009947077537
30
0
41
1
10
27.3228190826459
20
-0.224389436250021
30
0
0
SPLINE
5
16D
100
AcDbEntity
8
1
62
256
6
ByLayer
370
18
48
1
60
0
100
AcDbSpline
70
4
71
3
72
16
73
12
40
0
40
0
40
0
40
0
40
0.249999999999995
40
0.249999999999995
40
0.49999999999999
40
0.49999999999999
40
0.749999999999984
40
0.749999999999984
40
0.874999999999992
40
0.874999999999992
40
1
40
1
40
1
40
1
41
1
10
24.2804955064532
20
-0.206538877114895
30
0
41
1
10
24.2179980225675
20
-0.173277997260669
30
0
41
1
10
24.1555798440399
20
-0.13946746700185
30
0
41
1
10
24.0307881733914
20
-0.0709170147941336
30
0
41
1
10
23.9684139320818
20
-0.036170341683885
30
0
41
1
10
23.8435770320612
20
0.0341076322642095
30
0
41
1
10
23.781114638574
20
0.0696389551699781
30
0
41
1
10
23.6872420039672
20
0.123392714880566
30
0
41
1
10
23.6559571801012
20
0.14136596132937
30
0
41
1
10
23.5934565710927
20
0.177353556735341
30
0
41
1
10
23.562232221864
20
0.19537712424264
30
0
41
1
10
23.5310000591556
20
0.213387039003919
30
0
0
SPLINE
5
16E
100
AcDbEntity
8
1
62
256
6
ByLayer
370
18
48
1
60
0
100
AcDbSpline
70
4
71
3
72
9
73
5
40
0
40
0
40
0
40
0
40
0.29217696873896
40
1
40
1
40
1
40
1
41
1
10
24.2804955063585
20
-0.206538877064844
30
0
41
1
10
24.2866732448554
20
-0.209806343627577
30
0
41
1
10
24.3077751656219
20
-0.220931069860313
30
0
41
1
10
24.3288051585438
20
-0.231887112220221
30
0
41
1
10
24.3436536341374
20
-0.239559153109639
30
0
0
SPLINE
5
16F
100
AcDbEntity
8
1
62
256
6
ByLayer
370
18
48
1
60
0
100
AcDbSpline
70
4
71
3
72
8
73
4
40
0
40
0
40
0
40
0
40
1
40
1
40
1
40
1
41
1
10
24.3436536341375
20
-0.239559153109667
30
0
41
1
10
24.3637811094329
20
-0.247043441411762
30
0
41
1
10
24.3834683756687
20
-0.255631857082051
30
0
41
1
10
24.4027062518779
20
-0.26534929722655
30
0
0
SPLINE
5
170
100
AcDbEntity
8
1
62
256
6
ByLayer
370
18
48
1
60
0
100
AcDbSpline
70
4
71
3
72
10
73
6
40
0
40
0
40
0
40
0
40
0.5
40
0.5
40
1
40
1
40
1
40
1
41
1
10
24.9689837104042
20
-0.525371655342553
30
0
41
1
10
24.8751999781447
20
-0.487442284746692
30
0
41
1
10
24.7812450672969
20
-0.446439854692926
30
0
41
1
10
24.5926054580821
20
-0.359442513908334
30
0
41
1
10
24.497913175338
20
-0.313440238764287
30
0
41
1
10
24.4027062518726
20
-0.265349297223906
30
0
0
SPLINE
5
171
100
AcDbEntity
8
1
62
256
6
ByLayer
370
18
48
1
60
0
100
AcDbSpline
70
4
71
3
72
10
73
6
40
0
40
0
40
0
40
0
40
0.5
40
0.5
40
1
40
1
40
1
40
1
41
1
10
25.7953316456183
20
-0.780668844834452
30
0
41
1
10
25.6655690165034
20
-0.753532441609309
30
0
41
1
10
25.5312536235907
20
-0.718901642595227
30
0
41
1
10
25.2552963783572
20
-0.634094268996478
30
0
41
1
10
25.1136161569603
20
-0.583869873701303
30
0
41
1
10
24.9689837104039
20
-0.525371655342411
30
0
0
SPLINE
5
172
100
AcDbEntity
8
1
62
256
6
ByLayer
370
18
48
1
60
0
100
AcDbSpline
70
4
71
3
72
27
73
23
40
0
40
0
40
0
40
0
40
0.0625000000000048
40
0.0625000000000048
40
0.125000000000009
40
0.125000000000009
40
0.250000000000013
40
0.250000000000013
40
0.312500000000011
40
0.312500000000011
40
0.375000000000009
40
0.375000000000009
40
0.500000000000005
40
0.500000000000005
40
0.625000000000002
40
0.625000000000002
40
0.687499999999999
40
0.687499999999999
40
0.749999999999997
40
0.749999999999997
40
0.874999999999999
40
1
40
1
40
1
40
1
41
1
10
27.2994958253501
20
-0.57475595633997
30
0
41
1
10
27.2824835000607
20
-0.591977144392615
30
0
41
1
10
27.2643691408599
20
-0.608485865505259
30
0
41
1
10
27.2260593442363
20
-0.639948852519183
30
0
41
1
10
27.2059008338998
20
-0.654877697893539
30
0
41
1
10
27.1424723723229
20
-0.697286398522323
30
0
41
1
10
27.096259771292
20
-0.722394445109359
30
0
41
1
10
27.0209534488571
20
-0.755290181008377
30
0
41
1
10
26.994840742221
20
-0.765458400726146
30
0
41
1
10
26.9410396174636
20
-0.7840537878634
30
0
41
1
10
26.9133021248017
20
-0.792503996752629
30
0
41
1
10
26.8276161821234
20
-0.815357005754862
30
0
41
1
10
26.7671981327916
20
-0.82726634941406
30
0
41
1
10
26.6398800977374
20
-0.844552735911577
30
0
41
1
10
26.5729877701627
20
-0.84993399348744
30
0
41
1
10
26.4677357391962
20
-0.853066072081901
30
0
41
1
10
26.4318302340326
20
-0.853284924332627
30
0
41
1
10
26.3583460412683
20
-0.852044432102844
30
0
41
1
10
26.320692415935
20
-0.850578534039613
30
0
41
1
10
26.2060569339764
20
-0.843667875326474
30
0
41
1
10
26.048414261257
20
-0.827785320803599
30
0
41
1
10
25.8812943926965
20
-0.798641614176631
30
0
41
1
10
25.7953316456178
20
-0.780668844834366
30
0
0
SPLINE
5
173
100
AcDbEntity
8
1
62
256
6
ByLayer
370
18
48
1
60
0
100
AcDbSpline
70
4
71
3
72
30
73
26
40
0
40
0
40
0
40
0
40
0.047316669273532
40
0.047316669273532
40
0.126706946834071
40
0.126706946834071
40
0.20609722439461
40
0.20609722439461
40
0.285487501955149
40
0.285487501955149
40
0.364877779515688
40
0.364877779515688
40
0.444268057076227
40
0.444268057076227
40
0.523658334636766
40
0.523658334636766
40
0.603048612197305
40
0.603048612197305
40
0.682438889757844
40
0.682438889757844
40
0.761829167318383
40
0.761829167318383
40
0.841219444878922
40
0.841219444878922
40
1
40
1
40
1
40
1
41
1
10
17.2809696887853
20
3.5307206062914
30
0
41
1
10
17.3795687917579
20
3.5567278112882
30
0
41
1
10
17.4781845296782
20
3.58165811523571
30
0
41
1
10
17.7422117234461
20
3.64543893090018
30
0
41
1
10
17.9077006629128
20
3.68229743693502
30
0
41
1
10
18.2384890123852
20
3.74950021476559
30
0
41
1
10
18.4037990386198
20
3.77984999932758
30
0
41
1
10
18.7344625054867
20
3.83385107445511
30
0
41
1
10
18.8998313723554
20
3.85750416362924
30
0
41
1
10
19.2307621846114
20
3.89807893865631
30
0
41
1
10
19.3961672608609
20
3.9149820901111
30
0
41
1
10
19.7270730865454
20
3.94200862248249
30
0
41
1
10
19.8924663458872
20
3.95212172339271
30
0
41
1
10
20.2231239663057
20
3.96552835812758
30
0
41
1
10
20.38842304054
20
3.96882508977151
30
0
41
1
10
20.719176469467
20
3.96856841404426
30
0
41
1
10
20.8846629444622
20
3.96501104765699
30
0
41
1
10
21.215527653587
20
3.95100068993958
30
0
41
1
10
21.3810206504448
20
3.94054277241281
30
0
41
1
10
21.7118195008255
20
3.91271069551203
30
0
41
1
10
21.8771504007289
20
3.89533843399778
30
0
41
1
10
22.2078814309887
20
3.85384858456658
30
0
41
1
10
22.3733475716936
20
3.82971963886462
30
0
41
1
10
22.869641279009
20
3.74748990955305
30
0
41
1
10
23.2000929821702
20
3.67961935746081
30
0
41
1
10
23.531
20
3.59920594899441
30
0
0
SPLINE
5
174
100
AcDbEntity
8
1
62
256
6
ByLayer
370
18
48
1
60
0
100
AcDbSpline
70
4
71
3
72
16
73
12
40
0
40
0
40
0
40
0
40
0.249999999999995
40
0.249999999999995
40
0.49999999999999
40
0.49999999999999
40
0.749999999999984
40
0.749999999999984
40
0.874999999999992
40
0.874999999999992
40
1
40
1
40
1
40
1
41
1
10
24.2804955278777
20
3.33956829517572
30
0
41
1
10
24.217998021089
20
3.36731755686083
30
0
41
1
10
24.1555798198065
20
3.39374690228235
30
0
41
1
10
24.0307881034406
20
3.44374963926566
30
0
41
1
10
23.9684138392618
20
3.46729479008033
30
0
41
1
10
23.8435768933292
20
3.51109342751241
30
0
41
1
10
23.7811144767994
20
3.53134869033957
30
0
41
1
10
23.6872418073587
20
3.55892479238403
30
0
41
1
10
23.6559569731363
20
3.5676375025574
30
0
41
1
10
23.5934563464261
20
3.58402276226232
30
0
41
1
10
23.5622319899288
20
3.591618562847
30
0
41
1
10
23.5309998199133
20
3.59920470789885
30
0
0
SPLINE
5
175
100
AcDbEntity
8
1
62
256
6
ByLayer
370
18
48
1
60
0
100
AcDbSpline
70
4
71
3
72
32
73
28
40
0
40
0
40
0
40
0
40
0.0807183945837149
40
0.0807183945837149
40
0.16143678916743
40
0.16143678916743
40
0.242155183751145
40
0.242155183751145
40
0.32287357833486
40
0.32287357833486
40
0.403591972918575
40
0.403591972918575
40
0.484310367502289
40
0.484310367502289
40
0.565028762086004
40
0.565028762086004
40
0.645747156669719
40
0.645747156669719
40
0.726465551253434
40
0.726465551253434
40
0.807183945837149
40
0.807183945837149
40
0.887902340420864
40
0.887902340420864
40
0.968620735004579
40
0.968620735004579
40
1
40
1
40
1
40
1
41
1
10
15.592
20
-3.07367240884071
30
0
41
1
10
15.7574630200388
20
-3.13410982335088
30
0
41
1
10
15.922865374951
20
-3.19180896527362
30
0
41
1
10
16.2537607565891
20
-3.30158313509031
30
0
41
1
10
16.4191709486797
20
-3.35362897032104
30
0
41
1
10
16.7498321731112
20
-3.45180027415134
30
0
41
1
10
16.9151283617497
20
-3.49794097828274
30
0
41
1
10
17.2458667246257
20
-3.58416395494478
30
0
41
1
10
17.4113508011686
20
-3.62425375661746
30
0
41
1
10
17.7422117897145
20
-3.69807614544229
30
0
41
1
10
17.9077007342903
20
-3.7318338481075
30
0
41
1
10
18.2384890939042
20
-3.79275801150527
30
0
41
1
10
18.4037991252208
20
-3.81992982633346
30
0
41
1
10
18.7344626022934
20
-3.86750905647673
30
0
41
1
10
18.8998314743573
20
-3.88791796412727
30
0
41
1
10
19.2307622967593
20
-3.92195301443366
30
0
41
1
10
19.3961673781016
20
-3.93556373074182
30
0
41
1
10
19.7270732140307
20
-3.95597346957501
30
0
41
1
10
19.8924664783646
20
-3.96276435715652
30
0
41
1
10
20.2231241089405
20
-3.96951652509881
30
0
41
1
10
20.3884231882808
20
-3.96948027401234
30
0
41
1
10
20.7191766274968
20
-3.96255910383797
30
0
41
1
10
20.8846631075938
20
-3.95566958027629
30
0
41
1
10
21.2155278269182
20
-3.9350195685943
30
0
41
1
10
21.3810208288885
20
-3.92125185701198
30
0
41
1
10
21.6107192652959
20
-3.89736047898091
30
0
41
1
10
21.6750079154887
20
-3.8901535974363
30
0
41
1
10
21.7392922692488
20
-3.88243294427323
30
0
0
SPLINE
5
176
100
AcDbEntity
8
1
62
256
6
ByLayer
370
18
48
1
60
0
100
AcDbSpline
70
4
71
3
72
10
73
6
40
0
40
0
40
0
40
0
40
0.866551085545073
40
0.866551085545073
40
1
40
1
40
1
40
1
41
1
10
15.1056381211601
20
3.94952675354082
30
0
41
1
10
14.9348637897039
20
3.96002551394963
30
0
41
1
10
14.7669294265086
20
3.96663742193084
30
0
41
1
10
14.5769803234387
20
3.96876156668429
30
0
41
1
10
14.5517108739345
20
3.96893213583113
30
0
41
1
10
14.5265226065082
20
3.96898506075138
30
0
0
SPLINE
5
177
100
AcDbEntity
8
1
62
256
6
ByLayer
370
18
48
1
60
0
100
AcDbSpline
70
4
71
3
72
36
73
32
40
0
40
0
40
0
40
0
40
0.0624999999999999
40
0.0624999999999999
40
0.125
40
0.125
40
0.1875
40
0.1875
40
0.25
40
0.25
40
0.312499999999999
40
0.312499999999999
40
0.374999999999999
40
0.374999999999999
40
0.437499999999999
40
0.437499999999999
40
0.499999999999999
40
0.499999999999999
40
0.562499999999999
40
0.562499999999999
40
0.624999999999999
40
0.624999999999999
40
0.687499999999999
40
0.687499999999999
40
0.749999999999998
40
0.749999999999998
40
0.812499999999998
40
0.812499999999998
40
0.874999999999998
40
0.874999999999998
40
1
40
1
40
1
40
1
41
1
10
15.592
20
0.774146060309079
30
0
41
1
10
15.7574630144532
20
0.68044378712267
30
0
41
1
10
15.922865363784
20
0.586100857949361
30
0
41
1
10
16.2537607342457
20
0.396510548779872
30
0
41
1
10
16.4191709207694
20
0.301310426099889
30
0
41
1
10
16.7498321340477
20
0.110646976824086
30
0
41
1
10
16.9151283171047
20
0.0151575778066615
30
0
41
1
10
17.2458666687859
20
-0.175763687921602
30
0
41
1
10
17.411350739737
20
-0.271219672572585
30
0
41
1
10
17.7422117171151
20
-0.461429402196558
30
0
41
1
10
17.9077006560937
20
-0.556247423391142
30
0
41
1
10
18.238489004597
20
-0.744635743639265
30
0
41
1
10
18.4037990303461
20
-0.838212653371841
30
0
41
1
10
18.7344624962377
20
-1.02375390736606
30
0
41
1
10
18.8998313626099
20
-1.11572672450208
30
0
41
1
10
19.2307621738963
20
-1.29768293301512
30
0
41
1
10
19.3961672496592
20
-1.38758021206149
30
0
41
1
10
19.7270730743646
20
-1.56487953120532
30
0
41
1
10
19.8924663332293
20
-1.65222335716567
30
0
41
1
10
20.2231239526771
20
-1.82385344785448
30
0
41
1
10
20.3884230264233
20
-1.90815935968087
30
0
41
1
10
20.7191764543669
20
-2.07341315041845
30
0
41
1
10
20.8846629288744
20
-2.15437512664028
30
0
41
1
10
21.2155276370242
20
-2.31234355050731
30
0
41
1
10
21.3810206333934
20
-2.38940461568831
30
0
41
1
10
21.7118194828094
20
-2.5390655145504
30
0
41
1
10
21.8771503822269
20
-2.61167675454052
30
0
41
1
10
22.2078814115074
20
-2.7522572286066
30
0
41
1
10
22.3733475517113
20
-2.82025588978698
30
0
41
1
10
22.86964125759
20
-3.01677278521919
30
0
41
1
10
23.2000929831449
20
-3.13772463376151
30
0
41
1
10
23.531
20
-3.24764599775173
30
0
0
SPLINE
5
178
100
AcDbEntity
8
1
62
256
6
ByLayer
370
18
48
1
60
0
100
AcDbSpline
70
4
71
3
72
36
73
32
40
0
40
0
40
0
40
0
40
0.0625000000000002
40
0.0625000000000002
40
0.125
40
0.125
40
0.1875
40
0.1875
40
0.250000000000001
40
0.250000000000001
40
0.312500000000001
40
0.312500000000001
40
0.375000000000001
40
0.375000000000001
40
0.437500000000001
40
0.437500000000001
40
0.500000000000001
40
0.500000000000001
40
0.562500000000001
40
0.562500000000001
40
0.625000000000001
40
0.625000000000001
40
0.687500000000001
40
0.687500000000001
40
0.750000000000001
40
0.750000000000001
40
0.812500000000002
40
0.812500000000002
40
0.875000000000002
40
0.875000000000002
40
1
40
1
40
1
40
1
41
1
10
15.592
20
3.7114911637986
30
0
41
1
10
15.7574630200389
20
3.67763330219992
30
0
41
1
10
15.9228653749511
20
3.64051702382068
30
0
41
1
10
16.2537607565892
20
3.55999553590516
30
0
41
1
10
16.4191709486798
20
3.51660863919739
30
0
41
1
10
16.7498321731112
20
3.42389032883517
30
0
41
1
10
16.9151283617496
20
3.37454797578462
30
0
41
1
10
17.2458667246256
20
3.27010073411438
30
0
41
1
10
17.4113508011684
20
3.21497942134502
30
0
41
1
10
17.7422117897143
20
3.09931963831562
30
0
41
1
10
17.9077007342899
20
3.03874224650647
30
0
41
1
10
18.2384890939037
20
2.91248055625292
30
0
41
1
10
18.4037991252203
20
2.84679491626548
30
0
41
1
10
18.7344626022928
20
2.71050826720281
30
0
41
1
10
18.8998314743567
20
2.63990038094352
30
0
41
1
10
19.2307622967586
20
2.49412123752745
30
0
41
1
10
19.3961673781009
20
2.41901962562056
30
0
41
1
10
19.7270732140299
20
2.26472136442263
30
0
41
1
10
19.8924664783638
20
2.18557400025159
30
0
41
1
10
20.2231241089396
20
2.02371857417091
30
0
41
1
10
20.3884231882799
20
1.94099361272472
30
0
41
1
10
20.7191766274961
20
1.77225939779524
30
0
41
1
10
20.8846631075931
20
1.6862318947513
30
0
41
1
10
21.2155278269177
20
1.51145722577482
30
0
41
1
10
21.381020828888
20
1.4226495511304
30
0
41
1
10
21.7118196893604
20
1.24280993454002
30
0
41
1
10
21.8771505943456
20
1.15176822181459
30
0
41
1
10
22.2078816348518
20
0.967812203242431
30
0
41
1
10
22.3733477807966
20
0.874856773217545
30
0
41
1
10
22.8696415031426
20
0.593977144311935
30
0
41
1
10
23.200092971973
20
0.404200364205394
30
0
41
1
10
23.531
20
0.213386969641903
30
0
0
SPLINE
5
179
100
AcDbEntity
8
1
62
256
6
ByLayer
370
18
48
1
60
0
100
AcDbSpline
70
4
71
1
72
4
73
2
40
0
40
0
40
1
40
1
41
1
10
15.3930794580077
20
-3.84897067143803
30
0
41
1
10
15.4120101512478
20
-3.84271475326463
30
0
0
SPLINE
5
17A
100
AcDbEntity
8
1
62
256
6
ByLayer
370
18
48
1
60
0
100
AcDbSpline
70
4
71
3
72
13
73
9
40
0
40
0
40
0
40
0
40
0.214251808157582
40
0.376968406260669
40
0.48935657227787
40
0.613533607268452
40
0.783748160288215
40
1
40
1
40
1
40
1
41
1
10
22.2002746254046
20
2.06623850180688
30
0
41
1
10
22.0387673933786
20
2.10137310174005
30
0
41
1
10
21.7561749924208
20
2.16810340864512
30
0
41
1
10
21.3902805996935
20
2.26696151734072
30
0
41
1
10
21.0975253183426
20
2.35290586729661
30
0
41
1
10
20.799015773992
20
2.44632635068385
30
0
41
1
10
20.4209826577088
20
2.57369658324174
30
0
41
1
10
20.1344387386497
20
2.67894164615981
30
0
41
1
10
19.9736897226335
20
2.7407165278444
30
0
0
SPLINE
5
17B
100
AcDbEntity
8
1
62
256
6
ByLayer
370
18
48
1
60
0
100
AcDbSpline
70
4
71
1
72
4
73
2
40
0
40
0
40
1
40
1
41
1
10
24.8384181389981
20
-0.470712211573129
30
0
41
1
10
24.8543297724895
20
-0.477549976746104
30
0
0
LINE
5
79
100
AcDbEntity
8
81
62
256
6
ByLayer
370
18
48
1
60
0
100
AcDbLine
10
27.55
20
0
30
0
11
32.55
21
0
31
0
39
0
210
0
220
0
230
1
0
LINE
5
7A
100
AcDbEntity
8
SK4
62
256
6
ByLayer
370
18
48
0.05
60
0
100
AcDbLine
10
-36
20
0
30
0
11
27.55
21
0
31
0
39
0
210
0
220
0
230
1
0
LINE
5
7C
100
AcDbEntity
8
80
62
256
6
ByLayer
370
18
48
1
60
0
100
AcDbLine
10
0
20
0
30
0
11
-5
21
0
31
0
39
0
210
0
220
0
230
1
0
LINE
5
7D
100
AcDbEntity
8
4
62
256
6
ByLayer
370
18
48
0.05
60
0
100
AcDbLine
10
0
20
0
30
0
11
27.55
21
0
31
0
39
0
210
0
220
0
230
1
0
LINE
5
7F
100
AcDbEntity
8
1
62
256
6
ByLayer
370
18
48
1
60
0
100
AcDbLine
10
0
20
3.969
30
0
11
0
21
0
31
0
39
0
210
0
220
0
230
1
0
LINE
5
80
100
AcDbEntity
8
1
62
256
6
ByLayer
370
18
48
1
60
0
100
AcDbLine
10
0
20
0
30
0
11
0
21
-3.969
31
0
39
0
210
0
220
0
230
1
0
LINE
5
81
100
AcDbEntity
8
1
62
256
6
ByLayer
370
18
48
1
60
0
100
AcDbLine
10
27.499416
20
-0.029962
30
0
11
27.484943
21
-0.030255
31
0
39
0
210
0
220
0
230
1
0
LINE
5
82
100
AcDbEntity
8
1
62
256
6
ByLayer
370
18
48
1
60
0
100
AcDbLine
10
27.499316
20
0.031453
30
0
11
27.486266
21
0.031453
31
0
39
0
210
0
220
0
230
1
0
LINE
5
83
100
AcDbEntity
8
1
62
256
6
ByLayer
370
13
48
1
60
0
100
AcDbLine
10
27.449337
20
-0.472498
30
0
11
27.418387
21
-0.49045
31
0
39
0
210
0
220
0
230
1
0
LINE
5
84
100
AcDbEntity
8
1
62
256
6
ByLayer
370
18
48
1
60
0
100
AcDbLine
10
27.486373
20
0.031157
30
0
11
27.471371
21
0.031429
31
0
39
0
210
0
220
0
230
1
0
LINE
5
85
100
AcDbEntity
8
1
62
256
6
ByLayer
370
18
48
1
60
0
100
AcDbLine
10
27.499329
20
0.036961
30
0
11
27.485696
21
0.034399
31
0
39
0
210
0
220
0
230
1
0
LINE
5
86
100
AcDbEntity
8
1
62
256
6
ByLayer
370
18
48
1
60
0
100
AcDbLine
10
27.432044
20
-0.537763
30
0
11
27.418387
21
-0.49045
31
0
39
0
210
0
220
0
230
1
0
LINE
5
87
100
AcDbEntity
8
1
62
256
6
ByLayer
370
13
48
1
60
0
100
AcDbLine
10
27.255349
20
-0.615676
30
0
11
27.332474
21
-1.051382
31
0
39
0
210
0
220
0
230
1
0
LINE
5
88
100
AcDbEntity
8
1
62
256
6
ByLayer
370
18
48
1
60
0
100
AcDbLine
10
27.251382
20
0.691508
30
0
11
27.161088
21
0.567322
31
0
39
0
210
0
220
0
230
1
0
LINE
5
89
100
AcDbEntity
8
1
62
256
6
ByLayer
370
18
48
1
60
0
100
AcDbLine
10
27.106757
20
-0.671207
30
0
11
27.189654
21
-1.043261
31
0
39
0
210
0
220
0
230
1
0
LINE
5
8A
100
AcDbEntity
8
1
62
256
6
ByLayer
370
13
48
1
60
0
100
AcDbLine
10
26.915622
20
-0.782072
30
0
11
26.807758
21
-0.844637
31
0
39
0
210
0
220
0
230
1
0
LINE
5
8B
100
AcDbEntity
8
1
62
256
6
ByLayer
370
13
48
1
60
0
100
AcDbLine
10
27.057226
20
0.658791
30
0
11
27.161088
21
0.567322
31
0
39
0
210
0
220
0
230
1
0
LINE
5
8C
100
AcDbEntity
8
1
62
256
6
ByLayer
370
18
48
1
60
0
100
AcDbLine
10
27.171278
20
0.080996
30
0
11
27.288207
21
-0.052756
31
0
39
0
210
0
220
0
230
1
0
LINE
5
8D
100
AcDbEntity
8
1
62
256
6
ByLayer
370
13
48
1
60
0
100
AcDbLine
10
27.171278
20
0.080996
30
0
11
26.807758
21
0.401144
31
0
39
0
210
0
220
0
230
1
0
LINE
5
8E
100
AcDbEntity
8
1
62
256
6
ByLayer
370
13
48
1
60
0
100
AcDbLine
10
14.960587
20
3.80305
30
0
11
15.592
21
3.465621
31
0
39
0
210
0
220
0
230
1
0
LINE
5
8F
100
AcDbEntity
8
1
62
256
6
ByLayer
370
13
48
1
60
0
100
AcDbLine
10
11.920394
20
3.894517
30
0
11
15.592
21
1.932396
31
0
39
0
210
0
220
0
230
1
0
LINE
5
90
100
AcDbEntity
8
1
62
256
6
ByLayer
370
18
48
1
60
0
100
AcDbLine
10
23.531
20
3.721751
30
0
11
23.531
21
3.671743
31
0
39
0
210
0
220
0
230
1
0
LINE
5
91
100
AcDbEntity
8
1
62
256
6
ByLayer
370
18
48
1
60
0
100
AcDbLine
10
23.531
20
3.67174
30
0
11
23.531
21
3.599206
31
0
39
0
210
0
220
0
230
1
0
LINE
5
92
100
AcDbEntity
8
1
62
256
6
ByLayer
370
18
48
1
60
0
100
AcDbLine
10
26.861678
20
-1.328645
30
0
11
26.92772
21
-1.364893
31
0
39
0
210
0
220
0
230
1
0
LINE
5
93
100
AcDbEntity
8
1
62
256
6
ByLayer
370
18
48
1
60
0
100
AcDbLine
10
26.861678
20
-1.328645
30
0
11
26.826793
21
-1.152376
31
0
39
0
210
0
220
0
230
1
0
LINE
5
94
100
AcDbEntity
8
1
62
256
6
ByLayer
370
18
48
1
60
0
100
AcDbLine
10
15.592
20
1.869379
30
0
11
15.592
21
1.932396
31
0
39
0
210
0
220
0
230
1
0
LINE
5
95
100
AcDbEntity
8
1
62
256
6
ByLayer
370
13
48
1
60
0
100
AcDbLine
10
11.866261
20
-2.728674
30
0
11
13.790605
21
-2.587396
31
0
39
0
210
0
220
0
230
1
0
LINE
5
96
100
AcDbEntity
8
1
62
256
6
ByLayer
370
13
48
1
60
0
100
AcDbLine
10
11.920394
20
-2.610034
30
0
11
13.280035
21
-2.510214
31
0
39
0
210
0
220
0
230
1
0
LINE
5
97
100
AcDbEntity
8
1
62
256
6
ByLayer
370
18
48
1
60
0
100
AcDbLine
10
15.592
20
-2.82052
30
0
11
15.592
21
-2.301581
31
0
39
0
210
0
220
0
230
1
0
LINE
5
98
100
AcDbEntity
8
1
62
256
6
ByLayer
370
18
48
1
60
0
100
AcDbLine
10
26.784597
20
0.387387
30
0
11
26.99622
21
0.176038
31
0
39
0
210
0
220
0
230
1
0
LINE
5
99
100
AcDbEntity
8
1
62
256
6
ByLayer
370
18
48
1
60
0
100
AcDbLine
10
26.784597
20
0.387387
30
0
11
26.773128
21
0.445435
31
0
39
0
210
0
220
0
230
1
0
LINE
5
9A
100
AcDbEntity
8
1
62
256
6
ByLayer
370
18
48
1
60
0
100
AcDbLine
10
25.672446
20
1.221001
30
0
11
25.298352
21
1.407892
31
0
39
0
210
0
220
0
230
1
0
LINE
5
9B
100
AcDbEntity
8
1
62
256
6
ByLayer
370
18
48
1
60
0
100
AcDbLine
10
15.592
20
1.932396
30
0
11
15.592
21
3.465621
31
0
39
0
210
0
220
0
230
1
0
LINE
5
9C
100
AcDbEntity
8
1
62
256
6
ByLayer
370
18
48
1
60
0
100
AcDbLine
10
15.592
20
-0.475144
30
0
11
15.592
21
-0.321739
31
0
39
0
210
0
220
0
230
1
0
LINE
5
9D
100
AcDbEntity
8
1
62
256
6
ByLayer
370
18
48
1
60
0
100
AcDbLine
10
11.866261
20
3.860429
30
0
11
15.592
21
1.869379
31
0
39
0
210
0
220
0
230
1
0
LINE
5
9E
100
AcDbEntity
8
1
62
256
6
ByLayer
370
18
48
1
60
0
100
AcDbLine
10
15.592
20
3.760886
30
0
11
15.592
21
3.768816
31
0
39
0
210
0
220
0
230
1
0
LINE
5
9F
100
AcDbEntity
8
1
62
256
6
ByLayer
370
18
48
1
60
0
100
AcDbLine
10
23.531
20
1.081896
30
0
11
23.531
21
0.526617
31
0
39
0
210
0
220
0
230
1
0
LINE
5
A0
100
AcDbEntity
8
1
62
256
6
ByLayer
370
13
48
1
60
0
100
AcDbLine
10
12.083766
20
1.251563
30
0
11
15.592
21
-0.321739
31
0
39
0
210
0
220
0
230
1
0
LINE
5
A1
100
AcDbEntity
8
1
62
256
6
ByLayer
370
18
48
1
60
0
100
AcDbLine
10
15.592
20
-0.321739
30
0
11
15.592
21
0.753568
31
0
39
0
210
0
220
0
230
1
0
LINE
5
A2
100
AcDbEntity
8
1
62
256
6
ByLayer
370
13
48
1
60
0
100
AcDbLine
10
14.993628
20
1.021914
30
0
11
15.592
21
0.753568
31
0
39
0
210
0
220
0
230
1
0
LINE
5
A3
100
AcDbEntity
8
1
62
256
6
ByLayer
370
13
48
1
60
0
100
AcDbLine
10
12.036072
20
1.119548
30
0
11
15.592
21
-0.475144
31
0
39
0
210
0
220
0
230
1
0
LINE
5
A4
100
AcDbEntity
8
1
62
256
6
ByLayer
370
18
48
1
60
0
100
AcDbLine
10
15.592
20
1.072404
30
0
11
15.592
21
1.570954
31
0
39
0
210
0
220
0
230
1
0
LINE
5
A5
100
AcDbEntity
8
1
62
256
6
ByLayer
370
18
48
1
60
0
100
AcDbLine
10
23.531
20
-2.532072
30
0
11
23.531
21
-3.01009
31
0
39
0
210
0
220
0
230
1
0
LINE
5
A6
100
AcDbEntity
8
1
62
256
6
ByLayer
370
18
48
1
60
0
100
AcDbLine
10
23.531
20
-3.0101
30
0
11
23.531
21
-3.247646
31
0
39
0
210
0
220
0
230
1
0
LINE
5
A7
100
AcDbEntity
8
1
62
256
6
ByLayer
370
18
48
1
60
0
100
AcDbLine
10
23.531
20
0.526604
30
0
11
23.531
21
0.213387
31
0
39
0
210
0
220
0
230
1
0
LINE
5
A8
100
AcDbEntity
8
1
62
256
6
ByLayer
370
18
48
1
60
0
100
AcDbLine
10
15.592
20
-3.073672
30
0
11
15.592
21
-2.82052
31
0
39
0
210
0
220
0
230
1
0
LINE
5
A9
100
AcDbEntity
8
1
62
256
6
ByLayer
370
18
48
1
60
0
100
AcDbLine
10
15.592
20
3.711491
30
0
11
15.592
21
3.760886
31
0
39
0
210
0
220
0
230
1
0
LINE
5
AA
100
AcDbEntity
8
1
62
256
6
ByLayer
370
18
48
1
60
0
100
AcDbLine
10
15.592
20
0.774146
30
0
11
15.592
21
1.072404
31
0
39
0
210
0
220
0
230
1
0
LINE
5
AB
100
AcDbEntity
8
1
62
256
6
ByLayer
370
18
48
1
60
0
100
AcDbLine
10
15.592
20
0.774146
30
0
11
15.592
21
0.753568
31
0
39
0
210
0
220
0
230
1
0
LINE
5
AC
100
AcDbEntity
8
1
62
256
6
ByLayer
370
18
48
1
60
0
100
AcDbLine
10
15.592
20
3.711491
30
0
11
15.592
21
3.465621
31
0
39
0
210
0
220
0
230
1
0
LINE
5
AD
100
AcDbEntity
8
SK1
62
256
6
ByLayer
370
18
48
1
60
0
100
AcDbLine
10
-36
20
-3.469
30
0
11
-36
21
3.469
31
0
39
0
210
0
220
0
230
1
0
LINE
5
AF
100
AcDbEntity
8
SK1
62
256
6
ByLayer
370
18
48
1
60
0
100
AcDbLine
10
0
20
3.969
30
0
11
0
21
0
31
0
39
0
210
0
220
0
230
1
0
LINE
5
B0
100
AcDbEntity
8
SK1
62
256
6
ByLayer
370
18
48
1
60
0
100
AcDbLine
10
0
20
0
30
0
11
0
21
-3.969
31
0
39
0
210
0
220
0
230
1
0
LINE
5
B1
100
AcDbEntity
8
SK1
62
256
6
ByLayer
370
18
48
1
60
0
100
AcDbLine
10
-35.5
20
3.969
30
0
11
-35.5
21
-3.969
31
0
39
0
210
0
220
0
230
1
0
LINE
5
B2
100
AcDbEntity
8
1
62
256
6
ByLayer
370
18
48
1
60
0
100
AcDbLine
10
14.534864
20
3.969
30
0
11
0
21
3.969
31
0
39
0
210
0
220
0
230
1
0
LINE
5
B3
100
AcDbEntity
8
1
62
256
6
ByLayer
370
18
48
1
60
0
100
AcDbLine
10
0
20
-3.969
30
0
11
14.722419
21
-3.969
31
0
39
0
210
0
220
0
230
1
0
LINE
5
B4
100
AcDbEntity
8
SK1
62
256
6
ByLayer
370
18
48
1
60
0
100
AcDbLine
10
-36
20
-3.469
30
0
11
-35.5
21
-3.969
31
0
39
0
210
0
220
0
230
1
0
LINE
5
B5
100
AcDbEntity
8
SK1
62
256
6
ByLayer
370
18
48
1
60
0
100
AcDbLine
10
-35.5
20
3.969
30
0
11
-36
21
3.469
31
0
39
0
210
0
220
0
230
1
0
LINE
5
B6
100
AcDbEntity
8
SK1
62
256
6
ByLayer
370
18
48
1
60
0
100
AcDbLine
10
0
20
3.969
30
0
11
-35.5
21
3.969
31
0
39
0
210
0
220
0
230
1
0
LINE
5
B7
100
AcDbEntity
8
SK1
62
256
6
ByLayer
370
18
48
1
60
0
100
AcDbLine
10
-35.5
20
-3.969
30
0
11
0
21
-3.969
31
0
39
0
210
0
220
0
230
1
0
LINE
5
B8
100
AcDbEntity
8
SK2
62
256
6
ByLayer
370
18
48
1
60
0
100
AcDbLine
10
-43.75
20
3.969
30
0
11
-43.75
21
-27.301931
31
0
39
0
210
0
220
0
230
1
0
LINE
5
BA
100
AcDbEntity
8
SK2
62
256
6
ByLayer
370
18
48
1
60
0
100
AcDbLine
10
-37.0875
20
3.969
30
0
11
-45.75
21
3.969
31
0
39
0
210
0
220
0
230
1
0
LINE
5
BB
100
AcDbEntity
8
SK2
62
256
6
ByLayer
370
18
48
1
60
0
100
AcDbLine
10
-37.0875
20
-3.969
30
0
11
-45.75
21
-3.969
31
0
39
0
210
0
220
0
230
1
0
LINE
5
BC
100
AcDbEntity
8
1
62
256
6
ByLayer
370
18
48
1
60
1
100
AcDbLine
10
-43.75
20
3.969
30
0
11
-43.289216
21
0.469002
31
0
39
0
210
0
220
0
230
1
0
LINE
5
BD
100
AcDbEntity
8
1
62
256
6
ByLayer
370
18
48
1
60
1
100
AcDbLine
10
-43.289216
20
0.469002
30
0
11
-44.210784
21
0.468998
31
0
39
0
210
0
220
0
230
1
0
LINE
5
BE
100
AcDbEntity
8
1
62
256
6
ByLayer
370
18
48
1
60
1
100
AcDbLine
10
-44.210784
20
0.468998
30
0
11
-43.75
21
3.969
31
0
39
0
210
0
220
0
230
1
0
LINE
5
BF
100
AcDbEntity
8
1
62
256
6
ByLayer
370
18
48
1
60
1
100
AcDbLine
10
-43.75
20
-3.969
30
0
11
-44.210784
21
-0.469002
31
0
39
0
210
0
220
0
230
1
0
LINE
5
C0
100
AcDbEntity
8
1
62
256
6
ByLayer
370
18
48
1
60
1
100
AcDbLine
10
-44.210784
20
-0.469002
30
0
11
-43.289216
21
-0.468998
31
0
39
0
210
0
220
0
230
1
0
LINE
5
C1
100
AcDbEntity
8
1
62
256
6
ByLayer
370
18
48
1
60
1
100
AcDbLine
10
-43.289216
20
-0.468998
30
0
11
-43.75
21
-3.969
31
0
39
0
210
0
220
0
230
1
0
LINE
5
C2
100
AcDbEntity
8
2
62
256
6
ByLayer
370
18
48
1
60
0
100
AcDbLine
10
39.5
20
-3.9691
30
0
11
39.5
21
27.302031
31
0
39
0
210
0
220
0
230
1
0
LINE
5
C4
100
AcDbEntity
8
2
62
256
6
ByLayer
370
18
48
1
60
0
100
AcDbLine
10
25.749853
20
3.9691
30
0
11
41.5
21
3.9691
31
0
39
0
210
0
220
0
230
1
0
LINE
5
C5
100
AcDbEntity
8
2
62
256
6
ByLayer
370
18
48
1
60
0
100
AcDbLine
10
25.749853
20
-3.9691
30
0
11
41.5
21
-3.9691
31
0
39
0
210
0
220
0
230
1
0
LINE
5
C6
100
AcDbEntity
8
1
62
256
6
ByLayer
370
18
48
1
60
1
100
AcDbLine
10
39.5
20
3.9691
30
0
11
39.960784
21
0.469102
31
0
39
0
210
0
220
0
230
1
0
LINE
5
C7
100
AcDbEntity
8
1
62
256
6
ByLayer
370
18
48
1
60
1
100
AcDbLine
10
39.960784
20
0.469102
30
0
11
39.039216
21
0.469098
31
0
39
0
210
0
220
0
230
1
0
LINE
5
C8
100
AcDbEntity
8
1
62
256
6
ByLayer
370
18
48
1
60
1
100
AcDbLine
10
39.039216
20
0.469098
30
0
11
39.5
21
3.9691
31
0
39
0
210
0
220
0
230
1
0
LINE
5
C9
100
AcDbEntity
8
1
62
256
6
ByLayer
370
18
48
1
60
1
100
AcDbLine
10
39.5
20
-3.9691
30
0
11
39.039216
21
-0.469102
31
0
39
0
210
0
220
0
230
1
0
LINE
5
CA
100
AcDbEntity
8
1
62
256
6
ByLayer
370
18
48
1
60
1
100
AcDbLine
10
39.039216
20
-0.469102
30
0
11
39.960784
21
-0.469098
31
0
39
0
210
0
220
0
230
1
0
LINE
5
CB
100
AcDbEntity
8
1
62
256
6
ByLayer
370
18
48
1
60
1
100
AcDbLine
10
39.960784
20
-0.469098
30
0
11
39.5
21
-3.9691
31
0
39
0
210
0
220
0
230
1
0
LINE
5
CC
100
AcDbEntity
8
SK2
62
256
6
ByLayer
370
18
48
1
60
0
100
AcDbLine
10
27.5
20
-48.122763
30
0
11
-36
21
-48.122763
31
0
39
0
210
0
220
0
230
1
0
LINE
5
CD
100
AcDbEntity
8
SK2
62
256
6
ByLayer
370
18
48
1
60
0
100
AcDbLine
10
-36
20
-5.0565
30
0
11
-36
21
-50.122763
31
0
39
0
210
0
220
0
230
1
0
LINE
5
CE
100
AcDbEntity
8
SK2
62
256
6
ByLayer
370
18
48
1
60
0
100
AcDbLine
10
27.5
20
-1.5875
30
0
11
27.5
21
-50.122763
31
0
39
0
210
0
220
0
230
1
0
LINE
5
CF
100
AcDbEntity
8
1
62
256
6
ByLayer
370
18
48
1
60
1
100
AcDbLine
10
-36
20
-48.122763
30
0
11
-32.500002
21
-47.661979
31
0
39
0
210
0
220
0
230
1
0
LINE
5
D0
100
AcDbEntity
8
1
62
256
6
ByLayer
370
18
48
1
60
1
100
AcDbLine
10
-32.500002
20
-47.661979
30
0
11
-32.499998
21
-48.583547
31
0
39
0
210
0
220
0
230
1
0
LINE
5
D1
100
AcDbEntity
8
1
62
256
6
ByLayer
370
18
48
1
60
1
100
AcDbLine
10
-32.499998
20
-48.583547
30
0
11
-36
21
-48.122763
31
0
39
0
210
0
220
0
230
1
0
LINE
5
D2
100
AcDbEntity
8
1
62
256
6
ByLayer
370
18
48
1
60
1
100
AcDbLine
10
27.5
20
-48.122763
30
0
11
24.000002
21
-48.583547
31
0
39
0
210
0
220
0
230
1
0
LINE
5
D3
100
AcDbEntity
8
1
62
256
6
ByLayer
370
18
48
1
60
1
100
AcDbLine
10
24.000002
20
-48.583547
30
0
11
23.999998
21
-47.661979
31
0
39
0
210
0
220
0
230
1
0
LINE
5
D4
100
AcDbEntity
8
1
62
256
6
ByLayer
370
18
48
1
60
1
100
AcDbLine
10
23.999998
20
-47.661979
30
0
11
27.5
21
-48.122763
31
0
39
0
210
0
220
0
230
1
0
LINE
5
D5
100
AcDbEntity
8
SK2
62
256
6
ByLayer
370
13
48
1
60
0
100
AcDbLine
10
26.101755
20
-3.023935
30
0
11
37.563555
21
-16.506253
31
0
39
0
210
0
220
0
230
1
0
LINE
5
D6
100
AcDbEntity
8
1
62
256
6
ByLayer
370
18
48
1
60
1
100
AcDbLine
10
26.101755
20
-3.023935
30
0
11
28.719799
21
-5.392089
31
0
39
0
210
0
220
0
230
1
0
LINE
5
D7
100
AcDbEntity
8
1
62
256
6
ByLayer
370
18
48
1
60
1
100
AcDbLine
10
28.719799
20
-5.392089
30
0
11
28.01767
21
-5.988998
31
0
39
0
210
0
220
0
230
1
0
LINE
5
D8
100
AcDbEntity
8
1
62
256
6
ByLayer
370
18
48
1
60
1
100
AcDbLine
10
28.01767
20
-5.988998
30
0
11
26.101755
21
-3.023935
31
0
39
0
210
0
220
0
230
1
0
LINE
5
180
100
AcDbEntity
8
1
62
256
6
ByLayer
370
18
48
1
60
1
100
AcDbLine
10
-43.75
20
3.969
30
0
11
-43.289216
21
0.469002
31
0
39
0
210
0
220
0
230
1
0
LINE
5
181
100
AcDbEntity
8
1
62
256
6
ByLayer
370
18
48
1
60
1
100
AcDbLine
10
-43.289216
20
0.469002
30
0
11
-44.210784
21
0.468998
31
0
39
0
210
0
220
0
230
1
0
LINE
5
182
100
AcDbEntity
8
1
62
256
6
ByLayer
370
18
48
1
60
1
100
AcDbLine
10
-44.210784
20
0.468998
30
0
11
-43.75
21
3.969
31
0
39
0
210
0
220
0
230
1
0
LINE
5
184
100
AcDbEntity
8
1
62
256
6
ByLayer
370
18
48
1
60
1
100
AcDbLine
10
-43.75
20
-3.969
30
0
11
-44.210784
21
-0.469002
31
0
39
0
210
0
220
0
230
1
0
LINE
5
185
100
AcDbEntity
8
1
62
256
6
ByLayer
370
18
48
1
60
1
100
AcDbLine
10
-44.210784
20
-0.469002
30
0
11
-43.289216
21
-0.468998
31
0
39
0
210
0
220
0
230
1
0
LINE
5
186
100
AcDbEntity
8
1
62
256
6
ByLayer
370
18
48
1
60
1
100
AcDbLine
10
-43.289216
20
-0.468998
30
0
11
-43.75
21
-3.969
31
0
39
0
210
0
220
0
230
1
0
LINE
5
18A
100
AcDbEntity
8
1
62
256
6
ByLayer
370
18
48
1
60
1
100
AcDbLine
10
39.5
20
3.9691
30
0
11
39.960784
21
0.469102
31
0
39
0
210
0
220
0
230
1
0
LINE
5
18B
100
AcDbEntity
8
1
62
256
6
ByLayer
370
18
48
1
60
1
100
AcDbLine
10
39.960784
20
0.469102
30
0
11
39.039216
21
0.469098
31
0
39
0
210
0
220
0
230
1
0
LINE
5
18C
100
AcDbEntity
8
1
62
256
6
ByLayer
370
18
48
1
60
1
100
AcDbLine
10
39.039216
20
0.469098
30
0
11
39.5
21
3.9691
31
0
39
0
210
0
220
0
230
1
0
LINE
5
18E
100
AcDbEntity
8
1
62
256
6
ByLayer
370
18
48
1
60
1
100
AcDbLine
10
39.5
20
-3.9691
30
0
11
39.039216
21
-0.469102
31
0
39
0
210
0
220
0
230
1
0
LINE
5
18F
100
AcDbEntity
8
1
62
256
6
ByLayer
370
18
48
1
60
1
100
AcDbLine
10
39.039216
20
-0.469102
30
0
11
39.960784
21
-0.469098
31
0
39
0
210
0
220
0
230
1
0
LINE
5
190
100
AcDbEntity
8
1
62
256
6
ByLayer
370
18
48
1
60
1
100
AcDbLine
10
39.960784
20
-0.469098
30
0
11
39.5
21
-3.9691
31
0
39
0
210
0
220
0
230
1
0
LINE
5
193
100
AcDbEntity
8
1
62
256
6
ByLayer
370
18
48
1
60
1
100
AcDbLine
10
-36
20
-48.122763
30
0
11
-32.500002
21
-47.661979
31
0
39
0
210
0
220
0
230
1
0
LINE
5
194
100
AcDbEntity
8
1
62
256
6
ByLayer
370
18
48
1
60
1
100
AcDbLine
10
-32.500002
20
-47.661979
30
0
11
-32.499998
21
-48.583547
31
0
39
0
210
0
220
0
230
1
0
LINE
5
195
100
AcDbEntity
8
1
62
256
6
ByLayer
370
18
48
1
60
1
100
AcDbLine
10
-32.499998
20
-48.583547
30
0
11
-36
21
-48.122763
31
0
39
0
210
0
220
0
230
1
0
LINE
5
197
100
AcDbEntity
8
1
62
256
6
ByLayer
370
18
48
1
60
1
100
AcDbLine
10
27.5
20
-48.122763
30
0
11
24.000002
21
-48.583547
31
0
39
0
210
0
220
0
230
1
0
LINE
5
198
100
AcDbEntity
8
1
62
256
6
ByLayer
370
18
48
1
60
1
100
AcDbLine
10
24.000002
20
-48.583547
30
0
11
23.999998
21
-47.661979
31
0
39
0
210
0
220
0
230
1
0
LINE
5
199
100
AcDbEntity
8
1
62
256
6
ByLayer
370
18
48
1
60
1
100
AcDbLine
10
23.999998
20
-47.661979
30
0
11
27.5
21
-48.122763
31
0
39
0
210
0
220
0
230
1
0
LINE
5
19D
100
AcDbEntity
8
1
62
256
6
ByLayer
370
18
48
1
60
1
100
AcDbLine
10
26.101755
20
-3.023935
30
0
11
28.719799
21
-5.392089
31
0
39
0
210
0
220
0
230
1
0
LINE
5
19E
100
AcDbEntity
8
1
62
256
6
ByLayer
370
18
48
1
60
1
100
AcDbLine
10
28.719799
20
-5.392089
30
0
11
28.01767
21
-5.988998
31
0
39
0
210
0
220
0
230
1
0
LINE
5
19F
100
AcDbEntity
8
1
62
256
6
ByLayer
370
18
48
1
60
1
100
AcDbLine
10
28.01767
20
-5.988998
30
0
11
26.101755
21
-3.023935
31
0
39
0
210
0
220
0
230
1
0
MTEXT
5
17C
100
AcDbEntity
8
SK2
62
256
6
ByLayer
370
18
48
1
60
0
100
AcDbMText
10
-45.314634
20
-25.367088
30
0
210
0
220
0
230
1
1
%%c
40
3.5
41
0
44
1.084337
50
90
71
7
72
5
7
iso_b_vert
0
MTEXT
5
17F
100
AcDbEntity
8
SK2
62
256
6
ByLayer
370
18
48
1
60
0
100
AcDbMText
10
-45.314634
20
-18.394431
30
0
210
0
220
0
230
1
1
\W0.7528;7.94
40
3.5
41
0
44
1.084337
50
90
71
7
72
5
7
iso_b_vert
0
MTEXT
5
188
100
AcDbEntity
8
2
62
256
6
ByLayer
370
18
48
1
60
0
100
AcDbMText
10
37.935366
20
11.903944
30
0
210
0
220
0
230
1
1
%%c
40
3.5
41
0
44
1.084337
50
90
71
7
72
5
7
iso_b_vert
0
MTEXT
5
189
100
AcDbEntity
8
2
62
256
6
ByLayer
370
18
48
1
60
0
100
AcDbMText
10
37.935366
20
18.8766
30
0
210
0
220
0
230
1
1
\W0.7528;7.94
40
3.5
41
0
44
1.084337
50
90
71
7
72
5
7
iso_b_vert
0
MTEXT
5
192
100
AcDbEntity
8
SK2
62
256
6
ByLayer
370
18
48
1
60
0
100
AcDbMText
10
-8.171699
20
-47.090129
30
0
210
0
220
0
230
1
1
\W0.7346;63.5
40
3.5
41
0
44
1.084337
50
0
71
7
72
5
7
iso_b_vert
0
MTEXT
5
19B
100
AcDbEntity
8
SK2
62
256
6
ByLayer
370
18
48
1
60
0
100
AcDbMText
10
30.709116
20
-6.716671
30
0
210
0
220
0
230
1
1
\W0.6380;R
40
3.5
41
0
44
1.084337
50
310.369050266519
71
7
72
5
7
iso_b_vert
0
MTEXT
5
19C
100
AcDbEntity
8
SK2
62
256
6
ByLayer
370
18
48
1
60
0
100
AcDbMText
10
33.095274
20
-9.523468
30
0
210
0
220
0
230
1
1
\W0.7346;3.97
40
3.5
41
0
44
1.084337
50
310.369050266519
71
7
72
5
7
iso_b_vert
0
MTEXT
5
1A1
100
AcDbEntity
8
SK6
62
256
6
ByLayer
370
18
48
1
60
0
100
AcDbMText
10
-30.125796
20
-62.112542
30
0
210
0
220
0
230
1
1
\W0.7455;2B256-0794-TA       T2CH
40
3
41
0
44
1.084337
50
0
71
7
72
5
7
iso_b_vert
0
HATCH
5
183
100
AcDbEntity
8
SK2
62
256
6
ByLayer
370
13
48
1
60
0
100
AcDbHatch
10
0
20
0
30
0
210
0
220
0
230
1
2
ANSI31
70
0
71
0
91
1
92
5
93
3
72
1
10
-43.75
20
3.96899999999997
11
-43.2892162584472
21
0.46900169255315
72
1
10
-43.2892162584472
20
0.46900169255315
11
-44.2107837415528
21
0.468998307446782
72
1
10
-44.2107837415528
20
0.468998307446782
11
-43.75
21
3.96899999999997
97
0
75
0
76
1
52
0
41
0.0062
77
0
78
1
53
45
43
0
44
0
45
-0.0139193969876572
46
0.0139193969876572
79
0
47
0
98
1
10
0
20
0
0
HATCH
5
187
100
AcDbEntity
8
SK2
62
256
6
ByLayer
370
13
48
1
60
0
100
AcDbHatch
10
0
20
0
30
0
210
0
220
0
230
1
2
ANSI31
70
0
71
0
91
1
92
5
93
3
72
1
10
-43.75
20
-3.96900000000005
11
-44.2107837415528
21
-0.469001692553235
72
1
10
-44.2107837415528
20
-0.469001692553235
11
-43.2892162584472
21
-0.468998307446867
72
1
10
-43.2892162584472
20
-0.468998307446867
11
-43.75
21
-3.96900000000005
97
0
75
0
76
1
52
0
41
0.0062
77
0
78
1
53
45
43
0
44
0
45
-0.0139193969876572
46
0.0139193969876572
79
0
47
0
98
1
10
0
20
0
0
HATCH
5
18D
100
AcDbEntity
8
2
62
256
6
ByLayer
370
13
48
1
60
0
100
AcDbHatch
10
0
20
0
30
0
210
0
220
0
230
1
2
ANSI31
70
0
71
0
91
1
92
5
93
3
72
1
10
39.5
20
3.96909999999991
11
39.9607837415528
21
0.469101692553096
72
1
10
39.9607837415528
20
0.469101692553096
11
39.0392162584472
21
0.469098307446728
72
1
10
39.0392162584472
20
0.469098307446728
11
39.5
21
3.96909999999991
97
0
75
0
76
1
52
0
41
0.0062
77
0
78
1
53
45
43
0
44
0
45
-0.0139193969876572
46
0.0139193969876572
79
0
47
0
98
1
10
0
20
0
0
HATCH
5
191
100
AcDbEntity
8
2
62
256
6
ByLayer
370
13
48
1
60
0
100
AcDbHatch
10
0
20
0
30
0
210
0
220
0
230
1
2
ANSI31
70
0
71
0
91
1
92
5
93
3
72
1
10
39.5
20
-3.96910000000008
11
39.0392162584472
21
-0.469101692553267
72
1
10
39.0392162584472
20
-0.469101692553267
11
39.9607837415528
21
-0.469098307446899
72
1
10
39.9607837415528
20
-0.469098307446899
11
39.5
21
-3.96910000000008
97
0
75
0
76
1
52
0
41
0.0062
77
0
78
1
53
45
43
0
44
0
45
-0.0139193969876572
46
0.0139193969876572
79
0
47
0
98
1
10
0
20
0
0
HATCH
5
196
100
AcDbEntity
8
SK2
62
256
6
ByLayer
370
13
48
1
60
0
100
AcDbHatch
10
0
20
0
30
0
210
0
220
0
230
1
2
ANSI31
70
0
71
0
91
1
92
5
93
3
72
1
10
-36
20
-48.1227627757712
11
-32.5000016925532
21
-47.6619790342184
72
1
10
-32.5000016925532
20
-47.6619790342184
11
-32.4999983074468
21
-48.5835465173239
72
1
10
-32.4999983074468
20
-48.5835465173239
11
-36
21
-48.1227627757712
97
0
75
0
76
1
52
0
41
0.0062
77
0
78
1
53
45
43
0
44
0
45
-0.0139193969876572
46
0.0139193969876572
79
0
47
0
98
1
10
0
20
0
0
HATCH
5
19A
100
AcDbEntity
8
SK2
62
256
6
ByLayer
370
13
48
1
60
0
100
AcDbHatch
10
0
20
0
30
0
210
0
220
0
230
1
2
ANSI31
70
0
71
0
91
1
92
5
93
3
72
1
10
27.5
20
-48.1227627757712
11
24.0000016925532
21
-48.5835465173239
72
1
10
24.0000016925532
20
-48.5835465173239
11
23.9999983074468
21
-47.6619790342184
72
1
10
23.9999983074468
20
-47.6619790342184
11
27.5
21
-48.1227627757712
97
0
75
0
76
1
52
0
41
0.0062
77
0
78
1
53
45
43
0
44
0
45
-0.0139193969876572
46
0.0139193969876572
79
0
47
0
98
1
10
0
20
0
0
HATCH
5
1A0
100
AcDbEntity
8
SK2
62
256
6
ByLayer
370
13
48
1
60
0
100
AcDbHatch
10
0
20
0
30
0
210
0
220
0
230
1
2
ANSI31
70
0
71
0
91
1
92
5
93
3
72
1
10
26.1017548093136
20
-3.02393464056212
11
28.719799001641
21
-5.39208886181348
72
1
10
28.719799001641
20
-5.39208886181348
11
28.0176697163046
21
-5.98899848026673
72
1
10
28.0176697163046
20
-5.98899848026673
11
26.1017548093136
21
-3.02393464056212
97
0
75
0
76
1
52
0
41
0.0062
77
0
78
1
53
45
43
0
44
0
45
-0.0139193969876572
46
0.0139193969876572
79
0
47
0
98
1
10
0
20
0
0
DIMENSION
5
1A4
100
AcDbEntity
8
SK2
62
256
6
ByLayer
370
18
48
1
60
0
100
AcDbDimension
2
_U0
10
0
20
-38.122763
30
0
11
13.75
21
-38.122763
31
0
70
32
71
1
72
1
41
1
210
0
220
0
230
1
3
Standard
100
AcDbAlignedDimension
13
27.5
23
0
33
0
14
0
24
0
34
0
50
0
100
AcDbRotatedDimension
1001
ACAD
1000
DSTYLE
1002
{
1070
   371
1070
    13
1070
   372
1070
    13
1070
   170
1070
     0
1070
   144
1040
1.0
1070
   277
1070
     2
1070
   284
1070
     8
1070
   278
1070
    46
1070
   146
1040
1.0
1070
   345
1005
16
1070
   347
1005
16
1070
   346
1005
16
1070
   344
1005
0
1070
   343
1005
0
1070
   172
1070
     1
1070
    76
1070
     0
1070
    75
1070
     0
1070
   282
1070
     0
1070
   281
1070
     0
1070
    71
1070
     0
1070
    74
1070
     0
1070
   279
1070
     0
1070
   173
1070
     1
1070
   340
1005
17D
1070
   271
1070
     2
1070
   272
1070
     2
1070
    77
1070
     1
1070
    73
1070
     1
1070
   171
1070
     3
1070
   274
1070
     4
1070
   177
1070
     2
1070
   176
1070
     2
1070
   178
1070
     2
1070
    78
1070
     8
1070
    48
1040
-0.1
1070
    41
1040
3.5
1070
   147
1040
1.75
1070
    42
1040
1.5875
1070
    44
1040
2.0
1070
   140
1040
3.5
1002
}
1001
ACAD_DSTYLE_DIM_LINETYPE
1070
   380
1005
16
1001
ACAD_DSTYLE_DIM_EXT1_LINETYPE
1070
   381
1005
16
1001
ACAD_DSTYLE_DIM_EXT2_LINETYPE
1070
   382
1005
16
0
DIMENSION
5
1BD
100
AcDbEntity
8
2
62
256
6
ByLayer
370
18
48
1
60
0
100
AcDbDimension
2
_U1
10
15.592
20
-21.622763
30
0
11
46
21
-21.622763
31
0
70
32
71
1
72
1
41
1
210
0
220
0
230
1
3
Standard
100
AcDbAlignedDimension
13
27.5
23
0
33
0
14
15.592
24
0
34
0
50
0
100
AcDbRotatedDimension
1001
ACAD
1000
DSTYLE
1002
{
1070
   371
1070
    13
1070
   372
1070
    13
1070
   170
1070
     0
1070
   144
1040
1.0
1070
   277
1070
     2
1070
   284
1070
     8
1070
   278
1070
    46
1070
   146
1040
1.0
1070
   345
1005
16
1070
   347
1005
16
1070
   346
1005
16
1070
   344
1005
0
1070
   343
1005
0
1070
   172
1070
     1
1070
    76
1070
     0
1070
    75
1070
     0
1070
   282
1070
     0
1070
   281
1070
     0
1070
    71
1070
     0
1070
    74
1070
     0
1070
   279
1070
     0
1070
   173
1070
     1
1070
   340
1005
17D
1070
   271
1070
     2
1070
   272
1070
     2
1070
    77
1070
     1
1070
    73
1070
     1
1070
   171
1070
     3
1070
   274
1070
     4
1070
   177
1070
     2
1070
   176
1070
     2
1070
   178
1070
     2
1070
    78
1070
     8
1070
    48
1040
-0.1
1070
    41
1040
3.5
1070
   147
1040
1.75
1070
    42
1040
1.5875
1070
    44
1040
2.0
1070
   140
1040
3.5
1002
}
1001
ACAD_DSTYLE_DIM_LINETYPE
1070
   380
1005
16
1001
ACAD_DSTYLE_DIM_EXT1_LINETYPE
1070
   381
1005
16
1001
ACAD_DSTYLE_DIM_EXT2_LINETYPE
1070
   382
1005
16
0
ENDSEC
0
SECTION
2
OBJECTS
0
DICTIONARY
5
247
330
0
100
AcDbDictionary
280
0
281
1
3
ACAD_GROUP
350
248
3
ACAD_MLINESTYLE
350
249
0
DICTIONARY
5
248
330
0
100
AcDbDictionary
280
0
281
1
0
DICTIONARY
5
249
330
0
100
AcDbDictionary
280
0
281
1
3
Standard
350
18
0
MLINESTYLE
5
18
330
249
100
AcDbMlineStyle
2
Standard
70
0
3

62
256
51
90
52
90
71
2
49
-0.5
62
256
6
ByLayer
49
0.5
62
256
6
ByLayer
0
RASTERVARIABLES
5
235
330

100
AcDbRasterVariables
90
0
70
1
71
1
72
1
0
ENDSEC
0
EOF
